  0
SECTION
  2
HEADER
  9
$ACADVER
  1
AC1014
  9
$ACADMAINTVER
 70
     9
  9
$DWGCODEPAGE
  3
ANSI_1252
  9
$INSBASE
 10
4855.477491
 20
-3045.141979
 30
0.0
  9
$EXTMIN
 10
4855.477491
 20
-3045.141979
 30
0.0
  9
$EXTMAX
 10
8943.477491
 20
-175.141979
 30
0.0
  9
$LIMMIN
 10
4732.668136
 20
-3131.505763
  9
$LIMMAX
 10
9066.716586
 20
-88.621271
  9
$ORTHOMODE
 70
     0
  9
$REGENMODE
 70
     1
  9
$FILLMODE
 70
     1
  9
$QTEXTMODE
 70
     0
  9
$MIRRTEXT
 70
     0
  9
$DRAGMODE
 70
     2
  9
$LTSCALE
 40
7.0
  9
$OSMODE
 70
     0
  9
$ATTMODE
 70
     1
  9
$TEXTSIZE
 40
50.0
  9
$TRACEWID
 40
1.0
  9
$TEXTSTYLE
  7
STANDARD
  9
$CLAYER
  8
AM_0
  9
$CELTYPE
  6
BYLAYER
  9
$CECOLOR
 62
   256
  9
$CELTSCALE
 40
1.0
  9
$DELOBJ
 70
     1
  9
$DISPSILH
 70
     0
  9
$DIMSCALE
 40
7.0
  9
$DIMASZ
 40
2.5
  9
$DIMEXO
 40
0.0
  9
$DIMDLI
 40
10.0
  9
$DIMRND
 40
0.0
  9
$DIMDLE
 40
0.0
  9
$DIMEXE
 40
1.0
  9
$DIMTP
 40
0.1
  9
$DIMTM
 40
0.1
  9
$DIMTXT
 40
3.0
  9
$DIMCEN
 40
0.0
  9
$DIMTSZ
 40
0.0
  9
$DIMTOL
 70
     0
  9
$DIMLIM
 70
     0
  9
$DIMTIH
 70
     0
  9
$DIMTOH
 70
     0
  9
$DIMSE1
 70
     0
  9
$DIMSE2
 70
     0
  9
$DIMTAD
 70
     1
  9
$DIMZIN
 70
     8
  9
$DIMBLK
  1

  9
$DIMASO
 70
     1
  9
$DIMSHO
 70
     1
  9
$DIMPOST
  1

  9
$DIMAPOST
  1
"
  9
$DIMALT
 70
     0
  9
$DIMALTD
 70
     2
  9
$DIMALTF
 40
0.03937
  9
$DIMLFAC
 40
1.0
  9
$DIMTOFL
 70
     1
  9
$DIMTVP
 40
0.0
  9
$DIMTIX
 70
     0
  9
$DIMSOXD
 70
     0
  9
$DIMSAH
 70
     0
  9
$DIMBLK1
  1

  9
$DIMBLK2
  1

  9
$DIMSTYLE
  2
AM_DIN
  9
$DIMCLRD
 70
   256
  9
$DIMCLRE
 70
   256
  9
$DIMCLRT
 70
     2
  9
$DIMTFAC
 40
0.71
  9
$DIMGAP
 40
0.7
  9
$DIMJUST
 70
     0
  9
$DIMSD1
 70
     0
  9
$DIMSD2
 70
     0
  9
$DIMTOLJ
 70
     0
  9
$DIMTZIN
 70
     8
  9
$DIMALTZ
 70
     0
  9
$DIMALTTZ
 70
     0
  9
$DIMFIT
 70
     3
  9
$DIMUPT
 70
     0
  9
$DIMUNIT
 70
     2
  9
$DIMDEC
 70
     2
  9
$DIMTDEC
 70
     2
  9
$DIMALTU
 70
     2
  9
$DIMALTTD
 70
     2
  9
$DIMTXSTY
  7
STANDARD
  9
$DIMAUNIT
 70
     0
  9
$LUNITS
 70
     2
  9
$LUPREC
 70
     2
  9
$SKETCHINC
 40
1.0
  9
$FILLETRAD
 40
35.0
  9
$AUNITS
 70
     0
  9
$AUPREC
 70
     0
  9
$MENU
  1
.
  9
$ELEVATION
 40
0.0
  9
$PELEVATION
 40
0.0
  9
$THICKNESS
 40
0.0
  9
$LIMCHECK
 70
     0
  9
$BLIPMODE
 70
     0
  9
$CHAMFERA
 40
17.5
  9
$CHAMFERB
 40
17.5
  9
$CHAMFERC
 40
20.0
  9
$CHAMFERD
 40
0.0
  9
$SKPOLY
 70
     0
  9
$TDCREATE
 40
2452896.394699433
  9
$TDUPDATE
 40
2452900.691014896
  9
$TDINDWG
 40
0.9204931829
  9
$TDUSRTIMER
 40
0.9204423611
  9
$USRTIMER
 70
     1
  9
$ANGBASE
 50
0.0
  9
$ANGDIR
 70
     0
  9
$PDMODE
 70
     0
  9
$PDSIZE
 40
0.0
  9
$PLINEWID
 40
0.0
  9
$COORDS
 70
     2
  9
$SPLFRAME
 70
     0
  9
$SPLINETYPE
 70
     6
  9
$SPLINESEGS
 70
     8
  9
$ATTDIA
 70
     1
  9
$ATTREQ
 70
     0
  9
$HANDLING
 70
     1
  9
$HANDSEED
  5
66F
  9
$SURFTAB1
 70
     6
  9
$SURFTAB2
 70
     6
  9
$SURFTYPE
 70
     6
  9
$SURFU
 70
     6
  9
$SURFV
 70
     6
  9
$UCSNAME
  2

  9
$UCSORG
 10
0.0
 20
0.0
 30
0.0
  9
$UCSXDIR
 10
1.0
 20
0.0
 30
0.0
  9
$UCSYDIR
 10
0.0
 20
1.0
 30
0.0
  9
$PUCSNAME
  2

  9
$PUCSORG
 10
0.0
 20
0.0
 30
0.0
  9
$PUCSXDIR
 10
1.0
 20
0.0
 30
0.0
  9
$PUCSYDIR
 10
0.0
 20
1.0
 30
0.0
  9
$USERI1
 70
     0
  9
$USERI2
 70
     0
  9
$USERI3
 70
     0
  9
$USERI4
 70
     0
  9
$USERI5
 70
     0
  9
$USERR1
 40
0.0
  9
$USERR2
 40
0.0
  9
$USERR3
 40
0.0
  9
$USERR4
 40
0.0
  9
$USERR5
 40
0.0
  9
$WORLDVIEW
 70
     1
  9
$SHADEDGE
 70
     3
  9
$SHADEDIF
 70
    70
  9
$TILEMODE
 70
     1
  9
$MAXACTVP
 70
    48
  9
$PINSBASE
 10
0.0
 20
0.0
 30
0.0
  9
$PLIMCHECK
 70
     0
  9
$PEXTMIN
 10
1.000000E+20
 20
1.000000E+20
 30
1.000000E+20
  9
$PEXTMAX
 10
-1.000000E+20
 20
-1.000000E+20
 30
-1.000000E+20
  9
$PLIMMIN
 10
0.0
 20
0.0
  9
$PLIMMAX
 10
420.0
 20
297.0
  9
$UNITMODE
 70
     0
  9
$VISRETAIN
 70
     1
  9
$PLINEGEN
 70
     0
  9
$PSLTSCALE
 70
     1
  9
$TREEDEPTH
 70
  3020
  9
$PICKSTYLE
 70
     0
  9
$CMLSTYLE
  2
STANDARD
  9
$CMLJUST
 70
     0
  9
$CMLSCALE
 40
20.0
  9
$PROXYGRAPHICS
 70
     1
  9
$MEASUREMENT
 70
     1
  0
ENDSEC
  0
SECTION
  2
CLASSES
  0
CLASS
  1
ACDBDICTIONARYWDFLT
  2
AcDbDictionaryWithDefault
  3
AutoCAD 2000
 90
        0
280
     0
281
     0
  0
CLASS
  1
ACDBPLACEHOLDER
  2
AcDbPlaceHolder
  3
AutoCAD 2000
 90
        0
280
     0
281
     0
  0
CLASS
  1
LAYOUT
  2
AcDbLayout
  3
AutoCAD 2000
 90
        0
280
     0
281
     0
  0
CLASS
  1
AMGSETTINGSOBJ
  2
AmgSettingsObj
  3
"AcadM|Product Description: AutoCAD Mechanical 2000|Company: Autodesk"
 90
        0
280
     0
281
     0
  0
CLASS
  1
ACME_DOCUMENT
  2
AcMeDbDoc
  3
AcMeServices
 90
        0
280
     0
281
     0
  0
CLASS
  1
ACMESCOPE
  2
AcMeScope
  3
AcMeServices
 90
        0
280
     0
281
     0
  0
CLASS
  1
ACMECOMMANDHISTORY
  2
AcMeCommandHistory
  3
AcMeServices
 90
        0
280
     0
281
     0
  0
CLASS
  1
DICTIONARYVAR
  2
AcDbDictionaryVar
  3
"AutoCAD"
 90
        0
280
     0
281
     0
  0
CLASS
  1
ACIMSYSVARMAN
  2
AcImSysVarManager
  3
AcMeServices
 90
        0
280
     0
281
     0
  0
CLASS
  1
ACIMREALSYSVAR
  2
AcImRealSysVar
  3
AcMeServices
 90
        0
280
     0
281
     0
  0
CLASS
  1
ACIMINTSYSVAR
  2
AcImIntSysVar
  3
AcMeServices
 90
        0
280
     0
281
     0
  0
CLASS
  1
ACMEDRAWINGMAN
  2
AcMeDrawingMan
  3
AcMeServices
 90
        0
280
     0
281
     0
  0
CLASS
  1
ACMEVIEW
  2
AcMeView
  3
AcMeServices
 90
        0
280
     0
281
     0
  0
CLASS
  1
ACDBENTITYCACHE
  2
AcMeEntityCache
  3
AcMeServices
 90
        0
280
     0
281
     0
  0
CLASS
  1
GSMANAGER
  2
AcMeGSManager
  3
AcMeServices
 90
        0
280
     0
281
     0
  0
CLASS
  1
AMDTINTERNALREACTOR
  2
AmdtInternalReactor
  3
AcMeServices
 90
        0
280
     0
281
     0
  0
CLASS
  1
ACMESTATEMGR
  2
AcMeStateMgr
  3
AcMeServices
 90
        0
280
     0
281
     0
  0
CLASS
  1
ACGREFMASTER
  2
AcGrefMaster
  3
AcAttribServices
 90
        0
280
     0
281
     0
  0
CLASS
  1
ACME_DATABASE
  2
AcMeDbDatabase
  3
AcMeServices
 90
        0
280
     0
281
     0
  0
CLASS
  1
ACRFINSADJUSTERMGR
  2
AcRfInsAdjusterMgr
  3
AcMeServices
 90
        0
280
     0
281
     0
  0
CLASS
  1
ACGREFACADMASTER
  2
AcGrefacadMaster
  3
AcGrefServices
 90
        0
280
     0
281
     0
  0
CLASS
  1
AMIMASTER
  2
AmiMaster
  3
AmiServices
 90
        0
280
     0
281
     0
  0
CLASS
  1
ACIMSTRSYSVAR
  2
AcImStrSysVar
  3
AcMeServices
 90
        0
280
     0
281
     0
  0
CLASS
  1
ACMSTANDARDDIN
  2
AcmStandardDIN
  3
"Amdt_StdImp|Product Description: AutoCAD Mechanical 2000|Company: Autodesk"
 90
        0
280
     0
281
     0
  0
CLASS
  1
AMGOBJPROPCFG
  2
AmgObjPropCfg
  3
"AmgLay|Product Description: AutoCAD Mechanical 2000|Company: Autodesk"
 90
        1
280
     0
281
     0
  0
CLASS
  1
AMDTEDGESTANDARDDIN
  2
AmdtEdgeStdDIN
  3
"Amdt_StdImp|Product Description: AutoCAD Mechanical 2000|Company: Autodesk"
 90
        0
280
     0
281
     0
  0
CLASS
  1
ACMSURFSTANDARDDIN
  2
AcmSurfTextStdDIN
  3
"Amdt_StdImp|Product Description: AutoCAD Mechanical 2000|Company: Autodesk"
 90
        0
280
     0
281
     0
  0
CLASS
  1
ACMFCFSTANDARDDIN
  2
AcmFCFStdDIN
  3
"Amdt_StdImp|Product Description: AutoCAD Mechanical 2000|Company: Autodesk"
 90
        0
280
     0
281
     0
  0
CLASS
  1
ACMWELDSTANDARDDIN
  2
AcmWeldingStdDIN
  3
"Amdt_StdImp|Product Description: AutoCAD Mechanical 2000|Company: Autodesk"
 90
        0
280
     0
281
     0
  0
CLASS
  1
ACMIDSTANDARDDIN
  2
AcmIdStdDIN
  3
"Amdt_StdImp|Product Description: AutoCAD Mechanical 2000|Company: Autodesk"
 90
        0
280
     0
281
     0
  0
CLASS
  1
ACMDATUMSTANDARDDIN
  2
AcmDatumStdDIN
  3
"Amdt_StdImp|Product Description: AutoCAD Mechanical 2000|Company: Autodesk"
 90
        0
280
     0
281
     0
  0
CLASS
  1
ACMBOMSTANDARDDIN
  2
AcmBOMStdDIN
  3
"Amdt_StdImp|Product Description: AutoCAD Mechanical 2000|Company: Autodesk"
 90
        0
280
     0
281
     0
  0
CLASS
  1
ACMDETAILSTANDARDDIN
  2
AmdtDetailSymStdDIN
  3
"Amdt_StdImp|Product Description: AutoCAD Mechanical 2000|Company: Autodesk"
 90
        0
280
     0
281
     0
  0
CLASS
  1
ACMSECTIONSTANDARDDIN
  2
AmdtSectionSymStdDIN
  3
"Amdt_StdImp|Product Description: AutoCAD Mechanical 2000|Company: Autodesk"
 90
        0
280
     0
281
     0
  0
CLASS
  1
ACMCENTERLINESTANDARDDIN
  2
AmdtCenterLineStdDIN
  3
"Amdt_StdImp|Product Description: AutoCAD Mechanical 2000|Company: Autodesk"
 90
        0
280
     0
281
     0
  0
CLASS
  1
ACMTHREADLINESTANDARDDIN
  2
AmdtThreadLineStdDIN
  3
"Amdt_StdImp|Product Description: AutoCAD Mechanical 2000|Company: Autodesk"
 90
        0
280
     0
281
     0
  0
CLASS
  1
ACAMGLAYSTD
  2
AcAmgLayStd
  3
"AcAmgLayStd|Product Description: AutoCAD Mechanical 2000|Company: Autodesk"
 90
        0
280
     0
281
     0
  0
CLASS
  1
ACAMGDIMSTD
  2
AcAmgDimStd
  3
"AcAmgDimStd|Product Description: AutoCAD Mechanical 2000|Company: Autodesk"
 90
        0
280
     0
281
     0
  0
CLASS
  1
ACAMGTITLESTD
  2
AcAmgTitleStd
  3
"TITLEAPP"
 90
        0
280
     0
281
     0
  0
CLASS
  1
ACMDATADICTIONARY
  2
AcmDataDictionary
  3
"AcmSymBB|Product Description: AutoCAD Mechanical 2000|Company: Autodesk"
 90
        0
280
     0
281
     0
  0
CLASS
  1
ACMDATAENTRYBLOCK
  2
AcmDataEntryBlock
  3
"AcmSymBB|Product Description: AutoCAD Mechanical 2000|Company: Autodesk"
 90
        0
280
     0
281
     0
  0
CLASS
  1
LAYER_INDEX
  2
AcDbLayerIndex
  3
"Acad"
 90
        0
280
     0
281
     0
  0
CLASS
  1
IDBUFFER
  2
AcDbIdBuffer
  3
"Acad"
 90
        0
280
     0
281
     0
  0
CLASS
  1
AM_DRAWING_MGR
  2
AcDmDwgMgr
  3
AcMechDwgViewMgmt
 90
        0
280
     1
281
     0
  0
CLASS
  1
AM_DWG_DOCUMENT
  2
AcDmDwgDocument
  3
AcMechDwgViewMgmt
 90
        0
280
     1
281
     0
  0
CLASS
  1
AM_DWG_SHEET
  2
AcDmSheet
  3
AcMechDwgViewMgmt
 90
        0
280
     1
281
     0
  0
CLASS
  1
AM_VIEWDIMPARMAP
  2
AcDmViewDimParMap
  3
AcMechDwgViewMgmt
 90
        0
280
     1
281
     0
  0
CLASS
  1
AM_DWGMGR_NAME
  2
AcDmDwgMgrName
  3
AcMechDwgViewMgmt
 90
        0
280
     1
281
     0
  0
CLASS
  1
AMDTMENUSTATEMGR
  2
AmdtMenuStateMgr
  3
McadcomServices
 90
        0
280
     1
281
     0
  0
CLASS
  1
AMDTMCOMMENUSTATE
  2
AmdtMcomMenuState
  3
McadcomServices
 90
        0
280
     1
281
     0
  0
CLASS
  1
ASAPP
  2
AcAsAppObject
  3
AutoSurfServices
 90
        0
280
     1
281
     0
  0
CLASS
  1
IM_STATIC_MAN
  2
AcImStaticVarManager
  3
AcMeServices
 90
        0
280
     0
281
     0
  0
CLASS
  1
ACIMDBLSTATICVAR
  2
AcImDblStaticVar
  3
AcMeServices
 90
        0
280
     0
281
     0
  0
CLASS
  1
ACIMSTRSTATICVAR
  2
AcImStrStaticVar
  3
AcMeServices
 90
        0
280
     0
281
     0
  0
CLASS
  1
ACIMINTSTATICVAR
  2
AcImIntStaticVar
  3
AcMeServices
 90
        0
280
     0
281
     0
  0
CLASS
  1
ACASGREFMASTER
  2
AcAsGrefMaster
  3
AutoSurfResolverServices
 90
        0
280
     1
281
     0
  0
CLASS
  1
ACADGREFMODULE
  2
AcAdGrefModule
  3
AdGrefServices
 90
        0
280
     1
281
     0
  0
CLASS
  1
AMDTMAPISURFMOUDULE
  2
AmdtMApiSurfModule
  3
MApiSurfServices
 90
        0
280
     1
281
     0
  0
CLASS
  1
MAPIAMMOUDLE
  2
MApiAmModule
  3
MApiAmServices
 90
        0
280
     1
281
     0
  0
CLASS
  1
AMDTADMENUSTATE
  2
AmdtAdMenuState
  3
DesignerServices
 90
        0
280
     1
281
     0
  0
CLASS
  1
ADAPPL
  2
AcAdAppl
  3
DesignerServices
 90
        0
280
     1
281
     0
  0
CLASS
  1
DEPMGR
  2
AcAdDepMgr
  3
DesignerServices
 90
        0
280
     1
281
     0
  0
CLASS
  1
PARAMMGR
  2
AcAdParamMgr
  3
DesignerServices
 90
        0
280
     1
281
     0
  0
CLASS
  1
PARAMSCOPE
  2
AcAdParamScope
  3
DesignerServices
 90
        0
280
     1
281
     0
  0
CLASS
  1
NAMEDAPPL
  2
AcAdNamedAppl
  3
DesignerServices
 90
        0
280
     1
281
     0
  0
CLASS
  1
ADHNTMPLT
  2
AdHoleNoteTemplateMgr
  3
DesignerServices
 90
        0
280
     1
281
     0
  0
CLASS
  1
AM_HNTEMPLATE_MGR_NAME
  2
AdHoleNoteTemplateMgrName
  3
DesignerServices
 90
        0
280
     1
281
     0
  0
CLASS
  1
AMDTDMMENUSTATE
  2
AmdtDmMenuState
  3
AcMechDwgViewMgmt
 90
        0
280
     1
281
     0
  0
CLASS
  1
MAPIADMODULE
  2
MApiAdModule
  3
MApiAdServices
 90
        0
280
     1
281
     0
  0
CLASS
  1
AMDTAMMENUSTATE
  2
AmdtAmMenuState
  3
DesignerAssemblies
 90
        0
280
     1
281
     0
  0
CLASS
  1
ACAMPROJECT
  2
AcAmProject
  3
DesignerAssemblies
 90
        0
280
     1
281
     0
  0
CLASS
  1
ACAMGRCOMPDEF
  2
AcAmGrCompDef
  3
DesignerAssemblies
 90
        0
280
     1
281
     0
  0
CLASS
  1
ACCMCONTEXT
  2
AcCmContext
  3
DesignerAssemblies
 90
        0
280
     1
281
     0
  0
CLASS
  1
ACAMCOMPDEF
  2
AcAmCompDef
  3
DesignerAssemblies
 90
        0
280
     1
281
     0
  0
CLASS
  1
ACAMCOMPDEFMGR
  2
AcAmCompDefMgr
  3
DesignerAssemblies
 90
        0
280
     1
281
     0
  0
CLASS
  1
AMCONTEXTMGR
  2
AcAmContextMgr
  3
DesignerAssemblies
 90
        0
280
     1
281
     0
  0
CLASS
  1
ACAMCONTEXTMODELER
  2
AcAmContextModeler
  3
DesignerAssemblies
 90
        0
280
     1
281
     0
  0
CLASS
  1
CATALOGSTATE
  2
AcAmCatalogState
  3
DesignerAssemblies
 90
        0
280
     1
281
     0
  0
CLASS
  1
ACAMGRCOMPDEFSET
  2
AcAmGrCompDefSet
  3
DesignerAssemblies
 90
        0
280
     1
281
     0
  0
CLASS
  1
AMDTBROWSERDBTAB
  2
AmdtBrowserDbTab
  3
McadcomServices
 90
        0
280
     1
281
     0
  0
CLASS
  1
CBROWSERAPPOBJECT
  2
CBrowserAppObject
  3
McadcomServices
 90
        0
280
     1
281
     0
  0
CLASS
  1
DM_PLACEHOLDER
  2
AcDmSelsetPlaceholder
  3
AcMechDwgViewMgmt
 90
        0
280
     1
281
     0
  0
CLASS
  1
ACAMGFILTERDAT
  2
AcAmgFilterDat
  3
"AcadM|Product Description: AutoCAD Mechanical 2000|Company: Autodesk"
 90
        0
280
     0
281
     0
  0
CLASS
  1
AMDTFORMULAUPDATEDISPATCHER
  2
AmdtFormulaUpdateDispatcher
  3
AcMeServices
 90
        0
280
     0
281
     0
  0
CLASS
  1
ACMNOTESTANDARDDIN
  2
AmdtNoteStdDIN
  3
"Amdt_StdImp|Product Description: AutoCAD Mechanical 2000|Company: Autodesk"
 90
        0
280
     0
281
     0
  0
CLASS
  1
ACAMGHOLECHARTSTDDIN
  2
AcAmgHoleChartStdDIN
  3
ACMSYMBB_MODULE_NAME
 90
        0
280
     0
281
     0
  0
CLASS
  1
AMDTNOTE
  2
AmdtNote
  3
"AcmSymBB|Product Description: AutoCAD Mechanical 2000|Company: Autodesk"
 90
     1023
280
     0
281
     1
  0
CLASS
  1
ACMPARTREF
  2
AcmPartRef
  3
"AcmSymBB|Product Description: AutoCAD Mechanical 2000|Company: Autodesk"
 90
     1023
280
     0
281
     1
  0
CLASS
  1
ACDBLINERES
  2
AcDbLineRes
  3
AcGrefServices
 90
        0
280
     0
281
     0
  0
CLASS
  1
ACRFINSADJ
  2
AcRfInsAdjuster
  3
AcMeServices
 90
        0
280
     0
281
     0
  0
CLASS
  1
ACMDATAENTRYPART
  2
AcmDataEntryPart
  3
"AcmSymBB|Product Description: AutoCAD Mechanical 2000|Company: Autodesk"
 90
        0
280
     0
281
     0
  0
CLASS
  1
ACMPICKOBJ
  2
AcmPickEnt
  3
"AcmSymBB|Product Description: AutoCAD Mechanical 2000|Company: Autodesk"
 90
        0
280
     0
281
     1
  0
CLASS
  1
ACMDATAENTRY
  2
AcmDataEntry
  3
"AcmSymBB|Product Description: AutoCAD Mechanical 2000|Company: Autodesk"
 90
        0
280
     0
281
     0
  0
CLASS
  1
ACMBOM
  2
AcmBom
  3
"AcmSymBB|Product Description: AutoCAD Mechanical 2000|Company: Autodesk"
 90
        0
280
     0
281
     0
  0
CLASS
  1
ACMBOMROW
  2
AcmBomRow
  3
"AcmSymBB|Product Description: AutoCAD Mechanical 2000|Company: Autodesk"
 90
        0
280
     0
281
     0
  0
CLASS
  1
ACMPARTLIST
  2
AcmPartList
  3
"AcmSymBB|Product Description: AutoCAD Mechanical 2000|Company: Autodesk"
 90
     1023
280
     0
281
     1
  0
CLASS
  1
ACDBCIRCARCRES
  2
AcDbCircArcRes
  3
AcGrefServices
 90
        0
280
     0
281
     0
  0
CLASS
  1
ACMBALLOON
  2
AcmBalloon
  3
"AcmSymBB|Product Description: AutoCAD Mechanical 2000|Company: Autodesk"
 90
     1023
280
     0
281
     1
  0
CLASS
  1
ACMSTANDARDISO
  2
AcmStandardISO
  3
"Amdt_StdImp|Product Description: AutoCAD Mechanical 2000|Company: Autodesk"
 90
        0
280
     0
281
     0
  0
CLASS
  1
AMDTEDGESTANDARDISO
  2
AmdtEdgeStdISO
  3
"Amdt_StdImp|Product Description: AutoCAD Mechanical 2000|Company: Autodesk"
 90
        0
280
     0
281
     0
  0
CLASS
  1
ACMSURFSTANDARDISO
  2
AcmSurfTextStdISO
  3
"Amdt_StdImp|Product Description: AutoCAD Mechanical 2000|Company: Autodesk"
 90
        0
280
     0
281
     0
  0
CLASS
  1
ACMFCFSTANDARDISO
  2
AcmFCFStdISO
  3
"Amdt_StdImp|Product Description: AutoCAD Mechanical 2000|Company: Autodesk"
 90
        0
280
     0
281
     0
  0
CLASS
  1
ACMWELDSTANDARDISO
  2
AcmWeldingStdISO
  3
"Amdt_StdImp|Product Description: AutoCAD Mechanical 2000|Company: Autodesk"
 90
        0
280
     0
281
     0
  0
CLASS
  1
ACMIDSTANDARDISO
  2
AcmIdStdISO
  3
"Amdt_StdImp|Product Description: AutoCAD Mechanical 2000|Company: Autodesk"
 90
        0
280
     0
281
     0
  0
CLASS
  1
ACMDATUMSTANDARDISO
  2
AcmDatumStdISO
  3
"Amdt_StdImp|Product Description: AutoCAD Mechanical 2000|Company: Autodesk"
 90
        0
280
     0
281
     0
  0
CLASS
  1
ACMBOMSTANDARDISO
  2
AcmBOMStdISO
  3
"Amdt_StdImp|Product Description: AutoCAD Mechanical 2000|Company: Autodesk"
 90
        0
280
     0
281
     0
  0
CLASS
  1
ACMDETAILSTANDARDISO
  2
AmdtDetailSymStdISO
  3
"Amdt_StdImp|Product Description: AutoCAD Mechanical 2000|Company: Autodesk"
 90
        0
280
     0
281
     0
  0
CLASS
  1
ACMSECTIONSTANDARDISO
  2
AmdtSectionSymStdISO
  3
"Amdt_StdImp|Product Description: AutoCAD Mechanical 2000|Company: Autodesk"
 90
        0
280
     0
281
     0
  0
CLASS
  1
ACMCENTERLINESTANDARDISO
  2
AmdtCenterLineStdISO
  3
"Amdt_StdImp|Product Description: AutoCAD Mechanical 2000|Company: Autodesk"
 90
        0
280
     0
281
     0
  0
CLASS
  1
ACMNOTESTANDARDISO
  2
AmdtNoteStdISO
  3
"Amdt_StdImp|Product Description: AutoCAD Mechanical 2000|Company: Autodesk"
 90
        0
280
     0
281
     0
  0
CLASS
  1
ACAMGHOLECHARTSTDISO
  2
AcAmgHoleChartStdISO
  3
ACMSYMBB_MODULE_NAME
 90
        0
280
     0
281
     0
  0
CLASS
  1
ACDBOPPOLYLINERES
  2
AcDbOpPolylineRes
  3
AcGrefServices
 90
        0
280
     0
281
     0
  0
CLASS
  1
ACMSURFSYM
  2
AcmSurfaceTexture
  3
"AcmSymBB|Product Description: AutoCAD Mechanical 2000|Company: Autodesk"
 90
     1023
280
     0
281
     1
  0
CLASS
  1
ACMWELDSYM
  2
AcmWelding
  3
"AcmSymBB|Product Description: AutoCAD Mechanical 2000|Company: Autodesk"
 90
     1023
280
     0
281
     1
  0
CLASS
  1
STDPART2D
  2
AmgStdPart
  3
"AmgStdPart|Product Description: AutoCAD Mechanical 2000|Company: Autodesk"
 90
     1023
280
     0
281
     1
  0
CLASS
  1
ACDBSTDPARTRES_LINE
  2
AcDbStdPartRes_Line
  3
"AcDbStdPartRes_Line|Product Description: AutoCAD Mechanical 2000|Company: Autodesk"
 90
        0
280
     0
281
     0
  0
CLASS
  1
ACDBSTDPARTRES_ARC
  2
AcDbStdPartRes_Arc
  3
"AcDbStdPartRes_Arc|Product Description: AutoCAD Mechanical 2000|Company: Autodesk"
 90
        0
280
     0
281
     0
  0
CLASS
  1
ACDBDIMENSIONRES
  2
AcDbDimensionRes
  3
"AcDbDimensionRes|Product Description: AutoCAD Mechanical 2000|Company: Autodesk"
 90
        0
280
     0
281
     0
  0
CLASS
  1
ACDBPOLYLINERES
  2
AcDbPolylineRes
  3
AcGrefServices
 90
        0
280
     0
281
     0
  0
CLASS
  1
ACDBELLIPSERES
  2
AcDbEllipseRes
  3
AcGrefServices
 90
        0
280
     0
281
     0
  0
CLASS
  1
ACMDIMBREAKPERSREACTOR
  2
AcmDimBreakPersReactor
  3
amgDimApp().moduleName()
 90
     1023
280
     0
281
     0
  0
CLASS
  1
LONG_TRANSACTION
  2
AcDbLongTransaction
  3
AutoCAD 2000
 90
        0
280
     0
281
     0
  0
CLASS
  1
LWPOLYLINE
  2
AcDbPolyline
  3
"AutoCAD"
 90
        0
280
     0
281
     1
  0
CLASS
  1
HATCH
  2
AcDbHatch
  3
"ACAD_SEDONA"
 90
        0
280
     0
281
     1
  0
CLASS
  1
XRECORD
  2
AcDbXrecord
  3
"<Built In>"
 90
        0
280
     0
281
     0
  0
ENDSEC
  0
SECTION
  2
TABLES
  0
TABLE
  2
VPORT
  5
1A
100
AcDbSymbolTable
 70
     1
  0
VPORT
  5
5EF
102
{ACAD_XDICTIONARY
360
601
102
}
100
AcDbSymbolTableRecord
100
AcDbViewportTableRecord
  2
*ACTIVE
 70
     0
 10
0.0
 20
0.0
 11
1.0
 21
1.0
 12
6619.887098
 22
-1827.164673
 13
0.0
 23
0.0
 14
17.5
 24
17.5
 15
70.0
 25
70.0
 16
0.0
 26
0.0
 36
1.0
 17
279.805263
 27
217.101156
 37
0.0
 40
3042.854062
 41
1.907895
 42
50.0
 43
0.0
 44
0.0
 50
0.0
 51
0.0
 71
    16
 72
  3000
 73
     1
 74
     2
 75
     0
 76
     0
 77
     0
 78
     0
  0
ENDTAB
  0
TABLE
  2
LTYPE
  5
15
100
AcDbSymbolTable
 70
    12
  0
LTYPE
  5
16
102
{ACAD_XDICTIONARY
360
5F3
102
}
100
AcDbSymbolTableRecord
100
AcDbLinetypeTableRecord
  2
BYBLOCK
 70
     0
  3

 72
    65
 73
     0
 40
0.0
  0
LTYPE
  5
17
102
{ACAD_XDICTIONARY
360
5F5
102
}
100
AcDbSymbolTableRecord
100
AcDbLinetypeTableRecord
  2
BYLAYER
 70
     0
  3

 72
    65
 73
     0
 40
0.0
  0
LTYPE
  5
11
102
{ACAD_XDICTIONARY
360
5F7
102
}
100
AcDbSymbolTableRecord
100
AcDbLinetypeTableRecord
  2
CONTINUOUS
 70
     0
  3
Solid line
 72
    65
 73
     0
 40
0.0
  0
LTYPE
  5
579
102
{ACAD_XDICTIONARY
360
5F9
102
}
100
AcDbSymbolTableRecord
100
AcDbLinetypeTableRecord
  2
AMCONSTR
 70
     0
  3
_______________________
 72
    65
 73
     2
 40
9999.0
 49
9999.0
 74
     0
 49
0.0
 74
     0
  0
LTYPE
  5
57C
102
{ACAD_XDICTIONARY
360
5FB
102
}
100
AcDbSymbolTableRecord
100
AcDbLinetypeTableRecord
  2
AMZIGZAG
 70
     0
  3
/\/-/\/-/\/-/\/-/\/-/\/
 72
    65
 73
     2
 40
11.0001
 49
0.0001
 74
     4
 75
   135
340
57D
 46
0.04
 50
0.0
 44
0.0
 45
0.0
 49
-11.0
 74
     0
  0
LTYPE
  5
78
100
AcDbSymbolTableRecord
100
AcDbLinetypeTableRecord
  2
AM_DIN_F_W050
 70
     0
  3
__ __ __ __ __ __ __ __ __ __ __ __ __ __ __
 72
    65
 73
     2
 40
6.25
 49
4.75
 74
     0
 49
-1.5
 74
     0
  0
LTYPE
  5
60
100
AcDbSymbolTableRecord
100
AcDbLinetypeTableRecord
  2
AM_DIN_G_W050
 70
     0
  3
____ . ____ . ____ . ____ . ____ . ____ . ____
 72
    65
 73
     4
 40
13.75
 49
9.75
 74
     0
 49
-1.5
 74
     0
 49
1.0
 74
     0
 49
-1.5
 74
     0
  0
LTYPE
  5
578
100
AcDbSymbolTableRecord
100
AcDbLinetypeTableRecord
  2
AM_DIN_K_W050
 70
     0
  3
_____ . . _____ . . _____ . . ____ .. ____
 72
    65
 73
     6
 40
16.25
 49
9.75
 74
     0
 49
-1.5
 74
     0
 49
1.0
 74
     0
 49
-1.5
 74
     0
 49
1.0
 74
     0
 49
-1.5
 74
     0
  0
LTYPE
  5
57A
102
{ACAD_XDICTIONARY
360
5FD
102
}
100
AcDbSymbolTableRecord
100
AcDbLinetypeTableRecord
  2
AM_DIN_G_W050X2
 70
     0
  3
__ . __ . __ . __ . __ . __
 72
    65
 73
     4
 40
6.875
 49
4.75
 74
     0
 49
-0.875
 74
     0
 49
0.375
 74
     0
 49
-0.875
 74
     0
  0
LTYPE
  5
57B
102
{ACAD_XDICTIONARY
360
5FF
102
}
100
AcDbSymbolTableRecord
100
AcDbLinetypeTableRecord
  2
AM_DIN_F_W050X2
 70
     0
  3
 _ _ _ _ _ _ _ _ _ _ _ _
 72
    65
 73
     2
 40
3.125
 49
2.25
 74
     0
 49
-0.875
 74
     0
  0
LTYPE
  5
590
100
AcDbSymbolTableRecord
100
AcDbLinetypeTableRecord
  2
ACDINWELD
 70
     0
  3
_ _ _ _ _
 72
    65
 73
     2
 40
2.0
 49
2.0
 74
     0
 49
-1.0
 74
     0
  0
LTYPE
  5
593
100
AcDbSymbolTableRecord
100
AcDbLinetypeTableRecord
  2
ACDINTGB
 70
     0
  3
__ . . __ . .
 72
    65
 73
     6
 40
9.0
 49
4.0
 74
     0
 49
-1.0
 74
     0
 49
1.0
 74
     0
 49
-1.0
 74
     0
 49
1.0
 74
     0
 49
-1.0
 74
     0
  0
LTYPE
  5
594
100
AcDbSymbolTableRecord
100
AcDbLinetypeTableRecord
  2
ACDINTGL
 70
     0
  3
_ _ _ _ _
 72
    65
 73
     2
 40
3.0
 49
2.0
 74
     0
 49
-1.0
 74
     0
  0
LTYPE
  5
598
100
AcDbSymbolTableRecord
100
AcDbLinetypeTableRecord
  2
CENTER
 70
     0
  3
__ . __
 72
    65
 73
     4
 40
7.0
 49
4.0
 74
     0
 49
-1.0
 74
     0
 49
1.0
 74
     0
 49
-1.0
 74
     0
  0
ENDTAB
  0
TABLE
  2
LAYER
  5
D
100
AcDbSymbolTable
 70
    11
  0
LAYER
  5
E
100
AcDbSymbolTableRecord
100
AcDbLayerTableRecord
  2
0
 70
     0
 62
     7
  6
CONTINUOUS
  0
LAYER
  5
25
102
{ACAD_XDICTIONARY
360
630
102
}
100
AcDbSymbolTableRecord
100
AcDbLayerTableRecord
  2
AM_0
 70
     0
 62
     7
  6
CONTINUOUS
  0
LAYER
  5
2F
102
{ACAD_XDICTIONARY
360
634
102
}
100
AcDbSymbolTableRecord
100
AcDbLayerTableRecord
  2
DEFPOINTS
 70
     0
 62
     7
  6
CONTINUOUS
  0
LAYER
  5
198
102
{ACAD_XDICTIONARY
360
650
102
}
100
AcDbSymbolTableRecord
100
AcDbLayerTableRecord
  2
AM_6
 70
     0
 62
     2
  6
CONTINUOUS
  0
LAYER
  5
28
102
{ACAD_XDICTIONARY
360
632
102
}
100
AcDbSymbolTableRecord
100
AcDbLayerTableRecord
  2
AM_5
 70
     0
 62
     3
  6
CONTINUOUS
  0
LAYER
  5
47
102
{ACAD_XDICTIONARY
360
636
102
}
100
AcDbSymbolTableRecord
100
AcDbLayerTableRecord
  2
AM_8
 70
     0
 62
     1
  6
CONTINUOUS
  0
LAYER
  5
DA
102
{ACAD_XDICTIONARY
360
64E
102
}
100
AcDbSymbolTableRecord
100
AcDbLayerTableRecord
  2
AM_4
 70
     0
 62
     3
  6
CONTINUOUS
  0
LAYER
  5
5F
102
{ACAD_XDICTIONARY
360
638
102
}
100
AcDbSymbolTableRecord
100
AcDbLayerTableRecord
  2
AM_7
 70
     0
 62
     4
  6
AM_DIN_G_W050
  0
LAYER
  5
77
102
{ACAD_XDICTIONARY
360
648
102
}
100
AcDbSymbolTableRecord
100
AcDbLayerTableRecord
  2
AM_3
 70
     0
 62
     6
  6
AM_DIN_F_W050
  0
LAYER
  5
B1
102
{ACAD_XDICTIONARY
360
64A
102
}
100
AcDbSymbolTableRecord
100
AcDbLayerTableRecord
  2
AM_0N
 70
     0
 62
     7
  6
CONTINUOUS
  0
LAYER
  5
B7
102
{ACAD_XDICTIONARY
360
64C
102
}
100
AcDbSymbolTableRecord
100
AcDbLayerTableRecord
  2
AM_4N
 70
     0
 62
     3
  6
CONTINUOUS
  0
ENDTAB
  0
TABLE
  2
STYLE
  5
12
100
AcDbSymbolTable
 70
     5
  0
STYLE
  5
13
100
AcDbSymbolTableRecord
100
AcDbTextStyleTableRecord
  2
STANDARD
 70
     0
 40
0.0
 41
1.0
 50
0.0
 71
     0
 42
50.0
  3
ISOCP.SHX
  4

  0
STYLE
  5
57D
100
AcDbSymbolTableRecord
100
AcDbTextStyleTableRecord
  2

 70
     1
 40
0.0
 41
1.0
 50
0.0
 71
     0
 42
2.5
  3
ltypeshp.shx
  4

  0
STYLE
  5
58A
100
AcDbSymbolTableRecord
100
AcDbTextStyleTableRecord
  2
ACDINTS
 70
     0
 40
1.0
 41
1.0
 50
0.0
 71
     0
 42
2.5
  3
isocp.shx
  4

  0
STYLE
  5
58E
100
AcDbSymbolTableRecord
100
AcDbTextStyleTableRecord
  2
ACDINGDT
 70
     0
 40
0.0
 41
1.0
 50
0.0
 71
     0
 42
2.5
  3
amgdt.shx
  4

  0
STYLE
  5
263
100
AcDbSymbolTableRecord
100
AcDbTextStyleTableRecord
  2
ISO8
 70
     0
 40
0.0
 41
1.0
 50
0.0
 71
     0
 42
2.5
  3
g13f12d.shx
  4

  0
ENDTAB
  0
TABLE
  2
VIEW
  5
18
100
AcDbSymbolTable
 70
     1
  0
VIEW
  5
5ED
102
{ACAD_XDICTIONARY
360
666
102
}
100
AcDbSymbolTableRecord
100
AcDbViewTableRecord
  2
AM_VIEW6
 70
     0
 40
3042.854062
 10
6619.887098
 20
-1827.164673
 41
5802.144664
 11
0.0
 21
0.0
 31
1.0
 12
279.805263
 22
217.101156
 32
0.0
 42
50.0
 43
0.0
 44
0.0
 50
0.0
 71
    16
  0
ENDTAB
  0
TABLE
  2
UCS
  5
19
100
AcDbSymbolTable
 70
     0
  0
ENDTAB
  0
TABLE
  2
APPID
  5
1C
100
AcDbSymbolTable
 70
    21
  0
APPID
  5
1D
100
AcDbSymbolTableRecord
100
AcDbRegAppTableRecord
  2
ACAD
 70
     0
  0
APPID
  5
34
100
AcDbSymbolTableRecord
100
AcDbRegAppTableRecord
  2
GENIUS_GENDTOL_13
 70
     0
  0
APPID
  5
240
100
AcDbSymbolTableRecord
100
AcDbRegAppTableRecord
  2
GENIUS_GENTRA_14
 70
     0
  0
APPID
  5
48
100
AcDbSymbolTableRecord
100
AcDbRegAppTableRecord
  2
GENIUS_GENODEF_13
 70
     0
  0
APPID
  5
5AC
100
AcDbSymbolTableRecord
100
AcDbRegAppTableRecord
  2
GENIUS_GENOENT_13
 70
     0
  0
APPID
  5
10F
100
AcDbSymbolTableRecord
100
AcDbRegAppTableRecord
  2
GENIUS_GENOREF_13
 70
     0
  0
APPID
  5
5AD
100
AcDbSymbolTableRecord
100
AcDbRegAppTableRecord
  2
GENIUS_GENOLIS_13
 70
     0
  0
APPID
  5
82
100
AcDbSymbolTableRecord
100
AcDbRegAppTableRecord
  2
GENIUS_GENOBJ-N-FIL_13
 70
     0
  0
APPID
  5
49
100
AcDbSymbolTableRecord
100
AcDbRegAppTableRecord
  2
GENIUS_GENOBJ-N-HTC_13
 70
     0
  0
APPID
  5
4A
100
AcDbSymbolTableRecord
100
AcDbRegAppTableRecord
  2
GENIUS_GENHATCH_13
 70
     0
  0
APPID
  5
61
100
AcDbSymbolTableRecord
100
AcDbRegAppTableRecord
  2
GENIUS_GENOBJ-N-CEN_13
 70
     0
  0
APPID
  5
5AE
100
AcDbSymbolTableRecord
100
AcDbRegAppTableRecord
  2
GENIUS_GENBH_13
 70
     0
  0
APPID
  5
5AB
100
AcDbSymbolTableRecord
100
AcDbRegAppTableRecord
  2
GENIUS_GENOBJ-NBEHI-BHB_13
 70
     0
  0
APPID
  5
58
100
AcDbSymbolTableRecord
100
AcDbRegAppTableRecord
  2
GENIUS_GENREC_14
 70
     0
  0
APPID
  5
13C
100
AcDbSymbolTableRecord
100
AcDbRegAppTableRecord
  2
GENIUS_GENDREL_13
 70
     0
  0
APPID
  5
1DD
100
AcDbSymbolTableRecord
100
AcDbRegAppTableRecord
  2
GENIUS_GENFIL_13
 70
     0
  0
APPID
  5
1DE
100
AcDbSymbolTableRecord
100
AcDbRegAppTableRecord
  2
GENIUS_GENOBJ-N-CHA_13
 70
     0
  0
APPID
  5
59
100
AcDbSymbolTableRecord
100
AcDbRegAppTableRecord
  2
GENIUS_GENOBJ-N-REC_13
 70
     0
  0
APPID
  5
5C1
100
AcDbSymbolTableRecord
100
AcDbRegAppTableRecord
  2
MCAD_NO_VIS
 70
     0
  0
APPID
  5
5C2
100
AcDbSymbolTableRecord
100
AcDbRegAppTableRecord
  2
ACAD_TEMP_GRAPHIC
 70
     0
  0
APPID
  5
5CF
100
AcDbSymbolTableRecord
100
AcDbRegAppTableRecord
  2
ACATTRIBSERVICES
 70
     0
  0
ENDTAB
  0
TABLE
  2
DIMSTYLE
  5
1E
100
AcDbSymbolTable
 70
     8
  0
DIMSTYLE
105
1F
102
{ACAD_XDICTIONARY
360
62A
102
}
102
{ACAD_REACTORS
330
1BE
330
122
330
12F
330
E4
330
F2
330
27
330
35
330
64
102
}
100
AcDbSymbolTableRecord
100
AcDbDimStyleTableRecord
  2
AM_DIN
 70
     0
  3

  4
"
  5

  6

  7

 40
1.0
 41
2.5
 42
0.0
 43
10.0
 44
1.0
 45
0.0
 46
0.0
 47
0.1
 48
0.1
140
3.0
141
0.0
142
0.0
143
0.03937
144
1.0
145
0.0
146
0.71
147
0.7
 71
     0
 72
     0
 73
     0
 74
     0
 75
     0
 76
     0
 77
     1
 78
     8
170
     0
171
     2
172
     1
173
     0
174
     0
175
     0
176
   256
177
   256
178
     2
270
     2
271
     2
272
     2
273
     2
274
     2
340
13
275
     0
280
     0
281
     0
282
     0
283
     0
284
     8
285
     0
286
     0
287
     3
288
     0
  0
DIMSTYLE
105
59D
102
{ACAD_XDICTIONARY
360
658
102
}
100
AcDbSymbolTableRecord
100
AcDbDimStyleTableRecord
  2
AM_DIN$3
 70
     0
  3

  4
"
  5

  6

  7

 40
1.0
 41
2.5
 42
1.0
 43
10.0
 44
1.0
 45
0.0
 46
0.0
 47
0.1
 48
0.1
140
3.5
141
0.0
142
0.0
143
0.03937
144
1.0
145
0.0
146
0.71
147
1.5
 71
     0
 72
     0
 73
     0
 74
     1
 75
     0
 76
     0
 77
     1
 78
     8
170
     0
171
     2
172
     0
173
     0
174
     0
175
     0
176
   256
177
   256
178
     2
270
     2
271
     2
272
     3
273
     2
274
     4
340
13
275
     0
280
     0
281
     0
282
     0
283
     0
284
     8
285
     0
286
     0
287
     0
288
     1
  0
DIMSTYLE
105
59E
102
{ACAD_XDICTIONARY
360
65A
102
}
100
AcDbSymbolTableRecord
100
AcDbDimStyleTableRecord
  2
AM_DIN$4
 70
     0
  3

  4
"
  5

  6

  7

 40
1.0
 41
2.5
 42
1.0
 43
10.0
 44
1.0
 45
0.0
 46
0.0
 47
0.1
 48
0.1
140
3.5
141
0.0
142
0.0
143
0.03937
144
1.0
145
0.0
146
0.71
147
1.5
 71
     0
 72
     0
 73
     0
 74
     1
 75
     0
 76
     0
 77
     1
 78
     8
170
     0
171
     2
172
     0
173
     0
174
     0
175
     0
176
   256
177
   256
178
     2
270
     2
271
     2
272
     3
273
     2
274
     2
340
13
275
     0
280
     0
281
     0
282
     0
283
     0
284
     8
285
     0
286
     0
287
     4
288
     1
  0
DIMSTYLE
105
59F
102
{ACAD_XDICTIONARY
360
65C
102
}
100
AcDbSymbolTableRecord
100
AcDbDimStyleTableRecord
  2
AM_DIN$6
 70
     0
  3

  4
"
  5

  6

  7

 40
1.0
 41
2.5
 42
1.0
 43
10.0
 44
1.0
 45
0.0
 46
0.0
 47
0.1
 48
0.1
140
3.5
141
0.0
142
0.0
143
0.03937
144
1.0
145
0.0
146
0.71
147
1.5
 71
     0
 72
     0
 73
     0
 74
     0
 75
     0
 76
     0
 77
     0
 78
     8
170
     0
171
     2
172
     1
173
     0
174
     0
175
     0
176
   256
177
   256
178
     2
270
     2
271
     2
272
     3
273
     2
274
     2
340
13
275
     0
280
     0
281
     0
282
     0
283
     0
284
     8
285
     0
286
     0
287
     3
288
     0
  0
DIMSTYLE
105
5A0
102
{ACAD_XDICTIONARY
360
65E
102
}
100
AcDbSymbolTableRecord
100
AcDbDimStyleTableRecord
  2
AM_DIN$7
 70
     0
  3

  4
"
  5

  6

  7

 40
1.0
 41
2.5
 42
1.0
 43
10.0
 44
1.0
 45
0.0
 46
0.0
 47
0.1
 48
0.1
140
5.0
141
0.0
142
0.0
143
0.03937
144
1.0
145
0.0
146
0.71
147
1.5
 71
     0
 72
     0
 73
     0
 74
     0
 75
     0
 76
     0
 77
     1
 78
     8
170
     0
171
     2
172
     1
173
     0
174
     0
175
     0
176
   256
177
   256
178
     2
270
     2
271
     2
272
     3
273
     2
274
     4
340
13
275
     0
280
     0
281
     0
282
     0
283
     0
284
     8
285
     0
286
     0
287
     3
288
     0
  0
DIMSTYLE
105
5A1
102
{ACAD_XDICTIONARY
360
660
102
}
100
AcDbSymbolTableRecord
100
AcDbDimStyleTableRecord
  2
AM_DIN$SF
 70
     0
  3

  4
"
  5

  6

  7

 40
1.0
 41
2.5
 42
1.0
 43
10.0
 44
1.0
 45
0.0
 46
0.0
 47
0.1
 48
0.1
140
3.5
141
0.0
142
0.0
143
0.03937
144
1.0
145
0.0
146
0.71
147
1.5
 71
     0
 72
     0
 73
     0
 74
     0
 75
     1
 76
     1
 77
     1
 78
     8
170
     0
171
     2
172
     1
173
     0
174
     0
175
     0
176
   256
177
   256
178
     2
270
     2
271
     2
272
     3
273
     2
274
     4
340
13
275
     0
280
     0
281
     0
282
     0
283
     0
284
     8
285
     0
286
     0
287
     3
288
     0
  0
DIMSTYLE
105
5A2
102
{ACAD_XDICTIONARY
360
662
102
}
100
AcDbSymbolTableRecord
100
AcDbDimStyleTableRecord
  2
AM_DIN$SH
 70
     0
  3

  4
"
  5

  6
GENAXEH
  7

 40
1.0
 41
2.5
 42
1.0
 43
10.0
 44
1.0
 45
0.0
 46
0.0
 47
0.1
 48
0.1
140
3.5
141
0.0
142
0.0
143
0.03937
144
2.0
145
0.0
146
0.71
147
1.5
 71
     0
 72
     0
 73
     0
 74
     0
 75
     1
 76
     1
 77
     1
 78
     8
170
     0
171
     2
172
     1
173
     1
174
     0
175
     0
176
   256
177
   256
178
     2
270
     2
271
     2
272
     3
273
     2
274
     4
340
13
275
     0
280
     0
281
     0
282
     0
283
     0
284
     8
285
     0
286
     0
287
     3
288
     0
  0
DIMSTYLE
105
20
102
{ACAD_XDICTIONARY
360
62C
102
}
100
AcDbSymbolTableRecord
100
AcDbDimStyleTableRecord
  2
AM_ISO
 70
     0
  3

  4
"
  5

  6

  7

 40
1.0
 41
2.5
 42
1.0
 43
10.0
 44
1.0
 45
0.0
 46
0.0
 47
0.1
 48
0.1
140
3.5
141
0.0
142
0.0
143
0.03937
144
1.0
145
0.0
146
0.71
147
1.5
 71
     0
 72
     0
 73
     0
 74
     0
 75
     0
 76
     0
 77
     1
 78
     8
170
     0
171
     2
172
     1
173
     0
174
     0
175
     0
176
   256
177
   256
178
     2
270
     2
271
     2
272
     3
273
     2
274
     4
340
13
275
     0
280
     0
281
     0
282
     0
283
     0
284
     8
285
     0
286
     0
287
     3
288
     0
  0
ENDTAB
  0
TABLE
  2
BLOCK_RECORD
  5
1
100
AcDbSymbolTable
 70
    12
  0
BLOCK_RECORD
  5
2
102
{ACAD_XDICTIONARY
360
3
102
}
100
AcDbSymbolTableRecord
100
AcDbBlockTableRecord
  2
*MODEL_SPACE
  0
BLOCK_RECORD
  5
9
102
{ACAD_XDICTIONARY
360
5F1
102
}
100
AcDbSymbolTableRecord
100
AcDbBlockTableRecord
  2
*PAPER_SPACE
  0
BLOCK_RECORD
  5
5A3
100
AcDbSymbolTableRecord
100
AcDbBlockTableRecord
  2
GENAXEH
  0
BLOCK_RECORD
  5
19B
100
AcDbSymbolTableRecord
100
AcDbBlockTableRecord
  2
REFLEX-LOGO
  0
BLOCK_RECORD
  5
199
100
AcDbSymbolTableRecord
100
AcDbBlockTableRecord
  2
LOGO
  0
BLOCK_RECORD
  5
1BF
100
AcDbSymbolTableRecord
100
AcDbBlockTableRecord
  2
*D3
  0
BLOCK_RECORD
  5
123
100
AcDbSymbolTableRecord
100
AcDbBlockTableRecord
  2
*D4
  0
BLOCK_RECORD
  5
130
100
AcDbSymbolTableRecord
100
AcDbBlockTableRecord
  2
*D5
  0
BLOCK_RECORD
  5
E5
100
AcDbSymbolTableRecord
100
AcDbBlockTableRecord
  2
*D6
  0
BLOCK_RECORD
  5
F3
100
AcDbSymbolTableRecord
100
AcDbBlockTableRecord
  2
*D7
  0
BLOCK_RECORD
  5
29
100
AcDbSymbolTableRecord
100
AcDbBlockTableRecord
  2
*D8
  0
BLOCK_RECORD
  5
36
100
AcDbSymbolTableRecord
100
AcDbBlockTableRecord
  2
*D9
  0
BLOCK_RECORD
  5
63A
100
AcDbSymbolTableRecord
100
AcDbBlockTableRecord
  2
*D11
  0
ENDTAB
  0
ENDSEC
  0
SECTION
  2
BLOCKS
  0
BLOCK
  5
4
100
AcDbEntity
  8
0
100
AcDbBlockBegin
  2
*MODEL_SPACE
 70
     0
 10
0.0
 20
0.0
 30
0.0
  3
*MODEL_SPACE
  1

  0
ENDBLK
  5
5
100
AcDbEntity
  8
0
100
AcDbBlockEnd
  0
BLOCK
  5
A
100
AcDbEntity
 67
     1
  8
0
100
AcDbBlockBegin
  2
*PAPER_SPACE
 70
     0
 10
0.0
 20
0.0
 30
0.0
  3
*PAPER_SPACE
  1

  0
ENDBLK
  5
B
100
AcDbEntity
 67
     1
  8
0
100
AcDbBlockEnd
  0
BLOCK
  5
5A5
100
AcDbEntity
  8
0
100
AcDbBlockBegin
  2
GENAXEH
 70
     0
 10
0.0
 20
0.0
 30
0.0
  3
GENAXEH
  1

  0
LINE
  5
5A4
100
AcDbEntity
  8
0
100
AcDbLine
 10
-1.0
 20
0.0
 30
0.0
 11
1.0
 21
0.0
 31
0.0
  0
ENDBLK
  5
5A6
100
AcDbEntity
  8
0
100
AcDbBlockEnd
  0
BLOCK
  5
1B0
100
AcDbEntity
  8
0
100
AcDbBlockBegin
  2
REFLEX-LOGO
 70
     0
 10
0.0
 20
0.0
 30
0.0
  3
REFLEX-LOGO
  1

  0
LWPOLYLINE
  5
19C
100
AcDbEntity
  8
AM_4
100
AcDbPolyline
 90
        4
 70
     1
 43
0.0
 10
7.168893
 20
2.77
 10
8.050201
 20
1.751759
 42
-2.569164
 10
8.4566
 20
5.004875
 10
6.110139
 20
2.570883
 42
0.268569
  0
LWPOLYLINE
  5
19D
100
AcDbEntity
  8
AM_4
100
AcDbPolyline
 90
        2
 70
     0
 43
1.344148
 10
7.675507
 20
4.839334
 42
2.261413
 10
7.610669
 20
2.260219
 42
0.980224
  0
LWPOLYLINE
  5
19E
100
AcDbEntity
  8
AM_4
100
AcDbPolyline
 90
        7
 70
     0
 43
0.0
 10
3.098261
 20
4.704713
 42
0.412244
 10
2.574402
 20
4.210062
 10
2.574402
 20
1.142232
 10
1.222422
 20
1.142232
 10
1.222422
 20
4.253389
 42
-0.412244
 10
3.132488
 20
6.056958
 10
3.132488
 20
4.704283
  0
LWPOLYLINE
  5
19F
100
AcDbEntity
  8
AM_4
100
AcDbPolyline
 90
        2
 70
     0
 43
0.672074
 10
8.213784
 20
5.242072
 10
5.791652
 20
2.724738
  0
LWPOLYLINE
  5
1A0
100
AcDbEntity
  8
AM_4
100
AcDbPolyline
 90
        3
 70
     0
 43
1.344148
 10
1.892757
 20
1.138361
 10
1.892757
 20
4.189317
 42
-0.42258
 10
3.116309
 20
5.378512
 42
-0.584026
  0
LWPOLYLINE
  5
1A1
100
AcDbEntity
  8
AM_4
100
AcDbPolyline
 90
        2
 70
     1
 43
0.0
 10
7.030078
 20
4.486213
 10
5.577363
 20
2.986869
 42
-0.802942
  0
LWPOLYLINE
  5
1A2
100
AcDbEntity
  8
AM_4
100
AcDbPolyline
 90
        4
 70
     1
 43
0.0
 10
12.616976
 20
7.850047
 10
12.616976
 20
1.131363
 10
13.96896
 20
1.131363
 10
13.96896
 20
7.850047
  0
LWPOLYLINE
  5
1A3
100
AcDbEntity
  8
AM_4
100
AcDbPolyline
 90
       10
 70
     0
 43
0.0
 10
11.539816
 20
6.502413
 10
11.539816
 20
7.855087
 42
0.412244
 10
9.629755
 20
6.051518
 10
9.629755
 20
1.141883
 10
10.981735
 20
1.141883
 10
10.981735
 20
4.65696
 10
11.547854
 20
4.65696
 10
11.547854
 20
6.008196
 10
10.981735
 20
6.008196
 42
-0.412244
 10
11.505594
 20
6.502843
  0
LWPOLYLINE
  5
1A4
100
AcDbEntity
  8
AM_4
100
AcDbPolyline
 90
        2
 70
     0
 43
1.344148
 10
13.292132
 20
7.847206
 10
13.292132
 20
1.133598
  0
LWPOLYLINE
  5
1A5
100
AcDbEntity
  8
AM_4
100
AcDbPolyline
 90
        3
 70
     0
 43
1.344148
 10
10.303943
 20
1.138361
 10
10.303943
 20
5.981488
 42
-0.42258
 10
11.52749
 20
7.170678
 42
-0.584026
  0
LWPOLYLINE
  5
1A6
100
AcDbEntity
  8
AM_4
100
AcDbPolyline
 90
       20
 70
     1
 43
0.0
 10
23.696238
 20
5.229778
 10
23.696238
 20
5.996381
 10
25.040578
 20
5.996381
 10
25.040578
 20
5.227896
 42
-0.200193
 10
24.365932
 20
3.612714
 42
-0.200193
 10
25.040578
 20
1.997532
 10
25.040578
 20
1.087476
 10
23.696238
 20
1.087476
 10
23.696238
 20
1.99565
 42
0.431175
 10
22.723097
 20
2.938301
 42
0.431175
 10
21.74996
 20
1.99565
 10
21.74996
 20
1.087476
 10
20.40562
 20
1.087476
 10
20.40562
 20
1.997532
 42
-0.200193
 10
21.080266
 20
3.612714
 42
-0.200193
 10
20.40562
 20
5.227896
 10
20.40562
 20
5.996381
 10
21.74996
 20
5.996381
 10
21.74996
 20
5.229778
 42
0.431175
 10
22.723097
 20
4.287127
 42
0.431175
  0
LWPOLYLINE
  5
1A7
100
AcDbEntity
  8
AM_4
100
AcDbPolyline
 90
        4
 70
     1
 43
0.0
 10
18.248679
 20
2.771757
 10
19.129987
 20
1.753515
 42
-2.569164
 10
19.536386
 20
5.006631
 10
17.189925
 20
2.572639
 42
0.268569
  0
LWPOLYLINE
  5
1A8
100
AcDbEntity
  8
AM_4
100
AcDbPolyline
 90
        3
 70
     0
 43
1.344148
 10
24.368397
 20
5.996381
 10
24.368397
 20
5.229778
 42
-0.419272
 10
22.723097
 20
3.612602
 42
-1.628847
  0
LWPOLYLINE
  5
1A9
100
AcDbEntity
  8
AM_4
100
AcDbPolyline
 90
        3
 70
     0
 43
1.344148
 10
24.368397
 20
1.087539
 10
24.368397
 20
1.995426
 42
0.419272
 10
22.723097
 20
3.612602
 42
1.628847
  0
LWPOLYLINE
  5
1AA
100
AcDbEntity
  8
AM_4
100
AcDbPolyline
 90
        2
 70
     0
 43
0.672074
 10
19.290362
 20
5.242072
 10
16.86823
 20
2.724738
  0
LWPOLYLINE
  5
1AB
100
AcDbEntity
  8
AM_4
100
AcDbPolyline
 90
        2
 70
     0
 43
1.344148
 10
18.752084
 20
4.839334
 42
2.261413
 10
18.687247
 20
2.260219
 42
0.980224
  0
LWPOLYLINE
  5
1AC
100
AcDbEntity
  8
AM_4
100
AcDbPolyline
 90
        3
 70
     0
 43
1.344148
 10
21.077797
 20
5.996381
 10
21.077797
 20
5.229778
 42
0.419272
 10
22.723097
 20
3.612602
 42
1.628847
  0
LWPOLYLINE
  5
1AD
100
AcDbEntity
  8
AM_4
100
AcDbPolyline
 90
        3
 70
     0
 43
1.344148
 10
21.077797
 20
1.087539
 10
21.077797
 20
1.995426
 42
-0.419272
 10
22.723097
 20
3.612602
 42
-1.628847
  0
LWPOLYLINE
  5
1AE
100
AcDbEntity
  8
AM_4
100
AcDbPolyline
 90
        2
 70
     1
 43
0.0
 10
18.109864
 20
4.487969
 10
16.657149
 20
2.988626
 42
-0.802942
  0
LWPOLYLINE
  5
1AF
100
AcDbEntity
  8
AM_4
100
AcDbPolyline
 90
        2
 70
     0
 43
1.344148
 10
10.950958
 20
5.331924
 10
11.548266
 20
5.331924
  0
ENDBLK
  5
1B1
100
AcDbEntity
  8
0
100
AcDbBlockEnd
  0
BLOCK
  5
1B2
100
AcDbEntity
  8
0
100
AcDbBlockBegin
  2
LOGO
 70
     0
 10
0.0
 20
0.0
 30
0.0
  3
LOGO
  1

  0
INSERT
  5
19A
100
AcDbEntity
  8
AM_4
100
AcDbBlockReference
  2
REFLEX-LOGO
 10
0.184903
 20
0.739308
 30
0.0
  0
ENDBLK
  5
1B3
100
AcDbEntity
  8
0
100
AcDbBlockEnd
  0
BLOCK
  5
1C9
100
AcDbEntity
  8
0
100
AcDbBlockBegin
  2
*D3
 70
     1
 10
0.0
 20
0.0
 30
0.0
  3
*D3
  1

  0
LINE
  5
1C0
100
AcDbEntity
  8
AM_5
100
AcDbLine
 10
7193.03675
 20
-1813.239419
 30
0.0
 11
7295.934046
 21
-1813.239419
 31
0.0
  0
LINE
  5
1C1
100
AcDbEntity
  8
AM_5
100
AcDbLine
 10
7397.433482
 20
-1671.35906
 30
0.0
 11
7281.934046
 21
-1671.35906
 31
0.0
  0
LINE
  5
1C2
100
AcDbEntity
  8
AM_5
100
AcDbLine
 10
7288.934046
 20
-1795.739419
 30
0.0
 11
7288.934046
 21
-1688.85906
 31
0.0
  0
SOLID
  5
1C3
100
AcDbEntity
  8
AM_5
100
AcDbTrace
 10
7286.01738
 20
-1795.739419
 30
0.0
 11
7291.850713
 21
-1795.739419
 31
0.0
 12
7288.934046
 22
-1813.239419
 32
0.0
 13
7288.934046
 23
-1813.239419
 33
0.0
  0
SOLID
  5
1C4
100
AcDbEntity
  8
AM_5
100
AcDbTrace
 10
7286.01738
 20
-1688.85906
 30
0.0
 11
7291.850713
 21
-1688.85906
 31
0.0
 12
7288.934046
 22
-1671.35906
 32
0.0
 13
7288.934046
 23
-1671.35906
 33
0.0
  0
MTEXT
  5
1C5
100
AcDbEntity
  8
AM_5
 62
     2
100
AcDbMText
 10
7273.531979
 20
-1746.621132
 30
0.0
 40
21.0
 41
0.0
 71
     5
 72
     1
  1
142
 11
0.0
 21
1.0
 31
0.0
1001
ACAD
1000
MTEXTBEGIN
1070
    73
1070
     1
1070
    44
1040
1.0
1070
    74
1070
     0
1000
MTEXTEND
  0
POINT
  5
1C6
100
AcDbEntity
  8
DEFPOINTS
 62
     0
100
AcDbPoint
 10
7193.03675
 20
-1813.239419
 30
0.0
  0
POINT
  5
1C7
100
AcDbEntity
  8
DEFPOINTS
 62
     0
100
AcDbPoint
 10
7397.433482
 20
-1671.35906
 30
0.0
  0
POINT
  5
1C8
100
AcDbEntity
  8
DEFPOINTS
 62
     0
100
AcDbPoint
 10
7288.934046
 20
-1671.35906
 30
0.0
  0
ENDBLK
  5
1CA
100
AcDbEntity
  8
0
100
AcDbBlockEnd
  0
BLOCK
  5
12D
100
AcDbEntity
  8
0
100
AcDbBlockBegin
  2
*D4
 70
     1
 10
0.0
 20
0.0
 30
0.0
  3
*D4
  1

  0
LINE
  5
124
100
AcDbEntity
  8
AM_5
100
AcDbLine
 10
6145.091545
 20
-374.428993
 30
0.0
 11
6685.786455
 21
-374.428993
 31
0.0
  0
LINE
  5
125
100
AcDbEntity
  8
AM_5
100
AcDbLine
 10
6405.729293
 20
-1813.239419
 30
0.0
 11
6685.786455
 21
-1813.239419
 31
0.0
  0
LINE
  5
126
100
AcDbEntity
  8
AM_5
100
AcDbLine
 10
6678.786455
 20
-391.928993
 30
0.0
 11
6678.786455
 21
-1795.739419
 31
0.0
  0
SOLID
  5
127
100
AcDbEntity
  8
AM_5
100
AcDbTrace
 10
6675.869788
 20
-391.928993
 30
0.0
 11
6681.703122
 21
-391.928993
 31
0.0
 12
6678.786455
 22
-374.428993
 32
0.0
 13
6678.786455
 23
-374.428993
 33
0.0
  0
SOLID
  5
128
100
AcDbEntity
  8
AM_5
100
AcDbTrace
 10
6675.869788
 20
-1795.739419
 30
0.0
 11
6681.703122
 21
-1795.739419
 31
0.0
 12
6678.786455
 22
-1813.239419
 32
0.0
 13
6678.786455
 23
-1813.239419
 33
0.0
  0
MTEXT
  5
129
100
AcDbEntity
  8
AM_5
 62
     2
100
AcDbMText
 10
6663.386455
 20
-1206.50127
 30
0.0
 40
21.0
 41
0.0
 71
     5
 72
     1
  1
1439 {}{\C2;%%p8}
 11
0.0
 21
1.0
 31
0.0
1001
ACAD
1000
MTEXTBEGIN
1070
    73
1070
     1
1070
    44
1040
1.0
1070
    74
1070
     0
1000
MTEXTEND
  0
POINT
  5
12A
100
AcDbEntity
  8
DEFPOINTS
 62
     0
100
AcDbPoint
 10
6145.091545
 20
-374.428993
 30
0.0
  0
POINT
  5
12B
100
AcDbEntity
  8
DEFPOINTS
 62
     0
100
AcDbPoint
 10
6405.729293
 20
-1813.239419
 30
0.0
  0
POINT
  5
12C
100
AcDbEntity
  8
DEFPOINTS
 62
     0
100
AcDbPoint
 10
6678.786455
 20
-1813.239419
 30
0.0
  0
ENDBLK
  5
12E
100
AcDbEntity
  8
0
100
AcDbBlockEnd
  0
BLOCK
  5
13A
100
AcDbEntity
  8
0
100
AcDbBlockBegin
  2
*D5
 70
     1
 10
0.0
 20
0.0
 30
0.0
  3
*D5
  1

  0
LINE
  5
131
100
AcDbEntity
  8
AM_5
100
AcDbLine
 10
6230.091545
 20
-1635.85906
 30
0.0
 11
6607.200752
 21
-1635.85906
 31
0.0
  0
LINE
  5
132
100
AcDbEntity
  8
AM_5
100
AcDbLine
 10
6145.091545
 20
-374.428993
 30
0.0
 11
6607.200752
 21
-374.428993
 31
0.0
  0
LINE
  5
133
100
AcDbEntity
  8
AM_5
100
AcDbLine
 10
6600.200752
 20
-1618.35906
 30
0.0
 11
6600.200752
 21
-391.928993
 31
0.0
  0
SOLID
  5
134
100
AcDbEntity
  8
AM_5
100
AcDbTrace
 10
6597.284085
 20
-1618.35906
 30
0.0
 11
6603.117419
 21
-1618.35906
 31
0.0
 12
6600.200752
 22
-1635.85906
 32
0.0
 13
6600.200752
 23
-1635.85906
 33
0.0
  0
SOLID
  5
135
100
AcDbEntity
  8
AM_5
100
AcDbTrace
 10
6597.284085
 20
-391.928993
 30
0.0
 11
6603.117419
 21
-391.928993
 31
0.0
 12
6600.200752
 22
-374.428993
 32
0.0
 13
6600.200752
 23
-374.428993
 33
0.0
  0
MTEXT
  5
136
100
AcDbEntity
  8
AM_5
 62
     2
100
AcDbMText
 10
6584.798685
 20
-1161.559386
 30
0.0
 40
21.0
 41
0.0
 71
     5
 72
     1
  1
1261 {}{\C2;%%p5}
 11
0.0
 21
1.0
 31
0.0
1001
ACAD
1000
MTEXTBEGIN
1070
    73
1070
     1
1070
    44
1040
1.0
1070
    74
1070
     0
1000
MTEXTEND
  0
POINT
  5
137
100
AcDbEntity
  8
DEFPOINTS
 62
     0
100
AcDbPoint
 10
6230.091545
 20
-1635.85906
 30
0.0
  0
POINT
  5
138
100
AcDbEntity
  8
DEFPOINTS
 62
     0
100
AcDbPoint
 10
6145.091545
 20
-374.428993
 30
0.0
  0
POINT
  5
139
100
AcDbEntity
  8
DEFPOINTS
 62
     0
100
AcDbPoint
 10
6600.200752
 20
-374.428993
 30
0.0
  0
ENDBLK
  5
13B
100
AcDbEntity
  8
0
100
AcDbBlockEnd
  0
BLOCK
  5
EF
100
AcDbEntity
  8
0
100
AcDbBlockBegin
  2
*D6
 70
     1
 10
0.0
 20
0.0
 30
0.0
  3
*D6
  1

  0
LINE
  5
E6
100
AcDbEntity
  8
AM_5
100
AcDbLine
 10
6122.071126
 20
-339.904238
 30
0.0
 11
5667.672774
 21
-339.904238
 31
0.0
  0
LINE
  5
E7
100
AcDbEntity
  8
AM_5
100
AcDbLine
 10
5852.453797
 20
-1813.239419
 30
0.0
 11
5667.672774
 21
-1813.239419
 31
0.0
  0
LINE
  5
E8
100
AcDbEntity
  8
AM_5
100
AcDbLine
 10
5674.672774
 20
-357.404238
 30
0.0
 11
5674.672774
 21
-1795.739419
 31
0.0
  0
SOLID
  5
E9
100
AcDbEntity
  8
AM_5
100
AcDbTrace
 10
5671.756107
 20
-357.404238
 30
0.0
 11
5677.589441
 21
-357.404238
 31
0.0
 12
5674.672774
 22
-339.904238
 32
0.0
 13
5674.672774
 23
-339.904238
 33
0.0
  0
SOLID
  5
EA
100
AcDbEntity
  8
AM_5
100
AcDbTrace
 10
5671.756107
 20
-1795.739419
 30
0.0
 11
5677.589441
 21
-1795.739419
 31
0.0
 12
5674.672774
 22
-1813.239419
 32
0.0
 13
5674.672774
 23
-1813.239419
 33
0.0
  0
MTEXT
  5
EB
100
AcDbEntity
  8
AM_5
 62
     2
100
AcDbMText
 10
5659.272774
 20
-1202.756113
 30
0.0
 40
21.0
 41
0.0
 71
     5
 72
     1
  1
1473 {}{\C2;%%p15}
 11
0.0
 21
1.0
 31
0.0
1001
ACAD
1000
MTEXTBEGIN
1070
    73
1070
     1
1070
    44
1040
1.0
1070
    74
1070
     0
1000
MTEXTEND
  0
POINT
  5
EC
100
AcDbEntity
  8
DEFPOINTS
 62
     0
100
AcDbPoint
 10
6122.071126
 20
-339.904238
 30
0.0
  0
POINT
  5
ED
100
AcDbEntity
  8
DEFPOINTS
 62
     0
100
AcDbPoint
 10
5852.453797
 20
-1813.239419
 30
0.0
  0
POINT
  5
EE
100
AcDbEntity
  8
DEFPOINTS
 62
     0
100
AcDbPoint
 10
5674.672774
 20
-1813.239419
 30
0.0
  0
ENDBLK
  5
F0
100
AcDbEntity
  8
0
100
AcDbBlockEnd
  0
BLOCK
  5
FD
100
AcDbEntity
  8
0
100
AcDbBlockBegin
  2
*D7
 70
     1
 10
0.0
 20
0.0
 30
0.0
  3
*D7
  1

  0
LINE
  5
F4
100
AcDbEntity
  8
AM_5
100
AcDbLine
 10
6499.091545
 20
-1298.266344
 30
0.0
 11
6499.091545
 21
-1291.266344
 31
0.0
  0
LINE
  5
F5
100
AcDbEntity
  8
AM_5
100
AcDbLine
 10
5759.091545
 20
-1298.266344
 30
0.0
 11
5759.091545
 21
-1291.266344
 31
0.0
  0
LINE
  5
F6
100
AcDbEntity
  8
AM_5
100
AcDbLine
 10
6481.591545
 20
-1298.266344
 30
0.0
 11
5776.591545
 21
-1298.266344
 31
0.0
  0
SOLID
  5
F7
100
AcDbEntity
  8
AM_5
100
AcDbTrace
 10
6481.591545
 20
-1295.349678
 30
0.0
 11
6481.591545
 21
-1301.183011
 31
0.0
 12
6499.091545
 22
-1298.266344
 32
0.0
 13
6499.091545
 23
-1298.266344
 33
0.0
  0
SOLID
  5
F8
100
AcDbEntity
  8
AM_5
100
AcDbTrace
 10
5776.591545
 20
-1295.349678
 30
0.0
 11
5776.591545
 21
-1301.183011
 31
0.0
 12
5759.091545
 22
-1298.266344
 32
0.0
 13
5759.091545
 23
-1298.266344
 33
0.0
  0
MTEXT
  5
F9
100
AcDbEntity
  8
AM_5
 62
     2
100
AcDbMText
 10
6074.090543
 20
-1282.866344
 30
0.0
 40
21.0
 41
0.0
 71
     5
 72
     1
  1
%%c740
1001
ACAD
1000
MTEXTBEGIN
1070
    73
1070
     1
1070
    44
1040
1.0
1070
    74
1070
     0
1000
MTEXTEND
  0
POINT
  5
FA
100
AcDbEntity
  8
DEFPOINTS
 62
     0
100
AcDbPoint
 10
6499.091545
 20
-1298.266344
 30
0.0
  0
POINT
  5
FB
100
AcDbEntity
  8
DEFPOINTS
 62
     0
100
AcDbPoint
 10
5759.091545
 20
-1298.266344
 30
0.0
  0
POINT
  5
FC
100
AcDbEntity
  8
DEFPOINTS
 62
     0
100
AcDbPoint
 10
5759.091545
 20
-1298.266344
 30
0.0
  0
ENDBLK
  5
FE
100
AcDbEntity
  8
0
100
AcDbBlockEnd
  0
BLOCK
  5
32
100
AcDbEntity
  8
0
100
AcDbBlockBegin
  2
*D8
 70
     1
 10
0.0
 20
0.0
 30
0.0
  3
*D8
  1

  0
LINE
  5
2A
100
AcDbEntity
  8
AM_5
100
AcDbLine
 10
7696.283482
 20
-1824.853186
 30
0.0
 11
7696.283482
 21
-1918.550202
 31
0.0
  0
LINE
  5
2B
100
AcDbEntity
  8
AM_5
100
AcDbLine
 10
7678.783482
 20
-1911.550202
 30
0.0
 11
7440.377862
 21
-1911.550202
 31
0.0
  0
SOLID
  5
2C
100
AcDbEntity
  8
AM_5
100
AcDbTrace
 10
7678.783482
 20
-1908.633535
 30
0.0
 11
7678.783482
 21
-1914.466868
 31
0.0
 12
7696.283482
 22
-1911.550202
 32
0.0
 13
7696.283482
 23
-1911.550202
 33
0.0
  0
MTEXT
  5
2D
100
AcDbEntity
  8
AM_5
 62
     2
100
AcDbMText
 10
7493.158482
 20
-1880.748135
 30
0.0
 40
21.0
 41
0.0
 71
     5
 72
     1
  1
%%c570 {}{\C2;%%p2}
1001
ACAD
1000
MTEXTBEGIN
1070
    73
1070
     1
1070
    44
1040
1.0
1070
    74
1070
     0
1000
MTEXTEND
  0
POINT
  5
2E
100
AcDbEntity
  8
DEFPOINTS
 62
     0
100
AcDbPoint
 10
7290.033482
 20
-1841.550201
 30
0.0
  0
POINT
  5
30
100
AcDbEntity
  8
DEFPOINTS
 62
     0
100
AcDbPoint
 10
7696.283482
 20
-1824.853186
 30
0.0
  0
POINT
  5
31
100
AcDbEntity
  8
DEFPOINTS
 62
     0
100
AcDbPoint
 10
7696.283482
 20
-1911.550202
 30
0.0
  0
ENDBLK
  5
33
100
AcDbEntity
  8
0
100
AcDbBlockEnd
  0
BLOCK
  5
42
100
AcDbEntity
  8
0
100
AcDbBlockBegin
  2
*D9
 70
     1
 10
0.0
 20
0.0
 30
0.0
  3
*D9
  1

  0
LINE
  5
37
100
AcDbEntity
  8
AM_5
100
AcDbLine
 10
7395.433482
 20
-1669.35906
 30
0.0
 11
7395.433482
 21
-1721.331763
 31
0.0
  0
LINE
  5
38
100
AcDbEntity
  8
AM_5
100
AcDbLine
 10
7427.133482
 20
-1669.35906
 30
0.0
 11
7427.133482
 21
-1721.331763
 31
0.0
  0
LINE
  5
39
100
AcDbEntity
  8
AM_5
100
AcDbLine
 10
7377.933482
 20
-1714.331763
 30
0.0
 11
7360.433482
 21
-1714.331763
 31
0.0
  0
LINE
  5
3A
100
AcDbEntity
  8
AM_5
100
AcDbLine
 10
7444.633482
 20
-1714.331763
 30
0.0
 11
7586.420793
 21
-1714.331763
 31
0.0
  0
LINE
  5
3B
100
AcDbEntity
  8
AM_5
100
AcDbLine
 10
7395.433482
 20
-1714.331763
 30
0.0
 11
7427.133482
 21
-1714.331763
 31
0.0
  0
SOLID
  5
3C
100
AcDbEntity
  8
AM_5
100
AcDbTrace
 10
7377.933482
 20
-1711.415097
 30
0.0
 11
7377.933482
 21
-1717.24843
 31
0.0
 12
7395.433482
 22
-1714.331763
 32
0.0
 13
7395.433482
 23
-1714.331763
 33
0.0
  0
SOLID
  5
3D
100
AcDbEntity
  8
AM_5
100
AcDbTrace
 10
7444.633482
 20
-1711.415097
 30
0.0
 11
7444.633482
 21
-1717.24843
 31
0.0
 12
7427.133482
 22
-1714.331763
 32
0.0
 13
7427.133482
 23
-1714.331763
 33
0.0
  0
MTEXT
  5
3E
100
AcDbEntity
  8
AM_5
 62
     2
100
AcDbMText
 10
7524.277138
 20
-1698.894453
 30
0.0
 40
21.0
 41
0.0
 71
     5
 72
     1
  1
G1 ISO228
1001
ACAD
1000
MTEXTBEGIN
1070
    73
1070
     1
1070
    44
1040
1.0
1070
    74
1070
     0
1000
MTEXTEND
  0
POINT
  5
3F
100
AcDbEntity
  8
DEFPOINTS
 62
     0
100
AcDbPoint
 10
7395.433482
 20
-1669.35906
 30
0.0
  0
POINT
  5
40
100
AcDbEntity
  8
DEFPOINTS
 62
     0
100
AcDbPoint
 10
7427.133482
 20
-1669.35906
 30
0.0
  0
POINT
  5
41
100
AcDbEntity
  8
DEFPOINTS
 62
     0
100
AcDbPoint
 10
7427.133482
 20
-1714.331763
 30
0.0
  0
ENDBLK
  5
43
100
AcDbEntity
  8
0
100
AcDbBlockEnd
  0
BLOCK
  5
646
100
AcDbEntity
  8
0
100
AcDbBlockBegin
  2
*D11
 70
     1
 10
0.0
 20
0.0
 30
0.0
  3
*D11
  1

  0
LINE
  5
63B
100
AcDbEntity
  8
AM_5
100
AcDbLine
 10
6524.485881
 20
-2462.959058
 30
0.0
 11
6559.345653
 21
-2462.959058
 31
0.0
  0
LINE
  5
63C
100
AcDbEntity
  8
AM_5
100
AcDbLine
 10
6406.219674
 20
-2302.959058
 30
0.0
 11
6501.702532
 21
-2247.832004
 31
0.0
  0
ARC
  5
63D
100
AcDbEntity
  8
AM_5
100
AcDbCircle
 10
6129.091545
 20
-2462.959058
 30
0.0
 40
423.254108
100
AcDbArc
 50
2.369138
 51
27.630862
  0
SOLID
  5
63E
100
AcDbEntity
  8
AM_5
100
AcDbTrace
 10
6554.899916
 20
-2445.402501
 30
0.0
 11
6549.067829
 21
-2445.523095
 31
0.0
 12
6552.345653
 22
-2462.959058
 32
0.0
 13
6552.345653
 23
-2462.959058
 33
0.0
  0
SOLID
  5
63F
100
AcDbEntity
  8
AM_5
100
AcDbTrace
 10
6501.519658
 20
-2268.070903
 30
0.0
 11
6506.63069
 21
-2265.259297
 31
0.0
 12
6495.640355
 22
-2251.332004
 32
0.0
 13
6495.640355
 23
-2251.332004
 33
0.0
  0
MTEXT
  5
640
100
AcDbEntity
  8
AM_5
 62
     2
100
AcDbMText
 10
6553.813099
 20
-2349.155261
 30
0.0
 40
21.0
 41
0.0
 71
     5
 72
     1
  1
30°  (3x120°)
 11
0.258819
 21
-0.965926
 31
0.0
  0
POINT
  5
641
100
AcDbEntity
  8
DEFPOINTS
 62
     0
100
AcDbPoint
 10
6545.915472
 20
-2389.461753
 30
0.0
  0
POINT
  5
642
100
AcDbEntity
  8
DEFPOINTS
 62
     0
100
AcDbPoint
 10
5772.849015
 20
-2462.959058
 30
0.0
  0
POINT
  5
643
100
AcDbEntity
  8
DEFPOINTS
 62
     0
100
AcDbPoint
 10
6345.597896
 20
-2337.959058
 30
0.0
  0
POINT
  5
644
100
AcDbEntity
  8
DEFPOINTS
 62
     0
100
AcDbPoint
 10
6406.219674
 20
-2302.959058
 30
0.0
  0
POINT
  5
645
100
AcDbEntity
  8
DEFPOINTS
 62
     0
100
AcDbPoint
 10
6524.485881
 20
-2462.959058
 30
0.0
  0
ENDBLK
  5
647
100
AcDbEntity
  8
0
100
AcDbBlockEnd
  0
ENDSEC
  0
SECTION
  2
ENTITIES
  0
DIMENSION
  5
27
100
AcDbEntity
  8
AM_5
100
AcDbDimension
  2
*D8
 10
7696.283482
 20
-1911.550202
 30
0.0
 11
7493.158482
 21
-1880.748135
 31
0.0
  1
%%c570 {}{\C2;%%p2}
  3
AM_DIN
100
AcDbAlignedDimension
 13
7290.033482
 23
-1841.550201
 33
0.0
 14
7696.283482
 24
-1824.853186
 34
0.0
100
AcDbRotatedDimension
1001
ACAD
1000
DSTYLE
1002
{
1070
    40
1040
7.0
1070
    47
1040
2.0
1070
    48
1040
2.0
1070
    75
1070
     1
1070
   281
1070
     1
1002
}
1001
GENIUS_GENDTOL_13
1000
TolPm
1000
h7
1000
{$3%%p$P}
1040
570.0
  0
DIMENSION
  5
35
100
AcDbEntity
  8
AM_5
100
AcDbDimension
  2
*D9
 10
7427.133482
 20
-1714.331763
 30
0.0
 11
7524.277138
 21
-1698.894453
 31
0.0
 70
     1
  1
G1 ISO228
  3
AM_DIN
100
AcDbAlignedDimension
 13
7395.433482
 23
-1669.35906
 33
0.0
 14
7427.133482
 24
-1669.35906
 34
0.0
1001
ACAD
1000
DSTYLE
1002
{
1070
    40
1040
7.0
1002
}
1001
GENIUS_GENDTOL_13
1000

1000
h7
1000

1040
0.0
1000
G1 ISO228
  0
ARC
  5
44
100
AcDbEntity
  8
AM_0
100
AcDbCircle
 10
7411.283482
 20
-785.823834
 30
0.0
 40
400.0
100
AcDbArc
 50
83.741027
 51
88.856933
  0
ARC
  5
45
100
AcDbEntity
  8
AM_0
100
AcDbCircle
 10
7411.283482
 20
-785.823834
 30
0.0
 40
396.0
100
AcDbArc
 50
83.709368
 51
88.845386
  0
HATCH
  5
46
100
AcDbEntity
  8
AM_8
100
AcDbHatch
 10
0.0
 20
0.0
 30
0.0
210
0.0
220
0.0
230
1.0
  2
_U
 70
     0
 71
     0
 91
        1
 92
        1
 93
        5
 72
     2
 10
7411.283482
 20
-842.42987
 40
466.0
 50
74.472321
 51
88.278409
 73
     1
 72
     1
 10
7425.283482
 20
-376.640218
 11
7422.283482
 21
-376.640218
 72
     1
 10
7422.283482
 20
-376.640218
 11
7422.283482
 21
-382.56141
 72
     2
 10
7411.283482
 20
-842.42987
 40
460.0
 50
271.370247
 51
285.735428
 73
     0
 72
     1
 10
7536.033482
 20
-399.668718
 11
7536.033482
 21
-393.438291
 97
        0
 75
     0
 76
     0
 52
45.0
 41
5.0
 77
     0
 78
     1
 53
45.0
 43
9015.530948
 44
-386.484967
 45
-3.535533905932737
 46
3.535533905932737
 79
     0
 98
        1
 10
9015.530948
 20
-386.484967
1001
GENIUS_GENODEF_13
1002
{
1000
HIER
1070
     0
1002
}
1002
{
1000
MANEDIT
1070
     0
1002
}
1002
{
1000
NOSEL
1070
     0
1002
}
1002
{
1000
BEHIND
1070
     0
1002
}
1002
{
1000
REACTOR
1002
}
1001
GENIUS_GENOBJ-N-HTC_13
1002
{
1000
OWNER
1000
GEN
1002
}
1001
GENIUS_GENHATCH_13
1002
{
1000
DATA
1040
45.0
1042
2.5
1000
_U
1070
     0
1011
7442.127503
1021
-381.246299
1031
0.0
1002
}
1002
{
1000
UCS
1010
0.0
1020
0.0
1030
0.0
1010
1.0
1020
0.0
1030
0.0
1010
0.0
1020
1.0
1030
0.0
1002
}
  0
ARC
  5
4B
100
AcDbEntity
  8
AM_0
100
AcDbCircle
 10
7411.283482
 20
-842.42987
 30
0.0
 40
466.0
100
AcDbArc
 50
74.472321
 51
88.278409
  0
LINE
  5
4C
100
AcDbEntity
  8
AM_0
100
AcDbLine
 10
7306.283482
 20
-1640.35906
 30
0.0
 11
7516.283482
 21
-1640.35906
 31
0.0
  0
LINE
  5
4D
100
AcDbEntity
  8
AM_0
100
AcDbLine
 10
7281.283482
 20
-1646.35906
 30
0.0
 11
7541.283482
 21
-1646.35906
 31
0.0
  0
HATCH
  5
4E
100
AcDbEntity
  8
AM_8
100
AcDbHatch
 10
0.0
 20
0.0
 30
0.0
210
0.0
220
0.0
230
1.0
  2
ANSI31
 70
     0
 71
     0
 91
        6
 92
        7
 72
     0
 73
     1
 93
        4
 10
7295.283482260082
 20
-1646.359059695113
 10
7295.283482260082
 20
-1640.359059695113
 10
7281.283482260083
 20
-1640.359059695113
 10
7281.283482260083
 20
-1646.359059695114
 97
        0
 92
        7
 72
     0
 73
     1
 93
        4
 10
7398.783482260083
 20
-1646.359059695106
 10
7398.783482260083
 20
-1640.359059695106
 10
7307.283482260082
 20
-1640.359059695112
 10
7307.283482260082
 20
-1646.359059695112
 97
        0
 92
        7
 72
     0
 73
     1
 93
        4
 10
7402.783482260082
 20
-1640.359059695106
 10
7402.783482260082
 20
-1646.359059695106
 10
7411.283482260083
 20
-1646.359059695105
 10
7411.283482260083
 20
-1640.359059695105
 97
        0
 92
        7
 72
     0
 73
     1
 93
        4
 10
7411.283482260083
 20
-1646.359059695105
 10
7419.783482260083
 20
-1646.359059695104
 10
7419.783482260083
 20
-1640.359059695105
 10
7411.283482260083
 20
-1640.359059695105
 97
        0
 92
        7
 72
     0
 73
     1
 93
        4
 10
7515.283482260084
 20
-1646.359059695098
 10
7515.283482260084
 20
-1640.359059695098
 10
7423.783482260083
 20
-1640.359059695104
 10
7423.783482260083
 20
-1646.359059695104
 97
        0
 92
        7
 72
     0
 73
     1
 93
        4
 10
7541.283482260084
 20
-1646.359059695097
 10
7541.283482260084
 20
-1640.359059695096
 10
7527.283482260084
 20
-1640.359059695097
 10
7527.283482260084
 20
-1646.359059695098
 97
        0
 75
     0
 76
     1
 52
-90.0
 41
1.0
 77
     0
 78
     1
 53
315.0
 43
9058.351192
 44
-745.230222
 45
2.245064030267288
 46
2.245064030267287
 79
     0
 47
0.345291
 98
        6
 10
7288.341838
 20
-1643.444697
 10
7343.265684
 20
-1644.82587
 10
7406.134488
 20
-1642.063532
 10
7413.388575
 20
-1643.789988
 10
7448.27731
 20
-1644.82587
 10
7534.635551
 20
-1643.444697
  0
HATCH
  5
4F
100
AcDbEntity
  8
AM_8
100
AcDbHatch
 10
0.0
 20
0.0
 30
0.0
210
0.0
220
0.0
230
1.0
  2
ANSI31
 70
     0
 71
     0
 91
        4
 92
        5
 93
        8
 72
     1
 10
7286.283482
 20
-1625.05906
 11
7286.283482
 21
-1622.05906
 72
     1
 10
7286.283482
 20
-1622.05906
 11
7281.283482
 21
-1622.05906
 72
     1
 10
7281.283482
 20
-1622.05906
 11
7281.283482
 21
-1625.05906
 72
     3
 10
7291.283482
 20
-1625.05906
 11
-7.071068
 21
7.071068
 40
1.0
 50
45.0
 51
135.0
 73
     1
 72
     1
 10
7291.283482
 20
-1635.05906
 11
7296.283482
 21
-1635.05906
 72
     1
 10
7296.283482
 20
-1635.05906
 11
7296.283482
 21
-1630.05906
 72
     1
 10
7296.283482
 20
-1630.05906
 11
7291.283482
 21
-1630.05906
 72
     3
 10
7291.283482
 20
-1625.05906
 11
3.535534
 21
3.535534
 40
1.0
 50
135.0
 51
225.0
 73
     0
 97
        0
 92
        5
 93
        4
 72
     1
 10
7330.783482
 20
-1630.05906
 11
7306.283482
 21
-1630.05906
 72
     1
 10
7306.283482
 20
-1630.05906
 11
7306.283482
 21
-1635.05906
 72
     1
 10
7306.283482
 20
-1635.05906
 11
7330.783482
 21
-1635.05906
 72
     1
 10
7330.783482
 20
-1635.05906
 11
7330.783482
 21
-1630.05906
 97
        0
 92
        5
 93
        4
 72
     1
 10
7516.283482
 20
-1630.05906
 11
7491.783482
 21
-1630.05906
 72
     1
 10
7491.783482
 20
-1630.05906
 11
7491.783482
 21
-1635.05906
 72
     1
 10
7491.783482
 20
-1635.05906
 11
7516.283482
 21
-1635.05906
 72
     1
 10
7516.283482
 20
-1635.05906
 11
7516.283482
 21
-1630.05906
 97
        0
 92
        5
 93
        8
 72
     1
 10
7541.283482
 20
-1625.05906
 11
7541.283482
 21
-1622.05906
 72
     1
 10
7541.283482
 20
-1622.05906
 11
7536.283482
 21
-1622.05906
 72
     1
 10
7536.283482
 20
-1622.05906
 11
7536.283482
 21
-1625.05906
 72
     3
 10
7531.283482
 20
-1625.05906
 11
3.535534
 21
3.535534
 40
1.0
 50
45.0
 51
135.0
 73
     0
 72
     1
 10
7531.283482
 20
-1630.05906
 11
7526.283482
 21
-1630.05906
 72
     1
 10
7526.283482
 20
-1630.05906
 11
7526.283482
 21
-1635.05906
 72
     1
 10
7526.283482
 20
-1635.05906
 11
7531.283482
 21
-1635.05906
 72
     3
 10
7531.283482
 20
-1625.05906
 11
7.071068
 21
7.071068
 40
1.0
 50
225.0
 51
315.0
 73
     1
 97
        0
 75
     0
 76
     1
 52
-4320.0
 41
1.0
 77
     0
 78
     1
 53
45.0
 43
12624.819398
 44
-3122.86714
 45
-2.245064030267287
 46
2.245064030267288
 79
     0
 47
0.619008
 98
        4
 10
5274.524537
 20
-2601.857995
 10
5306.106879
 20
-2608.667079
 10
5492.50457
 20
-2608.667079
 10
5527.183215
 20
-2601.857995
  0
ARC
  5
50
100
AcDbEntity
  8
AM_0
100
AcDbCircle
 10
7411.283482
 20
-920.528993
 30
0.0
 40
546.1
100
AcDbArc
 50
54.99059
 51
125.00941
  0
ARC
  5
51
100
AcDbEntity
  8
AM_0
100
AcDbCircle
 10
7411.283482
 20
-920.528993
 30
0.0
 40
544.0
100
AcDbArc
 50
54.99059
 51
88.841367
  0
ARC
  5
52
100
AcDbEntity
  8
AM_0
100
AcDbCircle
 10
7411.283482
 20
-842.42987
 30
0.0
 40
457.0
100
AcDbArc
 50
52.681155
 51
88.620756
  0
ARC
  5
53
100
AcDbEntity
  8
AM_0
100
AcDbCircle
 10
7411.283482
 20
-842.42987
 30
0.0
 40
460.0
100
AcDbArc
 50
52.681155
 51
88.629753
  0
HATCH
  5
54
100
AcDbEntity
  8
AM_8
100
AcDbHatch
 10
0.0
 20
0.0
 30
0.0
210
0.0
220
0.0
230
1.0
  2
_U
 70
     0
 71
     0
 91
        1
 92
        1
 93
       22
 72
     1
 10
7443.533482
 20
-375.382089
 11
7443.533482
 21
-375.558153
 72
     2
 10
7411.283482
 20
-835.540693
 40
461.1117
 50
85.989478
 51
88.633057
 73
     1
 72
     1
 10
7422.283482
 20
-374.560216
 11
7422.283482
 21
-376.640218
 72
     1
 10
7422.283482
 20
-376.640218
 11
7425.283482
 21
-376.640218
 72
     2
 10
7411.283482
 20
-842.42987
 40
466.0
 50
271.721591
 51
273.119481
 73
     0
 72
     2
 10
7411.283482
 20
-920.528993
 40
544.0
 50
272.671851
 51
305.00941
 73
     0
 72
     2
 10
7648.283482
 20
-582.176204
 40
130.9
 50
305.00941
 51
360.0
 73
     0
 72
     1
 10
7779.183482
 20
-582.176204
 11
7779.183482
 21
-996.144931
 72
     2
 10
7778.183482
 20
-996.144931
 40
1.0
 50
360.0
 51
405.0
 73
     0
 72
     1
 10
7778.890589
 20
-996.852038
 11
7778.062934
 21
-997.679692
 72
     2
 10
7780.254965
 20
-999.871723
 40
3.1
 50
135.0
 51
176.0
 73
     1
 72
     1
 10
7777.162517
 20
-999.655478
 11
7776.613735
 21
-1007.503431
 72
     2
 10
7778.40935
 20
-1007.628993
 40
1.8
 50
176.0
 51
270.0
 73
     1
 72
     1
 10
7778.40935
 20
-1009.428993
 11
7778.584214
 21
-1009.428993
 72
     1
 10
7778.584214
 20
-1009.428993
 11
7779.183482
 21
-1000.85906
 72
     1
 10
7779.183482
 20
-1000.85906
 11
7779.257401
 21
-999.801967
 72
     2
 10
7780.254965
 20
-999.871723
 40
1.0
 50
184.0
 51
225.0
 73
     0
 72
     1
 10
7779.547859
 20
-999.164617
 11
7780.375513
 21
-998.336962
 72
     2
 10
7778.183482
 20
-996.144931
 40
3.1
 50
315.0
 51
360.0
 73
     1
 72
     1
 10
7781.283482
 20
-996.144931
 11
7781.283482
 21
-582.176204
 72
     2
 10
7648.283482
 20
-582.176204
 40
133.0
 50
0.0
 51
54.99059
 73
     1
 72
     2
 10
7411.283482
 20
-920.528993
 40
546.1
 50
54.99059
 51
86.614421
 73
     1
 97
        0
 75
     0
 76
     0
 52
135.0
 41
7.0
 77
     0
 78
     1
 53
135.0
 43
4750.477491
 44
0.0
 45
-4.949747468305833
 46
-4.949747468305831
 79
     0
 98
        1
 10
4750.477491
 20
0.0
1001
GENIUS_GENODEF_13
1002
{
1000
HIER
1070
     0
1002
}
1002
{
1000
MANEDIT
1070
     0
1002
}
1002
{
1000
NOSEL
1070
     0
1002
}
1002
{
1000
BEHIND
1070
     0
1002
}
1002
{
1000
OTHER
1070
     0
1002
}
1002
{
1000
REACTOR
1002
}
1001
GENIUS_GENOBJ-N-HTC_13
1002
{
1000
OWNER
1000
GEN
1002
}
1001
GENIUS_GENHATCH_13
1002
{
1000
DATA
1040
135.0
1042
1.0
1000
_U
1070
     0
1011
7779.384429
1021
-564.237464
1031
0.0
1002
}
1002
{
1000
UCS
1010
0.0
1020
0.0
1030
0.0
1010
1.0
1020
0.0
1030
0.0
1010
0.0
1020
1.0
1030
0.0
1002
}
  0
HATCH
  5
55
100
AcDbEntity
  8
AM_8
100
AcDbHatch
 10
0.0
 20
0.0
 30
0.0
210
0.0
220
0.0
230
1.0
  2
_U
 70
     0
 71
     0
 91
        1
 92
        1
 93
       16
 72
     2
 10
7411.283482
 20
-1168.10906
 40
461.0
 50
52.802048
 51
80.447945
 73
     0
 72
     1
 10
7487.783482
 20
-1622.717408
 11
7487.783482
 21
-1635.85906
 72
     1
 10
7487.783482
 20
-1635.85906
 11
7512.283482
 21
-1635.85906
 72
     1
 10
7512.283482
 20
-1635.85906
 11
7512.283482
 21
-1640.35906
 72
     1
 10
7512.283482
 20
-1640.35906
 11
7483.783482
 21
-1640.35906
 72
     1
 10
7483.783482
 20
-1640.35906
 11
7483.783482
 21
-1620.334391
 72
     2
 10
7411.283482
 20
-1168.10906
 40
458.0
 50
279.108059
 51
307.197952
 73
     1
 72
     2
 10
7629.533482
 20
-1455.664163
 40
97.0
 50
307.197952
 51
360.0
 73
     1
 72
     1
 10
7726.533482
 20
-1455.664163
 11
7726.533482
 21
-556.131184
 72
     2
 10
7629.533482
 20
-556.131184
 40
97.0
 50
0.0
 51
52.681155
 73
     1
 72
     2
 10
7411.283482
 20
-842.42987
 40
457.0
 50
52.681155
 51
88.620756
 73
     1
 72
     1
 10
7422.283482
 20
-385.562274
 11
7422.283482
 21
-382.56141
 72
     2
 10
7411.283482
 20
-842.42987
 40
460.0
 50
271.370247
 51
307.318845
 73
     0
 72
     2
 10
7629.533482
 20
-556.131184
 40
100.0
 50
307.318845
 51
360.0
 73
     0
 72
     1
 10
7729.533482
 20
-556.131184
 11
7729.533482
 21
-1455.664163
 72
     2
 10
7629.533482
 20
-1455.664163
 40
100.0
 50
0.0
 51
52.802048
 73
     0
 97
        0
 75
     0
 76
     0
 52
45.0
 41
16.1
 77
     1
 78
     2
 53
45.0
 43
4750.477491
 44
0.0
 45
-11.3844191771034
 46
11.3844191771034
 79
     0
 53
135.0
 43
4750.477491
 44
0.0
 45
-11.38441917710341
 46
-11.3844191771034
 79
     0
 98
        1
 10
4750.477491
 20
0.0
1001
GENIUS_GENOBJ-N-HTC_13
1002
{
1000
OWNER
1000
GEN
1002
}
1001
GENIUS_GENODEF_13
1002
{
1000
HIER
1070
     0
1002
}
1002
{
1000
MANEDIT
1070
     0
1002
}
1002
{
1000
NOSEL
1070
     0
1002
}
1002
{
1000
BEHIND
1070
     0
1002
}
1002
{
1000
OTHER
1070
     0
1002
}
1002
{
1000
REACTOR
1002
}
1001
GENIUS_GENHATCH_13
1002
{
1000
DATA
1040
45.0
1042
2.3
1000
_U
1070
     1
1011
7728.068678
1021
-1409.581473
1031
0.0
1002
}
1002
{
1000
UCS
1010
0.0
1020
0.0
1030
0.0
1010
1.0
1020
0.0
1030
0.0
1010
0.0
1020
1.0
1030
0.0
1002
}
  0
TEXT
  5
56
100
AcDbEntity
  8
0
100
AcDbText
 10
7349.086321
 20
-2708.362762
 30
0.0
 40
63.0
  1
reflexomat Folgegefäß
 72
     1
 11
7781.614901
 21
-2727.262762
 31
0.0
100
AcDbText
 73
     1
  0
LINE
  5
57
100
AcDbEntity
  8
AM_0
100
AcDbLine
 10
8943.477491
 20
-175.141979
 30
0.0
 11
4855.477491
 21
-175.141979
 31
0.0
1001
GENIUS_GENREC_14
1002
{
1000
PYDIR
1011
4855.477491
1021
-175.141979
1031
0.0
1002
}
1002
{
1000
PXDIR
1011
8943.477491
1021
-3045.141979
1031
0.0
1002
}
1002
{
1000
PORI
1011
4855.477491
1021
-3045.141979
1031
0.0
1002
}
1002
{
1000
PINS
1011
4855.477491
1021
-3045.141979
1031
0.0
1002
}
1002
{
1000
PINS2
1011
8943.477491
1021
-175.141979
1031
0.0
1002
}
1002
{
1000
H
1070
     0
1002
}
1002
{
1000
W
1070
     1
1002
}
1002
{
1000
C
1070
     1
1002
}
1001
GENIUS_GENOBJ-N-REC_13
1002
{
1000
OWNER
1000
GEN
1002
}
1001
GENIUS_GENODEF_13
1002
{
1000
HIER
1070
     0
1002
}
1002
{
1000
MANEDIT
1070
     0
1002
}
1002
{
1000
NOSEL
1070
     0
1002
}
1002
{
1000
BEHIND
1070
     0
1002
}
1002
{
1000
OTHER
1070
     0
1002
}
1002
{
1000
REACTOR
1002
}
  0
LINE
  5
5A
100
AcDbEntity
  8
AM_0
100
AcDbLine
 10
4855.477491
 20
-3045.141979
 30
0.0
 11
8943.477491
 21
-3045.141979
 31
0.0
1001
GENIUS_GENREC_14
1002
{
1000
PYDIR
1011
4855.477491
1021
-175.141979
1031
0.0
1002
}
1002
{
1000
PXDIR
1011
8943.477491
1021
-3045.141979
1031
0.0
1002
}
1002
{
1000
PORI
1011
4855.477491
1021
-3045.141979
1031
0.0
1002
}
1002
{
1000
PINS
1011
4855.477491
1021
-3045.141979
1031
0.0
1002
}
1002
{
1000
PINS2
1011
8943.477491
1021
-175.141979
1031
0.0
1002
}
1002
{
1000
H
1070
     0
1002
}
1002
{
1000
W
1070
     1
1002
}
1002
{
1000
C
1070
     1
1002
}
1001
GENIUS_GENOBJ-N-REC_13
1002
{
1000
OWNER
1000
GEN
1002
}
1001
GENIUS_GENODEF_13
1002
{
1000
HIER
1070
     0
1002
}
1002
{
1000
MANEDIT
1070
     0
1002
}
1002
{
1000
NOSEL
1070
     0
1002
}
1002
{
1000
BEHIND
1070
     0
1002
}
1002
{
1000
OTHER
1070
     0
1002
}
1002
{
1000
REACTOR
1002
}
  0
LINE
  5
5B
100
AcDbEntity
  8
AM_0
100
AcDbLine
 10
4855.477491
 20
-175.141979
 30
0.0
 11
4855.477491
 21
-3045.141979
 31
0.0
1001
GENIUS_GENREC_14
1002
{
1000
PYDIR
1011
4855.477491
1021
-175.141979
1031
0.0
1002
}
1002
{
1000
PXDIR
1011
8943.477491
1021
-3045.141979
1031
0.0
1002
}
1002
{
1000
PORI
1011
4855.477491
1021
-3045.141979
1031
0.0
1002
}
1002
{
1000
PINS
1011
4855.477491
1021
-3045.141979
1031
0.0
1002
}
1002
{
1000
PINS2
1011
8943.477491
1021
-175.141979
1031
0.0
1002
}
1002
{
1000
H
1070
     0
1002
}
1002
{
1000
W
1070
     1
1002
}
1002
{
1000
C
1070
     1
1002
}
1001
GENIUS_GENOBJ-N-REC_13
1002
{
1000
OWNER
1000
GEN
1002
}
1001
GENIUS_GENODEF_13
1002
{
1000
HIER
1070
     0
1002
}
1002
{
1000
MANEDIT
1070
     0
1002
}
1002
{
1000
NOSEL
1070
     0
1002
}
1002
{
1000
BEHIND
1070
     0
1002
}
1002
{
1000
OTHER
1070
     0
1002
}
1002
{
1000
REACTOR
1002
}
  0
ELLIPSE
  5
5C
100
AcDbEntity
  8
AM_0
100
AcDbEllipse
 10
5995.089704
 20
-2205.543916
 30
0.0
 11
-8.20485020689998
 21
-4.271174672421321
 31
0.0
210
0.0
220
0.0
230
1.0
 40
0.732891
 41
0.0
 42
6.283185307179586
  0
LINE
  5
5D
100
AcDbEntity
  8
AM_0
100
AcDbLine
 10
5986.884854
 20
-2209.815091
 30
0.0
 11
5991.597083
 21
-2218.867199
 31
0.0
  0
LINE
  5
5E
100
AcDbEntity
  8
AM_7
  6
AM_DIN_G_W050
100
AcDbLine
 10
6009.85847
 20
-2233.914452
 30
0.0
 11
5985.033167
 21
-2186.225489
 31
0.0
1001
GENIUS_GENODEF_13
1002
{
1000
HIER
1070
     0
1002
}
1002
{
1000
MANEDIT
1070
     0
1002
}
1002
{
1000
NOSEL
1070
     0
1002
}
1002
{
1000
BEHIND
1070
     0
1002
}
1002
{
1000
REACTOR
1002
}
1001
GENIUS_GENOBJ-N-CEN_13
1002
{
1000
OWNER
1000
GEN
1002
}
  0
LINE
  5
62
100
AcDbEntity
  8
AM_7
  6
AM_DIN_G_W050
100
AcDbLine
 10
5973.579691
 20
-2216.74132
 30
0.0
 11
6016.599717
 21
-2194.346512
 31
0.0
1001
GENIUS_GENODEF_13
1002
{
1000
HIER
1070
     0
1002
}
1002
{
1000
MANEDIT
1070
     0
1002
}
1002
{
1000
NOSEL
1070
     0
1002
}
1002
{
1000
BEHIND
1070
     0
1002
}
1002
{
1000
REACTOR
1002
}
1001
GENIUS_GENOBJ-N-CEN_13
1002
{
1000
OWNER
1000
GEN
1002
}
  0
ARC
  5
63
100
AcDbEntity
  8
AM_7
  6
AM_DIN_G_W050
100
AcDbCircle
 10
6129.091545
 20
-2462.959058
 30
0.0
 40
280.0
100
AcDbArc
 50
97.537913
 51
122.462087
  0
DIMENSION
  5
64
100
AcDbEntity
  8
AM_5
100
AcDbDimension
  2
*D11
 10
6524.485881
 20
-2462.959058
 30
0.0
 11
6553.813099
 21
-2349.155261
 31
0.0
 70
    34
  1
<>  (3x120°)
  3
AM_DIN
100
AcDb2LineAngularDimension
 13
6345.597896
 23
-2337.959058
 33
0.0
 14
6406.219674
 24
-2302.959058
 34
0.0
 15
5772.849015
 25
-2462.959058
 35
0.0
 16
6545.915472
 26
-2389.461753
 36
0.0
1001
GENIUS_GENDTOL_13
1000

1000
h7
1000

1040
0.0
1000
<>
1001
ACAD
1000
DSTYLE
1002
{
1070
   271
1070
     0
1070
    40
1040
7.0
1002
}
  0
CIRCLE
  5
73
100
AcDbEntity
  8
AM_7
100
AcDbCircle
 10
6129.091545
 20
-2462.959058
 30
0.0
 40
285.0
  0
LINE
  5
74
100
AcDbEntity
  8
AM_7
100
AcDbLine
 10
5743.207415
 20
-2462.959058
 30
0.0
 11
6524.485881
 21
-2462.959058
 31
0.0
1001
GENIUS_GENODEF_13
1002
{
1000
HIER
1070
     0
1002
}
1002
{
1000
MANEDIT
1070
     0
1002
}
1002
{
1000
NOSEL
1070
     0
1002
}
1002
{
1000
BEHIND
1070
     0
1002
}
1002
{
1000
REACTOR
1002
}
1001
GENIUS_GENOBJ-N-CEN_13
1002
{
1000
OWNER
1000
GEN
1002
}
  0
CIRCLE
  5
75
100
AcDbEntity
  8
AM_0
100
AcDbCircle
 10
6129.091545
 20
-2462.959058
 30
0.0
 40
370.0
  0
ELLIPSE
  5
76
100
AcDbEntity
  8
AM_3
100
AcDbEllipse
 10
5936.972358
 20
-2462.959058
 30
0.0
 11
0.0
 21
-9.25
 31
0.0
210
0.0
220
0.0
230
1.0
 40
0.790188
 41
3.141592653589793
 42
6.283185307179586
  0
ELLIPSE
  5
79
100
AcDbEntity
  8
AM_3
100
AcDbEllipse
 10
5944.091545
 20
-2462.959058
 30
0.0
 11
0.0
 21
-9.25
 31
0.0
210
0.0
220
0.0
230
1.0
 40
0.790188
 41
0.0
 42
6.283185307179586
  0
LINE
  5
7A
100
AcDbEntity
  8
AM_3
100
AcDbLine
 10
5936.972358
 20
-2472.209058
 30
0.0
 11
5944.091545
 21
-2472.209058
 31
0.0
  0
LINE
  5
7B
100
AcDbEntity
  8
AM_3
100
AcDbLine
 10
5936.972358
 20
-2453.709058
 30
0.0
 11
5944.091545
 21
-2453.709058
 31
0.0
  0
LINE
  5
7C
100
AcDbEntity
  8
AM_3
100
AcDbLine
 10
5907.42975
 20
-2311.88855
 30
0.0
 11
5887.42975
 21
-2346.529566
 31
0.0
  0
LINE
  5
7D
100
AcDbEntity
  8
AM_3
100
AcDbLine
 10
5889.594813
 20
-2347.779566
 30
0.0
 11
5909.594813
 21
-2313.13855
 31
0.0
  0
LINE
  5
7E
100
AcDbEntity
  8
AM_3
100
AcDbLine
 10
5876.203797
 20
-2290.973486
 30
0.0
 11
5906.514686
 21
-2308.473486
 31
0.0
  0
LINE
  5
7F
100
AcDbEntity
  8
AM_3
100
AcDbLine
 10
5907.764686
 20
-2306.308423
 30
0.0
 11
5877.453797
 21
-2288.808423
 31
0.0
  0
LINE
  5
80
100
AcDbEntity
  8
AM_7
100
AcDbLine
 10
5912.585194
 20
-2337.959058
 30
0.0
 11
5851.963416
 21
-2302.959058
 31
0.0
1001
GENIUS_GENODEF_13
1002
{
1000
HIER
1070
     0
1002
}
1002
{
1000
MANEDIT
1070
     0
1002
}
1002
{
1000
NOSEL
1070
     0
1002
}
1002
{
1000
BEHIND
1070
     0
1002
}
1002
{
1000
REACTOR
1002
}
1001
GENIUS_GENOBJ-N-CEN_13
1002
{
1000
OWNER
1000
GEN
1002
}
  0
ARC
  5
81
100
AcDbEntity
  8
AM_3
100
AcDbCircle
 10
5885.264686
 20
-2345.279566
 30
0.0
 40
5.0
100
AcDbArc
 50
240.0
 51
330.0
1001
GENIUS_GENODEF_13
1002
{
1000
HIER
1070
     0
1002
}
1002
{
1000
MANEDIT
1070
     0
1002
}
1002
{
1000
NOSEL
1070
     0
1002
}
1002
{
1000
BEHIND
1070
     0
1002
}
1002
{
1000
REACTOR
1002
}
1001
GENIUS_GENOBJ-N-FIL_13
1002
{
1000
OWNER
1000
GEN
1002
}
  0
ARC
  5
83
100
AcDbEntity
  8
AM_3
100
AcDbCircle
 10
5885.264686
 20
-2345.279566
 30
0.0
 40
2.5
100
AcDbArc
 50
240.0
 51
330.0
1001
GENIUS_GENODEF_13
1002
{
1000
HIER
1070
     0
1002
}
1002
{
1000
MANEDIT
1070
     0
1002
}
1002
{
1000
NOSEL
1070
     0
1002
}
1002
{
1000
BEHIND
1070
     0
1002
}
1002
{
1000
REACTOR
1002
}
1001
GENIUS_GENOBJ-N-FIL_13
1002
{
1000
OWNER
1000
GEN
1002
}
  0
LINE
  5
84
100
AcDbEntity
  8
AM_3
100
AcDbLine
 10
5887.42975
 20
-2346.529566
 30
0.0
 11
5885.264686
 21
-2345.279566
 31
0.0
  0
LINE
  5
85
100
AcDbEntity
  8
AM_3
100
AcDbLine
 10
5885.264686
 20
-2345.279566
 30
0.0
 11
5884.014686
 21
-2347.44463
 31
0.0
  0
CIRCLE
  5
86
100
AcDbEntity
  8
AM_3
100
AcDbCircle
 10
5882.274305
 20
-2320.459058
 30
0.0
 40
6.5
  0
LINE
  5
87
100
AcDbEntity
  8
AM_3
100
AcDbLine
 10
5852.453797
 20
-2332.109693
 30
0.0
 11
5882.764686
 21
-2349.609693
 31
0.0
  0
LINE
  5
88
100
AcDbEntity
  8
AM_3
100
AcDbLine
 10
5884.014686
 20
-2347.44463
 30
0.0
 11
5853.703797
 21
-2329.94463
 31
0.0
  0
LINE
  5
89
100
AcDbEntity
  8
AM_3
100
AcDbLine
 10
5877.453797
 20
-2288.808423
 30
0.0
 11
5852.453797
 21
-2332.109693
 31
0.0
  0
ARC
  5
8A
100
AcDbEntity
  8
AM_3
100
AcDbCircle
 10
5905.264686
 20
-2310.63855
 30
0.0
 40
2.5
100
AcDbArc
 50
330.0
 51
60.0
1001
GENIUS_GENODEF_13
1002
{
1000
HIER
1070
     0
1002
}
1002
{
1000
MANEDIT
1070
     0
1002
}
1002
{
1000
NOSEL
1070
     0
1002
}
1002
{
1000
BEHIND
1070
     0
1002
}
1002
{
1000
REACTOR
1002
}
1001
GENIUS_GENOBJ-N-FIL_13
1002
{
1000
OWNER
1000
GEN
1002
}
  0
ARC
  5
8B
100
AcDbEntity
  8
AM_3
100
AcDbCircle
 10
5905.264686
 20
-2310.63855
 30
0.0
 40
5.0
100
AcDbArc
 50
330.0
 51
60.0
1001
GENIUS_GENODEF_13
1002
{
1000
HIER
1070
     0
1002
}
1002
{
1000
MANEDIT
1070
     0
1002
}
1002
{
1000
NOSEL
1070
     0
1002
}
1002
{
1000
BEHIND
1070
     0
1002
}
1002
{
1000
REACTOR
1002
}
1001
GENIUS_GENOBJ-N-FIL_13
1002
{
1000
OWNER
1000
GEN
1002
}
  0
LINE
  5
8C
100
AcDbEntity
  8
AM_3
100
AcDbLine
 10
5905.264686
 20
-2310.63855
 30
0.0
 11
5907.42975
 21
-2311.88855
 31
0.0
  0
LINE
  5
8D
100
AcDbEntity
  8
AM_3
100
AcDbLine
 10
5906.514686
 20
-2308.473486
 30
0.0
 11
5905.264686
 21
-2310.63855
 31
0.0
  0
LINE
  5
8E
100
AcDbEntity
  8
AM_7
100
AcDbLine
 10
6129.091545
 20
-2075.776638
 30
0.0
 11
6129.091545
 21
-2851.904
 31
0.0
1001
GENIUS_GENODEF_13
1002
{
1000
HIER
1070
     0
1002
}
1002
{
1000
MANEDIT
1070
     0
1002
}
1002
{
1000
NOSEL
1070
     0
1002
}
1002
{
1000
BEHIND
1070
     0
1002
}
1002
{
1000
REACTOR
1002
}
1001
GENIUS_GENOBJ-N-CEN_13
1002
{
1000
OWNER
1000
GEN
1002
}
  0
CIRCLE
  5
8F
100
AcDbEntity
  8
AM_7
100
AcDbCircle
 10
6129.091545
 20
-2462.959058
 30
0.0
 40
110.0
  0
CIRCLE
  5
90
100
AcDbEntity
  8
AM_3
100
AcDbCircle
 10
6129.091545
 20
-2462.959058
 30
0.0
 40
130.0
  0
LINE
  5
91
100
AcDbEntity
  8
AM_7
100
AcDbLine
 10
6166.594522
 20
-2553.499252
 30
0.0
 11
6175.778924
 21
-2575.672361
 31
0.0
1001
GENIUS_GENODEF_13
1002
{
1000
HIER
1070
     0
1002
}
1002
{
1000
MANEDIT
1070
     0
1002
}
1002
{
1000
NOSEL
1070
     0
1002
}
1002
{
1000
BEHIND
1070
     0
1002
}
1002
{
1000
REACTOR
1002
}
1001
GENIUS_GENOBJ-N-CEN_13
1002
{
1000
OWNER
1000
GEN
1002
}
  0
CIRCLE
  5
92
100
AcDbEntity
  8
AM_3
100
AcDbCircle
 10
6171.186723
 20
-2564.585807
 30
0.0
 40
6.0
  0
ARC
  5
93
100
AcDbEntity
  8
AM_3
100
AcDbCircle
 10
6149.091545
 20
-2732.959058
 30
0.0
 40
2.5
100
AcDbArc
 50
0.0
 51
90.0
1001
GENIUS_GENODEF_13
1002
{
1000
HIER
1070
     0
1002
}
1002
{
1000
MANEDIT
1070
     0
1002
}
1002
{
1000
NOSEL
1070
     0
1002
}
1002
{
1000
BEHIND
1070
     0
1002
}
1002
{
1000
REACTOR
1002
}
1001
GENIUS_GENOBJ-N-FIL_13
1002
{
1000
OWNER
1000
GEN
1002
}
  0
ARC
  5
94
100
AcDbEntity
  8
AM_3
100
AcDbCircle
 10
6149.091545
 20
-2732.959058
 30
0.0
 40
5.0
100
AcDbArc
 50
0.0
 51
90.0
1001
GENIUS_GENODEF_13
1002
{
1000
HIER
1070
     0
1002
}
1002
{
1000
MANEDIT
1070
     0
1002
}
1002
{
1000
NOSEL
1070
     0
1002
}
1002
{
1000
BEHIND
1070
     0
1002
}
1002
{
1000
REACTOR
1002
}
1001
GENIUS_GENOBJ-N-FIL_13
1002
{
1000
OWNER
1000
GEN
1002
}
  0
LINE
  5
95
100
AcDbEntity
  8
AM_3
100
AcDbLine
 10
6149.091545
 20
-2730.459058
 30
0.0
 11
6149.091545
 21
-2732.959058
 31
0.0
  0
LINE
  5
96
100
AcDbEntity
  8
AM_3
100
AcDbLine
 10
6149.091545
 20
-2732.959058
 30
0.0
 11
6151.591545
 21
-2732.959058
 31
0.0
  0
LINE
  5
97
100
AcDbEntity
  8
AM_3
100
AcDbLine
 10
6151.591545
 20
-2732.959058
 30
0.0
 11
6151.591545
 21
-2767.959058
 31
0.0
  0
LINE
  5
98
100
AcDbEntity
  8
AM_3
100
AcDbLine
 10
6154.091545
 20
-2767.959058
 30
0.0
 11
6154.091545
 21
-2732.959058
 31
0.0
  0
CIRCLE
  5
99
100
AcDbEntity
  8
AM_3
100
AcDbCircle
 10
6129.091545
 20
-2747.959058
 30
0.0
 40
6.5
  0
ARC
  5
9A
100
AcDbEntity
  8
AM_3
100
AcDbCircle
 10
6109.091545
 20
-2732.959058
 30
0.0
 40
2.5
100
AcDbArc
 50
90.0
 51
180.0
1001
GENIUS_GENODEF_13
1002
{
1000
HIER
1070
     0
1002
}
1002
{
1000
MANEDIT
1070
     0
1002
}
1002
{
1000
NOSEL
1070
     0
1002
}
1002
{
1000
BEHIND
1070
     0
1002
}
1002
{
1000
REACTOR
1002
}
1001
GENIUS_GENOBJ-N-FIL_13
1002
{
1000
OWNER
1000
GEN
1002
}
  0
ARC
  5
9B
100
AcDbEntity
  8
AM_3
100
AcDbCircle
 10
6109.091545
 20
-2732.959058
 30
0.0
 40
5.0
100
AcDbArc
 50
90.0
 51
180.0
1001
GENIUS_GENODEF_13
1002
{
1000
HIER
1070
     0
1002
}
1002
{
1000
MANEDIT
1070
     0
1002
}
1002
{
1000
NOSEL
1070
     0
1002
}
1002
{
1000
BEHIND
1070
     0
1002
}
1002
{
1000
REACTOR
1002
}
1001
GENIUS_GENOBJ-N-FIL_13
1002
{
1000
OWNER
1000
GEN
1002
}
  0
LINE
  5
9C
100
AcDbEntity
  8
AM_3
100
AcDbLine
 10
6109.091545
 20
-2732.959058
 30
0.0
 11
6109.091545
 21
-2730.459058
 31
0.0
  0
LINE
  5
9D
100
AcDbEntity
  8
AM_3
100
AcDbLine
 10
6106.591545
 20
-2732.959058
 30
0.0
 11
6109.091545
 21
-2732.959058
 31
0.0
  0
LINE
  5
9E
100
AcDbEntity
  8
AM_3
100
AcDbLine
 10
6106.591545
 20
-2767.959058
 30
0.0
 11
6106.591545
 21
-2732.959058
 31
0.0
  0
LINE
  5
9F
100
AcDbEntity
  8
AM_3
100
AcDbLine
 10
6104.091545
 20
-2732.959058
 30
0.0
 11
6104.091545
 21
-2767.959058
 31
0.0
  0
LINE
  5
A0
100
AcDbEntity
  8
AM_3
100
AcDbLine
 10
6109.091545
 20
-2730.459058
 30
0.0
 11
6149.091545
 21
-2730.459058
 31
0.0
  0
LINE
  5
A1
100
AcDbEntity
  8
AM_3
100
AcDbLine
 10
6149.091545
 20
-2727.959058
 30
0.0
 11
6109.091545
 21
-2727.959058
 31
0.0
  0
LINE
  5
A2
100
AcDbEntity
  8
AM_3
100
AcDbLine
 10
6104.091545
 20
-2767.959058
 30
0.0
 11
6154.091545
 21
-2767.959058
 31
0.0
  0
LINE
  5
A3
100
AcDbEntity
  8
AM_7
100
AcDbLine
 10
6091.588569
 20
-2553.499252
 30
0.0
 11
6082.404166
 21
-2575.672361
 31
0.0
1001
GENIUS_GENODEF_13
1002
{
1000
HIER
1070
     0
1002
}
1002
{
1000
MANEDIT
1070
     0
1002
}
1002
{
1000
NOSEL
1070
     0
1002
}
1002
{
1000
BEHIND
1070
     0
1002
}
1002
{
1000
REACTOR
1002
}
1001
GENIUS_GENOBJ-N-CEN_13
1002
{
1000
OWNER
1000
GEN
1002
}
  0
CIRCLE
  5
A4
100
AcDbEntity
  8
AM_3
100
AcDbCircle
 10
6086.996368
 20
-2564.585807
 30
0.0
 40
6.0
  0
LINE
  5
A5
100
AcDbEntity
  8
AM_3
100
AcDbLine
 10
6351.668404
 20
-2308.473486
 30
0.0
 11
6381.979293
 21
-2290.973486
 31
0.0
  0
LINE
  5
A6
100
AcDbEntity
  8
AM_3
100
AcDbLine
 10
6380.729293
 20
-2288.808423
 30
0.0
 11
6350.418404
 21
-2306.308423
 31
0.0
  0
LINE
  5
A7
100
AcDbEntity
  8
AM_3
100
AcDbLine
 10
6370.753341
 20
-2346.529566
 30
0.0
 11
6350.753341
 21
-2311.88855
 31
0.0
  0
LINE
  5
A8
100
AcDbEntity
  8
AM_3
100
AcDbLine
 10
6348.588277
 20
-2313.13855
 30
0.0
 11
6368.588277
 21
-2347.779566
 31
0.0
  0
LINE
  5
A9
100
AcDbEntity
  8
AM_7
100
AcDbLine
 10
6345.597896
 20
-2337.959058
 30
0.0
 11
6406.219674
 21
-2302.959058
 31
0.0
1001
GENIUS_GENODEF_13
1002
{
1000
HIER
1070
     0
1002
}
1002
{
1000
MANEDIT
1070
     0
1002
}
1002
{
1000
NOSEL
1070
     0
1002
}
1002
{
1000
BEHIND
1070
     0
1002
}
1002
{
1000
REACTOR
1002
}
1001
GENIUS_GENOBJ-N-CEN_13
1002
{
1000
OWNER
1000
GEN
1002
}
  0
CIRCLE
  5
AA
100
AcDbEntity
  8
AM_3
100
AcDbCircle
 10
6171.186723
 20
-2361.332309
 30
0.0
 40
6.0
  0
LINE
  5
AB
100
AcDbEntity
  8
AM_7
100
AcDbLine
 10
6166.594522
 20
-2372.418864
 30
0.0
 11
6175.778924
 21
-2350.245755
 31
0.0
1001
GENIUS_GENODEF_13
1002
{
1000
HIER
1070
     0
1002
}
1002
{
1000
MANEDIT
1070
     0
1002
}
1002
{
1000
NOSEL
1070
     0
1002
}
1002
{
1000
BEHIND
1070
     0
1002
}
1002
{
1000
REACTOR
1002
}
1001
GENIUS_GENOBJ-N-CEN_13
1002
{
1000
OWNER
1000
GEN
1002
}
  0
LINE
  5
AC
100
AcDbEntity
  8
AM_7
100
AcDbLine
 10
6038.551351
 20
-2500.462034
 30
0.0
 11
6016.378242
 21
-2509.646437
 31
0.0
1001
GENIUS_GENODEF_13
1002
{
1000
HIER
1070
     0
1002
}
1002
{
1000
MANEDIT
1070
     0
1002
}
1002
{
1000
NOSEL
1070
     0
1002
}
1002
{
1000
BEHIND
1070
     0
1002
}
1002
{
1000
REACTOR
1002
}
1001
GENIUS_GENOBJ-N-CEN_13
1002
{
1000
OWNER
1000
GEN
1002
}
  0
CIRCLE
  5
AD
100
AcDbEntity
  8
AM_3
100
AcDbCircle
 10
6027.464797
 20
-2505.054236
 30
0.0
 40
6.0
  0
LINE
  5
AE
100
AcDbEntity
  8
AM_7
100
AcDbLine
 10
6038.551351
 20
-2425.456082
 30
0.0
 11
6016.378242
 21
-2416.271679
 31
0.0
1001
GENIUS_GENODEF_13
1002
{
1000
HIER
1070
     0
1002
}
1002
{
1000
MANEDIT
1070
     0
1002
}
1002
{
1000
NOSEL
1070
     0
1002
}
1002
{
1000
BEHIND
1070
     0
1002
}
1002
{
1000
REACTOR
1002
}
1001
GENIUS_GENOBJ-N-CEN_13
1002
{
1000
OWNER
1000
GEN
1002
}
  0
CIRCLE
  5
AF
100
AcDbEntity
  8
AM_3
100
AcDbCircle
 10
6027.464797
 20
-2420.86388
 30
0.0
 40
6.0
  0
LINE
  5
B0
100
AcDbEntity
  8
AM_0N
100
AcDbLine
 10
6141.091545
 20
-2469.887261
 30
0.0
 11
6141.091545
 21
-2456.030855
 31
0.0
  0
CIRCLE
  5
B2
100
AcDbEntity
  8
AM_3
100
AcDbCircle
 10
6137.591545
 20
-2462.959058
 30
0.0
 40
5.0
  0
LINE
  5
B3
100
AcDbEntity
  8
AM_0N
100
AcDbLine
 10
6117.091545
 20
-2456.030855
 30
0.0
 11
6117.091545
 21
-2469.887261
 31
0.0
  0
CIRCLE
  5
B4
100
AcDbEntity
  8
AM_0N
100
AcDbCircle
 10
6129.091545
 20
-2462.959058
 30
0.0
 40
12.0
  0
CIRCLE
  5
B5
100
AcDbEntity
  8
AM_0N
100
AcDbCircle
 10
6129.091545
 20
-2462.959058
 30
0.0
 40
8.0
  0
ARC
  5
B6
100
AcDbEntity
  8
AM_4N
100
AcDbCircle
 10
6129.091545
 20
-2462.959058
 30
0.0
 40
6.917468
100
AcDbArc
 50
260.0
 51
170.0
  0
CIRCLE
  5
B8
100
AcDbEntity
  8
AM_3
100
AcDbCircle
 10
6129.091545
 20
-2462.959058
 30
0.0
 40
16.2
  0
CIRCLE
  5
B9
100
AcDbEntity
  8
AM_3
100
AcDbCircle
 10
6120.591545
 20
-2462.959058
 30
0.0
 40
5.0
  0
CIRCLE
  5
BA
100
AcDbEntity
  8
AM_3
100
AcDbCircle
 10
6129.091545
 20
-2471.459058
 30
0.0
 40
5.0
  0
CIRCLE
  5
BB
100
AcDbEntity
  8
AM_3
100
AcDbCircle
 10
6129.091545
 20
-2462.959058
 30
0.0
 40
11.75
  0
LINE
  5
BC
100
AcDbEntity
  8
AM_0N
100
AcDbLine
 10
6129.091545
 20
-2476.815464
 30
0.0
 11
6141.091545
 21
-2469.887261
 31
0.0
  0
LINE
  5
BD
100
AcDbEntity
  8
AM_0N
100
AcDbLine
 10
6117.091545
 20
-2469.887261
 30
0.0
 11
6129.091545
 21
-2476.815464
 31
0.0
  0
LINE
  5
BE
100
AcDbEntity
  8
AM_0N
100
AcDbLine
 10
6141.091545
 20
-2456.030855
 30
0.0
 11
6129.091545
 21
-2449.102652
 31
0.0
  0
LINE
  5
BF
100
AcDbEntity
  8
AM_0N
100
AcDbLine
 10
6129.091545
 20
-2449.102652
 30
0.0
 11
6117.091545
 21
-2456.030855
 31
0.0
  0
CIRCLE
  5
C0
100
AcDbEntity
  8
AM_3
100
AcDbCircle
 10
6129.091545
 20
-2454.459058
 30
0.0
 40
5.0
  0
CIRCLE
  5
C1
100
AcDbEntity
  8
AM_3
100
AcDbCircle
 10
6086.996368
 20
-2361.332309
 30
0.0
 40
6.0
  0
LINE
  5
C2
100
AcDbEntity
  8
AM_7
100
AcDbLine
 10
6091.588569
 20
-2372.418864
 30
0.0
 11
6082.404166
 21
-2350.245755
 31
0.0
1001
GENIUS_GENODEF_13
1002
{
1000
HIER
1070
     0
1002
}
1002
{
1000
MANEDIT
1070
     0
1002
}
1002
{
1000
NOSEL
1070
     0
1002
}
1002
{
1000
BEHIND
1070
     0
1002
}
1002
{
1000
REACTOR
1002
}
1001
GENIUS_GENOBJ-N-CEN_13
1002
{
1000
OWNER
1000
GEN
1002
}
  0
CIRCLE
  5
C3
100
AcDbEntity
  8
AM_3
100
AcDbCircle
 10
6230.718294
 20
-2505.054236
 30
0.0
 40
6.0
  0
CIRCLE
  5
C4
100
AcDbEntity
  8
AM_3
100
AcDbCircle
 10
6230.718294
 20
-2420.86388
 30
0.0
 40
6.0
  0
LINE
  5
C5
100
AcDbEntity
  8
AM_7
100
AcDbLine
 10
6219.631739
 20
-2500.462034
 30
0.0
 11
6241.804848
 21
-2509.646437
 31
0.0
1001
GENIUS_GENODEF_13
1002
{
1000
HIER
1070
     0
1002
}
1002
{
1000
MANEDIT
1070
     0
1002
}
1002
{
1000
NOSEL
1070
     0
1002
}
1002
{
1000
BEHIND
1070
     0
1002
}
1002
{
1000
REACTOR
1002
}
1001
GENIUS_GENOBJ-N-CEN_13
1002
{
1000
OWNER
1000
GEN
1002
}
  0
LINE
  5
C6
100
AcDbEntity
  8
AM_7
100
AcDbLine
 10
6219.631739
 20
-2425.456082
 30
0.0
 11
6241.804848
 21
-2416.271679
 31
0.0
1001
GENIUS_GENODEF_13
1002
{
1000
HIER
1070
     0
1002
}
1002
{
1000
MANEDIT
1070
     0
1002
}
1002
{
1000
NOSEL
1070
     0
1002
}
1002
{
1000
BEHIND
1070
     0
1002
}
1002
{
1000
REACTOR
1002
}
1001
GENIUS_GENOBJ-N-CEN_13
1002
{
1000
OWNER
1000
GEN
1002
}
  0
ARC
  5
C7
100
AcDbEntity
  8
AM_3
100
AcDbCircle
 10
6352.918404
 20
-2310.63855
 30
0.0
 40
2.5
100
AcDbArc
 50
120.0
 51
210.0
1001
GENIUS_GENODEF_13
1002
{
1000
HIER
1070
     0
1002
}
1002
{
1000
MANEDIT
1070
     0
1002
}
1002
{
1000
NOSEL
1070
     0
1002
}
1002
{
1000
BEHIND
1070
     0
1002
}
1002
{
1000
REACTOR
1002
}
1001
GENIUS_GENOBJ-N-FIL_13
1002
{
1000
OWNER
1000
GEN
1002
}
  0
ARC
  5
C8
100
AcDbEntity
  8
AM_3
100
AcDbCircle
 10
6352.918404
 20
-2310.63855
 30
0.0
 40
5.0
100
AcDbArc
 50
120.0
 51
210.0
1001
GENIUS_GENODEF_13
1002
{
1000
HIER
1070
     0
1002
}
1002
{
1000
MANEDIT
1070
     0
1002
}
1002
{
1000
NOSEL
1070
     0
1002
}
1002
{
1000
BEHIND
1070
     0
1002
}
1002
{
1000
REACTOR
1002
}
1001
GENIUS_GENOBJ-N-FIL_13
1002
{
1000
OWNER
1000
GEN
1002
}
  0
LINE
  5
C9
100
AcDbEntity
  8
AM_3
100
AcDbLine
 10
6350.753341
 20
-2311.88855
 30
0.0
 11
6352.918404
 21
-2310.63855
 31
0.0
  0
LINE
  5
CA
100
AcDbEntity
  8
AM_3
100
AcDbLine
 10
6352.918404
 20
-2310.63855
 30
0.0
 11
6351.668404
 21
-2308.473486
 31
0.0
  0
LINE
  5
CB
100
AcDbEntity
  8
AM_7
  6
AM_DIN_G_W050
100
AcDbLine
 10
6042.604469
 20
-2184.881557
 30
0.0
 11
6089.954825
 21
-2174.384235
 31
0.0
1001
GENIUS_GENODEF_13
1002
{
1000
HIER
1070
     0
1002
}
1002
{
1000
MANEDIT
1070
     0
1002
}
1002
{
1000
NOSEL
1070
     0
1002
}
1002
{
1000
BEHIND
1070
     0
1002
}
1002
{
1000
REACTOR
1002
}
1001
GENIUS_GENOBJ-N-CEN_13
1002
{
1000
OWNER
1000
GEN
1002
}
  0
ELLIPSE
  5
CC
100
AcDbEntity
  8
AM_0
100
AcDbEllipse
 10
6066.279647
 20
-2179.632896
 30
0.0
 11
-5.589294640761516
 21
-1.239116789796194
 31
0.0
210
0.0
220
0.0
230
0.9999999999999998
 40
0.732891
 41
0.0
 42
6.283185307179586
  0
LINE
  5
CD
100
AcDbEntity
  8
AM_7
  6
AM_DIN_G_W050
100
AcDbLine
 10
6073.202345
 20
-2210.859167
 30
0.0
 11
6061.565756
 21
-2158.369905
 31
0.0
1001
GENIUS_GENODEF_13
1002
{
1000
HIER
1070
     0
1002
}
1002
{
1000
MANEDIT
1070
     0
1002
}
1002
{
1000
NOSEL
1070
     0
1002
}
1002
{
1000
BEHIND
1070
     0
1002
}
1002
{
1000
REACTOR
1002
}
1001
GENIUS_GENOBJ-N-CEN_13
1002
{
1000
OWNER
1000
GEN
1002
}
  0
LINE
  5
CE
100
AcDbEntity
  8
AM_0
100
AcDbLine
 10
6077.519191
 20
-2187.59411
 30
0.0
 11
6075.310385
 21
-2177.63083
 31
0.0
  0
LINE
  5
CF
100
AcDbEntity
  8
AM_0
100
AcDbLine
 10
6057.248909
 20
-2181.634962
 30
0.0
 11
6059.457715
 21
-2191.598242
 31
0.0
  0
ELLIPSE
  5
D0
100
AcDbEntity
  8
AM_0
100
AcDbEllipse
 10
6068.488453
 20
-2189.596176
 30
0.0
 11
-9.030738065859186
 21
-2.002066428928341
 31
0.0
210
0.0
220
0.0
230
1.0
 40
0.732891
 41
0.0
 42
3.141592653589793
  0
ELLIPSE
  5
D1
100
AcDbEntity
  8
AM_0
100
AcDbEllipse
 10
6066.279647
 20
-2179.632896
 30
0.0
 11
-9.030738065859186
 21
-2.002066428928341
 31
0.0
210
0.0
220
0.0
230
1.0
 40
0.732891
 41
0.0
 42
6.283185307179586
  0
ELLIPSE
  5
D2
100
AcDbEntity
  8
AM_0
100
AcDbEllipse
 10
6066.279647
 20
-2179.632896
 30
0.0
 11
-6.424027726849003
 21
-1.424172659713346
 31
0.0
210
0.0
220
0.0
230
1.0
 40
0.732891
 41
0.0
 42
6.283185307179586
  0
ELLIPSE
  5
D3
100
AcDbEntity
  8
AM_0
100
AcDbEllipse
 10
5999.801933
 20
-2214.596025
 30
0.0
 11
-8.20485020689998
 21
-4.271174672421321
 31
0.0
210
0.0
220
0.0
230
1.0
 40
0.732891
 41
0.0
 42
3.141592653589793
  0
LINE
  5
D4
100
AcDbEntity
  8
AM_0
100
AcDbLine
 10
6008.006784
 20
-2210.32485
 30
0.0
 11
6003.294554
 21
-2201.272742
 31
0.0
  0
ELLIPSE
  5
D5
100
AcDbEntity
  8
AM_0
100
AcDbEllipse
 10
5995.089704
 20
-2205.543916
 30
0.0
 11
-5.836531282313698
 21
-3.038305875084564
 31
0.0
210
0.0
220
0.0
230
1.0
 40
0.732891
 41
0.0
 42
6.283185307179586
  0
ELLIPSE
  5
D6
100
AcDbEntity
  8
AM_0
100
AcDbEllipse
 10
5995.089704
 20
-2205.543916
 30
0.0
 11
-5.07813701994622
 21
-2.643510810768882
 31
0.0
210
0.0
220
0.0
230
1.0
 40
0.732891
 41
0.0
 42
6.283185307179586
  0
LINE
  5
D7
100
AcDbEntity
  8
AM_7
100
AcDbLine
 10
6145.422545
 20
-2237.959058
 30
0.0
 11
6112.760545
 21
-2237.959058
 31
0.0
  0
CIRCLE
  5
D8
100
AcDbEntity
  8
AM_0
100
AcDbCircle
 10
6129.091545
 20
-2237.959058
 30
0.0
 40
7.474885
  0
ARC
  5
D9
100
AcDbEntity
  8
AM_4
100
AcDbCircle
 10
6129.091545
 20
-2237.959058
 30
0.0
 40
8.331
100
AcDbArc
 50
10.0
 51
300.0
  0
CIRCLE
  5
DB
100
AcDbEntity
  8
AM_0
100
AcDbCircle
 10
6129.091545
 20
-2237.959058
 30
0.0
 40
10.65
  0
LINE
  5
DC
100
AcDbEntity
  8
AM_3
100
AcDbLine
 10
6375.418404
 20
-2349.609693
 30
0.0
 11
6405.729293
 21
-2332.109693
 31
0.0
  0
LINE
  5
DD
100
AcDbEntity
  8
AM_3
100
AcDbLine
 10
6404.479293
 20
-2329.94463
 30
0.0
 11
6374.168404
 21
-2347.44463
 31
0.0
  0
ARC
  5
DE
100
AcDbEntity
  8
AM_3
100
AcDbCircle
 10
6372.918404
 20
-2345.279566
 30
0.0
 40
5.0
100
AcDbArc
 50
210.0
 51
300.0
1001
GENIUS_GENODEF_13
1002
{
1000
HIER
1070
     0
1002
}
1002
{
1000
MANEDIT
1070
     0
1002
}
1002
{
1000
NOSEL
1070
     0
1002
}
1002
{
1000
BEHIND
1070
     0
1002
}
1002
{
1000
REACTOR
1002
}
1001
GENIUS_GENOBJ-N-FIL_13
1002
{
1000
OWNER
1000
GEN
1002
}
  0
ARC
  5
DF
100
AcDbEntity
  8
AM_3
100
AcDbCircle
 10
6372.918404
 20
-2345.279566
 30
0.0
 40
2.5
100
AcDbArc
 50
210.0
 51
300.0
1001
GENIUS_GENODEF_13
1002
{
1000
HIER
1070
     0
1002
}
1002
{
1000
MANEDIT
1070
     0
1002
}
1002
{
1000
NOSEL
1070
     0
1002
}
1002
{
1000
BEHIND
1070
     0
1002
}
1002
{
1000
REACTOR
1002
}
1001
GENIUS_GENOBJ-N-FIL_13
1002
{
1000
OWNER
1000
GEN
1002
}
  0
LINE
  5
E0
100
AcDbEntity
  8
AM_3
100
AcDbLine
 10
6372.918404
 20
-2345.279566
 30
0.0
 11
6370.753341
 21
-2346.529566
 31
0.0
  0
LINE
  5
E1
100
AcDbEntity
  8
AM_3
100
AcDbLine
 10
6374.168404
 20
-2347.44463
 30
0.0
 11
6372.918404
 21
-2345.279566
 31
0.0
  0
CIRCLE
  5
E2
100
AcDbEntity
  8
AM_3
100
AcDbCircle
 10
6375.908785
 20
-2320.459058
 30
0.0
 40
6.5
  0
LINE
  5
E3
100
AcDbEntity
  8
AM_3
100
AcDbLine
 10
6405.729293
 20
-2332.109693
 30
0.0
 11
6380.729293
 21
-2288.808423
 31
0.0
  0
DIMENSION
  5
E4
100
AcDbEntity
  8
AM_5
100
AcDbDimension
  2
*D6
 10
5674.672774
 20
-1813.239419
 30
0.0
 11
5674.672774
 21
-1202.756113
 31
0.0
 70
   128
  1
<> {}{\C2;%%p15}
  3
AM_DIN
100
AcDbAlignedDimension
 13
6122.071126
 23
-339.904238
 33
0.0
 14
5852.453797
 24
-1813.239419
 34
0.0
 50
90.0
100
AcDbRotatedDimension
1001
GENIUS_GENDTOL_13
1000
TolPm
1000
h7
1000
{$3%%p$P}
1040
1473.0
1001
ACAD
1000
DSTYLE
1002
{
1070
    40
1040
7.0
1070
    47
1040
15.0
1070
    48
1040
15.0
1070
   271
1070
     0
1002
}
  0
LINE
  5
F1
100
AcDbEntity
  8
AM_0
100
AcDbLine
 10
6499.091545
 20
-1000.85906
 30
0.0
 11
5759.091545
 21
-1000.85906
 31
0.0
  0
DIMENSION
  5
F2
100
AcDbEntity
  8
AM_5
100
AcDbDimension
  2
*D7
 10
5759.091545
 20
-1298.266344
 30
0.0
 11
6074.090543
 21
-1298.266344
 31
0.0
 70
   128
  1
%%c<>
  3
AM_DIN
100
AcDbAlignedDimension
 13
6499.091545
 23
-1298.266344
 33
0.0
 14
5759.091545
 24
-1298.266344
 34
0.0
100
AcDbRotatedDimension
1001
ACAD
1000
DSTYLE
1002
{
1070
    40
1040
7.0
1002
}
1001
GENIUS_GENDTOL_13
1000

1000
h7
1000

1040
0.0
1000
%%c<>
  0
ARC
  5
FF
100
AcDbEntity
  8
AM_0
100
AcDbCircle
 10
6129.091545
 20
-1088.745744
 30
0.0
 40
546.1
100
AcDbArc
 50
234.99059
 51
257.576855
  0
ARC
  5
100
100
AcDbEntity
  8
AM_0
100
AcDbCircle
 10
6129.091545
 20
-920.528993
 30
0.0
 40
546.1
100
AcDbArc
 50
54.99059
 51
125.00941
  0
LINE
  5
101
100
AcDbEntity
  8
AM_0
100
AcDbLine
 10
5759.091545
 20
-1000.85906
 30
0.0
 11
5759.091545
 21
-1427.098533
 31
0.0
  0
ARC
  5
102
100
AcDbEntity
  8
AM_0
100
AcDbCircle
 10
5892.091545
 20
-1427.098533
 30
0.0
 40
133.0
100
AcDbArc
 50
180.0
 51
234.99059
1001
GENIUS_GENODEF_13
1002
{
1000
HIER
1070
     0
1002
}
1002
{
1000
MANEDIT
1070
     0
1002
}
1002
{
1000
NOSEL
1070
     0
1002
}
1002
{
1000
BEHIND
1070
     0
1002
}
1002
{
1000
REACTOR
1002
}
1001
GENIUS_GENOBJ-N-FIL_13
1002
{
1000
OWNER
1000
GEN
1002
}
  0
LINE
  5
103
100
AcDbEntity
  8
AM_4
100
AcDbLine
 10
5887.094813
 20
-1803.564703
 30
0.0
 11
5887.094813
 21
-1578.299409
 31
0.0
  0
LINE
  5
104
100
AcDbEntity
  8
AM_0
100
AcDbLine
 10
5910.264686
 20
-1808.239419
 30
0.0
 11
5910.264686
 21
-1589.085644
 31
0.0
  0
LINE
  5
105
100
AcDbEntity
  8
AM_0
100
AcDbLine
 10
5852.453797
 20
-1559.592604
 30
0.0
 11
5852.453797
 21
-1813.239419
 31
0.0
  0
LINE
  5
106
100
AcDbEntity
  8
AM_0
100
AcDbLine
 10
5852.453797
 20
-1813.239419
 30
0.0
 11
5909.594813
 21
-1813.239419
 31
0.0
  0
LINE
  5
107
100
AcDbEntity
  8
AM_0
100
AcDbLine
 10
5889.594813
 20
-1808.239419
 30
0.0
 11
5889.594813
 21
-1813.239419
 31
0.0
  0
LINE
  5
108
100
AcDbEntity
  8
AM_0
100
AcDbLine
 10
5882.764686
 20
-1813.239419
 30
0.0
 11
5882.764686
 21
-1808.239419
 31
0.0
  0
LINE
  5
109
100
AcDbEntity
  8
AM_0
100
AcDbLine
 10
5882.764686
 20
-1808.239419
 30
0.0
 11
5889.594813
 21
-1808.239419
 31
0.0
  0
LINE
  5
10A
100
AcDbEntity
  8
AM_0
100
AcDbLine
 10
5882.764686
 20
-1810.739419
 30
0.0
 11
5889.594813
 21
-1810.739419
 31
0.0
  0
LINE
  5
10B
100
AcDbEntity
  8
AM_7
100
AcDbLine
 10
5882.274305
 20
-1828.239419
 30
0.0
 11
5882.274305
 21
-1796.081681
 31
0.0
1001
GENIUS_GENODEF_13
1002
{
1000
HIER
1070
     0
1002
}
1002
{
1000
MANEDIT
1070
     0
1002
}
1002
{
1000
NOSEL
1070
     0
1002
}
1002
{
1000
BEHIND
1070
     0
1002
}
1002
{
1000
REACTOR
1002
}
1001
GENIUS_GENOBJ-N-CEN_13
1002
{
1000
OWNER
1000
GEN
1002
}
  0
LINE
  5
10C
100
AcDbEntity
  8
AM_0
100
AcDbLine
 10
5909.594813
 20
-1813.239419
 30
0.0
 11
5909.594813
 21
-1808.239419
 31
0.0
  0
LINE
  5
10D
100
AcDbEntity
  8
AM_0
100
AcDbLine
 10
5909.594813
 20
-1808.239419
 30
0.0
 11
5910.264686
 21
-1808.239419
 31
0.0
  0
LINE
  5
10E
100
AcDbEntity
  8
AM_0
100
AcDbLine
 10
5947.713113
 20
-1619.801896
 30
0.0
 11
5930.307004
 21
-1613.534728
 31
0.0
1001
GENIUS_GENOREF_13
1005
5AF
  0
LINE
  5
110
100
AcDbEntity
  8
AM_7
100
AcDbLine
 10
5944.769077
 20
-1600.67351
 30
0.0
 11
5937.993761
 21
-1619.490924
 31
0.0
  0
LINE
  5
111
100
AcDbEntity
  8
AM_0
100
AcDbLine
 10
5930.307004
 20
-1613.534728
 30
0.0
 11
5935.388491
 21
-1599.421667
 31
0.0
  0
LINE
  5
112
100
AcDbEntity
  8
AM_0
100
AcDbLine
 10
5952.794599
 20
-1605.688835
 30
0.0
 11
5947.713113
 21
-1619.801896
 31
0.0
  0
ARC
  5
113
100
AcDbEntity
  8
AM_0
100
AcDbCircle
 10
5892.091545
 20
-582.176204
 30
0.0
 40
133.0
100
AcDbArc
 50
125.00941
 51
180.0
1001
GENIUS_GENODEF_13
1002
{
1000
HIER
1070
     0
1002
}
1002
{
1000
MANEDIT
1070
     0
1002
}
1002
{
1000
NOSEL
1070
     0
1002
}
1002
{
1000
BEHIND
1070
     0
1002
}
1002
{
1000
REACTOR
1002
}
1001
GENIUS_GENOBJ-N-FIL_13
1002
{
1000
OWNER
1000
GEN
1002
}
  0
LINE
  5
114
100
AcDbEntity
  8
AM_0
100
AcDbLine
 10
5759.091545
 20
-996.639906
 30
0.0
 11
5759.091545
 21
-582.176204
 31
0.0
  0
ARC
  5
115
100
AcDbEntity
  8
AM_0
100
AcDbCircle
 10
5761.841545
 20
-996.639906
 30
0.0
 40
2.75
100
AcDbArc
 50
180.0
 51
225.0
1001
GENIUS_GENODEF_13
1002
{
1000
HIER
1070
     0
1002
}
1002
{
1000
MANEDIT
1070
     0
1002
}
1002
{
1000
NOSEL
1070
     0
1002
}
1002
{
1000
BEHIND
1070
     0
1002
}
1002
{
1000
REACTOR
1002
}
1001
GENIUS_GENOBJ-N-FIL_13
1002
{
1000
OWNER
1000
GEN
1002
}
  0
LINE
  5
116
100
AcDbEntity
  8
AM_0
100
AcDbLine
 10
5759.897002
 20
-998.584449
 30
0.0
 11
5760.477169
 21
-999.164617
 31
0.0
  0
ARC
  5
117
100
AcDbEntity
  8
AM_0
100
AcDbCircle
 10
5759.770062
 20
-999.871723
 30
0.0
 40
1.0
100
AcDbArc
 50
4.0
 51
45.0
1001
GENIUS_GENODEF_13
1002
{
1000
HIER
1070
     0
1002
}
1002
{
1000
MANEDIT
1070
     0
1002
}
1002
{
1000
NOSEL
1070
     0
1002
}
1002
{
1000
BEHIND
1070
     0
1002
}
1002
{
1000
REACTOR
1002
}
1001
GENIUS_GENOBJ-N-FIL_13
1002
{
1000
OWNER
1000
GEN
1002
}
  0
LINE
  5
118
100
AcDbEntity
  8
AM_0
100
AcDbLine
 10
5760.841545
 20
-1000.85906
 30
0.0
 11
5760.767626
 21
-999.801967
 31
0.0
  0
LINE
  5
119
100
AcDbEntity
  8
AM_0
100
AcDbLine
 10
7096.033482
 20
-1455.664163
 30
0.0
 11
7096.033482
 21
-556.131184
 31
0.0
  0
LINE
  5
11A
100
AcDbEntity
  8
AM_0
100
AcDbLine
 10
7093.033482
 20
-1455.664163
 30
0.0
 11
7093.033482
 21
-556.131184
 31
0.0
  0
LINE
  5
11B
100
AcDbEntity
  8
AM_0
100
AcDbLine
 10
7043.383482
 20
-1000.85906
 30
0.0
 11
7043.383482
 21
-1427.098533
 31
0.0
  0
LINE
  5
11C
100
AcDbEntity
  8
AM_0
100
AcDbLine
 10
7041.283482
 20
-1000.85906
 30
0.0
 11
7041.283482
 21
-1427.098533
 31
0.0
  0
HATCH
  5
11D
100
AcDbEntity
  8
AM_8
100
AcDbHatch
 10
0.0
 20
0.0
 30
0.0
210
0.0
220
0.0
230
1.0
  2
_U
 70
     0
 71
     0
 91
        1
 92
        1
 93
       13
 72
     1
 10
7041.283482
 20
-1000.85906
 11
7041.283482
 21
-1427.098533
 72
     2
 10
7174.283482
 20
-1427.098533
 40
133.0
 50
180.0
 51
234.99059
 73
     1
 72
     2
 10
7411.283482
 20
-1088.745744
 40
546.1
 50
234.99059
 51
261.523202
 73
     1
 72
     1
 10
7330.783482
 20
-1628.879949
 11
7330.783482
 21
-1630.05906
 72
     1
 10
7330.783482
 20
-1630.05906
 11
7330.783482
 21
-1635.05906
 72
     1
 10
7330.783482
 20
-1635.05906
 11
7324.883482
 21
-1635.05906
 72
     1
 10
7324.883482
 20
-1635.05906
 11
7324.883482
 21
-1635.85906
 72
     1
 10
7324.883482
 20
-1635.85906
 11
7332.883482
 21
-1635.85906
 72
     1
 10
7332.883482
 20
-1635.85906
 11
7332.883482
 21
-1627.066689
 72
     2
 10
7411.283482
 20
-1088.745744
 40
544.0
 50
98.286187
 51
125.00941
 73
     0
 72
     2
 10
7174.283482
 20
-1427.098533
 40
130.9
 50
125.00941
 51
180.0
 73
     0
 72
     1
 10
7043.383482
 20
-1427.098533
 11
7043.383482
 21
-1000.85906
 72
     1
 10
7043.383482
 20
-1000.85906
 11
7041.283482
 21
-1000.85906
 97
        0
 75
     0
 76
     0
 52
45.0
 41
7.0
 77
     0
 78
     1
 53
45.0
 43
4750.477491
 44
0.0
 45
-4.949747468305832
 46
4.949747468305832
 79
     0
 98
        1
 10
4750.477491
 20
0.0
1001
GENIUS_GENODEF_13
1002
{
1000
HIER
1070
     0
1002
}
1002
{
1000
MANEDIT
1070
     0
1002
}
1002
{
1000
NOSEL
1070
     0
1002
}
1002
{
1000
BEHIND
1070
     0
1002
}
1002
{
1000
OTHER
1070
     0
1002
}
1002
{
1000
REACTOR
1002
}
1001
GENIUS_GENOBJ-N-HTC_13
1002
{
1000
OWNER
1000
GEN
1002
}
1001
GENIUS_GENHATCH_13
1002
{
1000
DATA
1040
45.0
1042
1.0
1000
_U
1070
     0
1011
7042.505754
1021
-1411.61409
1031
0.0
1002
}
1002
{
1000
UCS
1010
0.0
1020
0.0
1030
0.0
1010
1.0
1020
0.0
1030
0.0
1010
0.0
1020
1.0
1030
0.0
1002
}
  0
LINE
  5
11E
100
AcDbEntity
  8
AM_7
100
AcDbLine
 10
7411.283482
 20
-1677.031421
 30
0.0
 11
7411.283482
 21
-324.904238
 31
0.0
1001
GENIUS_GENODEF_13
1002
{
1000
HIER
1070
     0
1002
}
1002
{
1000
MANEDIT
1070
     0
1002
}
1002
{
1000
NOSEL
1070
     0
1002
}
1002
{
1000
BEHIND
1070
     0
1002
}
1002
{
1000
REACTOR
1002
}
1001
GENIUS_GENOBJ-N-CEN_13
1002
{
1000
OWNER
1000
GEN
1002
}
  0
HATCH
  5
11F
100
AcDbEntity
  8
AM_8
100
AcDbHatch
 10
0.0
 20
0.0
 30
0.0
210
0.0
220
0.0
230
1.0
  2
_U
 70
     0
 71
     0
 91
        1
 92
        1
 93
       16
 72
     2
 10
7411.283482
 20
-842.42987
 40
457.0
 50
232.681155
 51
268.620756
 73
     0
 72
     1
 10
7400.283482
 20
-385.562274
 11
7400.283482
 21
-382.56141
 72
     2
 10
7411.283482
 20
-842.42987
 40
460.0
 50
91.370247
 51
127.318845
 73
     1
 72
     2
 10
7193.033482
 20
-556.131184
 40
100.0
 50
127.318845
 51
180.0
 73
     1
 72
     1
 10
7093.033482
 20
-556.131184
 11
7093.033482
 21
-1455.664163
 72
     2
 10
7193.033482
 20
-1455.664163
 40
100.0
 50
180.0
 51
232.802048
 73
     1
 72
     2
 10
7411.283482
 20
-1168.10906
 40
461.0
 50
232.802048
 51
260.447945
 73
     1
 72
     1
 10
7334.783482
 20
-1622.717408
 11
7334.783482
 21
-1635.85906
 72
     1
 10
7334.783482
 20
-1635.85906
 11
7310.283482
 21
-1635.85906
 72
     1
 10
7310.283482
 20
-1635.85906
 11
7310.283482
 21
-1640.35906
 72
     1
 10
7310.283482
 20
-1640.35906
 11
7338.783482
 21
-1640.35906
 72
     1
 10
7338.783482
 20
-1640.35906
 11
7338.783482
 21
-1620.334391
 72
     2
 10
7411.283482
 20
-1168.10906
 40
458.0
 50
99.108059
 51
127.197952
 73
     0
 72
     2
 10
7193.033482
 20
-1455.664163
 40
97.0
 50
127.197952
 51
180.0
 73
     0
 72
     1
 10
7096.033482
 20
-1455.664163
 11
7096.033482
 21
-556.131184
 72
     2
 10
7193.033482
 20
-556.131184
 40
97.0
 50
180.0
 51
232.681155
 73
     0
 97
        0
 75
     0
 76
     0
 52
45.0
 41
16.1
 77
     1
 78
     2
 53
45.0
 43
4750.477491
 44
0.0
 45
-11.3844191771034
 46
11.3844191771034
 79
     0
 53
135.0
 43
4750.477491
 44
0.0
 45
-11.38441917710341
 46
-11.3844191771034
 79
     0
 98
        1
 10
4750.477491
 20
0.0
1001
GENIUS_GENOBJ-N-HTC_13
1002
{
1000
OWNER
1000
GEN
1002
}
1001
GENIUS_GENODEF_13
1002
{
1000
HIER
1070
     0
1002
}
1002
{
1000
MANEDIT
1070
     0
1002
}
1002
{
1000
NOSEL
1070
     0
1002
}
1002
{
1000
BEHIND
1070
     0
1002
}
1002
{
1000
OTHER
1070
     0
1002
}
1002
{
1000
REACTOR
1002
}
1001
GENIUS_GENHATCH_13
1002
{
1000
DATA
1040
45.0
1042
2.3
1000
_U
1070
     1
1011
7095.15813
1021
-1412.946102
1031
0.0
1002
}
1002
{
1000
UCS
1010
0.0
1020
0.0
1030
0.0
1010
1.0
1020
0.0
1030
0.0
1010
0.0
1020
1.0
1030
0.0
1002
}
  0
LINE
  5
120
100
AcDbEntity
  8
AM_0
100
AcDbLine
 10
6499.091545
 20
-1000.85906
 30
0.0
 11
6499.091545
 21
-1427.098533
 31
0.0
  0
LINE
  5
121
100
AcDbEntity
  8
AM_7
100
AcDbLine
 10
6129.091545
 20
-324.904238
 30
0.0
 11
6129.091545
 21
-1828.239419
 31
0.0
  0
DIMENSION
  5
122
100
AcDbEntity
  8
AM_5
100
AcDbDimension
  2
*D4
 10
6678.786455
 20
-1813.239419
 30
0.0
 11
6678.786455
 21
-1206.50127
 31
0.0
 70
   128
  1
<> {}{\C2;%%p8}
  3
AM_DIN
100
AcDbAlignedDimension
 13
6145.091545
 23
-374.428993
 33
0.0
 14
6405.729293
 24
-1813.239419
 34
0.0
 50
90.0
100
AcDbRotatedDimension
1001
ACAD
1000
DSTYLE
1002
{
1070
    40
1040
7.0
1070
    47
1040
8.0
1070
    48
1040
8.0
1070
   271
1070
     0
1002
}
1001
GENIUS_GENDTOL_13
1000
TolPm
1000

1000
{$3%%p$P}
1040
1219.0
  0
DIMENSION
  5
12F
100
AcDbEntity
  8
AM_5
100
AcDbDimension
  2
*D5
 10
6600.200752
 20
-374.428993
 30
0.0
 11
6600.200752
 21
-1161.559386
 31
0.0
 70
   128
  1
<> {}{\C2;%%p5}
  3
AM_DIN
100
AcDbAlignedDimension
 13
6230.091545
 23
-1635.85906
 33
0.0
 14
6145.091545
 24
-374.428993
 34
0.0
 50
90.0
100
AcDbRotatedDimension
1001
ACAD
1000
DSTYLE
1002
{
1070
    40
1040
7.0
1070
    47
1040
5.0
1070
    48
1040
5.0
1070
   271
1070
     0
1002
}
1001
GENIUS_GENDREL_13
1005
0
1005
0
1040
0.0
1001
GENIUS_GENDTOL_13
1000
TolPm
1000

1000
{$3%%p$P}
1040
1041.0
  0
ARC
  5
13D
100
AcDbEntity
  8
AM_0
100
AcDbCircle
 10
6366.091545
 20
-1427.098533
 30
0.0
 40
133.0
100
AcDbArc
 50
305.00941
 51
0.0
1001
GENIUS_GENODEF_13
1002
{
1000
HIER
1070
     0
1002
}
1002
{
1000
MANEDIT
1070
     0
1002
}
1002
{
1000
NOSEL
1070
     0
1002
}
1002
{
1000
BEHIND
1070
     0
1002
}
1002
{
1000
REACTOR
1002
}
1001
GENIUS_GENOBJ-N-FIL_13
1002
{
1000
OWNER
1000
GEN
1002
}
  0
LINE
  5
13E
100
AcDbEntity
  8
AM_0
100
AcDbLine
 10
6405.729293
 20
-1813.239419
 30
0.0
 11
6348.588277
 21
-1813.239419
 31
0.0
  0
ARC
  5
13F
100
AcDbEntity
  8
AM_0
100
AcDbCircle
 10
6129.091545
 20
-1088.745744
 30
0.0
 40
546.1
100
AcDbArc
 50
282.423145
 51
305.00941
  0
LINE
  5
140
100
AcDbEntity
  8
AM_0
100
AcDbLine
 10
6104.091545
 20
-1808.239419
 30
0.0
 11
6104.091545
 21
-1546.235683
 31
0.0
  0
LINE
  5
141
100
AcDbEntity
  8
AM_0
100
AcDbLine
 10
6106.591545
 20
-1808.239419
 30
0.0
 11
6106.591545
 21
-1546.235683
 31
0.0
  0
LINE
  5
142
100
AcDbEntity
  8
AM_0
100
AcDbLine
 10
6151.591545
 20
-1808.239419
 30
0.0
 11
6151.591545
 21
-1546.235683
 31
0.0
  0
LINE
  5
143
100
AcDbEntity
  8
AM_0
100
AcDbLine
 10
6154.091545
 20
-1808.239419
 30
0.0
 11
6154.091545
 21
-1546.235683
 31
0.0
  0
LINE
  5
144
100
AcDbEntity
  8
AM_0
100
AcDbLine
 10
6347.918404
 20
-1808.239419
 30
0.0
 11
6347.918404
 21
-1589.085644
 31
0.0
  0
ARC
  5
145
100
AcDbEntity
  8
AM_0
100
AcDbCircle
 10
6109.091545
 20
-1808.239419
 30
0.0
 40
5.0
100
AcDbArc
 50
180.0
 51
270.0
1001
GENIUS_GENOBJ-N-FIL_13
1002
{
1000
OWNER
1000
GEN
1002
}
1001
GENIUS_GENODEF_13
1002
{
1000
HIER
1070
     0
1002
}
1002
{
1000
MANEDIT
1070
     0
1002
}
1002
{
1000
NOSEL
1070
     0
1002
}
1002
{
1000
BEHIND
1070
     0
1002
}
1002
{
1000
OTHER
1070
     0
1002
}
1002
{
1000
REACTOR
1002
}
  0
ARC
  5
146
100
AcDbEntity
  8
AM_0
100
AcDbCircle
 10
6109.091545
 20
-1808.239419
 30
0.0
 40
2.5
100
AcDbArc
 50
180.0
 51
270.0
1001
GENIUS_GENODEF_13
1002
{
1000
HIER
1070
     0
1002
}
1002
{
1000
MANEDIT
1070
     0
1002
}
1002
{
1000
NOSEL
1070
     0
1002
}
1002
{
1000
BEHIND
1070
     0
1002
}
1002
{
1000
OTHER
1070
     0
1002
}
1002
{
1000
REACTOR
1002
}
1001
GENIUS_GENOBJ-N-FIL_13
1002
{
1000
OWNER
1000
GEN
1002
}
  0
ARC
  5
147
100
AcDbEntity
  8
AM_0
100
AcDbCircle
 10
6149.091545
 20
-1808.239419
 30
0.0
 40
2.5
100
AcDbArc
 50
270.0
 51
0.0
1001
GENIUS_GENOBJ-N-FIL_13
1002
{
1000
OWNER
1000
GEN
1002
}
1001
GENIUS_GENODEF_13
1002
{
1000
HIER
1070
     0
1002
}
1002
{
1000
MANEDIT
1070
     0
1002
}
1002
{
1000
NOSEL
1070
     0
1002
}
1002
{
1000
BEHIND
1070
     0
1002
}
1002
{
1000
OTHER
1070
     0
1002
}
1002
{
1000
REACTOR
1002
}
  0
ARC
  5
148
100
AcDbEntity
  8
AM_0
100
AcDbCircle
 10
6149.091545
 20
-1808.239419
 30
0.0
 40
5.0
100
AcDbArc
 50
270.0
 51
0.0
1001
GENIUS_GENODEF_13
1002
{
1000
HIER
1070
     0
1002
}
1002
{
1000
MANEDIT
1070
     0
1002
}
1002
{
1000
NOSEL
1070
     0
1002
}
1002
{
1000
BEHIND
1070
     0
1002
}
1002
{
1000
OTHER
1070
     0
1002
}
1002
{
1000
REACTOR
1002
}
1001
GENIUS_GENOBJ-N-FIL_13
1002
{
1000
OWNER
1000
GEN
1002
}
  0
LINE
  5
149
100
AcDbEntity
  8
AM_0
100
AcDbLine
 10
6109.091545
 20
-1813.239419
 30
0.0
 11
6149.091545
 21
-1813.239419
 31
0.0
  0
LINE
  5
14A
100
AcDbEntity
  8
AM_0
100
AcDbLine
 10
6109.091545
 20
-1810.739419
 30
0.0
 11
6149.091545
 21
-1810.739419
 31
0.0
  0
LINE
  5
14B
100
AcDbEntity
  8
AM_0
100
AcDbLine
 10
6348.588277
 20
-1813.239419
 30
0.0
 11
6348.588277
 21
-1808.239419
 31
0.0
  0
LINE
  5
14C
100
AcDbEntity
  8
AM_0
100
AcDbLine
 10
6348.588277
 20
-1808.239419
 30
0.0
 11
6347.918404
 21
-1808.239419
 31
0.0
  0
LINE
  5
14D
100
AcDbEntity
  8
AM_0
100
AcDbLine
 10
6230.091545
 20
-1635.85906
 30
0.0
 11
6154.091545
 21
-1635.85906
 31
0.0
  0
LINE
  5
14E
100
AcDbEntity
  8
AM_0
100
AcDbLine
 10
6154.091545
 20
-1622.05906
 30
0.0
 11
6259.091545
 21
-1622.05906
 31
0.0
  0
LINE
  5
14F
100
AcDbEntity
  8
AM_0
100
AcDbLine
 10
6249.091545
 20
-1635.05906
 30
0.0
 11
6154.091545
 21
-1635.05906
 31
0.0
  0
LINE
  5
150
100
AcDbEntity
  8
AM_0
100
AcDbLine
 10
6154.091545
 20
-1640.35906
 30
0.0
 11
6259.091545
 21
-1640.35906
 31
0.0
  0
LINE
  5
151
100
AcDbEntity
  8
AM_0
100
AcDbLine
 10
6259.091545
 20
-1646.35906
 30
0.0
 11
6154.091545
 21
-1646.35906
 31
0.0
  0
LINE
  5
152
100
AcDbEntity
  8
AM_0
100
AcDbLine
 10
5999.091545
 20
-1622.05906
 30
0.0
 11
6104.091545
 21
-1622.05906
 31
0.0
  0
LINE
  5
153
100
AcDbEntity
  8
AM_0
100
AcDbLine
 10
6104.091545
 20
-1635.05906
 30
0.0
 11
6009.091545
 21
-1635.05906
 31
0.0
  0
LINE
  5
154
100
AcDbEntity
  8
AM_0
100
AcDbLine
 10
6104.091545
 20
-1635.85906
 30
0.0
 11
6028.091545
 21
-1635.85906
 31
0.0
  0
LINE
  5
155
100
AcDbEntity
  8
AM_0
100
AcDbLine
 10
6104.091545
 20
-1646.35906
 30
0.0
 11
5999.091545
 21
-1646.35906
 31
0.0
  0
LINE
  5
156
100
AcDbEntity
  8
AM_0
100
AcDbLine
 10
5999.091545
 20
-1640.35906
 30
0.0
 11
6104.091545
 21
-1640.35906
 31
0.0
  0
LINE
  5
157
100
AcDbEntity
  8
AM_0
100
AcDbLine
 10
5999.091545
 20
-1622.05906
 30
0.0
 11
5999.091545
 21
-1625.05906
 31
0.0
  0
LINE
  5
158
100
AcDbEntity
  8
AM_0
100
AcDbLine
 10
6042.691545
 20
-1635.05906
 30
0.0
 11
6042.691545
 21
-1635.85906
 31
0.0
  0
LINE
  5
159
100
AcDbEntity
  8
AM_0
100
AcDbLine
 10
6029.091545
 20
-1648.35906
 30
0.0
 11
6029.091545
 21
-1646.35906
 31
0.0
  0
LINE
  5
15A
100
AcDbEntity
  8
AM_0
100
AcDbLine
 10
6009.091545
 20
-1646.35906
 30
0.0
 11
6009.091545
 21
-1648.35906
 31
0.0
  0
LINE
  5
15B
100
AcDbEntity
  8
AM_7
100
AcDbLine
 10
6019.091545
 20
-1651.490285
 30
0.0
 11
6019.091545
 21
-1630.05906
 31
0.0
1001
GENIUS_GENODEF_13
1002
{
1000
HIER
1070
     0
1002
}
1002
{
1000
MANEDIT
1070
     0
1002
}
1002
{
1000
NOSEL
1070
     0
1002
}
1002
{
1000
BEHIND
1070
     0
1002
}
1002
{
1000
REACTOR
1002
}
1001
GENIUS_GENOBJ-N-CEN_13
1002
{
1000
OWNER
1000
GEN
1002
}
  0
LINE
  5
15C
100
AcDbEntity
  8
AM_0
100
AcDbLine
 10
6026.406545
 20
-1648.95906
 30
0.0
 11
6026.406545
 21
-1648.35906
 31
0.0
  0
LINE
  5
15D
100
AcDbEntity
  8
AM_0
100
AcDbLine
 10
6028.331545
 20
-1654.043145
 30
0.0
 11
6027.091545
 21
-1654.75906
 31
0.0
  0
ARC
  5
15E
100
AcDbEntity
  8
AM_0
100
AcDbCircle
 10
6026.022144
 20
-1650.676262
 30
0.0
 40
4.082798
100
AcDbArc
 50
235.553128
 51
295.553128
  0
LINE
  5
15F
100
AcDbEntity
  8
AM_0
100
AcDbLine
 10
6023.712743
 20
-1654.043145
 30
0.0
 11
6023.712743
 21
-1648.95906
 31
0.0
  0
LINE
  5
160
100
AcDbEntity
  8
AM_0
100
AcDbLine
 10
6028.331545
 20
-1654.043145
 30
0.0
 11
6028.331545
 21
-1648.95906
 31
0.0
  0
LINE
  5
161
100
AcDbEntity
  8
AM_0
100
AcDbLine
 10
6011.776545
 20
-1648.95906
 30
0.0
 11
6011.776545
 21
-1648.35906
 31
0.0
  0
ARC
  5
162
100
AcDbEntity
  8
AM_0
100
AcDbCircle
 10
6012.160946
 20
-1650.676262
 30
0.0
 40
4.082798
100
AcDbArc
 50
244.446872
 51
304.446872
  0
LINE
  5
163
100
AcDbEntity
  8
AM_0
100
AcDbLine
 10
6009.851545
 20
-1654.043145
 30
0.0
 11
6011.091545
 21
-1654.75906
 31
0.0
  0
LINE
  5
164
100
AcDbEntity
  8
AM_0
100
AcDbLine
 10
6014.470347
 20
-1654.043145
 30
0.0
 11
6014.470347
 21
-1648.95906
 31
0.0
  0
LINE
  5
165
100
AcDbEntity
  8
AM_0
100
AcDbLine
 10
6009.851545
 20
-1654.043145
 30
0.0
 11
6009.851545
 21
-1648.95906
 31
0.0
  0
LINE
  5
166
100
AcDbEntity
  8
AM_0
100
AcDbLine
 10
6009.851545
 20
-1648.95906
 30
0.0
 11
6028.331545
 21
-1648.95906
 31
0.0
  0
LINE
  5
167
100
AcDbEntity
  8
AM_0
100
AcDbLine
 10
6009.091545
 20
-1648.35906
 30
0.0
 11
6029.091545
 21
-1648.35906
 31
0.0
  0
LINE
  5
168
100
AcDbEntity
  8
AM_0
100
AcDbLine
 10
6027.091545
 20
-1654.75906
 30
0.0
 11
6011.091545
 21
-1654.75906
 31
0.0
  0
ARC
  5
169
100
AcDbEntity
  8
AM_0
100
AcDbCircle
 10
6019.091545
 20
-1639.486281
 30
0.0
 40
15.272779
100
AcDbArc
 50
252.387526
 51
287.612474
  0
LINE
  5
16A
100
AcDbEntity
  8
AM_0
100
AcDbLine
 10
6028.091545
 20
-1635.85906
 30
0.0
 11
6028.091545
 21
-1640.35906
 31
0.0
  0
LINE
  5
16B
100
AcDbEntity
  8
AM_4
100
AcDbLine
 10
6023.171395
 20
-1640.35906
 30
0.0
 11
6023.171395
 21
-1635.05906
 31
0.0
  0
LINE
  5
16C
100
AcDbEntity
  8
AM_0
100
AcDbLine
 10
6024.091545
 20
-1640.35906
 30
0.0
 11
6024.091545
 21
-1635.05906
 31
0.0
  0
LINE
  5
16D
100
AcDbEntity
  8
AM_0
100
AcDbLine
 10
5999.091545
 20
-1646.35906
 30
0.0
 11
5999.091545
 21
-1640.35906
 31
0.0
  0
LINE
  5
16E
100
AcDbEntity
  8
AM_0
100
AcDbLine
 10
6014.091545
 20
-1640.35906
 30
0.0
 11
6014.091545
 21
-1635.05906
 31
0.0
  0
LINE
  5
16F
100
AcDbEntity
  8
AM_4
100
AcDbLine
 10
6015.011695
 20
-1640.35906
 30
0.0
 11
6015.011695
 21
-1635.05906
 31
0.0
  0
ARC
  5
170
100
AcDbEntity
  8
AM_0
100
AcDbCircle
 10
6009.091545
 20
-1625.05906
 30
0.0
 40
10.0
100
AcDbArc
 50
180.0
 51
270.0
1001
GENIUS_GENODEF_13
1002
{
1000
HIER
1070
     0
1002
}
1002
{
1000
MANEDIT
1070
     0
1002
}
1002
{
1000
NOSEL
1070
     0
1002
}
1002
{
1000
BEHIND
1070
     0
1002
}
1002
{
1000
REACTOR
1002
}
1001
GENIUS_GENOBJ-N-FIL_13
1002
{
1000
OWNER
1000
GEN
1002
}
  0
LINE
  5
171
100
AcDbEntity
  8
AM_0
100
AcDbLine
 10
6151.591545
 20
-1546.235683
 30
0.0
 11
6154.091545
 21
-1546.235683
 31
0.0
  0
ELLIPSE
  5
172
100
AcDbEntity
  8
AM_0
100
AcDbEllipse
 10
6149.091545
 20
-1564.124938
 30
0.0
 11
-2.5
 21
0.0000000000003704
 31
0.0
210
0.0
220
0.0
230
1.0
 40
0.422896
 41
1.570796326794959
 42
3.141592653590143
  0
LINE
  5
173
100
AcDbEntity
  8
AM_0
100
AcDbLine
 10
6104.091545
 20
-1546.235683
 30
0.0
 11
6106.591545
 21
-1546.235683
 31
0.0
  0
ELLIPSE
  5
174
100
AcDbEntity
  8
AM_0
100
AcDbEllipse
 10
6109.091545
 20
-1564.124938
 30
0.0
 11
2.5
 21
0.0000000000003704
 31
0.0
210
0.0
220
0.0
230
1.0
 40
0.422896
 41
3.141592653589442
 42
4.712388980384626
  0
LINE
  5
175
100
AcDbEntity
  8
AM_0
100
AcDbLine
 10
6109.091545
 20
-1565.182178
 30
0.0
 11
6149.091545
 21
-1565.182178
 31
0.0
  0
LINE
  5
176
100
AcDbEntity
  8
AM_0
100
AcDbLine
 10
6259.091545
 20
-1622.05906
 30
0.0
 11
6259.091545
 21
-1625.05906
 31
0.0
  0
LINE
  5
177
100
AcDbEntity
  8
AM_0
100
AcDbLine
 10
6259.091545
 20
-1640.35906
 30
0.0
 11
6259.091545
 21
-1646.35906
 31
0.0
  0
LINE
  5
178
100
AcDbEntity
  8
AM_0
100
AcDbLine
 10
6249.091545
 20
-1648.35906
 30
0.0
 11
6249.091545
 21
-1646.35906
 31
0.0
  0
LINE
  5
179
100
AcDbEntity
  8
AM_7
100
AcDbLine
 10
6239.091545
 20
-1651.490285
 30
0.0
 11
6239.091545
 21
-1630.05906
 31
0.0
1001
GENIUS_GENODEF_13
1002
{
1000
HIER
1070
     0
1002
}
1002
{
1000
MANEDIT
1070
     0
1002
}
1002
{
1000
NOSEL
1070
     0
1002
}
1002
{
1000
BEHIND
1070
     0
1002
}
1002
{
1000
REACTOR
1002
}
1001
GENIUS_GENOBJ-N-CEN_13
1002
{
1000
OWNER
1000
GEN
1002
}
  0
LINE
  5
17A
100
AcDbEntity
  8
AM_0
100
AcDbLine
 10
6229.091545
 20
-1646.35906
 30
0.0
 11
6229.091545
 21
-1648.35906
 31
0.0
  0
LINE
  5
17B
100
AcDbEntity
  8
AM_0
100
AcDbLine
 10
6246.406545
 20
-1648.95906
 30
0.0
 11
6246.406545
 21
-1648.35906
 31
0.0
  0
LINE
  5
17C
100
AcDbEntity
  8
AM_0
100
AcDbLine
 10
6248.331545
 20
-1654.043145
 30
0.0
 11
6247.091545
 21
-1654.75906
 31
0.0
  0
ARC
  5
17D
100
AcDbEntity
  8
AM_0
100
AcDbCircle
 10
6246.022144
 20
-1650.676262
 30
0.0
 40
4.082798
100
AcDbArc
 50
235.553128
 51
295.553128
  0
LINE
  5
17E
100
AcDbEntity
  8
AM_0
100
AcDbLine
 10
6248.331545
 20
-1654.043145
 30
0.0
 11
6248.331545
 21
-1648.95906
 31
0.0
  0
LINE
  5
17F
100
AcDbEntity
  8
AM_0
100
AcDbLine
 10
6243.712743
 20
-1654.043145
 30
0.0
 11
6243.712743
 21
-1648.95906
 31
0.0
  0
LINE
  5
180
100
AcDbEntity
  8
AM_0
100
AcDbLine
 10
6234.470347
 20
-1654.043145
 30
0.0
 11
6234.470347
 21
-1648.95906
 31
0.0
  0
ARC
  5
181
100
AcDbEntity
  8
AM_0
100
AcDbCircle
 10
6239.091545
 20
-1639.486281
 30
0.0
 40
15.272779
100
AcDbArc
 50
252.387526
 51
287.612474
  0
LINE
  5
182
100
AcDbEntity
  8
AM_0
100
AcDbLine
 10
6231.776545
 20
-1648.95906
 30
0.0
 11
6231.776545
 21
-1648.35906
 31
0.0
  0
LINE
  5
183
100
AcDbEntity
  8
AM_0
100
AcDbLine
 10
6229.851545
 20
-1654.043145
 30
0.0
 11
6231.091545
 21
-1654.75906
 31
0.0
  0
LINE
  5
184
100
AcDbEntity
  8
AM_0
100
AcDbLine
 10
6229.851545
 20
-1654.043145
 30
0.0
 11
6229.851545
 21
-1648.95906
 31
0.0
  0
LINE
  5
185
100
AcDbEntity
  8
AM_0
100
AcDbLine
 10
6229.851545
 20
-1648.95906
 30
0.0
 11
6248.331545
 21
-1648.95906
 31
0.0
  0
ARC
  5
186
100
AcDbEntity
  8
AM_0
100
AcDbCircle
 10
6232.160946
 20
-1650.676262
 30
0.0
 40
4.082798
100
AcDbArc
 50
244.446872
 51
304.446872
  0
LINE
  5
187
100
AcDbEntity
  8
AM_0
100
AcDbLine
 10
6229.091545
 20
-1648.35906
 30
0.0
 11
6249.091545
 21
-1648.35906
 31
0.0
  0
LINE
  5
188
100
AcDbEntity
  8
AM_0
100
AcDbLine
 10
6247.091545
 20
-1654.75906
 30
0.0
 11
6231.091545
 21
-1654.75906
 31
0.0
  0
LINE
  5
189
100
AcDbEntity
  8
AM_0
100
AcDbLine
 10
6244.091545
 20
-1640.35906
 30
0.0
 11
6244.091545
 21
-1635.05906
 31
0.0
  0
LINE
  5
18A
100
AcDbEntity
  8
AM_4
100
AcDbLine
 10
6243.171395
 20
-1640.35906
 30
0.0
 11
6243.171395
 21
-1635.05906
 31
0.0
  0
LINE
  5
18B
100
AcDbEntity
  8
AM_0
100
AcDbLine
 10
6234.091545
 20
-1640.35906
 30
0.0
 11
6234.091545
 21
-1635.05906
 31
0.0
  0
LINE
  5
18C
100
AcDbEntity
  8
AM_4
100
AcDbLine
 10
6235.011695
 20
-1640.35906
 30
0.0
 11
6235.011695
 21
-1635.05906
 31
0.0
  0
LINE
  5
18D
100
AcDbEntity
  8
AM_0
100
AcDbLine
 10
6230.091545
 20
-1635.85906
 30
0.0
 11
6230.091545
 21
-1640.35906
 31
0.0
  0
LINE
  5
18E
100
AcDbEntity
  8
AM_0
100
AcDbLine
 10
6215.491545
 20
-1635.05906
 30
0.0
 11
6215.491545
 21
-1635.85906
 31
0.0
  0
ARC
  5
18F
100
AcDbEntity
  8
AM_0
100
AcDbCircle
 10
6249.091545
 20
-1625.05906
 30
0.0
 40
10.0
100
AcDbArc
 50
270.0
 51
0.0
1001
GENIUS_GENODEF_13
1002
{
1000
HIER
1070
     0
1002
}
1002
{
1000
MANEDIT
1070
     0
1002
}
1002
{
1000
NOSEL
1070
     0
1002
}
1002
{
1000
BEHIND
1070
     0
1002
}
1002
{
1000
REACTOR
1002
}
1001
GENIUS_GENOBJ-N-FIL_13
1002
{
1000
OWNER
1000
GEN
1002
}
  0
LINE
  5
190
100
AcDbEntity
  8
AM_4
100
AcDbLine
 10
6371.088277
 20
-1803.564703
 30
0.0
 11
6371.088277
 21
-1578.299409
 31
0.0
  0
LINE
  5
191
100
AcDbEntity
  8
AM_0
100
AcDbLine
 10
6405.729293
 20
-1559.592604
 30
0.0
 11
6405.729293
 21
-1813.239419
 31
0.0
  0
LINE
  5
192
100
AcDbEntity
  8
AM_0
100
AcDbLine
 10
6375.418404
 20
-1813.239419
 30
0.0
 11
6375.418404
 21
-1808.239419
 31
0.0
  0
LINE
  5
193
100
AcDbEntity
  8
AM_0
100
AcDbLine
 10
6375.418404
 20
-1808.239419
 30
0.0
 11
6368.588277
 21
-1808.239419
 31
0.0
  0
LINE
  5
194
100
AcDbEntity
  8
AM_0
100
AcDbLine
 10
6368.588277
 20
-1808.239419
 30
0.0
 11
6368.588277
 21
-1813.239419
 31
0.0
  0
LINE
  5
195
100
AcDbEntity
  8
AM_0
100
AcDbLine
 10
6375.418404
 20
-1810.739419
 30
0.0
 11
6368.588277
 21
-1810.739419
 31
0.0
  0
LINE
  5
196
100
AcDbEntity
  8
AM_7
100
AcDbLine
 10
6375.908785
 20
-1828.239419
 30
0.0
 11
6375.908785
 21
-1796.081681
 31
0.0
1001
GENIUS_GENODEF_13
1002
{
1000
HIER
1070
     0
1002
}
1002
{
1000
MANEDIT
1070
     0
1002
}
1002
{
1000
NOSEL
1070
     0
1002
}
1002
{
1000
BEHIND
1070
     0
1002
}
1002
{
1000
REACTOR
1002
}
1001
GENIUS_GENOBJ-N-CEN_13
1002
{
1000
OWNER
1000
GEN
1002
}
  0
INSERT
  5
197
100
AcDbEntity
  8
AM_6
100
AcDbBlockReference
  2
LOGO
 10
6043.227183
 20
-1112.396841
 30
0.0
 41
6.48
 42
6.48
 43
6.48
  0
LWPOLYLINE
  5
1B4
100
AcDbEntity
  8
AM_6
100
AcDbPolyline
 90
        8
 70
     1
 43
2.0
 10
6054.091545
 20
-1047.778993
 10
6204.091545
 20
-1047.778993
 42
-0.414214
 10
6209.091545
 20
-1052.778993
 10
6209.091545
 20
-1107.778993
 42
-0.414214
 10
6204.091545
 20
-1112.778993
 10
6054.091545
 20
-1112.778993
 42
-0.414214
 10
6049.091545
 20
-1107.778993
 10
6049.091545
 20
-1052.778993
 42
-0.414214
  0
ARC
  5
1B5
100
AcDbEntity
  8
AM_0
100
AcDbCircle
 10
7193.033482
 20
-1455.664163
 30
0.0
 40
100.0
100
AcDbArc
 50
180.0
 51
232.802048
1001
GENIUS_GENODEF_13
1002
{
1000
HIER
1070
     0
1002
}
1002
{
1000
MANEDIT
1070
     0
1002
}
1002
{
1000
NOSEL
1070
     0
1002
}
1002
{
1000
BEHIND
1070
     0
1002
}
1002
{
1000
REACTOR
1002
}
1001
GENIUS_GENOBJ-N-FIL_13
1002
{
1000
OWNER
1000
GEN
1002
}
  0
ARC
  5
1B6
100
AcDbEntity
  8
AM_0
100
AcDbCircle
 10
7193.033482
 20
-1455.664163
 30
0.0
 40
97.0
100
AcDbArc
 50
180.0
 51
232.802048
1001
GENIUS_GENODEF_13
1002
{
1000
HIER
1070
     0
1002
}
1002
{
1000
MANEDIT
1070
     0
1002
}
1002
{
1000
NOSEL
1070
     0
1002
}
1002
{
1000
BEHIND
1070
     0
1002
}
1002
{
1000
REACTOR
1002
}
1001
GENIUS_GENOBJ-N-FIL_13
1002
{
1000
OWNER
1000
GEN
1002
}
  0
ARC
  5
1B7
100
AcDbEntity
  8
AM_0
100
AcDbCircle
 10
7174.283482
 20
-1427.098533
 30
0.0
 40
133.0
100
AcDbArc
 50
180.0
 51
234.99059
1001
GENIUS_GENODEF_13
1002
{
1000
HIER
1070
     0
1002
}
1002
{
1000
MANEDIT
1070
     0
1002
}
1002
{
1000
NOSEL
1070
     0
1002
}
1002
{
1000
BEHIND
1070
     0
1002
}
1002
{
1000
REACTOR
1002
}
1001
GENIUS_GENOBJ-N-FIL_13
1002
{
1000
OWNER
1000
GEN
1002
}
  0
ARC
  5
1B8
100
AcDbEntity
  8
AM_0
100
AcDbCircle
 10
7174.283482
 20
-1427.098533
 30
0.0
 40
130.9
100
AcDbArc
 50
180.0
 51
234.99059
1001
GENIUS_GENODEF_13
1002
{
1000
HIER
1070
     0
1002
}
1002
{
1000
MANEDIT
1070
     0
1002
}
1002
{
1000
NOSEL
1070
     0
1002
}
1002
{
1000
BEHIND
1070
     0
1002
}
1002
{
1000
REACTOR
1002
}
1001
GENIUS_GENOBJ-N-FIL_13
1002
{
1000
OWNER
1000
GEN
1002
}
  0
LINE
  5
1B9
100
AcDbEntity
  8
AM_0
100
AcDbLine
 10
7170.53675
 20
-1578.915327
 30
0.0
 11
7170.53675
 21
-1813.239419
 31
0.0
  0
LINE
  5
1BA
100
AcDbEntity
  8
AM_0
100
AcDbLine
 10
7169.28675
 20
-1813.239419
 30
0.0
 11
7169.28675
 21
-1578.299409
 31
0.0
  0
LINE
  5
1BB
100
AcDbEntity
  8
AM_0
100
AcDbLine
 10
7136.475861
 20
-1560.663089
 30
0.0
 11
7136.475861
 21
-1808.239419
 31
0.0
  0
LINE
  5
1BC
100
AcDbEntity
  8
AM_0
100
AcDbLine
 10
7194.28675
 20
-1813.239419
 30
0.0
 11
7194.28675
 21
-1589.882081
 31
0.0
  0
LINE
  5
1BD
100
AcDbEntity
  8
AM_0
100
AcDbLine
 10
7193.03675
 20
-1813.239419
 30
0.0
 11
7193.03675
 21
-1589.338966
 31
0.0
  0
DIMENSION
  5
1BE
100
AcDbEntity
  8
AM_5
100
AcDbDimension
  2
*D3
 10
7288.934046
 20
-1671.35906
 30
0.0
 11
7288.934046
 21
-1746.621132
 31
0.0
 70
   128
  1
<>
  3
AM_DIN
100
AcDbAlignedDimension
 13
7193.03675
 23
-1813.239419
 33
0.0
 14
7397.433482
 24
-1671.35906
 34
0.0
 50
90.0
100
AcDbRotatedDimension
1001
ACAD
1000
DSTYLE
1002
{
1070
    40
1040
7.0
1070
   271
1070
     0
1002
}
1001
GENIUS_GENDTOL_13
1000

1000
h7
1000

1040
0.0
1000
<>
  0
LINE
  5
1CB
100
AcDbEntity
  8
AM_0
100
AcDbLine
 10
7138.975861
 20
-1810.739419
 30
0.0
 11
7194.28675
 21
-1810.739419
 31
0.0
  0
LINE
  5
1CC
100
AcDbEntity
  8
AM_0
100
AcDbLine
 10
7138.975861
 20
-1813.239419
 30
0.0
 11
7194.28675
 21
-1813.239419
 31
0.0
  0
LINE
  5
1CD
100
AcDbEntity
  8
AM_7
100
AcDbLine
 10
7164.466242
 20
-1828.239419
 30
0.0
 11
7164.466242
 21
-1795.739419
 31
0.0
1001
GENIUS_GENODEF_13
1002
{
1000
HIER
1070
     0
1002
}
1002
{
1000
MANEDIT
1070
     0
1002
}
1002
{
1000
NOSEL
1070
     0
1002
}
1002
{
1000
BEHIND
1070
     0
1002
}
1002
{
1000
REACTOR
1002
}
1001
GENIUS_GENOBJ-N-CEN_13
1002
{
1000
OWNER
1000
GEN
1002
}
  0
LINE
  5
1CE
100
AcDbEntity
  8
AM_0
100
AcDbLine
 10
7136.475861
 20
-1808.239419
 30
0.0
 11
7138.975861
 21
-1808.239419
 31
0.0
  0
LINE
  5
1CF
100
AcDbEntity
  8
AM_0
100
AcDbLine
 10
7138.975861
 20
-1808.239419
 30
0.0
 11
7138.975861
 21
-1813.239419
 31
0.0
  0
ARC
  5
1D0
100
AcDbEntity
  8
AM_0
100
AcDbCircle
 10
7411.283482
 20
-1088.745744
 30
0.0
 40
544.0
100
AcDbArc
 50
234.99059
 51
261.713813
  0
ARC
  5
1D1
100
AcDbEntity
  8
AM_0
100
AcDbCircle
 10
7411.283482
 20
-1168.10906
 30
0.0
 40
458.0
100
AcDbArc
 50
232.802048
 51
260.891941
  0
ARC
  5
1D2
100
AcDbEntity
  8
AM_0
100
AcDbCircle
 10
7411.283482
 20
-1168.10906
 30
0.0
 40
461.0
100
AcDbArc
 50
232.802048
 51
260.447945
  0
ARC
  5
1D3
100
AcDbEntity
  8
AM_0
100
AcDbCircle
 10
7411.283482
 20
-1088.745744
 30
0.0
 40
546.1
100
AcDbArc
 50
234.99059
 51
261.523202
  0
LINE
  5
1D4
100
AcDbEntity
  8
AM_0
100
AcDbLine
 10
7427.133482
 20
-1669.35906
 30
0.0
 11
7427.133482
 21
-1646.35906
 31
0.0
  0
LINE
  5
1D5
100
AcDbEntity
  8
AM_0
100
AcDbLine
 10
7422.783482
 20
-1646.35906
 30
0.0
 11
7422.783482
 21
-1671.35906
 31
0.0
  0
LINE
  5
1D6
100
AcDbEntity
  8
AM_4
100
AcDbLine
 10
7425.133482
 20
-1671.35906
 30
0.0
 11
7425.133482
 21
-1651.35906
 31
0.0
  0
HATCH
  5
1D7
100
AcDbEntity
  8
AM_8
100
AcDbHatch
 10
0.0
 20
0.0
 30
0.0
210
0.0
220
0.0
230
1.0
  2
_U
 70
     0
 71
     0
 91
        1
 92
        1
 93
        5
 72
     1
 10
7422.783482
 20
-1646.35906
 11
7422.783482
 21
-1671.35906
 72
     1
 10
7422.783482
 20
-1671.35906
 11
7425.133482
 21
-1671.35906
 72
     1
 10
7425.133482
 20
-1671.35906
 11
7427.133482
 21
-1669.35906
 72
     1
 10
7427.133482
 20
-1669.35906
 11
7427.133482
 21
-1646.35906
 72
     1
 10
7427.133482
 20
-1646.35906
 11
7422.783482
 21
-1646.35906
 97
        0
 75
     0
 76
     0
 52
135.0
 41
2.5
 77
     0
 78
     1
 53
135.0
 43
7669.085043
 44
-1707.233856
 45
-1.767766952966368
 46
-1.767766952966368
 79
     0
 98
        1
 10
7669.085043
 20
-1707.233856
1001
GENIUS_GENODEF_13
1002
{
1000
HIER
1070
     0
1002
}
1002
{
1000
MANEDIT
1070
     0
1002
}
1002
{
1000
NOSEL
1070
     0
1002
}
1002
{
1000
BEHIND
1070
     0
1002
}
1002
{
1000
REACTOR
1002
}
1001
GENIUS_GENOBJ-N-HTC_13
1002
{
1000
OWNER
1000
GEN
1002
}
1001
GENIUS_GENHATCH_13
1002
{
1000
DATA
1040
45.0
1042
2.5
1000
_U
1070
     0
1011
7425.896588
1021
-1882.232642
1031
0.0
1002
}
1002
{
1000
UCS
1010
0.0
1020
0.0
1030
0.0
1010
1.0
1020
0.0
1030
0.0
1010
0.0
1020
1.0
1030
0.0
1002
}
  0
LINE
  5
1D8
100
AcDbEntity
  8
AM_0
100
AcDbLine
 10
7395.433482
 20
-1669.35906
 30
0.0
 11
7395.433482
 21
-1646.35906
 31
0.0
  0
LINE
  5
1D9
100
AcDbEntity
  8
AM_0
100
AcDbLine
 10
7399.783482
 20
-1646.35906
 30
0.0
 11
7399.783482
 21
-1671.35906
 31
0.0
  0
LINE
  5
1DA
100
AcDbEntity
  8
AM_4
100
AcDbLine
 10
7397.433482
 20
-1671.35906
 30
0.0
 11
7397.433482
 21
-1651.35906
 31
0.0
  0
HATCH
  5
1DB
100
AcDbEntity
  8
AM_8
100
AcDbHatch
 10
0.0
 20
0.0
 30
0.0
210
0.0
220
0.0
230
1.0
  2
_U
 70
     0
 71
     0
 91
        1
 92
        1
 93
        5
 72
     1
 10
7395.433482
 20
-1669.35906
 11
7397.433482
 21
-1671.35906
 72
     1
 10
7397.433482
 20
-1671.35906
 11
7399.783482
 21
-1671.35906
 72
     1
 10
7399.783482
 20
-1671.35906
 11
7399.783482
 21
-1646.35906
 72
     1
 10
7399.783482
 20
-1646.35906
 11
7395.433482
 21
-1646.35906
 72
     1
 10
7395.433482
 20
-1646.35906
 11
7395.433482
 21
-1669.35906
 97
        0
 75
     0
 76
     0
 52
135.0
 41
2.5
 77
     0
 78
     1
 53
135.0
 43
7669.085043
 44
-1707.233856
 45
-1.767766952966368
 46
-1.767766952966368
 79
     0
 98
        1
 10
7669.085043
 20
-1707.233856
1001
GENIUS_GENODEF_13
1002
{
1000
HIER
1070
     0
1002
}
1002
{
1000
MANEDIT
1070
     0
1002
}
1002
{
1000
NOSEL
1070
     0
1002
}
1002
{
1000
BEHIND
1070
     0
1002
}
1002
{
1000
REACTOR
1002
}
1001
GENIUS_GENOBJ-N-HTC_13
1002
{
1000
OWNER
1000
GEN
1002
}
1001
GENIUS_GENHATCH_13
1002
{
1000
DATA
1040
45.0
1042
2.5
1000
_U
1070
     0
1011
7396.177557
1021
-1881.887926
1031
0.0
1002
}
1002
{
1000
UCS
1010
0.0
1020
0.0
1030
0.0
1010
1.0
1020
0.0
1030
0.0
1010
0.0
1020
1.0
1030
0.0
1002
}
  0
LINE
  5
1DC
100
AcDbEntity
  8
AM_0
100
AcDbLine
 10
7427.133482
 20
-1669.35906
 30
0.0
 11
7425.133482
 21
-1671.35906
 31
0.0
1001
GENIUS_GENFIL_13
1070
     0
1040
2.0
1040
2.0
1040
20.0
1040
0.0
1002
{
1002
}
1001
GENIUS_GENODEF_13
1002
{
1000
HIER
1070
     0
1002
}
1002
{
1000
MANEDIT
1070
     0
1002
}
1002
{
1000
NOSEL
1070
     0
1002
}
1002
{
1000
BEHIND
1070
     0
1002
}
1002
{
1000
REACTOR
1002
}
1001
GENIUS_GENOBJ-N-CHA_13
1002
{
1000
OWNER
1000
GEN
1002
}
  0
LINE
  5
1DF
100
AcDbEntity
  8
AM_0
100
AcDbLine
 10
7397.433482
 20
-1671.35906
 30
0.0
 11
7395.433482
 21
-1669.35906
 31
0.0
1001
GENIUS_GENFIL_13
1070
     0
1040
2.0
1040
2.0
1040
20.0
1040
0.0
1002
{
1002
}
1001
GENIUS_GENODEF_13
1002
{
1000
HIER
1070
     0
1002
}
1002
{
1000
MANEDIT
1070
     0
1002
}
1002
{
1000
NOSEL
1070
     0
1002
}
1002
{
1000
BEHIND
1070
     0
1002
}
1002
{
1000
REACTOR
1002
}
1001
GENIUS_GENOBJ-N-CHA_13
1002
{
1000
OWNER
1000
GEN
1002
}
  0
LINE
  5
1E0
100
AcDbEntity
  8
AM_0
100
AcDbLine
 10
7397.433482
 20
-1671.35906
 30
0.0
 11
7425.133482
 21
-1671.35906
 31
0.0
  0
LINE
  5
1E1
100
AcDbEntity
  8
AM_0
100
AcDbLine
 10
7286.283482
 20
-1622.05906
 30
0.0
 11
7286.283482
 21
-1625.05906
 31
0.0
  0
LINE
  5
1E2
100
AcDbEntity
  8
AM_0
100
AcDbLine
 10
7281.283482
 20
-1622.05906
 30
0.0
 11
7281.283482
 21
-1625.05906
 31
0.0
  0
LINE
  5
1E3
100
AcDbEntity
  8
AM_0
100
AcDbLine
 10
7281.283482
 20
-1622.05906
 30
0.0
 11
7293.801072
 21
-1622.05906
 31
0.0
  0
LINE
  5
1E4
100
AcDbEntity
  8
AM_0
100
AcDbLine
 10
7332.883482
 20
-1627.066689
 30
0.0
 11
7332.883482
 21
-1635.85906
 31
0.0
  0
LINE
  5
1E5
100
AcDbEntity
  8
AM_0
100
AcDbLine
 10
7330.783482
 20
-1628.879949
 30
0.0
 11
7330.783482
 21
-1635.05906
 31
0.0
  0
LINE
  5
1E6
100
AcDbEntity
  8
AM_0
100
AcDbLine
 10
7311.283482
 20
-1648.35906
 30
0.0
 11
7311.283482
 21
-1646.35906
 31
0.0
  0
LINE
  5
1E7
100
AcDbEntity
  8
AM_0
100
AcDbLine
 10
7291.283482
 20
-1646.35906
 30
0.0
 11
7291.283482
 21
-1648.35906
 31
0.0
  0
LINE
  5
1E8
100
AcDbEntity
  8
AM_7
100
AcDbLine
 10
7301.283482
 20
-1651.490285
 30
0.0
 11
7301.283482
 21
-1630.05906
 31
0.0
1001
GENIUS_GENODEF_13
1002
{
1000
HIER
1070
     0
1002
}
1002
{
1000
MANEDIT
1070
     0
1002
}
1002
{
1000
NOSEL
1070
     0
1002
}
1002
{
1000
BEHIND
1070
     0
1002
}
1002
{
1000
REACTOR
1002
}
1001
GENIUS_GENOBJ-N-CEN_13
1002
{
1000
OWNER
1000
GEN
1002
}
  0
LINE
  5
1E9
100
AcDbEntity
  8
AM_0
100
AcDbLine
 10
7309.283482
 20
-1648.95906
 30
0.0
 11
7309.283482
 21
-1654.75906
 31
0.0
  0
LINE
  5
1EA
100
AcDbEntity
  8
AM_0
100
AcDbLine
 10
7308.598482
 20
-1648.95906
 30
0.0
 11
7308.598482
 21
-1648.35906
 31
0.0
  0
LINE
  5
1EB
100
AcDbEntity
  8
AM_0
100
AcDbLine
 10
7293.283482
 20
-1648.95906
 30
0.0
 11
7293.283482
 21
-1654.75906
 31
0.0
  0
LINE
  5
1EC
100
AcDbEntity
  8
AM_0
100
AcDbLine
 10
7301.283482
 20
-1654.043145
 30
0.0
 11
7301.283482
 21
-1648.95906
 31
0.0
  0
ARC
  5
1ED
100
AcDbEntity
  8
AM_0
100
AcDbCircle
 10
7297.283482
 20
-1643.226581
 30
0.0
 40
11.532479
100
AcDbArc
 50
249.705445
 51
290.294555
  0
LINE
  5
1EE
100
AcDbEntity
  8
AM_0
100
AcDbLine
 10
7293.968482
 20
-1648.95906
 30
0.0
 11
7293.968482
 21
-1648.35906
 31
0.0
  0
ARC
  5
1EF
100
AcDbEntity
  8
AM_0
100
AcDbCircle
 10
7305.283482
 20
-1643.226581
 30
0.0
 40
11.532479
100
AcDbArc
 50
249.705445
 51
290.294555
  0
LINE
  5
1F0
100
AcDbEntity
  8
AM_0
100
AcDbLine
 10
7309.283482
 20
-1654.75906
 30
0.0
 11
7293.283482
 21
-1654.75906
 31
0.0
  0
LINE
  5
1F1
100
AcDbEntity
  8
AM_0
100
AcDbLine
 10
7293.283482
 20
-1648.95906
 30
0.0
 11
7309.283482
 21
-1648.95906
 31
0.0
  0
LINE
  5
1F2
100
AcDbEntity
  8
AM_0
100
AcDbLine
 10
7291.283482
 20
-1648.35906
 30
0.0
 11
7311.283482
 21
-1648.35906
 31
0.0
  0
LINE
  5
1F3
100
AcDbEntity
  8
AM_0
100
AcDbLine
 10
7324.883482
 20
-1635.05906
 30
0.0
 11
7324.883482
 21
-1635.85906
 31
0.0
  0
LINE
  5
1F4
100
AcDbEntity
  8
AM_0
100
AcDbLine
 10
7310.283482
 20
-1635.85906
 30
0.0
 11
7310.283482
 21
-1640.35906
 31
0.0
  0
LINE
  5
1F5
100
AcDbEntity
  8
AM_0
100
AcDbLine
 10
7291.283482
 20
-1630.05906
 30
0.0
 11
7296.283482
 21
-1630.05906
 31
0.0
  0
LINE
  5
1F6
100
AcDbEntity
  8
AM_0
100
AcDbLine
 10
7291.283482
 20
-1635.05906
 30
0.0
 11
7296.283482
 21
-1635.05906
 31
0.0
  0
LINE
  5
1F7
100
AcDbEntity
  8
AM_0
100
AcDbLine
 10
7307.283482
 20
-1640.35906
 30
0.0
 11
7307.283482
 21
-1646.35906
 31
0.0
1001
GENIUS_GENODEF_13
1002
{
1000
HIER
1070
     0
1002
}
1002
{
1000
MANEDIT
1070
     0
1002
}
1002
{
1000
NOSEL
1070
     0
1002
}
1002
{
1000
BEHIND
1070
     0
1002
}
1002
{
1000
REACTOR
1002
}
1001
GENIUS_GENOBJ-N-CEN_13
1002
{
1000
OWNER
1000
GEN
1002
}
  0
LINE
  5
1F8
100
AcDbEntity
  8
AM_0
100
AcDbLine
 10
7295.283482
 20
-1640.35906
 30
0.0
 11
7295.283482
 21
-1646.35906
 31
0.0
1001
GENIUS_GENODEF_13
1002
{
1000
HIER
1070
     0
1002
}
1002
{
1000
MANEDIT
1070
     0
1002
}
1002
{
1000
NOSEL
1070
     0
1002
}
1002
{
1000
BEHIND
1070
     0
1002
}
1002
{
1000
REACTOR
1002
}
1001
GENIUS_GENOBJ-N-CEN_13
1002
{
1000
OWNER
1000
GEN
1002
}
  0
LINE
  5
1F9
100
AcDbEntity
  8
AM_4
100
AcDbLine
 10
7297.203632
 20
-1639.35906
 30
0.0
 11
7297.203632
 21
-1628.35906
 31
0.0
  0
LINE
  5
1FA
100
AcDbEntity
  8
AM_4
100
AcDbLine
 10
7305.363332
 20
-1639.35906
 30
0.0
 11
7305.363332
 21
-1628.35906
 31
0.0
  0
LINE
  5
1FB
100
AcDbEntity
  8
AM_0
100
AcDbLine
 10
7306.283482
 20
-1646.35906
 30
0.0
 11
7306.283482
 21
-1629.27921
 31
0.0
  0
LINE
  5
1FC
100
AcDbEntity
  8
AM_0
100
AcDbLine
 10
7296.283482
 20
-1646.35906
 30
0.0
 11
7296.283482
 21
-1629.27921
 31
0.0
  0
LINE
  5
1FD
100
AcDbEntity
  8
AM_0
100
AcDbLine
 10
7306.283482
 20
-1639.35906
 30
0.0
 11
7296.283482
 21
-1639.35906
 31
0.0
  0
LINE
  5
1FE
100
AcDbEntity
  8
AM_4
100
AcDbLine
 10
7305.363332
 20
-1639.35906
 30
0.0
 11
7306.283482
 21
-1640.85906
 31
0.0
  0
LINE
  5
1FF
100
AcDbEntity
  8
AM_4
100
AcDbLine
 10
7297.203632
 20
-1639.35906
 30
0.0
 11
7296.283482
 21
-1640.85906
 31
0.0
  0
LINE
  5
200
100
AcDbEntity
  8
AM_0
100
AcDbLine
 10
7305.363332
 20
-1628.35906
 30
0.0
 11
7297.203632
 21
-1628.35906
 31
0.0
  0
LINE
  5
201
100
AcDbEntity
  8
AM_0
100
AcDbLine
 10
7306.283482
 20
-1629.27921
 30
0.0
 11
7296.283482
 21
-1629.27921
 31
0.0
  0
LINE
  5
202
100
AcDbEntity
  8
AM_0
100
AcDbLine
 10
7305.363332
 20
-1628.35906
 30
0.0
 11
7306.283482
 21
-1629.27921
 31
0.0
  0
LINE
  5
203
100
AcDbEntity
  8
AM_0
100
AcDbLine
 10
7296.283482
 20
-1629.27921
 30
0.0
 11
7297.203632
 21
-1628.35906
 31
0.0
  0
LINE
  5
204
100
AcDbEntity
  8
AM_0
100
AcDbLine
 10
7281.283482
 20
-1646.35906
 30
0.0
 11
7281.283482
 21
-1640.35906
 31
0.0
  0
LINE
  5
205
100
AcDbEntity
  8
AM_0
100
AcDbLine
 10
7281.283482
 20
-1640.35906
 30
0.0
 11
7296.283482
 21
-1640.35906
 31
0.0
  0
LINE
  5
206
100
AcDbEntity
  8
AM_0
100
AcDbLine
 10
7334.783482
 20
-1635.85906
 30
0.0
 11
7310.283482
 21
-1635.85906
 31
0.0
  0
LINE
  5
207
100
AcDbEntity
  8
AM_0
100
AcDbLine
 10
7306.283482
 20
-1635.05906
 30
0.0
 11
7330.783482
 21
-1635.05906
 31
0.0
  0
LINE
  5
208
100
AcDbEntity
  8
AM_0
100
AcDbLine
 10
7306.283482
 20
-1630.05906
 30
0.0
 11
7330.783482
 21
-1630.05906
 31
0.0
  0
ARC
  5
209
100
AcDbEntity
  8
AM_0
100
AcDbCircle
 10
7291.283482
 20
-1625.05906
 30
0.0
 40
5.0
100
AcDbArc
 50
180.0
 51
270.0
1001
GENIUS_GENODEF_13
1002
{
1000
HIER
1070
     0
1002
}
1002
{
1000
MANEDIT
1070
     0
1002
}
1002
{
1000
NOSEL
1070
     0
1002
}
1002
{
1000
BEHIND
1070
     0
1002
}
1002
{
1000
REACTOR
1002
}
1001
GENIUS_GENOBJ-N-FIL_13
1002
{
1000
OWNER
1000
GEN
1002
}
  0
ARC
  5
20A
100
AcDbEntity
  8
AM_0
100
AcDbCircle
 10
7291.283482
 20
-1625.05906
 30
0.0
 40
10.0
100
AcDbArc
 50
180.0
 51
270.0
1001
GENIUS_GENODEF_13
1002
{
1000
HIER
1070
     0
1002
}
1002
{
1000
MANEDIT
1070
     0
1002
}
1002
{
1000
NOSEL
1070
     0
1002
}
1002
{
1000
BEHIND
1070
     0
1002
}
1002
{
1000
REACTOR
1002
}
1001
GENIUS_GENOBJ-N-FIL_13
1002
{
1000
OWNER
1000
GEN
1002
}
  0
LINE
  5
20B
100
AcDbEntity
  8
AM_0
100
AcDbLine
 10
7338.783482
 20
-1640.35906
 30
0.0
 11
7338.783482
 21
-1620.334391
 31
0.0
  0
LINE
  5
20C
100
AcDbEntity
  8
AM_0
100
AcDbLine
 10
7334.783482
 20
-1622.717408
 30
0.0
 11
7334.783482
 21
-1635.85906
 31
0.0
  0
LINE
  5
20D
100
AcDbEntity
  8
AM_0
100
AcDbLine
 10
7425.133482
 20
-1651.35906
 30
0.0
 11
7427.133482
 21
-1651.35906
 31
0.0
  0
LINE
  5
20E
100
AcDbEntity
  8
AM_0
100
AcDbLine
 10
7423.783482
 20
-1646.35906
 30
0.0
 11
7423.783482
 21
-1640.35906
 31
0.0
  0
LINE
  5
20F
100
AcDbEntity
  8
AM_0
100
AcDbLine
 10
7419.783482
 20
-1646.35906
 30
0.0
 11
7419.783482
 21
-1640.35906
 31
0.0
  0
LINE
  5
210
100
AcDbEntity
  8
AM_0
100
AcDbLine
 10
7395.433482
 20
-1651.35906
 30
0.0
 11
7397.433482
 21
-1651.35906
 31
0.0
  0
LINE
  5
211
100
AcDbEntity
  8
AM_0
100
AcDbLine
 10
7402.783482
 20
-1646.35906
 30
0.0
 11
7402.783482
 21
-1640.35906
 31
0.0
  0
LINE
  5
212
100
AcDbEntity
  8
AM_0
100
AcDbLine
 10
7398.783482
 20
-1646.35906
 30
0.0
 11
7398.783482
 21
-1640.35906
 31
0.0
  0
ARC
  5
213
100
AcDbEntity
  8
AM_0
100
AcDbCircle
 10
6366.091545
 20
-582.176204
 30
0.0
 40
133.0
100
AcDbArc
 50
0.0
 51
54.99059
1001
GENIUS_GENODEF_13
1002
{
1000
HIER
1070
     0
1002
}
1002
{
1000
MANEDIT
1070
     0
1002
}
1002
{
1000
NOSEL
1070
     0
1002
}
1002
{
1000
BEHIND
1070
     0
1002
}
1002
{
1000
REACTOR
1002
}
1001
GENIUS_GENOBJ-N-FIL_13
1002
{
1000
OWNER
1000
GEN
1002
}
  0
LINE
  5
214
100
AcDbEntity
  8
0
100
AcDbLine
 10
6086.591545
 20
-862.778993
 30
0.0
 11
6171.591545
 21
-862.778993
 31
0.0
  0
MTEXT
  5
215
100
AcDbEntity
  8
0
 62
     2
100
AcDbMText
 10
6121.302981
 20
-875.610091
 30
0.0
 40
2.7
 41
61.74
 71
     1
 72
     5
  1
\fArial Black|b0|i0|c0|p34;Druckausdehnungsgefäß
1001
ACAD
1000
MTEXTBEGIN
1070
    73
1070
     1
1070
    44
1040
1.0
1070
    74
1070
     0
1000
MTEXTEND
  0
TEXT
  5
216
100
AcDbEntity
  8
0
 62
     3
100
AcDbText
 10
6168.58069
 20
-906.839024
 30
0.0
 40
3.5
  1
ltr.
 41
0.954608
 72
     5
 11
6174.427663
 21
-906.839024
 31
0.0
100
AcDbText
  0
TEXT
  5
217
100
AcDbEntity
  8
0
 62
     3
100
AcDbText
 10
6169.365663
 20
-923.19779
 30
0.0
 40
3.5
  1
K
 41
1.245583
 72
     5
 11
6172.221162
 21
-923.19779
 31
0.0
100
AcDbText
  0
TEXT
  5
218
100
AcDbEntity
  8
0
 62
     3
100
AcDbText
 10
6168.58069
 20
-938.664744
 30
0.0
 40
3.5
  1
bar
 41
0.903007
 72
     5
 11
6174.427663
 21
-938.664744
 31
0.0
100
AcDbText
  0
TEXT
  5
219
100
AcDbEntity
  8
0
 62
     3
100
AcDbText
 10
6168.58069
 20
-930.869875
 30
0.0
 40
3.5
  1
bar
 41
0.903007
 72
     5
 11
6174.427663
 21
-930.869875
 31
0.0
100
AcDbText
  0
LINE
  5
21A
100
AcDbEntity
  8
0
100
AcDbLine
 10
6171.591545
 20
-957.778993
 30
0.0
 11
6086.591545
 21
-957.778993
 31
0.0
  0
LINE
  5
21B
100
AcDbEntity
  8
0
 62
     2
100
AcDbLine
 10
6141.766565
 20
-908.188204
 30
0.0
 11
6141.766565
 21
-901.188204
 31
0.0
  0
LINE
  5
21C
100
AcDbEntity
  8
0
 62
     2
100
AcDbLine
 10
6166.766565
 20
-901.188204
 30
0.0
 11
6166.766565
 21
-908.188204
 31
0.0
  0
LINE
  5
21D
100
AcDbEntity
  8
0
100
AcDbLine
 10
6081.591545
 20
-952.778993
 30
0.0
 11
6081.591545
 21
-867.778993
 31
0.0
  0
TEXT
  5
21E
100
AcDbEntity
  8
0
 62
     3
100
AcDbText
 10
6143.692168
 20
-946.208588
 30
0.0
 40
3.5
  1
86/NHA 38
100
AcDbText
  0
LINE
  5
21F
100
AcDbEntity
  8
0
 62
     2
100
AcDbLine
 10
6141.666565
 20
-948.188204
 30
0.0
 11
6141.666565
 21
-941.188204
 31
0.0
  0
LINE
  5
220
100
AcDbEntity
  8
0
 62
     2
100
AcDbLine
 10
6166.666565
 20
-941.188204
 30
0.0
 11
6166.666565
 21
-948.188204
 31
0.0
  0
LINE
  5
221
100
AcDbEntity
  8
0
 62
     2
100
AcDbLine
 10
6166.666565
 20
-948.188204
 30
0.0
 11
6141.666565
 21
-948.188204
 31
0.0
  0
LINE
  5
222
100
AcDbEntity
  8
0
 62
     2
100
AcDbLine
 10
6166.766565
 20
-925.188204
 30
0.0
 11
6141.766565
 21
-925.188204
 31
0.0
  0
LINE
  5
223
100
AcDbEntity
  8
0
 62
     2
100
AcDbLine
 10
6166.766565
 20
-924.188204
 30
0.0
 11
6141.766565
 21
-924.188204
 31
0.0
  0
LINE
  5
224
100
AcDbEntity
  8
0
 62
     2
100
AcDbLine
 10
6166.766565
 20
-908.188204
 30
0.0
 11
6141.766565
 21
-908.188204
 31
0.0
  0
LINE
  5
225
100
AcDbEntity
  8
0
 62
     2
100
AcDbLine
 10
6166.766565
 20
-909.188204
 30
0.0
 11
6141.766565
 21
-909.188204
 31
0.0
  0
LINE
  5
226
100
AcDbEntity
  8
0
 62
     2
100
AcDbLine
 10
6166.766565
 20
-916.188204
 30
0.0
 11
6141.766565
 21
-916.188204
 31
0.0
  0
LINE
  5
227
100
AcDbEntity
  8
0
 62
     2
100
AcDbLine
 10
6166.766565
 20
-917.188204
 30
0.0
 11
6141.766565
 21
-917.188204
 31
0.0
  0
LINE
  5
228
100
AcDbEntity
  8
0
 62
     2
100
AcDbLine
 10
6141.766565
 20
-916.188204
 30
0.0
 11
6141.766565
 21
-909.188204
 31
0.0
  0
LINE
  5
229
100
AcDbEntity
  8
0
 62
     2
100
AcDbLine
 10
6141.766565
 20
-924.188204
 30
0.0
 11
6141.766565
 21
-917.188204
 31
0.0
  0
LINE
  5
22A
100
AcDbEntity
  8
0
 62
     2
100
AcDbLine
 10
6166.766565
 20
-909.188204
 30
0.0
 11
6166.766565
 21
-916.188204
 31
0.0
  0
TEXT
  5
22B
100
AcDbEntity
  8
0
 62
     3
100
AcDbText
 10
6157.69348
 20
-922.428389
 30
0.0
 40
3.5
  1
393
100
AcDbText
  0
LINE
  5
22C
100
AcDbEntity
  8
0
 62
     2
100
AcDbLine
 10
6166.766565
 20
-917.188204
 30
0.0
 11
6166.766565
 21
-924.188204
 31
0.0
  0
LINE
  5
22D
100
AcDbEntity
  8
0
 62
     2
100
AcDbLine
 10
6154.266565
 20
-940.188204
 30
0.0
 11
6141.766565
 21
-940.188204
 31
0.0
  0
LINE
  5
22E
100
AcDbEntity
  8
0
 62
     2
100
AcDbLine
 10
6154.266565
 20
-933.188204
 30
0.0
 11
6141.766565
 21
-933.188204
 31
0.0
  0
LINE
  5
22F
100
AcDbEntity
  8
0
 62
     2
100
AcDbLine
 10
6166.766565
 20
-932.188204
 30
0.0
 11
6141.766565
 21
-932.188204
 31
0.0
  0
LINE
  5
230
100
AcDbEntity
  8
0
 62
     2
100
AcDbLine
 10
6166.666565
 20
-941.188204
 30
0.0
 11
6141.666565
 21
-941.188204
 31
0.0
  0
LINE
  5
231
100
AcDbEntity
  8
0
 62
     2
100
AcDbLine
 10
6141.766565
 20
-940.188204
 30
0.0
 11
6141.766565
 21
-933.188204
 31
0.0
  0
LINE
  5
232
100
AcDbEntity
  8
0
 62
     2
100
AcDbLine
 10
6166.766565
 20
-933.188204
 30
0.0
 11
6155.266565
 21
-933.188204
 31
0.0
  0
LINE
  5
233
100
AcDbEntity
  8
0
 62
     2
100
AcDbLine
 10
6166.766565
 20
-940.188204
 30
0.0
 11
6155.266565
 21
-940.188204
 31
0.0
  0
LINE
  5
234
100
AcDbEntity
  8
0
 62
     2
100
AcDbLine
 10
6166.766565
 20
-933.188204
 30
0.0
 11
6166.766565
 21
-940.188204
 31
0.0
  0
LINE
  5
235
100
AcDbEntity
  8
0
 62
     2
100
AcDbLine
 10
6155.266565
 20
-933.188204
 30
0.0
 11
6155.266565
 21
-940.188204
 31
0.0
  0
LINE
  5
236
100
AcDbEntity
  8
0
 62
     2
100
AcDbLine
 10
6154.266565
 20
-933.188204
 30
0.0
 11
6154.266565
 21
-940.188204
 31
0.0
  0
LINE
  5
237
100
AcDbEntity
  8
0
 62
     2
100
AcDbLine
 10
6141.766565
 20
-932.188204
 30
0.0
 11
6141.766565
 21
-925.188204
 31
0.0
  0
TEXT
  5
238
100
AcDbEntity
  8
0
 62
     3
100
AcDbText
 10
6162.683531
 20
-930.566063
 30
0.0
 40
3.5
  1
6
100
AcDbText
  0
LINE
  5
239
100
AcDbEntity
  8
0
 62
     2
100
AcDbLine
 10
6166.766565
 20
-925.188204
 30
0.0
 11
6166.766565
 21
-932.188204
 31
0.0
  0
POINT
  5
23A
100
AcDbEntity
  8
DEFPOINTS
  6
BYBLOCK
 62
     0
100
AcDbPoint
 10
6082.147532
 20
-955.070443
 30
0.0
  0
TEXT
  5
23B
100
AcDbEntity
  8
0
 62
     3
100
AcDbText
 10
6084.955372
 20
-914.578612
 30
0.0
 40
3.5
  1
Fabr.Nr./Serial no.
 41
0.640941
 72
     5
 11
6109.295099
 21
-914.578612
 31
0.0
100
AcDbText
  0
ARC
  5
23C
100
AcDbEntity
  8
0
100
AcDbCircle
 10
6086.591545
 20
-952.778993
 30
0.0
 40
5.0
100
AcDbArc
 50
180.0
 51
270.0
  0
TEXT
  5
23D
100
AcDbEntity
  8
0
 62
     3
100
AcDbText
 10
6085.091348
 20
-930.16835
 30
0.0
 40
3.5
  1
zul.Betr.überdruck/Max.working pressure
 41
0.628728
 72
     5
 11
6139.345823
 21
-930.16835
 31
0.0
100
AcDbText
  0
TEXT
  5
23E
100
AcDbEntity
  8
0
 62
     3
100
AcDbText
 10
6084.819396
 20
-935.66785
 30
0.0
 40
2.5
  1
Vordruck/Precharge pressure
 41
1.078418
 72
     5
 11
6133.226897
 21
-935.66785
 31
0.0
100
AcDbText
  0
TEXT
  5
23F
100
AcDbEntity
  8
0
 62
     3
100
AcDbText
 10
6084.819396
 20
-939.436443
 30
0.0
 40
2.5
  1
(werksseitig,bauseits/factory,site)
 41
0.928142
 72
     5
 11
6133.226897
 21
-939.436443
 31
0.0
100
AcDbText
1001
GENIUS_GENTRA_14
1002
{
1070
     1
1000
//
1000
(werksseitig,bauseits/factory,site)
1000
DEU
1070
     0
1040
0.762895
1070
     0
1002
}
  0
TEXT
  5
241
100
AcDbEntity
  8
0
 62
     3
100
AcDbText
 10
6085.274899
 20
-945.947139
 30
0.0
 40
3.5
  1
Bauartzulassung/Tuv type test code
 41
0.709812
 72
     5
 11
6140.073278
 21
-945.947139
 31
0.0
100
AcDbText
  0
TEXT
  5
242
100
AcDbEntity
  8
0
 62
     3
100
AcDbText
 10
6085.091348
 20
-922.373481
 30
0.0
 40
3.5
  1
zul.Temperatur/Max.temperature
 41
0.782908
 72
     5
 11
6139.209846
 21
-922.373481
 31
0.0
100
AcDbText
  0
LINE
  5
243
100
AcDbEntity
  8
0
 62
     2
100
AcDbLine
 10
6171.189682
 20
-869.683471
 30
0.0
 11
6171.189682
 21
-870.103471
 31
0.0
  0
LINE
  5
244
100
AcDbEntity
  8
0
 62
     2
100
AcDbLine
 10
6171.189682
 20
-871.615469
 30
0.0
 11
6171.189682
 21
-872.035469
 31
0.0
  0
LINE
  5
245
100
AcDbEntity
  8
0
 62
     2
100
AcDbLine
 10
6171.189682
 20
-873.463467
 30
0.0
 11
6171.189682
 21
-873.883467
 31
0.0
  0
LINE
  5
246
100
AcDbEntity
  8
0
 62
     2
100
AcDbLine
 10
6169.528691
 20
-872.035469
 30
0.0
 11
6171.189682
 21
-872.035469
 31
0.0
  0
LINE
  5
247
100
AcDbEntity
  8
0
 62
     2
100
AcDbLine
 10
6169.518105
 20
-871.951469
 30
0.0
 11
6171.189682
 21
-871.951469
 31
0.0
  0
LINE
  5
248
100
AcDbEntity
  8
0
 62
     2
100
AcDbLine
 10
6169.511785
 20
-871.867469
 30
0.0
 11
6171.189682
 21
-871.867469
 31
0.0
  0
LINE
  5
249
100
AcDbEntity
  8
0
 62
     2
100
AcDbLine
 10
6169.518105
 20
-871.615469
 30
0.0
 11
6171.189682
 21
-871.615469
 31
0.0
  0
LINE
  5
24A
100
AcDbEntity
  8
0
 62
     2
100
AcDbLine
 10
6169.511785
 20
-871.699469
 30
0.0
 11
6171.189682
 21
-871.699469
 31
0.0
  0
LINE
  5
24B
100
AcDbEntity
  8
0
 62
     2
100
AcDbLine
 10
6169.509683
 20
-871.783469
 30
0.0
 11
6171.189682
 21
-871.783469
 31
0.0
  0
ARC
  5
24C
100
AcDbEntity
  8
0
 62
     2
100
AcDbCircle
 10
6171.189682
 20
-871.783469
 30
0.0
 40
1.763998
100
AcDbArc
 50
90.0
 51
270.0
  0
ARC
  5
24D
100
AcDbEntity
  8
0
 62
     2
100
AcDbCircle
 10
6171.189682
 20
-871.783469
 30
0.0
 40
1.847998
100
AcDbArc
 50
90.0
 51
270.0
  0
ARC
  5
24E
100
AcDbEntity
  8
0
 62
     2
100
AcDbCircle
 10
6171.189682
 20
-871.783469
 30
0.0
 40
1.931998
100
AcDbArc
 50
90.0
 51
270.0
  0
ARC
  5
24F
100
AcDbEntity
  8
0
 62
     2
100
AcDbCircle
 10
6171.189682
 20
-871.783469
 30
0.0
 40
2.015998
100
AcDbArc
 50
90.0
 51
270.0
  0
ARC
  5
250
100
AcDbEntity
  8
0
 62
     2
100
AcDbCircle
 10
6171.189682
 20
-871.783469
 30
0.0
 40
2.099998
100
AcDbArc
 50
90.0
 51
270.0
  0
ARC
  5
251
100
AcDbEntity
  8
0
 62
     2
100
AcDbCircle
 10
6171.189682
 20
-871.783469
 30
0.0
 40
1.679998
100
AcDbArc
 50
90.0
 51
270.0
  0
TEXT
  5
252
100
AcDbEntity
  8
0
 62
     3
100
AcDbText
 10
6140.553527
 20
-890.867586
 30
0.0
 40
3.5
  1
Reflexomat
100
AcDbText
  0
LINE
  5
253
100
AcDbEntity
  8
0
 62
     2
100
AcDbLine
 10
6166.766565
 20
-893.188204
 30
0.0
 11
6141.766565
 21
-893.188204
 31
0.0
  0
LINE
  5
254
100
AcDbEntity
  8
0
 62
     2
100
AcDbLine
 10
6166.766565
 20
-885.077918
 30
0.0
 11
6166.766565
 21
-892.077918
 31
0.0
  0
LINE
  5
255
100
AcDbEntity
  8
0
 62
     2
100
AcDbLine
 10
6167.017904
 20
-869.683471
 30
0.0
 11
6167.017904
 21
-870.187471
 31
0.0
  0
LINE
  5
256
100
AcDbEntity
  8
0
 62
     2
100
AcDbLine
 10
6167.017904
 20
-873.379467
 30
0.0
 11
6167.017904
 21
-873.883467
 31
0.0
  0
ARC
  5
257
100
AcDbEntity
  8
0
 62
     2
100
AcDbCircle
 10
6167.017904
 20
-871.783469
 30
0.0
 40
1.763998
100
AcDbArc
 50
90.0
 51
270.0
  0
ARC
  5
258
100
AcDbEntity
  8
0
 62
     2
100
AcDbCircle
 10
6167.017904
 20
-871.783469
 30
0.0
 40
1.847998
100
AcDbArc
 50
90.0
 51
270.0
  0
ARC
  5
259
100
AcDbEntity
  8
0
 62
     2
100
AcDbCircle
 10
6167.017904
 20
-871.783469
 30
0.0
 40
1.931998
100
AcDbArc
 50
90.0
 51
270.0
  0
ARC
  5
25A
100
AcDbEntity
  8
0
 62
     2
100
AcDbCircle
 10
6167.017904
 20
-871.783469
 30
0.0
 40
2.015998
100
AcDbArc
 50
90.0
 51
270.0
  0
ARC
  5
25B
100
AcDbEntity
  8
0
 62
     2
100
AcDbCircle
 10
6167.017904
 20
-871.783469
 30
0.0
 40
2.099998
100
AcDbArc
 50
90.0
 51
270.0
  0
ARC
  5
25C
100
AcDbEntity
  8
0
 62
     2
100
AcDbCircle
 10
6167.017904
 20
-871.783469
 30
0.0
 40
1.595998
100
AcDbArc
 50
90.0
 51
270.0
  0
ARC
  5
25D
100
AcDbEntity
  8
0
 62
     2
100
AcDbCircle
 10
6167.017904
 20
-871.783469
 30
0.0
 40
1.679998
100
AcDbArc
 50
90.0
 51
270.0
  0
TEXT
  5
25E
100
AcDbEntity
  8
0
 62
     2
100
AcDbText
 10
6085.138383
 20
-890.344333
 30
0.0
 40
3.5
  1
Typ/Type
 41
1.602146
 72
     5
 11
6116.820821
 21
-890.344333
 31
0.0
100
AcDbText
  0
LINE
  5
25F
100
AcDbEntity
  8
0
 62
     2
100
AcDbLine
 10
6118.766565
 20
-892.077918
 30
0.0
 11
6118.766565
 21
-885.077918
 31
0.0
  0
LINE
  5
260
100
AcDbEntity
  8
0
 62
     2
100
AcDbLine
 10
6107.950741
 20
-866.939485
 30
0.0
 11
6093.480808
 21
-866.939485
 31
0.0
  0
LINE
  5
261
100
AcDbEntity
  8
0
 62
     2
100
AcDbLine
 10
6093.480808
 20
-871.161777
 30
0.0
 11
6107.950741
 21
-871.161777
 31
0.0
  0
TEXT
  5
262
100
AcDbEntity
  8
0
 62
     3
100
AcDbText
 10
6084.545695
 20
-874.49323
 30
0.0
 40
1.863063
  1
Winkelmann + Pannhoff GmbH + Co.Kg
 41
0.796639
  7
ISO8
 72
     5
 11
6117.333277
 21
-874.49323
 31
0.0
100
AcDbText
  0
TEXT
  5
264
100
AcDbEntity
  8
0
 62
     3
100
AcDbText
 10
6084.545694
 20
-877.705358
 30
0.0
 40
1.863063
  1
Gersteinstraße 19  D-59227 Ahlen/Westf.
 41
0.707787
  7
ISO8
 72
     5
 11
6117.333275
 21
-877.705358
 31
0.0
100
AcDbText
  0
INSERT
  5
265
100
AcDbEntity
  8
AM_4
100
AcDbBlockReference
  2
REFLEX-LOGO
 10
6095.218494
 20
-870.936289
 30
0.0
 41
0.432319
 42
0.432319
 43
0.432319
  0
LINE
  5
266
100
AcDbEntity
  8
0
 62
     2
100
AcDbLine
 10
6093.480808
 20
-866.939485
 30
0.0
 11
6093.480808
 21
-871.161777
 31
0.0
  0
LINE
  5
267
100
AcDbEntity
  8
0
 62
     2
100
AcDbLine
 10
6107.950741
 20
-871.161777
 30
0.0
 11
6107.950741
 21
-866.939485
 31
0.0
  0
ARC
  5
268
100
AcDbEntity
  8
0
100
AcDbCircle
 10
6086.591545
 20
-867.778993
 30
0.0
 40
5.0
100
AcDbArc
 50
90.0
 51
180.0
  0
LINE
  5
269
100
AcDbEntity
  8
0
 62
     2
100
AcDbLine
 10
6118.766565
 20
-885.077918
 30
0.0
 11
6166.766565
 21
-885.077918
 31
0.0
  0
LINE
  5
26A
100
AcDbEntity
  8
0
 62
     2
100
AcDbLine
 10
6166.766565
 20
-892.077918
 30
0.0
 11
6118.766565
 21
-892.077918
 31
0.0
  0
MTEXT
  5
26B
100
AcDbEntity
  8
0
 62
     2
100
AcDbMText
 10
6121.229396
 20
-870.786387
 30
0.0
 40
3.0
 41
61.74
 71
     1
 72
     5
  1
\fArial Black|b0|i0|c0|p34;Membran-
1001
ACAD
1000
MTEXTBEGIN
1070
    73
1070
     1
1070
    44
1040
1.0
1070
    74
1070
     0
1000
MTEXTEND
  0
LINE
  5
26C
100
AcDbEntity
  8
0
 62
     2
100
AcDbLine
 10
6166.766565
 20
-900.188204
 30
0.0
 11
6141.766565
 21
-900.188204
 31
0.0
  0
LINE
  5
26D
100
AcDbEntity
  8
0
 62
     2
100
AcDbLine
 10
6166.766565
 20
-901.188204
 30
0.0
 11
6141.766565
 21
-901.188204
 31
0.0
  0
TEXT
  5
26E
100
AcDbEntity
  8
0
 62
     3
100
AcDbText
 10
6157.086181
 20
-906.404774
 30
0.0
 40
3.5
  1
500
100
AcDbText
  0
TEXT
  5
26F
100
AcDbEntity
  8
0
 62
     3
100
AcDbText
 10
6085.091348
 20
-898.58093
 30
0.0
 40
3.5
  1
Baujahr/Year
 41
0.824676
 72
     5
 11
6108.615218
 21
-898.58093
 31
0.0
100
AcDbText
  0
TEXT
  5
270
100
AcDbEntity
  8
0
 62
     3
100
AcDbText
 10
6085.091348
 20
-906.103836
 30
0.0
 40
3.5
  1
Inhalt/Volume
 41
0.824098
 72
     5
 11
6108.88717
 21
-906.103836
 31
0.0
100
AcDbText
  0
LINE
  5
271
100
AcDbEntity
  8
0
 62
     2
100
AcDbLine
 10
6141.766565
 20
-900.188204
 30
0.0
 11
6141.766565
 21
-893.188204
 31
0.0
  0
TEXT
  5
272
100
AcDbEntity
  8
0
 62
     3
100
AcDbText
 10
6154.737921
 20
-898.404774
 30
0.0
 40
3.5
  1
2001
100
AcDbText
  0
LINE
  5
273
100
AcDbEntity
  8
0
 62
     2
100
AcDbLine
 10
6166.766565
 20
-893.188204
 30
0.0
 11
6166.766565
 21
-900.188204
 31
0.0
  0
LINE
  5
274
100
AcDbEntity
  8
0
100
AcDbLine
 10
6176.591545
 20
-867.778993
 30
0.0
 11
6176.591545
 21
-952.778993
 31
0.0
  0
ARC
  5
275
100
AcDbEntity
  8
0
100
AcDbCircle
 10
6171.591545
 20
-952.778993
 30
0.0
 40
5.0
100
AcDbArc
 50
270.0
 51
0.0
  0
ARC
  5
276
100
AcDbEntity
  8
0
100
AcDbCircle
 10
6171.591545
 20
-867.778993
 30
0.0
 40
5.0
100
AcDbArc
 50
0.0
 51
90.0
  0
LINE
  5
277
100
AcDbEntity
  8
AM_0
100
AcDbLine
 10
6499.091545
 20
-996.639906
 30
0.0
 11
6499.091545
 21
-582.176204
 31
0.0
  0
ARC
  5
278
100
AcDbEntity
  8
AM_0
100
AcDbCircle
 10
6496.341545
 20
-996.639906
 30
0.0
 40
2.75
100
AcDbArc
 50
315.0
 51
0.0
1001
GENIUS_GENODEF_13
1002
{
1000
HIER
1070
     0
1002
}
1002
{
1000
MANEDIT
1070
     0
1002
}
1002
{
1000
NOSEL
1070
     0
1002
}
1002
{
1000
BEHIND
1070
     0
1002
}
1002
{
1000
REACTOR
1002
}
1001
GENIUS_GENOBJ-N-FIL_13
1002
{
1000
OWNER
1000
GEN
1002
}
  0
LINE
  5
279
100
AcDbEntity
  8
AM_0
100
AcDbLine
 10
6498.286089
 20
-998.584449
 30
0.0
 11
6497.705922
 21
-999.164617
 31
0.0
  0
ARC
  5
27A
100
AcDbEntity
  8
AM_0
100
AcDbCircle
 10
6498.413028
 20
-999.871723
 30
0.0
 40
1.0
100
AcDbArc
 50
135.0
 51
176.0
1001
GENIUS_GENODEF_13
1002
{
1000
HIER
1070
     0
1002
}
1002
{
1000
MANEDIT
1070
     0
1002
}
1002
{
1000
NOSEL
1070
     0
1002
}
1002
{
1000
BEHIND
1070
     0
1002
}
1002
{
1000
REACTOR
1002
}
1001
GENIUS_GENOBJ-N-FIL_13
1002
{
1000
OWNER
1000
GEN
1002
}
  0
LINE
  5
27B
100
AcDbEntity
  8
AM_0
100
AcDbLine
 10
6497.341545
 20
-1000.85906
 30
0.0
 11
6497.415464
 21
-999.801967
 31
0.0
  0
LINE
  5
27C
100
AcDbEntity
  8
AM_0
100
AcDbLine
 10
6137.071126
 20
-340.904238
 30
0.0
 11
6136.071126
 21
-339.904238
 31
0.0
  0
LINE
  5
27D
100
AcDbEntity
  8
AM_0
100
AcDbLine
 10
6142.951545
 20
-373.355122
 30
0.0
 11
6142.951545
 21
-360.702865
 31
0.0
  0
LINE
  5
27E
100
AcDbEntity
  8
AM_0
100
AcDbLine
 10
6142.951545
 20
-373.355122
 30
0.0
 11
6141.091545
 21
-374.428993
 31
0.0
  0
LINE
  5
27F
100
AcDbEntity
  8
AM_0
100
AcDbLine
 10
6142.951545
 20
-360.702865
 30
0.0
 11
6141.091545
 21
-359.628993
 31
0.0
  0
LINE
  5
280
100
AcDbEntity
  8
AM_0
100
AcDbLine
 10
6136.021545
 20
-373.355122
 30
0.0
 11
6136.021545
 21
-360.702865
 31
0.0
  0
ARC
  5
281
100
AcDbEntity
  8
AM_0
100
AcDbCircle
 10
6139.486545
 20
-368.301898
 30
0.0
 40
6.127095
100
AcDbArc
 50
235.561531
 51
295.561531
  0
ARC
  5
282
100
AcDbEntity
  8
AM_0
100
AcDbCircle
 10
6139.486545
 20
-365.756088
 30
0.0
 40
6.127095
100
AcDbArc
 50
64.438469
 51
124.438469
  0
LINE
  5
283
100
AcDbEntity
  8
AM_4
100
AcDbLine
 10
6136.071126
 20
-339.904238
 30
0.0
 11
6136.071126
 21
-359.628993
 31
0.0
  0
LINE
  5
284
100
AcDbEntity
  8
AM_0
100
AcDbLine
 10
6137.071126
 20
-359.628993
 30
0.0
 11
6137.071126
 21
-340.904238
 31
0.0
  0
LINE
  5
285
100
AcDbEntity
  8
AM_0
100
AcDbLine
 10
6121.071126
 20
-340.904238
 30
0.0
 11
6122.071126
 21
-339.904238
 31
0.0
  0
LINE
  5
286
100
AcDbEntity
  8
AM_0
100
AcDbLine
 10
6122.161545
 20
-373.355122
 30
0.0
 11
6122.161545
 21
-360.702865
 31
0.0
  0
LINE
  5
287
100
AcDbEntity
  8
AM_0
100
AcDbLine
 10
6115.231545
 20
-373.355122
 30
0.0
 11
6115.231545
 21
-360.702865
 31
0.0
  0
LINE
  5
288
100
AcDbEntity
  8
AM_0
100
AcDbLine
 10
6115.231545
 20
-373.355122
 30
0.0
 11
6117.091545
 21
-374.428993
 31
0.0
  0
LINE
  5
289
100
AcDbEntity
  8
AM_0
100
AcDbLine
 10
6115.231545
 20
-360.702865
 30
0.0
 11
6117.091545
 21
-359.628993
 31
0.0
  0
ARC
  5
28A
100
AcDbEntity
  8
AM_0
100
AcDbCircle
 10
6118.696545
 20
-368.301898
 30
0.0
 40
6.127095
100
AcDbArc
 50
244.438469
 51
304.438469
  0
ARC
  5
28B
100
AcDbEntity
  8
AM_0
100
AcDbCircle
 10
6118.696545
 20
-365.756088
 30
0.0
 40
6.127095
100
AcDbArc
 50
55.561531
 51
115.561531
  0
LINE
  5
28C
100
AcDbEntity
  8
AM_4
100
AcDbLine
 10
6122.071126
 20
-339.904238
 30
0.0
 11
6122.071126
 21
-359.628993
 31
0.0
  0
LINE
  5
28D
100
AcDbEntity
  8
AM_0
100
AcDbLine
 10
6121.071126
 20
-359.628993
 30
0.0
 11
6121.071126
 21
-340.904238
 31
0.0
  0
LINE
  5
28E
100
AcDbEntity
  8
AM_0
100
AcDbLine
 10
6121.071126
 20
-340.904238
 30
0.0
 11
6137.071126
 21
-340.904238
 31
0.0
  0
LINE
  5
28F
100
AcDbEntity
  8
AM_0
100
AcDbLine
 10
6122.071126
 20
-339.904238
 30
0.0
 11
6136.071126
 21
-339.904238
 31
0.0
  0
ARC
  5
290
100
AcDbEntity
  8
AM_0
100
AcDbCircle
 10
6129.091545
 20
-351.531421
 30
0.0
 40
22.897572
100
AcDbArc
 50
252.383031
 51
287.616969
  0
ARC
  5
291
100
AcDbEntity
  8
AM_0
100
AcDbCircle
 10
6129.091545
 20
-382.526565
 30
0.0
 40
22.897572
100
AcDbArc
 50
72.383031
 51
107.616969
  0
LINE
  5
292
100
AcDbEntity
  8
AM_0
100
AcDbLine
 10
6141.091545
 20
-374.428993
 30
0.0
 11
6117.091545
 21
-374.428993
 31
0.0
  0
LINE
  5
293
100
AcDbEntity
  8
AM_0
100
AcDbLine
 10
6141.091545
 20
-359.628993
 30
0.0
 11
6117.091545
 21
-359.628993
 31
0.0
  0
ARC
  5
294
100
AcDbEntity
  8
AM_0
100
AcDbCircle
 10
7193.033482
 20
-556.131184
 30
0.0
 40
100.0
100
AcDbArc
 50
127.318845
 51
180.0
1001
GENIUS_GENODEF_13
1002
{
1000
HIER
1070
     0
1002
}
1002
{
1000
MANEDIT
1070
     0
1002
}
1002
{
1000
NOSEL
1070
     0
1002
}
1002
{
1000
BEHIND
1070
     0
1002
}
1002
{
1000
REACTOR
1002
}
1001
GENIUS_GENOBJ-N-FIL_13
1002
{
1000
OWNER
1000
GEN
1002
}
  0
ARC
  5
295
100
AcDbEntity
  8
AM_0
100
AcDbCircle
 10
7193.033482
 20
-556.131184
 30
0.0
 40
97.0
100
AcDbArc
 50
127.318845
 51
180.0
1001
GENIUS_GENODEF_13
1002
{
1000
HIER
1070
     0
1002
}
1002
{
1000
MANEDIT
1070
     0
1002
}
1002
{
1000
NOSEL
1070
     0
1002
}
1002
{
1000
BEHIND
1070
     0
1002
}
1002
{
1000
REACTOR
1002
}
1001
GENIUS_GENOBJ-N-FIL_13
1002
{
1000
OWNER
1000
GEN
1002
}
  0
ARC
  5
296
100
AcDbEntity
  8
AM_0
100
AcDbCircle
 10
7174.283482
 20
-582.176204
 30
0.0
 40
133.0
100
AcDbArc
 50
125.00941
 51
180.0
1001
GENIUS_GENODEF_13
1002
{
1000
HIER
1070
     0
1002
}
1002
{
1000
MANEDIT
1070
     0
1002
}
1002
{
1000
NOSEL
1070
     0
1002
}
1002
{
1000
BEHIND
1070
     0
1002
}
1002
{
1000
REACTOR
1002
}
1001
GENIUS_GENOBJ-N-FIL_13
1002
{
1000
OWNER
1000
GEN
1002
}
  0
ARC
  5
297
100
AcDbEntity
  8
AM_0
100
AcDbCircle
 10
7174.283482
 20
-582.176204
 30
0.0
 40
130.9
100
AcDbArc
 50
125.00941
 51
180.0
1001
GENIUS_GENODEF_13
1002
{
1000
HIER
1070
     0
1002
}
1002
{
1000
MANEDIT
1070
     0
1002
}
1002
{
1000
NOSEL
1070
     0
1002
}
1002
{
1000
BEHIND
1070
     0
1002
}
1002
{
1000
REACTOR
1002
}
1001
GENIUS_GENOBJ-N-FIL_13
1002
{
1000
OWNER
1000
GEN
1002
}
  0
HATCH
  5
298
100
AcDbEntity
  8
AM_8
100
AcDbHatch
 10
0.0
 20
0.0
 30
0.0
210
0.0
220
0.0
230
1.0
  2
_U
 70
     0
 71
     0
 91
        1
 92
        1
 93
       29
 72
     2
 10
7044.383482
 20
-996.144931
 40
3.1
 50
180.0
 51
225.0
 73
     1
 72
     1
 10
7042.191451
 20
-998.336962
 11
7043.019106
 21
-999.164617
 72
     2
 10
7042.311999
 20
-999.871723
 40
1.0
 50
315.0
 51
356.0
 73
     0
 72
     1
 10
7043.309563
 20
-999.801967
 11
7043.383482
 21
-1000.85906
 72
     1
 10
7043.383482
 20
-1000.85906
 11
7043.98275
 21
-1009.428993
 72
     1
 10
7043.98275
 20
-1009.428993
 11
7044.157615
 21
-1009.428993
 72
     2
 10
7044.157615
 20
-1007.628993
 40
1.8
 50
270.0
 51
364.0
 73
     1
 72
     1
 10
7045.95323
 20
-1007.503431
 11
7045.404448
 21
-999.655478
 72
     2
 10
7042.311999
 20
-999.871723
 40
3.1
 50
4.0
 51
45.0
 73
     1
 72
     1
 10
7044.50403
 20
-997.679692
 11
7043.676375
 21
-996.852038
 72
     2
 10
7044.383482
 20
-996.144931
 40
1.0
 50
135.0
 51
180.0
 73
     0
 72
     1
 10
7043.383482
 20
-996.144931
 11
7043.383482
 21
-582.176204
 72
     2
 10
7174.283482
 20
-582.176204
 40
130.9
 50
180.0
 51
234.99059
 73
     0
 72
     2
 10
7411.283482
 20
-920.528993
 40
544.0
 50
234.99059
 51
267.328149
 73
     0
 72
     2
 10
7411.283482
 20
-842.42987
 40
466.0
 50
266.880519
 51
268.278409
 73
     0
 72
     1
 10
7397.283482
 20
-376.640218
 11
7400.283482
 21
-376.640218
 72
     1
 10
7400.283482
 20
-376.640218
 11
7400.283482
 21
-374.53979
 72
     2
 10
7411.283482
 20
-920.528993
 40
546.1
 50
91.154177
 51
97.152998
 73
     1
 72
     1
 10
7343.283482
 20
-378.679189
 11
7343.283482
 21
-379.470523
 72
     2
 10
7411.283482
 20
-835.540693
 40
461.1117
 50
98.48032
 51
102.525094
 73
     1
 72
     1
 10
7311.283482
 20
-385.402937
 11
7311.283482
 21
-383.662892
 72
     2
 10
7411.283482
 20
-920.528993
 40
546.1
 50
100.551348
 51
114.331317
 73
     1
 72
     1
 10
7186.283482
 20
-422.93457
 11
7175.633482
 21
-427.93457
 72
     1
 10
7175.633482
 20
-427.93457
 11
7175.633482
 21
-427.888873
 72
     2
 10
7411.283482
 20
-920.528993
 40
546.1
 50
115.563705
 51
120.845619
 73
     1
 72
     1
 10
7131.283482
 20
-451.673781
 11
7124.779514
 21
-455.619662
 72
     2
 10
7411.283482
 20
-920.528993
 40
546.1
 50
121.643773
 51
125.00941
 73
     1
 72
     2
 10
7174.283482
 20
-582.176204
 40
133.0
 50
125.00941
 51
180.0
 73
     1
 72
     1
 10
7041.283482
 20
-582.176204
 11
7041.283482
 21
-996.144931
 97
        0
 75
     0
 76
     0
 52
135.0
 41
7.0
 77
     0
 78
     1
 53
135.0
 43
4750.477491
 44
0.0
 45
-4.949747468305833
 46
-4.949747468305831
 79
     0
 98
        1
 10
4750.477491
 20
0.0
1001
GENIUS_GENOBJ-N-HTC_13
1002
{
1000
OWNER
1000
GEN
1002
}
1001
GENIUS_GENODEF_13
1002
{
1000
HIER
1070
     0
1002
}
1002
{
1000
MANEDIT
1070
     0
1002
}
1002
{
1000
NOSEL
1070
     0
1002
}
1002
{
1000
BEHIND
1070
     0
1002
}
1002
{
1000
OTHER
1070
     0
1002
}
1002
{
1000
REACTOR
1002
}
1001
GENIUS_GENHATCH_13
1002
{
1000
DATA
1040
135.0
1042
1.0
1000
_U
1070
     0
1011
7048.547805
1021
-540.981133
1031
0.0
1002
}
1002
{
1000
UCS
1010
0.0
1020
0.0
1030
0.0
1010
1.0
1020
0.0
1030
0.0
1010
0.0
1020
1.0
1030
0.0
1002
}
  0
LINE
  5
299
100
AcDbEntity
  8
AM_0
100
AcDbLine
 10
7043.98275
 20
-1009.428993
 30
0.0
 11
7093.033482
 21
-1009.428993
 31
0.0
  0
LINE
  5
29A
100
AcDbEntity
  8
AM_4
100
AcDbLine
 10
7047.292491
 20
-998.499259
 30
0.0
 11
7093.033482
 21
-998.499259
 31
0.0
  0
LINE
  5
29B
100
AcDbEntity
  8
AM_4
100
AcDbLine
 10
7045.352377
 20
-996.559145
 30
0.0
 11
7093.033482
 21
-996.559145
 31
0.0
  0
LINE
  5
29C
100
AcDbEntity
  8
AM_0
100
AcDbLine
 10
7043.383482
 20
-996.144931
 30
0.0
 11
7043.383482
 21
-582.176204
 31
0.0
  0
LINE
  5
29D
100
AcDbEntity
  8
AM_0
100
AcDbLine
 10
7041.283482
 20
-996.144931
 30
0.0
 11
7041.283482
 21
-582.176204
 31
0.0
  0
LINE
  5
29E
100
AcDbEntity
  8
AM_0
100
AcDbLine
 10
7043.98275
 20
-1009.428993
 30
0.0
 11
7043.309563
 21
-999.801967
 31
0.0
  0
LINE
  5
29F
100
AcDbEntity
  8
AM_0
100
AcDbLine
 10
7045.95323
 20
-1007.503431
 30
0.0
 11
7045.404448
 21
-999.655478
 31
0.0
  0
ARC
  5
2A0
100
AcDbEntity
  8
AM_0
100
AcDbCircle
 10
7044.157615
 20
-1007.628993
 30
0.0
 40
1.8
100
AcDbArc
 50
270.0
 51
4.0
1001
GENIUS_GENODEF_13
1002
{
1000
HIER
1070
     0
1002
}
1002
{
1000
MANEDIT
1070
     0
1002
}
1002
{
1000
NOSEL
1070
     0
1002
}
1002
{
1000
BEHIND
1070
     0
1002
}
1002
{
1000
REACTOR
1002
}
1001
GENIUS_GENOBJ-N-FIL_13
1002
{
1000
OWNER
1000
GEN
1002
}
  0
LINE
  5
2A1
100
AcDbEntity
  8
AM_0
100
AcDbLine
 10
7042.191451
 20
-998.336962
 30
0.0
 11
7043.019106
 21
-999.164617
 31
0.0
  0
LINE
  5
2A2
100
AcDbEntity
  8
AM_0
100
AcDbLine
 10
7043.676375
 20
-996.852038
 30
0.0
 11
7044.50403
 21
-997.679692
 31
0.0
  0
ARC
  5
2A3
100
AcDbEntity
  8
AM_0
100
AcDbCircle
 10
7044.383482
 20
-996.144931
 30
0.0
 40
1.0
100
AcDbArc
 50
180.0
 51
225.0
1001
GENIUS_GENODEF_13
1002
{
1000
HIER
1070
     0
1002
}
1002
{
1000
MANEDIT
1070
     0
1002
}
1002
{
1000
NOSEL
1070
     0
1002
}
1002
{
1000
BEHIND
1070
     0
1002
}
1002
{
1000
REACTOR
1002
}
1001
GENIUS_GENOBJ-N-FIL_13
1002
{
1000
OWNER
1000
GEN
1002
}
  0
ARC
  5
2A4
100
AcDbEntity
  8
AM_0
100
AcDbCircle
 10
7042.311999
 20
-999.871723
 30
0.0
 40
1.0
100
AcDbArc
 50
4.0
 51
45.0
1001
GENIUS_GENODEF_13
1002
{
1000
HIER
1070
     0
1002
}
1002
{
1000
MANEDIT
1070
     0
1002
}
1002
{
1000
NOSEL
1070
     0
1002
}
1002
{
1000
BEHIND
1070
     0
1002
}
1002
{
1000
REACTOR
1002
}
1001
GENIUS_GENOBJ-N-FIL_13
1002
{
1000
OWNER
1000
GEN
1002
}
  0
ARC
  5
2A5
100
AcDbEntity
  8
AM_0
100
AcDbCircle
 10
7042.311999
 20
-999.871723
 30
0.0
 40
3.1
100
AcDbArc
 50
4.0
 51
45.0
1001
GENIUS_GENODEF_13
1002
{
1000
HIER
1070
     0
1002
}
1002
{
1000
MANEDIT
1070
     0
1002
}
1002
{
1000
NOSEL
1070
     0
1002
}
1002
{
1000
BEHIND
1070
     0
1002
}
1002
{
1000
REACTOR
1002
}
1001
GENIUS_GENOBJ-N-FIL_13
1002
{
1000
OWNER
1000
GEN
1002
}
  0
ARC
  5
2A6
100
AcDbEntity
  8
AM_0
100
AcDbCircle
 10
7044.383482
 20
-996.144931
 30
0.0
 40
3.1
100
AcDbArc
 50
180.0
 51
225.0
1001
GENIUS_GENODEF_13
1002
{
1000
HIER
1070
     0
1002
}
1002
{
1000
MANEDIT
1070
     0
1002
}
1002
{
1000
NOSEL
1070
     0
1002
}
1002
{
1000
BEHIND
1070
     0
1002
}
1002
{
1000
REACTOR
1002
}
1001
GENIUS_GENOBJ-N-FIL_13
1002
{
1000
OWNER
1000
GEN
1002
}
  0
LINE
  5
2A7
100
AcDbEntity
  8
AM_0
100
AcDbLine
 10
7043.383482
 20
-1000.85906
 30
0.0
 11
7041.283482
 21
-1000.85906
 31
0.0
  0
ARC
  5
2A8
100
AcDbEntity
  8
AM_0
100
AcDbCircle
 10
7411.283482
 20
-920.528993
 30
0.0
 40
544.0
100
AcDbArc
 50
91.158633
 51
125.00941
  0
ARC
  5
2A9
100
AcDbEntity
  8
AM_0
100
AcDbCircle
 10
7411.283482
 20
-842.42987
 30
0.0
 40
457.0
100
AcDbArc
 50
91.379244
 51
127.318845
  0
ARC
  5
2AA
100
AcDbEntity
  8
AM_0
100
AcDbCircle
 10
7411.283482
 20
-842.42987
 30
0.0
 40
460.0
100
AcDbArc
 50
91.370247
 51
127.318845
  0
LINE
  5
2AB
100
AcDbEntity
  8
AM_0
100
AcDbLine
 10
7196.933482
 20
-417.93457
 30
0.0
 11
7196.933482
 21
-402.93457
 31
0.0
  0
LINE
  5
2AC
100
AcDbEntity
  8
AM_7
100
AcDbLine
 10
7186.283482
 20
-399.47614
 30
0.0
 11
7186.283482
 21
-425.976328
 31
0.0
  0
LINE
  5
2AD
100
AcDbEntity
  8
AM_0
100
AcDbLine
 10
7175.633482
 20
-402.93457
 30
0.0
 11
7175.633482
 21
-427.93457
 31
0.0
  0
LINE
  5
2AE
100
AcDbEntity
  8
AM_0
100
AcDbLine
 10
7175.633482
 20
-427.93457
 30
0.0
 11
7196.933482
 21
-417.93457
 31
0.0
  0
LINE
  5
2AF
100
AcDbEntity
  8
AM_0
100
AcDbLine
 10
7131.41145
 20
-434.051462
 30
0.0
 11
7115.594692
 21
-443.647303
 31
0.0
  0
LINE
  5
2B0
100
AcDbEntity
  8
AM_0
100
AcDbLine
 10
7139.191861
 20
-446.87586
 30
0.0
 11
7131.41145
 21
-434.051462
 31
0.0
  0
LINE
  5
2B1
100
AcDbEntity
  8
AM_0
100
AcDbLine
 10
7115.594692
 20
-443.647303
 30
0.0
 11
7123.375103
 21
-456.471701
 31
0.0
  0
LINE
  5
2B2
100
AcDbEntity
  8
AM_0
100
AcDbLine
 10
7123.375103
 20
-456.471701
 30
0.0
 11
7139.191861
 21
-446.87586
 31
0.0
1001
GENIUS_GENOREF_13
1005
5AA
  0
LINE
  5
2B3
100
AcDbEntity
  8
AM_7
  6
AM_DIN_G_W050
 48
7.0
100
AcDbLine
 10
7122.465682
 20
-437.139463
 30
0.0
 11
7132.839565
 21
-454.238661
 31
0.0
  0
LINE
  5
2B4
100
AcDbEntity
  8
AM_0
100
AcDbLine
 10
7196.933482
 20
-402.93457
 30
0.0
 11
7175.633482
 21
-402.93457
 31
0.0
  0
HATCH
  5
2B5
100
AcDbEntity
  8
AM_8
100
AcDbHatch
 10
0.0
 20
0.0
 30
0.0
210
0.0
220
0.0
230
1.0
  2
_U
 70
     0
 71
     0
 91
        1
 92
        1
 93
        5
 72
     1
 10
7400.283482
 20
-376.640218
 11
7397.283482
 21
-376.640218
 72
     2
 10
7411.283482
 20
-842.42987
 40
466.0
 50
91.721591
 51
105.527679
 73
     1
 72
     1
 10
7286.533482
 20
-393.438291
 11
7286.533482
 21
-399.668718
 72
     2
 10
7411.283482
 20
-842.42987
 40
460.0
 50
254.264572
 51
268.629753
 73
     0
 72
     1
 10
7400.283482
 20
-382.56141
 11
7400.283482
 21
-376.640218
 97
        0
 75
     0
 76
     0
 52
45.0
 41
5.0
 77
     0
 78
     1
 53
45.0
 43
9015.530948
 44
-386.484967
 45
-3.535533905932737
 46
3.535533905932737
 79
     0
 98
        1
 10
9015.530948
 20
-386.484967
1001
GENIUS_GENODEF_13
1002
{
1000
HIER
1070
     0
1002
}
1002
{
1000
MANEDIT
1070
     0
1002
}
1002
{
1000
NOSEL
1070
     0
1002
}
1002
{
1000
BEHIND
1070
     0
1002
}
1002
{
1000
REACTOR
1002
}
1001
GENIUS_GENOBJ-N-HTC_13
1002
{
1000
OWNER
1000
GEN
1002
}
1001
GENIUS_GENHATCH_13
1002
{
1000
DATA
1040
45.0
1042
2.5
1000
_U
1070
     0
1011
7362.082845
1021
-382.594818
1031
0.0
1002
}
1002
{
1000
UCS
1010
0.0
1020
0.0
1030
0.0
1010
1.0
1020
0.0
1030
0.0
1010
0.0
1020
1.0
1030
0.0
1002
}
  0
ARC
  5
2B6
100
AcDbEntity
  8
AM_0
100
AcDbCircle
 10
7411.283482
 20
-842.42987
 30
0.0
 40
466.0
100
AcDbArc
 50
91.721591
 51
105.527679
  0
LINE
  5
2B7
100
AcDbEntity
  8
AM_0
100
AcDbLine
 10
7286.533482
 20
-399.668718
 30
0.0
 11
7286.533482
 21
-393.438291
 31
0.0
  0
LINE
  5
2B8
100
AcDbEntity
  8
AM_0
100
AcDbLine
 10
7419.263063
 20
-340.904238
 30
0.0
 11
7418.263063
 21
-339.904238
 31
0.0
  0
LINE
  5
2B9
100
AcDbEntity
  8
AM_0
100
AcDbLine
 10
7425.283482
 20
-376.640218
 30
0.0
 11
7422.283482
 21
-376.640218
 31
0.0
  0
LINE
  5
2BA
100
AcDbEntity
  8
AM_0
100
AcDbLine
 10
7422.283482
 20
-385.562274
 30
0.0
 11
7422.283482
 21
-374.53979
 31
0.0
  0
LINE
  5
2BB
100
AcDbEntity
  8
AM_4
100
AcDbLine
 10
7418.263063
 20
-374.428993
 30
0.0
 11
7418.263063
 21
-389.904238
 31
0.0
  0
LINE
  5
2BC
100
AcDbEntity
  8
AM_0
100
AcDbLine
 10
7419.263063
 20
-389.904238
 30
0.0
 11
7419.263063
 21
-374.428993
 31
0.0
  0
LINE
  5
2BD
100
AcDbEntity
  8
AM_0
100
AcDbLine
 10
7425.143482
 20
-373.355122
 30
0.0
 11
7425.143482
 21
-360.702865
 31
0.0
  0
LINE
  5
2BE
100
AcDbEntity
  8
AM_0
100
AcDbLine
 10
7425.143482
 20
-373.355122
 30
0.0
 11
7423.283482
 21
-374.428993
 31
0.0
  0
LINE
  5
2BF
100
AcDbEntity
  8
AM_0
100
AcDbLine
 10
7425.143482
 20
-360.702865
 30
0.0
 11
7423.283482
 21
-359.628993
 31
0.0
  0
LINE
  5
2C0
100
AcDbEntity
  8
AM_0
100
AcDbLine
 10
7418.213482
 20
-373.355122
 30
0.0
 11
7418.213482
 21
-360.702865
 31
0.0
  0
ARC
  5
2C1
100
AcDbEntity
  8
AM_0
100
AcDbCircle
 10
7421.678482
 20
-368.301898
 30
0.0
 40
6.127095
100
AcDbArc
 50
235.561531
 51
295.561531
  0
ARC
  5
2C2
100
AcDbEntity
  8
AM_0
100
AcDbCircle
 10
7421.678482
 20
-365.756088
 30
0.0
 40
6.127095
100
AcDbArc
 50
64.438469
 51
124.438469
  0
LINE
  5
2C3
100
AcDbEntity
  8
AM_0
100
AcDbLine
 10
7419.533482
 20
-389.909781
 30
0.0
 11
7419.533482
 21
-385.908921
 31
0.0
  0
LINE
  5
2C4
100
AcDbEntity
  8
AM_4
100
AcDbLine
 10
7418.263063
 20
-339.904238
 30
0.0
 11
7418.263063
 21
-359.628993
 31
0.0
  0
LINE
  5
2C5
100
AcDbEntity
  8
AM_0
100
AcDbLine
 10
7419.263063
 20
-359.628993
 30
0.0
 11
7419.263063
 21
-340.904238
 31
0.0
  0
LINE
  5
2C6
100
AcDbEntity
  8
AM_0
100
AcDbLine
 10
7403.263063
 20
-340.904238
 30
0.0
 11
7404.263063
 21
-339.904238
 31
0.0
  0
LINE
  5
2C7
100
AcDbEntity
  8
AM_0
100
AcDbLine
 10
7400.283482
 20
-376.640218
 30
0.0
 11
7397.283482
 21
-376.640218
 31
0.0
  0
LINE
  5
2C8
100
AcDbEntity
  8
AM_0
100
AcDbLine
 10
7400.283482
 20
-385.562274
 30
0.0
 11
7400.283482
 21
-374.53979
 31
0.0
  0
LINE
  5
2C9
100
AcDbEntity
  8
AM_4
100
AcDbLine
 10
7404.263063
 20
-374.428993
 30
0.0
 11
7404.263063
 21
-389.904238
 31
0.0
  0
LINE
  5
2CA
100
AcDbEntity
  8
AM_0
100
AcDbLine
 10
7403.263063
 20
-389.904238
 30
0.0
 11
7403.263063
 21
-374.428993
 31
0.0
  0
LINE
  5
2CB
100
AcDbEntity
  8
AM_0
100
AcDbLine
 10
7404.353482
 20
-373.355122
 30
0.0
 11
7404.353482
 21
-360.702865
 31
0.0
  0
LINE
  5
2CC
100
AcDbEntity
  8
AM_0
100
AcDbLine
 10
7397.423482
 20
-373.355122
 30
0.0
 11
7397.423482
 21
-360.702865
 31
0.0
  0
LINE
  5
2CD
100
AcDbEntity
  8
AM_0
100
AcDbLine
 10
7397.423482
 20
-373.355122
 30
0.0
 11
7399.283482
 21
-374.428993
 31
0.0
  0
LINE
  5
2CE
100
AcDbEntity
  8
AM_0
100
AcDbLine
 10
7397.423482
 20
-360.702865
 30
0.0
 11
7399.283482
 21
-359.628993
 31
0.0
  0
ARC
  5
2CF
100
AcDbEntity
  8
AM_0
100
AcDbCircle
 10
7400.888482
 20
-368.301898
 30
0.0
 40
6.127095
100
AcDbArc
 50
244.438469
 51
304.438469
  0
ARC
  5
2D0
100
AcDbEntity
  8
AM_0
100
AcDbCircle
 10
7400.888482
 20
-365.756088
 30
0.0
 40
6.127095
100
AcDbArc
 50
55.561531
 51
115.561531
  0
LINE
  5
2D1
100
AcDbEntity
  8
AM_0
100
AcDbLine
 10
7403.033482
 20
-389.909781
 30
0.0
 11
7403.033482
 21
-385.908921
 31
0.0
  0
LINE
  5
2D2
100
AcDbEntity
  8
AM_0
100
AcDbLine
 10
7366.783482
 20
-389.202163
 30
0.0
 11
7366.783482
 21
-391.214217
 31
0.0
  0
ARC
  5
2D3
100
AcDbEntity
  8
AM_0
100
AcDbCircle
 10
7367.783482
 20
-391.214217
 30
0.0
 40
1.0
100
AcDbArc
 50
180.0
 51
276.290632
  0
ARC
  5
2D4
100
AcDbEntity
  8
AM_0
100
AcDbCircle
 10
7367.783482
 20
-389.202163
 30
0.0
 40
1.0
100
AcDbArc
 50
96.258973
 51
180.0
  0
ARC
  5
2D5
100
AcDbEntity
  8
AM_0
100
AcDbCircle
 10
7411.283482
 20
-785.823834
 30
0.0
 40
396.0
100
AcDbArc
 50
91.154614
 51
96.290632
  0
ARC
  5
2D6
100
AcDbEntity
  8
AM_0
100
AcDbCircle
 10
7411.283482
 20
-785.823834
 30
0.0
 40
400.0
100
AcDbArc
 50
91.143067
 51
96.258973
  0
LINE
  5
2D7
100
AcDbEntity
  8
AM_4
100
AcDbLine
 10
7404.263063
 20
-339.904238
 30
0.0
 11
7404.263063
 21
-359.628993
 31
0.0
  0
LINE
  5
2D8
100
AcDbEntity
  8
AM_0
100
AcDbLine
 10
7403.263063
 20
-359.628993
 30
0.0
 11
7403.263063
 21
-340.904238
 31
0.0
  0
LINE
  5
2D9
100
AcDbEntity
  8
AM_0
100
AcDbLine
 10
7403.263063
 20
-340.904238
 30
0.0
 11
7419.263063
 21
-340.904238
 31
0.0
  0
LINE
  5
2DA
100
AcDbEntity
  8
AM_0
100
AcDbLine
 10
7419.263063
 20
-389.904238
 30
0.0
 11
7403.263063
 21
-389.904238
 31
0.0
  0
LINE
  5
2DB
100
AcDbEntity
  8
AM_0
100
AcDbLine
 10
7404.263063
 20
-339.904238
 30
0.0
 11
7418.263063
 21
-339.904238
 31
0.0
  0
ARC
  5
2DC
100
AcDbEntity
  8
AM_0
100
AcDbCircle
 10
7411.283482
 20
-351.531421
 30
0.0
 40
22.897572
100
AcDbArc
 50
252.383031
 51
287.616969
  0
ARC
  5
2DD
100
AcDbEntity
  8
AM_0
100
AcDbCircle
 10
7411.283482
 20
-382.526565
 30
0.0
 40
22.897572
100
AcDbArc
 50
72.383031
 51
107.616969
  0
LINE
  5
2DE
100
AcDbEntity
  8
AM_0
100
AcDbLine
 10
7423.283482
 20
-374.428993
 30
0.0
 11
7399.283482
 21
-374.428993
 31
0.0
  0
LINE
  5
2DF
100
AcDbEntity
  8
AM_0
100
AcDbLine
 10
7423.283482
 20
-359.628993
 30
0.0
 11
7399.283482
 21
-359.628993
 31
0.0
  0
LINE
  5
2E0
100
AcDbEntity
  8
AM_0
100
AcDbLine
 10
8943.477491
 20
-3045.141979
 30
0.0
 11
8943.477491
 21
-175.141979
 31
0.0
1001
GENIUS_GENREC_14
1002
{
1000
PYDIR
1011
4855.477491
1021
-175.141979
1031
0.0
1002
}
1002
{
1000
PXDIR
1011
8943.477491
1021
-3045.141979
1031
0.0
1002
}
1002
{
1000
PORI
1011
4855.477491
1021
-3045.141979
1031
0.0
1002
}
1002
{
1000
PINS
1011
4855.477491
1021
-3045.141979
1031
0.0
1002
}
1002
{
1000
PINS2
1011
8943.477491
1021
-175.141979
1031
0.0
1002
}
1002
{
1000
H
1070
     0
1002
}
1002
{
1000
W
1070
     1
1002
}
1002
{
1000
C
1070
     1
1002
}
1001
GENIUS_GENOBJ-N-REC_13
1002
{
1000
OWNER
1000
GEN
1002
}
1001
GENIUS_GENODEF_13
1002
{
1000
HIER
1070
     0
1002
}
1002
{
1000
MANEDIT
1070
     0
1002
}
1002
{
1000
NOSEL
1070
     0
1002
}
1002
{
1000
BEHIND
1070
     0
1002
}
1002
{
1000
OTHER
1070
     0
1002
}
1002
{
1000
REACTOR
1002
}
  0
TEXT
  5
2E1
100
AcDbEntity
  8
AM_6
100
AcDbText
 10
8171.513122
 20
-2819.312226
 30
0.0
 40
37.8
  1
Reflex Winkelmann GmbH+Co.KG
 41
0.95
 72
     1
 11
8509.156897
 21
-2819.312226
 31
0.0
100
AcDbText
  0
TEXT
  5
2E2
100
AcDbEntity
  8
0
100
AcDbText
 10
7537.79994
 20
-2947.762762
 30
0.0
 40
63.0
  1
6 bar - 120°C
 72
     1
 11
7781.614901
 21
-2966.662762
 31
0.0
100
AcDbText
 73
     1
  0
TEXT
  5
2E3
100
AcDbEntity
  8
0
100
AcDbText
 10
7643.014901
 20
-2828.062762
 30
0.0
 40
63.0
  1
RF 500l
 72
     1
 11
7781.614901
 21
-2846.962762
 31
0.0
100
AcDbText
 73
     1
  0
LINE
  5
2E4
100
AcDbEntity
  8
AM_4
100
AcDbLine
 10
8549.024985
 20
-2715.116704
 30
0.0
 11
8565.451167
 21
-2701.379763
 31
0.0
  0
LINE
  5
2E5
100
AcDbEntity
  8
AM_4
100
AcDbLine
 10
8551.738455
 20
-2701.888539
 30
0.0
 11
8549.703352
 21
-2704.262825
 31
0.0
  0
LINE
  5
2E6
100
AcDbEntity
  8
AM_4
100
AcDbLine
 10
8550.042536
 20
-2686.479908
 30
0.0
 11
8552.756006
 21
-2685.80154
 31
0.0
  0
LINE
  5
2E7
100
AcDbEntity
  8
AM_4
100
AcDbLine
 10
8552.24723
 20
-2738.32656
 30
0.0
 11
8549.703352
 21
-2737.309009
 31
0.0
  0
LINE
  5
2E8
100
AcDbEntity
  8
AM_4
100
AcDbLine
 10
8656.179266
 20
-2759.542435
 30
0.0
 11
8379.71693
 21
-2759.579709
 31
0.0
  0
LINE
  5
2E9
100
AcDbEntity
  8
AM_4
100
AcDbLine
 10
8379.716903
 20
-2651.498143
 30
0.0
 11
8655.238437
 21
-2651.498143
 31
0.0
  0
LINE
  5
2EA
100
AcDbEntity
  8
AM_4
100
AcDbLine
 10
8656.279299
 20
-2761.914225
 30
0.0
 11
8379.71725
 21
-2761.951513
 31
0.0
  0
LINE
  5
2EB
100
AcDbEntity
  8
AM_4
100
AcDbLine
 10
8379.716903
 20
-2649.126339
 30
0.0
 11
8655.238437
 21
-2649.126339
 31
0.0
  0
LINE
  5
2EC
100
AcDbEntity
  8
AM_4
100
AcDbLine
 10
8656.170261
 20
-2759.342407
 30
0.0
 11
8379.716903
 21
-2759.37968
 31
0.0
  0
LINE
  5
2ED
100
AcDbEntity
  8
AM_4
100
AcDbLine
 10
8655.238437
 20
-2760.665597
 30
0.0
 11
8379.716903
 21
-2760.665597
 31
0.0
  0
LINE
  5
2EE
100
AcDbEntity
  8
AM_4
100
AcDbLine
 10
8379.716903
 20
-2650.412255
 30
0.0
 11
8655.238437
 21
-2650.412255
 31
0.0
  0
LINE
  5
2EF
100
AcDbEntity
  8
AM_4
100
AcDbLine
 10
8379.716903
 20
-2761.951513
 30
0.0
 11
8655.238437
 21
-2761.951513
 31
0.0
  0
LINE
  5
2F0
100
AcDbEntity
  8
AM_4
100
AcDbLine
 10
8379.269628
 20
-2651.698172
 30
0.0
 11
8655.704349
 21
-2651.698172
 31
0.0
  0
LINE
  5
2F1
100
AcDbEntity
  8
AM_4
100
AcDbLine
 10
8379.269628
 20
-2759.37968
 30
0.0
 11
8655.704349
 21
-2759.37968
 31
0.0
  0
HATCH
  5
2F2
100
AcDbEntity
  8
AM_4
100
AcDbHatch
 10
0.0
 20
0.0
 30
0.0
210
0.0
220
0.0
230
1.0
  2
SOLID
 70
     1
 71
     0
 91
       13
 92
        7
 72
     0
 73
     1
 93
        4
 10
8370.715489389528
 20
-2660.699585441296
 10
8369.429573137649
 20
-2660.699585441296
 10
8369.429573137649
 20
-2750.508721931618
 10
8370.715489389533
 20
-2750.508721931618
 97
        0
 92
        7
 72
     0
 73
     1
 93
        4
 10
8655.238437469565
 20
-2759.37968042288
 10
8379.716903152724
 20
-2759.37968042288
 10
8379.716903152724
 20
-2760.665596674764
 10
8655.238437469572
 20
-2760.665596674764
 97
        0
 92
        7
 72
     0
 73
     1
 93
        4
 10
8655.238437469572
 20
-2650.41225542622
 10
8379.716903152724
 20
-2650.41225542622
 10
8379.716903152724
 20
-2651.698171678104
 10
8655.238437469572
 20
-2651.698171678104
 97
        0
 92
        7
 72
     0
 73
     1
 93
        4
 10
8666.811683736529
 20
-2660.699585441296
 10
8665.525767484645
 20
-2660.699585441296
 10
8665.525767484645
 20
-2750.508721931618
 10
8666.811683736529
 20
-2750.508721931618
 97
        0
 92
        7
 72
     0
 73
     1
 93
       42
 10
8375.821881462231
 20
-2651.194987057802
 10
8377.648255269255
 20
-2650.673165970081
 10
8379.716903152724
 20
-2650.41225542622
 10
8379.716903152724
 20
-2649.126339174336
 10
8379.139172662744
 20
-2649.144975641753
 10
8378.561442172777
 20
-2649.200885044009
 10
8377.983711682787
 20
-2649.275430913685
 10
8377.405981192817
 20
-2649.368613250778
 10
8376.846887170255
 20
-2649.499068522707
 10
8376.306429615116
 20
-2649.666796729472
 10
8375.765972059962
 20
-2649.853161403666
 10
8375.244150972248
 20
-2650.058162545266
 10
8374.74096635195
 20
-2650.281800154295
 10
8374.237781731652
 20
-2650.542710698147
 10
8373.753233578755
 20
-2650.822257709426
 10
8373.287321893361
 20
-2651.139077655548
 10
8372.840046675243
 20
-2651.455897601656
 10
8372.392771457226
 20
-2651.809990482625
 10
8371.96413270658
 20
-2652.164083363569
 10
8371.572766890778
 20
-2652.555449179366
 10
8371.181401074991
 20
-2652.965451462584
 10
8370.827308194053
 20
-2653.375453745771
 10
8370.473215313086
 20
-2653.822728963817
 10
8370.156395366969
 20
-2654.270004181892
 10
8369.839575420845
 20
-2654.735915867349
 10
8369.560028409571
 20
-2655.220464020241
 10
8369.299117865713
 20
-2655.723648640524
 10
8369.075480256697
 20
-2656.226833260806
 10
8368.870479115086
 20
-2656.748654348531
 10
8368.684114440888
 20
-2657.289111903709
 10
8368.516386234132
 20
-2657.829569458842
 10
8368.385930962203
 20
-2658.388663481384
 10
8368.292748625114
 20
-2658.966393971372
 10
8368.218202755437
 20
-2659.544124461357
 10
8368.162293353179
 20
-2660.121854951316
 10
8368.143656885761
 20
-2660.699585441296
 10
8369.429573137649
 20
-2660.699585441296
 10
8369.690483681505
 20
-2658.630937557834
 10
8370.34276004115
 20
-2656.67410847888
 10
8371.255946944673
 20
-2654.978189943778
 10
8372.560499663977
 20
-2653.41272668062
 10
8373.995507655203
 20
-2652.238629233243
 97
        0
 92
        7
 72
     0
 73
     1
 93
       42
 10
8376.250520212863
 20
-2652.406357440011
 10
8376.66052249607
 20
-2652.257265700663
 10
8377.070524779286
 20
-2652.108173961313
 10
8377.499163529902
 20
-2651.977718689386
 10
8377.927802280536
 20
-2651.884536352296
 10
8378.375077498583
 20
-2651.791354015196
 10
8378.822352716635
 20
-2651.735444612942
 10
8379.269627934673
 20
-2651.698171678104
 10
8379.716903152724
 20
-2651.698171678104
 10
8379.716903152724
 20
-2650.41225542622
 10
8377.648255269255
 20
-2650.673165970081
 10
8375.821881462227
 20
-2651.194987057804
 10
8373.995507655211
 20
-2652.238629233246
 10
8372.56049966397
 20
-2653.412726680622
 10
8371.255946944673
 20
-2654.978189943783
 10
8370.342760041159
 20
-2656.674108478875
 10
8369.690483681505
 20
-2658.630937557836
 10
8369.429573137649
 20
-2660.699585441296
 10
8370.715489389533
 20
-2660.699585441298
 10
8370.715489389533
 20
-2660.252310223243
 10
8370.75276232437
 20
-2659.805035005201
 10
8370.808671726621
 20
-2659.357759787161
 10
8370.901854063694
 20
-2658.910484569061
 10
8370.995036400815
 20
-2658.48184581848
 10
8371.125491672767
 20
-2658.071843535227
 10
8371.255946944673
 20
-2657.643204784644
 10
8371.423675151451
 20
-2657.233202501434
 10
8371.610039825634
 20
-2656.841836685655
 10
8371.815040967218
 20
-2656.450470869858
 10
8372.038678576251
 20
-2656.077741521481
 10
8372.262316185272
 20
-2655.705012173108
 10
8372.523226729157
 20
-2655.350919292116
 10
8372.784137273002
 20
-2655.015462878601
 10
8373.082320751686
 20
-2654.680006465095
 10
8373.380504230395
 20
-2654.363186518969
 10
8373.697324176511
 20
-2654.065003040276
 10
8374.032780590045
 20
-2653.78545602899
 10
8374.368237003579
 20
-2653.50590901771
 10
8374.722329884532
 20
-2653.24499847385
 10
8375.095059232906
 20
-2653.021360864826
 10
8375.467788581271
 20
-2652.797723255803
 10
8375.859154397073
 20
-2652.592722114198
 97
        0
 92
        7
 72
     0
 73
     1
 93
        4
 10
8655.238437469572
 20
-2760.665596674764
 10
8379.716903152724
 20
-2760.665596674764
 10
8379.716903152724
 20
-2761.951512926648
 10
8655.238437469572
 20
-2761.951512926648
 97
        0
 92
       22
 72
     0
 73
     1
 93
       42
 10
8663.829848949555
 20
-2756.230117429135
 10
8664.743035853065
 20
-2754.40374362211
 10
8665.395312212714
 20
-2752.577369815083
 10
8665.525767484645
 20
-2750.508721931618
 10
8664.23985123276
 20
-2750.508721931618
 10
8664.23985123276
 20
-2750.95599714967
 10
8664.202578297926
 20
-2751.403272367724
 10
8664.146668895671
 20
-2751.850547585767
 10
8664.072123025995
 20
-2752.297822803805
 10
8663.960304221461
 20
-2752.726461554534
 10
8663.848485416968
 20
-2753.136463837642
 10
8663.699393677619
 20
-2753.546466120852
 10
8663.550301938284
 20
-2753.95646840405
 10
8663.363937264085
 20
-2754.347834219853
 10
8663.177572589903
 20
-2754.739200035645
 10
8662.953934980881
 20
-2755.093292916616
 10
8662.730297371858
 20
-2755.466022264968
 10
8662.469386827993
 20
-2755.801478678524
 10
8662.208476284135
 20
-2756.155571559465
 10
8661.928929272866
 20
-2756.472391505562
 10
8661.630745794138
 20
-2756.770574984277
 10
8661.313925848059
 20
-2757.068758462969
 10
8660.997105901925
 20
-2757.348305474254
 10
8660.643013020965
 20
-2757.609216018111
 10
8660.288920140008
 20
-2757.870126561979
 10
8659.934827259025
 20
-2758.093764171004
 10
8659.562097910693
 20
-2758.31740178002
 10
8659.170732094899
 20
-2758.503766454217
 10
8658.760729811689
 20
-2758.690131128388
 10
8658.350727528477
 20
-2758.83922286774
 10
8657.940725245273
 20
-2758.988314607087
 10
8657.51208649463
 20
-2759.100133411604
 10
8657.064811276592
 20
-2759.193315748694
 10
8656.617536058545
 20
-2759.286498085785
 10
8656.1702608405
 20
-2759.342407488043
 10
8655.704349155042
 20
-2759.37968042288
 10
8655.238437469572
 20
-2759.37968042288
 10
8655.238437469572
 20
-2760.665596674764
 10
8657.307085353037
 20
-2760.535141402833
 10
8659.263914431994
 20
-2759.882865043182
 10
8660.959832967085
 20
-2758.969678139669
 10
8662.525296230258
 20
-2757.665125420361
 97
        0
 92
        7
 72
     0
 73
     1
 93
       42
 10
8664.16530536309
 20
-2757.776944224878
 10
8664.519398244051
 20
-2757.348305474246
 10
8664.836218190167
 20
-2756.901030256212
 10
8665.13440166886
 20
-2756.435118570736
 10
8665.413948680116
 20
-2755.950570417881
 10
8665.674859223996
 20
-2755.46602226496
 10
8665.898496833026
 20
-2754.962837644676
 10
8666.103497974633
 20
-2754.441016556947
 10
8666.289862648813
 20
-2753.90055900179
 10
8666.438954388155
 20
-2753.360101446693
 10
8666.569409660096
 20
-2752.801007424096
 10
8666.6812284646
 20
-2752.24191340155
 10
8666.737137866855
 20
-2751.664182911571
 10
8666.793047269115
 20
-2751.086452421585
 10
8666.811683736529
 20
-2750.508721931618
 10
8665.525767484645
 20
-2750.508721931618
 10
8665.395312212714
 20
-2752.577369815082
 10
8664.743035853065
 20
-2754.403743622113
 10
8663.829848949548
 20
-2756.230117429133
 10
8662.525296230244
 20
-2757.665125420371
 10
8660.959832967085
 20
-2758.969678139672
 10
8659.263914431992
 20
-2759.882865043183
 10
8657.307085353037
 20
-2760.535141402833
 10
8655.238437469572
 20
-2760.665596674764
 10
8655.238437469572
 20
-2761.951512926648
 10
8655.816167959548
 20
-2761.932876459231
 10
8656.412534916938
 20
-2761.876967056975
 10
8657.008901874339
 20
-2761.821057654718
 10
8657.567995896897
 20
-2761.709238850208
 10
8658.127089919446
 20
-2761.597420045696
 10
8658.68618394202
 20
-2761.429691838925
 10
8659.226641497095
 20
-2761.243327164744
 10
8659.748462584879
 20
-2761.056962490556
 10
8660.270283672575
 20
-2760.814688414123
 10
8660.754831825501
 20
-2760.572414337664
 10
8661.23937997836
 20
-2760.292867326389
 10
8661.723928131253
 20
-2759.994683847698
 10
8662.171203349284
 20
-2759.677863901582
 10
8662.618478567337
 20
-2759.342407488043
 10
8663.028480850549
 20
-2758.969678139671
 10
8663.438483133759
 20
-2758.596948791294
 10
8663.811212482142
 20
-2758.205582975503
 97
        0
 92
        7
 72
     0
 73
     1
 93
       42
 10
8662.525296230244
 20
-2653.412726680617
 10
8660.959832967089
 20
-2652.238629233248
 10
8659.263914431992
 20
-2651.194987057802
 10
8657.307085353037
 20
-2650.673165970081
 10
8655.238437469565
 20
-2650.41225542622
 10
8655.238437469572
 20
-2651.698171678104
 10
8655.704349155035
 20
-2651.698171678104
 10
8656.170260840502
 20
-2651.735444612942
 10
8656.617536058545
 20
-2651.809990482617
 10
8657.064811276592
 20
-2651.884536352291
 10
8657.493450027219
 20
-2651.977718689384
 10
8657.922088777853
 20
-2652.108173961315
 10
8658.350727528484
 20
-2652.257265700665
 10
8658.760729811689
 20
-2652.406357440011
 10
8659.152095627488
 20
-2652.592722114198
 10
8659.543461443261
 20
-2652.7977232558
 10
8659.916190791646
 20
-2653.021360864826
 10
8660.28892014002
 20
-2653.244998473853
 10
8660.643013020957
 20
-2653.505909017707
 10
8660.978469434509
 20
-2653.766819561575
 10
8661.313925848027
 20
-2654.065003040269
 10
8661.630745794159
 20
-2654.36318651897
 10
8661.910292805428
 20
-2654.680006465072
 10
8662.208476284128
 20
-2654.996826411199
 10
8662.469386828
 20
-2655.350919292151
 10
8662.71166090444
 20
-2655.705012173108
 10
8662.953934980873
 20
-2656.05910505406
 10
8663.15893612248
 20
-2656.450470869856
 10
8663.363937264092
 20
-2656.823200218233
 10
8663.550301938281
 20
-2657.233202501446
 10
8663.699393677619
 20
-2657.643204784644
 10
8663.848485416968
 20
-2658.053207067867
 10
8663.960304221484
 20
-2658.481845818482
 10
8664.072123025995
 20
-2658.910484569114
 10
8664.146668895657
 20
-2659.35775978713
 10
8664.202578297926
 20
-2659.786398537764
 10
8664.23985123276
 20
-2660.252310223251
 10
8664.23985123276
 20
-2660.699585441296
 10
8665.525767484645
 20
-2660.699585441296
 10
8665.395312212714
 20
-2658.630937557824
 10
8664.743035853069
 20
-2656.674108478879
 10
8663.829848949555
 20
-2654.978189943783
 97
        0
 92
        7
 72
     0
 73
     1
 93
       42
 10
8663.04711731796
 20
-2652.182719830981
 10
8662.618478567347
 20
-2651.809990482624
 10
8662.18983981671
 20
-2651.45589760166
 10
8661.723928131246
 20
-2651.139077655547
 10
8661.258016445783
 20
-2650.82225770943
 10
8660.773468292894
 20
-2650.542710698148
 10
8660.270283672605
 20
-2650.281800154295
 10
8659.767099052301
 20
-2650.058162545268
 10
8659.226641497154
 20
-2649.853161403663
 10
8658.686183942013
 20
-2649.666796729476
 10
8658.145726386873
 20
-2649.499068522707
 10
8657.567995896895
 20
-2649.368613250776
 10
8657.008901874332
 20
-2649.275430913684
 10
8656.412534916938
 20
-2649.20088504401
 10
8655.834804426964
 20
-2649.144975641755
 10
8655.238437469572
 20
-2649.126339174336
 10
8655.238437469572
 20
-2650.41225542622
 10
8657.307085353037
 20
-2650.673165970081
 10
8659.263914431992
 20
-2651.194987057802
 10
8660.959832967089
 20
-2652.238629233245
 10
8662.525296230244
 20
-2653.412726680617
 10
8663.829848949555
 20
-2654.97818994378
 10
8664.743035853069
 20
-2656.674108478879
 10
8665.395312212714
 20
-2658.630937557832
 10
8665.525767484645
 20
-2660.699585441296
 10
8666.811683736529
 20
-2660.699585441296
 10
8666.793047269115
 20
-2660.121854951327
 10
8666.737137866855
 20
-2659.544124461343
 10
8666.6812284646
 20
-2658.96639397137
 10
8666.569409660084
 20
-2658.407299948756
 10
8666.438954388155
 20
-2657.848205926242
 10
8666.28986264881
 20
-2657.30774837111
 10
8666.103497974628
 20
-2656.767290815979
 10
8665.898496833015
 20
-2656.245469728256
 10
8665.674859223996
 20
-2655.723648640526
 10
8665.413948680139
 20
-2655.239100487642
 10
8665.153038136276
 20
-2654.754552334761
 10
8664.836218190167
 20
-2654.270004181874
 10
8664.519398244028
 20
-2653.822728963838
 10
8664.183941830504
 20
-2653.375453745782
 10
8663.81121248213
 20
-2652.965451462571
 10
8663.438483133759
 20
-2652.555449179363
 97
        0
 92
       23
 72
     0
 73
     1
 93
       42
 10
8373.380504230395
 20
-2756.770574984273
 10
8373.063684284275
 20
-2756.45375503816
 10
8372.78413727301
 20
-2756.136935092048
 10
8372.523226729152
 20
-2755.801478678501
 10
8372.262316185279
 20
-2755.447385797555
 10
8372.020042108824
 20
-2755.093292916591
 10
8371.796404499809
 20
-2754.720563568225
 10
8371.610039825634
 20
-2754.329197752455
 10
8371.42367515144
 20
-2753.956468404068
 10
8371.255946944653
 20
-2753.546466120832
 10
8371.106855205319
 20
-2753.136463837647
 10
8370.995036400804
 20
-2752.707825087002
 10
8370.901854063713
 20
-2752.279186336386
 10
8370.808671726621
 20
-2751.850547585763
 10
8370.752762324363
 20
-2751.403272367716
 10
8370.715489389533
 20
-2750.955997149659
 10
8370.715489389533
 20
-2750.508721931618
 10
8369.429573137649
 20
-2750.508721931618
 10
8369.690483681505
 20
-2752.577369815091
 10
8370.34276004115
 20
-2754.403743622101
 10
8371.255946944673
 20
-2756.230117429133
 10
8372.56049966397
 20
-2757.665125420363
 10
8373.995507655203
 20
-2758.969678139669
 10
8375.821881462227
 20
-2759.882865043182
 10
8377.648255269255
 20
-2760.535141402833
 10
8379.716903152724
 20
-2760.665596674764
 10
8379.716903152724
 20
-2759.37968042288
 10
8379.269627934673
 20
-2759.37968042288
 10
8378.803716249214
 20
-2759.342407488043
 10
8378.35644103116
 20
-2759.286498085785
 10
8377.927802280529
 20
-2759.211952216113
 10
8377.499163529902
 20
-2759.100133411601
 10
8377.070524779286
 20
-2758.988314607089
 10
8376.66052249607
 20
-2758.83922286774
 10
8376.250520212858
 20
-2758.69013112839
 10
8375.840517929651
 20
-2758.503766454207
 10
8375.467788581266
 20
-2758.317401780015
 10
8375.076422765491
 20
-2758.093764170998
 10
8374.722329884532
 20
-2757.851490094552
 10
8374.349600536159
 20
-2757.609216018111
 10
8374.014144122625
 20
-2757.348305474254
 10
8373.678687709091
 20
-2757.068758462971
 97
        0
 92
        7
 72
     0
 73
     1
 93
       42
 10
8372.560499663963
 20
-2757.665125420363
 10
8371.255946944673
 20
-2756.230117429133
 10
8370.34276004115
 20
-2754.403743622102
 10
8369.690483681505
 20
-2752.577369815086
 10
8369.429573137649
 20
-2750.508721931618
 10
8368.143656885761
 20
-2750.508721931618
 10
8368.162293353179
 20
-2751.086452421589
 10
8368.218202755437
 20
-2751.664182911585
 10
8368.29274862511
 20
-2752.241913401554
 10
8368.385930962203
 20
-2752.801007424111
 10
8368.516386234132
 20
-2753.360101446679
 10
8368.684114440904
 20
-2753.900559001811
 10
8368.870479115081
 20
-2754.441016556931
 10
8369.075480256688
 20
-2754.962837644659
 10
8369.317754333145
 20
-2755.466022265
 10
8369.578664876987
 20
-2755.969206885264
 10
8369.858211888287
 20
-2756.43511857076
 10
8370.156395366977
 20
-2756.901030256212
 10
8370.473215313086
 20
-2757.348305474246
 10
8370.827308194037
 20
-2757.776944224869
 10
8371.200037542399
 20
-2758.205582975503
 10
8371.572766890785
 20
-2758.596948791294
 10
8371.982769173994
 20
-2758.969678139657
 10
8372.41140792463
 20
-2759.342407488048
 10
8372.840046675253
 20
-2759.677863901575
 10
8373.287321893291
 20
-2759.994683847691
 10
8373.771870046157
 20
-2760.292867326383
 10
8374.237781731645
 20
-2760.57241433767
 10
8374.740966351946
 20
-2760.81468841411
 10
8375.262787439664
 20
-2761.056962490552
 10
8375.784608527354
 20
-2761.243327164729
 10
8376.325066082536
 20
-2761.429691838927
 10
8376.865523637681
 20
-2761.597420045696
 10
8377.424617660231
 20
-2761.709238850208
 10
8377.983711682793
 20
-2761.821057654718
 10
8378.561442172765
 20
-2761.876967056975
 10
8379.139172662744
 20
-2761.932876459229
 10
8379.716903152724
 20
-2761.951512926648
 10
8379.716903152724
 20
-2760.665596674764
 10
8377.648255269255
 20
-2760.535141402833
 10
8375.821881462231
 20
-2759.882865043182
 10
8373.995507655203
 20
-2758.969678139671
 97
        0
 75
     0
 76
     1
 47
0.02498
 98
       13
 10
8369.919567
 20
-2694.616869
 10
8427.537866
 20
-2760.368381
 10
8494.334338
 20
-2651.292233
 10
8666.169481
 20
-2690.02956
 10
8371.889417
 20
-2652.294205
 10
8373.96385
 20
-2652.590435
 10
8556.515565
 20
-2761.309383
 10
8662.312579
 20
-2756.569586
 10
8663.794339
 20
-2758.050769
 10
8662.312579
 20
-2653.775389
 10
8662.905278
 20
-2652.294205
 10
8372.778452
 20
-2757.162063
 10
8372.482115
 20
-2758.643246
  0
HATCH
  5
2F3
100
AcDbEntity
  8
AM_4
100
AcDbHatch
 10
0.0
 20
0.0
 30
0.0
210
0.0
220
0.0
230
1.0
  2
SOLID
 70
     1
 71
     0
 91
        3
 92
        7
 72
     0
 73
     1
 93
        4
 10
8655.238437469572
 20
-2649.126339174336
 10
8379.716903152724
 20
-2649.126339174336
 10
8379.716903152724
 20
-2650.41225542622
 10
8655.238437469572
 20
-2650.41225542622
 97
        0
 92
        7
 72
     0
 73
     1
 93
        4
 10
8369.429573137649
 20
-2660.699585441296
 10
8368.143656885761
 20
-2660.699585441296
 10
8368.143656885761
 20
-2750.508721931618
 10
8369.429573137649
 20
-2750.508721931618
 97
        0
 92
        7
 72
     0
 73
     1
 93
       42
 10
8371.815040967216
 20
-2656.450470869862
 10
8372.038678576251
 20
-2656.077741521481
 10
8372.262316185272
 20
-2655.705012173108
 10
8372.523226729157
 20
-2655.350919292116
 10
8372.784137273002
 20
-2655.015462878601
 10
8373.082320751686
 20
-2654.680006465095
 10
8373.380504230395
 20
-2654.363186518969
 10
8373.697324176511
 20
-2654.065003040276
 10
8374.032780590045
 20
-2653.78545602899
 10
8374.368237003579
 20
-2653.50590901771
 10
8374.722329884532
 20
-2653.24499847385
 10
8375.095059232906
 20
-2653.021360864826
 10
8375.467788581271
 20
-2652.797723255803
 10
8375.859154397073
 20
-2652.592722114198
 10
8376.250520212858
 20
-2652.406357440011
 10
8376.66052249607
 20
-2652.257265700663
 10
8377.070524779286
 20
-2652.108173961313
 10
8377.499163529902
 20
-2651.977718689386
 10
8377.927802280536
 20
-2651.884536352296
 10
8378.375077498583
 20
-2651.791354015196
 10
8378.822352716635
 20
-2651.735444612942
 10
8379.269627934673
 20
-2651.698171678104
 10
8379.716903152724
 20
-2651.698171678104
 10
8379.716903152724
 20
-2650.41225542622
 10
8377.648255269255
 20
-2650.673165970081
 10
8375.821881462227
 20
-2651.194987057804
 10
8373.995507655211
 20
-2652.238629233246
 10
8372.56049966397
 20
-2653.412726680622
 10
8371.255946944673
 20
-2654.978189943783
 10
8370.342760041159
 20
-2656.674108478875
 10
8369.690483681505
 20
-2658.630937557836
 10
8369.429573137649
 20
-2660.699585441296
 10
8370.715489389533
 20
-2660.699585441298
 10
8370.715489389533
 20
-2660.252310223243
 10
8370.75276232437
 20
-2659.805035005201
 10
8370.808671726621
 20
-2659.357759787161
 10
8370.901854063694
 20
-2658.910484569061
 10
8370.995036400815
 20
-2658.48184581848
 10
8371.125491672767
 20
-2658.071843535227
 10
8371.255946944673
 20
-2657.643204784644
 10
8371.423675151451
 20
-2657.233202501434
 10
8371.610039825634
 20
-2656.841836685655
 97
        0
 75
     0
 76
     1
 47
0.005631
 98
        3
 10
8393.936746
 20
-2649.960474
 10
8368.616344
 20
-2662.91636
 10
8370.754212
 20
-2656.839122
  0
HATCH
  5
2F4
100
AcDbEntity
  8
AM_4
100
AcDbHatch
 10
0.0
 20
0.0
 30
0.0
210
0.0
220
0.0
230
1.0
  2
SOLID
 70
     1
 71
     0
 91
        8
 92
        7
 72
     0
 73
     1
 93
       23
 10
8417.542843651673
 20
-2705.619559834854
 10
8417.882027358698
 20
-2703.754049446252
 10
8418.560394772729
 20
-2702.397314618178
 10
8419.577945893783
 20
-2701.379763497128
 10
8420.595497014849
 20
-2700.531804229574
 10
8422.630599256951
 20
-2700.023028669046
 10
8423.648150378012
 20
-2699.853436815536
 10
8425.513660766618
 20
-2699.853436815535
 10
8425.513660766618
 20
-2685.801540381898
 10
8419.408354040278
 20
-2685.801540381898
 10
8416.016516970094
 20
-2685.971132235406
 10
8413.133455460432
 20
-2686.310315942427
 10
8410.759169511278
 20
-2687.158275209971
 10
8408.554475415673
 20
-2688.00623447752
 10
8406.88278428821
 20
-2689.193377452074
 10
8405.356457606647
 20
-2690.380520426646
 10
8404.169314632081
 20
-2691.737255254725
 10
8403.151763511022
 20
-2693.093990082806
 10
8401.964620536457
 20
-2695.95282418482
 10
8401.286253122419
 20
-2698.327110133948
 10
8401.116661268906
 20
-2700.531804229564
 10
8401.116661268906
 20
-2739.344111275587
 10
8417.542843651673
 20
-2739.344111275587
 97
        0
 92
        7
 72
     0
 73
     1
 93
       54
 10
8477.869088685745
 20
-2702.906090178706
 10
8476.342762004156
 20
-2699.514253108517
 10
8474.138067908532
 20
-2696.122416038325
 10
8471.594190105895
 20
-2693.263581936313
 10
8468.371944889218
 20
-2690.550112280162
 10
8464.810515965515
 20
-2688.345418184538
 10
8460.909903334794
 20
-2686.649499649445
 10
8456.694334404708
 20
-2685.462356674879
 10
8452.284946213465
 20
-2685.123172967859
 10
8449.062700996787
 20
-2685.292764821369
 10
8446.17963948712
 20
-2685.801540381895
 10
8443.466169830969
 20
-2686.479907795933
 10
8440.922292028336
 20
-2687.497458916995
 10
8438.548006079203
 20
-2688.684601891559
 10
8436.512903837083
 20
-2690.041336719628
 10
8434.64739344848
 20
-2691.737255254727
 10
8432.781883059879
 20
-2693.433173789811
 10
8431.279783785948
 20
-2695.274456770775
 10
8430.092640811379
 20
-2697.309559012894
 10
8428.905497836806
 20
-2699.514253108526
 10
8428.057538569261
 20
-2701.718947204133
 10
8426.870395594692
 20
-2706.297927248896
 10
8426.361620034162
 20
-2711.046499147151
 10
8426.531211887679
 20
-2714.607928070844
 10
8427.039987448207
 20
-2717.805945879891
 10
8427.887946715747
 20
-2720.858599243054
 10
8429.075089690313
 20
-2723.741660752725
 10
8430.4318245184
 20
-2726.285538555364
 10
8431.958151199967
 20
-2728.659824504488
 10
8433.799434180928
 20
-2730.864518600112
 10
8435.834536423051
 20
-2732.899620842229
 10
8438.208822372176
 20
-2734.595539377321
 10
8440.583108321288
 20
-2735.952274205387
 10
8443.126986123955
 20
-2737.309009033475
 10
8445.670863926594
 20
-2738.326560154531
 10
8448.553925436284
 20
-2739.004927568575
 10
8451.267395092411
 20
-2739.683294982606
 10
8454.150456602066
 20
-2740.022478689625
 10
8457.009290704096
 20
-2740.022478689625
 10
8460.909903334794
 20
-2739.852886836114
 10
8464.471332258497
 20
-2739.344111275587
 10
8467.523985621674
 20
-2738.665743861546
 10
8470.237455277818
 20
-2737.817784594001
 10
8473.968476055011
 20
-2736.12186605891
 10
8475.155619029592
 20
-2735.443498644872
 10
8475.155619029592
 20
-2718.823497000947
 10
8471.424598252379
 20
-2721.367374803584
 10
8467.693577475177
 20
-2723.4024770457
 10
8463.453781137429
 20
-2724.928803727288
 10
8461.418678895329
 20
-2725.437579287814
 10
8459.383576653221
 20
-2725.607171141325
 10
8456.015966990669
 20
-2725.607171141325
 10
8453.641681041547
 20
-2725.098395580797
 10
8452.624129920485
 20
-2724.928803727287
 97
        0
 92
       22
 72
     0
 73
     1
 93
       15
 10
8442.448618709914
 20
-2715.116703631387
 10
8441.939843149386
 20
-2713.929560656819
 10
8441.600659442377
 20
-2712.57282582878
 10
8441.261475735354
 20
-2710.876907293646
 10
8441.431067588858
 20
-2708.841805051533
 10
8441.939843149386
 20
-2706.637110955912
 10
8443.126986123955
 20
-2704.262825006779
 10
8445.162088366066
 20
-2701.888539057649
 10
8447.536374315195
 20
-2700.192620522555
 10
8450.080252117841
 20
-2699.344661255007
 10
8452.45453806697
 20
-2699.175069401498
 10
8454.489640309089
 20
-2699.514253108517
 10
8456.355150697691
 20
-2700.023028669045
 10
8457.687658118123
 20
-2700.701396083083
 10
8458.874801092687
 20
-2701.379763497121
 97
        0
 92
        7
 72
     0
 73
     1
 93
       27
 10
8497.856699992208
 20
-2702.906090178705
 10
8505.149149693112
 20
-2702.906090178705
 10
8505.149149693112
 20
-2690.210928573143
 10
8497.856699992208
 20
-2690.210928573143
 10
8497.856699992208
 20
-2684.614397407336
 10
8498.19588369923
 20
-2682.748887018729
 10
8498.874251113262
 20
-2681.392152190653
 10
8499.891802234333
 20
-2680.374601069595
 10
8500.90935335538
 20
-2679.526641802048
 10
8503.114047450994
 20
-2679.017866241519
 10
8503.96200671855
 20
-2678.848274388011
 10
8505.803289699507
 20
-2678.848274388011
 10
8505.803289699507
 20
-2665.813929075429
 10
8499.722210380808
 20
-2665.813929075429
 10
8496.499965164131
 20
-2665.983520928939
 10
8493.616903654478
 20
-2666.492296489467
 10
8491.073025851852
 20
-2667.340255757008
 10
8488.868331756213
 20
-2668.188215024559
 10
8487.172413221108
 20
-2669.375357999124
 10
8485.646086539528
 20
-2670.538273566043
 10
8484.458943564964
 20
-2671.895008394123
 10
8483.610984297426
 20
-2673.25174322219
 10
8482.254249469345
 20
-2675.965212878347
 10
8481.575882055304
 20
-2678.509090680992
 10
8481.406290201794
 20
-2680.713784776628
 10
8481.406290201794
 20
-2739.174519422078
 10
8497.856699992208
 20
-2739.174519422077
 97
        0
 92
        7
 72
     0
 73
     1
 93
        4
 10
8528.359006216264
 20
-2665.813929075429
 10
8511.230229011809
 20
-2665.813929075429
 10
8511.230229011809
 20
-2739.174519422077
 10
8528.359006216264
 20
-2739.174519422077
 97
        0
 92
        7
 72
     0
 73
     1
 93
       54
 10
8584.421227504952
 20
-2702.906090178707
 10
8582.89490082336
 20
-2699.514253108514
 10
8580.690206727743
 20
-2696.122416038325
 10
8578.1463289251
 20
-2693.263581936312
 10
8574.948311116061
 20
-2690.550112280159
 10
8571.386882192371
 20
-2688.345418184542
 10
8567.486269561651
 20
-2686.649499649444
 10
8563.246473223911
 20
-2685.462356674879
 10
8558.837085032669
 20
-2685.123172967859
 10
8555.614839815993
 20
-2685.292764821369
 10
8552.756005713964
 20
-2685.801540381896
 10
8550.042536057825
 20
-2686.479907795936
 10
8547.498658255166
 20
-2687.497458916995
 10
8545.124372306043
 20
-2688.684601891561
 10
8543.089270063928
 20
-2690.041336719636
 10
8541.223759675338
 20
-2691.737255254727
 10
8539.358249286735
 20
-2693.433173789822
 10
8538.00151445866
 20
-2695.27445677078
 10
8536.644779630583
 20
-2697.309559012888
 10
8535.45763665601
 20
-2699.514253108514
 10
8534.609677388464
 20
-2701.718947204133
 10
8533.422534413901
 20
-2706.29792724889
 10
8532.913758853366
 20
-2711.046499147161
 10
8533.083350706876
 20
-2714.607928070849
 10
8533.592126267411
 20
-2717.805945879887
 10
8534.440085534956
 20
-2720.858599243056
 10
8535.627228509525
 20
-2723.741660752724
 10
8536.983963337604
 20
-2726.285538555386
 10
8538.510290019186
 20
-2728.659824504495
 10
8540.375800407785
 20
-2730.864518600114
 10
8542.580494503409
 20
-2732.899620842225
 10
8544.785188599034
 20
-2734.595539377323
 10
8547.159474548157
 20
-2735.952274205398
 10
8549.703352350809
 20
-2737.309009033475
 10
8552.247230153449
 20
-2738.32656015453
 10
8555.106064255477
 20
-2739.004927568575
 10
8557.819533911606
 20
-2739.683294982606
 10
8560.702595421274
 20
-2740.022478689625
 10
8563.585656930921
 20
-2740.022478689625
 10
8567.486269561642
 20
-2739.852886836114
 10
8571.047698485354
 20
-2739.344111275586
 10
8574.269943702017
 20
-2738.665743861551
 10
8576.813821504675
 20
-2737.817784594003
 10
8580.520614874219
 20
-2736.121866058905
 10
8581.707757848795
 20
-2735.443498644871
 10
8581.707757848802
 20
-2718.823497000949
 10
8577.976737071596
 20
-2721.367374803584
 10
8574.269943702031
 20
-2723.402477045704
 10
8570.030147364294
 20
-2724.928803727285
 10
8567.995045122177
 20
-2725.437579287814
 10
8565.959942880061
 20
-2725.607171141325
 10
8562.568105809875
 20
-2725.607171141325
 10
8560.193819860746
 20
-2725.098395580793
 10
8559.176268739694
 20
-2724.928803727285
 97
        0
 92
       22
 72
     0
 73
     1
 93
       15
 10
8547.8378419622
 20
-2710.876907293648
 10
8548.007433815703
 20
-2708.841805051537
 10
8548.516209376245
 20
-2706.637110955912
 10
8549.703352350801
 20
-2704.262825006785
 10
8551.738454592921
 20
-2701.888539057649
 10
8554.0885131344
 20
-2700.192620522554
 10
8556.632390937044
 20
-2699.344661255007
 10
8559.006676886175
 20
-2699.175069401498
 10
8561.041779128293
 20
-2699.514253108517
 10
8562.907289516894
 20
-2700.023028669044
 10
8564.264024344971
 20
-2700.701396083085
 10
8565.451167319535
 20
-2701.379763497121
 10
8549.024984936769
 20
-2715.116703631384
 10
8548.516209376245
 20
-2713.929560656823
 10
8548.177025669222
 20
-2712.572825828774
 97
        0
 92
        7
 72
     0
 73
     1
 93
       66
 10
8627.957879041577
 20
-2712.572825828742
 10
8626.601144213502
 20
-2711.724866561192
 10
8625.438228646581
 20
-2711.046499147157
 10
8627.788287188073
 20
-2709.520172465574
 10
8629.484205723164
 20
-2707.485070223468
 10
8630.840940551243
 20
-2705.280376127833
 10
8631.688899818794
 20
-2703.075682032214
 10
8632.367267232824
 20
-2699.344661255009
 10
8632.367267232824
 20
-2697.648742719912
 10
8632.367267232824
 20
-2686.310315942427
 10
8616.449860410581
 20
-2686.310315942427
 10
8616.449860410588
 20
-2695.952824184809
 10
8616.280268557071
 20
-2697.139967159379
 10
8615.601901143042
 20
-2699.514253108512
 10
8614.923533729001
 20
-2700.701396083082
 10
8613.73639075443
 20
-2701.888539057649
 10
8612.040472219339
 20
-2702.736498325196
 10
8610.005369977226
 20
-2702.906090178705
 10
8607.970267735115
 20
-2702.736498325196
 10
8606.274349200019
 20
-2701.888539057649
 10
8605.256798078965
 20
-2700.870987936593
 10
8604.578430664922
 20
-2699.514253108517
 10
8604.069655104394
 20
-2697.139967159381
 10
8604.069655104394
 20
-2696.122416038328
 10
8604.069655104394
 20
-2686.310315942427
 10
8587.813064575135
 20
-2686.310315942427
 10
8587.813064575135
 20
-2697.818334573426
 10
8588.152248282156
 20
-2701.379763497117
 10
8589.000207549698
 20
-2704.093233153266
 10
8590.017758670759
 20
-2706.467519102403
 10
8591.374493498831
 20
-2708.163437637488
 10
8592.731228326917
 20
-2709.520172465574
 10
8593.74877944797
 20
-2710.368131733121
 10
8594.935922422534
 20
-2711.046499147157
 10
8593.409595740954
 20
-2711.724866561192
 10
8592.222452766391
 20
-2712.572825828738
 10
8590.356942377777
 20
-2714.607928070849
 10
8588.830615696195
 20
-2716.982214019989
 10
8587.982656428641
 20
-2719.332272561471
 10
8587.304289014609
 20
-2721.536966657092
 10
8586.965105307591
 20
-2723.402477045707
 10
8586.795513454081
 20
-2725.098395580805
 10
8586.795513454081
 20
-2739.174519422077
 10
8603.730471397382
 20
-2739.174519422077
 10
8603.730471397376
 20
-2726.285538555355
 10
8603.900063250888
 20
-2724.928803727268
 10
8604.069655104401
 20
-2723.741660752722
 10
8604.408838811414
 20
-2722.215334071135
 10
8605.256798078958
 20
-2720.858599243063
 10
8606.443941053534
 20
-2719.501864414985
 10
8608.139859588625
 20
-2718.653905147437
 10
8610.514145537761
 20
-2718.314721440417
 10
8612.718839633377
 20
-2718.653905147437
 10
8614.41475816847
 20
-2719.501864414986
 10
8615.432309289529
 20
-2720.858599243061
 10
8616.110676703568
 20
-2722.384925924638
 10
8616.449860410588
 20
-2723.741660752731
 10
8616.619452264094
 20
-2725.098395580793
 10
8616.619452264094
 20
-2726.28553855536
 10
8616.619452264094
 20
-2739.174519422077
 10
8633.384818353887
 20
-2739.174519422077
 10
8633.384818353887
 20
-2724.928803727278
 10
8633.045634646867
 20
-2721.197782950078
 10
8632.028083525813
 20
-2718.145129586917
 10
8630.840940551236
 20
-2715.795071045418
 10
8629.314613869654
 20
-2713.929560656817
 97
        0
 75
     0
 76
     1
 47
0.04298
 98
        8
 10
8410.187208
 20
-2708.309614
 10
8443.993341
 20
-2723.5497
 10
8443.993341
 20
-2723.5497
 10
8490.393938
 20
-2716.923582
 10
8520.885744
 20
-2713.610523
 10
8541.434572
 20
-2710.297463
 10
8541.434572
 20
-2710.297463
 10
8599.76673
 20
-2712.947906
  0
TEXT
  5
2F5
100
AcDbEntity
  8
AM_6
100
AcDbText
 10
8335.141967
 20
-2872.344297
 30
0.0
 40
37.8
  1
D- 59227 Ahlen
 72
     1
 11
8509.773015
 21
-2872.344297
 31
0.0
100
AcDbText
  0
ARC
  5
2F6
100
AcDbEntity
  8
AM_4
100
AcDbCircle
 10
8379.716903
 20
-2660.699585
 30
0.0
 40
11.573246
100
AcDbArc
 50
90.0
 51
180.0
  0
ARC
  5
2F7
100
AcDbEntity
  8
AM_4
100
AcDbCircle
 10
8379.715686
 20
-2750.355751
 30
0.0
 40
11.595762
100
AcDbArc
 50
186.666075
 51
270.007725
  0
LINE
  5
2F8
100
AcDbEntity
  8
AM_4
100
AcDbLine
 10
8372.5605
 20
-2653.412727
 30
0.0
 11
8373.995508
 21
-2652.238629
 31
0.0
  0
LINE
  5
2F9
100
AcDbEntity
  8
AM_4
100
AcDbLine
 10
8375.859154
 20
-2652.592722
 30
0.0
 11
8376.25052
 21
-2652.406357
 31
0.0
  0
LINE
  5
2FA
100
AcDbEntity
  8
AM_4
100
AcDbLine
 10
8371.964133
 20
-2652.164083
 30
0.0
 11
8371.572767
 21
-2652.555449
 31
0.0
  0
ARC
  5
2FB
100
AcDbEntity
  8
AM_4
100
AcDbCircle
 10
8379.716903
 20
-2660.699585
 30
0.0
 40
9.201442
100
AcDbArc
 50
90.0
 51
180.0
  0
ARC
  5
2FC
100
AcDbEntity
  8
AM_4
100
AcDbCircle
 10
8379.716903
 20
-2660.699585
 30
0.0
 40
9.001414
100
AcDbArc
 50
90.0
 51
180.0
  0
LINE
  5
2FD
100
AcDbEntity
  8
AM_4
100
AcDbLine
 10
8456.694334
 20
-2685.462357
 30
0.0
 11
8460.909903
 21
-2686.6495
 31
0.0
  0
LINE
  5
2FE
100
AcDbEntity
  8
AM_4
100
AcDbLine
 10
8458.874801
 20
-2701.379763
 30
0.0
 11
8457.687658
 21
-2700.701396
 31
0.0
  0
LINE
  5
2FF
100
AcDbEntity
  8
AM_4
100
AcDbLine
 10
8456.015967
 20
-2725.607171
 30
0.0
 11
8459.383577
 21
-2725.607171
 31
0.0
  0
LINE
  5
300
100
AcDbEntity
  8
AM_4
100
AcDbLine
 10
8460.909903
 20
-2739.852887
 30
0.0
 11
8457.009291
 21
-2740.022479
 31
0.0
  0
LINE
  5
301
100
AcDbEntity
  8
AM_4
100
AcDbLine
 10
8477.869089
 20
-2702.90609
 30
0.0
 11
8452.62413
 21
-2724.928804
 31
0.0
  0
LINE
  5
302
100
AcDbEntity
  8
AM_4
100
AcDbLine
 10
8442.448619
 20
-2715.116704
 30
0.0
 11
8458.874801
 21
-2701.379763
 31
0.0
  0
LINE
  5
303
100
AcDbEntity
  8
AM_4
100
AcDbLine
 10
8452.284946
 20
-2685.123173
 30
0.0
 11
8456.694334
 21
-2685.462357
 31
0.0
  0
LINE
  5
304
100
AcDbEntity
  8
AM_4
100
AcDbLine
 10
8452.454538
 20
-2699.175069
 30
0.0
 11
8450.080252
 21
-2699.344661
 31
0.0
  0
LINE
  5
305
100
AcDbEntity
  8
AM_4
100
AcDbLine
 10
8454.48964
 20
-2699.514253
 30
0.0
 11
8452.454538
 21
-2699.175069
 31
0.0
  0
LINE
  5
306
100
AcDbEntity
  8
AM_4
100
AcDbLine
 10
8456.355151
 20
-2700.023029
 30
0.0
 11
8454.48964
 21
-2699.514253
 31
0.0
  0
LINE
  5
307
100
AcDbEntity
  8
AM_4
100
AcDbLine
 10
8457.687658
 20
-2700.701396
 30
0.0
 11
8456.355151
 21
-2700.023029
 31
0.0
  0
LINE
  5
308
100
AcDbEntity
  8
AM_4
100
AcDbLine
 10
8453.641681
 20
-2725.098396
 30
0.0
 11
8456.015967
 21
-2725.607171
 31
0.0
  0
LINE
  5
309
100
AcDbEntity
  8
AM_4
100
AcDbLine
 10
8452.62413
 20
-2724.928804
 30
0.0
 11
8453.641681
 21
-2725.098396
 31
0.0
  0
LINE
  5
30A
100
AcDbEntity
  8
AM_4
100
AcDbLine
 10
8454.150457
 20
-2740.022479
 30
0.0
 11
8451.267395
 21
-2739.683295
 31
0.0
  0
LINE
  5
30B
100
AcDbEntity
  8
AM_4
100
AcDbLine
 10
8457.009291
 20
-2740.022479
 30
0.0
 11
8454.150457
 21
-2740.022479
 31
0.0
  0
LINE
  5
30C
100
AcDbEntity
  8
AM_4
100
AcDbLine
 10
8371.255947
 20
-2654.97819
 30
0.0
 11
8372.5605
 21
-2653.412727
 31
0.0
  0
LINE
  5
30D
100
AcDbEntity
  8
AM_4
100
AcDbLine
 10
8370.34276
 20
-2656.674108
 30
0.0
 11
8371.255947
 21
-2654.97819
 31
0.0
  0
LINE
  5
30E
100
AcDbEntity
  8
AM_4
100
AcDbLine
 10
8369.690484
 20
-2658.630938
 30
0.0
 11
8370.34276
 21
-2656.674108
 31
0.0
  0
LINE
  5
30F
100
AcDbEntity
  8
AM_4
100
AcDbLine
 10
8375.467789
 20
-2652.797723
 30
0.0
 11
8375.859154
 21
-2652.592722
 31
0.0
  0
LINE
  5
310
100
AcDbEntity
  8
AM_4
100
AcDbLine
 10
8374.72233
 20
-2653.244998
 30
0.0
 11
8375.467789
 21
-2652.797723
 31
0.0
  0
LINE
  5
311
100
AcDbEntity
  8
AM_4
100
AcDbLine
 10
8374.368237
 20
-2653.505909
 30
0.0
 11
8374.72233
 21
-2653.244998
 31
0.0
  0
LINE
  5
312
100
AcDbEntity
  8
AM_4
100
AcDbLine
 10
8373.697324
 20
-2654.065003
 30
0.0
 11
8374.368237
 21
-2653.505909
 31
0.0
  0
LINE
  5
313
100
AcDbEntity
  8
AM_4
100
AcDbLine
 10
8373.380504
 20
-2654.363187
 30
0.0
 11
8373.697324
 21
-2654.065003
 31
0.0
  0
LINE
  5
314
100
AcDbEntity
  8
AM_4
100
AcDbLine
 10
8373.082321
 20
-2654.680006
 30
0.0
 11
8373.380504
 21
-2654.363187
 31
0.0
  0
LINE
  5
315
100
AcDbEntity
  8
AM_4
100
AcDbLine
 10
8372.784137
 20
-2655.015463
 30
0.0
 11
8373.082321
 21
-2654.680006
 31
0.0
  0
LINE
  5
316
100
AcDbEntity
  8
AM_4
100
AcDbLine
 10
8372.523227
 20
-2655.350919
 30
0.0
 11
8372.784137
 21
-2655.015463
 31
0.0
  0
LINE
  5
317
100
AcDbEntity
  8
AM_4
100
AcDbLine
 10
8372.262316
 20
-2655.705012
 30
0.0
 11
8372.523227
 21
-2655.350919
 31
0.0
  0
LINE
  5
318
100
AcDbEntity
  8
AM_4
100
AcDbLine
 10
8371.815041
 20
-2656.450471
 30
0.0
 11
8372.262316
 21
-2655.705012
 31
0.0
  0
LINE
  5
319
100
AcDbEntity
  8
AM_4
100
AcDbLine
 10
8371.61004
 20
-2656.841837
 30
0.0
 11
8371.815041
 21
-2656.450471
 31
0.0
  0
LINE
  5
31A
100
AcDbEntity
  8
AM_4
100
AcDbLine
 10
8371.423675
 20
-2657.233203
 30
0.0
 11
8371.61004
 21
-2656.841837
 31
0.0
  0
LINE
  5
31B
100
AcDbEntity
  8
AM_4
100
AcDbLine
 10
8371.255947
 20
-2657.643205
 30
0.0
 11
8371.423675
 21
-2657.233203
 31
0.0
  0
LINE
  5
31C
100
AcDbEntity
  8
AM_4
100
AcDbLine
 10
8371.125492
 20
-2658.071844
 30
0.0
 11
8371.255947
 21
-2657.643205
 31
0.0
  0
LINE
  5
31D
100
AcDbEntity
  8
AM_4
100
AcDbLine
 10
8370.995036
 20
-2658.481846
 30
0.0
 11
8371.125492
 21
-2658.071844
 31
0.0
  0
LINE
  5
31E
100
AcDbEntity
  8
AM_4
100
AcDbLine
 10
8370.901854
 20
-2658.910485
 30
0.0
 11
8370.995036
 21
-2658.481846
 31
0.0
  0
LINE
  5
31F
100
AcDbEntity
  8
AM_4
100
AcDbLine
 10
8370.808672
 20
-2659.35776
 30
0.0
 11
8370.901854
 21
-2658.910485
 31
0.0
  0
LINE
  5
320
100
AcDbEntity
  8
AM_4
100
AcDbLine
 10
8370.752762
 20
-2659.805035
 30
0.0
 11
8370.808672
 21
-2659.35776
 31
0.0
  0
LINE
  5
321
100
AcDbEntity
  8
AM_4
100
AcDbLine
 10
8368.218203
 20
-2659.544124
 30
0.0
 11
8368.162293
 21
-2660.121855
 31
0.0
  0
LINE
  5
322
100
AcDbEntity
  8
AM_4
100
AcDbLine
 10
8368.292749
 20
-2658.966394
 30
0.0
 11
8368.218203
 21
-2659.544124
 31
0.0
  0
LINE
  5
323
100
AcDbEntity
  8
AM_4
100
AcDbLine
 10
8368.385931
 20
-2658.388663
 30
0.0
 11
8368.292749
 21
-2658.966394
 31
0.0
  0
LINE
  5
324
100
AcDbEntity
  8
AM_4
100
AcDbLine
 10
8368.516386
 20
-2657.829569
 30
0.0
 11
8368.385931
 21
-2658.388663
 31
0.0
  0
LINE
  5
325
100
AcDbEntity
  8
AM_4
100
AcDbLine
 10
8368.684114
 20
-2657.289112
 30
0.0
 11
8368.516386
 21
-2657.829569
 31
0.0
  0
LINE
  5
326
100
AcDbEntity
  8
AM_4
100
AcDbLine
 10
8368.870479
 20
-2656.748654
 30
0.0
 11
8368.684114
 21
-2657.289112
 31
0.0
  0
LINE
  5
327
100
AcDbEntity
  8
AM_4
100
AcDbLine
 10
8369.07548
 20
-2656.226833
 30
0.0
 11
8368.870479
 21
-2656.748654
 31
0.0
  0
LINE
  5
328
100
AcDbEntity
  8
AM_4
100
AcDbLine
 10
8369.299118
 20
-2655.723649
 30
0.0
 11
8369.07548
 21
-2656.226833
 31
0.0
  0
LINE
  5
329
100
AcDbEntity
  8
AM_4
100
AcDbLine
 10
8369.560028
 20
-2655.220464
 30
0.0
 11
8369.299118
 21
-2655.723649
 31
0.0
  0
LINE
  5
32A
100
AcDbEntity
  8
AM_4
100
AcDbLine
 10
8369.839575
 20
-2654.735916
 30
0.0
 11
8369.560028
 21
-2655.220464
 31
0.0
  0
LINE
  5
32B
100
AcDbEntity
  8
AM_4
100
AcDbLine
 10
8370.156395
 20
-2654.270004
 30
0.0
 11
8369.839575
 21
-2654.735916
 31
0.0
  0
LINE
  5
32C
100
AcDbEntity
  8
AM_4
100
AcDbLine
 10
8370.473215
 20
-2653.822729
 30
0.0
 11
8370.156395
 21
-2654.270004
 31
0.0
  0
LINE
  5
32D
100
AcDbEntity
  8
AM_4
100
AcDbLine
 10
8370.827308
 20
-2653.375454
 30
0.0
 11
8370.473215
 21
-2653.822729
 31
0.0
  0
LINE
  5
32E
100
AcDbEntity
  8
AM_4
100
AcDbLine
 10
8371.181401
 20
-2652.965451
 30
0.0
 11
8370.827308
 21
-2653.375454
 31
0.0
  0
LINE
  5
32F
100
AcDbEntity
  8
AM_4
100
AcDbLine
 10
8371.572767
 20
-2652.555449
 30
0.0
 11
8371.181401
 21
-2652.965451
 31
0.0
  0
LINE
  5
330
100
AcDbEntity
  8
AM_4
100
AcDbLine
 10
8443.126986
 20
-2704.262825
 30
0.0
 11
8441.939843
 21
-2706.637111
 31
0.0
  0
LINE
  5
331
100
AcDbEntity
  8
AM_4
100
AcDbLine
 10
8426.870396
 20
-2706.297927
 30
0.0
 11
8428.057539
 21
-2701.718947
 31
0.0
  0
LINE
  5
332
100
AcDbEntity
  8
AM_4
100
AcDbLine
 10
8441.261476
 20
-2710.876907
 30
0.0
 11
8441.600659
 21
-2712.572826
 31
0.0
  0
LINE
  5
333
100
AcDbEntity
  8
AM_4
100
AcDbLine
 10
8441.431068
 20
-2708.841805
 30
0.0
 11
8441.261476
 21
-2710.876907
 31
0.0
  0
LINE
  5
334
100
AcDbEntity
  8
AM_4
100
AcDbLine
 10
8441.939843
 20
-2706.637111
 30
0.0
 11
8441.431068
 21
-2708.841805
 31
0.0
  0
LINE
  5
335
100
AcDbEntity
  8
AM_4
100
AcDbLine
 10
8426.36162
 20
-2711.046499
 30
0.0
 11
8426.870396
 21
-2706.297927
 31
0.0
  0
LINE
  5
336
100
AcDbEntity
  8
AM_4
100
AcDbLine
 10
8442.448619
 20
-2715.116704
 30
0.0
 11
8442.448619
 21
-2715.116704
 31
0.0
  0
LINE
  5
337
100
AcDbEntity
  8
AM_4
100
AcDbLine
 10
8441.939843
 20
-2713.929561
 30
0.0
 11
8442.448619
 21
-2715.116704
 31
0.0
  0
LINE
  5
338
100
AcDbEntity
  8
AM_4
100
AcDbLine
 10
8427.039987
 20
-2717.805946
 30
0.0
 11
8426.531212
 21
-2714.607928
 31
0.0
  0
LINE
  5
339
100
AcDbEntity
  8
AM_4
100
AcDbLine
 10
8427.887947
 20
-2720.858599
 30
0.0
 11
8427.039987
 21
-2717.805946
 31
0.0
  0
LINE
  5
33A
100
AcDbEntity
  8
AM_4
100
AcDbLine
 10
8426.531212
 20
-2714.607928
 30
0.0
 11
8426.36162
 21
-2711.046499
 31
0.0
  0
LINE
  5
33B
100
AcDbEntity
  8
AM_4
100
AcDbLine
 10
8441.600659
 20
-2712.572826
 30
0.0
 11
8441.939843
 21
-2713.929561
 31
0.0
  0
LINE
  5
33C
100
AcDbEntity
  8
AM_4
100
AcDbLine
 10
8446.179639
 20
-2685.80154
 30
0.0
 11
8449.062701
 21
-2685.292765
 31
0.0
  0
LINE
  5
33D
100
AcDbEntity
  8
AM_4
100
AcDbLine
 10
8443.46617
 20
-2686.479908
 30
0.0
 11
8446.179639
 21
-2685.80154
 31
0.0
  0
LINE
  5
33E
100
AcDbEntity
  8
AM_4
100
AcDbLine
 10
8440.922292
 20
-2687.497459
 30
0.0
 11
8443.46617
 21
-2686.479908
 31
0.0
  0
LINE
  5
33F
100
AcDbEntity
  8
AM_4
100
AcDbLine
 10
8438.548006
 20
-2688.684602
 30
0.0
 11
8440.922292
 21
-2687.497459
 31
0.0
  0
LINE
  5
340
100
AcDbEntity
  8
AM_4
100
AcDbLine
 10
8436.512904
 20
-2690.041337
 30
0.0
 11
8438.548006
 21
-2688.684602
 31
0.0
  0
LINE
  5
341
100
AcDbEntity
  8
AM_4
100
AcDbLine
 10
8432.781883
 20
-2693.433174
 30
0.0
 11
8436.512904
 21
-2690.041337
 31
0.0
  0
LINE
  5
342
100
AcDbEntity
  8
AM_4
100
AcDbLine
 10
8445.162088
 20
-2701.888539
 30
0.0
 11
8443.126986
 21
-2704.262825
 31
0.0
  0
LINE
  5
343
100
AcDbEntity
  8
AM_4
100
AcDbLine
 10
8447.536374
 20
-2700.192621
 30
0.0
 11
8445.162088
 21
-2701.888539
 31
0.0
  0
LINE
  5
344
100
AcDbEntity
  8
AM_4
100
AcDbLine
 10
8408.554475
 20
-2688.006234
 30
0.0
 11
8406.882784
 21
-2689.193377
 31
0.0
  0
LINE
  5
345
100
AcDbEntity
  8
AM_4
100
AcDbLine
 10
8430.092641
 20
-2697.309559
 30
0.0
 11
8431.279784
 21
-2695.274457
 31
0.0
  0
LINE
  5
346
100
AcDbEntity
  8
AM_4
100
AcDbLine
 10
8428.905498
 20
-2699.514253
 30
0.0
 11
8430.092641
 21
-2697.309559
 31
0.0
  0
LINE
  5
347
100
AcDbEntity
  8
AM_4
100
AcDbLine
 10
8428.057539
 20
-2701.718947
 30
0.0
 11
8428.905498
 21
-2699.514253
 31
0.0
  0
LINE
  5
348
100
AcDbEntity
  8
AM_4
100
AcDbLine
 10
8417.542844
 20
-2705.61956
 30
0.0
 11
8417.542844
 21
-2705.61956
 31
0.0
  0
LINE
  5
349
100
AcDbEntity
  8
AM_4
100
AcDbLine
 10
8410.75917
 20
-2687.158275
 30
0.0
 11
8408.554475
 21
-2688.006234
 31
0.0
  0
LINE
  5
34A
100
AcDbEntity
  8
AM_4
100
AcDbLine
 10
8413.133455
 20
-2686.310316
 30
0.0
 11
8410.75917
 21
-2687.158275
 31
0.0
  0
LINE
  5
34B
100
AcDbEntity
  8
AM_4
100
AcDbLine
 10
8416.016517
 20
-2685.971132
 30
0.0
 11
8413.133455
 21
-2686.310316
 31
0.0
  0
LINE
  5
34C
100
AcDbEntity
  8
AM_4
100
AcDbLine
 10
8419.408354
 20
-2685.80154
 30
0.0
 11
8416.016517
 21
-2685.971132
 31
0.0
  0
LINE
  5
34D
100
AcDbEntity
  8
AM_4
100
AcDbLine
 10
8425.513661
 20
-2685.80154
 30
0.0
 11
8419.408354
 21
-2685.80154
 31
0.0
  0
LINE
  5
34E
100
AcDbEntity
  8
AM_4
100
AcDbLine
 10
8425.513661
 20
-2699.853437
 30
0.0
 11
8425.513661
 21
-2685.80154
 31
0.0
  0
LINE
  5
34F
100
AcDbEntity
  8
AM_4
100
AcDbLine
 10
8423.64815
 20
-2699.853437
 30
0.0
 11
8425.513661
 21
-2699.853437
 31
0.0
  0
LINE
  5
350
100
AcDbEntity
  8
AM_4
100
AcDbLine
 10
8422.630599
 20
-2700.023029
 30
0.0
 11
8423.64815
 21
-2699.853437
 31
0.0
  0
LINE
  5
351
100
AcDbEntity
  8
AM_4
100
AcDbLine
 10
8420.595497
 20
-2700.531804
 30
0.0
 11
8422.630599
 21
-2700.023029
 31
0.0
  0
LINE
  5
352
100
AcDbEntity
  8
AM_4
100
AcDbLine
 10
8419.577946
 20
-2701.379763
 30
0.0
 11
8420.595497
 21
-2700.531804
 31
0.0
  0
LINE
  5
353
100
AcDbEntity
  8
AM_4
100
AcDbLine
 10
8418.560395
 20
-2702.397315
 30
0.0
 11
8419.577946
 21
-2701.379763
 31
0.0
  0
LINE
  5
354
100
AcDbEntity
  8
AM_4
100
AcDbLine
 10
8417.882027
 20
-2703.754049
 30
0.0
 11
8418.560395
 21
-2702.397315
 31
0.0
  0
LINE
  5
355
100
AcDbEntity
  8
AM_4
100
AcDbLine
 10
8417.542844
 20
-2705.61956
 30
0.0
 11
8417.882027
 21
-2703.754049
 31
0.0
  0
LINE
  5
356
100
AcDbEntity
  8
AM_4
100
AcDbLine
 10
8431.279784
 20
-2695.274457
 30
0.0
 11
8432.781883
 21
-2693.433174
 31
0.0
  0
LINE
  5
357
100
AcDbEntity
  8
AM_4
100
AcDbLine
 10
8401.286253
 20
-2698.32711
 30
0.0
 11
8401.116661
 21
-2700.531804
 31
0.0
  0
LINE
  5
358
100
AcDbEntity
  8
AM_4
100
AcDbLine
 10
8401.964621
 20
-2695.952824
 30
0.0
 11
8401.286253
 21
-2698.32711
 31
0.0
  0
LINE
  5
359
100
AcDbEntity
  8
AM_4
100
AcDbLine
 10
8403.151764
 20
-2693.09399
 30
0.0
 11
8401.964621
 21
-2695.952824
 31
0.0
  0
LINE
  5
35A
100
AcDbEntity
  8
AM_4
100
AcDbLine
 10
8404.169315
 20
-2691.737255
 30
0.0
 11
8403.151764
 21
-2693.09399
 31
0.0
  0
LINE
  5
35B
100
AcDbEntity
  8
AM_4
100
AcDbLine
 10
8405.356458
 20
-2690.38052
 30
0.0
 11
8404.169315
 21
-2691.737255
 31
0.0
  0
LINE
  5
35C
100
AcDbEntity
  8
AM_4
100
AcDbLine
 10
8368.143657
 20
-2660.699585
 30
0.0
 11
8370.715489
 21
-2660.699585
 31
0.0
  0
LINE
  5
35D
100
AcDbEntity
  8
AM_4
100
AcDbLine
 10
8368.143657
 20
-2660.699585
 30
0.0
 11
8368.143657
 21
-2660.699585
 31
0.0
  0
LINE
  5
35E
100
AcDbEntity
  8
AM_4
100
AcDbLine
 10
8406.882784
 20
-2689.193377
 30
0.0
 11
8405.356458
 21
-2690.38052
 31
0.0
  0
LINE
  5
35F
100
AcDbEntity
  8
AM_4
100
AcDbLine
 10
8369.429573
 20
-2660.699585
 30
0.0
 11
8369.690484
 21
-2658.630938
 31
0.0
  0
LINE
  5
360
100
AcDbEntity
  8
AM_4
100
AcDbLine
 10
8370.715489
 20
-2660.25231
 30
0.0
 11
8370.752762
 21
-2659.805035
 31
0.0
  0
LINE
  5
361
100
AcDbEntity
  8
AM_4
100
AcDbLine
 10
8368.162293
 20
-2660.121855
 30
0.0
 11
8368.143657
 21
-2660.699585
 31
0.0
  0
LINE
  5
362
100
AcDbEntity
  8
AM_4
100
AcDbLine
 10
8433.799434
 20
-2730.864519
 30
0.0
 11
8431.958151
 21
-2728.659825
 31
0.0
  0
LINE
  5
363
100
AcDbEntity
  8
AM_4
100
AcDbLine
 10
8435.834536
 20
-2732.899621
 30
0.0
 11
8433.799434
 21
-2730.864519
 31
0.0
  0
LINE
  5
364
100
AcDbEntity
  8
AM_4
100
AcDbLine
 10
8438.208822
 20
-2734.595539
 30
0.0
 11
8435.834536
 21
-2732.899621
 31
0.0
  0
LINE
  5
365
100
AcDbEntity
  8
AM_4
100
AcDbLine
 10
8440.583108
 20
-2735.952274
 30
0.0
 11
8438.208822
 21
-2734.595539
 31
0.0
  0
LINE
  5
366
100
AcDbEntity
  8
AM_4
100
AcDbLine
 10
8443.126986
 20
-2737.309009
 30
0.0
 11
8440.583108
 21
-2735.952274
 31
0.0
  0
LINE
  5
367
100
AcDbEntity
  8
AM_4
100
AcDbLine
 10
8445.670864
 20
-2738.32656
 30
0.0
 11
8443.126986
 21
-2737.309009
 31
0.0
  0
LINE
  5
368
100
AcDbEntity
  8
AM_4
100
AcDbLine
 10
8448.553925
 20
-2739.004928
 30
0.0
 11
8445.670864
 21
-2738.32656
 31
0.0
  0
LINE
  5
369
100
AcDbEntity
  8
AM_4
100
AcDbLine
 10
8430.431825
 20
-2726.285539
 30
0.0
 11
8429.07509
 21
-2723.741661
 31
0.0
  0
LINE
  5
36A
100
AcDbEntity
  8
AM_4
100
AcDbLine
 10
8431.958151
 20
-2728.659825
 30
0.0
 11
8430.431825
 21
-2726.285539
 31
0.0
  0
ARC
  5
36B
100
AcDbEntity
  8
AM_4
100
AcDbCircle
 10
8376.700862
 20
-2750.708102
 30
0.0
 40
6.188613
100
AcDbArc
 50
178.153773
 51
186.666075
  0
LINE
  5
36C
100
AcDbEntity
  8
AM_4
100
AcDbLine
 10
8369.690484
 20
-2752.57737
 30
0.0
 11
8369.429573
 21
-2750.508722
 31
0.0
  0
LINE
  5
36D
100
AcDbEntity
  8
AM_4
100
AcDbLine
 10
8370.752762
 20
-2751.403272
 30
0.0
 11
8370.715489
 21
-2750.955997
 31
0.0
  0
LINE
  5
36E
100
AcDbEntity
  8
AM_4
100
AcDbLine
 10
8368.143657
 20
-2750.508722
 30
0.0
 11
8368.162293
 21
-2751.086452
 31
0.0
  0
ARC
  5
36F
100
AcDbEntity
  8
AM_4
100
AcDbCircle
 10
8379.715686
 20
-2750.355751
 30
0.0
 40
9.223959
100
AcDbArc
 50
186.666075
 51
270.007725
  0
ARC
  5
370
100
AcDbEntity
  8
AM_4
100
AcDbCircle
 10
8379.715686
 20
-2750.355751
 30
0.0
 40
9.02393
100
AcDbArc
 50
186.666075
 51
270.007725
  0
LINE
  5
371
100
AcDbEntity
  8
AM_4
100
AcDbLine
 10
8370.34276
 20
-2754.403744
 30
0.0
 11
8369.690484
 21
-2752.57737
 31
0.0
  0
LINE
  5
372
100
AcDbEntity
  8
AM_4
100
AcDbLine
 10
8371.255947
 20
-2756.230117
 30
0.0
 11
8370.34276
 21
-2754.403744
 31
0.0
  0
LINE
  5
373
100
AcDbEntity
  8
AM_4
100
AcDbLine
 10
8372.5605
 20
-2757.665125
 30
0.0
 11
8371.255947
 21
-2756.230117
 31
0.0
  0
LINE
  5
374
100
AcDbEntity
  8
AM_4
100
AcDbLine
 10
8373.995508
 20
-2758.969678
 30
0.0
 11
8372.5605
 21
-2757.665125
 31
0.0
  0
LINE
  5
375
100
AcDbEntity
  8
AM_4
100
AcDbLine
 10
8375.821881
 20
-2759.882865
 30
0.0
 11
8373.995508
 21
-2758.969678
 31
0.0
  0
LINE
  5
376
100
AcDbEntity
  8
AM_4
100
AcDbLine
 10
8377.648255
 20
-2760.535141
 30
0.0
 11
8375.821881
 21
-2759.882865
 31
0.0
  0
LINE
  5
377
100
AcDbEntity
  8
AM_4
100
AcDbLine
 10
8379.716903
 20
-2760.665597
 30
0.0
 11
8377.648255
 21
-2760.535141
 31
0.0
  0
LINE
  5
378
100
AcDbEntity
  8
AM_4
100
AcDbLine
 10
8379.716903
 20
-2761.951513
 30
0.0
 11
8379.716903
 21
-2761.951513
 31
0.0
  0
LINE
  5
379
100
AcDbEntity
  8
AM_4
100
AcDbLine
 10
8379.716903
 20
-2759.37968
 30
0.0
 11
8379.716903
 21
-2761.951513
 31
0.0
  0
LINE
  5
37A
100
AcDbEntity
  8
AM_4
100
AcDbLine
 10
8370.808672
 20
-2751.850548
 30
0.0
 11
8370.752762
 21
-2751.403272
 31
0.0
  0
LINE
  5
37B
100
AcDbEntity
  8
AM_4
100
AcDbLine
 10
8370.808672
 20
-2751.850548
 30
0.0
 11
8370.995036
 21
-2752.707825
 31
0.0
  0
LINE
  5
37C
100
AcDbEntity
  8
AM_4
100
AcDbLine
 10
8371.106855
 20
-2753.136464
 30
0.0
 11
8370.995036
 21
-2752.707825
 31
0.0
  0
LINE
  5
37D
100
AcDbEntity
  8
AM_4
100
AcDbLine
 10
8371.255947
 20
-2753.546466
 30
0.0
 11
8371.106855
 21
-2753.136464
 31
0.0
  0
LINE
  5
37E
100
AcDbEntity
  8
AM_4
100
AcDbLine
 10
8371.423675
 20
-2753.956468
 30
0.0
 11
8371.255947
 21
-2753.546466
 31
0.0
  0
LINE
  5
37F
100
AcDbEntity
  8
AM_4
100
AcDbLine
 10
8371.61004
 20
-2754.329198
 30
0.0
 11
8371.423675
 21
-2753.956468
 31
0.0
  0
LINE
  5
380
100
AcDbEntity
  8
AM_4
100
AcDbLine
 10
8371.796404
 20
-2754.720564
 30
0.0
 11
8371.61004
 21
-2754.329198
 31
0.0
  0
LINE
  5
381
100
AcDbEntity
  8
AM_4
100
AcDbLine
 10
8372.020042
 20
-2755.093293
 30
0.0
 11
8371.796404
 21
-2754.720564
 31
0.0
  0
LINE
  5
382
100
AcDbEntity
  8
AM_4
100
AcDbLine
 10
8372.262316
 20
-2755.447386
 30
0.0
 11
8372.020042
 21
-2755.093293
 31
0.0
  0
LINE
  5
383
100
AcDbEntity
  8
AM_4
100
AcDbLine
 10
8372.523227
 20
-2755.801479
 30
0.0
 11
8372.262316
 21
-2755.447386
 31
0.0
  0
LINE
  5
384
100
AcDbEntity
  8
AM_4
100
AcDbLine
 10
8372.784137
 20
-2756.136935
 30
0.0
 11
8372.523227
 21
-2755.801479
 31
0.0
  0
LINE
  5
385
100
AcDbEntity
  8
AM_4
100
AcDbLine
 10
8373.063684
 20
-2756.453755
 30
0.0
 11
8372.784137
 21
-2756.136935
 31
0.0
  0
LINE
  5
386
100
AcDbEntity
  8
AM_4
100
AcDbLine
 10
8373.063684
 20
-2756.453755
 30
0.0
 11
8373.678688
 21
-2757.068758
 31
0.0
  0
LINE
  5
387
100
AcDbEntity
  8
AM_4
100
AcDbLine
 10
8374.014144
 20
-2757.348305
 30
0.0
 11
8373.678688
 21
-2757.068758
 31
0.0
  0
LINE
  5
388
100
AcDbEntity
  8
AM_4
100
AcDbLine
 10
8374.349601
 20
-2757.609216
 30
0.0
 11
8374.014144
 21
-2757.348305
 31
0.0
  0
LINE
  5
389
100
AcDbEntity
  8
AM_4
100
AcDbLine
 10
8374.72233
 20
-2757.85149
 30
0.0
 11
8374.349601
 21
-2757.609216
 31
0.0
  0
LINE
  5
38A
100
AcDbEntity
  8
AM_4
100
AcDbLine
 10
8375.076423
 20
-2758.093764
 30
0.0
 11
8374.72233
 21
-2757.85149
 31
0.0
  0
LINE
  5
38B
100
AcDbEntity
  8
AM_4
100
AcDbLine
 10
8375.467789
 20
-2758.317402
 30
0.0
 11
8375.076423
 21
-2758.093764
 31
0.0
  0
LINE
  5
38C
100
AcDbEntity
  8
AM_4
100
AcDbLine
 10
8375.840518
 20
-2758.503766
 30
0.0
 11
8375.467789
 21
-2758.317402
 31
0.0
  0
LINE
  5
38D
100
AcDbEntity
  8
AM_4
100
AcDbLine
 10
8376.25052
 20
-2758.690131
 30
0.0
 11
8375.840518
 21
-2758.503766
 31
0.0
  0
LINE
  5
38E
100
AcDbEntity
  8
AM_4
100
AcDbLine
 10
8376.25052
 20
-2758.690131
 30
0.0
 11
8377.070525
 21
-2758.988315
 31
0.0
  0
LINE
  5
38F
100
AcDbEntity
  8
AM_4
100
AcDbLine
 10
8377.070525
 20
-2758.988315
 30
0.0
 11
8377.927802
 21
-2759.211952
 31
0.0
  0
LINE
  5
390
100
AcDbEntity
  8
AM_4
100
AcDbLine
 10
8378.356441
 20
-2759.286498
 30
0.0
 11
8377.927802
 21
-2759.211952
 31
0.0
  0
LINE
  5
391
100
AcDbEntity
  8
AM_4
100
AcDbLine
 10
8378.803716
 20
-2759.342407
 30
0.0
 11
8378.356441
 21
-2759.286498
 31
0.0
  0
LINE
  5
392
100
AcDbEntity
  8
AM_4
100
AcDbLine
 10
8379.269628
 20
-2759.37968
 30
0.0
 11
8378.803716
 21
-2759.342407
 31
0.0
  0
LINE
  5
393
100
AcDbEntity
  8
AM_4
100
AcDbLine
 10
8379.139173
 20
-2761.932876
 30
0.0
 11
8379.716903
 21
-2761.951513
 31
0.0
  0
LINE
  5
394
100
AcDbEntity
  8
AM_4
100
AcDbLine
 10
8377.983712
 20
-2761.821058
 30
0.0
 11
8379.139173
 21
-2761.932876
 31
0.0
  0
LINE
  5
395
100
AcDbEntity
  8
AM_4
100
AcDbLine
 10
8376.865524
 20
-2761.59742
 30
0.0
 11
8377.983712
 21
-2761.821058
 31
0.0
  0
LINE
  5
396
100
AcDbEntity
  8
AM_4
100
AcDbLine
 10
8376.325066
 20
-2761.429692
 30
0.0
 11
8376.865524
 21
-2761.59742
 31
0.0
  0
LINE
  5
397
100
AcDbEntity
  8
AM_4
100
AcDbLine
 10
8375.784609
 20
-2761.243327
 30
0.0
 11
8376.325066
 21
-2761.429692
 31
0.0
  0
LINE
  5
398
100
AcDbEntity
  8
AM_4
100
AcDbLine
 10
8375.262787
 20
-2761.056962
 30
0.0
 11
8375.784609
 21
-2761.243327
 31
0.0
  0
LINE
  5
399
100
AcDbEntity
  8
AM_4
100
AcDbLine
 10
8374.740966
 20
-2760.814688
 30
0.0
 11
8375.262787
 21
-2761.056962
 31
0.0
  0
LINE
  5
39A
100
AcDbEntity
  8
AM_4
100
AcDbLine
 10
8374.237782
 20
-2760.572414
 30
0.0
 11
8374.740966
 21
-2760.814688
 31
0.0
  0
LINE
  5
39B
100
AcDbEntity
  8
AM_4
100
AcDbLine
 10
8373.77187
 20
-2760.292867
 30
0.0
 11
8374.237782
 21
-2760.572414
 31
0.0
  0
LINE
  5
39C
100
AcDbEntity
  8
AM_4
100
AcDbLine
 10
8373.287322
 20
-2759.994684
 30
0.0
 11
8373.77187
 21
-2760.292867
 31
0.0
  0
LINE
  5
39D
100
AcDbEntity
  8
AM_4
100
AcDbLine
 10
8372.840047
 20
-2759.677864
 30
0.0
 11
8373.287322
 21
-2759.994684
 31
0.0
  0
LINE
  5
39E
100
AcDbEntity
  8
AM_4
100
AcDbLine
 10
8372.411408
 20
-2759.342407
 30
0.0
 11
8372.840047
 21
-2759.677864
 31
0.0
  0
LINE
  5
39F
100
AcDbEntity
  8
AM_4
100
AcDbLine
 10
8371.982769
 20
-2758.969678
 30
0.0
 11
8372.411408
 21
-2759.342407
 31
0.0
  0
LINE
  5
3A0
100
AcDbEntity
  8
AM_4
100
AcDbLine
 10
8371.572767
 20
-2758.596949
 30
0.0
 11
8371.982769
 21
-2758.969678
 31
0.0
  0
LINE
  5
3A1
100
AcDbEntity
  8
AM_4
100
AcDbLine
 10
8371.200038
 20
-2758.205583
 30
0.0
 11
8371.572767
 21
-2758.596949
 31
0.0
  0
LINE
  5
3A2
100
AcDbEntity
  8
AM_4
100
AcDbLine
 10
8370.827308
 20
-2757.776944
 30
0.0
 11
8371.200038
 21
-2758.205583
 31
0.0
  0
LINE
  5
3A3
100
AcDbEntity
  8
AM_4
100
AcDbLine
 10
8370.473215
 20
-2757.348305
 30
0.0
 11
8370.827308
 21
-2757.776944
 31
0.0
  0
LINE
  5
3A4
100
AcDbEntity
  8
AM_4
100
AcDbLine
 10
8370.156395
 20
-2756.90103
 30
0.0
 11
8370.473215
 21
-2757.348305
 31
0.0
  0
LINE
  5
3A5
100
AcDbEntity
  8
AM_4
100
AcDbLine
 10
8369.858212
 20
-2756.435119
 30
0.0
 11
8370.156395
 21
-2756.90103
 31
0.0
  0
LINE
  5
3A6
100
AcDbEntity
  8
AM_4
100
AcDbLine
 10
8369.578665
 20
-2755.969207
 30
0.0
 11
8369.858212
 21
-2756.435119
 31
0.0
  0
LINE
  5
3A7
100
AcDbEntity
  8
AM_4
100
AcDbLine
 10
8369.317754
 20
-2755.466022
 30
0.0
 11
8369.578665
 21
-2755.969207
 31
0.0
  0
LINE
  5
3A8
100
AcDbEntity
  8
AM_4
100
AcDbLine
 10
8369.07548
 20
-2754.962838
 30
0.0
 11
8369.317754
 21
-2755.466022
 31
0.0
  0
LINE
  5
3A9
100
AcDbEntity
  8
AM_4
100
AcDbLine
 10
8368.870479
 20
-2754.441017
 30
0.0
 11
8369.07548
 21
-2754.962838
 31
0.0
  0
LINE
  5
3AA
100
AcDbEntity
  8
AM_4
100
AcDbLine
 10
8368.684114
 20
-2753.900559
 30
0.0
 11
8368.870479
 21
-2754.441017
 31
0.0
  0
LINE
  5
3AB
100
AcDbEntity
  8
AM_4
100
AcDbLine
 10
8368.516386
 20
-2753.360101
 30
0.0
 11
8368.684114
 21
-2753.900559
 31
0.0
  0
LINE
  5
3AC
100
AcDbEntity
  8
AM_4
100
AcDbLine
 10
8368.385931
 20
-2752.801007
 30
0.0
 11
8368.516386
 21
-2753.360101
 31
0.0
  0
LINE
  5
3AD
100
AcDbEntity
  8
AM_4
100
AcDbLine
 10
8368.292749
 20
-2752.241913
 30
0.0
 11
8368.385931
 21
-2752.801007
 31
0.0
  0
LINE
  5
3AE
100
AcDbEntity
  8
AM_4
100
AcDbLine
 10
8368.218203
 20
-2751.664183
 30
0.0
 11
8368.292749
 21
-2752.241913
 31
0.0
  0
LINE
  5
3AF
100
AcDbEntity
  8
AM_4
100
AcDbLine
 10
8368.162293
 20
-2751.086452
 30
0.0
 11
8368.218203
 21
-2751.664183
 31
0.0
  0
LINE
  5
3B0
100
AcDbEntity
  8
AM_4
100
AcDbLine
 10
8368.143657
 20
-2750.508722
 30
0.0
 11
8368.143657
 21
-2750.508722
 31
0.0
  0
LINE
  5
3B1
100
AcDbEntity
  8
AM_4
100
AcDbLine
 10
8370.715489
 20
-2750.508722
 30
0.0
 11
8368.143657
 21
-2750.508722
 31
0.0
  0
LINE
  5
3B2
100
AcDbEntity
  8
AM_4
100
AcDbLine
 10
8401.116661
 20
-2739.344111
 30
0.0
 11
8417.542844
 21
-2739.344111
 31
0.0
  0
LINE
  5
3B3
100
AcDbEntity
  8
AM_4
100
AcDbLine
 10
8401.116661
 20
-2700.531804
 30
0.0
 11
8401.116661
 21
-2739.344111
 31
0.0
  0
LINE
  5
3B4
100
AcDbEntity
  8
AM_4
100
AcDbLine
 10
8417.542844
 20
-2739.344111
 30
0.0
 11
8417.542844
 21
-2705.61956
 31
0.0
  0
LINE
  5
3B5
100
AcDbEntity
  8
AM_4
100
AcDbLine
 10
8370.515461
 20
-2750.508722
 30
0.0
 11
8370.515461
 21
-2660.699585
 31
0.0
  0
LINE
  5
3B6
100
AcDbEntity
  8
AM_4
100
AcDbLine
 10
8368.143657
 20
-2750.508722
 30
0.0
 11
8368.143657
 21
-2660.699585
 31
0.0
  0
LINE
  5
3B7
100
AcDbEntity
  8
AM_4
100
AcDbLine
 10
8369.429573
 20
-2750.508722
 30
0.0
 11
8369.429573
 21
-2660.699585
 31
0.0
  0
LINE
  5
3B8
100
AcDbEntity
  8
AM_4
100
AcDbLine
 10
8370.715489
 20
-2750.955997
 30
0.0
 11
8370.715489
 21
-2660.25231
 31
0.0
  0
LINE
  5
3B9
100
AcDbEntity
  8
AM_4
100
AcDbLine
 10
8429.07509
 20
-2723.741661
 30
0.0
 11
8427.887947
 21
-2720.858599
 31
0.0
  0
LINE
  5
3BA
100
AcDbEntity
  8
AM_4
100
AcDbLine
 10
8449.062701
 20
-2685.292765
 30
0.0
 11
8452.284946
 21
-2685.123173
 31
0.0
  0
LINE
  5
3BB
100
AcDbEntity
  8
AM_4
100
AcDbLine
 10
8450.080252
 20
-2699.344661
 30
0.0
 11
8447.536374
 21
-2700.192621
 31
0.0
  0
LINE
  5
3BC
100
AcDbEntity
  8
AM_4
100
AcDbLine
 10
8451.267395
 20
-2739.683295
 30
0.0
 11
8448.553925
 21
-2739.004928
 31
0.0
  0
LINE
  5
3BD
100
AcDbEntity
  8
AM_4
100
AcDbLine
 10
8549.703352
 20
-2704.262825
 30
0.0
 11
8548.516209
 21
-2706.637111
 31
0.0
  0
LINE
  5
3BE
100
AcDbEntity
  8
AM_4
100
AcDbLine
 10
8547.837842
 20
-2710.876907
 30
0.0
 11
8548.177026
 21
-2712.572826
 31
0.0
  0
LINE
  5
3BF
100
AcDbEntity
  8
AM_4
100
AcDbLine
 10
8548.007434
 20
-2708.841805
 30
0.0
 11
8547.837842
 21
-2710.876907
 31
0.0
  0
LINE
  5
3C0
100
AcDbEntity
  8
AM_4
100
AcDbLine
 10
8548.516209
 20
-2706.637111
 30
0.0
 11
8548.007434
 21
-2708.841805
 31
0.0
  0
LINE
  5
3C1
100
AcDbEntity
  8
AM_4
100
AcDbLine
 10
8549.024985
 20
-2715.116704
 30
0.0
 11
8549.024985
 21
-2715.116704
 31
0.0
  0
LINE
  5
3C2
100
AcDbEntity
  8
AM_4
100
AcDbLine
 10
8548.516209
 20
-2713.929561
 30
0.0
 11
8549.024985
 21
-2715.116704
 31
0.0
  0
LINE
  5
3C3
100
AcDbEntity
  8
AM_4
100
AcDbLine
 10
8548.177026
 20
-2712.572826
 30
0.0
 11
8548.516209
 21
-2713.929561
 31
0.0
  0
LINE
  5
3C4
100
AcDbEntity
  8
AM_4
100
AcDbLine
 10
8547.498658
 20
-2687.497459
 30
0.0
 11
8550.042536
 21
-2686.479908
 31
0.0
  0
LINE
  5
3C5
100
AcDbEntity
  8
AM_4
100
AcDbLine
 10
8545.124372
 20
-2688.684602
 30
0.0
 11
8547.498658
 21
-2687.497459
 31
0.0
  0
LINE
  5
3C6
100
AcDbEntity
  8
AM_4
100
AcDbLine
 10
8543.08927
 20
-2690.041337
 30
0.0
 11
8545.124372
 21
-2688.684602
 31
0.0
  0
LINE
  5
3C7
100
AcDbEntity
  8
AM_4
100
AcDbLine
 10
8539.358249
 20
-2693.433174
 30
0.0
 11
8543.08927
 21
-2690.041337
 31
0.0
  0
LINE
  5
3C8
100
AcDbEntity
  8
AM_4
100
AcDbLine
 10
8538.001514
 20
-2695.274457
 30
0.0
 11
8539.358249
 21
-2693.433174
 31
0.0
  0
LINE
  5
3C9
100
AcDbEntity
  8
AM_4
100
AcDbLine
 10
8536.64478
 20
-2697.309559
 30
0.0
 11
8538.001514
 21
-2695.274457
 31
0.0
  0
LINE
  5
3CA
100
AcDbEntity
  8
AM_4
100
AcDbLine
 10
8535.457637
 20
-2699.514253
 30
0.0
 11
8536.64478
 21
-2697.309559
 31
0.0
  0
LINE
  5
3CB
100
AcDbEntity
  8
AM_4
100
AcDbLine
 10
8533.422534
 20
-2706.297927
 30
0.0
 11
8534.609677
 21
-2701.718947
 31
0.0
  0
LINE
  5
3CC
100
AcDbEntity
  8
AM_4
100
AcDbLine
 10
8532.913759
 20
-2711.046499
 30
0.0
 11
8533.422534
 21
-2706.297927
 31
0.0
  0
LINE
  5
3CD
100
AcDbEntity
  8
AM_4
100
AcDbLine
 10
8533.592126
 20
-2717.805946
 30
0.0
 11
8533.083351
 21
-2714.607928
 31
0.0
  0
LINE
  5
3CE
100
AcDbEntity
  8
AM_4
100
AcDbLine
 10
8534.440086
 20
-2720.858599
 30
0.0
 11
8533.592126
 21
-2717.805946
 31
0.0
  0
LINE
  5
3CF
100
AcDbEntity
  8
AM_4
100
AcDbLine
 10
8533.083351
 20
-2714.607928
 30
0.0
 11
8532.913759
 21
-2711.046499
 31
0.0
  0
LINE
  5
3D0
100
AcDbEntity
  8
AM_4
100
AcDbLine
 10
8505.80329
 20
-2665.813929
 30
0.0
 11
8505.80329
 21
-2678.848274
 31
0.0
  0
LINE
  5
3D1
100
AcDbEntity
  8
AM_4
100
AcDbLine
 10
8496.499965
 20
-2665.983521
 30
0.0
 11
8499.72221
 21
-2665.813929
 31
0.0
  0
LINE
  5
3D2
100
AcDbEntity
  8
AM_4
100
AcDbLine
 10
8505.14915
 20
-2702.90609
 30
0.0
 11
8497.8567
 21
-2702.90609
 31
0.0
  0
LINE
  5
3D3
100
AcDbEntity
  8
AM_4
100
AcDbLine
 10
8505.14915
 20
-2690.210929
 30
0.0
 11
8505.14915
 21
-2702.90609
 31
0.0
  0
LINE
  5
3D4
100
AcDbEntity
  8
AM_4
100
AcDbLine
 10
8497.8567
 20
-2690.210929
 30
0.0
 11
8505.14915
 21
-2690.210929
 31
0.0
  0
LINE
  5
3D5
100
AcDbEntity
  8
AM_4
100
AcDbLine
 10
8497.8567
 20
-2684.614397
 30
0.0
 11
8497.8567
 21
-2690.210929
 31
0.0
  0
LINE
  5
3D6
100
AcDbEntity
  8
AM_4
100
AcDbLine
 10
8498.195884
 20
-2682.748887
 30
0.0
 11
8497.8567
 21
-2684.614397
 31
0.0
  0
LINE
  5
3D7
100
AcDbEntity
  8
AM_4
100
AcDbLine
 10
8498.874251
 20
-2681.392152
 30
0.0
 11
8498.195884
 21
-2682.748887
 31
0.0
  0
LINE
  5
3D8
100
AcDbEntity
  8
AM_4
100
AcDbLine
 10
8499.891802
 20
-2680.374601
 30
0.0
 11
8498.874251
 21
-2681.392152
 31
0.0
  0
LINE
  5
3D9
100
AcDbEntity
  8
AM_4
100
AcDbLine
 10
8500.909353
 20
-2679.526642
 30
0.0
 11
8499.891802
 21
-2680.374601
 31
0.0
  0
LINE
  5
3DA
100
AcDbEntity
  8
AM_4
100
AcDbLine
 10
8503.114047
 20
-2679.017866
 30
0.0
 11
8500.909353
 21
-2679.526642
 31
0.0
  0
LINE
  5
3DB
100
AcDbEntity
  8
AM_4
100
AcDbLine
 10
8503.962007
 20
-2678.848274
 30
0.0
 11
8503.114047
 21
-2679.017866
 31
0.0
  0
LINE
  5
3DC
100
AcDbEntity
  8
AM_4
100
AcDbLine
 10
8505.80329
 20
-2678.848274
 30
0.0
 11
8503.962007
 21
-2678.848274
 31
0.0
  0
LINE
  5
3DD
100
AcDbEntity
  8
AM_4
100
AcDbLine
 10
8493.616904
 20
-2666.492296
 30
0.0
 11
8496.499965
 21
-2665.983521
 31
0.0
  0
LINE
  5
3DE
100
AcDbEntity
  8
AM_4
100
AcDbLine
 10
8499.72221
 20
-2665.813929
 30
0.0
 11
8505.80329
 21
-2665.813929
 31
0.0
  0
LINE
  5
3DF
100
AcDbEntity
  8
AM_4
100
AcDbLine
 10
8511.230229
 20
-2665.813929
 30
0.0
 11
8511.230229
 21
-2665.813929
 31
0.0
  0
LINE
  5
3E0
100
AcDbEntity
  8
AM_4
100
AcDbLine
 10
8528.359006
 20
-2665.813929
 30
0.0
 11
8511.230229
 21
-2665.813929
 31
0.0
  0
LINE
  5
3E1
100
AcDbEntity
  8
AM_4
100
AcDbLine
 10
8475.155619
 20
-2718.823497
 30
0.0
 11
8475.155619
 21
-2718.823497
 31
0.0
  0
LINE
  5
3E2
100
AcDbEntity
  8
AM_4
100
AcDbLine
 10
8476.342762
 20
-2699.514253
 30
0.0
 11
8477.869089
 21
-2702.90609
 31
0.0
  0
LINE
  5
3E3
100
AcDbEntity
  8
AM_4
100
AcDbLine
 10
8488.868332
 20
-2668.188215
 30
0.0
 11
8491.073026
 21
-2667.340256
 31
0.0
  0
LINE
  5
3E4
100
AcDbEntity
  8
AM_4
100
AcDbLine
 10
8487.172413
 20
-2669.375358
 30
0.0
 11
8488.868332
 21
-2668.188215
 31
0.0
  0
LINE
  5
3E5
100
AcDbEntity
  8
AM_4
100
AcDbLine
 10
8485.646087
 20
-2670.538274
 30
0.0
 11
8487.172413
 21
-2669.375358
 31
0.0
  0
LINE
  5
3E6
100
AcDbEntity
  8
AM_4
100
AcDbLine
 10
8484.458944
 20
-2671.895008
 30
0.0
 11
8485.646087
 21
-2670.538274
 31
0.0
  0
LINE
  5
3E7
100
AcDbEntity
  8
AM_4
100
AcDbLine
 10
8483.610984
 20
-2673.251743
 30
0.0
 11
8484.458944
 21
-2671.895008
 31
0.0
  0
LINE
  5
3E8
100
AcDbEntity
  8
AM_4
100
AcDbLine
 10
8482.254249
 20
-2675.965213
 30
0.0
 11
8483.610984
 21
-2673.251743
 31
0.0
  0
LINE
  5
3E9
100
AcDbEntity
  8
AM_4
100
AcDbLine
 10
8481.575882
 20
-2678.509091
 30
0.0
 11
8482.254249
 21
-2675.965213
 31
0.0
  0
LINE
  5
3EA
100
AcDbEntity
  8
AM_4
100
AcDbLine
 10
8481.40629
 20
-2680.713785
 30
0.0
 11
8481.575882
 21
-2678.509091
 31
0.0
  0
LINE
  5
3EB
100
AcDbEntity
  8
AM_4
100
AcDbLine
 10
8464.810516
 20
-2688.345418
 30
0.0
 11
8468.371945
 21
-2690.550112
 31
0.0
  0
LINE
  5
3EC
100
AcDbEntity
  8
AM_4
100
AcDbLine
 10
8460.909903
 20
-2686.6495
 30
0.0
 11
8464.810516
 21
-2688.345418
 31
0.0
  0
LINE
  5
3ED
100
AcDbEntity
  8
AM_4
100
AcDbLine
 10
8471.59419
 20
-2693.263582
 30
0.0
 11
8474.138068
 21
-2696.122416
 31
0.0
  0
LINE
  5
3EE
100
AcDbEntity
  8
AM_4
100
AcDbLine
 10
8468.371945
 20
-2690.550112
 30
0.0
 11
8471.59419
 21
-2693.263582
 31
0.0
  0
LINE
  5
3EF
100
AcDbEntity
  8
AM_4
100
AcDbLine
 10
8474.138068
 20
-2696.122416
 30
0.0
 11
8476.342762
 21
-2699.514253
 31
0.0
  0
LINE
  5
3F0
100
AcDbEntity
  8
AM_4
100
AcDbLine
 10
8491.073026
 20
-2667.340256
 30
0.0
 11
8493.616904
 21
-2666.492296
 31
0.0
  0
LINE
  5
3F1
100
AcDbEntity
  8
AM_4
100
AcDbLine
 10
8534.609677
 20
-2701.718947
 30
0.0
 11
8535.457637
 21
-2699.514253
 31
0.0
  0
LINE
  5
3F2
100
AcDbEntity
  8
AM_4
100
AcDbLine
 10
8549.703352
 20
-2737.309009
 30
0.0
 11
8547.159475
 21
-2735.952274
 31
0.0
  0
LINE
  5
3F3
100
AcDbEntity
  8
AM_4
100
AcDbLine
 10
8536.983963
 20
-2726.285539
 30
0.0
 11
8535.627229
 21
-2723.741661
 31
0.0
  0
LINE
  5
3F4
100
AcDbEntity
  8
AM_4
100
AcDbLine
 10
8538.51029
 20
-2728.659825
 30
0.0
 11
8536.983963
 21
-2726.285539
 31
0.0
  0
LINE
  5
3F5
100
AcDbEntity
  8
AM_4
100
AcDbLine
 10
8540.3758
 20
-2730.864519
 30
0.0
 11
8538.51029
 21
-2728.659825
 31
0.0
  0
LINE
  5
3F6
100
AcDbEntity
  8
AM_4
100
AcDbLine
 10
8542.580495
 20
-2732.899621
 30
0.0
 11
8540.3758
 21
-2730.864519
 31
0.0
  0
LINE
  5
3F7
100
AcDbEntity
  8
AM_4
100
AcDbLine
 10
8544.785189
 20
-2734.595539
 30
0.0
 11
8542.580495
 21
-2732.899621
 31
0.0
  0
LINE
  5
3F8
100
AcDbEntity
  8
AM_4
100
AcDbLine
 10
8547.159475
 20
-2735.952274
 30
0.0
 11
8544.785189
 21
-2734.595539
 31
0.0
  0
LINE
  5
3F9
100
AcDbEntity
  8
AM_4
100
AcDbLine
 10
8511.230229
 20
-2739.174519
 30
0.0
 11
8528.359006
 21
-2739.174519
 31
0.0
  0
LINE
  5
3FA
100
AcDbEntity
  8
AM_4
100
AcDbLine
 10
8481.40629
 20
-2739.174519
 30
0.0
 11
8481.40629
 21
-2739.174519
 31
0.0
  0
LINE
  5
3FB
100
AcDbEntity
  8
AM_4
100
AcDbLine
 10
8467.693577
 20
-2723.402477
 30
0.0
 11
8471.424598
 21
-2721.367375
 31
0.0
  0
LINE
  5
3FC
100
AcDbEntity
  8
AM_4
100
AcDbLine
 10
8470.237455
 20
-2737.817785
 30
0.0
 11
8467.523986
 21
-2738.665744
 31
0.0
  0
LINE
  5
3FD
100
AcDbEntity
  8
AM_4
100
AcDbLine
 10
8463.453781
 20
-2724.928804
 30
0.0
 11
8467.693577
 21
-2723.402477
 31
0.0
  0
LINE
  5
3FE
100
AcDbEntity
  8
AM_4
100
AcDbLine
 10
8461.418679
 20
-2725.437579
 30
0.0
 11
8463.453781
 21
-2724.928804
 31
0.0
  0
LINE
  5
3FF
100
AcDbEntity
  8
AM_4
100
AcDbLine
 10
8459.383577
 20
-2725.607171
 30
0.0
 11
8461.418679
 21
-2725.437579
 31
0.0
  0
LINE
  5
400
100
AcDbEntity
  8
AM_4
100
AcDbLine
 10
8464.471332
 20
-2739.344111
 30
0.0
 11
8460.909903
 21
-2739.852887
 31
0.0
  0
LINE
  5
401
100
AcDbEntity
  8
AM_4
100
AcDbLine
 10
8467.523986
 20
-2738.665744
 30
0.0
 11
8464.471332
 21
-2739.344111
 31
0.0
  0
LINE
  5
402
100
AcDbEntity
  8
AM_4
100
AcDbLine
 10
8473.968476
 20
-2736.121866
 30
0.0
 11
8470.237455
 21
-2737.817785
 31
0.0
  0
LINE
  5
403
100
AcDbEntity
  8
AM_4
100
AcDbLine
 10
8475.155619
 20
-2735.443499
 30
0.0
 11
8473.968476
 21
-2736.121866
 31
0.0
  0
LINE
  5
404
100
AcDbEntity
  8
AM_4
100
AcDbLine
 10
8497.8567
 20
-2739.174519
 30
0.0
 11
8481.40629
 21
-2739.174519
 31
0.0
  0
LINE
  5
405
100
AcDbEntity
  8
AM_4
100
AcDbLine
 10
8511.230229
 20
-2665.813929
 30
0.0
 11
8511.230229
 21
-2739.174519
 31
0.0
  0
LINE
  5
406
100
AcDbEntity
  8
AM_4
100
AcDbLine
 10
8497.8567
 20
-2702.90609
 30
0.0
 11
8497.8567
 21
-2739.174519
 31
0.0
  0
LINE
  5
407
100
AcDbEntity
  8
AM_4
100
AcDbLine
 10
8481.40629
 20
-2739.174519
 30
0.0
 11
8481.40629
 21
-2680.713785
 31
0.0
  0
LINE
  5
408
100
AcDbEntity
  8
AM_4
100
AcDbLine
 10
8528.359006
 20
-2739.174519
 30
0.0
 11
8528.359006
 21
-2665.813929
 31
0.0
  0
LINE
  5
409
100
AcDbEntity
  8
AM_4
100
AcDbLine
 10
8535.627229
 20
-2723.741661
 30
0.0
 11
8534.440086
 21
-2720.858599
 31
0.0
  0
LINE
  5
40A
100
AcDbEntity
  8
AM_4
100
AcDbLine
 10
8475.155619
 20
-2718.823497
 30
0.0
 11
8475.155619
 21
-2735.443499
 31
0.0
  0
LINE
  5
40B
100
AcDbEntity
  8
AM_4
100
AcDbLine
 10
8471.424598
 20
-2721.367375
 30
0.0
 11
8475.155619
 21
-2718.823497
 31
0.0
  0
LINE
  5
40C
100
AcDbEntity
  8
AM_4
100
AcDbLine
 10
8379.716903
 20
-2650.412255
 30
0.0
 11
8379.716903
 21
-2650.412255
 31
0.0
  0
LINE
  5
40D
100
AcDbEntity
  8
AM_4
100
AcDbLine
 10
8377.648255
 20
-2650.673166
 30
0.0
 11
8379.716903
 21
-2650.412255
 31
0.0
  0
LINE
  5
40E
100
AcDbEntity
  8
AM_4
100
AcDbLine
 10
8375.821881
 20
-2651.194987
 30
0.0
 11
8377.648255
 21
-2650.673166
 31
0.0
  0
LINE
  5
40F
100
AcDbEntity
  8
AM_4
100
AcDbLine
 10
8373.995508
 20
-2652.238629
 30
0.0
 11
8375.821881
 21
-2651.194987
 31
0.0
  0
LINE
  5
410
100
AcDbEntity
  8
AM_4
100
AcDbLine
 10
8379.716903
 20
-2649.126339
 30
0.0
 11
8379.716903
 21
-2651.698172
 31
0.0
  0
LINE
  5
411
100
AcDbEntity
  8
AM_4
100
AcDbLine
 10
8379.716903
 20
-2649.126339
 30
0.0
 11
8379.716903
 21
-2649.126339
 31
0.0
  0
LINE
  5
412
100
AcDbEntity
  8
AM_4
100
AcDbLine
 10
8378.822353
 20
-2651.735445
 30
0.0
 11
8379.269628
 21
-2651.698172
 31
0.0
  0
LINE
  5
413
100
AcDbEntity
  8
AM_4
100
AcDbLine
 10
8378.375077
 20
-2651.791354
 30
0.0
 11
8378.822353
 21
-2651.735445
 31
0.0
  0
LINE
  5
414
100
AcDbEntity
  8
AM_4
100
AcDbLine
 10
8377.927802
 20
-2651.884536
 30
0.0
 11
8378.375077
 21
-2651.791354
 31
0.0
  0
LINE
  5
415
100
AcDbEntity
  8
AM_4
100
AcDbLine
 10
8377.499164
 20
-2651.977719
 30
0.0
 11
8377.927802
 21
-2651.884536
 31
0.0
  0
LINE
  5
416
100
AcDbEntity
  8
AM_4
100
AcDbLine
 10
8377.070525
 20
-2652.108174
 30
0.0
 11
8377.499164
 21
-2651.977719
 31
0.0
  0
LINE
  5
417
100
AcDbEntity
  8
AM_4
100
AcDbLine
 10
8376.25052
 20
-2652.406357
 30
0.0
 11
8377.070525
 21
-2652.108174
 31
0.0
  0
LINE
  5
418
100
AcDbEntity
  8
AM_4
100
AcDbLine
 10
8372.392771
 20
-2651.80999
 30
0.0
 11
8371.964133
 21
-2652.164083
 31
0.0
  0
LINE
  5
419
100
AcDbEntity
  8
AM_4
100
AcDbLine
 10
8372.840047
 20
-2651.455898
 30
0.0
 11
8372.392771
 21
-2651.80999
 31
0.0
  0
LINE
  5
41A
100
AcDbEntity
  8
AM_4
100
AcDbLine
 10
8373.287322
 20
-2651.139078
 30
0.0
 11
8372.840047
 21
-2651.455898
 31
0.0
  0
LINE
  5
41B
100
AcDbEntity
  8
AM_4
100
AcDbLine
 10
8373.753234
 20
-2650.822258
 30
0.0
 11
8373.287322
 21
-2651.139078
 31
0.0
  0
LINE
  5
41C
100
AcDbEntity
  8
AM_4
100
AcDbLine
 10
8374.237782
 20
-2650.542711
 30
0.0
 11
8373.753234
 21
-2650.822258
 31
0.0
  0
LINE
  5
41D
100
AcDbEntity
  8
AM_4
100
AcDbLine
 10
8374.740966
 20
-2650.2818
 30
0.0
 11
8374.237782
 21
-2650.542711
 31
0.0
  0
LINE
  5
41E
100
AcDbEntity
  8
AM_4
100
AcDbLine
 10
8375.244151
 20
-2650.058163
 30
0.0
 11
8374.740966
 21
-2650.2818
 31
0.0
  0
LINE
  5
41F
100
AcDbEntity
  8
AM_4
100
AcDbLine
 10
8375.765972
 20
-2649.853161
 30
0.0
 11
8375.244151
 21
-2650.058163
 31
0.0
  0
LINE
  5
420
100
AcDbEntity
  8
AM_4
100
AcDbLine
 10
8376.30643
 20
-2649.666797
 30
0.0
 11
8375.765972
 21
-2649.853161
 31
0.0
  0
LINE
  5
421
100
AcDbEntity
  8
AM_4
100
AcDbLine
 10
8376.846887
 20
-2649.499069
 30
0.0
 11
8376.30643
 21
-2649.666797
 31
0.0
  0
LINE
  5
422
100
AcDbEntity
  8
AM_4
100
AcDbLine
 10
8377.405981
 20
-2649.368613
 30
0.0
 11
8376.846887
 21
-2649.499069
 31
0.0
  0
LINE
  5
423
100
AcDbEntity
  8
AM_4
100
AcDbLine
 10
8377.983712
 20
-2649.275431
 30
0.0
 11
8377.405981
 21
-2649.368613
 31
0.0
  0
LINE
  5
424
100
AcDbEntity
  8
AM_4
100
AcDbLine
 10
8378.561442
 20
-2649.200885
 30
0.0
 11
8377.983712
 21
-2649.275431
 31
0.0
  0
LINE
  5
425
100
AcDbEntity
  8
AM_4
100
AcDbLine
 10
8379.139173
 20
-2649.144976
 30
0.0
 11
8378.561442
 21
-2649.200885
 31
0.0
  0
LINE
  5
426
100
AcDbEntity
  8
AM_4
100
AcDbLine
 10
8379.716903
 20
-2649.126339
 30
0.0
 11
8379.139173
 21
-2649.144976
 31
0.0
  0
LINE
  5
427
100
AcDbEntity
  8
AM_4
100
AcDbLine
 10
8660.959833
 20
-2652.238629
 30
0.0
 11
8662.525296
 21
-2653.412727
 31
0.0
  0
LINE
  5
428
100
AcDbEntity
  8
AM_4
100
AcDbLine
 10
8658.76073
 20
-2652.406357
 30
0.0
 11
8659.152096
 21
-2652.592722
 31
0.0
  0
LINE
  5
429
100
AcDbEntity
  8
AM_4
100
AcDbLine
 10
8663.438483
 20
-2652.555449
 30
0.0
 11
8663.047117
 21
-2652.18272
 31
0.0
  0
ARC
  5
42A
100
AcDbEntity
  8
AM_4
100
AcDbCircle
 10
8655.238437
 20
-2660.699585
 30
0.0
 40
9.201442
100
AcDbArc
 50
0.0
 51
90.0
  0
ARC
  5
42B
100
AcDbEntity
  8
AM_4
100
AcDbCircle
 10
8655.238437
 20
-2660.699585
 30
0.0
 40
11.573246
100
AcDbArc
 50
0.0
 51
90.0
  0
ARC
  5
42C
100
AcDbEntity
  8
AM_4
100
AcDbCircle
 10
8655.238437
 20
-2660.699585
 30
0.0
 40
9.001414
100
AcDbArc
 50
0.0
 51
90.0
  0
LINE
  5
42D
100
AcDbEntity
  8
AM_4
100
AcDbLine
 10
8631.6889
 20
-2703.075682
 30
0.0
 11
8630.840941
 21
-2705.280376
 31
0.0
  0
LINE
  5
42E
100
AcDbEntity
  8
AM_4
100
AcDbLine
 10
8632.367267
 20
-2699.344661
 30
0.0
 11
8631.6889
 21
-2703.075682
 31
0.0
  0
LINE
  5
42F
100
AcDbEntity
  8
AM_4
100
AcDbLine
 10
8632.367267
 20
-2699.344661
 30
0.0
 11
8632.367267
 21
-2686.310316
 31
0.0
  0
LINE
  5
430
100
AcDbEntity
  8
AM_4
100
AcDbLine
 10
8630.840941
 20
-2705.280376
 30
0.0
 11
8629.484206
 21
-2707.48507
 31
0.0
  0
LINE
  5
431
100
AcDbEntity
  8
AM_4
100
AcDbLine
 10
8626.601144
 20
-2711.724867
 30
0.0
 11
8627.957879
 21
-2712.572826
 31
0.0
  0
LINE
  5
432
100
AcDbEntity
  8
AM_4
100
AcDbLine
 10
8625.438229
 20
-2711.046499
 30
0.0
 11
8626.601144
 21
-2711.724867
 31
0.0
  0
LINE
  5
433
100
AcDbEntity
  8
AM_4
100
AcDbLine
 10
8627.788287
 20
-2709.520172
 30
0.0
 11
8625.438229
 21
-2711.046499
 31
0.0
  0
LINE
  5
434
100
AcDbEntity
  8
AM_4
100
AcDbLine
 10
8629.484206
 20
-2707.48507
 30
0.0
 11
8627.788287
 21
-2709.520172
 31
0.0
  0
LINE
  5
435
100
AcDbEntity
  8
AM_4
100
AcDbLine
 10
8630.840941
 20
-2715.795071
 30
0.0
 11
8632.028084
 21
-2718.14513
 31
0.0
  0
LINE
  5
436
100
AcDbEntity
  8
AM_4
100
AcDbLine
 10
8629.314614
 20
-2713.929561
 30
0.0
 11
8630.840941
 21
-2715.795071
 31
0.0
  0
LINE
  5
437
100
AcDbEntity
  8
AM_4
100
AcDbLine
 10
8627.957879
 20
-2712.572826
 30
0.0
 11
8629.314614
 21
-2713.929561
 31
0.0
  0
LINE
  5
438
100
AcDbEntity
  8
AM_4
100
AcDbLine
 10
8633.384818
 20
-2724.928804
 30
0.0
 11
8633.384818
 21
-2739.174519
 31
0.0
  0
LINE
  5
439
100
AcDbEntity
  8
AM_4
100
AcDbLine
 10
8633.045635
 20
-2721.197783
 30
0.0
 11
8633.384818
 21
-2724.928804
 31
0.0
  0
LINE
  5
43A
100
AcDbEntity
  8
AM_4
100
AcDbLine
 10
8632.028084
 20
-2718.14513
 30
0.0
 11
8633.045635
 21
-2721.197783
 31
0.0
  0
LINE
  5
43B
100
AcDbEntity
  8
AM_4
100
AcDbLine
 10
8590.017759
 20
-2706.467519
 30
0.0
 11
8589.000208
 21
-2704.093233
 31
0.0
  0
LINE
  5
43C
100
AcDbEntity
  8
AM_4
100
AcDbLine
 10
8591.374493
 20
-2708.163438
 30
0.0
 11
8590.017759
 21
-2706.467519
 31
0.0
  0
LINE
  5
43D
100
AcDbEntity
  8
AM_4
100
AcDbLine
 10
8592.731228
 20
-2709.520172
 30
0.0
 11
8591.374493
 21
-2708.163438
 31
0.0
  0
LINE
  5
43E
100
AcDbEntity
  8
AM_4
100
AcDbLine
 10
8593.748779
 20
-2710.368132
 30
0.0
 11
8592.731228
 21
-2709.520172
 31
0.0
  0
LINE
  5
43F
100
AcDbEntity
  8
AM_4
100
AcDbLine
 10
8594.935922
 20
-2711.046499
 30
0.0
 11
8593.748779
 21
-2710.368132
 31
0.0
  0
LINE
  5
440
100
AcDbEntity
  8
AM_4
100
AcDbLine
 10
8593.409596
 20
-2711.724867
 30
0.0
 11
8594.935922
 21
-2711.046499
 31
0.0
  0
LINE
  5
441
100
AcDbEntity
  8
AM_4
100
AcDbLine
 10
8592.222453
 20
-2712.572826
 30
0.0
 11
8593.409596
 21
-2711.724867
 31
0.0
  0
LINE
  5
442
100
AcDbEntity
  8
AM_4
100
AcDbLine
 10
8606.443941
 20
-2719.501864
 30
0.0
 11
8605.256798
 21
-2720.858599
 31
0.0
  0
LINE
  5
443
100
AcDbEntity
  8
AM_4
100
AcDbLine
 10
8608.13986
 20
-2718.653905
 30
0.0
 11
8606.443941
 21
-2719.501864
 31
0.0
  0
LINE
  5
444
100
AcDbEntity
  8
AM_4
100
AcDbLine
 10
8610.514146
 20
-2718.314721
 30
0.0
 11
8608.13986
 21
-2718.653905
 31
0.0
  0
LINE
  5
445
100
AcDbEntity
  8
AM_4
100
AcDbLine
 10
8612.71884
 20
-2718.653905
 30
0.0
 11
8610.514146
 21
-2718.314721
 31
0.0
  0
LINE
  5
446
100
AcDbEntity
  8
AM_4
100
AcDbLine
 10
8614.414758
 20
-2719.501864
 30
0.0
 11
8612.71884
 21
-2718.653905
 31
0.0
  0
LINE
  5
447
100
AcDbEntity
  8
AM_4
100
AcDbLine
 10
8615.432309
 20
-2720.858599
 30
0.0
 11
8614.414758
 21
-2719.501864
 31
0.0
  0
LINE
  5
448
100
AcDbEntity
  8
AM_4
100
AcDbLine
 10
8587.982656
 20
-2719.332273
 30
0.0
 11
8588.830616
 21
-2716.982214
 31
0.0
  0
LINE
  5
449
100
AcDbEntity
  8
AM_4
100
AcDbLine
 10
8581.707758
 20
-2718.823497
 30
0.0
 11
8581.707758
 21
-2718.823497
 31
0.0
  0
LINE
  5
44A
100
AcDbEntity
  8
AM_4
100
AcDbLine
 10
8588.830616
 20
-2716.982214
 30
0.0
 11
8590.356942
 21
-2714.607928
 31
0.0
  0
LINE
  5
44B
100
AcDbEntity
  8
AM_4
100
AcDbLine
 10
8590.356942
 20
-2714.607928
 30
0.0
 11
8592.222453
 21
-2712.572826
 31
0.0
  0
LINE
  5
44C
100
AcDbEntity
  8
AM_4
100
AcDbLine
 10
8616.44986
 20
-2695.952824
 30
0.0
 11
8616.44986
 21
-2686.310316
 31
0.0
  0
LINE
  5
44D
100
AcDbEntity
  8
AM_4
100
AcDbLine
 10
8616.280269
 20
-2697.139967
 30
0.0
 11
8616.44986
 21
-2695.952824
 31
0.0
  0
LINE
  5
44E
100
AcDbEntity
  8
AM_4
100
AcDbLine
 10
8615.601901
 20
-2699.514253
 30
0.0
 11
8616.280269
 21
-2697.139967
 31
0.0
  0
LINE
  5
44F
100
AcDbEntity
  8
AM_4
100
AcDbLine
 10
8614.923534
 20
-2700.701396
 30
0.0
 11
8615.601901
 21
-2699.514253
 31
0.0
  0
LINE
  5
450
100
AcDbEntity
  8
AM_4
100
AcDbLine
 10
8613.736391
 20
-2701.888539
 30
0.0
 11
8614.923534
 21
-2700.701396
 31
0.0
  0
LINE
  5
451
100
AcDbEntity
  8
AM_4
100
AcDbLine
 10
8612.040472
 20
-2702.736498
 30
0.0
 11
8613.736391
 21
-2701.888539
 31
0.0
  0
LINE
  5
452
100
AcDbEntity
  8
AM_4
100
AcDbLine
 10
8610.00537
 20
-2702.90609
 30
0.0
 11
8612.040472
 21
-2702.736498
 31
0.0
  0
LINE
  5
453
100
AcDbEntity
  8
AM_4
100
AcDbLine
 10
8607.970268
 20
-2702.736498
 30
0.0
 11
8610.00537
 21
-2702.90609
 31
0.0
  0
LINE
  5
454
100
AcDbEntity
  8
AM_4
100
AcDbLine
 10
8606.274349
 20
-2701.888539
 30
0.0
 11
8607.970268
 21
-2702.736498
 31
0.0
  0
LINE
  5
455
100
AcDbEntity
  8
AM_4
100
AcDbLine
 10
8605.256798
 20
-2700.870988
 30
0.0
 11
8606.274349
 21
-2701.888539
 31
0.0
  0
LINE
  5
456
100
AcDbEntity
  8
AM_4
100
AcDbLine
 10
8604.578431
 20
-2699.514253
 30
0.0
 11
8605.256798
 21
-2700.870988
 31
0.0
  0
LINE
  5
457
100
AcDbEntity
  8
AM_4
100
AcDbLine
 10
8604.069655
 20
-2697.139967
 30
0.0
 11
8604.578431
 21
-2699.514253
 31
0.0
  0
LINE
  5
458
100
AcDbEntity
  8
AM_4
100
AcDbLine
 10
8604.069655
 20
-2697.139967
 30
0.0
 11
8604.069655
 21
-2686.310316
 31
0.0
  0
LINE
  5
459
100
AcDbEntity
  8
AM_4
100
AcDbLine
 10
8589.000208
 20
-2704.093233
 30
0.0
 11
8588.152248
 21
-2701.379763
 31
0.0
  0
LINE
  5
45A
100
AcDbEntity
  8
AM_4
100
AcDbLine
 10
8587.813065
 20
-2686.310316
 30
0.0
 11
8587.813065
 21
-2686.310316
 31
0.0
  0
LINE
  5
45B
100
AcDbEntity
  8
AM_4
100
AcDbLine
 10
8587.813065
 20
-2697.818335
 30
0.0
 11
8587.813065
 21
-2686.310316
 31
0.0
  0
LINE
  5
45C
100
AcDbEntity
  8
AM_4
100
AcDbLine
 10
8588.152248
 20
-2701.379763
 30
0.0
 11
8587.813065
 21
-2697.818335
 31
0.0
  0
LINE
  5
45D
100
AcDbEntity
  8
AM_4
100
AcDbLine
 10
8582.894901
 20
-2699.514253
 30
0.0
 11
8584.421228
 21
-2702.90609
 31
0.0
  0
LINE
  5
45E
100
AcDbEntity
  8
AM_4
100
AcDbLine
 10
8580.690207
 20
-2696.122416
 30
0.0
 11
8582.894901
 21
-2699.514253
 31
0.0
  0
LINE
  5
45F
100
AcDbEntity
  8
AM_4
100
AcDbLine
 10
8587.813065
 20
-2686.310316
 30
0.0
 11
8604.069655
 21
-2686.310316
 31
0.0
  0
LINE
  5
460
100
AcDbEntity
  8
AM_4
100
AcDbLine
 10
8562.90729
 20
-2700.023029
 30
0.0
 11
8561.041779
 21
-2699.514253
 31
0.0
  0
LINE
  5
461
100
AcDbEntity
  8
AM_4
100
AcDbLine
 10
8564.264024
 20
-2700.701396
 30
0.0
 11
8562.90729
 21
-2700.023029
 31
0.0
  0
LINE
  5
462
100
AcDbEntity
  8
AM_4
100
AcDbLine
 10
8565.451167
 20
-2701.379763
 30
0.0
 11
8564.264024
 21
-2700.701396
 31
0.0
  0
LINE
  5
463
100
AcDbEntity
  8
AM_4
100
AcDbLine
 10
8574.948311
 20
-2690.550112
 30
0.0
 11
8578.146329
 21
-2693.263582
 31
0.0
  0
LINE
  5
464
100
AcDbEntity
  8
AM_4
100
AcDbLine
 10
8571.386882
 20
-2688.345418
 30
0.0
 11
8574.948311
 21
-2690.550112
 31
0.0
  0
LINE
  5
465
100
AcDbEntity
  8
AM_4
100
AcDbLine
 10
8567.48627
 20
-2686.6495
 30
0.0
 11
8571.386882
 21
-2688.345418
 31
0.0
  0
LINE
  5
466
100
AcDbEntity
  8
AM_4
100
AcDbLine
 10
8563.246473
 20
-2685.462357
 30
0.0
 11
8567.48627
 21
-2686.6495
 31
0.0
  0
LINE
  5
467
100
AcDbEntity
  8
AM_4
100
AcDbLine
 10
8554.088513
 20
-2700.192621
 30
0.0
 11
8551.738455
 21
-2701.888539
 31
0.0
  0
LINE
  5
468
100
AcDbEntity
  8
AM_4
100
AcDbLine
 10
8556.632391
 20
-2699.344661
 30
0.0
 11
8554.088513
 21
-2700.192621
 31
0.0
  0
LINE
  5
469
100
AcDbEntity
  8
AM_4
100
AcDbLine
 10
8559.006677
 20
-2699.175069
 30
0.0
 11
8556.632391
 21
-2699.344661
 31
0.0
  0
LINE
  5
46A
100
AcDbEntity
  8
AM_4
100
AcDbLine
 10
8555.61484
 20
-2685.292765
 30
0.0
 11
8558.837085
 21
-2685.123173
 31
0.0
  0
LINE
  5
46B
100
AcDbEntity
  8
AM_4
100
AcDbLine
 10
8552.756006
 20
-2685.80154
 30
0.0
 11
8555.61484
 21
-2685.292765
 31
0.0
  0
LINE
  5
46C
100
AcDbEntity
  8
AM_4
100
AcDbLine
 10
8561.041779
 20
-2699.514253
 30
0.0
 11
8559.006677
 21
-2699.175069
 31
0.0
  0
LINE
  5
46D
100
AcDbEntity
  8
AM_4
100
AcDbLine
 10
8558.837085
 20
-2685.123173
 30
0.0
 11
8563.246473
 21
-2685.462357
 31
0.0
  0
LINE
  5
46E
100
AcDbEntity
  8
AM_4
100
AcDbLine
 10
8578.146329
 20
-2693.263582
 30
0.0
 11
8580.690207
 21
-2696.122416
 31
0.0
  0
LINE
  5
46F
100
AcDbEntity
  8
AM_4
100
AcDbLine
 10
8603.730471
 20
-2726.285539
 30
0.0
 11
8603.730471
 21
-2739.174519
 31
0.0
  0
LINE
  5
470
100
AcDbEntity
  8
AM_4
100
AcDbLine
 10
8603.900063
 20
-2724.928804
 30
0.0
 11
8603.730471
 21
-2726.285539
 31
0.0
  0
LINE
  5
471
100
AcDbEntity
  8
AM_4
100
AcDbLine
 10
8604.069655
 20
-2723.741661
 30
0.0
 11
8603.900063
 21
-2724.928804
 31
0.0
  0
LINE
  5
472
100
AcDbEntity
  8
AM_4
100
AcDbLine
 10
8604.408839
 20
-2722.215334
 30
0.0
 11
8604.069655
 21
-2723.741661
 31
0.0
  0
LINE
  5
473
100
AcDbEntity
  8
AM_4
100
AcDbLine
 10
8616.44986
 20
-2723.741661
 30
0.0
 11
8616.110677
 21
-2722.384926
 31
0.0
  0
LINE
  5
474
100
AcDbEntity
  8
AM_4
100
AcDbLine
 10
8616.619452
 20
-2725.098396
 30
0.0
 11
8616.44986
 21
-2723.741661
 31
0.0
  0
LINE
  5
475
100
AcDbEntity
  8
AM_4
100
AcDbLine
 10
8616.619452
 20
-2739.174519
 30
0.0
 11
8616.619452
 21
-2725.098396
 31
0.0
  0
LINE
  5
476
100
AcDbEntity
  8
AM_4
100
AcDbLine
 10
8586.965105
 20
-2723.402477
 30
0.0
 11
8587.304289
 21
-2721.536967
 31
0.0
  0
LINE
  5
477
100
AcDbEntity
  8
AM_4
100
AcDbLine
 10
8586.795513
 20
-2725.098396
 30
0.0
 11
8586.965105
 21
-2723.402477
 31
0.0
  0
LINE
  5
478
100
AcDbEntity
  8
AM_4
100
AcDbLine
 10
8586.795513
 20
-2739.174519
 30
0.0
 11
8586.795513
 21
-2725.098396
 31
0.0
  0
LINE
  5
479
100
AcDbEntity
  8
AM_4
100
AcDbLine
 10
8581.707758
 20
-2735.443499
 30
0.0
 11
8580.520615
 21
-2736.121866
 31
0.0
  0
LINE
  5
47A
100
AcDbEntity
  8
AM_4
100
AcDbLine
 10
8603.730471
 20
-2739.174519
 30
0.0
 11
8586.795513
 21
-2739.174519
 31
0.0
  0
LINE
  5
47B
100
AcDbEntity
  8
AM_4
100
AcDbLine
 10
8574.269944
 20
-2723.402477
 30
0.0
 11
8577.976737
 21
-2721.367375
 31
0.0
  0
LINE
  5
47C
100
AcDbEntity
  8
AM_4
100
AcDbLine
 10
8570.030147
 20
-2724.928804
 30
0.0
 11
8574.269944
 21
-2723.402477
 31
0.0
  0
LINE
  5
47D
100
AcDbEntity
  8
AM_4
100
AcDbLine
 10
8567.995045
 20
-2725.437579
 30
0.0
 11
8570.030147
 21
-2724.928804
 31
0.0
  0
LINE
  5
47E
100
AcDbEntity
  8
AM_4
100
AcDbLine
 10
8565.959943
 20
-2725.607171
 30
0.0
 11
8567.995045
 21
-2725.437579
 31
0.0
  0
LINE
  5
47F
100
AcDbEntity
  8
AM_4
100
AcDbLine
 10
8562.568106
 20
-2725.607171
 30
0.0
 11
8565.959943
 21
-2725.607171
 31
0.0
  0
LINE
  5
480
100
AcDbEntity
  8
AM_4
100
AcDbLine
 10
8563.585657
 20
-2740.022479
 30
0.0
 11
8560.702595
 21
-2740.022479
 31
0.0
  0
LINE
  5
481
100
AcDbEntity
  8
AM_4
100
AcDbLine
 10
8567.48627
 20
-2739.852887
 30
0.0
 11
8563.585657
 21
-2740.022479
 31
0.0
  0
LINE
  5
482
100
AcDbEntity
  8
AM_4
100
AcDbLine
 10
8571.047698
 20
-2739.344111
 30
0.0
 11
8567.48627
 21
-2739.852887
 31
0.0
  0
LINE
  5
483
100
AcDbEntity
  8
AM_4
100
AcDbLine
 10
8574.269944
 20
-2738.665744
 30
0.0
 11
8571.047698
 21
-2739.344111
 31
0.0
  0
LINE
  5
484
100
AcDbEntity
  8
AM_4
100
AcDbLine
 10
8576.813822
 20
-2737.817785
 30
0.0
 11
8574.269944
 21
-2738.665744
 31
0.0
  0
LINE
  5
485
100
AcDbEntity
  8
AM_4
100
AcDbLine
 10
8559.176269
 20
-2724.928804
 30
0.0
 11
8560.19382
 21
-2725.098396
 31
0.0
  0
LINE
  5
486
100
AcDbEntity
  8
AM_4
100
AcDbLine
 10
8555.106064
 20
-2739.004928
 30
0.0
 11
8552.24723
 21
-2738.32656
 31
0.0
  0
LINE
  5
487
100
AcDbEntity
  8
AM_4
100
AcDbLine
 10
8557.819534
 20
-2739.683295
 30
0.0
 11
8555.106064
 21
-2739.004928
 31
0.0
  0
LINE
  5
488
100
AcDbEntity
  8
AM_4
100
AcDbLine
 10
8560.19382
 20
-2725.098396
 30
0.0
 11
8562.568106
 21
-2725.607171
 31
0.0
  0
LINE
  5
489
100
AcDbEntity
  8
AM_4
100
AcDbLine
 10
8560.702595
 20
-2740.022479
 30
0.0
 11
8557.819534
 21
-2739.683295
 31
0.0
  0
LINE
  5
48A
100
AcDbEntity
  8
AM_4
100
AcDbLine
 10
8580.520615
 20
-2736.121866
 30
0.0
 11
8576.813822
 21
-2737.817785
 31
0.0
  0
LINE
  5
48B
100
AcDbEntity
  8
AM_4
100
AcDbLine
 10
8584.421228
 20
-2702.90609
 30
0.0
 11
8559.176269
 21
-2724.928804
 31
0.0
  0
LINE
  5
48C
100
AcDbEntity
  8
AM_4
100
AcDbLine
 10
8577.976737
 20
-2721.367375
 30
0.0
 11
8581.707758
 21
-2718.823497
 31
0.0
  0
LINE
  5
48D
100
AcDbEntity
  8
AM_4
100
AcDbLine
 10
8605.256798
 20
-2720.858599
 30
0.0
 11
8604.408839
 21
-2722.215334
 31
0.0
  0
LINE
  5
48E
100
AcDbEntity
  8
AM_4
100
AcDbLine
 10
8616.110677
 20
-2722.384926
 30
0.0
 11
8615.432309
 21
-2720.858599
 31
0.0
  0
LINE
  5
48F
100
AcDbEntity
  8
AM_4
100
AcDbLine
 10
8587.304289
 20
-2721.536967
 30
0.0
 11
8587.982656
 21
-2719.332273
 31
0.0
  0
LINE
  5
490
100
AcDbEntity
  8
AM_4
100
AcDbLine
 10
8581.707758
 20
-2718.823497
 30
0.0
 11
8581.707758
 21
-2735.443499
 31
0.0
  0
LINE
  5
491
100
AcDbEntity
  8
AM_4
100
AcDbLine
 10
8616.44986
 20
-2686.310316
 30
0.0
 11
8632.367267
 21
-2686.310316
 31
0.0
  0
LINE
  5
492
100
AcDbEntity
  8
AM_4
100
AcDbLine
 10
8633.384818
 20
-2739.174519
 30
0.0
 11
8616.619452
 21
-2739.174519
 31
0.0
  0
LINE
  5
493
100
AcDbEntity
  8
AM_4
100
AcDbLine
 10
8664.743036
 20
-2656.674108
 30
0.0
 11
8665.395312
 21
-2658.630938
 31
0.0
  0
LINE
  5
494
100
AcDbEntity
  8
AM_4
100
AcDbLine
 10
8664.836218
 20
-2654.270004
 30
0.0
 11
8664.519398
 21
-2653.822729
 31
0.0
  0
LINE
  5
495
100
AcDbEntity
  8
AM_4
100
AcDbLine
 10
8665.153038
 20
-2654.754552
 30
0.0
 11
8664.836218
 21
-2654.270004
 31
0.0
  0
LINE
  5
496
100
AcDbEntity
  8
AM_4
100
AcDbLine
 10
8665.153038
 20
-2654.754552
 30
0.0
 11
8665.674859
 21
-2655.723649
 31
0.0
  0
LINE
  5
497
100
AcDbEntity
  8
AM_4
100
AcDbLine
 10
8665.898497
 20
-2656.24547
 30
0.0
 11
8665.674859
 21
-2655.723649
 31
0.0
  0
LINE
  5
498
100
AcDbEntity
  8
AM_4
100
AcDbLine
 10
8666.103498
 20
-2656.767291
 30
0.0
 11
8665.898497
 21
-2656.24547
 31
0.0
  0
LINE
  5
499
100
AcDbEntity
  8
AM_4
100
AcDbLine
 10
8666.289863
 20
-2657.307748
 30
0.0
 11
8666.103498
 21
-2656.767291
 31
0.0
  0
LINE
  5
49A
100
AcDbEntity
  8
AM_4
100
AcDbLine
 10
8666.438954
 20
-2657.848206
 30
0.0
 11
8666.289863
 21
-2657.307748
 31
0.0
  0
LINE
  5
49B
100
AcDbEntity
  8
AM_4
100
AcDbLine
 10
8666.56941
 20
-2658.4073
 30
0.0
 11
8666.438954
 21
-2657.848206
 31
0.0
  0
LINE
  5
49C
100
AcDbEntity
  8
AM_4
100
AcDbLine
 10
8666.681228
 20
-2658.966394
 30
0.0
 11
8666.56941
 21
-2658.4073
 31
0.0
  0
LINE
  5
49D
100
AcDbEntity
  8
AM_4
100
AcDbLine
 10
8666.681228
 20
-2658.966394
 30
0.0
 11
8666.793047
 21
-2660.121855
 31
0.0
  0
LINE
  5
49E
100
AcDbEntity
  8
AM_4
100
AcDbLine
 10
8662.525296
 20
-2653.412727
 30
0.0
 11
8663.829849
 21
-2654.97819
 31
0.0
  0
LINE
  5
49F
100
AcDbEntity
  8
AM_4
100
AcDbLine
 10
8664.146669
 20
-2659.35776
 30
0.0
 11
8664.202578
 21
-2659.786399
 31
0.0
  0
LINE
  5
4A0
100
AcDbEntity
  8
AM_4
100
AcDbLine
 10
8664.072123
 20
-2658.910485
 30
0.0
 11
8664.146669
 21
-2659.35776
 31
0.0
  0
LINE
  5
4A1
100
AcDbEntity
  8
AM_4
100
AcDbLine
 10
8663.960304
 20
-2658.481846
 30
0.0
 11
8664.072123
 21
-2658.910485
 31
0.0
  0
LINE
  5
4A2
100
AcDbEntity
  8
AM_4
100
AcDbLine
 10
8663.848485
 20
-2658.053207
 30
0.0
 11
8663.960304
 21
-2658.481846
 31
0.0
  0
LINE
  5
4A3
100
AcDbEntity
  8
AM_4
100
AcDbLine
 10
8663.550302
 20
-2657.233203
 30
0.0
 11
8663.848485
 21
-2658.053207
 31
0.0
  0
LINE
  5
4A4
100
AcDbEntity
  8
AM_4
100
AcDbLine
 10
8663.363937
 20
-2656.8232
 30
0.0
 11
8663.550302
 21
-2657.233203
 31
0.0
  0
LINE
  5
4A5
100
AcDbEntity
  8
AM_4
100
AcDbLine
 10
8663.158936
 20
-2656.450471
 30
0.0
 11
8663.363937
 21
-2656.8232
 31
0.0
  0
LINE
  5
4A6
100
AcDbEntity
  8
AM_4
100
AcDbLine
 10
8662.953935
 20
-2656.059105
 30
0.0
 11
8663.158936
 21
-2656.450471
 31
0.0
  0
LINE
  5
4A7
100
AcDbEntity
  8
AM_4
100
AcDbLine
 10
8662.469387
 20
-2655.350919
 30
0.0
 11
8662.953935
 21
-2656.059105
 31
0.0
  0
LINE
  5
4A8
100
AcDbEntity
  8
AM_4
100
AcDbLine
 10
8662.208476
 20
-2654.996826
 30
0.0
 11
8662.469387
 21
-2655.350919
 31
0.0
  0
LINE
  5
4A9
100
AcDbEntity
  8
AM_4
100
AcDbLine
 10
8661.910293
 20
-2654.680006
 30
0.0
 11
8662.208476
 21
-2654.996826
 31
0.0
  0
LINE
  5
4AA
100
AcDbEntity
  8
AM_4
100
AcDbLine
 10
8661.630746
 20
-2654.363187
 30
0.0
 11
8661.910293
 21
-2654.680006
 31
0.0
  0
LINE
  5
4AB
100
AcDbEntity
  8
AM_4
100
AcDbLine
 10
8661.313926
 20
-2654.065003
 30
0.0
 11
8661.630746
 21
-2654.363187
 31
0.0
  0
LINE
  5
4AC
100
AcDbEntity
  8
AM_4
100
AcDbLine
 10
8660.978469
 20
-2653.76682
 30
0.0
 11
8661.313926
 21
-2654.065003
 31
0.0
  0
LINE
  5
4AD
100
AcDbEntity
  8
AM_4
100
AcDbLine
 10
8660.643013
 20
-2653.505909
 30
0.0
 11
8660.978469
 21
-2653.76682
 31
0.0
  0
LINE
  5
4AE
100
AcDbEntity
  8
AM_4
100
AcDbLine
 10
8660.28892
 20
-2653.244998
 30
0.0
 11
8660.643013
 21
-2653.505909
 31
0.0
  0
LINE
  5
4AF
100
AcDbEntity
  8
AM_4
100
AcDbLine
 10
8659.543461
 20
-2652.797723
 30
0.0
 11
8660.28892
 21
-2653.244998
 31
0.0
  0
LINE
  5
4B0
100
AcDbEntity
  8
AM_4
100
AcDbLine
 10
8659.152096
 20
-2652.592722
 30
0.0
 11
8659.543461
 21
-2652.797723
 31
0.0
  0
LINE
  5
4B1
100
AcDbEntity
  8
AM_4
100
AcDbLine
 10
8663.438483
 20
-2652.555449
 30
0.0
 11
8664.183942
 21
-2653.375454
 31
0.0
  0
LINE
  5
4B2
100
AcDbEntity
  8
AM_4
100
AcDbLine
 10
8664.519398
 20
-2653.822729
 30
0.0
 11
8664.183942
 21
-2653.375454
 31
0.0
  0
LINE
  5
4B3
100
AcDbEntity
  8
AM_4
100
AcDbLine
 10
8663.829849
 20
-2654.97819
 30
0.0
 11
8664.743036
 21
-2656.674108
 31
0.0
  0
LINE
  5
4B4
100
AcDbEntity
  8
AM_4
100
AcDbLine
 10
8666.811684
 20
-2660.699585
 30
0.0
 11
8666.811684
 21
-2660.699585
 31
0.0
  0
LINE
  5
4B5
100
AcDbEntity
  8
AM_4
100
AcDbLine
 10
8664.239851
 20
-2660.699585
 30
0.0
 11
8666.811684
 21
-2660.699585
 31
0.0
  0
LINE
  5
4B6
100
AcDbEntity
  8
AM_4
100
AcDbLine
 10
8664.202578
 20
-2659.786399
 30
0.0
 11
8664.239851
 21
-2660.25231
 31
0.0
  0
LINE
  5
4B7
100
AcDbEntity
  8
AM_4
100
AcDbLine
 10
8665.395312
 20
-2658.630938
 30
0.0
 11
8665.525767
 21
-2660.699585
 31
0.0
  0
LINE
  5
4B8
100
AcDbEntity
  8
AM_4
100
AcDbLine
 10
8666.811684
 20
-2660.699585
 30
0.0
 11
8666.793047
 21
-2660.121855
 31
0.0
  0
LINE
  5
4B9
100
AcDbEntity
  8
AM_4
100
AcDbLine
 10
8665.525767
 20
-2750.508722
 30
0.0
 11
8665.395312
 21
-2752.57737
 31
0.0
  0
LINE
  5
4BA
100
AcDbEntity
  8
AM_4
100
AcDbLine
 10
8666.793047
 20
-2751.086452
 30
0.0
 11
8666.811684
 21
-2750.508722
 31
0.0
  0
LINE
  5
4BB
100
AcDbEntity
  8
AM_4
100
AcDbLine
 10
8665.395312
 20
-2752.57737
 30
0.0
 11
8664.743036
 21
-2754.403744
 31
0.0
  0
LINE
  5
4BC
100
AcDbEntity
  8
AM_4
100
AcDbLine
 10
8666.681228
 20
-2752.241913
 30
0.0
 11
8666.793047
 21
-2751.086452
 31
0.0
  0
LINE
  5
4BD
100
AcDbEntity
  8
AM_4
100
AcDbLine
 10
8666.56941
 20
-2752.801007
 30
0.0
 11
8666.681228
 21
-2752.241913
 31
0.0
  0
LINE
  5
4BE
100
AcDbEntity
  8
AM_4
100
AcDbLine
 10
8666.438954
 20
-2753.360101
 30
0.0
 11
8666.56941
 21
-2752.801007
 31
0.0
  0
LINE
  5
4BF
100
AcDbEntity
  8
AM_4
100
AcDbLine
 10
8666.289863
 20
-2753.900559
 30
0.0
 11
8666.438954
 21
-2753.360101
 31
0.0
  0
LINE
  5
4C0
100
AcDbEntity
  8
AM_4
100
AcDbLine
 10
8666.103498
 20
-2754.441017
 30
0.0
 11
8666.289863
 21
-2753.900559
 31
0.0
  0
LINE
  5
4C1
100
AcDbEntity
  8
AM_4
100
AcDbLine
 10
8665.898497
 20
-2754.962838
 30
0.0
 11
8666.103498
 21
-2754.441017
 31
0.0
  0
LINE
  5
4C2
100
AcDbEntity
  8
AM_4
100
AcDbLine
 10
8665.674859
 20
-2755.466022
 30
0.0
 11
8665.898497
 21
-2754.962838
 31
0.0
  0
LINE
  5
4C3
100
AcDbEntity
  8
AM_4
100
AcDbLine
 10
8665.413949
 20
-2755.95057
 30
0.0
 11
8665.674859
 21
-2755.466022
 31
0.0
  0
LINE
  5
4C4
100
AcDbEntity
  8
AM_4
100
AcDbLine
 10
8665.134402
 20
-2756.435119
 30
0.0
 11
8665.413949
 21
-2755.95057
 31
0.0
  0
LINE
  5
4C5
100
AcDbEntity
  8
AM_4
100
AcDbLine
 10
8664.836218
 20
-2756.90103
 30
0.0
 11
8665.134402
 21
-2756.435119
 31
0.0
  0
LINE
  5
4C6
100
AcDbEntity
  8
AM_4
100
AcDbLine
 10
8664.519398
 20
-2757.348305
 30
0.0
 11
8664.836218
 21
-2756.90103
 31
0.0
  0
LINE
  5
4C7
100
AcDbEntity
  8
AM_4
100
AcDbLine
 10
8666.811684
 20
-2750.508722
 30
0.0
 11
8666.811684
 21
-2750.508722
 31
0.0
  0
LINE
  5
4C8
100
AcDbEntity
  8
AM_4
100
AcDbLine
 10
8664.239851
 20
-2750.955997
 30
0.0
 11
8664.202578
 21
-2751.403272
 31
0.0
  0
LINE
  5
4C9
100
AcDbEntity
  8
AM_4
100
AcDbLine
 10
8657.307085
 20
-2760.535141
 30
0.0
 11
8655.238437
 21
-2760.665597
 31
0.0
  0
LINE
  5
4CA
100
AcDbEntity
  8
AM_4
100
AcDbLine
 10
8659.263914
 20
-2759.882865
 30
0.0
 11
8657.307085
 21
-2760.535141
 31
0.0
  0
LINE
  5
4CB
100
AcDbEntity
  8
AM_4
100
AcDbLine
 10
8660.959833
 20
-2758.969678
 30
0.0
 11
8659.263914
 21
-2759.882865
 31
0.0
  0
LINE
  5
4CC
100
AcDbEntity
  8
AM_4
100
AcDbLine
 10
8662.525296
 20
-2757.665125
 30
0.0
 11
8660.959833
 21
-2758.969678
 31
0.0
  0
LINE
  5
4CD
100
AcDbEntity
  8
AM_4
100
AcDbLine
 10
8663.829849
 20
-2756.230117
 30
0.0
 11
8662.525296
 21
-2757.665125
 31
0.0
  0
LINE
  5
4CE
100
AcDbEntity
  8
AM_4
100
AcDbLine
 10
8655.238437
 20
-2761.951513
 30
0.0
 11
8655.238437
 21
-2759.37968
 31
0.0
  0
LINE
  5
4CF
100
AcDbEntity
  8
AM_4
100
AcDbLine
 10
8655.238437
 20
-2761.951513
 30
0.0
 11
8655.238437
 21
-2761.951513
 31
0.0
  0
LINE
  5
4D0
100
AcDbEntity
  8
AM_4
100
AcDbLine
 10
8656.170261
 20
-2759.342407
 30
0.0
 11
8655.704349
 21
-2759.37968
 31
0.0
  0
LINE
  5
4D1
100
AcDbEntity
  8
AM_4
100
AcDbLine
 10
8656.617536
 20
-2759.286498
 30
0.0
 11
8656.170261
 21
-2759.342407
 31
0.0
  0
LINE
  5
4D2
100
AcDbEntity
  8
AM_4
100
AcDbLine
 10
8656.617536
 20
-2759.286498
 30
0.0
 11
8657.512086
 21
-2759.100133
 31
0.0
  0
LINE
  5
4D3
100
AcDbEntity
  8
AM_4
100
AcDbLine
 10
8657.940725
 20
-2758.988315
 30
0.0
 11
8657.512086
 21
-2759.100133
 31
0.0
  0
LINE
  5
4D4
100
AcDbEntity
  8
AM_4
100
AcDbLine
 10
8657.940725
 20
-2758.988315
 30
0.0
 11
8658.76073
 21
-2758.690131
 31
0.0
  0
LINE
  5
4D5
100
AcDbEntity
  8
AM_4
100
AcDbLine
 10
8659.170732
 20
-2758.503766
 30
0.0
 11
8658.76073
 21
-2758.690131
 31
0.0
  0
LINE
  5
4D6
100
AcDbEntity
  8
AM_4
100
AcDbLine
 10
8659.562098
 20
-2758.317402
 30
0.0
 11
8659.170732
 21
-2758.503766
 31
0.0
  0
LINE
  5
4D7
100
AcDbEntity
  8
AM_4
100
AcDbLine
 10
8659.934827
 20
-2758.093764
 30
0.0
 11
8659.562098
 21
-2758.317402
 31
0.0
  0
LINE
  5
4D8
100
AcDbEntity
  8
AM_4
100
AcDbLine
 10
8660.28892
 20
-2757.870127
 30
0.0
 11
8659.934827
 21
-2758.093764
 31
0.0
  0
LINE
  5
4D9
100
AcDbEntity
  8
AM_4
100
AcDbLine
 10
8660.28892
 20
-2757.870127
 30
0.0
 11
8660.997106
 21
-2757.348305
 31
0.0
  0
LINE
  5
4DA
100
AcDbEntity
  8
AM_4
100
AcDbLine
 10
8661.313926
 20
-2757.068758
 30
0.0
 11
8660.997106
 21
-2757.348305
 31
0.0
  0
LINE
  5
4DB
100
AcDbEntity
  8
AM_4
100
AcDbLine
 10
8661.630746
 20
-2756.770575
 30
0.0
 11
8661.313926
 21
-2757.068758
 31
0.0
  0
LINE
  5
4DC
100
AcDbEntity
  8
AM_4
100
AcDbLine
 10
8661.928929
 20
-2756.472392
 30
0.0
 11
8661.630746
 21
-2756.770575
 31
0.0
  0
LINE
  5
4DD
100
AcDbEntity
  8
AM_4
100
AcDbLine
 10
8662.208476
 20
-2756.155572
 30
0.0
 11
8661.928929
 21
-2756.472392
 31
0.0
  0
LINE
  5
4DE
100
AcDbEntity
  8
AM_4
100
AcDbLine
 10
8662.469387
 20
-2755.801479
 30
0.0
 11
8662.208476
 21
-2756.155572
 31
0.0
  0
LINE
  5
4DF
100
AcDbEntity
  8
AM_4
100
AcDbLine
 10
8662.730297
 20
-2755.466022
 30
0.0
 11
8662.469387
 21
-2755.801479
 31
0.0
  0
LINE
  5
4E0
100
AcDbEntity
  8
AM_4
100
AcDbLine
 10
8662.953935
 20
-2755.093293
 30
0.0
 11
8662.730297
 21
-2755.466022
 31
0.0
  0
LINE
  5
4E1
100
AcDbEntity
  8
AM_4
100
AcDbLine
 10
8663.177573
 20
-2754.7392
 30
0.0
 11
8662.953935
 21
-2755.093293
 31
0.0
  0
LINE
  5
4E2
100
AcDbEntity
  8
AM_4
100
AcDbLine
 10
8663.177573
 20
-2754.7392
 30
0.0
 11
8663.550302
 21
-2753.956468
 31
0.0
  0
LINE
  5
4E3
100
AcDbEntity
  8
AM_4
100
AcDbLine
 10
8663.550302
 20
-2753.956468
 30
0.0
 11
8663.848485
 21
-2753.136464
 31
0.0
  0
LINE
  5
4E4
100
AcDbEntity
  8
AM_4
100
AcDbLine
 10
8663.960304
 20
-2752.726462
 30
0.0
 11
8663.848485
 21
-2753.136464
 31
0.0
  0
LINE
  5
4E5
100
AcDbEntity
  8
AM_4
100
AcDbLine
 10
8664.072123
 20
-2752.297823
 30
0.0
 11
8663.960304
 21
-2752.726462
 31
0.0
  0
LINE
  5
4E6
100
AcDbEntity
  8
AM_4
100
AcDbLine
 10
8664.146669
 20
-2751.850548
 30
0.0
 11
8664.072123
 21
-2752.297823
 31
0.0
  0
LINE
  5
4E7
100
AcDbEntity
  8
AM_4
100
AcDbLine
 10
8664.202578
 20
-2751.403272
 30
0.0
 11
8664.146669
 21
-2751.850548
 31
0.0
  0
LINE
  5
4E8
100
AcDbEntity
  8
AM_4
100
AcDbLine
 10
8663.438483
 20
-2758.596949
 30
0.0
 11
8663.811212
 21
-2758.205583
 31
0.0
  0
LINE
  5
4E9
100
AcDbEntity
  8
AM_4
100
AcDbLine
 10
8662.618479
 20
-2759.342407
 30
0.0
 11
8663.438483
 21
-2758.596949
 31
0.0
  0
LINE
  5
4EA
100
AcDbEntity
  8
AM_4
100
AcDbLine
 10
8662.171203
 20
-2759.677864
 30
0.0
 11
8662.618479
 21
-2759.342407
 31
0.0
  0
LINE
  5
4EB
100
AcDbEntity
  8
AM_4
100
AcDbLine
 10
8661.723928
 20
-2759.994684
 30
0.0
 11
8662.171203
 21
-2759.677864
 31
0.0
  0
LINE
  5
4EC
100
AcDbEntity
  8
AM_4
100
AcDbLine
 10
8661.23938
 20
-2760.292867
 30
0.0
 11
8661.723928
 21
-2759.994684
 31
0.0
  0
LINE
  5
4ED
100
AcDbEntity
  8
AM_4
100
AcDbLine
 10
8660.754832
 20
-2760.572414
 30
0.0
 11
8661.23938
 21
-2760.292867
 31
0.0
  0
LINE
  5
4EE
100
AcDbEntity
  8
AM_4
100
AcDbLine
 10
8660.270284
 20
-2760.814688
 30
0.0
 11
8660.754832
 21
-2760.572414
 31
0.0
  0
LINE
  5
4EF
100
AcDbEntity
  8
AM_4
100
AcDbLine
 10
8659.748463
 20
-2761.056962
 30
0.0
 11
8660.270284
 21
-2760.814688
 31
0.0
  0
LINE
  5
4F0
100
AcDbEntity
  8
AM_4
100
AcDbLine
 10
8659.226641
 20
-2761.243327
 30
0.0
 11
8659.748463
 21
-2761.056962
 31
0.0
  0
LINE
  5
4F1
100
AcDbEntity
  8
AM_4
100
AcDbLine
 10
8658.686184
 20
-2761.429692
 30
0.0
 11
8659.226641
 21
-2761.243327
 31
0.0
  0
LINE
  5
4F2
100
AcDbEntity
  8
AM_4
100
AcDbLine
 10
8658.12709
 20
-2761.59742
 30
0.0
 11
8658.686184
 21
-2761.429692
 31
0.0
  0
LINE
  5
4F3
100
AcDbEntity
  8
AM_4
100
AcDbLine
 10
8657.008902
 20
-2761.821058
 30
0.0
 11
8658.12709
 21
-2761.59742
 31
0.0
  0
LINE
  5
4F4
100
AcDbEntity
  8
AM_4
100
AcDbLine
 10
8655.816168
 20
-2761.932876
 30
0.0
 11
8657.008902
 21
-2761.821058
 31
0.0
  0
LINE
  5
4F5
100
AcDbEntity
  8
AM_4
100
AcDbLine
 10
8655.238437
 20
-2761.951513
 30
0.0
 11
8655.816168
 21
-2761.932876
 31
0.0
  0
ARC
  5
4F6
100
AcDbEntity
  8
AM_4
100
AcDbCircle
 10
8655.36999
 20
-2750.508722
 30
0.0
 40
9.06989
100
AcDbArc
 50
275.119117
 51
360.0
  0
ARC
  5
4F7
100
AcDbEntity
  8
AM_4
100
AcDbCircle
 10
8655.36999
 20
-2750.508722
 30
0.0
 40
11.441693
100
AcDbArc
 50
274.558289
 51
360.0
  0
ARC
  5
4F8
100
AcDbEntity
  8
AM_4
100
AcDbCircle
 10
8655.36999
 20
-2750.508722
 30
0.0
 40
8.869861
100
AcDbArc
 50
275.176469
 51
0.0
  0
LINE
  5
4F9
100
AcDbEntity
  8
AM_4
100
AcDbLine
 10
8664.743036
 20
-2754.403744
 30
0.0
 11
8663.829849
 21
-2756.230117
 31
0.0
  0
LINE
  5
4FA
100
AcDbEntity
  8
AM_4
100
AcDbLine
 10
8663.811212
 20
-2758.205583
 30
0.0
 11
8664.519398
 21
-2757.348305
 31
0.0
  0
LINE
  5
4FB
100
AcDbEntity
  8
AM_4
100
AcDbLine
 10
8666.811684
 20
-2750.508722
 30
0.0
 11
8664.239851
 21
-2750.508722
 31
0.0
  0
HATCH
  5
4FC
100
AcDbEntity
  8
AM_4
100
AcDbHatch
 10
0.0
 20
0.0
 30
0.0
210
0.0
220
0.0
230
1.0
  2
SOLID
 70
     1
 71
     0
 91
        2
 92
        7
 72
     0
 73
     1
 93
        4
 10
8665.525767484645
 20
-2660.699585441296
 10
8664.23985123276
 20
-2660.699585441296
 10
8664.23985123276
 20
-2750.508721931618
 10
8665.525767484645
 20
-2750.508721931618
 97
        0
 92
        7
 72
     0
 73
     1
 93
       42
 10
8664.743035853069
 20
-2754.403743622107
 10
8665.395312212714
 20
-2752.577369815084
 10
8665.525767484645
 20
-2750.508721931618
 10
8664.23985123276
 20
-2750.508721931618
 10
8664.23985123276
 20
-2750.955997149667
 10
8664.202578297929
 20
-2751.403272367724
 10
8664.14666889568
 20
-2751.850547585716
 10
8664.072123025995
 20
-2752.297822803807
 10
8663.960304221461
 20
-2752.726461554501
 10
8663.848485416968
 20
-2753.136463837632
 10
8663.699393677619
 20
-2753.546466120852
 10
8663.550301938284
 20
-2753.95646840405
 10
8663.363937264085
 20
-2754.347834219853
 10
8663.177572589903
 20
-2754.739200035645
 10
8662.953934980881
 20
-2755.093292916616
 10
8662.730297371858
 20
-2755.466022264968
 10
8662.469386827993
 20
-2755.801478678524
 10
8662.208476284135
 20
-2756.155571559465
 10
8661.928929272866
 20
-2756.472391505562
 10
8661.630745794138
 20
-2756.770574984277
 10
8661.313925848059
 20
-2757.068758462969
 10
8660.997105901925
 20
-2757.348305474254
 10
8660.643013020965
 20
-2757.609216018111
 10
8660.288920140008
 20
-2757.870126561979
 10
8659.934827259025
 20
-2758.093764171004
 10
8659.562097910693
 20
-2758.31740178002
 10
8659.170732094899
 20
-2758.503766454217
 10
8658.760729811689
 20
-2758.690131128388
 10
8658.350727528477
 20
-2758.83922286774
 10
8657.940725245273
 20
-2758.988314607087
 10
8657.51208649463
 20
-2759.100133411604
 10
8657.064811276592
 20
-2759.193315748694
 10
8656.617536058545
 20
-2759.286498085785
 10
8656.1702608405
 20
-2759.342407488043
 10
8655.704349155042
 20
-2759.37968042288
 10
8655.238437469572
 20
-2759.37968042288
 10
8655.238437469572
 20
-2760.665596674764
 10
8657.307085353037
 20
-2760.535141402833
 10
8659.263914431994
 20
-2759.882865043182
 10
8660.959832967085
 20
-2758.969678139669
 10
8662.525296230258
 20
-2757.665125420361
 10
8663.829848949548
 20
-2756.230117429133
 97
        0
 75
     0
 76
     1
 47
0.013813
 98
        2
 10
8665.132989
 20
-2682.504875
 10
8663.658175
 20
-2754.907506
  0
LINE
  5
4FD
100
AcDbEntity
  8
AM_4
100
AcDbLine
 10
8664.43988
 20
-2660.699585
 30
0.0
 11
8664.43988
 21
-2750.508722
 31
0.0
  0
LINE
  5
4FE
100
AcDbEntity
  8
AM_4
100
AcDbLine
 10
8666.811684
 20
-2660.699585
 30
0.0
 11
8666.811684
 21
-2750.508722
 31
0.0
  0
LINE
  5
4FF
100
AcDbEntity
  8
AM_4
100
AcDbLine
 10
8665.525767
 20
-2660.699585
 30
0.0
 11
8665.525767
 21
-2750.508722
 31
0.0
  0
LINE
  5
500
100
AcDbEntity
  8
AM_4
100
AcDbLine
 10
8664.239851
 20
-2750.955997
 30
0.0
 11
8664.239851
 21
-2660.25231
 31
0.0
  0
LINE
  5
501
100
AcDbEntity
  8
AM_4
100
AcDbLine
 10
8659.263914
 20
-2651.194987
 30
0.0
 11
8660.959833
 21
-2652.238629
 31
0.0
  0
LINE
  5
502
100
AcDbEntity
  8
AM_4
100
AcDbLine
 10
8657.307085
 20
-2650.673166
 30
0.0
 11
8659.263914
 21
-2651.194987
 31
0.0
  0
LINE
  5
503
100
AcDbEntity
  8
AM_4
100
AcDbLine
 10
8655.238437
 20
-2650.412255
 30
0.0
 11
8657.307085
 21
-2650.673166
 31
0.0
  0
LINE
  5
504
100
AcDbEntity
  8
AM_4
100
AcDbLine
 10
8655.238437
 20
-2649.126339
 30
0.0
 11
8655.238437
 21
-2649.126339
 31
0.0
  0
LINE
  5
505
100
AcDbEntity
  8
AM_4
100
AcDbLine
 10
8655.238437
 20
-2651.698172
 30
0.0
 11
8655.238437
 21
-2649.126339
 31
0.0
  0
LINE
  5
506
100
AcDbEntity
  8
AM_4
100
AcDbLine
 10
8658.350728
 20
-2652.257266
 30
0.0
 11
8658.76073
 21
-2652.406357
 31
0.0
  0
LINE
  5
507
100
AcDbEntity
  8
AM_4
100
AcDbLine
 10
8657.922089
 20
-2652.108174
 30
0.0
 11
8658.350728
 21
-2652.257266
 31
0.0
  0
LINE
  5
508
100
AcDbEntity
  8
AM_4
100
AcDbLine
 10
8657.49345
 20
-2651.977719
 30
0.0
 11
8657.922089
 21
-2652.108174
 31
0.0
  0
LINE
  5
509
100
AcDbEntity
  8
AM_4
100
AcDbLine
 10
8657.064811
 20
-2651.884536
 30
0.0
 11
8657.49345
 21
-2651.977719
 31
0.0
  0
LINE
  5
50A
100
AcDbEntity
  8
AM_4
100
AcDbLine
 10
8656.170261
 20
-2651.735445
 30
0.0
 11
8657.064811
 21
-2651.884536
 31
0.0
  0
LINE
  5
50B
100
AcDbEntity
  8
AM_4
100
AcDbLine
 10
8655.704349
 20
-2651.698172
 30
0.0
 11
8656.170261
 21
-2651.735445
 31
0.0
  0
LINE
  5
50C
100
AcDbEntity
  8
AM_4
100
AcDbLine
 10
8655.834804
 20
-2649.144976
 30
0.0
 11
8655.238437
 21
-2649.126339
 31
0.0
  0
LINE
  5
50D
100
AcDbEntity
  8
AM_4
100
AcDbLine
 10
8656.412535
 20
-2649.200885
 30
0.0
 11
8655.834804
 21
-2649.144976
 31
0.0
  0
LINE
  5
50E
100
AcDbEntity
  8
AM_4
100
AcDbLine
 10
8657.008902
 20
-2649.275431
 30
0.0
 11
8656.412535
 21
-2649.200885
 31
0.0
  0
LINE
  5
50F
100
AcDbEntity
  8
AM_4
100
AcDbLine
 10
8657.567996
 20
-2649.368613
 30
0.0
 11
8657.008902
 21
-2649.275431
 31
0.0
  0
LINE
  5
510
100
AcDbEntity
  8
AM_4
100
AcDbLine
 10
8658.145726
 20
-2649.499069
 30
0.0
 11
8657.567996
 21
-2649.368613
 31
0.0
  0
LINE
  5
511
100
AcDbEntity
  8
AM_4
100
AcDbLine
 10
8658.686184
 20
-2649.666797
 30
0.0
 11
8658.145726
 21
-2649.499069
 31
0.0
  0
LINE
  5
512
100
AcDbEntity
  8
AM_4
100
AcDbLine
 10
8659.226641
 20
-2649.853161
 30
0.0
 11
8658.686184
 21
-2649.666797
 31
0.0
  0
LINE
  5
513
100
AcDbEntity
  8
AM_4
100
AcDbLine
 10
8659.767099
 20
-2650.058163
 30
0.0
 11
8659.226641
 21
-2649.853161
 31
0.0
  0
LINE
  5
514
100
AcDbEntity
  8
AM_4
100
AcDbLine
 10
8660.270284
 20
-2650.2818
 30
0.0
 11
8659.767099
 21
-2650.058163
 31
0.0
  0
LINE
  5
515
100
AcDbEntity
  8
AM_4
100
AcDbLine
 10
8660.773468
 20
-2650.542711
 30
0.0
 11
8660.270284
 21
-2650.2818
 31
0.0
  0
LINE
  5
516
100
AcDbEntity
  8
AM_4
100
AcDbLine
 10
8661.258016
 20
-2650.822258
 30
0.0
 11
8660.773468
 21
-2650.542711
 31
0.0
  0
LINE
  5
517
100
AcDbEntity
  8
AM_4
100
AcDbLine
 10
8661.258016
 20
-2650.822258
 30
0.0
 11
8662.18984
 21
-2651.455898
 31
0.0
  0
LINE
  5
518
100
AcDbEntity
  8
AM_4
100
AcDbLine
 10
8662.618479
 20
-2651.80999
 30
0.0
 11
8662.18984
 21
-2651.455898
 31
0.0
  0
LINE
  5
519
100
AcDbEntity
  8
AM_4
100
AcDbLine
 10
8663.047117
 20
-2652.18272
 30
0.0
 11
8662.618479
 21
-2651.80999
 31
0.0
  0
LINE
  5
51A
100
AcDbEntity
  8
AM_0
100
AcDbLine
 10
7726.533482
 20
-1455.664163
 30
0.0
 11
7726.533482
 21
-556.131184
 31
0.0
  0
LINE
  5
51B
100
AcDbEntity
  8
AM_0
100
AcDbLine
 10
7729.533482
 20
-1455.664163
 30
0.0
 11
7729.533482
 21
-556.131184
 31
0.0
  0
LINE
  5
51C
100
AcDbEntity
  8
AM_0
100
AcDbLine
 10
7781.283482
 20
-1000.85906
 30
0.0
 11
7781.283482
 21
-1427.098533
 31
0.0
  0
LINE
  5
51D
100
AcDbEntity
  8
AM_0
100
AcDbLine
 10
7779.183482
 20
-1000.85906
 30
0.0
 11
7779.183482
 21
-1427.098533
 31
0.0
  0
HATCH
  5
51E
100
AcDbEntity
  8
AM_8
100
AcDbHatch
 10
0.0
 20
0.0
 30
0.0
210
0.0
220
0.0
230
1.0
  2
_U
 70
     0
 71
     0
 91
        1
 92
        1
 93
       12
 72
     2
 10
7411.283482
 20
-1088.745744
 40
546.1
 50
54.99059
 51
81.523202
 73
     0
 72
     1
 10
7491.783482
 20
-1628.879949
 11
7491.783482
 21
-1635.05906
 72
     1
 10
7491.783482
 20
-1635.05906
 11
7497.683482
 21
-1635.05906
 72
     1
 10
7497.683482
 20
-1635.05906
 11
7497.683482
 21
-1635.85906
 72
     1
 10
7497.683482
 20
-1635.85906
 11
7489.683482
 21
-1635.85906
 72
     1
 10
7489.683482
 20
-1635.85906
 11
7489.683482
 21
-1627.066689
 72
     2
 10
7411.283482
 20
-1088.745744
 40
544.0
 50
278.286187
 51
305.00941
 73
     1
 72
     2
 10
7648.283482
 20
-1427.098533
 40
130.9
 50
305.00941
 51
360.0
 73
     1
 72
     1
 10
7779.183482
 20
-1427.098533
 11
7779.183482
 21
-1000.85906
 72
     1
 10
7779.183482
 20
-1000.85906
 11
7781.283482
 21
-1000.85906
 72
     1
 10
7781.283482
 20
-1000.85906
 11
7781.283482
 21
-1427.098533
 72
     2
 10
7648.283482
 20
-1427.098533
 40
133.0
 50
360.0
 51
414.99059
 73
     0
 97
        0
 75
     0
 76
     0
 52
45.0
 41
7.0
 77
     0
 78
     1
 53
45.0
 43
4750.477491
 44
0.0
 45
-4.949747468305832
 46
4.949747468305832
 79
     0
 98
        1
 10
4750.477491
 20
0.0
1001
GENIUS_GENODEF_13
1002
{
1000
HIER
1070
     0
1002
}
1002
{
1000
MANEDIT
1070
     0
1002
}
1002
{
1000
NOSEL
1070
     0
1002
}
1002
{
1000
BEHIND
1070
     0
1002
}
1002
{
1000
OTHER
1070
     0
1002
}
1002
{
1000
REACTOR
1002
}
1001
GENIUS_GENOBJ-N-HTC_13
1002
{
1000
OWNER
1000
GEN
1002
}
1001
GENIUS_GENHATCH_13
1002
{
1000
DATA
1040
45.0
1042
1.0
1000
_U
1070
     0
1011
7763.000366
1021
-1491.719234
1031
0.0
1002
}
1002
{
1000
UCS
1010
0.0
1020
0.0
1030
0.0
1010
1.0
1020
0.0
1030
0.0
1010
0.0
1020
1.0
1030
0.0
1002
}
  0
ARC
  5
51F
100
AcDbEntity
  8
AM_0
100
AcDbCircle
 10
7629.533482
 20
-1455.664163
 30
0.0
 40
100.0
100
AcDbArc
 50
307.197952
 51
0.0
1001
GENIUS_GENODEF_13
1002
{
1000
HIER
1070
     0
1002
}
1002
{
1000
MANEDIT
1070
     0
1002
}
1002
{
1000
NOSEL
1070
     0
1002
}
1002
{
1000
BEHIND
1070
     0
1002
}
1002
{
1000
REACTOR
1002
}
1001
GENIUS_GENOBJ-N-FIL_13
1002
{
1000
OWNER
1000
GEN
1002
}
  0
ARC
  5
520
100
AcDbEntity
  8
AM_0
100
AcDbCircle
 10
7629.533482
 20
-1455.664163
 30
0.0
 40
97.0
100
AcDbArc
 50
307.197952
 51
0.0
1001
GENIUS_GENODEF_13
1002
{
1000
HIER
1070
     0
1002
}
1002
{
1000
MANEDIT
1070
     0
1002
}
1002
{
1000
NOSEL
1070
     0
1002
}
1002
{
1000
BEHIND
1070
     0
1002
}
1002
{
1000
REACTOR
1002
}
1001
GENIUS_GENOBJ-N-FIL_13
1002
{
1000
OWNER
1000
GEN
1002
}
  0
ARC
  5
521
100
AcDbEntity
  8
AM_0
100
AcDbCircle
 10
7648.283482
 20
-1427.098533
 30
0.0
 40
133.0
100
AcDbArc
 50
305.00941
 51
0.0
1001
GENIUS_GENODEF_13
1002
{
1000
HIER
1070
     0
1002
}
1002
{
1000
MANEDIT
1070
     0
1002
}
1002
{
1000
NOSEL
1070
     0
1002
}
1002
{
1000
BEHIND
1070
     0
1002
}
1002
{
1000
REACTOR
1002
}
1001
GENIUS_GENOBJ-N-FIL_13
1002
{
1000
OWNER
1000
GEN
1002
}
  0
ARC
  5
522
100
AcDbEntity
  8
AM_0
100
AcDbCircle
 10
7648.283482
 20
-1427.098533
 30
0.0
 40
130.9
100
AcDbArc
 50
305.00941
 51
0.0
1001
GENIUS_GENODEF_13
1002
{
1000
HIER
1070
     0
1002
}
1002
{
1000
MANEDIT
1070
     0
1002
}
1002
{
1000
NOSEL
1070
     0
1002
}
1002
{
1000
BEHIND
1070
     0
1002
}
1002
{
1000
REACTOR
1002
}
1001
GENIUS_GENOBJ-N-FIL_13
1002
{
1000
OWNER
1000
GEN
1002
}
  0
HATCH
  5
523
100
AcDbEntity
  8
AM_8
100
AcDbHatch
 10
0.0
 20
0.0
 30
0.0
210
0.0
220
0.0
230
1.0
  2
_U
 70
     0
 71
     0
 91
        1
 92
        1
 93
        8
 72
     1
 10
7681.283482
 20
-1813.239419
 11
7716.283482
 21
-1813.239419
 72
     1
 10
7716.283482
 20
-1813.239419
 11
7716.283482
 21
-1810.739419
 72
     1
 10
7716.283482
 20
-1810.739419
 11
7681.283482
 21
-1810.739419
 72
     2
 10
7681.283482
 20
-1808.239419
 40
2.5
 50
90.0
 51
180.0
 73
     0
 72
     1
 10
7678.783482
 20
-1808.239419
 11
7678.783482
 21
-1565.182178
 72
     2
 10
7442.27681
 20
-1009.411907
 40
604.0
 50
66.947941
 51
67.205427
 73
     0
 72
     1
 10
7676.283482
 20
-1566.239419
 11
7676.283482
 21
-1808.239419
 72
     2
 10
7681.283482
 20
-1808.239419
 40
5.0
 50
180.0
 51
270.0
 73
     1
 97
        0
 75
     0
 76
     0
 52
135.0
 41
5.0
 77
     0
 78
     1
 53
135.0
 43
8996.476842
 44
-694.46479
 45
-3.535533905932737
 46
-3.535533905932737
 79
     0
 98
        1
 10
1631.530224
 20
-3658.489278
1001
GENIUS_GENOBJ-N-HTC_13
1002
{
1000
OWNER
1000
GEN
1002
}
1001
GENIUS_GENODEF_13
1002
{
1000
HIER
1070
     0
1002
}
1002
{
1000
MANEDIT
1070
     0
1002
}
1002
{
1000
NOSEL
1070
     0
1002
}
1002
{
1000
BEHIND
1070
     0
1002
}
1002
{
1000
OTHER
1070
     0
1002
}
1002
{
1000
REACTOR
1002
}
1001
GENIUS_GENHATCH_13
1002
{
1000
DATA
1040
135.0
1042
1.0
1000
_U
1070
     0
1011
7677.164121
1021
-1751.226009
1031
0.0
1002
}
1002
{
1000
UCS
1010
0.0
1020
0.0
1030
0.0
1010
1.0
1020
0.0
1030
0.0
1010
0.0
1020
1.0
1030
0.0
1002
}
  0
LINE
  5
524
100
AcDbEntity
  8
AM_0
100
AcDbLine
 10
7676.283482
 20
-1566.239419
 30
0.0
 11
7676.283482
 21
-1808.239419
 31
0.0
  0
LINE
  5
525
100
AcDbEntity
  8
AM_0
100
AcDbLine
 10
7678.783482
 20
-1565.182178
 30
0.0
 11
7678.783482
 21
-1808.239419
 31
0.0
  0
LINE
  5
526
100
AcDbEntity
  8
AM_0
100
AcDbLine
 10
7716.283482
 20
-1813.239419
 30
0.0
 11
7716.283482
 21
-1548.435683
 31
0.0
  0
ARC
  5
527
100
AcDbEntity
  8
AM_0
100
AcDbCircle
 10
7681.283482
 20
-1808.239419
 30
0.0
 40
5.0
100
AcDbArc
 50
180.0
 51
270.0
1001
GENIUS_GENODEF_13
1002
{
1000
HIER
1070
     0
1002
}
1002
{
1000
MANEDIT
1070
     0
1002
}
1002
{
1000
NOSEL
1070
     0
1002
}
1002
{
1000
BEHIND
1070
     0
1002
}
1002
{
1000
OTHER
1070
     0
1002
}
1002
{
1000
REACTOR
1002
}
1001
GENIUS_GENOBJ-N-FIL_13
1002
{
1000
OWNER
1000
GEN
1002
}
  0
ARC
  5
528
100
AcDbEntity
  8
AM_0
100
AcDbCircle
 10
7681.283482
 20
-1808.239419
 30
0.0
 40
2.5
100
AcDbArc
 50
180.0
 51
270.0
1001
GENIUS_GENOBJ-N-FIL_13
1002
{
1000
OWNER
1000
GEN
1002
}
1001
GENIUS_GENODEF_13
1002
{
1000
HIER
1070
     0
1002
}
1002
{
1000
MANEDIT
1070
     0
1002
}
1002
{
1000
NOSEL
1070
     0
1002
}
1002
{
1000
BEHIND
1070
     0
1002
}
1002
{
1000
OTHER
1070
     0
1002
}
1002
{
1000
REACTOR
1002
}
  0
LINE
  5
529
100
AcDbEntity
  8
AM_7
100
AcDbLine
 10
7696.283482
 20
-1824.853186
 30
0.0
 11
7696.283482
 21
-1797.684966
 31
0.0
1001
GENIUS_GENODEF_13
1002
{
1000
HIER
1070
     0
1002
}
1002
{
1000
MANEDIT
1070
     0
1002
}
1002
{
1000
NOSEL
1070
     0
1002
}
1002
{
1000
BEHIND
1070
     0
1002
}
1002
{
1000
REACTOR
1002
}
1001
GENIUS_GENOBJ-N-CEN_13
1002
{
1000
OWNER
1000
GEN
1002
}
  0
LINE
  5
52A
100
AcDbEntity
  8
AM_0
100
AcDbLine
 10
7681.283482
 20
-1810.739419
 30
0.0
 11
7716.283482
 21
-1810.739419
 31
0.0
  0
LINE
  5
52B
100
AcDbEntity
  8
AM_0
100
AcDbLine
 10
7681.283482
 20
-1813.239419
 30
0.0
 11
7716.283482
 21
-1813.239419
 31
0.0
  0
ARC
  5
52C
100
AcDbEntity
  8
AM_0
100
AcDbCircle
 10
7411.283482
 20
-1088.745744
 30
0.0
 40
546.1
100
AcDbArc
 50
278.476798
 51
305.00941
  0
ARC
  5
52D
100
AcDbEntity
  8
AM_0
100
AcDbCircle
 10
7411.283482
 20
-1088.745744
 30
0.0
 40
544.0
100
AcDbArc
 50
278.286187
 51
305.00941
  0
ARC
  5
52E
100
AcDbEntity
  8
AM_0
100
AcDbCircle
 10
7411.283482
 20
-1168.10906
 30
0.0
 40
461.0
100
AcDbArc
 50
279.552055
 51
307.197952
  0
ARC
  5
52F
100
AcDbEntity
  8
AM_0
100
AcDbCircle
 10
7411.283482
 20
-1168.10906
 30
0.0
 40
458.0
100
AcDbArc
 50
279.108059
 51
307.197952
  0
LINE
  5
530
100
AcDbEntity
  8
AM_0
100
AcDbLine
 10
7541.283482
 20
-1622.05906
 30
0.0
 11
7528.765893
 21
-1622.05906
 31
0.0
  0
LINE
  5
531
100
AcDbEntity
  8
AM_0
100
AcDbLine
 10
7536.283482
 20
-1622.05906
 30
0.0
 11
7536.283482
 21
-1625.05906
 31
0.0
  0
LINE
  5
532
100
AcDbEntity
  8
AM_0
100
AcDbLine
 10
7541.283482
 20
-1622.05906
 30
0.0
 11
7541.283482
 21
-1625.05906
 31
0.0
  0
LINE
  5
533
100
AcDbEntity
  8
AM_0
100
AcDbLine
 10
7531.283482
 20
-1648.35906
 30
0.0
 11
7531.283482
 21
-1646.35906
 31
0.0
  0
LINE
  5
534
100
AcDbEntity
  8
AM_0
100
AcDbLine
 10
7511.283482
 20
-1646.35906
 30
0.0
 11
7511.283482
 21
-1648.35906
 31
0.0
  0
LINE
  5
535
100
AcDbEntity
  8
AM_7
100
AcDbLine
 10
7521.283482
 20
-1651.490285
 30
0.0
 11
7521.283482
 21
-1630.05906
 31
0.0
1001
GENIUS_GENODEF_13
1002
{
1000
HIER
1070
     0
1002
}
1002
{
1000
MANEDIT
1070
     0
1002
}
1002
{
1000
NOSEL
1070
     0
1002
}
1002
{
1000
BEHIND
1070
     0
1002
}
1002
{
1000
REACTOR
1002
}
1001
GENIUS_GENOBJ-N-CEN_13
1002
{
1000
OWNER
1000
GEN
1002
}
  0
LINE
  5
536
100
AcDbEntity
  8
AM_0
100
AcDbLine
 10
7528.598482
 20
-1648.95906
 30
0.0
 11
7528.598482
 21
-1648.35906
 31
0.0
  0
LINE
  5
537
100
AcDbEntity
  8
AM_0
100
AcDbLine
 10
7529.283482
 20
-1648.95906
 30
0.0
 11
7529.283482
 21
-1654.75906
 31
0.0
  0
LINE
  5
538
100
AcDbEntity
  8
AM_0
100
AcDbLine
 10
7513.968482
 20
-1648.95906
 30
0.0
 11
7513.968482
 21
-1648.35906
 31
0.0
  0
ARC
  5
539
100
AcDbEntity
  8
AM_0
100
AcDbCircle
 10
7517.283482
 20
-1643.226581
 30
0.0
 40
11.532479
100
AcDbArc
 50
249.705445
 51
290.294555
  0
LINE
  5
53A
100
AcDbEntity
  8
AM_0
100
AcDbLine
 10
7521.283482
 20
-1654.043145
 30
0.0
 11
7521.283482
 21
-1648.95906
 31
0.0
  0
LINE
  5
53B
100
AcDbEntity
  8
AM_0
100
AcDbLine
 10
7513.283482
 20
-1648.95906
 30
0.0
 11
7513.283482
 21
-1654.75906
 31
0.0
  0
LINE
  5
53C
100
AcDbEntity
  8
AM_0
100
AcDbLine
 10
7513.283482
 20
-1648.95906
 30
0.0
 11
7529.283482
 21
-1648.95906
 31
0.0
  0
LINE
  5
53D
100
AcDbEntity
  8
AM_0
100
AcDbLine
 10
7529.283482
 20
-1654.75906
 30
0.0
 11
7513.283482
 21
-1654.75906
 31
0.0
  0
ARC
  5
53E
100
AcDbEntity
  8
AM_0
100
AcDbCircle
 10
7525.283482
 20
-1643.226581
 30
0.0
 40
11.532479
100
AcDbArc
 50
249.705445
 51
290.294555
  0
LINE
  5
53F
100
AcDbEntity
  8
AM_0
100
AcDbLine
 10
7511.283482
 20
-1648.35906
 30
0.0
 11
7531.283482
 21
-1648.35906
 31
0.0
  0
LINE
  5
540
100
AcDbEntity
  8
AM_0
100
AcDbLine
 10
7531.283482
 20
-1630.05906
 30
0.0
 11
7526.283482
 21
-1630.05906
 31
0.0
  0
LINE
  5
541
100
AcDbEntity
  8
AM_0
100
AcDbLine
 10
7531.283482
 20
-1635.05906
 30
0.0
 11
7526.283482
 21
-1635.05906
 31
0.0
  0
LINE
  5
542
100
AcDbEntity
  8
AM_0
100
AcDbLine
 10
7541.283482
 20
-1646.35906
 30
0.0
 11
7541.283482
 21
-1640.35906
 31
0.0
  0
LINE
  5
543
100
AcDbEntity
  8
AM_0
100
AcDbLine
 10
7527.283482
 20
-1640.35906
 30
0.0
 11
7527.283482
 21
-1646.35906
 31
0.0
1001
GENIUS_GENODEF_13
1002
{
1000
HIER
1070
     0
1002
}
1002
{
1000
MANEDIT
1070
     0
1002
}
1002
{
1000
NOSEL
1070
     0
1002
}
1002
{
1000
BEHIND
1070
     0
1002
}
1002
{
1000
REACTOR
1002
}
1001
GENIUS_GENOBJ-N-CEN_13
1002
{
1000
OWNER
1000
GEN
1002
}
  0
LINE
  5
544
100
AcDbEntity
  8
AM_0
100
AcDbLine
 10
7526.283482
 20
-1640.35906
 30
0.0
 11
7541.283482
 21
-1640.35906
 31
0.0
  0
LINE
  5
545
100
AcDbEntity
  8
AM_0
100
AcDbLine
 10
7526.283482
 20
-1646.35906
 30
0.0
 11
7526.283482
 21
-1629.27921
 31
0.0
  0
LINE
  5
546
100
AcDbEntity
  8
AM_0
100
AcDbLine
 10
7525.363332
 20
-1628.35906
 30
0.0
 11
7526.283482
 21
-1629.27921
 31
0.0
  0
LINE
  5
547
100
AcDbEntity
  8
AM_4
100
AcDbLine
 10
7525.363332
 20
-1639.35906
 30
0.0
 11
7525.363332
 21
-1628.35906
 31
0.0
  0
LINE
  5
548
100
AcDbEntity
  8
AM_4
100
AcDbLine
 10
7525.363332
 20
-1639.35906
 30
0.0
 11
7526.283482
 21
-1640.85906
 31
0.0
  0
LINE
  5
549
100
AcDbEntity
  8
AM_0
100
AcDbLine
 10
7512.283482
 20
-1635.85906
 30
0.0
 11
7512.283482
 21
-1640.35906
 31
0.0
  0
LINE
  5
54A
100
AcDbEntity
  8
AM_0
100
AcDbLine
 10
7515.283482
 20
-1640.35906
 30
0.0
 11
7515.283482
 21
-1646.35906
 31
0.0
1001
GENIUS_GENODEF_13
1002
{
1000
HIER
1070
     0
1002
}
1002
{
1000
MANEDIT
1070
     0
1002
}
1002
{
1000
NOSEL
1070
     0
1002
}
1002
{
1000
BEHIND
1070
     0
1002
}
1002
{
1000
REACTOR
1002
}
1001
GENIUS_GENOBJ-N-CEN_13
1002
{
1000
OWNER
1000
GEN
1002
}
  0
LINE
  5
54B
100
AcDbEntity
  8
AM_0
100
AcDbLine
 10
7516.283482
 20
-1646.35906
 30
0.0
 11
7516.283482
 21
-1629.27921
 31
0.0
  0
LINE
  5
54C
100
AcDbEntity
  8
AM_0
100
AcDbLine
 10
7516.283482
 20
-1629.27921
 30
0.0
 11
7517.203632
 21
-1628.35906
 31
0.0
  0
LINE
  5
54D
100
AcDbEntity
  8
AM_4
100
AcDbLine
 10
7517.203632
 20
-1639.35906
 30
0.0
 11
7517.203632
 21
-1628.35906
 31
0.0
  0
LINE
  5
54E
100
AcDbEntity
  8
AM_4
100
AcDbLine
 10
7517.203632
 20
-1639.35906
 30
0.0
 11
7516.283482
 21
-1640.85906
 31
0.0
  0
LINE
  5
54F
100
AcDbEntity
  8
AM_0
100
AcDbLine
 10
7525.363332
 20
-1628.35906
 30
0.0
 11
7517.203632
 21
-1628.35906
 31
0.0
  0
LINE
  5
550
100
AcDbEntity
  8
AM_0
100
AcDbLine
 10
7526.283482
 20
-1629.27921
 30
0.0
 11
7516.283482
 21
-1629.27921
 31
0.0
  0
LINE
  5
551
100
AcDbEntity
  8
AM_0
100
AcDbLine
 10
7526.283482
 20
-1639.35906
 30
0.0
 11
7516.283482
 21
-1639.35906
 31
0.0
  0
LINE
  5
552
100
AcDbEntity
  8
AM_0
100
AcDbLine
 10
7489.683482
 20
-1627.066689
 30
0.0
 11
7489.683482
 21
-1635.85906
 31
0.0
  0
LINE
  5
553
100
AcDbEntity
  8
AM_0
100
AcDbLine
 10
7497.683482
 20
-1635.05906
 30
0.0
 11
7497.683482
 21
-1635.85906
 31
0.0
  0
LINE
  5
554
100
AcDbEntity
  8
AM_0
100
AcDbLine
 10
7491.783482
 20
-1628.879949
 30
0.0
 11
7491.783482
 21
-1635.05906
 31
0.0
  0
LINE
  5
555
100
AcDbEntity
  8
AM_0
100
AcDbLine
 10
7516.283482
 20
-1635.05906
 30
0.0
 11
7491.783482
 21
-1635.05906
 31
0.0
  0
LINE
  5
556
100
AcDbEntity
  8
AM_0
100
AcDbLine
 10
7516.283482
 20
-1630.05906
 30
0.0
 11
7491.783482
 21
-1630.05906
 31
0.0
  0
LINE
  5
557
100
AcDbEntity
  8
AM_0
100
AcDbLine
 10
7487.783482
 20
-1635.85906
 30
0.0
 11
7512.283482
 21
-1635.85906
 31
0.0
  0
LINE
  5
558
100
AcDbEntity
  8
AM_0
100
AcDbLine
 10
7483.783482
 20
-1640.35906
 30
0.0
 11
7483.783482
 21
-1620.334391
 31
0.0
  0
LINE
  5
559
100
AcDbEntity
  8
AM_0
100
AcDbLine
 10
7487.783482
 20
-1622.717408
 30
0.0
 11
7487.783482
 21
-1635.85906
 31
0.0
  0
ARC
  5
55A
100
AcDbEntity
  8
AM_0
100
AcDbCircle
 10
7531.283482
 20
-1625.05906
 30
0.0
 40
10.0
100
AcDbArc
 50
270.0
 51
0.0
1001
GENIUS_GENODEF_13
1002
{
1000
HIER
1070
     0
1002
}
1002
{
1000
MANEDIT
1070
     0
1002
}
1002
{
1000
NOSEL
1070
     0
1002
}
1002
{
1000
BEHIND
1070
     0
1002
}
1002
{
1000
REACTOR
1002
}
1001
GENIUS_GENOBJ-N-FIL_13
1002
{
1000
OWNER
1000
GEN
1002
}
  0
ARC
  5
55B
100
AcDbEntity
  8
AM_0
100
AcDbCircle
 10
7531.283482
 20
-1625.05906
 30
0.0
 40
5.0
100
AcDbArc
 50
270.0
 51
0.0
1001
GENIUS_GENODEF_13
1002
{
1000
HIER
1070
     0
1002
}
1002
{
1000
MANEDIT
1070
     0
1002
}
1002
{
1000
NOSEL
1070
     0
1002
}
1002
{
1000
BEHIND
1070
     0
1002
}
1002
{
1000
REACTOR
1002
}
1001
GENIUS_GENOBJ-N-FIL_13
1002
{
1000
OWNER
1000
GEN
1002
}
  0
ARC
  5
55C
100
AcDbEntity
  8
AM_0
100
AcDbCircle
 10
7669.926341
 20
-1499.114421
 30
0.0
 40
64.0
100
AcDbArc
 50
296.800982
 51
311.837966
  0
ARC
  5
55D
100
AcDbEntity
  8
AM_0
100
AcDbCircle
 10
7714.083482
 20
-1548.435683
 30
0.0
 40
2.2
100
AcDbArc
 50
0.0
 51
131.837966
  0
ARC
  5
55E
100
AcDbEntity
  8
AM_0
100
AcDbCircle
 10
7442.27681
 20
-1009.411907
 30
0.0
 40
604.0
100
AcDbArc
 50
292.794573
 51
295.130405
  0
ARC
  5
55F
100
AcDbEntity
  8
AM_0
100
AcDbCircle
 10
7629.533482
 20
-556.131184
 30
0.0
 40
100.0
100
AcDbArc
 50
0.0
 51
52.681155
1001
GENIUS_GENODEF_13
1002
{
1000
HIER
1070
     0
1002
}
1002
{
1000
MANEDIT
1070
     0
1002
}
1002
{
1000
NOSEL
1070
     0
1002
}
1002
{
1000
BEHIND
1070
     0
1002
}
1002
{
1000
REACTOR
1002
}
1001
GENIUS_GENOBJ-N-FIL_13
1002
{
1000
OWNER
1000
GEN
1002
}
  0
ARC
  5
560
100
AcDbEntity
  8
AM_0
100
AcDbCircle
 10
7629.533482
 20
-556.131184
 30
0.0
 40
97.0
100
AcDbArc
 50
0.0
 51
52.681155
1001
GENIUS_GENODEF_13
1002
{
1000
HIER
1070
     0
1002
}
1002
{
1000
MANEDIT
1070
     0
1002
}
1002
{
1000
NOSEL
1070
     0
1002
}
1002
{
1000
BEHIND
1070
     0
1002
}
1002
{
1000
REACTOR
1002
}
1001
GENIUS_GENOBJ-N-FIL_13
1002
{
1000
OWNER
1000
GEN
1002
}
  0
ARC
  5
561
100
AcDbEntity
  8
AM_0
100
AcDbCircle
 10
7648.283482
 20
-582.176204
 30
0.0
 40
133.0
100
AcDbArc
 50
0.0
 51
54.99059
1001
GENIUS_GENODEF_13
1002
{
1000
HIER
1070
     0
1002
}
1002
{
1000
MANEDIT
1070
     0
1002
}
1002
{
1000
NOSEL
1070
     0
1002
}
1002
{
1000
BEHIND
1070
     0
1002
}
1002
{
1000
REACTOR
1002
}
1001
GENIUS_GENOBJ-N-FIL_13
1002
{
1000
OWNER
1000
GEN
1002
}
  0
ARC
  5
562
100
AcDbEntity
  8
AM_0
100
AcDbCircle
 10
7648.283482
 20
-582.176204
 30
0.0
 40
130.9
100
AcDbArc
 50
0.0
 51
54.99059
1001
GENIUS_GENODEF_13
1002
{
1000
HIER
1070
     0
1002
}
1002
{
1000
MANEDIT
1070
     0
1002
}
1002
{
1000
NOSEL
1070
     0
1002
}
1002
{
1000
BEHIND
1070
     0
1002
}
1002
{
1000
REACTOR
1002
}
1001
GENIUS_GENOBJ-N-FIL_13
1002
{
1000
OWNER
1000
GEN
1002
}
  0
LINE
  5
563
100
AcDbEntity
  8
AM_0
100
AcDbLine
 10
7779.183482
 20
-996.144931
 30
0.0
 11
7779.183482
 21
-582.176204
 31
0.0
  0
LINE
  5
564
100
AcDbEntity
  8
AM_0
100
AcDbLine
 10
7781.283482
 20
-996.144931
 30
0.0
 11
7781.283482
 21
-582.176204
 31
0.0
  0
LINE
  5
565
100
AcDbEntity
  8
AM_0
100
AcDbLine
 10
7776.613735
 20
-1007.503431
 30
0.0
 11
7777.162517
 21
-999.655478
 31
0.0
  0
LINE
  5
566
100
AcDbEntity
  8
AM_0
100
AcDbLine
 10
7778.584214
 20
-1009.428993
 30
0.0
 11
7779.257401
 21
-999.801967
 31
0.0
  0
ARC
  5
567
100
AcDbEntity
  8
AM_0
100
AcDbCircle
 10
7778.40935
 20
-1007.628993
 30
0.0
 40
1.8
100
AcDbArc
 50
176.0
 51
270.0
1001
GENIUS_GENODEF_13
1002
{
1000
HIER
1070
     0
1002
}
1002
{
1000
MANEDIT
1070
     0
1002
}
1002
{
1000
NOSEL
1070
     0
1002
}
1002
{
1000
BEHIND
1070
     0
1002
}
1002
{
1000
REACTOR
1002
}
1001
GENIUS_GENOBJ-N-FIL_13
1002
{
1000
OWNER
1000
GEN
1002
}
  0
ARC
  5
568
100
AcDbEntity
  8
AM_0
100
AcDbCircle
 10
7778.183482
 20
-996.144931
 30
0.0
 40
3.1
100
AcDbArc
 50
315.0
 51
0.0
1001
GENIUS_GENODEF_13
1002
{
1000
HIER
1070
     0
1002
}
1002
{
1000
MANEDIT
1070
     0
1002
}
1002
{
1000
NOSEL
1070
     0
1002
}
1002
{
1000
BEHIND
1070
     0
1002
}
1002
{
1000
REACTOR
1002
}
1001
GENIUS_GENOBJ-N-FIL_13
1002
{
1000
OWNER
1000
GEN
1002
}
  0
LINE
  5
569
100
AcDbEntity
  8
AM_0
100
AcDbLine
 10
7780.375513
 20
-998.336962
 30
0.0
 11
7779.547859
 21
-999.164617
 31
0.0
  0
ARC
  5
56A
100
AcDbEntity
  8
AM_0
100
AcDbCircle
 10
7780.254965
 20
-999.871723
 30
0.0
 40
3.1
100
AcDbArc
 50
135.0
 51
176.0
1001
GENIUS_GENODEF_13
1002
{
1000
HIER
1070
     0
1002
}
1002
{
1000
MANEDIT
1070
     0
1002
}
1002
{
1000
NOSEL
1070
     0
1002
}
1002
{
1000
BEHIND
1070
     0
1002
}
1002
{
1000
REACTOR
1002
}
1001
GENIUS_GENOBJ-N-FIL_13
1002
{
1000
OWNER
1000
GEN
1002
}
  0
LINE
  5
56B
100
AcDbEntity
  8
AM_0
100
AcDbLine
 10
7778.890589
 20
-996.852038
 30
0.0
 11
7778.062934
 21
-997.679692
 31
0.0
  0
ARC
  5
56C
100
AcDbEntity
  8
AM_0
100
AcDbCircle
 10
7780.254965
 20
-999.871723
 30
0.0
 40
1.0
100
AcDbArc
 50
135.0
 51
176.0
1001
GENIUS_GENODEF_13
1002
{
1000
HIER
1070
     0
1002
}
1002
{
1000
MANEDIT
1070
     0
1002
}
1002
{
1000
NOSEL
1070
     0
1002
}
1002
{
1000
BEHIND
1070
     0
1002
}
1002
{
1000
REACTOR
1002
}
1001
GENIUS_GENOBJ-N-FIL_13
1002
{
1000
OWNER
1000
GEN
1002
}
  0
ARC
  5
56D
100
AcDbEntity
  8
AM_0
100
AcDbCircle
 10
7778.183482
 20
-996.144931
 30
0.0
 40
1.0
100
AcDbArc
 50
315.0
 51
0.0
1001
GENIUS_GENODEF_13
1002
{
1000
HIER
1070
     0
1002
}
1002
{
1000
MANEDIT
1070
     0
1002
}
1002
{
1000
NOSEL
1070
     0
1002
}
1002
{
1000
BEHIND
1070
     0
1002
}
1002
{
1000
REACTOR
1002
}
1001
GENIUS_GENOBJ-N-FIL_13
1002
{
1000
OWNER
1000
GEN
1002
}
  0
LINE
  5
56E
100
AcDbEntity
  8
AM_0
100
AcDbLine
 10
7781.283482
 20
-1000.85906
 30
0.0
 11
7779.183482
 21
-1000.85906
 31
0.0
  0
LINE
  5
56F
100
AcDbEntity
  8
AM_0
100
AcDbLine
 10
7778.584214
 20
-1009.428993
 30
0.0
 11
7729.533482
 21
-1009.428993
 31
0.0
  0
LINE
  5
570
100
AcDbEntity
  8
AM_4
100
AcDbLine
 10
7775.274473
 20
-998.499259
 30
0.0
 11
7729.533482
 21
-998.499259
 31
0.0
  0
LINE
  5
571
100
AcDbEntity
  8
AM_4
100
AcDbLine
 10
7777.214588
 20
-996.559145
 30
0.0
 11
7729.533482
 21
-996.559145
 31
0.0
  0
LINE
  5
572
100
AcDbEntity
  8
AM_0
100
AcDbLine
 10
7536.033482
 20
-399.668718
 30
0.0
 11
7536.033482
 21
-393.438291
 31
0.0
  0
LINE
  5
573
100
AcDbEntity
  8
AM_0
100
AcDbLine
 10
7455.783482
 20
-389.202163
 30
0.0
 11
7455.783482
 21
-391.214217
 31
0.0
  0
ARC
  5
574
100
AcDbEntity
  8
AM_0
100
AcDbCircle
 10
7454.783482
 20
-389.202163
 30
0.0
 40
1.0
100
AcDbArc
 50
0.0
 51
83.741027
  0
ARC
  5
575
100
AcDbEntity
  8
AM_0
100
AcDbCircle
 10
7454.783482
 20
-391.214217
 30
0.0
 40
1.0
100
AcDbArc
 50
263.709368
 51
0.0
  0
POINT
  5
5AA
100
AcDbEntity
  8
0
 60
     1
100
AcDbPoint
 10
7198.225905
 20
-653.755832
 30
0.0
 50
152.755304
1001
GENIUS_GENOBJ-NBEHI-BHB_13
1002
{
1000
OWNER
1000
GENBEHI
1002
}
1001
GENIUS_GENOENT_13
1002
{
1000
MYREF
1005
5AA
1002
}
1002
{
1000
GRP
1005
0
1002
}
1001
GENIUS_GENOLIS_13
1002
{
1000
ENT
1005
2B2
1002
}
1001
GENIUS_GENODEF_13
1002
{
1000
HIER
1070
     1
1002
}
1002
{
1000
MANEDIT
1070
     1
1002
}
1002
{
1000
NOSEL
1070
     1
1002
}
1002
{
1000
BEHIND
1070
     0
1002
}
1002
{
1000
REACTOR
1002
}
1002
{
1000
OTHER
1070
     1
1002
}
1001
GENIUS_GENBH_13
1002
{
1000
FGO
1005
0
1002
}
  0
POINT
  5
5AF
100
AcDbEntity
  8
0
 60
     1
100
AcDbPoint
 10
-424.767488
 20
-865.314613
 30
0.0
 50
160.198303
1001
GENIUS_GENOBJ-NBEHI-BHB_13
1002
{
1000
OWNER
1000
GENBEHI
1002
}
1001
GENIUS_GENOENT_13
1002
{
1000
MYREF
1005
5AF
1002
}
1002
{
1000
GRP
1005
0
1002
}
1001
GENIUS_GENOLIS_13
1002
{
1000
ENT
1005
10E
1002
}
1001
GENIUS_GENODEF_13
1002
{
1000
HIER
1070
     1
1002
}
1002
{
1000
MANEDIT
1070
     1
1002
}
1002
{
1000
NOSEL
1070
     1
1002
}
1002
{
1000
BEHIND
1070
     0
1002
}
1002
{
1000
REACTOR
1002
}
1002
{
1000
OTHER
1070
     1
1002
}
1001
GENIUS_GENBH_13
1002
{
1000
FGO
1005
0
1002
}
  0
ENDSEC
  0
SECTION
  2
OBJECTS
  0
DICTIONARY
  5
8
102
{ACAD_XDICTIONARY
360
627
102
}
100
AcDbDictionary
  3
ACAD_GROUP
350
22
  3
ACAD_LAYOUT
350
7
  3
ACAD_MLINESTYLE
350
23
  3
ACAD_PLOTSETTINGS
350
24
  3
ACAD_PLOTSTYLENAME
350
10
  3
ACDBHEADERROUNDTRIPXREC
350
603
  3
ACDBVARIABLEDICTIONARY
350
5B6
  3
ACGREF_MASTER
350
5B0
  3
ACGREFACAD_MASTER
350
5D0
  3
ACMDICTIONARY
350
587
  3
AMG
350
577
  3
AMGSNAPSETTINGS
350
5D6
  3
AMI_MASTER
350
5D1
  3
DWGPROPS
350
5D4
  0
DICTIONARY
  5
601
100
AcDbDictionary
280
     1
  3
ACAD_XREC_ROUNDTRIP
360
602
  0
DICTIONARY
  5
5F3
100
AcDbDictionary
280
     1
  3
ACAD_XREC_ROUNDTRIP
360
5F4
  0
DICTIONARY
  5
5F5
100
AcDbDictionary
280
     1
  3
ACAD_XREC_ROUNDTRIP
360
5F6
  0
DICTIONARY
  5
5F7
100
AcDbDictionary
280
     1
  3
ACAD_XREC_ROUNDTRIP
360
5F8
  0
DICTIONARY
  5
5F9
100
AcDbDictionary
280
     1
  3
ACAD_XREC_ROUNDTRIP
360
5FA
  0
DICTIONARY
  5
5FB
100
AcDbDictionary
280
     1
  3
ACAD_XREC_ROUNDTRIP
360
5FC
  0
DICTIONARY
  5
5FD
100
AcDbDictionary
280
     1
  3
ACAD_XREC_ROUNDTRIP
360
5FE
  0
DICTIONARY
  5
5FF
100
AcDbDictionary
280
     1
  3
ACAD_XREC_ROUNDTRIP
360
600
  0
DICTIONARY
  5
630
100
AcDbDictionary
280
     1
  3
ACAD_XREC_ROUNDTRIP
360
631
  0
DICTIONARY
  5
634
100
AcDbDictionary
280
     1
  3
ACAD_XREC_ROUNDTRIP
360
635
  0
DICTIONARY
  5
650
100
AcDbDictionary
280
     1
  3
ACAD_XREC_ROUNDTRIP
360
651
  0
DICTIONARY
  5
632
100
AcDbDictionary
280
     1
  3
ACAD_XREC_ROUNDTRIP
360
633
  0
DICTIONARY
  5
636
100
AcDbDictionary
280
     1
  3
ACAD_XREC_ROUNDTRIP
360
637
  0
DICTIONARY
  5
64E
100
AcDbDictionary
280
     1
  3
ACAD_XREC_ROUNDTRIP
360
64F
  0
DICTIONARY
  5
638
100
AcDbDictionary
280
     1
  3
ACAD_XREC_ROUNDTRIP
360
639
  0
DICTIONARY
  5
648
100
AcDbDictionary
280
     1
  3
ACAD_XREC_ROUNDTRIP
360
649
  0
DICTIONARY
  5
64A
100
AcDbDictionary
280
     1
  3
ACAD_XREC_ROUNDTRIP
360
64B
  0
DICTIONARY
  5
64C
100
AcDbDictionary
280
     1
  3
ACAD_XREC_ROUNDTRIP
360
64D
  0
DICTIONARY
  5
666
100
AcDbDictionary
280
     1
  3
ACAD_XREC_ROUNDTRIP
360
667
  0
DICTIONARY
  5
62A
100
AcDbDictionary
280
     1
  3
ACAD_XREC_ROUNDTRIP
360
62B
  0
DICTIONARY
  5
658
100
AcDbDictionary
280
     1
  3
ACAD_XREC_ROUNDTRIP
360
659
  0
DICTIONARY
  5
65A
100
AcDbDictionary
280
     1
  3
ACAD_XREC_ROUNDTRIP
360
65B
  0
DICTIONARY
  5
65C
100
AcDbDictionary
280
     1
  3
ACAD_XREC_ROUNDTRIP
360
65D
  0
DICTIONARY
  5
65E
100
AcDbDictionary
280
     1
  3
ACAD_XREC_ROUNDTRIP
360
65F
  0
DICTIONARY
  5
660
100
AcDbDictionary
280
     1
  3
ACAD_XREC_ROUNDTRIP
360
661
  0
DICTIONARY
  5
662
100
AcDbDictionary
280
     1
  3
ACAD_XREC_ROUNDTRIP
360
663
  0
DICTIONARY
  5
62C
100
AcDbDictionary
280
     1
  3
ACAD_XREC_ROUNDTRIP
360
62D
  0
DICTIONARY
  5
3
100
AcDbDictionary
280
     1
  3
ACAD_INDEX
360
5DD
  3
ACAD_LAYOUTSELFREF
360
624
  3
ACAD_XREC_ROUNDTRIP
360
5F0
  0
DICTIONARY
  5
5F1
100
AcDbDictionary
280
     1
  3
ACAD_LAYOUTSELFREF
360
629
  3
ACAD_XREC_ROUNDTRIP
360
5F2
  0
DICTIONARY
  5
627
100
AcDbDictionary
280
     1
  3
ACAD_XREC_ROUNDTRIP
360
628
  0
DICTIONARY
  5
22
102
{ACAD_REACTORS
330
8
102
}
100
AcDbDictionary
  0
DICTIONARY
  5
7
102
{ACAD_XDICTIONARY
360
625
102
}
102
{ACAD_REACTORS
330
8
102
}
100
AcDbDictionary
  3
LAYOUT1
350
C
  3
MODEL
350
6
  0
DICTIONARY
  5
23
102
{ACAD_XDICTIONARY
360
62E
102
}
102
{ACAD_REACTORS
330
8
102
}
100
AcDbDictionary
  3
STANDARD
350
26
  0
DICTIONARY
  5
24
102
{ACAD_REACTORS
330
8
102
}
100
AcDbDictionary
  0
ACAD_PROXY_OBJECT
  5
10
102
{ACAD_REACTORS
330
8
102
}
100
AcDbProxyObject
 90
      499
 91
      500
 93
       86
310
405010041939BDC9B585B2
350
F
340
F
 94
        0
  0
DICTIONARY
  5
603
102
{ACAD_REACTORS
330
8
102
}
100
AcDbDictionary
  3
CEPSNTYPE
350
60D
  3
DIMSTYLEDATA
350
611
  3
FINGERPRINTGUID
350
60E
  3
HYPERLINKBASE
350
606
  3
INSUNITS
350
60C
  3
LAYOUTDICT
350
608
  3
LWETCUNION
350
60B
  3
PLOTSETDICT
350
609
  3
PLOTSTYLNAMDICT
350
60A
  3
PSVPSCALE
350
610
  3
PUCSBASE
350
614
  3
PUCSORGBACK
350
61A
  3
PUCSORGBOTTOM
350
616
  3
PUCSORGFRONT
350
619
  3
PUCSORGLEFT
350
617
  3
PUCSORGRIGHT
350
618
  3
PUCSORGTOP
350
615
  3
PUCSORTHOREF
350
612
  3
PUCSORTHOVIEW
350
613
  3
STYLESHEET
350
607
  3
TSTACKALIGN
350
604
  3
TSTACKSIZE
350
605
  3
UCSBASE
350
61D
  3
UCSORGBACK
350
623
  3
UCSORGBOTTOM
350
61F
  3
UCSORGFRONT
350
622
  3
UCSORGLEFT
350
620
  3
UCSORGRIGHT
350
621
  3
UCSORGTOP
350
61E
  3
UCSORTHOREF
350
61B
  3
UCSORTHOVIEW
350
61C
  3
VERSIONGUID
350
60F
  0
DICTIONARY
  5
5B6
102
{ACAD_REACTORS
330
8
102
}
100
AcDbDictionary
  3
DIMASSOC
350
5B8
  3
HIDETEXT
350
5B7
  3
INDEXCTL
350
5EB
  0
ACAD_PROXY_OBJECT
  5
5B0
102
{ACAD_REACTORS
330
8
102
}
100
AcDbProxyObject
 90
      499
 91
      517
 93
       34
310
040000428F
 94
        0
  0
ACAD_PROXY_OBJECT
  5
5D0
102
{ACAD_REACTORS
330
8
102
}
100
AcDbProxyObject
 90
      499
 91
      520
 93
      114
310
04000041C000000000000000000000
 94
        0
  0
DICTIONARY
  5
587
102
{ACAD_XDICTIONARY
360
656
102
}
102
{ACAD_REACTORS
330
8
102
}
100
AcDbDictionary
  3
ACMSTDDICTIONARY
350
588
  0
DICTIONARY
  5
577
102
{ACAD_XDICTIONARY
360
652
102
}
102
{ACAD_REACTORS
330
8
102
}
100
AcDbDictionary
  3
ACMGSETTINGS
350
57F
  0
DICTIONARY
  5
5D6
102
{ACAD_XDICTIONARY
360
664
102
}
102
{ACAD_REACTORS
330
8
102
}
100
AcDbDictionary
  0
ACAD_PROXY_OBJECT
  5
5D1
102
{ACAD_REACTORS
330
8
102
}
100
AcDbProxyObject
 90
      499
 91
      521
 93
       34
310
0500004280
 94
        0
  0
XRECORD
  5
5D4
102
{ACAD_REACTORS
330
8
102
}
100
AcDbXrecord
  1
DWGPROPS COOKIE
  2

  3

  4

  6

  7

  8

  9

300
AmdtFileType=84
301
=
302
=
303
=
304
=
305
=
306
=
307
=
308
=
309
=
 40
0.918168
 41
2452896.394699
 42
2452900.685591
  1

 90
        1
  0
XRECORD
  5
602
102
{ACAD_REACTORS
330
601
102
}
100
AcDbXrecord
102
EXTNAMES
  1
*ACTIVE
  2
*Active
102
UCS
 74
     0
 71
     0
 10
0.0
 20
0.0
 30
0.0
 10
1.0
 20
0.0
 30
0.0
 10
0.0
 20
1.0
 30
0.0
146
0.0
 79
     0
102
VIEW
281
     0
  0
XRECORD
  5
5F4
102
{ACAD_REACTORS
330
5F3
102
}
100
AcDbXrecord
102
EXTNAMES
  1
BYBLOCK
  2
ByBlock
  0
XRECORD
  5
5F6
102
{ACAD_REACTORS
330
5F5
102
}
100
AcDbXrecord
102
EXTNAMES
  1
BYLAYER
  2
ByLayer
  0
XRECORD
  5
5F8
102
{ACAD_REACTORS
330
5F7
102
}
100
AcDbXrecord
102
EXTNAMES
  1
CONTINUOUS
  2
Continuous
  0
XRECORD
  5
5FA
102
{ACAD_REACTORS
330
5F9
102
}
100
AcDbXrecord
102
EXTNAMES
  1
AMCONSTR
  2
Amconstr
  0
XRECORD
  5
5FC
102
{ACAD_REACTORS
330
5FB
102
}
100
AcDbXrecord
102
EXTNAMES
  1
AMZIGZAG
  2
Amzigzag
  0
XRECORD
  5
5FE
102
{ACAD_REACTORS
330
5FD
102
}
100
AcDbXrecord
102
EXTNAMES
  1
AM_DIN_G_W050X2
  2
AM_DIN_G_W050x2
  0
XRECORD
  5
600
102
{ACAD_REACTORS
330
5FF
102
}
100
AcDbXrecord
102
EXTNAMES
  1
AM_DIN_F_W050X2
  2
AM_DIN_F_W050x2
  0
XRECORD
  5
631
102
{ACAD_REACTORS
330
630
102
}
100
AcDbXrecord
102
LINEWEIGHT
280
    11
  0
XRECORD
  5
635
102
{ACAD_REACTORS
330
634
102
}
100
AcDbXrecord
102
PLOTBIT
280
     0
  0
XRECORD
  5
651
102
{ACAD_REACTORS
330
650
102
}
100
AcDbXrecord
102
LINEWEIGHT
280
     9
  0
XRECORD
  5
633
102
{ACAD_REACTORS
330
632
102
}
100
AcDbXrecord
102
LINEWEIGHT
280
     7
  0
XRECORD
  5
637
102
{ACAD_REACTORS
330
636
102
}
100
AcDbXrecord
102
LINEWEIGHT
280
     7
  0
XRECORD
  5
64F
102
{ACAD_REACTORS
330
64E
102
}
100
AcDbXrecord
102
LINEWEIGHT
280
     7
  0
XRECORD
  5
639
102
{ACAD_REACTORS
330
638
102
}
100
AcDbXrecord
102
LINEWEIGHT
280
     7
  0
XRECORD
  5
649
102
{ACAD_REACTORS
330
648
102
}
100
AcDbXrecord
102
LINEWEIGHT
280
     7
  0
XRECORD
  5
64B
102
{ACAD_REACTORS
330
64A
102
}
100
AcDbXrecord
102
LINEWEIGHT
280
    11
  0
XRECORD
  5
64D
102
{ACAD_REACTORS
330
64C
102
}
100
AcDbXrecord
102
LINEWEIGHT
280
     7
  0
XRECORD
  5
667
102
{ACAD_REACTORS
330
666
102
}
100
AcDbXrecord
102
UCS
 72
     0
 10
0.0
 20
0.0
 30
0.0
 10
1.0
 20
0.0
 30
0.0
 10
0.0
 20
1.0
 30
0.0
146
0.0
 79
     0
102
VIEW
281
     0
  0
XRECORD
  5
62B
102
{ACAD_REACTORS
330
62A
102
}
100
AcDbXrecord
102
ACADR14ROUNDTRIP
1000
DSTYLE
1002
{
1070
    79
 70
     2
1070
   371
 70
    -1
1070
   372
 70
    -1
1002
}
  0
XRECORD
  5
659
102
{ACAD_REACTORS
330
658
102
}
100
AcDbXrecord
102
ACADR14ROUNDTRIP
1000
DSTYLE
1002
{
1070
    79
 70
     2
1070
   289
 70
     0
1070
   371
 70
    -1
1070
   372
 70
    -1
1002
}
  0
XRECORD
  5
65B
102
{ACAD_REACTORS
330
65A
102
}
100
AcDbXrecord
102
ACADR14ROUNDTRIP
1000
DSTYLE
1002
{
1070
    79
 70
     2
1070
   279
 70
     1
1070
   289
 70
     0
1070
   371
 70
    -1
1070
   372
 70
    -1
1002
}
  0
XRECORD
  5
65D
102
{ACAD_REACTORS
330
65C
102
}
100
AcDbXrecord
102
ACADR14ROUNDTRIP
1000
DSTYLE
1002
{
1070
    79
 70
     2
1070
   371
 70
    -1
1070
   372
 70
    -1
1002
}
  0
XRECORD
  5
65F
102
{ACAD_REACTORS
330
65E
102
}
100
AcDbXrecord
102
ACADR14ROUNDTRIP
1000
DSTYLE
1002
{
1070
    79
 70
     2
1070
   371
 70
    -1
1070
   372
 70
    -1
1002
}
  0
XRECORD
  5
661
102
{ACAD_REACTORS
330
660
102
}
100
AcDbXrecord
102
ACADR14ROUNDTRIP
1000
DSTYLE
1002
{
1070
    79
 70
     2
1070
   371
 70
    -1
1070
   372
 70
    -1
1002
}
  0
XRECORD
  5
663
102
{ACAD_REACTORS
330
662
102
}
100
AcDbXrecord
102
ACADR14ROUNDTRIP
1000
DSTYLE
1002
{
1070
    79
 70
     2
1070
   343
340
5A3
1070
   371
 70
    -1
1070
   372
 70
    -1
1002
}
  0
XRECORD
  5
62D
102
{ACAD_REACTORS
330
62C
102
}
100
AcDbXrecord
102
ACADR14ROUNDTRIP
1000
DSTYLE
1002
{
1070
    79
 70
     2
1070
   371
 70
    -1
1070
   372
 70
    -1
1002
}
  0
DICTIONARY
  5
5DD
102
{ACAD_REACTORS
330
3
102
}
100
AcDbDictionary
  3
*A1
350
5DE
  0
XRECORD
  5
624
102
{ACAD_REACTORS
330
3
102
}
100
AcDbXrecord
340
2
  0
XRECORD
  5
5F0
102
{ACAD_REACTORS
330
3
102
}
100
AcDbXrecord
102
EXTNAMES
  1
*MODEL_SPACE
  2
*Model_Space
  0
XRECORD
  5
629
102
{ACAD_REACTORS
330
5F1
102
}
100
AcDbXrecord
340
9
  0
XRECORD
  5
5F2
102
{ACAD_REACTORS
330
5F1
102
}
100
AcDbXrecord
102
EXTNAMES
  1
*PAPER_SPACE
  2
*Paper_Space
  0
XRECORD
  5
628
102
{ACAD_REACTORS
330
627
102
}
100
AcDbXrecord
102
EXTNAMES
  1
ACDBVARIABLEDICTIONARY
  2
AcDbVariableDictionary
  1
ACMDICTIONARY
  2
AcmDictionary
  1
ACMESYSVARMANAGER
  2
AcmeSysVarManager
  1
ACMSYSTEMVARIABLEMANAGER
  2
AcmSystemVariableManager
  0
DICTIONARY
  5
625
100
AcDbDictionary
280
     1
  3
ACAD_XREC_ROUNDTRIP
360
626
  0
ACAD_PROXY_OBJECT
  5
C
102
{ACAD_REACTORS
330
7
102
}
100
AcDbProxyObject
 90
      499
 91
      502
 93
     1580
310
90B6E6F6E655F6465766963652C0E80000006066661940000000181999865000000000068661940000000001A1986500000000C0CCFC6A4000000018199D9C5011C4C65747465725F28382E35305F785F31312E30305F496E6368657329A40501416AA591069074C61796F75743140501A8000000000000000000000000000
310
00000000000000101E900000000000241C902A6A6A10232D5E076BC5510408CB5781DAF154410232D5E076BC5510408CB5781DAF15C410232D5E076BC5710408CB5781DAF15C40
330
9
330
0
340
0
340
0
 94
        0
  0
ACAD_PROXY_OBJECT
  5
6
102
{ACAD_REACTORS
330
7
102
}
100
AcDbProxyObject
 90
      499
 91
      502
 93
     1684
310
9075044462E7063332D0B80000002033931C40000000380B24C71000000000034931C40000000000C24C71000000006080406A40000000280AE41C9010241348806FA598E3E6FF3F405014105C18F2F6ABDEB140114135FEDEDFAA7002E0C79FB55ECC0400C08AE37B7DCDE30108414D5F56494557364E810B96CC9582D404
310
359D85B9E97D9995A5B8B98DD18A04B601D0D3DCAC4FC5C18F2F6ABDEB1C0114135FEDEDFAA501054D6F64656C901A800000000000000000000000000000000000000000000A1000000000000008902A6A6AAAAA
330
2
330
0
340
0
340
0
 94
        0
  0
DICTIONARY
  5
62E
100
AcDbDictionary
280
     1
  3
ACAD_XREC_ROUNDTRIP
360
62F
  0
MLINESTYLE
  5
26
102
{ACAD_REACTORS
330
23
102
}
100
AcDbMlineStyle
  2
STANDARD
 70
     0
  3

 62
   256
 51
90.0
 52
90.0
 71
     2
 49
0.5
 62
   256
  6
BYLAYER
 49
-0.5
 62
   256
  6
BYLAYER
  0
ACAD_PROXY_OBJECT
  5
F
102
{ACAD_REACTORS
330
10
102
}
100
AcDbProxyObject
 90
      499
 91
      501
 93
        0
 94
        0
  0
XRECORD
  5
60D
102
{ACAD_REACTORS
330
603
102
}
100
AcDbXrecord
 90
        0
  0
XRECORD
  5
611
102
{ACAD_REACTORS
330
603
102
}
100
AcDbXrecord
1000
DSTYLE
1002
{
1070
    79
 70
     2
1070
   371
 70
    -1
1070
   372
 70
    -1
1002
}
  0
XRECORD
  5
60E
102
{ACAD_REACTORS
330
603
102
}
100
AcDbXrecord
  1
{3784B30D-4D27-11D4-B99F-00C04F7995CB}
  0
XRECORD
  5
606
102
{ACAD_REACTORS
330
603
102
}
100
AcDbXrecord
  1

  0
XRECORD
  5
60C
102
{ACAD_REACTORS
330
603
102
}
100
AcDbXrecord
 90
        4
  0
XRECORD
  5
608
102
{ACAD_REACTORS
330
603
102
}
100
AcDbXrecord
340
7
  0
XRECORD
  5
60B
102
{ACAD_REACTORS
330
603
102
}
100
AcDbXrecord
 90
    10781
  0
XRECORD
  5
609
102
{ACAD_REACTORS
330
603
102
}
100
AcDbXrecord
340
24
  0
XRECORD
  5
60A
102
{ACAD_REACTORS
330
603
102
}
100
AcDbXrecord
340
10
  0
XRECORD
  5
610
102
{ACAD_REACTORS
330
603
102
}
100
AcDbXrecord
 40
0.0
  0
XRECORD
  5
614
102
{ACAD_REACTORS
330
603
102
}
100
AcDbXrecord
340
0
  0
XRECORD
  5
61A
102
{ACAD_REACTORS
330
603
102
}
100
AcDbXrecord
 10
0.0
 20
0.0
 30
0.0
  0
XRECORD
  5
616
102
{ACAD_REACTORS
330
603
102
}
100
AcDbXrecord
 10
0.0
 20
0.0
 30
0.0
  0
XRECORD
  5
619
102
{ACAD_REACTORS
330
603
102
}
100
AcDbXrecord
 10
0.0
 20
0.0
 30
0.0
  0
XRECORD
  5
617
102
{ACAD_REACTORS
330
603
102
}
100
AcDbXrecord
 10
0.0
 20
0.0
 30
0.0
  0
XRECORD
  5
618
102
{ACAD_REACTORS
330
603
102
}
100
AcDbXrecord
 10
0.0
 20
0.0
 30
0.0
  0
XRECORD
  5
615
102
{ACAD_REACTORS
330
603
102
}
100
AcDbXrecord
 10
0.0
 20
0.0
 30
0.0
  0
XRECORD
  5
612
102
{ACAD_REACTORS
330
603
102
}
100
AcDbXrecord
340
0
  0
XRECORD
  5
613
102
{ACAD_REACTORS
330
603
102
}
100
AcDbXrecord
 70
     0
  0
XRECORD
  5
607
102
{ACAD_REACTORS
330
603
102
}
100
AcDbXrecord
  1
ganz_fein.ctb
  0
XRECORD
  5
604
102
{ACAD_REACTORS
330
603
102
}
100
AcDbXrecord
 90
        1
  0
XRECORD
  5
605
102
{ACAD_REACTORS
330
603
102
}
100
AcDbXrecord
 90
       70
  0
XRECORD
  5
61D
102
{ACAD_REACTORS
330
603
102
}
100
AcDbXrecord
340
0
  0
XRECORD
  5
623
102
{ACAD_REACTORS
330
603
102
}
100
AcDbXrecord
 10
0.0
 20
0.0
 30
0.0
  0
XRECORD
  5
61F
102
{ACAD_REACTORS
330
603
102
}
100
AcDbXrecord
 10
0.0
 20
0.0
 30
0.0
  0
XRECORD
  5
622
102
{ACAD_REACTORS
330
603
102
}
100
AcDbXrecord
 10
0.0
 20
0.0
 30
0.0
  0
XRECORD
  5
620
102
{ACAD_REACTORS
330
603
102
}
100
AcDbXrecord
 10
0.0
 20
0.0
 30
0.0
  0
XRECORD
  5
621
102
{ACAD_REACTORS
330
603
102
}
100
AcDbXrecord
 10
0.0
 20
0.0
 30
0.0
  0
XRECORD
  5
61E
102
{ACAD_REACTORS
330
603
102
}
100
AcDbXrecord
 10
0.0
 20
0.0
 30
0.0
  0
XRECORD
  5
61B
102
{ACAD_REACTORS
330
603
102
}
100
AcDbXrecord
340
0
  0
XRECORD
  5
61C
102
{ACAD_REACTORS
330
603
102
}
100
AcDbXrecord
 70
     0
  0
XRECORD
  5
60F
102
{ACAD_REACTORS
330
603
102
}
100
AcDbXrecord
  1
{21983701-422A-43EB-9246-9DED4CC0FEBC}
  0
DICTIONARYVAR
  5
5B8
102
{ACAD_REACTORS
330
5B6
102
}
100
DictionaryVariables
280
     0
  1
1
  0
DICTIONARYVAR
  5
5B7
102
{ACAD_REACTORS
330
5B6
102
}
100
DictionaryVariables
280
     0
  1
1
  0
DICTIONARYVAR
  5
5EB
102
{ACAD_REACTORS
330
5B6
102
}
100
DictionaryVariables
280
     0
  1
1
  0
DICTIONARY
  5
656
100
AcDbDictionary
280
     1
  3
ACAD_XREC_ROUNDTRIP
360
657
  0
DICTIONARY
  5
588
102
{ACAD_REACTORS
330
587
102
}
100
AcDbDictionary
  0
DICTIONARY
  5
652
100
AcDbDictionary
280
     1
  3
ACAD_XREC_ROUNDTRIP
360
653
  0
DICTIONARY
  5
57F
102
{ACAD_XDICTIONARY
360
654
102
}
102
{ACAD_REACTORS
330
577
102
}
100
AcDbDictionary
  3
DWGSETTINGS
350
580
  0
DICTIONARY
  5
664
100
AcDbDictionary
280
     1
  3
ACAD_XREC_ROUNDTRIP
360
665
  0
LAYER_INDEX
  5
5DE
102
{ACAD_REACTORS
330
5DD
102
}
100
AcDbIndex
 40
2452900.691014896
100
AcDbLayerIndex
  8
0
360
5DF
 90
   100
  8
AM_0
360
5E0
 90
   383
  8
DEFPOINTS
360
5E1
 90
     1
  8
AM_6
360
5E2
 90
     4
  8
AM_5
360
5E3
 90
     8
  8
AM_8
360
5E4
 90
    13
  8
AM_4
360
5E5
 90
   593
  8
AM_7
360
5E6
 90
    33
  8
AM_3
360
5E7
 90
    67
  8
AM_0N
360
5E8
 90
     8
  8
AM_4N
360
5E9
 90
     1
  0
XRECORD
  5
626
102
{ACAD_REACTORS
330
625
102
}
100
AcDbXrecord
102
EXTNAMES
  1
LAYOUT1
  2
Layout1
  1
MODEL
  2
Model
  0
XRECORD
  5
62F
102
{ACAD_REACTORS
330
62E
102
}
100
AcDbXrecord
102
EXTNAMES
  1
STANDARD
  2
Standard
  0
XRECORD
  5
657
102
{ACAD_REACTORS
330
656
102
}
100
AcDbXrecord
102
EXTNAMES
  1
ACMBOMDATA
  2
AcmBOMDATA
  1
ACMSTDDICTIONARY
  2
AcmStdDictionary
  0
XRECORD
  5
653
102
{ACAD_REACTORS
330
652
102
}
100
AcDbXrecord
102
EXTNAMES
  1
ACMGSETTINGS
  2
AcMgSettings
  0
DICTIONARY
  5
654
100
AcDbDictionary
280
     1
  3
ACAD_XREC_ROUNDTRIP
360
655
  0
XRECORD
  5
580
102
{ACAD_REACTORS
330
57F
102
}
100
AcDbXrecord
  1
VERSION
140
15.0
  1
PRODUCT
  2
AutoCAD Mechanical 2000
  0
XRECORD
  5
665
102
{ACAD_REACTORS
330
664
102
}
100
AcDbXrecord
102
EXTNAMES
  1
HATCH__1_
  2
HATCH (1)
  1
HATCH__2_
  2
HATCH (2)
  1
SIMPLE_WELD
  2
SIMPLE WELD
  0
IDBUFFER
  5
5DF
100
AcDbIdBuffer
330
245
330
246
330
247
330
248
330
249
330
24A
330
24B
330
24C
330
24D
330
24E
330
24F
330
250
330
251
330
252
330
253
330
254
330
255
330
256
330
257
330
258
330
259
330
25A
330
25B
330
25C
330
25D
330
25E
330
25F
330
260
330
261
330
262
330
264
330
266
330
267
330
268
330
269
330
26A
330
26B
330
26C
330
26D
330
26E
330
26F
330
270
330
271
330
272
330
273
330
274
330
275
330
276
330
2E2
330
2E3
330
5AA
330
5AF
330
56
330
214
330
215
330
216
330
217
330
218
330
219
330
21A
330
21B
330
21C
330
21D
330
21E
330
21F
330
220
330
221
330
222
330
223
330
224
330
225
330
226
330
227
330
228
330
229
330
22A
330
22B
330
22C
330
22D
330
22E
330
22F
330
230
330
231
330
232
330
233
330
234
330
235
330
236
330
237
330
238
330
239
330
23B
330
23C
330
23D
330
23E
330
23F
330
241
330
242
330
243
330
244
  0
IDBUFFER
  5
5E0
100
AcDbIdBuffer
330
29D
330
29E
330
29F
330
2A0
330
2A1
330
2A2
330
2A3
330
2A4
330
2A5
330
2A6
330
2A7
330
2A8
330
2A9
330
2AA
330
2AB
330
2AD
330
2AE
330
2AF
330
2B0
330
2B1
330
2B2
330
2B4
330
2B6
330
2B7
330
2B8
330
2B9
330
2BA
330
2BC
330
2BD
330
2BE
330
2BF
330
2C0
330
2C1
330
2C2
330
2C3
330
2C5
330
2C6
330
2C7
330
2C8
330
2CA
330
2CB
330
2CC
330
2CD
330
2CE
330
2CF
330
2D0
330
2D1
330
2D2
330
2D3
330
2D4
330
2D5
330
2D6
330
2D8
330
2D9
330
2DA
330
2DB
330
2DC
330
2DD
330
2DE
330
2DF
330
2E0
330
51A
330
51B
330
51C
330
51D
330
51F
330
520
330
521
330
522
330
524
330
525
330
526
330
527
330
528
330
52A
330
52B
330
52C
330
52D
330
52E
330
52F
330
530
330
531
330
532
330
533
330
534
330
536
330
537
330
538
330
539
330
53A
330
53B
330
53C
330
53D
330
53E
330
53F
330
540
330
541
330
542
330
543
330
544
330
545
330
546
330
549
330
54A
330
54B
330
54C
330
54F
330
550
330
551
330
552
330
553
330
554
330
555
330
556
330
557
330
558
330
559
330
55A
330
55B
330
55C
330
55D
330
55E
330
55F
330
560
330
561
330
562
330
563
330
564
330
565
330
566
330
567
330
568
330
569
330
56A
330
56B
330
56C
330
56D
330
56E
330
56F
330
572
330
573
330
574
330
575
330
44
330
45
330
4B
330
4C
330
4D
330
50
330
51
330
52
330
53
330
57
330
5A
330
5B
330
5C
330
5D
330
75
330
CC
330
CE
330
CF
330
D0
330
D1
330
D2
330
D3
330
D4
330
D5
330
D6
330
D8
330
DB
330
F1
330
FF
330
100
330
101
330
102
330
104
330
105
330
106
330
107
330
108
330
109
330
10A
330
10C
330
10D
330
10E
330
111
330
112
330
113
330
114
330
115
330
116
330
117
330
118
330
119
330
11A
330
11B
330
11C
330
120
330
13D
330
13E
330
13F
330
140
330
141
330
142
330
143
330
144
330
145
330
146
330
147
330
148
330
149
330
14A
330
14B
330
14C
330
14D
330
14E
330
14F
330
150
330
151
330
152
330
153
330
154
330
155
330
156
330
157
330
158
330
159
330
15A
330
15C
330
15D
330
15E
330
15F
330
160
330
161
330
162
330
163
330
164
330
165
330
166
330
167
330
168
330
169
330
16A
330
16C
330
16D
330
16E
330
170
330
171
330
172
330
173
330
174
330
175
330
176
330
177
330
178
330
17A
330
17B
330
17C
330
17D
330
17E
330
17F
330
180
330
181
330
182
330
183
330
184
330
185
330
186
330
187
330
188
330
189
330
18B
330
18D
330
18E
330
18F
330
191
330
192
330
193
330
194
330
195
330
1B5
330
1B6
330
1B7
330
1B8
330
1B9
330
1BA
330
1BB
330
1BC
330
1BD
330
1CB
330
1CC
330
1CE
330
1CF
330
1D0
330
1D1
330
1D2
330
1D3
330
1D4
330
1D5
330
1D8
330
1D9
330
1DC
330
1DF
330
1E0
330
1E1
330
1E2
330
1E3
330
1E4
330
1E5
330
1E6
330
1E7
330
1E9
330
1EA
330
1EB
330
1EC
330
1ED
330
1EE
330
1EF
330
1F0
330
1F1
330
1F2
330
1F3
330
1F4
330
1F5
330
1F6
330
1F7
330
1F8
330
1FB
330
1FC
330
1FD
330
200
330
201
330
202
330
203
330
204
330
205
330
206
330
207
330
208
330
209
330
20A
330
20B
330
20C
330
20D
330
20E
330
20F
330
210
330
211
330
212
330
213
330
277
330
278
330
279
330
27A
330
27B
330
27C
330
27D
330
27E
330
27F
330
280
330
281
330
282
330
284
330
285
330
286
330
287
330
288
330
289
330
28A
330
28B
330
28D
330
28E
330
28F
330
290
330
291
330
292
330
293
330
294
330
295
330
296
330
297
330
299
330
29C
  0
IDBUFFER
  5
5E1
100
AcDbIdBuffer
330
23A
  0
IDBUFFER
  5
5E2
100
AcDbIdBuffer
330
197
330
1B4
330
2E1
330
2F5
  0
IDBUFFER
  5
5E3
100
AcDbIdBuffer
330
27
330
35
330
64
330
E4
330
F2
330
122
330
12F
330
1BE
  0
IDBUFFER
  5
5E4
100
AcDbIdBuffer
330
46
330
4E
330
4F
330
54
330
55
330
11D
330
11F
330
1D7
330
1DB
330
298
330
2B5
330
51E
330
523
  0
IDBUFFER
  5
5E5
100
AcDbIdBuffer
330
4BF
330
4C0
330
4C1
330
4C2
330
4C3
330
4C4
330
4C5
330
4C6
330
4C7
330
4C8
330
4C9
330
4CA
330
4CB
330
4CC
330
4CD
330
4CE
330
4CF
330
4D0
330
4D1
330
4D2
330
4D3
330
4D4
330
4D5
330
4D6
330
4D7
330
4D8
330
4D9
330
4DA
330
4DB
330
4DC
330
4DD
330
4DE
330
4DF
330
4E0
330
4E1
330
4E2
330
4E3
330
4E4
330
4E5
330
4E6
330
4E7
330
4E8
330
4E9
330
4EA
330
4EB
330
4EC
330
4ED
330
4EE
330
4EF
330
4F0
330
4F1
330
4F2
330
4F3
330
4F4
330
4F5
330
4F6
330
4F7
330
4F8
330
4F9
330
4FA
330
4FB
330
4FC
330
4FD
330
4FE
330
4FF
330
500
330
501
330
502
330
503
330
504
330
505
330
506
330
507
330
508
330
509
330
50A
330
50B
330
50C
330
50D
330
50E
330
50F
330
510
330
511
330
512
330
513
330
514
330
515
330
516
330
517
330
518
330
519
330
547
330
548
330
54D
330
54E
330
570
330
571
330
D9
330
103
330
16B
330
16F
330
18A
330
18C
330
190
330
1D6
330
1DA
330
1F9
330
1FA
330
1FE
330
1FF
330
265
330
283
330
28C
330
29A
330
29B
330
2BB
330
2C4
330
2C9
330
2D7
330
2E4
330
2E5
330
2E6
330
2E7
330
2E8
330
2E9
330
2EA
330
2EB
330
2EC
330
2ED
330
2EE
330
2EF
330
2F0
330
2F1
330
2F2
330
2F3
330
2F4
330
2F6
330
2F7
330
2F8
330
2F9
330
2FA
330
2FB
330
2FC
330
2FD
330
2FE
330
2FF
330
300
330
301
330
302
330
303
330
304
330
305
330
306
330
307
330
308
330
309
330
30A
330
30B
330
30C
330
30D
330
30E
330
30F
330
310
330
311
330
312
330
313
330
314
330
315
330
316
330
317
330
318
330
319
330
31A
330
31B
330
31C
330
31D
330
31E
330
31F
330
320
330
321
330
322
330
323
330
324
330
325
330
326
330
327
330
328
330
329
330
32A
330
32B
330
32C
330
32D
330
32E
330
32F
330
330
330
331
330
332
330
333
330
334
330
335
330
336
330
337
330
338
330
339
330
33A
330
33B
330
33C
330
33D
330
33E
330
33F
330
340
330
341
330
342
330
343
330
344
330
345
330
346
330
347
330
348
330
349
330
34A
330
34B
330
34C
330
34D
330
34E
330
34F
330
350
330
351
330
352
330
353
330
354
330
355
330
356
330
357
330
358
330
359
330
35A
330
35B
330
35C
330
35D
330
35E
330
35F
330
360
330
361
330
362
330
363
330
364
330
365
330
366
330
367
330
368
330
369
330
36A
330
36B
330
36C
330
36D
330
36E
330
36F
330
370
330
371
330
372
330
373
330
374
330
375
330
376
330
377
330
378
330
379
330
37A
330
37B
330
37C
330
37D
330
37E
330
37F
330
380
330
381
330
382
330
383
330
384
330
385
330
386
330
387
330
388
330
389
330
38A
330
38B
330
38C
330
38D
330
38E
330
38F
330
390
330
391
330
392
330
393
330
394
330
395
330
396
330
397
330
398
330
399
330
39A
330
39B
330
39C
330
39D
330
39E
330
39F
330
3A0
330
3A1
330
3A2
330
3A3
330
3A4
330
3A5
330
3A6
330
3A7
330
3A8
330
3A9
330
3AA
330
3AB
330
3AC
330
3AD
330
3AE
330
3AF
330
3B0
330
3B1
330
3B2
330
3B3
330
3B4
330
3B5
330
3B6
330
3B7
330
3B8
330
3B9
330
3BA
330
3BB
330
3BC
330
3BD
330
3BE
330
3BF
330
3C0
330
3C1
330
3C2
330
3C3
330
3C4
330
3C5
330
3C6
330
3C7
330
3C8
330
3C9
330
3CA
330
3CB
330
3CC
330
3CD
330
3CE
330
3CF
330
3D0
330
3D1
330
3D2
330
3D3
330
3D4
330
3D5
330
3D6
330
3D7
330
3D8
330
3D9
330
3DA
330
3DB
330
3DC
330
3DD
330
3DE
330
3DF
330
3E0
330
3E1
330
3E2
330
3E3
330
3E4
330
3E5
330
3E6
330
3E7
330
3E8
330
3E9
330
3EA
330
3EB
330
3EC
330
3ED
330
3EE
330
3EF
330
3F0
330
3F1
330
3F2
330
3F3
330
3F4
330
3F5
330
3F6
330
3F7
330
3F8
330
3F9
330
3FA
330
3FB
330
3FC
330
3FD
330
3FE
330
3FF
330
400
330
401
330
402
330
403
330
404
330
405
330
406
330
407
330
408
330
409
330
40A
330
40B
330
40C
330
40D
330
40E
330
40F
330
410
330
411
330
412
330
413
330
414
330
415
330
416
330
417
330
418
330
419
330
41A
330
41B
330
41C
330
41D
330
41E
330
41F
330
420
330
421
330
422
330
423
330
424
330
425
330
426
330
427
330
428
330
429
330
42A
330
42B
330
42C
330
42D
330
42E
330
42F
330
430
330
431
330
432
330
433
330
434
330
435
330
436
330
437
330
438
330
439
330
43A
330
43B
330
43C
330
43D
330
43E
330
43F
330
440
330
441
330
442
330
443
330
444
330
445
330
446
330
447
330
448
330
449
330
44A
330
44B
330
44C
330
44D
330
44E
330
44F
330
450
330
451
330
452
330
453
330
454
330
455
330
456
330
457
330
458
330
459
330
45A
330
45B
330
45C
330
45D
330
45E
330
45F
330
460
330
461
330
462
330
463
330
464
330
465
330
466
330
467
330
468
330
469
330
46A
330
46B
330
46C
330
46D
330
46E
330
46F
330
470
330
471
330
472
330
473
330
474
330
475
330
476
330
477
330
478
330
479
330
47A
330
47B
330
47C
330
47D
330
47E
330
47F
330
480
330
481
330
482
330
483
330
484
330
485
330
486
330
487
330
488
330
489
330
48A
330
48B
330
48C
330
48D
330
48E
330
48F
330
490
330
491
330
492
330
493
330
494
330
495
330
496
330
497
330
498
330
499
330
49A
330
49B
330
49C
330
49D
330
49E
330
49F
330
4A0
330
4A1
330
4A2
330
4A3
330
4A4
330
4A5
330
4A6
330
4A7
330
4A8
330
4A9
330
4AA
330
4AB
330
4AC
330
4AD
330
4AE
330
4AF
330
4B0
330
4B1
330
4B2
330
4B3
330
4B4
330
4B5
330
4B6
330
4B7
330
4B8
330
4B9
330
4BA
330
4BB
330
4BC
330
4BD
330
4BE
  0
IDBUFFER
  5
5E6
100
AcDbIdBuffer
330
C6
330
CB
330
CD
330
D7
330
10B
330
110
330
11E
330
121
330
15B
330
179
330
196
330
1CD
330
1E8
330
2AC
330
2B3
330
529
330
535
330
5E
330
62
330
63
330
73
330
74
330
80
330
8E
330
8F
330
91
330
A3
330
A9
330
AB
330
AC
330
AE
330
C2
330
C5
  0
IDBUFFER
  5
5E7
100
AcDbIdBuffer
330
B9
330
BA
330
BB
330
C0
330
C1
330
C3
330
C4
330
C7
330
C8
330
C9
330
CA
330
DC
330
DD
330
DE
330
DF
330
E0
330
E1
330
E2
330
E3
330
76
330
79
330
7A
330
7B
330
7C
330
7D
330
7E
330
7F
330
81
330
83
330
84
330
85
330
86
330
87
330
88
330
89
330
8A
330
8B
330
8C
330
8D
330
90
330
92
330
93
330
94
330
95
330
96
330
97
330
98
330
99
330
9A
330
9B
330
9C
330
9D
330
9E
330
9F
330
A0
330
A1
330
A2
330
A4
330
A5
330
A6
330
A7
330
A8
330
AA
330
AD
330
AF
330
B2
330
B8
  0
IDBUFFER
  5
5E8
100
AcDbIdBuffer
330
B0
330
B3
330
B4
330
B5
330
BC
330
BD
330
BE
330
BF
  0
IDBUFFER
  5
5E9
100
AcDbIdBuffer
330
B6
  0
XRECORD
  5
655
102
{ACAD_REACTORS
330
654
102
}
100
AcDbXrecord
102
EXTNAMES
  1
SHAFT
  2
Shaft
  0
ENDSEC
  0
EOF
