  0
SECTION
  2
HEADER
  9
$ACADVER
  1
AC1014
  9
$ACADMAINTVER
 70
     9
  9
$DWGCODEPAGE
  3
ANSI_1252
  9
$INSBASE
 10
4855.477491
 20
105.0
 30
0.0
  9
$EXTMIN
 10
4855.477491
 20
105.0
 30
0.0
  9
$EXTMAX
 10
8943.477491
 20
2975.0
 30
0.0
  9
$LIMMIN
 10
4732.668136
 20
18.609236
  9
$LIMMAX
 10
9066.716586
 20
3061.493727
  9
$ORTHOMODE
 70
     0
  9
$REGENMODE
 70
     1
  9
$FILLMODE
 70
     1
  9
$QTEXTMODE
 70
     0
  9
$MIRRTEXT
 70
     0
  9
$DRAGMODE
 70
     2
  9
$LTSCALE
 40
7.0
  9
$OSMODE
 70
     0
  9
$ATTMODE
 70
     1
  9
$TEXTSIZE
 40
50.0
  9
$TRACEWID
 40
1.0
  9
$TEXTSTYLE
  7
STANDARD
  9
$CLAYER
  8
AM_0
  9
$CELTYPE
  6
BYLAYER
  9
$CECOLOR
 62
   256
  9
$CELTSCALE
 40
1.0
  9
$DELOBJ
 70
     1
  9
$DISPSILH
 70
     0
  9
$DIMSCALE
 40
7.0
  9
$DIMASZ
 40
2.5
  9
$DIMEXO
 40
0.0
  9
$DIMDLI
 40
10.0
  9
$DIMRND
 40
0.0
  9
$DIMDLE
 40
0.0
  9
$DIMEXE
 40
1.0
  9
$DIMTP
 40
0.1
  9
$DIMTM
 40
0.1
  9
$DIMTXT
 40
3.0
  9
$DIMCEN
 40
0.0
  9
$DIMTSZ
 40
0.0
  9
$DIMTOL
 70
     0
  9
$DIMLIM
 70
     0
  9
$DIMTIH
 70
     0
  9
$DIMTOH
 70
     0
  9
$DIMSE1
 70
     0
  9
$DIMSE2
 70
     0
  9
$DIMTAD
 70
     1
  9
$DIMZIN
 70
     8
  9
$DIMBLK
  1

  9
$DIMASO
 70
     1
  9
$DIMSHO
 70
     1
  9
$DIMPOST
  1

  9
$DIMAPOST
  1
"
  9
$DIMALT
 70
     0
  9
$DIMALTD
 70
     2
  9
$DIMALTF
 40
0.03937
  9
$DIMLFAC
 40
1.0
  9
$DIMTOFL
 70
     1
  9
$DIMTVP
 40
0.0
  9
$DIMTIX
 70
     0
  9
$DIMSOXD
 70
     0
  9
$DIMSAH
 70
     0
  9
$DIMBLK1
  1

  9
$DIMBLK2
  1

  9
$DIMSTYLE
  2
AM_DIN
  9
$DIMCLRD
 70
   256
  9
$DIMCLRE
 70
   256
  9
$DIMCLRT
 70
     2
  9
$DIMTFAC
 40
0.71
  9
$DIMGAP
 40
0.7
  9
$DIMJUST
 70
     0
  9
$DIMSD1
 70
     0
  9
$DIMSD2
 70
     0
  9
$DIMTOLJ
 70
     0
  9
$DIMTZIN
 70
     8
  9
$DIMALTZ
 70
     0
  9
$DIMALTTZ
 70
     0
  9
$DIMFIT
 70
     3
  9
$DIMUPT
 70
     0
  9
$DIMUNIT
 70
     2
  9
$DIMDEC
 70
     2
  9
$DIMTDEC
 70
     2
  9
$DIMALTU
 70
     2
  9
$DIMALTTD
 70
     2
  9
$DIMTXSTY
  7
STANDARD
  9
$DIMAUNIT
 70
     0
  9
$LUNITS
 70
     2
  9
$LUPREC
 70
     2
  9
$SKETCHINC
 40
1.0
  9
$FILLETRAD
 40
35.0
  9
$AUNITS
 70
     0
  9
$AUPREC
 70
     0
  9
$MENU
  1
.
  9
$ELEVATION
 40
0.0
  9
$PELEVATION
 40
0.0
  9
$THICKNESS
 40
0.0
  9
$LIMCHECK
 70
     0
  9
$BLIPMODE
 70
     0
  9
$CHAMFERA
 40
17.5
  9
$CHAMFERB
 40
17.5
  9
$CHAMFERC
 40
20.0
  9
$CHAMFERD
 40
0.0
  9
$SKPOLY
 70
     0
  9
$TDCREATE
 40
2452896.394699433
  9
$TDUPDATE
 40
2452900.691162280
  9
$TDINDWG
 40
0.9196142708
  9
$TDUSRTIMER
 40
0.9195634491
  9
$USRTIMER
 70
     1
  9
$ANGBASE
 50
0.0
  9
$ANGDIR
 70
     0
  9
$PDMODE
 70
     0
  9
$PDSIZE
 40
0.0
  9
$PLINEWID
 40
0.0
  9
$COORDS
 70
     2
  9
$SPLFRAME
 70
     0
  9
$SPLINETYPE
 70
     6
  9
$SPLINESEGS
 70
     8
  9
$ATTDIA
 70
     1
  9
$ATTREQ
 70
     0
  9
$HANDLING
 70
     1
  9
$HANDSEED
  5
672
  9
$SURFTAB1
 70
     6
  9
$SURFTAB2
 70
     6
  9
$SURFTYPE
 70
     6
  9
$SURFU
 70
     6
  9
$SURFV
 70
     6
  9
$UCSNAME
  2

  9
$UCSORG
 10
0.0
 20
0.0
 30
0.0
  9
$UCSXDIR
 10
1.0
 20
0.0
 30
0.0
  9
$UCSYDIR
 10
0.0
 20
1.0
 30
0.0
  9
$PUCSNAME
  2

  9
$PUCSORG
 10
0.0
 20
0.0
 30
0.0
  9
$PUCSXDIR
 10
1.0
 20
0.0
 30
0.0
  9
$PUCSYDIR
 10
0.0
 20
1.0
 30
0.0
  9
$USERI1
 70
     0
  9
$USERI2
 70
     0
  9
$USERI3
 70
     0
  9
$USERI4
 70
     0
  9
$USERI5
 70
     0
  9
$USERR1
 40
0.0
  9
$USERR2
 40
0.0
  9
$USERR3
 40
0.0
  9
$USERR4
 40
0.0
  9
$USERR5
 40
0.0
  9
$WORLDVIEW
 70
     1
  9
$SHADEDGE
 70
     3
  9
$SHADEDIF
 70
    70
  9
$TILEMODE
 70
     1
  9
$MAXACTVP
 70
    48
  9
$PINSBASE
 10
0.0
 20
0.0
 30
0.0
  9
$PLIMCHECK
 70
     0
  9
$PEXTMIN
 10
1.000000E+20
 20
1.000000E+20
 30
1.000000E+20
  9
$PEXTMAX
 10
-1.000000E+20
 20
-1.000000E+20
 30
-1.000000E+20
  9
$PLIMMIN
 10
0.0
 20
0.0
  9
$PLIMMAX
 10
420.0
 20
297.0
  9
$UNITMODE
 70
     0
  9
$VISRETAIN
 70
     1
  9
$PLINEGEN
 70
     0
  9
$PSLTSCALE
 70
     1
  9
$TREEDEPTH
 70
  3020
  9
$PICKSTYLE
 70
     0
  9
$CMLSTYLE
  2
STANDARD
  9
$CMLJUST
 70
     0
  9
$CMLSCALE
 40
20.0
  9
$PROXYGRAPHICS
 70
     1
  9
$MEASUREMENT
 70
     1
  0
ENDSEC
  0
SECTION
  2
CLASSES
  0
CLASS
  1
ACDBDICTIONARYWDFLT
  2
AcDbDictionaryWithDefault
  3
AutoCAD 2000
 90
        0
280
     0
281
     0
  0
CLASS
  1
ACDBPLACEHOLDER
  2
AcDbPlaceHolder
  3
AutoCAD 2000
 90
        0
280
     0
281
     0
  0
CLASS
  1
LAYOUT
  2
AcDbLayout
  3
AutoCAD 2000
 90
        0
280
     0
281
     0
  0
CLASS
  1
AMGSETTINGSOBJ
  2
AmgSettingsObj
  3
"AcadM|Product Description: AutoCAD Mechanical 2000|Company: Autodesk"
 90
        0
280
     0
281
     0
  0
CLASS
  1
ACME_DOCUMENT
  2
AcMeDbDoc
  3
AcMeServices
 90
        0
280
     0
281
     0
  0
CLASS
  1
ACMESCOPE
  2
AcMeScope
  3
AcMeServices
 90
        0
280
     0
281
     0
  0
CLASS
  1
ACMECOMMANDHISTORY
  2
AcMeCommandHistory
  3
AcMeServices
 90
        0
280
     0
281
     0
  0
CLASS
  1
DICTIONARYVAR
  2
AcDbDictionaryVar
  3
"AutoCAD"
 90
        0
280
     0
281
     0
  0
CLASS
  1
ACIMSYSVARMAN
  2
AcImSysVarManager
  3
AcMeServices
 90
        0
280
     0
281
     0
  0
CLASS
  1
ACIMREALSYSVAR
  2
AcImRealSysVar
  3
AcMeServices
 90
        0
280
     0
281
     0
  0
CLASS
  1
ACIMINTSYSVAR
  2
AcImIntSysVar
  3
AcMeServices
 90
        0
280
     0
281
     0
  0
CLASS
  1
ACMEDRAWINGMAN
  2
AcMeDrawingMan
  3
AcMeServices
 90
        0
280
     0
281
     0
  0
CLASS
  1
ACMEVIEW
  2
AcMeView
  3
AcMeServices
 90
        0
280
     0
281
     0
  0
CLASS
  1
ACDBENTITYCACHE
  2
AcMeEntityCache
  3
AcMeServices
 90
        0
280
     0
281
     0
  0
CLASS
  1
GSMANAGER
  2
AcMeGSManager
  3
AcMeServices
 90
        0
280
     0
281
     0
  0
CLASS
  1
AMDTINTERNALREACTOR
  2
AmdtInternalReactor
  3
AcMeServices
 90
        0
280
     0
281
     0
  0
CLASS
  1
ACMESTATEMGR
  2
AcMeStateMgr
  3
AcMeServices
 90
        0
280
     0
281
     0
  0
CLASS
  1
ACGREFMASTER
  2
AcGrefMaster
  3
AcAttribServices
 90
        0
280
     0
281
     0
  0
CLASS
  1
ACME_DATABASE
  2
AcMeDbDatabase
  3
AcMeServices
 90
        0
280
     0
281
     0
  0
CLASS
  1
ACRFINSADJUSTERMGR
  2
AcRfInsAdjusterMgr
  3
AcMeServices
 90
        0
280
     0
281
     0
  0
CLASS
  1
ACGREFACADMASTER
  2
AcGrefacadMaster
  3
AcGrefServices
 90
        0
280
     0
281
     0
  0
CLASS
  1
AMIMASTER
  2
AmiMaster
  3
AmiServices
 90
        0
280
     0
281
     0
  0
CLASS
  1
ACIMSTRSYSVAR
  2
AcImStrSysVar
  3
AcMeServices
 90
        0
280
     0
281
     0
  0
CLASS
  1
ACMSTANDARDDIN
  2
AcmStandardDIN
  3
"Amdt_StdImp|Product Description: AutoCAD Mechanical 2000|Company: Autodesk"
 90
        0
280
     0
281
     0
  0
CLASS
  1
AMGOBJPROPCFG
  2
AmgObjPropCfg
  3
"AmgLay|Product Description: AutoCAD Mechanical 2000|Company: Autodesk"
 90
        1
280
     0
281
     0
  0
CLASS
  1
AMDTEDGESTANDARDDIN
  2
AmdtEdgeStdDIN
  3
"Amdt_StdImp|Product Description: AutoCAD Mechanical 2000|Company: Autodesk"
 90
        0
280
     0
281
     0
  0
CLASS
  1
ACMSURFSTANDARDDIN
  2
AcmSurfTextStdDIN
  3
"Amdt_StdImp|Product Description: AutoCAD Mechanical 2000|Company: Autodesk"
 90
        0
280
     0
281
     0
  0
CLASS
  1
ACMFCFSTANDARDDIN
  2
AcmFCFStdDIN
  3
"Amdt_StdImp|Product Description: AutoCAD Mechanical 2000|Company: Autodesk"
 90
        0
280
     0
281
     0
  0
CLASS
  1
ACMWELDSTANDARDDIN
  2
AcmWeldingStdDIN
  3
"Amdt_StdImp|Product Description: AutoCAD Mechanical 2000|Company: Autodesk"
 90
        0
280
     0
281
     0
  0
CLASS
  1
ACMIDSTANDARDDIN
  2
AcmIdStdDIN
  3
"Amdt_StdImp|Product Description: AutoCAD Mechanical 2000|Company: Autodesk"
 90
        0
280
     0
281
     0
  0
CLASS
  1
ACMDATUMSTANDARDDIN
  2
AcmDatumStdDIN
  3
"Amdt_StdImp|Product Description: AutoCAD Mechanical 2000|Company: Autodesk"
 90
        0
280
     0
281
     0
  0
CLASS
  1
ACMBOMSTANDARDDIN
  2
AcmBOMStdDIN
  3
"Amdt_StdImp|Product Description: AutoCAD Mechanical 2000|Company: Autodesk"
 90
        0
280
     0
281
     0
  0
CLASS
  1
ACMDETAILSTANDARDDIN
  2
AmdtDetailSymStdDIN
  3
"Amdt_StdImp|Product Description: AutoCAD Mechanical 2000|Company: Autodesk"
 90
        0
280
     0
281
     0
  0
CLASS
  1
ACMSECTIONSTANDARDDIN
  2
AmdtSectionSymStdDIN
  3
"Amdt_StdImp|Product Description: AutoCAD Mechanical 2000|Company: Autodesk"
 90
        0
280
     0
281
     0
  0
CLASS
  1
ACMCENTERLINESTANDARDDIN
  2
AmdtCenterLineStdDIN
  3
"Amdt_StdImp|Product Description: AutoCAD Mechanical 2000|Company: Autodesk"
 90
        0
280
     0
281
     0
  0
CLASS
  1
ACMTHREADLINESTANDARDDIN
  2
AmdtThreadLineStdDIN
  3
"Amdt_StdImp|Product Description: AutoCAD Mechanical 2000|Company: Autodesk"
 90
        0
280
     0
281
     0
  0
CLASS
  1
ACAMGLAYSTD
  2
AcAmgLayStd
  3
"AcAmgLayStd|Product Description: AutoCAD Mechanical 2000|Company: Autodesk"
 90
        0
280
     0
281
     0
  0
CLASS
  1
ACAMGDIMSTD
  2
AcAmgDimStd
  3
"AcAmgDimStd|Product Description: AutoCAD Mechanical 2000|Company: Autodesk"
 90
        0
280
     0
281
     0
  0
CLASS
  1
ACAMGTITLESTD
  2
AcAmgTitleStd
  3
"TITLEAPP"
 90
        0
280
     0
281
     0
  0
CLASS
  1
ACMDATADICTIONARY
  2
AcmDataDictionary
  3
"AcmSymBB|Product Description: AutoCAD Mechanical 2000|Company: Autodesk"
 90
        0
280
     0
281
     0
  0
CLASS
  1
ACMDATAENTRYBLOCK
  2
AcmDataEntryBlock
  3
"AcmSymBB|Product Description: AutoCAD Mechanical 2000|Company: Autodesk"
 90
        0
280
     0
281
     0
  0
CLASS
  1
LAYER_INDEX
  2
AcDbLayerIndex
  3
"Acad"
 90
        0
280
     0
281
     0
  0
CLASS
  1
IDBUFFER
  2
AcDbIdBuffer
  3
"Acad"
 90
        0
280
     0
281
     0
  0
CLASS
  1
AM_DRAWING_MGR
  2
AcDmDwgMgr
  3
AcMechDwgViewMgmt
 90
        0
280
     1
281
     0
  0
CLASS
  1
AM_DWG_DOCUMENT
  2
AcDmDwgDocument
  3
AcMechDwgViewMgmt
 90
        0
280
     1
281
     0
  0
CLASS
  1
AM_DWG_SHEET
  2
AcDmSheet
  3
AcMechDwgViewMgmt
 90
        0
280
     1
281
     0
  0
CLASS
  1
AM_VIEWDIMPARMAP
  2
AcDmViewDimParMap
  3
AcMechDwgViewMgmt
 90
        0
280
     1
281
     0
  0
CLASS
  1
AM_DWGMGR_NAME
  2
AcDmDwgMgrName
  3
AcMechDwgViewMgmt
 90
        0
280
     1
281
     0
  0
CLASS
  1
AMDTMENUSTATEMGR
  2
AmdtMenuStateMgr
  3
McadcomServices
 90
        0
280
     1
281
     0
  0
CLASS
  1
AMDTMCOMMENUSTATE
  2
AmdtMcomMenuState
  3
McadcomServices
 90
        0
280
     1
281
     0
  0
CLASS
  1
ASAPP
  2
AcAsAppObject
  3
AutoSurfServices
 90
        0
280
     1
281
     0
  0
CLASS
  1
IM_STATIC_MAN
  2
AcImStaticVarManager
  3
AcMeServices
 90
        0
280
     0
281
     0
  0
CLASS
  1
ACIMDBLSTATICVAR
  2
AcImDblStaticVar
  3
AcMeServices
 90
        0
280
     0
281
     0
  0
CLASS
  1
ACIMSTRSTATICVAR
  2
AcImStrStaticVar
  3
AcMeServices
 90
        0
280
     0
281
     0
  0
CLASS
  1
ACIMINTSTATICVAR
  2
AcImIntStaticVar
  3
AcMeServices
 90
        0
280
     0
281
     0
  0
CLASS
  1
ACASGREFMASTER
  2
AcAsGrefMaster
  3
AutoSurfResolverServices
 90
        0
280
     1
281
     0
  0
CLASS
  1
ACADGREFMODULE
  2
AcAdGrefModule
  3
AdGrefServices
 90
        0
280
     1
281
     0
  0
CLASS
  1
AMDTMAPISURFMOUDULE
  2
AmdtMApiSurfModule
  3
MApiSurfServices
 90
        0
280
     1
281
     0
  0
CLASS
  1
MAPIAMMOUDLE
  2
MApiAmModule
  3
MApiAmServices
 90
        0
280
     1
281
     0
  0
CLASS
  1
AMDTADMENUSTATE
  2
AmdtAdMenuState
  3
DesignerServices
 90
        0
280
     1
281
     0
  0
CLASS
  1
ADAPPL
  2
AcAdAppl
  3
DesignerServices
 90
        0
280
     1
281
     0
  0
CLASS
  1
DEPMGR
  2
AcAdDepMgr
  3
DesignerServices
 90
        0
280
     1
281
     0
  0
CLASS
  1
PARAMMGR
  2
AcAdParamMgr
  3
DesignerServices
 90
        0
280
     1
281
     0
  0
CLASS
  1
PARAMSCOPE
  2
AcAdParamScope
  3
DesignerServices
 90
        0
280
     1
281
     0
  0
CLASS
  1
NAMEDAPPL
  2
AcAdNamedAppl
  3
DesignerServices
 90
        0
280
     1
281
     0
  0
CLASS
  1
ADHNTMPLT
  2
AdHoleNoteTemplateMgr
  3
DesignerServices
 90
        0
280
     1
281
     0
  0
CLASS
  1
AM_HNTEMPLATE_MGR_NAME
  2
AdHoleNoteTemplateMgrName
  3
DesignerServices
 90
        0
280
     1
281
     0
  0
CLASS
  1
AMDTDMMENUSTATE
  2
AmdtDmMenuState
  3
AcMechDwgViewMgmt
 90
        0
280
     1
281
     0
  0
CLASS
  1
MAPIADMODULE
  2
MApiAdModule
  3
MApiAdServices
 90
        0
280
     1
281
     0
  0
CLASS
  1
AMDTAMMENUSTATE
  2
AmdtAmMenuState
  3
DesignerAssemblies
 90
        0
280
     1
281
     0
  0
CLASS
  1
ACAMPROJECT
  2
AcAmProject
  3
DesignerAssemblies
 90
        0
280
     1
281
     0
  0
CLASS
  1
ACAMGRCOMPDEF
  2
AcAmGrCompDef
  3
DesignerAssemblies
 90
        0
280
     1
281
     0
  0
CLASS
  1
ACCMCONTEXT
  2
AcCmContext
  3
DesignerAssemblies
 90
        0
280
     1
281
     0
  0
CLASS
  1
ACAMCOMPDEF
  2
AcAmCompDef
  3
DesignerAssemblies
 90
        0
280
     1
281
     0
  0
CLASS
  1
ACAMCOMPDEFMGR
  2
AcAmCompDefMgr
  3
DesignerAssemblies
 90
        0
280
     1
281
     0
  0
CLASS
  1
AMCONTEXTMGR
  2
AcAmContextMgr
  3
DesignerAssemblies
 90
        0
280
     1
281
     0
  0
CLASS
  1
ACAMCONTEXTMODELER
  2
AcAmContextModeler
  3
DesignerAssemblies
 90
        0
280
     1
281
     0
  0
CLASS
  1
CATALOGSTATE
  2
AcAmCatalogState
  3
DesignerAssemblies
 90
        0
280
     1
281
     0
  0
CLASS
  1
ACAMGRCOMPDEFSET
  2
AcAmGrCompDefSet
  3
DesignerAssemblies
 90
        0
280
     1
281
     0
  0
CLASS
  1
AMDTBROWSERDBTAB
  2
AmdtBrowserDbTab
  3
McadcomServices
 90
        0
280
     1
281
     0
  0
CLASS
  1
CBROWSERAPPOBJECT
  2
CBrowserAppObject
  3
McadcomServices
 90
        0
280
     1
281
     0
  0
CLASS
  1
DM_PLACEHOLDER
  2
AcDmSelsetPlaceholder
  3
AcMechDwgViewMgmt
 90
        0
280
     1
281
     0
  0
CLASS
  1
ACAMGFILTERDAT
  2
AcAmgFilterDat
  3
"AcadM|Product Description: AutoCAD Mechanical 2000|Company: Autodesk"
 90
        0
280
     0
281
     0
  0
CLASS
  1
AMDTFORMULAUPDATEDISPATCHER
  2
AmdtFormulaUpdateDispatcher
  3
AcMeServices
 90
        0
280
     0
281
     0
  0
CLASS
  1
ACMNOTESTANDARDDIN
  2
AmdtNoteStdDIN
  3
"Amdt_StdImp|Product Description: AutoCAD Mechanical 2000|Company: Autodesk"
 90
        0
280
     0
281
     0
  0
CLASS
  1
ACAMGHOLECHARTSTDDIN
  2
AcAmgHoleChartStdDIN
  3
ACMSYMBB_MODULE_NAME
 90
        0
280
     0
281
     0
  0
CLASS
  1
AMDTNOTE
  2
AmdtNote
  3
"AcmSymBB|Product Description: AutoCAD Mechanical 2000|Company: Autodesk"
 90
     1023
280
     0
281
     1
  0
CLASS
  1
ACMPARTREF
  2
AcmPartRef
  3
"AcmSymBB|Product Description: AutoCAD Mechanical 2000|Company: Autodesk"
 90
     1023
280
     0
281
     1
  0
CLASS
  1
ACDBLINERES
  2
AcDbLineRes
  3
AcGrefServices
 90
        0
280
     0
281
     0
  0
CLASS
  1
ACRFINSADJ
  2
AcRfInsAdjuster
  3
AcMeServices
 90
        0
280
     0
281
     0
  0
CLASS
  1
ACMDATAENTRYPART
  2
AcmDataEntryPart
  3
"AcmSymBB|Product Description: AutoCAD Mechanical 2000|Company: Autodesk"
 90
        0
280
     0
281
     0
  0
CLASS
  1
ACMPICKOBJ
  2
AcmPickEnt
  3
"AcmSymBB|Product Description: AutoCAD Mechanical 2000|Company: Autodesk"
 90
        0
280
     0
281
     1
  0
CLASS
  1
ACMDATAENTRY
  2
AcmDataEntry
  3
"AcmSymBB|Product Description: AutoCAD Mechanical 2000|Company: Autodesk"
 90
        0
280
     0
281
     0
  0
CLASS
  1
ACMBOM
  2
AcmBom
  3
"AcmSymBB|Product Description: AutoCAD Mechanical 2000|Company: Autodesk"
 90
        0
280
     0
281
     0
  0
CLASS
  1
ACMBOMROW
  2
AcmBomRow
  3
"AcmSymBB|Product Description: AutoCAD Mechanical 2000|Company: Autodesk"
 90
        0
280
     0
281
     0
  0
CLASS
  1
ACMPARTLIST
  2
AcmPartList
  3
"AcmSymBB|Product Description: AutoCAD Mechanical 2000|Company: Autodesk"
 90
     1023
280
     0
281
     1
  0
CLASS
  1
ACDBCIRCARCRES
  2
AcDbCircArcRes
  3
AcGrefServices
 90
        0
280
     0
281
     0
  0
CLASS
  1
ACMBALLOON
  2
AcmBalloon
  3
"AcmSymBB|Product Description: AutoCAD Mechanical 2000|Company: Autodesk"
 90
     1023
280
     0
281
     1
  0
CLASS
  1
ACMSTANDARDISO
  2
AcmStandardISO
  3
"Amdt_StdImp|Product Description: AutoCAD Mechanical 2000|Company: Autodesk"
 90
        0
280
     0
281
     0
  0
CLASS
  1
AMDTEDGESTANDARDISO
  2
AmdtEdgeStdISO
  3
"Amdt_StdImp|Product Description: AutoCAD Mechanical 2000|Company: Autodesk"
 90
        0
280
     0
281
     0
  0
CLASS
  1
ACMSURFSTANDARDISO
  2
AcmSurfTextStdISO
  3
"Amdt_StdImp|Product Description: AutoCAD Mechanical 2000|Company: Autodesk"
 90
        0
280
     0
281
     0
  0
CLASS
  1
ACMFCFSTANDARDISO
  2
AcmFCFStdISO
  3
"Amdt_StdImp|Product Description: AutoCAD Mechanical 2000|Company: Autodesk"
 90
        0
280
     0
281
     0
  0
CLASS
  1
ACMWELDSTANDARDISO
  2
AcmWeldingStdISO
  3
"Amdt_StdImp|Product Description: AutoCAD Mechanical 2000|Company: Autodesk"
 90
        0
280
     0
281
     0
  0
CLASS
  1
ACMIDSTANDARDISO
  2
AcmIdStdISO
  3
"Amdt_StdImp|Product Description: AutoCAD Mechanical 2000|Company: Autodesk"
 90
        0
280
     0
281
     0
  0
CLASS
  1
ACMDATUMSTANDARDISO
  2
AcmDatumStdISO
  3
"Amdt_StdImp|Product Description: AutoCAD Mechanical 2000|Company: Autodesk"
 90
        0
280
     0
281
     0
  0
CLASS
  1
ACMBOMSTANDARDISO
  2
AcmBOMStdISO
  3
"Amdt_StdImp|Product Description: AutoCAD Mechanical 2000|Company: Autodesk"
 90
        0
280
     0
281
     0
  0
CLASS
  1
ACMDETAILSTANDARDISO
  2
AmdtDetailSymStdISO
  3
"Amdt_StdImp|Product Description: AutoCAD Mechanical 2000|Company: Autodesk"
 90
        0
280
     0
281
     0
  0
CLASS
  1
ACMSECTIONSTANDARDISO
  2
AmdtSectionSymStdISO
  3
"Amdt_StdImp|Product Description: AutoCAD Mechanical 2000|Company: Autodesk"
 90
        0
280
     0
281
     0
  0
CLASS
  1
ACMCENTERLINESTANDARDISO
  2
AmdtCenterLineStdISO
  3
"Amdt_StdImp|Product Description: AutoCAD Mechanical 2000|Company: Autodesk"
 90
        0
280
     0
281
     0
  0
CLASS
  1
ACMNOTESTANDARDISO
  2
AmdtNoteStdISO
  3
"Amdt_StdImp|Product Description: AutoCAD Mechanical 2000|Company: Autodesk"
 90
        0
280
     0
281
     0
  0
CLASS
  1
ACAMGHOLECHARTSTDISO
  2
AcAmgHoleChartStdISO
  3
ACMSYMBB_MODULE_NAME
 90
        0
280
     0
281
     0
  0
CLASS
  1
ACDBOPPOLYLINERES
  2
AcDbOpPolylineRes
  3
AcGrefServices
 90
        0
280
     0
281
     0
  0
CLASS
  1
ACMSURFSYM
  2
AcmSurfaceTexture
  3
"AcmSymBB|Product Description: AutoCAD Mechanical 2000|Company: Autodesk"
 90
     1023
280
     0
281
     1
  0
CLASS
  1
ACMWELDSYM
  2
AcmWelding
  3
"AcmSymBB|Product Description: AutoCAD Mechanical 2000|Company: Autodesk"
 90
     1023
280
     0
281
     1
  0
CLASS
  1
STDPART2D
  2
AmgStdPart
  3
"AmgStdPart|Product Description: AutoCAD Mechanical 2000|Company: Autodesk"
 90
     1023
280
     0
281
     1
  0
CLASS
  1
ACDBSTDPARTRES_LINE
  2
AcDbStdPartRes_Line
  3
"AcDbStdPartRes_Line|Product Description: AutoCAD Mechanical 2000|Company: Autodesk"
 90
        0
280
     0
281
     0
  0
CLASS
  1
ACDBSTDPARTRES_ARC
  2
AcDbStdPartRes_Arc
  3
"AcDbStdPartRes_Arc|Product Description: AutoCAD Mechanical 2000|Company: Autodesk"
 90
        0
280
     0
281
     0
  0
CLASS
  1
ACDBDIMENSIONRES
  2
AcDbDimensionRes
  3
"AcDbDimensionRes|Product Description: AutoCAD Mechanical 2000|Company: Autodesk"
 90
        0
280
     0
281
     0
  0
CLASS
  1
ACDBPOLYLINERES
  2
AcDbPolylineRes
  3
AcGrefServices
 90
        0
280
     0
281
     0
  0
CLASS
  1
ACDBELLIPSERES
  2
AcDbEllipseRes
  3
AcGrefServices
 90
        0
280
     0
281
     0
  0
CLASS
  1
ACMDIMBREAKPERSREACTOR
  2
AcmDimBreakPersReactor
  3
amgDimApp().moduleName()
 90
     1023
280
     0
281
     0
  0
CLASS
  1
LONG_TRANSACTION
  2
AcDbLongTransaction
  3
AutoCAD 2000
 90
        0
280
     0
281
     0
  0
CLASS
  1
LWPOLYLINE
  2
AcDbPolyline
  3
"AutoCAD"
 90
        0
280
     0
281
     1
  0
CLASS
  1
HATCH
  2
AcDbHatch
  3
"ACAD_SEDONA"
 90
        0
280
     0
281
     1
  0
CLASS
  1
XRECORD
  2
AcDbXrecord
  3
"<Built In>"
 90
        0
280
     0
281
     0
  0
ENDSEC
  0
SECTION
  2
TABLES
  0
TABLE
  2
VPORT
  5
1A
100
AcDbSymbolTable
 70
     1
  0
VPORT
  5
5F2
102
{ACAD_XDICTIONARY
360
604
102
}
100
AcDbSymbolTableRecord
100
AcDbViewportTableRecord
  2
*ACTIVE
 70
     0
 10
0.0
 20
0.0
 11
1.0
 21
1.0
 12
6619.887098
 22
1322.950326
 13
0.0
 23
0.0
 14
17.5
 24
17.5
 15
70.0
 25
70.0
 16
0.0
 26
0.0
 36
1.0
 17
279.805263
 27
217.101156
 37
0.0
 40
3042.854063
 41
1.907895
 42
50.0
 43
0.0
 44
0.0
 50
0.0
 51
0.0
 71
    16
 72
  3000
 73
     1
 74
     2
 75
     0
 76
     0
 77
     0
 78
     0
  0
ENDTAB
  0
TABLE
  2
LTYPE
  5
15
100
AcDbSymbolTable
 70
    12
  0
LTYPE
  5
16
102
{ACAD_XDICTIONARY
360
5F6
102
}
100
AcDbSymbolTableRecord
100
AcDbLinetypeTableRecord
  2
BYBLOCK
 70
     0
  3

 72
    65
 73
     0
 40
0.0
  0
LTYPE
  5
17
102
{ACAD_XDICTIONARY
360
5F8
102
}
100
AcDbSymbolTableRecord
100
AcDbLinetypeTableRecord
  2
BYLAYER
 70
     0
  3

 72
    65
 73
     0
 40
0.0
  0
LTYPE
  5
11
102
{ACAD_XDICTIONARY
360
5FA
102
}
100
AcDbSymbolTableRecord
100
AcDbLinetypeTableRecord
  2
CONTINUOUS
 70
     0
  3
Solid line
 72
    65
 73
     0
 40
0.0
  0
LTYPE
  5
57C
102
{ACAD_XDICTIONARY
360
5FC
102
}
100
AcDbSymbolTableRecord
100
AcDbLinetypeTableRecord
  2
AMCONSTR
 70
     0
  3
_______________________
 72
    65
 73
     2
 40
9999.0
 49
9999.0
 74
     0
 49
0.0
 74
     0
  0
LTYPE
  5
57F
102
{ACAD_XDICTIONARY
360
5FE
102
}
100
AcDbSymbolTableRecord
100
AcDbLinetypeTableRecord
  2
AMZIGZAG
 70
     0
  3
/\/-/\/-/\/-/\/-/\/-/\/
 72
    65
 73
     2
 40
11.0001
 49
0.0001
 74
     4
 75
   135
340
580
 46
0.04
 50
0.0
 44
0.0
 45
0.0
 49
-11.0
 74
     0
  0
LTYPE
  5
AC
100
AcDbSymbolTableRecord
100
AcDbLinetypeTableRecord
  2
AM_DIN_F_W050
 70
     0
  3
__ __ __ __ __ __ __ __ __ __ __ __ __ __ __
 72
    65
 73
     2
 40
6.25
 49
4.75
 74
     0
 49
-1.5
 74
     0
  0
LTYPE
  5
6F
100
AcDbSymbolTableRecord
100
AcDbLinetypeTableRecord
  2
AM_DIN_G_W050
 70
     0
  3
____ . ____ . ____ . ____ . ____ . ____ . ____
 72
    65
 73
     4
 40
13.75
 49
9.75
 74
     0
 49
-1.5
 74
     0
 49
1.0
 74
     0
 49
-1.5
 74
     0
  0
LTYPE
  5
57B
100
AcDbSymbolTableRecord
100
AcDbLinetypeTableRecord
  2
AM_DIN_K_W050
 70
     0
  3
_____ . . _____ . . _____ . . ____ .. ____
 72
    65
 73
     6
 40
16.25
 49
9.75
 74
     0
 49
-1.5
 74
     0
 49
1.0
 74
     0
 49
-1.5
 74
     0
 49
1.0
 74
     0
 49
-1.5
 74
     0
  0
LTYPE
  5
57D
102
{ACAD_XDICTIONARY
360
600
102
}
100
AcDbSymbolTableRecord
100
AcDbLinetypeTableRecord
  2
AM_DIN_G_W050X2
 70
     0
  3
__ . __ . __ . __ . __ . __
 72
    65
 73
     4
 40
6.875
 49
4.75
 74
     0
 49
-0.875
 74
     0
 49
0.375
 74
     0
 49
-0.875
 74
     0
  0
LTYPE
  5
57E
102
{ACAD_XDICTIONARY
360
602
102
}
100
AcDbSymbolTableRecord
100
AcDbLinetypeTableRecord
  2
AM_DIN_F_W050X2
 70
     0
  3
 _ _ _ _ _ _ _ _ _ _ _ _
 72
    65
 73
     2
 40
3.125
 49
2.25
 74
     0
 49
-0.875
 74
     0
  0
LTYPE
  5
593
100
AcDbSymbolTableRecord
100
AcDbLinetypeTableRecord
  2
ACDINWELD
 70
     0
  3
_ _ _ _ _
 72
    65
 73
     2
 40
2.0
 49
2.0
 74
     0
 49
-1.0
 74
     0
  0
LTYPE
  5
596
100
AcDbSymbolTableRecord
100
AcDbLinetypeTableRecord
  2
ACDINTGB
 70
     0
  3
__ . . __ . .
 72
    65
 73
     6
 40
9.0
 49
4.0
 74
     0
 49
-1.0
 74
     0
 49
1.0
 74
     0
 49
-1.0
 74
     0
 49
1.0
 74
     0
 49
-1.0
 74
     0
  0
LTYPE
  5
597
100
AcDbSymbolTableRecord
100
AcDbLinetypeTableRecord
  2
ACDINTGL
 70
     0
  3
_ _ _ _ _
 72
    65
 73
     2
 40
3.0
 49
2.0
 74
     0
 49
-1.0
 74
     0
  0
LTYPE
  5
59B
100
AcDbSymbolTableRecord
100
AcDbLinetypeTableRecord
  2
CENTER
 70
     0
  3
__ . __
 72
    65
 73
     4
 40
7.0
 49
4.0
 74
     0
 49
-1.0
 74
     0
 49
1.0
 74
     0
 49
-1.0
 74
     0
  0
ENDTAB
  0
TABLE
  2
LAYER
  5
D
100
AcDbSymbolTable
 70
    11
  0
LAYER
  5
E
100
AcDbSymbolTableRecord
100
AcDbLayerTableRecord
  2
0
 70
     0
 62
     7
  6
CONTINUOUS
  0
LAYER
  5
25
102
{ACAD_XDICTIONARY
360
633
102
}
100
AcDbSymbolTableRecord
100
AcDbLayerTableRecord
  2
AM_0
 70
     0
 62
     7
  6
CONTINUOUS
  0
LAYER
  5
2F
102
{ACAD_XDICTIONARY
360
637
102
}
100
AcDbSymbolTableRecord
100
AcDbLayerTableRecord
  2
DEFPOINTS
 70
     0
 62
     7
  6
CONTINUOUS
  0
LAYER
  5
1F8
102
{ACAD_XDICTIONARY
360
653
102
}
100
AcDbSymbolTableRecord
100
AcDbLayerTableRecord
  2
AM_6
 70
     0
 62
     2
  6
CONTINUOUS
  0
LAYER
  5
28
102
{ACAD_XDICTIONARY
360
635
102
}
100
AcDbSymbolTableRecord
100
AcDbLayerTableRecord
  2
AM_5
 70
     0
 62
     3
  6
CONTINUOUS
  0
LAYER
  5
45
102
{ACAD_XDICTIONARY
360
639
102
}
100
AcDbSymbolTableRecord
100
AcDbLayerTableRecord
  2
AM_8
 70
     0
 62
     1
  6
CONTINUOUS
  0
LAYER
  5
C4
102
{ACAD_XDICTIONARY
360
64D
102
}
100
AcDbSymbolTableRecord
100
AcDbLayerTableRecord
  2
AM_4
 70
     0
 62
     3
  6
CONTINUOUS
  0
LAYER
  5
6E
102
{ACAD_XDICTIONARY
360
63B
102
}
100
AcDbSymbolTableRecord
100
AcDbLayerTableRecord
  2
AM_7
 70
     0
 62
     4
  6
AM_DIN_G_W050
  0
LAYER
  5
AB
102
{ACAD_XDICTIONARY
360
64B
102
}
100
AcDbSymbolTableRecord
100
AcDbLayerTableRecord
  2
AM_3
 70
     0
 62
     6
  6
AM_DIN_F_W050
  0
LAYER
  5
EC
102
{ACAD_XDICTIONARY
360
64F
102
}
100
AcDbSymbolTableRecord
100
AcDbLayerTableRecord
  2
AM_0N
 70
     0
 62
     7
  6
CONTINUOUS
  0
LAYER
  5
F2
102
{ACAD_XDICTIONARY
360
651
102
}
100
AcDbSymbolTableRecord
100
AcDbLayerTableRecord
  2
AM_4N
 70
     0
 62
     3
  6
CONTINUOUS
  0
ENDTAB
  0
TABLE
  2
STYLE
  5
12
100
AcDbSymbolTable
 70
     5
  0
STYLE
  5
13
100
AcDbSymbolTableRecord
100
AcDbTextStyleTableRecord
  2
STANDARD
 70
     0
 40
0.0
 41
1.0
 50
0.0
 71
     0
 42
50.0
  3
ISOCP.SHX
  4

  0
STYLE
  5
580
100
AcDbSymbolTableRecord
100
AcDbTextStyleTableRecord
  2

 70
     1
 40
0.0
 41
1.0
 50
0.0
 71
     0
 42
2.5
  3
ltypeshp.shx
  4

  0
STYLE
  5
58D
100
AcDbSymbolTableRecord
100
AcDbTextStyleTableRecord
  2
ACDINTS
 70
     0
 40
1.0
 41
1.0
 50
0.0
 71
     0
 42
2.5
  3
isocp.shx
  4

  0
STYLE
  5
591
100
AcDbSymbolTableRecord
100
AcDbTextStyleTableRecord
  2
ACDINGDT
 70
     0
 40
0.0
 41
1.0
 50
0.0
 71
     0
 42
2.5
  3
amgdt.shx
  4

  0
STYLE
  5
26A
100
AcDbSymbolTableRecord
100
AcDbTextStyleTableRecord
  2
ISO8
 70
     0
 40
0.0
 41
1.0
 50
0.0
 71
     0
 42
2.5
  3
g13f12d.shx
  4

  0
ENDTAB
  0
TABLE
  2
VIEW
  5
18
100
AcDbSymbolTable
 70
     1
  0
VIEW
  5
5F0
102
{ACAD_XDICTIONARY
360
669
102
}
100
AcDbSymbolTableRecord
100
AcDbViewTableRecord
  2
AM_VIEW6
 70
     0
 40
3042.854063
 10
6619.887098
 20
1322.950326
 41
5802.144664
 11
0.0
 21
0.0
 31
1.0
 12
279.805263
 22
217.101156
 32
0.0
 42
50.0
 43
0.0
 44
0.0
 50
0.0
 71
    16
  0
ENDTAB
  0
TABLE
  2
UCS
  5
19
100
AcDbSymbolTable
 70
     0
  0
ENDTAB
  0
TABLE
  2
APPID
  5
1C
100
AcDbSymbolTable
 70
    21
  0
APPID
  5
1D
100
AcDbSymbolTableRecord
100
AcDbRegAppTableRecord
  2
ACAD
 70
     0
  0
APPID
  5
34
100
AcDbSymbolTableRecord
100
AcDbRegAppTableRecord
  2
GENIUS_GENDTOL_13
 70
     0
  0
APPID
  5
233
100
AcDbSymbolTableRecord
100
AcDbRegAppTableRecord
  2
GENIUS_GENTRA_14
 70
     0
  0
APPID
  5
46
100
AcDbSymbolTableRecord
100
AcDbRegAppTableRecord
  2
GENIUS_GENODEF_13
 70
     0
  0
APPID
  5
5AF
100
AcDbSymbolTableRecord
100
AcDbRegAppTableRecord
  2
GENIUS_GENOENT_13
 70
     0
  0
APPID
  5
D0
100
AcDbSymbolTableRecord
100
AcDbRegAppTableRecord
  2
GENIUS_GENOREF_13
 70
     0
  0
APPID
  5
5B0
100
AcDbSymbolTableRecord
100
AcDbRegAppTableRecord
  2
GENIUS_GENOLIS_13
 70
     0
  0
APPID
  5
B4
100
AcDbSymbolTableRecord
100
AcDbRegAppTableRecord
  2
GENIUS_GENOBJ-N-FIL_13
 70
     0
  0
APPID
  5
47
100
AcDbSymbolTableRecord
100
AcDbRegAppTableRecord
  2
GENIUS_GENOBJ-N-HTC_13
 70
     0
  0
APPID
  5
48
100
AcDbSymbolTableRecord
100
AcDbRegAppTableRecord
  2
GENIUS_GENHATCH_13
 70
     0
  0
APPID
  5
70
100
AcDbSymbolTableRecord
100
AcDbRegAppTableRecord
  2
GENIUS_GENOBJ-N-CEN_13
 70
     0
  0
APPID
  5
5B1
100
AcDbSymbolTableRecord
100
AcDbRegAppTableRecord
  2
GENIUS_GENBH_13
 70
     0
  0
APPID
  5
5AE
100
AcDbSymbolTableRecord
100
AcDbRegAppTableRecord
  2
GENIUS_GENOBJ-NBEHI-BHB_13
 70
     0
  0
APPID
  5
59
100
AcDbSymbolTableRecord
100
AcDbRegAppTableRecord
  2
GENIUS_GENREC_14
 70
     0
  0
APPID
  5
83
100
AcDbSymbolTableRecord
100
AcDbRegAppTableRecord
  2
GENIUS_GENDREL_13
 70
     0
  0
APPID
  5
1A6
100
AcDbSymbolTableRecord
100
AcDbRegAppTableRecord
  2
GENIUS_GENFIL_13
 70
     0
  0
APPID
  5
1A7
100
AcDbSymbolTableRecord
100
AcDbRegAppTableRecord
  2
GENIUS_GENOBJ-N-CHA_13
 70
     0
  0
APPID
  5
5A
100
AcDbSymbolTableRecord
100
AcDbRegAppTableRecord
  2
GENIUS_GENOBJ-N-REC_13
 70
     0
  0
APPID
  5
5C4
100
AcDbSymbolTableRecord
100
AcDbRegAppTableRecord
  2
MCAD_NO_VIS
 70
     0
  0
APPID
  5
5C5
100
AcDbSymbolTableRecord
100
AcDbRegAppTableRecord
  2
ACAD_TEMP_GRAPHIC
 70
     0
  0
APPID
  5
5D2
100
AcDbSymbolTableRecord
100
AcDbRegAppTableRecord
  2
ACATTRIBSERVICES
 70
     0
  0
ENDTAB
  0
TABLE
  2
DIMSTYLE
  5
1E
100
AcDbSymbolTable
 70
     8
  0
DIMSTYLE
105
1F
102
{ACAD_XDICTIONARY
360
62D
102
}
102
{ACAD_REACTORS
330
27
330
193
330
1E2
330
76
330
84
330
5C
330
97
330
35
102
}
100
AcDbSymbolTableRecord
100
AcDbDimStyleTableRecord
  2
AM_DIN
 70
     0
  3

  4
"
  5

  6

  7

 40
1.0
 41
2.5
 42
0.0
 43
10.0
 44
1.0
 45
0.0
 46
0.0
 47
0.1
 48
0.1
140
3.0
141
0.0
142
0.0
143
0.03937
144
1.0
145
0.0
146
0.71
147
0.7
 71
     0
 72
     0
 73
     0
 74
     0
 75
     0
 76
     0
 77
     1
 78
     8
170
     0
171
     2
172
     1
173
     0
174
     0
175
     0
176
   256
177
   256
178
     2
270
     2
271
     2
272
     2
273
     2
274
     2
340
13
275
     0
280
     0
281
     0
282
     0
283
     0
284
     8
285
     0
286
     0
287
     3
288
     0
  0
DIMSTYLE
105
5A0
102
{ACAD_XDICTIONARY
360
65B
102
}
100
AcDbSymbolTableRecord
100
AcDbDimStyleTableRecord
  2
AM_DIN$3
 70
     0
  3

  4
"
  5

  6

  7

 40
1.0
 41
2.5
 42
1.0
 43
10.0
 44
1.0
 45
0.0
 46
0.0
 47
0.1
 48
0.1
140
3.5
141
0.0
142
0.0
143
0.03937
144
1.0
145
0.0
146
0.71
147
1.5
 71
     0
 72
     0
 73
     0
 74
     1
 75
     0
 76
     0
 77
     1
 78
     8
170
     0
171
     2
172
     0
173
     0
174
     0
175
     0
176
   256
177
   256
178
     2
270
     2
271
     2
272
     3
273
     2
274
     4
340
13
275
     0
280
     0
281
     0
282
     0
283
     0
284
     8
285
     0
286
     0
287
     0
288
     1
  0
DIMSTYLE
105
5A1
102
{ACAD_XDICTIONARY
360
65D
102
}
100
AcDbSymbolTableRecord
100
AcDbDimStyleTableRecord
  2
AM_DIN$4
 70
     0
  3

  4
"
  5

  6

  7

 40
1.0
 41
2.5
 42
1.0
 43
10.0
 44
1.0
 45
0.0
 46
0.0
 47
0.1
 48
0.1
140
3.5
141
0.0
142
0.0
143
0.03937
144
1.0
145
0.0
146
0.71
147
1.5
 71
     0
 72
     0
 73
     0
 74
     1
 75
     0
 76
     0
 77
     1
 78
     8
170
     0
171
     2
172
     0
173
     0
174
     0
175
     0
176
   256
177
   256
178
     2
270
     2
271
     2
272
     3
273
     2
274
     2
340
13
275
     0
280
     0
281
     0
282
     0
283
     0
284
     8
285
     0
286
     0
287
     4
288
     1
  0
DIMSTYLE
105
5A2
102
{ACAD_XDICTIONARY
360
65F
102
}
100
AcDbSymbolTableRecord
100
AcDbDimStyleTableRecord
  2
AM_DIN$6
 70
     0
  3

  4
"
  5

  6

  7

 40
1.0
 41
2.5
 42
1.0
 43
10.0
 44
1.0
 45
0.0
 46
0.0
 47
0.1
 48
0.1
140
3.5
141
0.0
142
0.0
143
0.03937
144
1.0
145
0.0
146
0.71
147
1.5
 71
     0
 72
     0
 73
     0
 74
     0
 75
     0
 76
     0
 77
     0
 78
     8
170
     0
171
     2
172
     1
173
     0
174
     0
175
     0
176
   256
177
   256
178
     2
270
     2
271
     2
272
     3
273
     2
274
     2
340
13
275
     0
280
     0
281
     0
282
     0
283
     0
284
     8
285
     0
286
     0
287
     3
288
     0
  0
DIMSTYLE
105
5A3
102
{ACAD_XDICTIONARY
360
661
102
}
100
AcDbSymbolTableRecord
100
AcDbDimStyleTableRecord
  2
AM_DIN$7
 70
     0
  3

  4
"
  5

  6

  7

 40
1.0
 41
2.5
 42
1.0
 43
10.0
 44
1.0
 45
0.0
 46
0.0
 47
0.1
 48
0.1
140
5.0
141
0.0
142
0.0
143
0.03937
144
1.0
145
0.0
146
0.71
147
1.5
 71
     0
 72
     0
 73
     0
 74
     0
 75
     0
 76
     0
 77
     1
 78
     8
170
     0
171
     2
172
     1
173
     0
174
     0
175
     0
176
   256
177
   256
178
     2
270
     2
271
     2
272
     3
273
     2
274
     4
340
13
275
     0
280
     0
281
     0
282
     0
283
     0
284
     8
285
     0
286
     0
287
     3
288
     0
  0
DIMSTYLE
105
5A4
102
{ACAD_XDICTIONARY
360
663
102
}
100
AcDbSymbolTableRecord
100
AcDbDimStyleTableRecord
  2
AM_DIN$SF
 70
     0
  3

  4
"
  5

  6

  7

 40
1.0
 41
2.5
 42
1.0
 43
10.0
 44
1.0
 45
0.0
 46
0.0
 47
0.1
 48
0.1
140
3.5
141
0.0
142
0.0
143
0.03937
144
1.0
145
0.0
146
0.71
147
1.5
 71
     0
 72
     0
 73
     0
 74
     0
 75
     1
 76
     1
 77
     1
 78
     8
170
     0
171
     2
172
     1
173
     0
174
     0
175
     0
176
   256
177
   256
178
     2
270
     2
271
     2
272
     3
273
     2
274
     4
340
13
275
     0
280
     0
281
     0
282
     0
283
     0
284
     8
285
     0
286
     0
287
     3
288
     0
  0
DIMSTYLE
105
5A5
102
{ACAD_XDICTIONARY
360
665
102
}
100
AcDbSymbolTableRecord
100
AcDbDimStyleTableRecord
  2
AM_DIN$SH
 70
     0
  3

  4
"
  5

  6
GENAXEH
  7

 40
1.0
 41
2.5
 42
1.0
 43
10.0
 44
1.0
 45
0.0
 46
0.0
 47
0.1
 48
0.1
140
3.5
141
0.0
142
0.0
143
0.03937
144
2.0
145
0.0
146
0.71
147
1.5
 71
     0
 72
     0
 73
     0
 74
     0
 75
     1
 76
     1
 77
     1
 78
     8
170
     0
171
     2
172
     1
173
     1
174
     0
175
     0
176
   256
177
   256
178
     2
270
     2
271
     2
272
     3
273
     2
274
     4
340
13
275
     0
280
     0
281
     0
282
     0
283
     0
284
     8
285
     0
286
     0
287
     3
288
     0
  0
DIMSTYLE
105
20
102
{ACAD_XDICTIONARY
360
62F
102
}
100
AcDbSymbolTableRecord
100
AcDbDimStyleTableRecord
  2
AM_ISO
 70
     0
  3

  4
"
  5

  6

  7

 40
1.0
 41
2.5
 42
1.0
 43
10.0
 44
1.0
 45
0.0
 46
0.0
 47
0.1
 48
0.1
140
3.5
141
0.0
142
0.0
143
0.03937
144
1.0
145
0.0
146
0.71
147
1.5
 71
     0
 72
     0
 73
     0
 74
     0
 75
     0
 76
     0
 77
     1
 78
     8
170
     0
171
     2
172
     1
173
     0
174
     0
175
     0
176
   256
177
   256
178
     2
270
     2
271
     2
272
     3
273
     2
274
     4
340
13
275
     0
280
     0
281
     0
282
     0
283
     0
284
     8
285
     0
286
     0
287
     3
288
     0
  0
ENDTAB
  0
TABLE
  2
BLOCK_RECORD
  5
1
100
AcDbSymbolTable
 70
    12
  0
BLOCK_RECORD
  5
2
102
{ACAD_XDICTIONARY
360
3
102
}
100
AcDbSymbolTableRecord
100
AcDbBlockTableRecord
  2
*MODEL_SPACE
  0
BLOCK_RECORD
  5
9
102
{ACAD_XDICTIONARY
360
5F4
102
}
100
AcDbSymbolTableRecord
100
AcDbBlockTableRecord
  2
*PAPER_SPACE
  0
BLOCK_RECORD
  5
5A6
100
AcDbSymbolTableRecord
100
AcDbBlockTableRecord
  2
GENAXEH
  0
BLOCK_RECORD
  5
1FC
100
AcDbSymbolTableRecord
100
AcDbBlockTableRecord
  2
REFLEX-LOGO
  0
BLOCK_RECORD
  5
1FA
100
AcDbSymbolTableRecord
100
AcDbBlockTableRecord
  2
LOGO
  0
BLOCK_RECORD
  5
29
100
AcDbSymbolTableRecord
100
AcDbBlockTableRecord
  2
*D3
  0
BLOCK_RECORD
  5
194
100
AcDbSymbolTableRecord
100
AcDbBlockTableRecord
  2
*D4
  0
BLOCK_RECORD
  5
1E3
100
AcDbSymbolTableRecord
100
AcDbBlockTableRecord
  2
*D5
  0
BLOCK_RECORD
  5
77
100
AcDbSymbolTableRecord
100
AcDbBlockTableRecord
  2
*D6
  0
BLOCK_RECORD
  5
85
100
AcDbSymbolTableRecord
100
AcDbBlockTableRecord
  2
*D7
  0
BLOCK_RECORD
  5
5D
100
AcDbSymbolTableRecord
100
AcDbBlockTableRecord
  2
*D8
  0
BLOCK_RECORD
  5
36
100
AcDbSymbolTableRecord
100
AcDbBlockTableRecord
  2
*D10
  0
BLOCK_RECORD
  5
63D
100
AcDbSymbolTableRecord
100
AcDbBlockTableRecord
  2
*D11
  0
ENDTAB
  0
ENDSEC
  0
SECTION
  2
BLOCKS
  0
BLOCK
  5
4
100
AcDbEntity
  8
0
100
AcDbBlockBegin
  2
*MODEL_SPACE
 70
     0
 10
0.0
 20
0.0
 30
0.0
  3
*MODEL_SPACE
  1

  0
ENDBLK
  5
5
100
AcDbEntity
  8
0
100
AcDbBlockEnd
  0
BLOCK
  5
A
100
AcDbEntity
 67
     1
  8
0
100
AcDbBlockBegin
  2
*PAPER_SPACE
 70
     0
 10
0.0
 20
0.0
 30
0.0
  3
*PAPER_SPACE
  1

  0
ENDBLK
  5
B
100
AcDbEntity
 67
     1
  8
0
100
AcDbBlockEnd
  0
BLOCK
  5
5A8
100
AcDbEntity
  8
0
100
AcDbBlockBegin
  2
GENAXEH
 70
     0
 10
0.0
 20
0.0
 30
0.0
  3
GENAXEH
  1

  0
LINE
  5
5A7
100
AcDbEntity
  8
0
100
AcDbLine
 10
-1.0
 20
0.0
 30
0.0
 11
1.0
 21
0.0
 31
0.0
  0
ENDBLK
  5
5A9
100
AcDbEntity
  8
0
100
AcDbBlockEnd
  0
BLOCK
  5
211
100
AcDbEntity
  8
0
100
AcDbBlockBegin
  2
REFLEX-LOGO
 70
     0
 10
0.0
 20
0.0
 30
0.0
  3
REFLEX-LOGO
  1

  0
LWPOLYLINE
  5
1FD
100
AcDbEntity
  8
AM_4
100
AcDbPolyline
 90
        4
 70
     1
 43
0.0
 10
7.168893
 20
2.77
 10
8.050201
 20
1.751759
 42
-2.569164
 10
8.4566
 20
5.004875
 10
6.110139
 20
2.570883
 42
0.268569
  0
LWPOLYLINE
  5
1FE
100
AcDbEntity
  8
AM_4
100
AcDbPolyline
 90
        2
 70
     0
 43
1.344148
 10
7.675507
 20
4.839334
 42
2.261413
 10
7.610669
 20
2.260219
 42
0.980224
  0
LWPOLYLINE
  5
1FF
100
AcDbEntity
  8
AM_4
100
AcDbPolyline
 90
        7
 70
     0
 43
0.0
 10
3.098261
 20
4.704713
 42
0.412244
 10
2.574402
 20
4.210062
 10
2.574402
 20
1.142232
 10
1.222422
 20
1.142232
 10
1.222422
 20
4.253389
 42
-0.412244
 10
3.132488
 20
6.056958
 10
3.132488
 20
4.704283
  0
LWPOLYLINE
  5
200
100
AcDbEntity
  8
AM_4
100
AcDbPolyline
 90
        2
 70
     0
 43
0.672074
 10
8.213784
 20
5.242072
 10
5.791652
 20
2.724738
  0
LWPOLYLINE
  5
201
100
AcDbEntity
  8
AM_4
100
AcDbPolyline
 90
        3
 70
     0
 43
1.344148
 10
1.892757
 20
1.138361
 10
1.892757
 20
4.189317
 42
-0.42258
 10
3.116309
 20
5.378512
 42
-0.584026
  0
LWPOLYLINE
  5
202
100
AcDbEntity
  8
AM_4
100
AcDbPolyline
 90
        2
 70
     1
 43
0.0
 10
7.030078
 20
4.486213
 10
5.577363
 20
2.986869
 42
-0.802942
  0
LWPOLYLINE
  5
203
100
AcDbEntity
  8
AM_4
100
AcDbPolyline
 90
        4
 70
     1
 43
0.0
 10
12.616976
 20
7.850047
 10
12.616976
 20
1.131363
 10
13.96896
 20
1.131363
 10
13.96896
 20
7.850047
  0
LWPOLYLINE
  5
204
100
AcDbEntity
  8
AM_4
100
AcDbPolyline
 90
       10
 70
     0
 43
0.0
 10
11.539816
 20
6.502413
 10
11.539816
 20
7.855087
 42
0.412244
 10
9.629755
 20
6.051518
 10
9.629755
 20
1.141883
 10
10.981735
 20
1.141883
 10
10.981735
 20
4.65696
 10
11.547854
 20
4.65696
 10
11.547854
 20
6.008196
 10
10.981735
 20
6.008196
 42
-0.412244
 10
11.505594
 20
6.502843
  0
LWPOLYLINE
  5
205
100
AcDbEntity
  8
AM_4
100
AcDbPolyline
 90
        2
 70
     0
 43
1.344148
 10
13.292132
 20
7.847206
 10
13.292132
 20
1.133598
  0
LWPOLYLINE
  5
206
100
AcDbEntity
  8
AM_4
100
AcDbPolyline
 90
        3
 70
     0
 43
1.344148
 10
10.303943
 20
1.138361
 10
10.303943
 20
5.981488
 42
-0.42258
 10
11.52749
 20
7.170678
 42
-0.584026
  0
LWPOLYLINE
  5
207
100
AcDbEntity
  8
AM_4
100
AcDbPolyline
 90
       20
 70
     1
 43
0.0
 10
23.696238
 20
5.229778
 10
23.696238
 20
5.996381
 10
25.040578
 20
5.996381
 10
25.040578
 20
5.227896
 42
-0.200193
 10
24.365932
 20
3.612714
 42
-0.200193
 10
25.040578
 20
1.997532
 10
25.040578
 20
1.087476
 10
23.696238
 20
1.087476
 10
23.696238
 20
1.99565
 42
0.431175
 10
22.723097
 20
2.938301
 42
0.431175
 10
21.74996
 20
1.99565
 10
21.74996
 20
1.087476
 10
20.40562
 20
1.087476
 10
20.40562
 20
1.997532
 42
-0.200193
 10
21.080266
 20
3.612714
 42
-0.200193
 10
20.40562
 20
5.227896
 10
20.40562
 20
5.996381
 10
21.74996
 20
5.996381
 10
21.74996
 20
5.229778
 42
0.431175
 10
22.723097
 20
4.287127
 42
0.431175
  0
LWPOLYLINE
  5
208
100
AcDbEntity
  8
AM_4
100
AcDbPolyline
 90
        4
 70
     1
 43
0.0
 10
18.248679
 20
2.771757
 10
19.129987
 20
1.753515
 42
-2.569164
 10
19.536386
 20
5.006631
 10
17.189925
 20
2.572639
 42
0.268569
  0
LWPOLYLINE
  5
209
100
AcDbEntity
  8
AM_4
100
AcDbPolyline
 90
        3
 70
     0
 43
1.344148
 10
24.368397
 20
5.996381
 10
24.368397
 20
5.229778
 42
-0.419272
 10
22.723097
 20
3.612602
 42
-1.628847
  0
LWPOLYLINE
  5
20A
100
AcDbEntity
  8
AM_4
100
AcDbPolyline
 90
        3
 70
     0
 43
1.344148
 10
24.368397
 20
1.087539
 10
24.368397
 20
1.995426
 42
0.419272
 10
22.723097
 20
3.612602
 42
1.628847
  0
LWPOLYLINE
  5
20B
100
AcDbEntity
  8
AM_4
100
AcDbPolyline
 90
        2
 70
     0
 43
0.672074
 10
19.290362
 20
5.242072
 10
16.86823
 20
2.724738
  0
LWPOLYLINE
  5
20C
100
AcDbEntity
  8
AM_4
100
AcDbPolyline
 90
        2
 70
     0
 43
1.344148
 10
18.752084
 20
4.839334
 42
2.261413
 10
18.687247
 20
2.260219
 42
0.980224
  0
LWPOLYLINE
  5
20D
100
AcDbEntity
  8
AM_4
100
AcDbPolyline
 90
        3
 70
     0
 43
1.344148
 10
21.077797
 20
5.996381
 10
21.077797
 20
5.229778
 42
0.419272
 10
22.723097
 20
3.612602
 42
1.628847
  0
LWPOLYLINE
  5
20E
100
AcDbEntity
  8
AM_4
100
AcDbPolyline
 90
        3
 70
     0
 43
1.344148
 10
21.077797
 20
1.087539
 10
21.077797
 20
1.995426
 42
-0.419272
 10
22.723097
 20
3.612602
 42
-1.628847
  0
LWPOLYLINE
  5
20F
100
AcDbEntity
  8
AM_4
100
AcDbPolyline
 90
        2
 70
     1
 43
0.0
 10
18.109864
 20
4.487969
 10
16.657149
 20
2.988626
 42
-0.802942
  0
LWPOLYLINE
  5
210
100
AcDbEntity
  8
AM_4
100
AcDbPolyline
 90
        2
 70
     0
 43
1.344148
 10
10.950958
 20
5.331924
 10
11.548266
 20
5.331924
  0
ENDBLK
  5
212
100
AcDbEntity
  8
0
100
AcDbBlockEnd
  0
BLOCK
  5
213
100
AcDbEntity
  8
0
100
AcDbBlockBegin
  2
LOGO
 70
     0
 10
0.0
 20
0.0
 30
0.0
  3
LOGO
  1

  0
INSERT
  5
1FB
100
AcDbEntity
  8
AM_4
100
AcDbBlockReference
  2
REFLEX-LOGO
 10
0.184903
 20
0.739308
 30
0.0
  0
ENDBLK
  5
214
100
AcDbEntity
  8
0
100
AcDbBlockEnd
  0
BLOCK
  5
32
100
AcDbEntity
  8
0
100
AcDbBlockBegin
  2
*D3
 70
     1
 10
0.0
 20
0.0
 30
0.0
  3
*D3
  1

  0
LINE
  5
2A
100
AcDbEntity
  8
AM_5
100
AcDbLine
 10
7696.283482
 20
1545.288793
 30
0.0
 11
7696.283482
 21
1451.591777
 31
0.0
  0
LINE
  5
2B
100
AcDbEntity
  8
AM_5
100
AcDbLine
 10
7678.783482
 20
1458.591777
 30
0.0
 11
7440.377862
 21
1458.591777
 31
0.0
  0
SOLID
  5
2C
100
AcDbEntity
  8
AM_5
100
AcDbTrace
 10
7678.783482
 20
1461.508444
 30
0.0
 11
7678.783482
 21
1455.67511
 31
0.0
 12
7696.283482
 22
1458.591777
 32
0.0
 13
7696.283482
 23
1458.591777
 33
0.0
  0
MTEXT
  5
2D
100
AcDbEntity
  8
AM_5
 62
     2
100
AcDbMText
 10
7493.158482
 20
1489.393844
 30
0.0
 40
21.0
 41
0.0
 71
     5
 72
     1
  1
%%c570 {}{\C2;%%p2}
1001
ACAD
1000
MTEXTBEGIN
1070
    73
1070
     1
1070
    44
1040
1.0
1070
    74
1070
     0
1000
MTEXTEND
  0
POINT
  5
2E
100
AcDbEntity
  8
DEFPOINTS
 62
     0
100
AcDbPoint
 10
7290.033482
 20
1528.591778
 30
0.0
  0
POINT
  5
30
100
AcDbEntity
  8
DEFPOINTS
 62
     0
100
AcDbPoint
 10
7696.283482
 20
1545.288793
 30
0.0
  0
POINT
  5
31
100
AcDbEntity
  8
DEFPOINTS
 62
     0
100
AcDbPoint
 10
7696.283482
 20
1458.591777
 30
0.0
  0
ENDBLK
  5
33
100
AcDbEntity
  8
0
100
AcDbBlockEnd
  0
BLOCK
  5
19E
100
AcDbEntity
  8
0
100
AcDbBlockBegin
  2
*D4
 70
     1
 10
0.0
 20
0.0
 30
0.0
  3
*D4
  1

  0
LINE
  5
195
100
AcDbEntity
  8
AM_5
100
AcDbLine
 10
7193.03675
 20
1556.90256
 30
0.0
 11
7295.934046
 21
1556.90256
 31
0.0
  0
LINE
  5
196
100
AcDbEntity
  8
AM_5
100
AcDbLine
 10
7397.433482
 20
1698.782919
 30
0.0
 11
7281.934046
 21
1698.782919
 31
0.0
  0
LINE
  5
197
100
AcDbEntity
  8
AM_5
100
AcDbLine
 10
7288.934046
 20
1574.40256
 30
0.0
 11
7288.934046
 21
1681.282919
 31
0.0
  0
SOLID
  5
198
100
AcDbEntity
  8
AM_5
100
AcDbTrace
 10
7286.01738
 20
1574.40256
 30
0.0
 11
7291.850713
 21
1574.40256
 31
0.0
 12
7288.934046
 22
1556.90256
 32
0.0
 13
7288.934046
 23
1556.90256
 33
0.0
  0
SOLID
  5
199
100
AcDbEntity
  8
AM_5
100
AcDbTrace
 10
7286.01738
 20
1681.282919
 30
0.0
 11
7291.850713
 21
1681.282919
 31
0.0
 12
7288.934046
 22
1698.782919
 32
0.0
 13
7288.934046
 23
1698.782919
 33
0.0
  0
MTEXT
  5
19A
100
AcDbEntity
  8
AM_5
 62
     2
100
AcDbMText
 10
7273.531979
 20
1623.520846
 30
0.0
 40
21.0
 41
0.0
 71
     5
 72
     1
  1
142
 11
0.0
 21
1.0
 31
0.0
1001
ACAD
1000
MTEXTBEGIN
1070
    73
1070
     1
1070
    44
1040
1.0
1070
    74
1070
     0
1000
MTEXTEND
  0
POINT
  5
19B
100
AcDbEntity
  8
DEFPOINTS
 62
     0
100
AcDbPoint
 10
7193.03675
 20
1556.90256
 30
0.0
  0
POINT
  5
19C
100
AcDbEntity
  8
DEFPOINTS
 62
     0
100
AcDbPoint
 10
7397.433482
 20
1698.782919
 30
0.0
  0
POINT
  5
19D
100
AcDbEntity
  8
DEFPOINTS
 62
     0
100
AcDbPoint
 10
7288.934046
 20
1698.782919
 30
0.0
  0
ENDBLK
  5
19F
100
AcDbEntity
  8
0
100
AcDbBlockEnd
  0
BLOCK
  5
1ED
100
AcDbEntity
  8
0
100
AcDbBlockBegin
  2
*D5
 70
     1
 10
0.0
 20
0.0
 30
0.0
  3
*D5
  1

  0
LINE
  5
1E4
100
AcDbEntity
  8
AM_5
100
AcDbLine
 10
6499.091545
 20
2071.875634
 30
0.0
 11
6499.091545
 21
2078.875634
 31
0.0
  0
LINE
  5
1E5
100
AcDbEntity
  8
AM_5
100
AcDbLine
 10
5759.091545
 20
2071.875634
 30
0.0
 11
5759.091545
 21
2078.875634
 31
0.0
  0
LINE
  5
1E6
100
AcDbEntity
  8
AM_5
100
AcDbLine
 10
6481.591545
 20
2071.875634
 30
0.0
 11
5776.591545
 21
2071.875634
 31
0.0
  0
SOLID
  5
1E7
100
AcDbEntity
  8
AM_5
100
AcDbTrace
 10
6481.591545
 20
2074.792301
 30
0.0
 11
6481.591545
 21
2068.958968
 31
0.0
 12
6499.091545
 22
2071.875634
 32
0.0
 13
6499.091545
 23
2071.875634
 33
0.0
  0
SOLID
  5
1E8
100
AcDbEntity
  8
AM_5
100
AcDbTrace
 10
5776.591545
 20
2074.792301
 30
0.0
 11
5776.591545
 21
2068.958968
 31
0.0
 12
5759.091545
 22
2071.875634
 32
0.0
 13
5759.091545
 23
2071.875634
 33
0.0
  0
MTEXT
  5
1E9
100
AcDbEntity
  8
AM_5
 62
     2
100
AcDbMText
 10
6074.090543
 20
2087.275634
 30
0.0
 40
21.0
 41
0.0
 71
     5
 72
     1
  1
%%c740
1001
ACAD
1000
MTEXTBEGIN
1070
    73
1070
     1
1070
    44
1040
1.0
1070
    74
1070
     0
1000
MTEXTEND
  0
POINT
  5
1EA
100
AcDbEntity
  8
DEFPOINTS
 62
     0
100
AcDbPoint
 10
6499.091545
 20
2071.875634
 30
0.0
  0
POINT
  5
1EB
100
AcDbEntity
  8
DEFPOINTS
 62
     0
100
AcDbPoint
 10
5759.091545
 20
2071.875634
 30
0.0
  0
POINT
  5
1EC
100
AcDbEntity
  8
DEFPOINTS
 62
     0
100
AcDbPoint
 10
5759.091545
 20
2071.875634
 30
0.0
  0
ENDBLK
  5
1EE
100
AcDbEntity
  8
0
100
AcDbBlockEnd
  0
BLOCK
  5
81
100
AcDbEntity
  8
0
100
AcDbBlockBegin
  2
*D6
 70
     1
 10
0.0
 20
0.0
 30
0.0
  3
*D6
  1

  0
LINE
  5
78
100
AcDbEntity
  8
AM_5
100
AcDbLine
 10
6230.091545
 20
1734.282919
 30
0.0
 11
6607.200752
 21
1734.282919
 31
0.0
  0
LINE
  5
79
100
AcDbEntity
  8
AM_5
100
AcDbLine
 10
6145.091545
 20
2775.712986
 30
0.0
 11
6607.200752
 21
2775.712986
 31
0.0
  0
LINE
  5
7A
100
AcDbEntity
  8
AM_5
100
AcDbLine
 10
6600.200752
 20
1751.782919
 30
0.0
 11
6600.200752
 21
2758.212986
 31
0.0
  0
SOLID
  5
7B
100
AcDbEntity
  8
AM_5
100
AcDbTrace
 10
6597.284085
 20
1751.782919
 30
0.0
 11
6603.117419
 21
1751.782919
 31
0.0
 12
6600.200752
 22
1734.282919
 32
0.0
 13
6600.200752
 23
1734.282919
 33
0.0
  0
SOLID
  5
7C
100
AcDbEntity
  8
AM_5
100
AcDbTrace
 10
6597.284085
 20
2758.212986
 30
0.0
 11
6603.117419
 21
2758.212986
 31
0.0
 12
6600.200752
 22
2775.712986
 32
0.0
 13
6600.200752
 23
2775.712986
 33
0.0
  0
MTEXT
  5
7D
100
AcDbEntity
  8
AM_5
 62
     2
100
AcDbMText
 10
6584.800752
 20
2208.582592
 30
0.0
 40
21.0
 41
0.0
 71
     5
 72
     1
  1
1041 {}{\C2;%%p5}
 11
0.0
 21
1.0
 31
0.0
1001
ACAD
1000
MTEXTBEGIN
1070
    73
1070
     1
1070
    44
1040
1.0
1070
    74
1070
     0
1000
MTEXTEND
  0
POINT
  5
7E
100
AcDbEntity
  8
DEFPOINTS
 62
     0
100
AcDbPoint
 10
6230.091545
 20
1734.282919
 30
0.0
  0
POINT
  5
7F
100
AcDbEntity
  8
DEFPOINTS
 62
     0
100
AcDbPoint
 10
6145.091545
 20
2775.712986
 30
0.0
  0
POINT
  5
80
100
AcDbEntity
  8
DEFPOINTS
 62
     0
100
AcDbPoint
 10
6600.200752
 20
2775.712986
 30
0.0
  0
ENDBLK
  5
82
100
AcDbEntity
  8
0
100
AcDbBlockEnd
  0
BLOCK
  5
8F
100
AcDbEntity
  8
0
100
AcDbBlockBegin
  2
*D7
 70
     1
 10
0.0
 20
0.0
 30
0.0
  3
*D7
  1

  0
LINE
  5
86
100
AcDbEntity
  8
AM_5
100
AcDbLine
 10
6145.091545
 20
2775.712986
 30
0.0
 11
6685.786455
 21
2775.712986
 31
0.0
  0
LINE
  5
87
100
AcDbEntity
  8
AM_5
100
AcDbLine
 10
6405.729293
 20
1556.90256
 30
0.0
 11
6685.786455
 21
1556.90256
 31
0.0
  0
LINE
  5
88
100
AcDbEntity
  8
AM_5
100
AcDbLine
 10
6678.786455
 20
2758.212986
 30
0.0
 11
6678.786455
 21
1574.40256
 31
0.0
  0
SOLID
  5
89
100
AcDbEntity
  8
AM_5
100
AcDbTrace
 10
6675.869788
 20
2758.212986
 30
0.0
 11
6681.703122
 21
2758.212986
 31
0.0
 12
6678.786455
 22
2775.712986
 32
0.0
 13
6678.786455
 23
2775.712986
 33
0.0
  0
SOLID
  5
8A
100
AcDbEntity
  8
AM_5
100
AcDbTrace
 10
6675.869788
 20
1574.40256
 30
0.0
 11
6681.703122
 21
1574.40256
 31
0.0
 12
6678.786455
 22
1556.90256
 32
0.0
 13
6678.786455
 23
1556.90256
 33
0.0
  0
MTEXT
  5
8B
100
AcDbEntity
  8
AM_5
 62
     2
100
AcDbMText
 10
6663.384388
 20
2163.640709
 30
0.0
 40
21.0
 41
0.0
 71
     5
 72
     1
  1
1219 {}{\C2;%%p8}
 11
0.0
 21
1.0
 31
0.0
1001
ACAD
1000
MTEXTBEGIN
1070
    73
1070
     1
1070
    44
1040
1.0
1070
    74
1070
     0
1000
MTEXTEND
  0
POINT
  5
8C
100
AcDbEntity
  8
DEFPOINTS
 62
     0
100
AcDbPoint
 10
6145.091545
 20
2775.712986
 30
0.0
  0
POINT
  5
8D
100
AcDbEntity
  8
DEFPOINTS
 62
     0
100
AcDbPoint
 10
6405.729293
 20
1556.90256
 30
0.0
  0
POINT
  5
8E
100
AcDbEntity
  8
DEFPOINTS
 62
     0
100
AcDbPoint
 10
6678.786455
 20
1556.90256
 30
0.0
  0
ENDBLK
  5
90
100
AcDbEntity
  8
0
100
AcDbBlockEnd
  0
BLOCK
  5
67
100
AcDbEntity
  8
0
100
AcDbBlockBegin
  2
*D8
 70
     1
 10
0.0
 20
0.0
 30
0.0
  3
*D8
  1

  0
LINE
  5
5E
100
AcDbEntity
  8
AM_5
100
AcDbLine
 10
6122.071126
 20
2810.23774
 30
0.0
 11
5667.672774
 21
2810.23774
 31
0.0
  0
LINE
  5
5F
100
AcDbEntity
  8
AM_5
100
AcDbLine
 10
5852.453797
 20
1556.90256
 30
0.0
 11
5667.672774
 21
1556.90256
 31
0.0
  0
LINE
  5
60
100
AcDbEntity
  8
AM_5
100
AcDbLine
 10
5674.672774
 20
2792.73774
 30
0.0
 11
5674.672774
 21
1574.40256
 31
0.0
  0
SOLID
  5
61
100
AcDbEntity
  8
AM_5
100
AcDbTrace
 10
5671.756107
 20
2792.73774
 30
0.0
 11
5677.589441
 21
2792.73774
 31
0.0
 12
5674.672774
 22
2810.23774
 32
0.0
 13
5674.672774
 23
2810.23774
 33
0.0
  0
SOLID
  5
62
100
AcDbEntity
  8
AM_5
100
AcDbTrace
 10
5671.756107
 20
1574.40256
 30
0.0
 11
5677.589441
 21
1574.40256
 31
0.0
 12
5674.672774
 22
1556.90256
 32
0.0
 13
5674.672774
 23
1556.90256
 33
0.0
  0
MTEXT
  5
63
100
AcDbEntity
  8
AM_5
 62
     2
100
AcDbMText
 10
5659.270707
 20
2167.385866
 30
0.0
 40
21.0
 41
0.0
 71
     5
 72
     1
  1
1253 {}{\C2;%%p15}
 11
0.0
 21
1.0
 31
0.0
1001
ACAD
1000
MTEXTBEGIN
1070
    73
1070
     1
1070
    44
1040
1.0
1070
    74
1070
     0
1000
MTEXTEND
  0
POINT
  5
64
100
AcDbEntity
  8
DEFPOINTS
 62
     0
100
AcDbPoint
 10
6122.071126
 20
2810.23774
 30
0.0
  0
POINT
  5
65
100
AcDbEntity
  8
DEFPOINTS
 62
     0
100
AcDbPoint
 10
5852.453797
 20
1556.90256
 30
0.0
  0
POINT
  5
66
100
AcDbEntity
  8
DEFPOINTS
 62
     0
100
AcDbPoint
 10
5674.672774
 20
1556.90256
 30
0.0
  0
ENDBLK
  5
68
100
AcDbEntity
  8
0
100
AcDbBlockEnd
  0
BLOCK
  5
42
100
AcDbEntity
  8
0
100
AcDbBlockBegin
  2
*D10
 70
     1
 10
0.0
 20
0.0
 30
0.0
  3
*D10
  1

  0
LINE
  5
37
100
AcDbEntity
  8
AM_5
100
AcDbLine
 10
7395.433482
 20
1700.782919
 30
0.0
 11
7395.433482
 21
1648.810215
 31
0.0
  0
LINE
  5
38
100
AcDbEntity
  8
AM_5
100
AcDbLine
 10
7427.133482
 20
1700.782919
 30
0.0
 11
7427.133482
 21
1648.810215
 31
0.0
  0
LINE
  5
39
100
AcDbEntity
  8
AM_5
100
AcDbLine
 10
7377.933482
 20
1655.810215
 30
0.0
 11
7360.433482
 21
1655.810215
 31
0.0
  0
LINE
  5
3A
100
AcDbEntity
  8
AM_5
100
AcDbLine
 10
7444.633482
 20
1655.810215
 30
0.0
 11
7586.420793
 21
1655.810215
 31
0.0
  0
LINE
  5
3B
100
AcDbEntity
  8
AM_5
100
AcDbLine
 10
7395.433482
 20
1655.810215
 30
0.0
 11
7427.133482
 21
1655.810215
 31
0.0
  0
SOLID
  5
3C
100
AcDbEntity
  8
AM_5
100
AcDbTrace
 10
7377.933482
 20
1658.726882
 30
0.0
 11
7377.933482
 21
1652.893549
 31
0.0
 12
7395.433482
 22
1655.810215
 32
0.0
 13
7395.433482
 23
1655.810215
 33
0.0
  0
SOLID
  5
3D
100
AcDbEntity
  8
AM_5
100
AcDbTrace
 10
7444.633482
 20
1658.726882
 30
0.0
 11
7444.633482
 21
1652.893549
 31
0.0
 12
7427.133482
 22
1655.810215
 32
0.0
 13
7427.133482
 23
1655.810215
 33
0.0
  0
MTEXT
  5
3E
100
AcDbEntity
  8
AM_5
 62
     2
100
AcDbMText
 10
7524.277138
 20
1671.247526
 30
0.0
 40
21.0
 41
0.0
 71
     5
 72
     1
  1
G1 ISO228
1001
ACAD
1000
MTEXTBEGIN
1070
    73
1070
     1
1070
    44
1040
1.0
1070
    74
1070
     0
1000
MTEXTEND
  0
POINT
  5
3F
100
AcDbEntity
  8
DEFPOINTS
 62
     0
100
AcDbPoint
 10
7395.433482
 20
1700.782919
 30
0.0
  0
POINT
  5
40
100
AcDbEntity
  8
DEFPOINTS
 62
     0
100
AcDbPoint
 10
7427.133482
 20
1700.782919
 30
0.0
  0
POINT
  5
41
100
AcDbEntity
  8
DEFPOINTS
 62
     0
100
AcDbPoint
 10
7427.133482
 20
1655.810215
 30
0.0
  0
ENDBLK
  5
43
100
AcDbEntity
  8
0
100
AcDbBlockEnd
  0
BLOCK
  5
649
100
AcDbEntity
  8
0
100
AcDbBlockBegin
  2
*D11
 70
     1
 10
0.0
 20
0.0
 30
0.0
  3
*D11
  1

  0
LINE
  5
63E
100
AcDbEntity
  8
AM_5
100
AcDbLine
 10
6524.485881
 20
716.390727
 30
0.0
 11
6559.345653
 21
716.390727
 31
0.0
  0
LINE
  5
63F
100
AcDbEntity
  8
AM_5
100
AcDbLine
 10
6406.219674
 20
876.390727
 30
0.0
 11
6501.702532
 21
931.517781
 31
0.0
  0
ARC
  5
640
100
AcDbEntity
  8
AM_5
100
AcDbCircle
 10
6129.091545
 20
716.390727
 30
0.0
 40
423.254108
100
AcDbArc
 50
2.369138
 51
27.630862
  0
SOLID
  5
641
100
AcDbEntity
  8
AM_5
100
AcDbTrace
 10
6554.899916
 20
733.947284
 30
0.0
 11
6549.067829
 21
733.82669
 31
0.0
 12
6552.345653
 22
716.390727
 32
0.0
 13
6552.345653
 23
716.390727
 33
0.0
  0
SOLID
  5
642
100
AcDbEntity
  8
AM_5
100
AcDbTrace
 10
6501.519658
 20
911.278882
 30
0.0
 11
6506.63069
 21
914.090488
 31
0.0
 12
6495.640355
 22
928.017781
 32
0.0
 13
6495.640355
 23
928.017781
 33
0.0
  0
MTEXT
  5
643
100
AcDbEntity
  8
AM_5
 62
     2
100
AcDbMText
 10
6553.813099
 20
830.194524
 30
0.0
 40
21.0
 41
0.0
 71
     5
 72
     1
  1
30°  (3x120°)
 11
0.258819
 21
-0.965926
 31
0.0
  0
POINT
  5
644
100
AcDbEntity
  8
DEFPOINTS
 62
     0
100
AcDbPoint
 10
6545.915472
 20
789.888032
 30
0.0
  0
POINT
  5
645
100
AcDbEntity
  8
DEFPOINTS
 62
     0
100
AcDbPoint
 10
5772.849015
 20
716.390727
 30
0.0
  0
POINT
  5
646
100
AcDbEntity
  8
DEFPOINTS
 62
     0
100
AcDbPoint
 10
6345.597896
 20
841.390727
 30
0.0
  0
POINT
  5
647
100
AcDbEntity
  8
DEFPOINTS
 62
     0
100
AcDbPoint
 10
6406.219674
 20
876.390727
 30
0.0
  0
POINT
  5
648
100
AcDbEntity
  8
DEFPOINTS
 62
     0
100
AcDbPoint
 10
6524.485881
 20
716.390727
 30
0.0
  0
ENDBLK
  5
64A
100
AcDbEntity
  8
0
100
AcDbBlockEnd
  0
ENDSEC
  0
SECTION
  2
ENTITIES
  0
DIMENSION
  5
27
100
AcDbEntity
  8
AM_5
100
AcDbDimension
  2
*D3
 10
7696.283482
 20
1458.591777
 30
0.0
 11
7493.158482
 21
1489.393844
 31
0.0
  1
%%c570 {}{\C2;%%p2}
  3
AM_DIN
100
AcDbAlignedDimension
 13
7290.033482
 23
1528.591778
 33
0.0
 14
7696.283482
 24
1545.288793
 34
0.0
100
AcDbRotatedDimension
1001
ACAD
1000
DSTYLE
1002
{
1070
    40
1040
7.0
1070
    47
1040
2.0
1070
    48
1040
2.0
1070
    75
1070
     1
1070
   281
1070
     1
1002
}
1001
GENIUS_GENDTOL_13
1000
TolPm
1000
h7
1000
{$3%%p$P}
1040
570.0
  0
DIMENSION
  5
35
100
AcDbEntity
  8
AM_5
100
AcDbDimension
  2
*D10
 10
7427.133482
 20
1655.810215
 30
0.0
 11
7524.277138
 21
1671.247526
 31
0.0
 70
     1
  1
G1 ISO228
  3
AM_DIN
100
AcDbAlignedDimension
 13
7395.433482
 23
1700.782919
 33
0.0
 14
7427.133482
 24
1700.782919
 34
0.0
1001
ACAD
1000
DSTYLE
1002
{
1070
    40
1040
7.0
1002
}
1001
GENIUS_GENDTOL_13
1000

1000
h7
1000

1040
0.0
1000
G1 ISO228
  0
HATCH
  5
44
100
AcDbEntity
  8
AM_8
100
AcDbHatch
 10
0.0
 20
0.0
 30
0.0
210
0.0
220
0.0
230
1.0
  2
_U
 70
     0
 71
     0
 91
        1
 92
        1
 93
       16
 72
     2
 10
7411.283482
 20
2202.032919
 40
461.0
 50
52.802048
 51
80.447945
 73
     0
 72
     1
 10
7487.783482
 20
1747.424571
 11
7487.783482
 21
1734.282919
 72
     1
 10
7487.783482
 20
1734.282919
 11
7512.283482
 21
1734.282919
 72
     1
 10
7512.283482
 20
1734.282919
 11
7512.283482
 21
1729.782919
 72
     1
 10
7512.283482
 20
1729.782919
 11
7483.783482
 21
1729.782919
 72
     1
 10
7483.783482
 20
1729.782919
 11
7483.783482
 21
1749.807588
 72
     2
 10
7411.283482
 20
2202.032919
 40
458.0
 50
279.108059
 51
307.197952
 73
     1
 72
     2
 10
7629.533482
 20
1914.477815
 40
97.0
 50
307.197952
 51
360.0
 73
     1
 72
     1
 10
7726.533482
 20
1914.477815
 11
7726.533482
 21
2594.010795
 72
     2
 10
7629.533482
 20
2594.010795
 40
97.0
 50
0.0
 51
52.681155
 73
     1
 72
     2
 10
7411.283482
 20
2307.712109
 40
457.0
 50
52.681155
 51
88.620756
 73
     1
 72
     1
 10
7422.283482
 20
2764.579705
 11
7422.283482
 21
2767.580568
 72
     2
 10
7411.283482
 20
2307.712109
 40
460.0
 50
271.370247
 51
307.318845
 73
     0
 72
     2
 10
7629.533482
 20
2594.010795
 40
100.0
 50
307.318845
 51
360.0
 73
     0
 72
     1
 10
7729.533482
 20
2594.010795
 11
7729.533482
 21
1914.477815
 72
     2
 10
7629.533482
 20
1914.477815
 40
100.0
 50
0.0
 51
52.802048
 73
     0
 97
        0
 75
     0
 76
     0
 52
45.0
 41
16.1
 77
     1
 78
     2
 53
45.0
 43
0.0
 44
0.0
 45
-11.3844191771034
 46
11.3844191771034
 79
     0
 53
135.0
 43
0.0
 44
0.0
 45
-11.38441917710341
 46
-11.3844191771034
 79
     0
 98
        1
 10
0.0
 20
0.0
1001
GENIUS_GENODEF_13
1002
{
1000
HIER
1070
     0
1002
}
1002
{
1000
MANEDIT
1070
     0
1002
}
1002
{
1000
NOSEL
1070
     0
1002
}
1002
{
1000
BEHIND
1070
     0
1002
}
1002
{
1000
OTHER
1070
     0
1002
}
1002
{
1000
REACTOR
1002
}
1001
GENIUS_GENOBJ-N-HTC_13
1002
{
1000
OWNER
1000
GEN
1002
}
1001
GENIUS_GENHATCH_13
1002
{
1000
DATA
1040
45.0
1042
2.3
1000
_U
1070
     1
1011
7484.742315
1021
1742.399513
1031
0.0
1002
}
1002
{
1000
UCS
1010
0.0
1020
0.0
1030
0.0
1010
1.0
1020
0.0
1030
0.0
1010
0.0
1020
1.0
1030
0.0
1002
}
  0
HATCH
  5
49
100
AcDbEntity
  8
AM_8
100
AcDbHatch
 10
0.0
 20
0.0
 30
0.0
210
0.0
220
0.0
230
1.0
  2
_U
 70
     0
 71
     0
 91
        1
 92
        1
 93
        6
 72
     2
 10
7411.283482
 20
2364.318145
 40
396.0
 50
271.193748
 51
276.290632
 73
     0
 72
     2
 10
7454.783482
 20
2758.927762
 40
1.0
 50
263.709368
 51
360.0
 73
     1
 72
     1
 10
7455.783482
 20
2758.927762
 11
7455.783482
 21
2760.939816
 72
     2
 10
7454.783482
 20
2760.939816
 40
1.0
 50
0.0
 51
83.741027
 73
     1
 72
     2
 10
7411.283482
 20
2364.318145
 40
400.0
 50
83.741027
 51
88.818191
 73
     1
 72
     1
 10
7419.533482
 20
2764.233057
 11
7419.533482
 21
2760.232198
 97
        0
 75
     0
 76
     0
 52
135.0
 41
7.0
 77
     0
 78
     1
 53
135.0
 43
0.0
 44
0.0
 45
-4.949747468305833
 46
-4.949747468305831
 79
     0
 98
        1
 10
0.0
 20
0.0
1001
GENIUS_GENODEF_13
1002
{
1000
HIER
1070
     0
1002
}
1002
{
1000
MANEDIT
1070
     0
1002
}
1002
{
1000
NOSEL
1070
     0
1002
}
1002
{
1000
BEHIND
1070
     0
1002
}
1002
{
1000
OTHER
1070
     0
1002
}
1002
{
1000
REACTOR
1002
}
1001
GENIUS_GENOBJ-N-HTC_13
1002
{
1000
OWNER
1000
GEN
1002
}
1001
GENIUS_GENHATCH_13
1002
{
1000
DATA
1040
135.0
1042
1.0
1000
_U
1070
     0
1011
7427.7539
1021
2762.045046
1031
0.0
1002
}
1002
{
1000
UCS
1010
0.0
1020
0.0
1030
0.0
1010
1.0
1020
0.0
1030
0.0
1010
0.0
1020
1.0
1030
0.0
1002
}
  0
ARC
  5
4A
100
AcDbEntity
  8
AM_0
100
AcDbCircle
 10
7411.283482
 20
2364.318145
 30
0.0
 40
400.0
100
AcDbArc
 50
83.741027
 51
88.856933
  0
ARC
  5
4B
100
AcDbEntity
  8
AM_0
100
AcDbCircle
 10
7411.283482
 20
2364.318145
 30
0.0
 40
396.0
100
AcDbArc
 50
83.709368
 51
88.845386
  0
ARC
  5
4C
100
AcDbEntity
  8
AM_0
100
AcDbCircle
 10
7411.283482
 20
2307.712109
 30
0.0
 40
466.0
100
AcDbArc
 50
74.472321
 51
88.278409
  0
HATCH
  5
4D
100
AcDbEntity
  8
AM_8
100
AcDbHatch
 10
0.0
 20
0.0
 30
0.0
210
0.0
220
0.0
230
1.0
  2
_U
 70
     0
 71
     0
 91
        1
 92
        1
 93
        5
 72
     2
 10
7411.283482
 20
2307.712109
 40
466.0
 50
74.472321
 51
88.278409
 73
     1
 72
     1
 10
7425.283482
 20
2773.501761
 11
7422.283482
 21
2773.501761
 72
     1
 10
7422.283482
 20
2773.501761
 11
7422.283482
 21
2767.580568
 72
     2
 10
7411.283482
 20
2307.712109
 40
460.0
 50
271.370247
 51
285.735428
 73
     0
 72
     1
 10
7536.033482
 20
2750.473261
 11
7536.033482
 21
2756.703687
 97
        0
 75
     0
 76
     0
 52
45.0
 41
5.0
 77
     0
 78
     1
 53
45.0
 43
9015.530948
 44
2763.657011
 45
-3.535533905932737
 46
3.535533905932737
 79
     0
 98
        1
 10
9015.530948
 20
2763.657011
1001
GENIUS_GENODEF_13
1002
{
1000
HIER
1070
     0
1002
}
1002
{
1000
MANEDIT
1070
     0
1002
}
1002
{
1000
NOSEL
1070
     0
1002
}
1002
{
1000
BEHIND
1070
     0
1002
}
1002
{
1000
REACTOR
1002
}
1001
GENIUS_GENOBJ-N-HTC_13
1002
{
1000
OWNER
1000
GEN
1002
}
1001
GENIUS_GENHATCH_13
1002
{
1000
DATA
1040
45.0
1042
2.5
1000
_U
1070
     0
1011
7442.127503
1021
2768.89568
1031
0.0
1002
}
1002
{
1000
UCS
1010
0.0
1020
0.0
1030
0.0
1010
1.0
1020
0.0
1030
0.0
1010
0.0
1020
1.0
1030
0.0
1002
}
  0
ARC
  5
4E
100
AcDbEntity
  8
AM_0
100
AcDbCircle
 10
7411.283482
 20
2307.712109
 30
0.0
 40
460.0
100
AcDbArc
 50
52.681155
 51
88.629753
  0
ARC
  5
4F
100
AcDbEntity
  8
AM_0
100
AcDbCircle
 10
7411.283482
 20
2307.712109
 30
0.0
 40
457.0
100
AcDbArc
 50
52.681155
 51
88.620756
  0
ARC
  5
50
100
AcDbEntity
  8
AM_0
100
AcDbCircle
 10
7411.283482
 20
2229.612986
 30
0.0
 40
544.0
100
AcDbArc
 50
54.99059
 51
88.841367
  0
ARC
  5
51
100
AcDbEntity
  8
AM_0
100
AcDbCircle
 10
7411.283482
 20
2229.612986
 30
0.0
 40
546.1
100
AcDbArc
 50
54.99059
 51
125.00941
  0
LINE
  5
52
100
AcDbEntity
  8
AM_0
100
AcDbLine
 10
7281.283482
 20
1723.782919
 30
0.0
 11
7541.283482
 21
1723.782919
 31
0.0
  0
HATCH
  5
53
100
AcDbEntity
  8
AM_8
100
AcDbHatch
 10
0.0
 20
0.0
 30
0.0
210
0.0
220
0.0
230
1.0
  2
ANSI31
 70
     0
 71
     0
 91
        6
 92
        7
 72
     0
 73
     1
 93
        4
 10
7295.283482260082
 20
1723.782918884904
 10
7295.283482260082
 20
1729.782918884904
 10
7281.283482260083
 20
1729.782918884903
 10
7281.283482260083
 20
1723.782918884903
 97
        0
 92
        7
 72
     0
 73
     1
 93
        4
 10
7398.783482260083
 20
1723.782918884911
 10
7398.783482260083
 20
1729.78291888491
 10
7307.283482260082
 20
1729.782918884904
 10
7307.283482260082
 20
1723.782918884904
 97
        0
 92
        7
 72
     0
 73
     1
 93
        4
 10
7402.783482260082
 20
1729.78291888491
 10
7402.783482260082
 20
1723.782918884911
 10
7411.283482260083
 20
1723.782918884911
 10
7411.283482260083
 20
1729.782918884911
 97
        0
 92
        7
 72
     0
 73
     1
 93
        4
 10
7411.283482260083
 20
1723.782918884911
 10
7419.783482260083
 20
1723.782918884912
 10
7419.783482260083
 20
1729.782918884912
 10
7411.283482260083
 20
1729.782918884911
 97
        0
 92
        7
 72
     0
 73
     1
 93
        4
 10
7515.283482260084
 20
1723.782918884918
 10
7515.283482260084
 20
1729.782918884918
 10
7423.783482260083
 20
1729.782918884912
 10
7423.783482260083
 20
1723.782918884912
 97
        0
 92
        7
 72
     0
 73
     1
 93
        4
 10
7541.283482260084
 20
1723.782918884919
 10
7541.283482260084
 20
1729.78291888492
 10
7527.283482260084
 20
1729.782918884919
 10
7527.283482260084
 20
1723.782918884919
 97
        0
 75
     0
 76
     1
 52
-90.0
 41
1.0
 77
     0
 78
     1
 53
315.0
 43
9058.351192
 44
2624.911756
 45
2.245064030267288
 46
2.245064030267287
 79
     0
 47
0.345291
 98
        6
 10
7288.341838
 20
1726.697282
 10
7343.265684
 20
1725.316109
 10
7406.134488
 20
1728.078447
 10
7413.388575
 20
1726.351991
 10
7448.27731
 20
1725.316109
 10
7534.635551
 20
1726.697282
  0
HATCH
  5
54
100
AcDbEntity
  8
AM_8
100
AcDbHatch
 10
0.0
 20
0.0
 30
0.0
210
0.0
220
0.0
230
1.0
  2
ANSI31
 70
     0
 71
     0
 91
        4
 92
        5
 93
        8
 72
     1
 10
7286.283482
 20
1745.082919
 11
7286.283482
 21
1748.082919
 72
     1
 10
7286.283482
 20
1748.082919
 11
7281.283482
 21
1748.082919
 72
     1
 10
7281.283482
 20
1748.082919
 11
7281.283482
 21
1745.082919
 72
     3
 10
7291.283482
 20
1745.082919
 11
-7.071068
 21
7.071068
 40
1.0
 50
45.0
 51
135.0
 73
     1
 72
     1
 10
7291.283482
 20
1735.082919
 11
7296.283482
 21
1735.082919
 72
     1
 10
7296.283482
 20
1735.082919
 11
7296.283482
 21
1740.082919
 72
     1
 10
7296.283482
 20
1740.082919
 11
7291.283482
 21
1740.082919
 72
     3
 10
7291.283482
 20
1745.082919
 11
3.535534
 21
3.535534
 40
1.0
 50
135.0
 51
225.0
 73
     0
 97
        0
 92
        5
 93
        4
 72
     1
 10
7330.783482
 20
1740.082919
 11
7306.283482
 21
1740.082919
 72
     1
 10
7306.283482
 20
1740.082919
 11
7306.283482
 21
1735.082919
 72
     1
 10
7306.283482
 20
1735.082919
 11
7330.783482
 21
1735.082919
 72
     1
 10
7330.783482
 20
1735.082919
 11
7330.783482
 21
1740.082919
 97
        0
 92
        5
 93
        4
 72
     1
 10
7516.283482
 20
1740.082919
 11
7491.783482
 21
1740.082919
 72
     1
 10
7491.783482
 20
1740.082919
 11
7491.783482
 21
1735.082919
 72
     1
 10
7491.783482
 20
1735.082919
 11
7516.283482
 21
1735.082919
 72
     1
 10
7516.283482
 20
1735.082919
 11
7516.283482
 21
1740.082919
 97
        0
 92
        5
 93
        8
 72
     1
 10
7541.283482
 20
1745.082919
 11
7541.283482
 21
1748.082919
 72
     1
 10
7541.283482
 20
1748.082919
 11
7536.283482
 21
1748.082919
 72
     1
 10
7536.283482
 20
1748.082919
 11
7536.283482
 21
1745.082919
 72
     3
 10
7531.283482
 20
1745.082919
 11
3.535534
 21
3.535534
 40
1.0
 50
45.0
 51
135.0
 73
     0
 72
     1
 10
7531.283482
 20
1740.082919
 11
7526.283482
 21
1740.082919
 72
     1
 10
7526.283482
 20
1740.082919
 11
7526.283482
 21
1735.082919
 72
     1
 10
7526.283482
 20
1735.082919
 11
7531.283482
 21
1735.082919
 72
     3
 10
7531.283482
 20
1745.082919
 11
7.071068
 21
7.071068
 40
1.0
 50
225.0
 51
315.0
 73
     1
 97
        0
 75
     0
 76
     1
 52
-4320.0
 41
1.0
 77
     0
 78
     1
 53
45.0
 43
12624.819398
 44
247.274839
 45
-2.245064030267287
 46
2.245064030267288
 79
     0
 47
0.619008
 98
        4
 10
5274.524537
 20
768.283983
 10
5306.106879
 20
761.4749
 10
5492.50457
 20
761.4749
 10
5527.183215
 20
768.283983
  0
LINE
  5
55
100
AcDbEntity
  8
AM_0
100
AcDbLine
 10
7306.283482
 20
1729.782919
 30
0.0
 11
7516.283482
 21
1729.782919
 31
0.0
  0
HATCH
  5
56
100
AcDbEntity
  8
AM_8
100
AcDbHatch
 10
0.0
 20
0.0
 30
0.0
210
0.0
220
0.0
230
1.0
  2
ANSI31
 70
     0
 71
     0
 91
        1
 92
        1
 93
       21
 72
     2
 10
7411.283482
 20
2229.612986
 40
546.1
 50
54.99059
 51
88.845823
 73
     1
 72
     1
 10
7422.283482
 20
2775.602189
 11
7422.283482
 21
2775.252548
 72
     1
 10
7422.283482
 20
2775.252548
 11
7422.283482
 21
2773.501761
 72
     1
 10
7422.283482
 20
2773.501761
 11
7425.283482
 21
2773.501761
 72
     2
 10
7411.283482
 20
2307.712109
 40
466.0
 50
271.721591
 51
273.119481
 73
     0
 72
     2
 10
7411.283482
 20
2229.612986
 40
544.0
 50
272.671851
 51
305.00941
 73
     0
 72
     2
 10
7648.283482
 20
2567.965775
 40
130.9
 50
305.00941
 51
360.0
 73
     0
 72
     1
 10
7779.183482
 20
2567.965775
 11
7779.183482
 21
2263.997048
 72
     2
 10
7778.183482
 20
2263.997048
 40
1.0
 50
0.0
 51
45.0
 73
     0
 72
     1
 10
7778.890589
 20
2263.289941
 11
7778.062934
 21
2262.462286
 72
     2
 10
7780.254965
 20
2260.270255
 40
3.1
 50
135.0
 51
176.0
 73
     1
 72
     1
 10
7777.162517
 20
2260.4865
 11
7776.613735
 21
2252.638547
 72
     2
 10
7778.40935
 20
2252.512986
 40
1.8
 50
176.0
 51
270.0
 73
     1
 72
     1
 10
7778.40935
 20
2250.712986
 11
7778.584214
 21
2250.712986
 72
     1
 10
7778.584214
 20
2250.712986
 11
7779.183482
 21
2259.282919
 72
     1
 10
7779.183482
 20
2259.282919
 11
7779.257401
 21
2260.340012
 72
     2
 10
7780.254965
 20
2260.270255
 40
1.0
 50
184.0
 51
225.0
 73
     0
 72
     1
 10
7779.547859
 20
2260.977362
 11
7780.375513
 21
2261.805017
 72
     2
 10
7778.183482
 20
2263.997048
 40
3.1
 50
315.0
 51
360.0
 73
     1
 72
     1
 10
7781.283482
 20
2263.997048
 11
7781.283482
 21
2567.965775
 72
     2
 10
7648.283482
 20
2567.965775
 40
133.0
 50
0.0
 51
54.99059
 73
     1
 97
        0
 75
     0
 76
     1
 52
0.0
 41
1.0
 77
     0
 78
     1
 53
45.0
 43
9015.530948
 44
2463.907888
 45
-2.245064030267287
 46
2.245064030267288
 79
     0
 98
        1
 10
9015.530948
 20
2463.907888
1001
GENIUS_GENODEF_13
1002
{
1000
HIER
1070
     0
1002
}
1002
{
1000
MANEDIT
1070
     0
1002
}
1002
{
1000
NOSEL
1070
     0
1002
}
1002
{
1000
BEHIND
1070
     0
1002
}
1002
{
1000
REACTOR
1002
}
1001
GENIUS_GENOBJ-N-HTC_13
1002
{
1000
OWNER
1000
GEN
1002
}
1001
GENIUS_GENHATCH_13
1002
{
1000
DATA
1040
135.0
1042
2.7
1000
_U
1070
     0
1011
7780.35646
1021
2546.912597
1031
0.0
1002
}
1002
{
1000
UCS
1010
0.0
1020
0.0
1030
0.0
1010
1.0
1020
0.0
1030
0.0
1010
0.0
1020
1.0
1030
0.0
1002
}
  0
TEXT
  5
57
100
AcDbEntity
  8
0
100
AcDbText
 10
7349.086321
 20
441.779217
 30
0.0
 40
63.0
  1
reflexomat Folgegefäß
 72
     1
 11
7781.614901
 21
422.879217
 31
0.0
100
AcDbText
 73
     1
  0
LINE
  5
58
100
AcDbEntity
  8
AM_0
100
AcDbLine
 10
4855.477491
 20
105.0
 30
0.0
 11
8943.477491
 21
105.0
 31
0.0
1001
GENIUS_GENREC_14
1002
{
1000
PYDIR
1011
4855.477491
1021
2975.0
1031
0.0
1002
}
1002
{
1000
PXDIR
1011
8943.477491
1021
105.0
1031
0.0
1002
}
1002
{
1000
PORI
1011
4855.477491
1021
105.0
1031
0.0
1002
}
1002
{
1000
PINS
1011
4855.477491
1021
105.0
1031
0.0
1002
}
1002
{
1000
PINS2
1011
8943.477491
1021
2975.0
1031
0.0
1002
}
1002
{
1000
H
1070
     0
1002
}
1002
{
1000
W
1070
     1
1002
}
1002
{
1000
C
1070
     1
1002
}
1001
GENIUS_GENOBJ-N-REC_13
1002
{
1000
OWNER
1000
GEN
1002
}
1001
GENIUS_GENODEF_13
1002
{
1000
HIER
1070
     0
1002
}
1002
{
1000
MANEDIT
1070
     0
1002
}
1002
{
1000
NOSEL
1070
     0
1002
}
1002
{
1000
BEHIND
1070
     0
1002
}
1002
{
1000
OTHER
1070
     0
1002
}
1002
{
1000
REACTOR
1002
}
  0
LINE
  5
5B
100
AcDbEntity
  8
AM_0
100
AcDbLine
 10
8943.477491
 20
2975.0
 30
0.0
 11
4855.477491
 21
2975.0
 31
0.0
1001
GENIUS_GENREC_14
1002
{
1000
PYDIR
1011
4855.477491
1021
2975.0
1031
0.0
1002
}
1002
{
1000
PXDIR
1011
8943.477491
1021
105.0
1031
0.0
1002
}
1002
{
1000
PORI
1011
4855.477491
1021
105.0
1031
0.0
1002
}
1002
{
1000
PINS
1011
4855.477491
1021
105.0
1031
0.0
1002
}
1002
{
1000
PINS2
1011
8943.477491
1021
2975.0
1031
0.0
1002
}
1002
{
1000
H
1070
     0
1002
}
1002
{
1000
W
1070
     1
1002
}
1002
{
1000
C
1070
     1
1002
}
1001
GENIUS_GENOBJ-N-REC_13
1002
{
1000
OWNER
1000
GEN
1002
}
1001
GENIUS_GENODEF_13
1002
{
1000
HIER
1070
     0
1002
}
1002
{
1000
MANEDIT
1070
     0
1002
}
1002
{
1000
NOSEL
1070
     0
1002
}
1002
{
1000
BEHIND
1070
     0
1002
}
1002
{
1000
OTHER
1070
     0
1002
}
1002
{
1000
REACTOR
1002
}
  0
DIMENSION
  5
5C
100
AcDbEntity
  8
AM_5
100
AcDbDimension
  2
*D8
 10
5674.672774
 20
1556.90256
 30
0.0
 11
5674.672774
 21
2167.385866
 31
0.0
 70
   128
  1
<> {}{\C2;%%p15}
  3
AM_DIN
100
AcDbAlignedDimension
 13
6122.071126
 23
2810.23774
 33
0.0
 14
5852.453797
 24
1556.90256
 34
0.0
 50
90.0
100
AcDbRotatedDimension
1001
GENIUS_GENDTOL_13
1000
TolPm
1000
h7
1000
{$3%%p$P}
1040
1253.0
1001
ACAD
1000
DSTYLE
1002
{
1070
    40
1040
7.0
1070
    47
1040
15.0
1070
    48
1040
15.0
1070
   271
1070
     0
1002
}
  0
HATCH
  5
69
100
AcDbEntity
  8
AM_8
100
AcDbHatch
 10
0.0
 20
0.0
 30
0.0
210
0.0
220
0.0
230
1.0
  2
_U
 70
     0
 71
     0
 91
        1
 92
        1
 93
       16
 72
     1
 10
7310.283482
 20
1734.282919
 11
7310.283482
 21
1729.782919
 72
     1
 10
7310.283482
 20
1729.782919
 11
7338.783482
 21
1729.782919
 72
     1
 10
7338.783482
 20
1729.782919
 11
7338.783482
 21
1749.807588
 72
     2
 10
7411.283482
 20
2202.032919
 40
458.0
 50
99.108059
 51
127.197952
 73
     0
 72
     2
 10
7193.033482
 20
1914.477815
 40
97.0
 50
127.197952
 51
180.0
 73
     0
 72
     1
 10
7096.033482
 20
1914.477815
 11
7096.033482
 21
2594.010795
 72
     2
 10
7193.033482
 20
2594.010795
 40
97.0
 50
180.0
 51
232.681155
 73
     0
 72
     2
 10
7411.283482
 20
2307.712109
 40
457.0
 50
232.681155
 51
268.620756
 73
     0
 72
     1
 10
7400.283482
 20
2764.579705
 11
7400.283482
 21
2767.580568
 72
     2
 10
7411.283482
 20
2307.712109
 40
460.0
 50
91.370247
 51
127.318845
 73
     1
 72
     2
 10
7193.033482
 20
2594.010795
 40
100.0
 50
127.318845
 51
180.0
 73
     1
 72
     1
 10
7093.033482
 20
2594.010795
 11
7093.033482
 21
1914.477815
 72
     2
 10
7193.033482
 20
1914.477815
 40
100.0
 50
180.0
 51
232.802048
 73
     1
 72
     2
 10
7411.283482
 20
2202.032919
 40
461.0
 50
232.802048
 51
260.447945
 73
     1
 72
     1
 10
7334.783482
 20
1747.424571
 11
7334.783482
 21
1734.282919
 72
     1
 10
7334.783482
 20
1734.282919
 11
7310.283482
 21
1734.282919
 97
        0
 75
     0
 76
     0
 52
45.0
 41
16.1
 77
     1
 78
     2
 53
45.0
 43
0.0
 44
0.0
 45
-11.3844191771034
 46
11.3844191771034
 79
     0
 53
135.0
 43
0.0
 44
0.0
 45
-11.38441917710341
 46
-11.3844191771034
 79
     0
 98
        1
 10
0.0
 20
0.0
1001
GENIUS_GENOBJ-N-HTC_13
1002
{
1000
OWNER
1000
GEN
1002
}
1001
GENIUS_GENODEF_13
1002
{
1000
HIER
1070
     0
1002
}
1002
{
1000
MANEDIT
1070
     0
1002
}
1002
{
1000
NOSEL
1070
     0
1002
}
1002
{
1000
BEHIND
1070
     0
1002
}
1002
{
1000
OTHER
1070
     0
1002
}
1002
{
1000
REACTOR
1002
}
1001
GENIUS_GENHATCH_13
1002
{
1000
DATA
1040
45.0
1042
2.3
1000
_U
1070
     1
1011
7335.845745
1021
1739.765669
1031
0.0
1002
}
1002
{
1000
UCS
1010
0.0
1020
0.0
1030
0.0
1010
1.0
1020
0.0
1030
0.0
1010
0.0
1020
1.0
1030
0.0
1002
}
  0
LINE
  5
6A
100
AcDbEntity
  8
AM_0
100
AcDbLine
 10
7041.283482
 20
2259.282919
 30
0.0
 11
7041.283482
 21
1943.043446
 31
0.0
  0
LINE
  5
6B
100
AcDbEntity
  8
AM_0
100
AcDbLine
 10
7043.383482
 20
2259.282919
 30
0.0
 11
7043.383482
 21
1943.043446
 31
0.0
  0
HATCH
  5
6C
100
AcDbEntity
  8
AM_8
100
AcDbHatch
 10
0.0
 20
0.0
 30
0.0
210
0.0
220
0.0
230
1.0
  2
_U
 70
     0
 71
     0
 91
        1
 92
        1
 93
       13
 72
     3
 10
7411.283482
 20
2281.396235
 11
386.151013
 21
386.151013
 40
1.0
 50
189.99059
 51
216.523202
 73
     1
 72
     1
 10
7330.783482
 20
1741.26203
 11
7330.783482
 21
1740.082919
 72
     1
 10
7330.783482
 20
1740.082919
 11
7330.783482
 21
1735.082919
 72
     1
 10
7330.783482
 20
1735.082919
 11
7324.883482
 21
1735.082919
 72
     1
 10
7324.883482
 20
1735.082919
 11
7324.883482
 21
1734.282919
 72
     1
 10
7324.883482
 20
1734.282919
 11
7332.883482
 21
1734.282919
 72
     1
 10
7332.883482
 20
1734.282919
 11
7332.883482
 21
1743.07529
 72
     3
 10
7411.283482
 20
2281.396235
 11
384.666089
 21
384.666089
 40
1.0
 50
143.286187
 51
170.00941
 73
     0
 72
     3
 10
7174.283482
 20
1943.043446
 11
-92.560278
 21
92.560278
 40
1.0
 50
260.00941
 51
315.0
 73
     0
 72
     1
 10
7043.383482
 20
1943.043446
 11
7043.383482
 21
2259.282919
 72
     1
 10
7043.383482
 20
2259.282919
 11
7041.283482
 21
2259.282919
 72
     1
 10
7041.283482
 20
2259.282919
 11
7041.283482
 21
1943.043446
 72
     3
 10
7174.283482
 20
1943.043446
 11
94.045202
 21
94.045202
 40
1.0
 50
135.0
 51
189.99059
 73
     1
 97
        0
 75
     0
 76
     0
 52
-675.0
 41
12.5
 77
     0
 78
     1
 53
45.0
 43
9015.530948
 44
2774.911756
 45
-8.838834764831844
 46
8.838834764831844
 79
     0
 98
        1
 10
10615.433059
 20
-728.911309
1001
GENIUS_GENODEF_13
1002
{
1000
HIER
1070
     0
1002
}
1002
{
1000
MANEDIT
1070
     0
1002
}
1002
{
1000
NOSEL
1070
     0
1002
}
1002
{
1000
BEHIND
1070
     0
1002
}
1002
{
1000
REACTOR
1002
}
1001
GENIUS_GENOBJ-N-HTC_13
1002
{
1000
OWNER
1000
GEN
1002
}
1001
GENIUS_GENHATCH_13
1002
{
1000
DATA
1040
45.0
1042
2.5
1000
_U
1070
     0
1011
8641.751904
1021
-1081.120931
1031
0.0
1002
}
1002
{
1000
UCS
1010
0.0
1020
0.0
1030
0.0
1010
1.0
1020
0.0
1030
0.0
1010
0.0
1020
1.0
1030
0.0
1002
}
  0
LINE
  5
6D
100
AcDbEntity
  8
AM_7
100
AcDbLine
 10
7411.283482
 20
1693.110557
 30
0.0
 11
7411.283482
 21
2825.23774
 31
0.0
1001
GENIUS_GENODEF_13
1002
{
1000
HIER
1070
     0
1002
}
1002
{
1000
MANEDIT
1070
     0
1002
}
1002
{
1000
NOSEL
1070
     0
1002
}
1002
{
1000
BEHIND
1070
     0
1002
}
1002
{
1000
REACTOR
1002
}
1001
GENIUS_GENOBJ-N-CEN_13
1002
{
1000
OWNER
1000
GEN
1002
}
  0
LINE
  5
71
100
AcDbEntity
  8
AM_0
100
AcDbLine
 10
7093.033482
 20
1914.477815
 30
0.0
 11
7093.033482
 21
2594.010795
 31
0.0
  0
LINE
  5
72
100
AcDbEntity
  8
AM_0
100
AcDbLine
 10
7096.033482
 20
1914.477815
 30
0.0
 11
7096.033482
 21
2594.010795
 31
0.0
  0
LINE
  5
73
100
AcDbEntity
  8
AM_0
100
AcDbLine
 10
6499.091545
 20
2259.282919
 30
0.0
 11
6499.091545
 21
1943.043446
 31
0.0
  0
LINE
  5
74
100
AcDbEntity
  8
AM_0
100
AcDbLine
 10
5759.091545
 20
2259.282919
 30
0.0
 11
5759.091545
 21
1943.043446
 31
0.0
  0
LINE
  5
75
100
AcDbEntity
  8
AM_7
100
AcDbLine
 10
6129.091545
 20
2825.23774
 30
0.0
 11
6129.091545
 21
1541.90256
 31
0.0
  0
DIMENSION
  5
76
100
AcDbEntity
  8
AM_5
100
AcDbDimension
  2
*D6
 10
6600.200752
 20
2775.712986
 30
0.0
 11
6600.200752
 21
2208.582592
 31
0.0
 70
   128
  1
<> {}{\C2;%%p5}
  3
AM_DIN
100
AcDbAlignedDimension
 13
6230.091545
 23
1734.282919
 33
0.0
 14
6145.091545
 24
2775.712986
 34
0.0
 50
90.0
100
AcDbRotatedDimension
1001
ACAD
1000
DSTYLE
1002
{
1070
    40
1040
7.0
1070
    47
1040
5.0
1070
    48
1040
5.0
1070
   271
1070
     0
1002
}
1001
GENIUS_GENDREL_13
1005
0
1005
0
1040
0.0
1001
GENIUS_GENDTOL_13
1000
TolPm
1000

1000
{$3%%p$P}
1040
1041.0
  0
DIMENSION
  5
84
100
AcDbEntity
  8
AM_5
100
AcDbDimension
  2
*D7
 10
6678.786455
 20
1556.90256
 30
0.0
 11
6678.786455
 21
2163.640709
 31
0.0
 70
   128
  1
<> {}{\C2;%%p8}
  3
AM_DIN
100
AcDbAlignedDimension
 13
6145.091545
 23
2775.712986
 33
0.0
 14
6405.729293
 24
1556.90256
 34
0.0
 50
90.0
100
AcDbRotatedDimension
1001
ACAD
1000
DSTYLE
1002
{
1070
    40
1040
7.0
1070
    47
1040
8.0
1070
    48
1040
8.0
1070
   271
1070
     0
1002
}
1001
GENIUS_GENDTOL_13
1000
TolPm
1000

1000
{$3%%p$P}
1040
1219.0
  0
LINE
  5
91
100
AcDbEntity
  8
AM_0
100
AcDbLine
 10
4855.477491
 20
2975.0
 30
0.0
 11
4855.477491
 21
105.0
 31
0.0
1001
GENIUS_GENREC_14
1002
{
1000
PYDIR
1011
4855.477491
1021
2975.0
1031
0.0
1002
}
1002
{
1000
PXDIR
1011
8943.477491
1021
105.0
1031
0.0
1002
}
1002
{
1000
PORI
1011
4855.477491
1021
105.0
1031
0.0
1002
}
1002
{
1000
PINS
1011
4855.477491
1021
105.0
1031
0.0
1002
}
1002
{
1000
PINS2
1011
8943.477491
1021
2975.0
1031
0.0
1002
}
1002
{
1000
H
1070
     0
1002
}
1002
{
1000
W
1070
     1
1002
}
1002
{
1000
C
1070
     1
1002
}
1001
GENIUS_GENOBJ-N-REC_13
1002
{
1000
OWNER
1000
GEN
1002
}
1001
GENIUS_GENODEF_13
1002
{
1000
HIER
1070
     0
1002
}
1002
{
1000
MANEDIT
1070
     0
1002
}
1002
{
1000
NOSEL
1070
     0
1002
}
1002
{
1000
BEHIND
1070
     0
1002
}
1002
{
1000
OTHER
1070
     0
1002
}
1002
{
1000
REACTOR
1002
}
  0
ARC
  5
92
100
AcDbEntity
  8
AM_7
  6
AM_DIN_G_W050
100
AcDbCircle
 10
6129.091545
 20
716.390727
 30
0.0
 40
280.0
100
AcDbArc
 50
97.537913
 51
122.462087
  0
ELLIPSE
  5
93
100
AcDbEntity
  8
AM_0
100
AcDbEllipse
 10
5995.089704
 20
973.805869
 30
0.0
 11
-8.20485020689998
 21
-4.271174672421321
 31
0.0
210
0.0
220
0.0
230
1.0
 40
0.732891
 41
0.0
 42
6.283185307179586
  0
LINE
  5
94
100
AcDbEntity
  8
AM_0
100
AcDbLine
 10
5986.884854
 20
969.534694
 30
0.0
 11
5991.597083
 21
960.482586
 31
0.0
  0
LINE
  5
95
100
AcDbEntity
  8
AM_7
  6
AM_DIN_G_W050
100
AcDbLine
 10
6009.85847
 20
945.435333
 30
0.0
 11
5985.033167
 21
993.124296
 31
0.0
1001
GENIUS_GENODEF_13
1002
{
1000
HIER
1070
     0
1002
}
1002
{
1000
MANEDIT
1070
     0
1002
}
1002
{
1000
NOSEL
1070
     0
1002
}
1002
{
1000
BEHIND
1070
     0
1002
}
1002
{
1000
REACTOR
1002
}
1001
GENIUS_GENOBJ-N-CEN_13
1002
{
1000
OWNER
1000
GEN
1002
}
  0
LINE
  5
96
100
AcDbEntity
  8
AM_7
  6
AM_DIN_G_W050
100
AcDbLine
 10
5973.579691
 20
962.608465
 30
0.0
 11
6016.599717
 21
985.003273
 31
0.0
1001
GENIUS_GENODEF_13
1002
{
1000
HIER
1070
     0
1002
}
1002
{
1000
MANEDIT
1070
     0
1002
}
1002
{
1000
NOSEL
1070
     0
1002
}
1002
{
1000
BEHIND
1070
     0
1002
}
1002
{
1000
REACTOR
1002
}
1001
GENIUS_GENOBJ-N-CEN_13
1002
{
1000
OWNER
1000
GEN
1002
}
  0
DIMENSION
  5
97
100
AcDbEntity
  8
AM_5
100
AcDbDimension
  2
*D11
 10
6524.485881
 20
716.390727
 30
0.0
 11
6553.813099
 21
830.194524
 31
0.0
 70
    34
  1
<>  (3x120°)
  3
AM_DIN
100
AcDb2LineAngularDimension
 13
6345.597896
 23
841.390727
 33
0.0
 14
6406.219674
 24
876.390727
 34
0.0
 15
5772.849015
 25
716.390727
 35
0.0
 16
6545.915472
 26
789.888032
 36
0.0
1001
GENIUS_GENDTOL_13
1000

1000
h7
1000

1040
0.0
1000
<>
1001
ACAD
1000
DSTYLE
1002
{
1070
   271
1070
     0
1070
    40
1040
7.0
1002
}
  0
CIRCLE
  5
A6
100
AcDbEntity
  8
AM_7
100
AcDbCircle
 10
6129.091545
 20
716.390727
 30
0.0
 40
285.0
  0
ARC
  5
A7
100
AcDbEntity
  8
AM_0
100
AcDbCircle
 10
6129.091545
 20
2281.396235
 30
0.0
 40
546.1
100
AcDbArc
 50
234.99059
 51
257.576855
  0
LINE
  5
A8
100
AcDbEntity
  8
AM_7
100
AcDbLine
 10
5743.207415
 20
716.390727
 30
0.0
 11
6524.485881
 21
716.390727
 31
0.0
1001
GENIUS_GENODEF_13
1002
{
1000
HIER
1070
     0
1002
}
1002
{
1000
MANEDIT
1070
     0
1002
}
1002
{
1000
NOSEL
1070
     0
1002
}
1002
{
1000
BEHIND
1070
     0
1002
}
1002
{
1000
REACTOR
1002
}
1001
GENIUS_GENOBJ-N-CEN_13
1002
{
1000
OWNER
1000
GEN
1002
}
  0
CIRCLE
  5
A9
100
AcDbEntity
  8
AM_0
100
AcDbCircle
 10
6129.091545
 20
716.390727
 30
0.0
 40
370.0
  0
ELLIPSE
  5
AA
100
AcDbEntity
  8
AM_3
100
AcDbEllipse
 10
5936.972358
 20
716.390727
 30
0.0
 11
0.0
 21
-9.25
 31
0.0
210
0.0
220
0.0
230
1.0
 40
0.790188
 41
3.141592653589793
 42
6.283185307179586
  0
ELLIPSE
  5
AD
100
AcDbEntity
  8
AM_3
100
AcDbEllipse
 10
5944.091545
 20
716.390727
 30
0.0
 11
0.0
 21
-9.25
 31
0.0
210
0.0
220
0.0
230
1.0
 40
0.790188
 41
0.0
 42
6.283185307179586
  0
LINE
  5
AE
100
AcDbEntity
  8
AM_3
100
AcDbLine
 10
5936.972358
 20
707.140727
 30
0.0
 11
5944.091545
 21
707.140727
 31
0.0
  0
LINE
  5
AF
100
AcDbEntity
  8
AM_3
100
AcDbLine
 10
5852.453797
 20
847.240092
 30
0.0
 11
5882.764686
 21
829.740092
 31
0.0
  0
LINE
  5
B0
100
AcDbEntity
  8
AM_3
100
AcDbLine
 10
5884.014686
 20
831.905155
 30
0.0
 11
5853.703797
 21
849.405155
 31
0.0
  0
LINE
  5
B1
100
AcDbEntity
  8
AM_3
100
AcDbLine
 10
5907.42975
 20
867.461235
 30
0.0
 11
5887.42975
 21
832.820219
 31
0.0
  0
LINE
  5
B2
100
AcDbEntity
  8
AM_3
100
AcDbLine
 10
5889.594813
 20
831.570219
 30
0.0
 11
5909.594813
 21
866.211235
 31
0.0
  0
ARC
  5
B3
100
AcDbEntity
  8
AM_3
100
AcDbCircle
 10
5885.264686
 20
834.070219
 30
0.0
 40
5.0
100
AcDbArc
 50
240.0
 51
330.0
1001
GENIUS_GENODEF_13
1002
{
1000
HIER
1070
     0
1002
}
1002
{
1000
MANEDIT
1070
     0
1002
}
1002
{
1000
NOSEL
1070
     0
1002
}
1002
{
1000
BEHIND
1070
     0
1002
}
1002
{
1000
REACTOR
1002
}
1001
GENIUS_GENOBJ-N-FIL_13
1002
{
1000
OWNER
1000
GEN
1002
}
  0
ARC
  5
B5
100
AcDbEntity
  8
AM_3
100
AcDbCircle
 10
5885.264686
 20
834.070219
 30
0.0
 40
2.5
100
AcDbArc
 50
240.0
 51
330.0
1001
GENIUS_GENODEF_13
1002
{
1000
HIER
1070
     0
1002
}
1002
{
1000
MANEDIT
1070
     0
1002
}
1002
{
1000
NOSEL
1070
     0
1002
}
1002
{
1000
BEHIND
1070
     0
1002
}
1002
{
1000
REACTOR
1002
}
1001
GENIUS_GENOBJ-N-FIL_13
1002
{
1000
OWNER
1000
GEN
1002
}
  0
LINE
  5
B6
100
AcDbEntity
  8
AM_3
100
AcDbLine
 10
5887.42975
 20
832.820219
 30
0.0
 11
5885.264686
 21
834.070219
 31
0.0
  0
LINE
  5
B7
100
AcDbEntity
  8
AM_3
100
AcDbLine
 10
5885.264686
 20
834.070219
 30
0.0
 11
5884.014686
 21
831.905155
 31
0.0
  0
LINE
  5
B8
100
AcDbEntity
  8
AM_3
100
AcDbLine
 10
5936.972358
 20
725.640727
 30
0.0
 11
5944.091545
 21
725.640727
 31
0.0
  0
LINE
  5
B9
100
AcDbEntity
  8
AM_3
100
AcDbLine
 10
5876.203797
 20
888.376299
 30
0.0
 11
5906.514686
 21
870.876299
 31
0.0
  0
LINE
  5
BA
100
AcDbEntity
  8
AM_3
100
AcDbLine
 10
5907.764686
 20
873.041362
 30
0.0
 11
5877.453797
 21
890.541362
 31
0.0
  0
LINE
  5
BB
100
AcDbEntity
  8
AM_7
100
AcDbLine
 10
5912.585194
 20
841.390727
 30
0.0
 11
5851.963416
 21
876.390727
 31
0.0
1001
GENIUS_GENODEF_13
1002
{
1000
HIER
1070
     0
1002
}
1002
{
1000
MANEDIT
1070
     0
1002
}
1002
{
1000
NOSEL
1070
     0
1002
}
1002
{
1000
BEHIND
1070
     0
1002
}
1002
{
1000
REACTOR
1002
}
1001
GENIUS_GENOBJ-N-CEN_13
1002
{
1000
OWNER
1000
GEN
1002
}
  0
LINE
  5
BC
100
AcDbEntity
  8
AM_3
100
AcDbLine
 10
5877.453797
 20
890.541362
 30
0.0
 11
5852.453797
 21
847.240092
 31
0.0
  0
CIRCLE
  5
BD
100
AcDbEntity
  8
AM_3
100
AcDbCircle
 10
5882.274305
 20
858.890727
 30
0.0
 40
6.5
  0
ARC
  5
BE
100
AcDbEntity
  8
AM_3
100
AcDbCircle
 10
5905.264686
 20
868.711235
 30
0.0
 40
2.5
100
AcDbArc
 50
330.0
 51
60.0
1001
GENIUS_GENODEF_13
1002
{
1000
HIER
1070
     0
1002
}
1002
{
1000
MANEDIT
1070
     0
1002
}
1002
{
1000
NOSEL
1070
     0
1002
}
1002
{
1000
BEHIND
1070
     0
1002
}
1002
{
1000
REACTOR
1002
}
1001
GENIUS_GENOBJ-N-FIL_13
1002
{
1000
OWNER
1000
GEN
1002
}
  0
ARC
  5
BF
100
AcDbEntity
  8
AM_3
100
AcDbCircle
 10
5905.264686
 20
868.711235
 30
0.0
 40
5.0
100
AcDbArc
 50
330.0
 51
60.0
1001
GENIUS_GENODEF_13
1002
{
1000
HIER
1070
     0
1002
}
1002
{
1000
MANEDIT
1070
     0
1002
}
1002
{
1000
NOSEL
1070
     0
1002
}
1002
{
1000
BEHIND
1070
     0
1002
}
1002
{
1000
REACTOR
1002
}
1001
GENIUS_GENOBJ-N-FIL_13
1002
{
1000
OWNER
1000
GEN
1002
}
  0
LINE
  5
C0
100
AcDbEntity
  8
AM_3
100
AcDbLine
 10
5905.264686
 20
868.711235
 30
0.0
 11
5907.42975
 21
867.461235
 31
0.0
  0
LINE
  5
C1
100
AcDbEntity
  8
AM_3
100
AcDbLine
 10
5906.514686
 20
870.876299
 30
0.0
 11
5905.264686
 21
868.711235
 31
0.0
  0
LINE
  5
C2
100
AcDbEntity
  8
AM_0
100
AcDbLine
 10
5910.264686
 20
1561.90256
 30
0.0
 11
5910.264686
 21
1781.056335
 31
0.0
  0
LINE
  5
C3
100
AcDbEntity
  8
AM_4
100
AcDbLine
 10
5887.094813
 20
1566.577275
 30
0.0
 11
5887.094813
 21
1791.842569
 31
0.0
  0
LINE
  5
C5
100
AcDbEntity
  8
AM_0
100
AcDbLine
 10
5852.453797
 20
1810.549374
 30
0.0
 11
5852.453797
 21
1556.90256
 31
0.0
  0
LINE
  5
C6
100
AcDbEntity
  8
AM_0
100
AcDbLine
 10
5852.453797
 20
1556.90256
 30
0.0
 11
5909.594813
 21
1556.90256
 31
0.0
  0
LINE
  5
C7
100
AcDbEntity
  8
AM_0
100
AcDbLine
 10
5882.764686
 20
1559.40256
 30
0.0
 11
5889.594813
 21
1559.40256
 31
0.0
  0
LINE
  5
C8
100
AcDbEntity
  8
AM_0
100
AcDbLine
 10
5882.764686
 20
1561.90256
 30
0.0
 11
5889.594813
 21
1561.90256
 31
0.0
  0
LINE
  5
C9
100
AcDbEntity
  8
AM_7
100
AcDbLine
 10
5882.274305
 20
1541.90256
 30
0.0
 11
5882.274305
 21
1574.060297
 31
0.0
1001
GENIUS_GENODEF_13
1002
{
1000
HIER
1070
     0
1002
}
1002
{
1000
MANEDIT
1070
     0
1002
}
1002
{
1000
NOSEL
1070
     0
1002
}
1002
{
1000
BEHIND
1070
     0
1002
}
1002
{
1000
REACTOR
1002
}
1001
GENIUS_GENOBJ-N-CEN_13
1002
{
1000
OWNER
1000
GEN
1002
}
  0
LINE
  5
CA
100
AcDbEntity
  8
AM_0
100
AcDbLine
 10
5882.764686
 20
1556.90256
 30
0.0
 11
5882.764686
 21
1561.90256
 31
0.0
  0
LINE
  5
CB
100
AcDbEntity
  8
AM_0
100
AcDbLine
 10
5889.594813
 20
1561.90256
 30
0.0
 11
5889.594813
 21
1556.90256
 31
0.0
  0
LINE
  5
CC
100
AcDbEntity
  8
AM_0
100
AcDbLine
 10
5909.594813
 20
1561.90256
 30
0.0
 11
5910.264686
 21
1561.90256
 31
0.0
  0
LINE
  5
CD
100
AcDbEntity
  8
AM_0
100
AcDbLine
 10
5909.594813
 20
1556.90256
 30
0.0
 11
5909.594813
 21
1561.90256
 31
0.0
  0
ARC
  5
CE
100
AcDbEntity
  8
AM_0
100
AcDbCircle
 10
5892.091545
 20
1943.043446
 30
0.0
 40
133.0
100
AcDbArc
 50
180.0
 51
234.99059
1001
GENIUS_GENODEF_13
1002
{
1000
HIER
1070
     0
1002
}
1002
{
1000
MANEDIT
1070
     0
1002
}
1002
{
1000
NOSEL
1070
     0
1002
}
1002
{
1000
BEHIND
1070
     0
1002
}
1002
{
1000
REACTOR
1002
}
1001
GENIUS_GENOBJ-N-FIL_13
1002
{
1000
OWNER
1000
GEN
1002
}
  0
LINE
  5
CF
100
AcDbEntity
  8
AM_0
100
AcDbLine
 10
5947.713113
 20
1750.340083
 30
0.0
 11
5930.307004
 21
1756.60725
 31
0.0
1001
GENIUS_GENOREF_13
1005
5B2
  0
LINE
  5
D1
100
AcDbEntity
  8
AM_0
100
AcDbLine
 10
5930.307004
 20
1756.60725
 30
0.0
 11
5935.388491
 21
1770.720311
 31
0.0
  0
LINE
  5
D2
100
AcDbEntity
  8
AM_7
100
AcDbLine
 10
5944.769077
 20
1769.468469
 30
0.0
 11
5937.993761
 21
1750.651054
 31
0.0
  0
LINE
  5
D3
100
AcDbEntity
  8
AM_0
100
AcDbLine
 10
5952.794599
 20
1764.453144
 30
0.0
 11
5947.713113
 21
1750.340083
 31
0.0
  0
ELLIPSE
  5
D4
100
AcDbEntity
  8
AM_0
100
AcDbEllipse
 10
5999.801933
 20
964.75376
 30
0.0
 11
-8.20485020689998
 21
-4.271174672421321
 31
0.0
210
0.0
220
0.0
230
1.0
 40
0.732891
 41
0.0
 42
3.141592653589793
  0
LINE
  5
D5
100
AcDbEntity
  8
AM_7
100
AcDbLine
 10
6129.091545
 20
1103.573147
 30
0.0
 11
6129.091545
 21
327.445785
 31
0.0
1001
GENIUS_GENODEF_13
1002
{
1000
HIER
1070
     0
1002
}
1002
{
1000
MANEDIT
1070
     0
1002
}
1002
{
1000
NOSEL
1070
     0
1002
}
1002
{
1000
BEHIND
1070
     0
1002
}
1002
{
1000
REACTOR
1002
}
1001
GENIUS_GENOBJ-N-CEN_13
1002
{
1000
OWNER
1000
GEN
1002
}
  0
CIRCLE
  5
D6
100
AcDbEntity
  8
AM_3
100
AcDbCircle
 10
6129.091545
 20
431.390727
 30
0.0
 40
6.5
  0
LINE
  5
D7
100
AcDbEntity
  8
AM_3
100
AcDbLine
 10
6109.091545
 20
448.890727
 30
0.0
 11
6149.091545
 21
448.890727
 31
0.0
  0
LINE
  5
D8
100
AcDbEntity
  8
AM_3
100
AcDbLine
 10
6149.091545
 20
451.390727
 30
0.0
 11
6109.091545
 21
451.390727
 31
0.0
  0
ARC
  5
D9
100
AcDbEntity
  8
AM_3
100
AcDbCircle
 10
6109.091545
 20
446.390727
 30
0.0
 40
2.5
100
AcDbArc
 50
90.0
 51
180.0
1001
GENIUS_GENODEF_13
1002
{
1000
HIER
1070
     0
1002
}
1002
{
1000
MANEDIT
1070
     0
1002
}
1002
{
1000
NOSEL
1070
     0
1002
}
1002
{
1000
BEHIND
1070
     0
1002
}
1002
{
1000
REACTOR
1002
}
1001
GENIUS_GENOBJ-N-FIL_13
1002
{
1000
OWNER
1000
GEN
1002
}
  0
ARC
  5
DA
100
AcDbEntity
  8
AM_3
100
AcDbCircle
 10
6109.091545
 20
446.390727
 30
0.0
 40
5.0
100
AcDbArc
 50
90.0
 51
180.0
1001
GENIUS_GENODEF_13
1002
{
1000
HIER
1070
     0
1002
}
1002
{
1000
MANEDIT
1070
     0
1002
}
1002
{
1000
NOSEL
1070
     0
1002
}
1002
{
1000
BEHIND
1070
     0
1002
}
1002
{
1000
REACTOR
1002
}
1001
GENIUS_GENOBJ-N-FIL_13
1002
{
1000
OWNER
1000
GEN
1002
}
  0
LINE
  5
DB
100
AcDbEntity
  8
AM_3
100
AcDbLine
 10
6109.091545
 20
446.390727
 30
0.0
 11
6109.091545
 21
448.890727
 31
0.0
  0
LINE
  5
DC
100
AcDbEntity
  8
AM_3
100
AcDbLine
 10
6106.591545
 20
446.390727
 30
0.0
 11
6109.091545
 21
446.390727
 31
0.0
  0
ARC
  5
DD
100
AcDbEntity
  8
AM_3
100
AcDbCircle
 10
6149.091545
 20
446.390727
 30
0.0
 40
2.5
100
AcDbArc
 50
0.0
 51
90.0
1001
GENIUS_GENODEF_13
1002
{
1000
HIER
1070
     0
1002
}
1002
{
1000
MANEDIT
1070
     0
1002
}
1002
{
1000
NOSEL
1070
     0
1002
}
1002
{
1000
BEHIND
1070
     0
1002
}
1002
{
1000
REACTOR
1002
}
1001
GENIUS_GENOBJ-N-FIL_13
1002
{
1000
OWNER
1000
GEN
1002
}
  0
ARC
  5
DE
100
AcDbEntity
  8
AM_3
100
AcDbCircle
 10
6149.091545
 20
446.390727
 30
0.0
 40
5.0
100
AcDbArc
 50
0.0
 51
90.0
1001
GENIUS_GENODEF_13
1002
{
1000
HIER
1070
     0
1002
}
1002
{
1000
MANEDIT
1070
     0
1002
}
1002
{
1000
NOSEL
1070
     0
1002
}
1002
{
1000
BEHIND
1070
     0
1002
}
1002
{
1000
REACTOR
1002
}
1001
GENIUS_GENOBJ-N-FIL_13
1002
{
1000
OWNER
1000
GEN
1002
}
  0
LINE
  5
DF
100
AcDbEntity
  8
AM_3
100
AcDbLine
 10
6149.091545
 20
448.890727
 30
0.0
 11
6149.091545
 21
446.390727
 31
0.0
  0
LINE
  5
E0
100
AcDbEntity
  8
AM_3
100
AcDbLine
 10
6149.091545
 20
446.390727
 30
0.0
 11
6151.591545
 21
446.390727
 31
0.0
  0
LINE
  5
E1
100
AcDbEntity
  8
AM_3
100
AcDbLine
 10
6104.091545
 20
411.390727
 30
0.0
 11
6154.091545
 21
411.390727
 31
0.0
  0
LINE
  5
E2
100
AcDbEntity
  8
AM_3
100
AcDbLine
 10
6106.591545
 20
411.390727
 30
0.0
 11
6106.591545
 21
446.390727
 31
0.0
  0
LINE
  5
E3
100
AcDbEntity
  8
AM_3
100
AcDbLine
 10
6104.091545
 20
446.390727
 30
0.0
 11
6104.091545
 21
411.390727
 31
0.0
  0
LINE
  5
E4
100
AcDbEntity
  8
AM_3
100
AcDbLine
 10
6151.591545
 20
446.390727
 30
0.0
 11
6151.591545
 21
411.390727
 31
0.0
  0
LINE
  5
E5
100
AcDbEntity
  8
AM_3
100
AcDbLine
 10
6154.091545
 20
411.390727
 30
0.0
 11
6154.091545
 21
446.390727
 31
0.0
  0
LINE
  5
E6
100
AcDbEntity
  8
AM_3
100
AcDbLine
 10
6351.668404
 20
870.876299
 30
0.0
 11
6381.979293
 21
888.376299
 31
0.0
  0
LINE
  5
E7
100
AcDbEntity
  8
AM_3
100
AcDbLine
 10
6380.729293
 20
890.541362
 30
0.0
 11
6350.418404
 21
873.041362
 31
0.0
  0
LINE
  5
E8
100
AcDbEntity
  8
AM_3
100
AcDbLine
 10
6370.753341
 20
832.820219
 30
0.0
 11
6350.753341
 21
867.461235
 31
0.0
  0
LINE
  5
E9
100
AcDbEntity
  8
AM_3
100
AcDbLine
 10
6348.588277
 20
866.211235
 30
0.0
 11
6368.588277
 21
831.570219
 31
0.0
  0
LINE
  5
EA
100
AcDbEntity
  8
AM_7
100
AcDbLine
 10
6345.597896
 20
841.390727
 30
0.0
 11
6406.219674
 21
876.390727
 31
0.0
1001
GENIUS_GENODEF_13
1002
{
1000
HIER
1070
     0
1002
}
1002
{
1000
MANEDIT
1070
     0
1002
}
1002
{
1000
NOSEL
1070
     0
1002
}
1002
{
1000
BEHIND
1070
     0
1002
}
1002
{
1000
REACTOR
1002
}
1001
GENIUS_GENOBJ-N-CEN_13
1002
{
1000
OWNER
1000
GEN
1002
}
  0
LINE
  5
EB
100
AcDbEntity
  8
AM_0N
100
AcDbLine
 10
6141.091545
 20
709.462524
 30
0.0
 11
6141.091545
 21
723.31893
 31
0.0
  0
CIRCLE
  5
ED
100
AcDbEntity
  8
AM_3
100
AcDbCircle
 10
6137.591545
 20
716.390727
 30
0.0
 40
5.0
  0
LINE
  5
EE
100
AcDbEntity
  8
AM_0N
100
AcDbLine
 10
6117.091545
 20
723.31893
 30
0.0
 11
6117.091545
 21
709.462524
 31
0.0
  0
CIRCLE
  5
EF
100
AcDbEntity
  8
AM_0N
100
AcDbCircle
 10
6129.091545
 20
716.390727
 30
0.0
 40
12.0
  0
CIRCLE
  5
F0
100
AcDbEntity
  8
AM_0N
100
AcDbCircle
 10
6129.091545
 20
716.390727
 30
0.0
 40
8.0
  0
ARC
  5
F1
100
AcDbEntity
  8
AM_4N
100
AcDbCircle
 10
6129.091545
 20
716.390727
 30
0.0
 40
6.917468
100
AcDbArc
 50
260.0
 51
170.0
  0
CIRCLE
  5
F3
100
AcDbEntity
  8
AM_3
100
AcDbCircle
 10
6129.091545
 20
716.390727
 30
0.0
 40
16.2
  0
CIRCLE
  5
F4
100
AcDbEntity
  8
AM_3
100
AcDbCircle
 10
6120.591545
 20
716.390727
 30
0.0
 40
5.0
  0
CIRCLE
  5
F5
100
AcDbEntity
  8
AM_3
100
AcDbCircle
 10
6129.091545
 20
707.890727
 30
0.0
 40
5.0
  0
CIRCLE
  5
F6
100
AcDbEntity
  8
AM_3
100
AcDbCircle
 10
6129.091545
 20
716.390727
 30
0.0
 40
11.75
  0
CIRCLE
  5
F7
100
AcDbEntity
  8
AM_7
100
AcDbCircle
 10
6129.091545
 20
716.390727
 30
0.0
 40
110.0
  0
CIRCLE
  5
F8
100
AcDbEntity
  8
AM_3
100
AcDbCircle
 10
6129.091545
 20
716.390727
 30
0.0
 40
130.0
  0
LINE
  5
F9
100
AcDbEntity
  8
AM_7
100
AcDbLine
 10
6166.594522
 20
625.850533
 30
0.0
 11
6175.778924
 21
603.677424
 31
0.0
1001
GENIUS_GENODEF_13
1002
{
1000
HIER
1070
     0
1002
}
1002
{
1000
MANEDIT
1070
     0
1002
}
1002
{
1000
NOSEL
1070
     0
1002
}
1002
{
1000
BEHIND
1070
     0
1002
}
1002
{
1000
REACTOR
1002
}
1001
GENIUS_GENOBJ-N-CEN_13
1002
{
1000
OWNER
1000
GEN
1002
}
  0
CIRCLE
  5
FA
100
AcDbEntity
  8
AM_3
100
AcDbCircle
 10
6171.186723
 20
614.763978
 30
0.0
 40
6.0
  0
LINE
  5
FB
100
AcDbEntity
  8
AM_7
100
AcDbLine
 10
6038.551351
 20
678.887751
 30
0.0
 11
6016.378242
 21
669.703348
 31
0.0
1001
GENIUS_GENODEF_13
1002
{
1000
HIER
1070
     0
1002
}
1002
{
1000
MANEDIT
1070
     0
1002
}
1002
{
1000
NOSEL
1070
     0
1002
}
1002
{
1000
BEHIND
1070
     0
1002
}
1002
{
1000
REACTOR
1002
}
1001
GENIUS_GENOBJ-N-CEN_13
1002
{
1000
OWNER
1000
GEN
1002
}
  0
CIRCLE
  5
FC
100
AcDbEntity
  8
AM_3
100
AcDbCircle
 10
6027.464797
 20
674.295549
 30
0.0
 40
6.0
  0
LINE
  5
FD
100
AcDbEntity
  8
AM_0N
100
AcDbLine
 10
6129.091545
 20
702.534321
 30
0.0
 11
6141.091545
 21
709.462524
 31
0.0
  0
LINE
  5
FE
100
AcDbEntity
  8
AM_0N
100
AcDbLine
 10
6117.091545
 20
709.462524
 30
0.0
 11
6129.091545
 21
702.534321
 31
0.0
  0
LINE
  5
FF
100
AcDbEntity
  8
AM_7
100
AcDbLine
 10
6091.588569
 20
625.850533
 30
0.0
 11
6082.404166
 21
603.677424
 31
0.0
1001
GENIUS_GENODEF_13
1002
{
1000
HIER
1070
     0
1002
}
1002
{
1000
MANEDIT
1070
     0
1002
}
1002
{
1000
NOSEL
1070
     0
1002
}
1002
{
1000
BEHIND
1070
     0
1002
}
1002
{
1000
REACTOR
1002
}
1001
GENIUS_GENOBJ-N-CEN_13
1002
{
1000
OWNER
1000
GEN
1002
}
  0
CIRCLE
  5
100
100
AcDbEntity
  8
AM_3
100
AcDbCircle
 10
6086.996368
 20
614.763978
 30
0.0
 40
6.0
  0
LINE
  5
101
100
AcDbEntity
  8
AM_7
100
AcDbLine
 10
6219.631739
 20
678.887751
 30
0.0
 11
6241.804848
 21
669.703348
 31
0.0
1001
GENIUS_GENODEF_13
1002
{
1000
HIER
1070
     0
1002
}
1002
{
1000
MANEDIT
1070
     0
1002
}
1002
{
1000
NOSEL
1070
     0
1002
}
1002
{
1000
BEHIND
1070
     0
1002
}
1002
{
1000
REACTOR
1002
}
1001
GENIUS_GENOBJ-N-CEN_13
1002
{
1000
OWNER
1000
GEN
1002
}
  0
CIRCLE
  5
102
100
AcDbEntity
  8
AM_3
100
AcDbCircle
 10
6230.718294
 20
674.295549
 30
0.0
 40
6.0
  0
CIRCLE
  5
103
100
AcDbEntity
  8
AM_3
100
AcDbCircle
 10
6171.186723
 20
818.017476
 30
0.0
 40
6.0
  0
LINE
  5
104
100
AcDbEntity
  8
AM_7
100
AcDbLine
 10
6166.594522
 20
806.930921
 30
0.0
 11
6175.778924
 21
829.10403
 31
0.0
1001
GENIUS_GENODEF_13
1002
{
1000
HIER
1070
     0
1002
}
1002
{
1000
MANEDIT
1070
     0
1002
}
1002
{
1000
NOSEL
1070
     0
1002
}
1002
{
1000
BEHIND
1070
     0
1002
}
1002
{
1000
REACTOR
1002
}
1001
GENIUS_GENOBJ-N-CEN_13
1002
{
1000
OWNER
1000
GEN
1002
}
  0
LINE
  5
105
100
AcDbEntity
  8
AM_7
100
AcDbLine
 10
6038.551351
 20
753.893703
 30
0.0
 11
6016.378242
 21
763.078106
 31
0.0
1001
GENIUS_GENODEF_13
1002
{
1000
HIER
1070
     0
1002
}
1002
{
1000
MANEDIT
1070
     0
1002
}
1002
{
1000
NOSEL
1070
     0
1002
}
1002
{
1000
BEHIND
1070
     0
1002
}
1002
{
1000
REACTOR
1002
}
1001
GENIUS_GENOBJ-N-CEN_13
1002
{
1000
OWNER
1000
GEN
1002
}
  0
CIRCLE
  5
106
100
AcDbEntity
  8
AM_3
100
AcDbCircle
 10
6027.464797
 20
758.485905
 30
0.0
 40
6.0
  0
CIRCLE
  5
107
100
AcDbEntity
  8
AM_3
100
AcDbCircle
 10
6086.996368
 20
818.017476
 30
0.0
 40
6.0
  0
LINE
  5
108
100
AcDbEntity
  8
AM_0N
100
AcDbLine
 10
6141.091545
 20
723.31893
 30
0.0
 11
6129.091545
 21
730.247134
 31
0.0
  0
LINE
  5
109
100
AcDbEntity
  8
AM_0N
100
AcDbLine
 10
6129.091545
 20
730.247134
 30
0.0
 11
6117.091545
 21
723.31893
 31
0.0
  0
CIRCLE
  5
10A
100
AcDbEntity
  8
AM_3
100
AcDbCircle
 10
6129.091545
 20
724.890727
 30
0.0
 40
5.0
  0
LINE
  5
10B
100
AcDbEntity
  8
AM_7
100
AcDbLine
 10
6091.588569
 20
806.930921
 30
0.0
 11
6082.404166
 21
829.10403
 31
0.0
1001
GENIUS_GENODEF_13
1002
{
1000
HIER
1070
     0
1002
}
1002
{
1000
MANEDIT
1070
     0
1002
}
1002
{
1000
NOSEL
1070
     0
1002
}
1002
{
1000
BEHIND
1070
     0
1002
}
1002
{
1000
REACTOR
1002
}
1001
GENIUS_GENOBJ-N-CEN_13
1002
{
1000
OWNER
1000
GEN
1002
}
  0
LINE
  5
10C
100
AcDbEntity
  8
AM_7
100
AcDbLine
 10
6145.422545
 20
941.390727
 30
0.0
 11
6112.760545
 21
941.390727
 31
0.0
  0
CIRCLE
  5
10D
100
AcDbEntity
  8
AM_0
100
AcDbCircle
 10
6129.091545
 20
941.390727
 30
0.0
 40
7.474885
  0
ARC
  5
10E
100
AcDbEntity
  8
AM_4
100
AcDbCircle
 10
6129.091545
 20
941.390727
 30
0.0
 40
8.331
100
AcDbArc
 50
10.0
 51
300.0
  0
CIRCLE
  5
10F
100
AcDbEntity
  8
AM_0
100
AcDbCircle
 10
6129.091545
 20
941.390727
 30
0.0
 40
10.65
  0
LINE
  5
110
100
AcDbEntity
  8
AM_7
100
AcDbLine
 10
6219.631739
 20
753.893703
 30
0.0
 11
6241.804848
 21
763.078106
 31
0.0
1001
GENIUS_GENODEF_13
1002
{
1000
HIER
1070
     0
1002
}
1002
{
1000
MANEDIT
1070
     0
1002
}
1002
{
1000
NOSEL
1070
     0
1002
}
1002
{
1000
BEHIND
1070
     0
1002
}
1002
{
1000
REACTOR
1002
}
1001
GENIUS_GENOBJ-N-CEN_13
1002
{
1000
OWNER
1000
GEN
1002
}
  0
CIRCLE
  5
111
100
AcDbEntity
  8
AM_3
100
AcDbCircle
 10
6230.718294
 20
758.485905
 30
0.0
 40
6.0
  0
ARC
  5
112
100
AcDbEntity
  8
AM_3
100
AcDbCircle
 10
6352.918404
 20
868.711235
 30
0.0
 40
2.5
100
AcDbArc
 50
120.0
 51
210.0
1001
GENIUS_GENODEF_13
1002
{
1000
HIER
1070
     0
1002
}
1002
{
1000
MANEDIT
1070
     0
1002
}
1002
{
1000
NOSEL
1070
     0
1002
}
1002
{
1000
BEHIND
1070
     0
1002
}
1002
{
1000
REACTOR
1002
}
1001
GENIUS_GENOBJ-N-FIL_13
1002
{
1000
OWNER
1000
GEN
1002
}
  0
ARC
  5
113
100
AcDbEntity
  8
AM_3
100
AcDbCircle
 10
6352.918404
 20
868.711235
 30
0.0
 40
5.0
100
AcDbArc
 50
120.0
 51
210.0
1001
GENIUS_GENODEF_13
1002
{
1000
HIER
1070
     0
1002
}
1002
{
1000
MANEDIT
1070
     0
1002
}
1002
{
1000
NOSEL
1070
     0
1002
}
1002
{
1000
BEHIND
1070
     0
1002
}
1002
{
1000
REACTOR
1002
}
1001
GENIUS_GENOBJ-N-FIL_13
1002
{
1000
OWNER
1000
GEN
1002
}
  0
LINE
  5
114
100
AcDbEntity
  8
AM_3
100
AcDbLine
 10
6350.753341
 20
867.461235
 30
0.0
 11
6352.918404
 21
868.711235
 31
0.0
  0
LINE
  5
115
100
AcDbEntity
  8
AM_3
100
AcDbLine
 10
6352.918404
 20
868.711235
 30
0.0
 11
6351.668404
 21
870.876299
 31
0.0
  0
LINE
  5
116
100
AcDbEntity
  8
AM_3
100
AcDbLine
 10
6375.418404
 20
829.740092
 30
0.0
 11
6405.729293
 21
847.240092
 31
0.0
  0
LINE
  5
117
100
AcDbEntity
  8
AM_3
100
AcDbLine
 10
6404.479293
 20
849.405155
 30
0.0
 11
6374.168404
 21
831.905155
 31
0.0
  0
ARC
  5
118
100
AcDbEntity
  8
AM_3
100
AcDbCircle
 10
6372.918404
 20
834.070219
 30
0.0
 40
5.0
100
AcDbArc
 50
210.0
 51
300.0
1001
GENIUS_GENODEF_13
1002
{
1000
HIER
1070
     0
1002
}
1002
{
1000
MANEDIT
1070
     0
1002
}
1002
{
1000
NOSEL
1070
     0
1002
}
1002
{
1000
BEHIND
1070
     0
1002
}
1002
{
1000
REACTOR
1002
}
1001
GENIUS_GENOBJ-N-FIL_13
1002
{
1000
OWNER
1000
GEN
1002
}
  0
ARC
  5
119
100
AcDbEntity
  8
AM_3
100
AcDbCircle
 10
6372.918404
 20
834.070219
 30
0.0
 40
2.5
100
AcDbArc
 50
210.0
 51
300.0
1001
GENIUS_GENODEF_13
1002
{
1000
HIER
1070
     0
1002
}
1002
{
1000
MANEDIT
1070
     0
1002
}
1002
{
1000
NOSEL
1070
     0
1002
}
1002
{
1000
BEHIND
1070
     0
1002
}
1002
{
1000
REACTOR
1002
}
1001
GENIUS_GENOBJ-N-FIL_13
1002
{
1000
OWNER
1000
GEN
1002
}
  0
LINE
  5
11A
100
AcDbEntity
  8
AM_3
100
AcDbLine
 10
6372.918404
 20
834.070219
 30
0.0
 11
6370.753341
 21
832.820219
 31
0.0
  0
LINE
  5
11B
100
AcDbEntity
  8
AM_3
100
AcDbLine
 10
6374.168404
 20
831.905155
 30
0.0
 11
6372.918404
 21
834.070219
 31
0.0
  0
CIRCLE
  5
11C
100
AcDbEntity
  8
AM_3
100
AcDbCircle
 10
6375.908785
 20
858.890727
 30
0.0
 40
6.5
  0
LINE
  5
11D
100
AcDbEntity
  8
AM_3
100
AcDbLine
 10
6405.729293
 20
847.240092
 30
0.0
 11
6380.729293
 21
890.541362
 31
0.0
  0
LINE
  5
11E
100
AcDbEntity
  8
AM_7
  6
AM_DIN_G_W050
100
AcDbLine
 10
6042.604469
 20
994.468228
 30
0.0
 11
6089.954825
 21
1004.96555
 31
0.0
1001
GENIUS_GENODEF_13
1002
{
1000
HIER
1070
     0
1002
}
1002
{
1000
MANEDIT
1070
     0
1002
}
1002
{
1000
NOSEL
1070
     0
1002
}
1002
{
1000
BEHIND
1070
     0
1002
}
1002
{
1000
REACTOR
1002
}
1001
GENIUS_GENOBJ-N-CEN_13
1002
{
1000
OWNER
1000
GEN
1002
}
  0
ELLIPSE
  5
11F
100
AcDbEntity
  8
AM_0
100
AcDbEllipse
 10
6066.279647
 20
999.716889
 30
0.0
 11
-5.589294640761516
 21
-1.239116789796194
 31
0.0
210
0.0
220
0.0
230
0.9999999999999998
 40
0.732891
 41
0.0
 42
6.283185307179586
  0
LINE
  5
120
100
AcDbEntity
  8
AM_7
  6
AM_DIN_G_W050
100
AcDbLine
 10
6073.202345
 20
968.490618
 30
0.0
 11
6061.565756
 21
1020.97988
 31
0.0
1001
GENIUS_GENODEF_13
1002
{
1000
HIER
1070
     0
1002
}
1002
{
1000
MANEDIT
1070
     0
1002
}
1002
{
1000
NOSEL
1070
     0
1002
}
1002
{
1000
BEHIND
1070
     0
1002
}
1002
{
1000
REACTOR
1002
}
1001
GENIUS_GENOBJ-N-CEN_13
1002
{
1000
OWNER
1000
GEN
1002
}
  0
LINE
  5
121
100
AcDbEntity
  8
AM_0
100
AcDbLine
 10
6077.519191
 20
991.755675
 30
0.0
 11
6075.310385
 21
1001.718955
 31
0.0
  0
LINE
  5
122
100
AcDbEntity
  8
AM_0
100
AcDbLine
 10
6008.006784
 20
969.024935
 30
0.0
 11
6003.294554
 21
978.077043
 31
0.0
  0
ELLIPSE
  5
123
100
AcDbEntity
  8
AM_0
100
AcDbEllipse
 10
5995.089704
 20
973.805869
 30
0.0
 11
-5.836531282313698
 21
-3.038305875084564
 31
0.0
210
0.0
220
0.0
230
1.0
 40
0.732891
 41
0.0
 42
6.283185307179586
  0
ELLIPSE
  5
124
100
AcDbEntity
  8
AM_0
100
AcDbEllipse
 10
5995.089704
 20
973.805869
 30
0.0
 11
-5.07813701994622
 21
-2.643510810768882
 31
0.0
210
0.0
220
0.0
230
1.0
 40
0.732891
 41
0.0
 42
6.283185307179586
  0
LINE
  5
125
100
AcDbEntity
  8
AM_0
100
AcDbLine
 10
6057.248909
 20
997.714823
 30
0.0
 11
6059.457715
 21
987.751543
 31
0.0
  0
ELLIPSE
  5
126
100
AcDbEntity
  8
AM_0
100
AcDbEllipse
 10
6068.488453
 20
989.753609
 30
0.0
 11
-9.030738065859186
 21
-2.002066428928341
 31
0.0
210
0.0
220
0.0
230
1.0
 40
0.732891
 41
0.0
 42
3.141592653589793
  0
ELLIPSE
  5
127
100
AcDbEntity
  8
AM_0
100
AcDbEllipse
 10
6066.279647
 20
999.716889
 30
0.0
 11
-9.030738065859186
 21
-2.002066428928341
 31
0.0
210
0.0
220
0.0
230
1.0
 40
0.732891
 41
0.0
 42
6.283185307179586
  0
ELLIPSE
  5
128
100
AcDbEntity
  8
AM_0
100
AcDbEllipse
 10
6066.279647
 20
999.716889
 30
0.0
 11
-6.424027726849003
 21
-1.424172659713346
 31
0.0
210
0.0
220
0.0
230
1.0
 40
0.732891
 41
0.0
 42
6.283185307179586
  0
LINE
  5
129
100
AcDbEntity
  8
AM_0
100
AcDbLine
 10
6405.729293
 20
1556.90256
 30
0.0
 11
6348.588277
 21
1556.90256
 31
0.0
  0
ARC
  5
12A
100
AcDbEntity
  8
AM_0
100
AcDbCircle
 10
6129.091545
 20
2281.396235
 30
0.0
 40
546.1
100
AcDbArc
 50
282.423145
 51
305.00941
  0
LINE
  5
12B
100
AcDbEntity
  8
AM_0
100
AcDbLine
 10
6106.591545
 20
1561.90256
 30
0.0
 11
6106.591545
 21
1823.906296
 31
0.0
  0
LINE
  5
12C
100
AcDbEntity
  8
AM_0
100
AcDbLine
 10
6104.091545
 20
1561.90256
 30
0.0
 11
6104.091545
 21
1823.906296
 31
0.0
  0
LINE
  5
12D
100
AcDbEntity
  8
AM_0
100
AcDbLine
 10
6151.591545
 20
1561.90256
 30
0.0
 11
6151.591545
 21
1823.906296
 31
0.0
  0
LINE
  5
12E
100
AcDbEntity
  8
AM_0
100
AcDbLine
 10
6154.091545
 20
1561.90256
 30
0.0
 11
6154.091545
 21
1823.906296
 31
0.0
  0
LINE
  5
12F
100
AcDbEntity
  8
AM_0
100
AcDbLine
 10
6347.918404
 20
1561.90256
 30
0.0
 11
6347.918404
 21
1781.056335
 31
0.0
  0
ARC
  5
130
100
AcDbEntity
  8
AM_0
100
AcDbCircle
 10
6149.091545
 20
1561.90256
 30
0.0
 40
2.5
100
AcDbArc
 50
270.0
 51
0.0
1001
GENIUS_GENOBJ-N-FIL_13
1002
{
1000
OWNER
1000
GEN
1002
}
1001
GENIUS_GENODEF_13
1002
{
1000
HIER
1070
     0
1002
}
1002
{
1000
MANEDIT
1070
     0
1002
}
1002
{
1000
NOSEL
1070
     0
1002
}
1002
{
1000
BEHIND
1070
     0
1002
}
1002
{
1000
OTHER
1070
     0
1002
}
1002
{
1000
REACTOR
1002
}
  0
ARC
  5
131
100
AcDbEntity
  8
AM_0
100
AcDbCircle
 10
6109.091545
 20
1561.90256
 30
0.0
 40
2.5
100
AcDbArc
 50
180.0
 51
270.0
1001
GENIUS_GENODEF_13
1002
{
1000
HIER
1070
     0
1002
}
1002
{
1000
MANEDIT
1070
     0
1002
}
1002
{
1000
NOSEL
1070
     0
1002
}
1002
{
1000
BEHIND
1070
     0
1002
}
1002
{
1000
OTHER
1070
     0
1002
}
1002
{
1000
REACTOR
1002
}
1001
GENIUS_GENOBJ-N-FIL_13
1002
{
1000
OWNER
1000
GEN
1002
}
  0
ARC
  5
132
100
AcDbEntity
  8
AM_0
100
AcDbCircle
 10
6149.091545
 20
1561.90256
 30
0.0
 40
5.0
100
AcDbArc
 50
270.0
 51
0.0
1001
GENIUS_GENODEF_13
1002
{
1000
HIER
1070
     0
1002
}
1002
{
1000
MANEDIT
1070
     0
1002
}
1002
{
1000
NOSEL
1070
     0
1002
}
1002
{
1000
BEHIND
1070
     0
1002
}
1002
{
1000
OTHER
1070
     0
1002
}
1002
{
1000
REACTOR
1002
}
1001
GENIUS_GENOBJ-N-FIL_13
1002
{
1000
OWNER
1000
GEN
1002
}
  0
ARC
  5
133
100
AcDbEntity
  8
AM_0
100
AcDbCircle
 10
6109.091545
 20
1561.90256
 30
0.0
 40
5.0
100
AcDbArc
 50
180.0
 51
270.0
1001
GENIUS_GENOBJ-N-FIL_13
1002
{
1000
OWNER
1000
GEN
1002
}
1001
GENIUS_GENODEF_13
1002
{
1000
HIER
1070
     0
1002
}
1002
{
1000
MANEDIT
1070
     0
1002
}
1002
{
1000
NOSEL
1070
     0
1002
}
1002
{
1000
BEHIND
1070
     0
1002
}
1002
{
1000
OTHER
1070
     0
1002
}
1002
{
1000
REACTOR
1002
}
  0
LINE
  5
134
100
AcDbEntity
  8
AM_0
100
AcDbLine
 10
6109.091545
 20
1559.40256
 30
0.0
 11
6149.091545
 21
1559.40256
 31
0.0
  0
LINE
  5
135
100
AcDbEntity
  8
AM_0
100
AcDbLine
 10
6109.091545
 20
1556.90256
 30
0.0
 11
6149.091545
 21
1556.90256
 31
0.0
  0
LINE
  5
136
100
AcDbEntity
  8
AM_0
100
AcDbLine
 10
6348.588277
 20
1561.90256
 30
0.0
 11
6347.918404
 21
1561.90256
 31
0.0
  0
LINE
  5
137
100
AcDbEntity
  8
AM_0
100
AcDbLine
 10
6348.588277
 20
1556.90256
 30
0.0
 11
6348.588277
 21
1561.90256
 31
0.0
  0
LINE
  5
138
100
AcDbEntity
  8
AM_0
100
AcDbLine
 10
6259.091545
 20
1723.782919
 30
0.0
 11
6154.091545
 21
1723.782919
 31
0.0
  0
LINE
  5
139
100
AcDbEntity
  8
AM_0
100
AcDbLine
 10
6154.091545
 20
1729.782919
 30
0.0
 11
6259.091545
 21
1729.782919
 31
0.0
  0
LINE
  5
13A
100
AcDbEntity
  8
AM_0
100
AcDbLine
 10
6249.091545
 20
1735.082919
 30
0.0
 11
6154.091545
 21
1735.082919
 31
0.0
  0
LINE
  5
13B
100
AcDbEntity
  8
AM_0
100
AcDbLine
 10
6154.091545
 20
1748.082919
 30
0.0
 11
6259.091545
 21
1748.082919
 31
0.0
  0
LINE
  5
13C
100
AcDbEntity
  8
AM_0
100
AcDbLine
 10
6230.091545
 20
1734.282919
 30
0.0
 11
6154.091545
 21
1734.282919
 31
0.0
  0
LINE
  5
13D
100
AcDbEntity
  8
AM_0
100
AcDbLine
 10
5999.091545
 20
1729.782919
 30
0.0
 11
6104.091545
 21
1729.782919
 31
0.0
  0
LINE
  5
13E
100
AcDbEntity
  8
AM_0
100
AcDbLine
 10
6104.091545
 20
1723.782919
 30
0.0
 11
5999.091545
 21
1723.782919
 31
0.0
  0
LINE
  5
13F
100
AcDbEntity
  8
AM_0
100
AcDbLine
 10
5999.091545
 20
1748.082919
 30
0.0
 11
6104.091545
 21
1748.082919
 31
0.0
  0
LINE
  5
140
100
AcDbEntity
  8
AM_0
100
AcDbLine
 10
6104.091545
 20
1734.282919
 30
0.0
 11
6028.091545
 21
1734.282919
 31
0.0
  0
LINE
  5
141
100
AcDbEntity
  8
AM_0
100
AcDbLine
 10
6104.091545
 20
1735.082919
 30
0.0
 11
6009.091545
 21
1735.082919
 31
0.0
  0
LINE
  5
142
100
AcDbEntity
  8
AM_0
100
AcDbLine
 10
6042.691545
 20
1735.082919
 30
0.0
 11
6042.691545
 21
1734.282919
 31
0.0
  0
LINE
  5
143
100
AcDbEntity
  8
AM_4
100
AcDbLine
 10
6015.011695
 20
1729.782919
 30
0.0
 11
6015.011695
 21
1735.082919
 31
0.0
  0
LINE
  5
144
100
AcDbEntity
  8
AM_0
100
AcDbLine
 10
6014.091545
 20
1729.782919
 30
0.0
 11
6014.091545
 21
1735.082919
 31
0.0
  0
LINE
  5
145
100
AcDbEntity
  8
AM_0
100
AcDbLine
 10
5999.091545
 20
1723.782919
 30
0.0
 11
5999.091545
 21
1729.782919
 31
0.0
  0
ARC
  5
146
100
AcDbEntity
  8
AM_0
100
AcDbCircle
 10
6009.091545
 20
1745.082919
 30
0.0
 40
10.0
100
AcDbArc
 50
180.0
 51
270.0
1001
GENIUS_GENODEF_13
1002
{
1000
HIER
1070
     0
1002
}
1002
{
1000
MANEDIT
1070
     0
1002
}
1002
{
1000
NOSEL
1070
     0
1002
}
1002
{
1000
BEHIND
1070
     0
1002
}
1002
{
1000
REACTOR
1002
}
1001
GENIUS_GENOBJ-N-FIL_13
1002
{
1000
OWNER
1000
GEN
1002
}
  0
LINE
  5
147
100
AcDbEntity
  8
AM_0
100
AcDbLine
 10
5999.091545
 20
1748.082919
 30
0.0
 11
5999.091545
 21
1745.082919
 31
0.0
  0
LINE
  5
148
100
AcDbEntity
  8
AM_0
100
AcDbLine
 10
6024.091545
 20
1729.782919
 30
0.0
 11
6024.091545
 21
1735.082919
 31
0.0
  0
LINE
  5
149
100
AcDbEntity
  8
AM_4
100
AcDbLine
 10
6023.171395
 20
1729.782919
 30
0.0
 11
6023.171395
 21
1735.082919
 31
0.0
  0
LINE
  5
14A
100
AcDbEntity
  8
AM_0
100
AcDbLine
 10
6028.091545
 20
1734.282919
 30
0.0
 11
6028.091545
 21
1729.782919
 31
0.0
  0
ARC
  5
14B
100
AcDbEntity
  8
AM_0
100
AcDbCircle
 10
6019.091545
 20
1730.655698
 30
0.0
 40
15.272779
100
AcDbArc
 50
252.387526
 51
287.612474
  0
LINE
  5
14C
100
AcDbEntity
  8
AM_0
100
AcDbLine
 10
6027.091545
 20
1715.382919
 30
0.0
 11
6011.091545
 21
1715.382919
 31
0.0
  0
LINE
  5
14D
100
AcDbEntity
  8
AM_0
100
AcDbLine
 10
6009.091545
 20
1721.782919
 30
0.0
 11
6029.091545
 21
1721.782919
 31
0.0
  0
LINE
  5
14E
100
AcDbEntity
  8
AM_0
100
AcDbLine
 10
6009.851545
 20
1721.182919
 30
0.0
 11
6028.331545
 21
1721.182919
 31
0.0
  0
LINE
  5
14F
100
AcDbEntity
  8
AM_0
100
AcDbLine
 10
6009.851545
 20
1716.098833
 30
0.0
 11
6009.851545
 21
1721.182919
 31
0.0
  0
LINE
  5
150
100
AcDbEntity
  8
AM_0
100
AcDbLine
 10
6014.470347
 20
1716.098833
 30
0.0
 11
6014.470347
 21
1721.182919
 31
0.0
  0
LINE
  5
151
100
AcDbEntity
  8
AM_0
100
AcDbLine
 10
6009.851545
 20
1716.098833
 30
0.0
 11
6011.091545
 21
1715.382919
 31
0.0
  0
ARC
  5
152
100
AcDbEntity
  8
AM_0
100
AcDbCircle
 10
6012.160946
 20
1719.465716
 30
0.0
 40
4.082798
100
AcDbArc
 50
244.446872
 51
304.446872
  0
LINE
  5
153
100
AcDbEntity
  8
AM_0
100
AcDbLine
 10
6011.776545
 20
1721.182919
 30
0.0
 11
6011.776545
 21
1721.782919
 31
0.0
  0
LINE
  5
154
100
AcDbEntity
  8
AM_0
100
AcDbLine
 10
6028.331545
 20
1716.098833
 30
0.0
 11
6028.331545
 21
1721.182919
 31
0.0
  0
LINE
  5
155
100
AcDbEntity
  8
AM_0
100
AcDbLine
 10
6023.712743
 20
1716.098833
 30
0.0
 11
6023.712743
 21
1721.182919
 31
0.0
  0
ARC
  5
156
100
AcDbEntity
  8
AM_0
100
AcDbCircle
 10
6026.022144
 20
1719.465716
 30
0.0
 40
4.082798
100
AcDbArc
 50
235.553128
 51
295.553128
  0
LINE
  5
157
100
AcDbEntity
  8
AM_0
100
AcDbLine
 10
6028.331545
 20
1716.098833
 30
0.0
 11
6027.091545
 21
1715.382919
 31
0.0
  0
LINE
  5
158
100
AcDbEntity
  8
AM_0
100
AcDbLine
 10
6026.406545
 20
1721.182919
 30
0.0
 11
6026.406545
 21
1721.782919
 31
0.0
  0
LINE
  5
159
100
AcDbEntity
  8
AM_7
100
AcDbLine
 10
6019.091545
 20
1718.651693
 30
0.0
 11
6019.091545
 21
1740.082919
 31
0.0
1001
GENIUS_GENODEF_13
1002
{
1000
HIER
1070
     0
1002
}
1002
{
1000
MANEDIT
1070
     0
1002
}
1002
{
1000
NOSEL
1070
     0
1002
}
1002
{
1000
BEHIND
1070
     0
1002
}
1002
{
1000
REACTOR
1002
}
1001
GENIUS_GENOBJ-N-CEN_13
1002
{
1000
OWNER
1000
GEN
1002
}
  0
LINE
  5
15A
100
AcDbEntity
  8
AM_0
100
AcDbLine
 10
6009.091545
 20
1723.782919
 30
0.0
 11
6009.091545
 21
1721.782919
 31
0.0
  0
LINE
  5
15B
100
AcDbEntity
  8
AM_0
100
AcDbLine
 10
6029.091545
 20
1721.782919
 30
0.0
 11
6029.091545
 21
1723.782919
 31
0.0
  0
ELLIPSE
  5
15C
100
AcDbEntity
  8
AM_0
100
AcDbEllipse
 10
6149.091545
 20
1806.017041
 30
0.0
 11
2.5
 21
0.0
 31
0.0
210
0.0
220
0.0
230
1.0
 40
0.422896
 41
4.712388980384689
 42
6.283185307179586
  0
LINE
  5
15D
100
AcDbEntity
  8
AM_0
100
AcDbLine
 10
6151.591545
 20
1823.906296
 30
0.0
 11
6154.091545
 21
1823.906296
 31
0.0
  0
ELLIPSE
  5
15E
100
AcDbEntity
  8
AM_0
100
AcDbEllipse
 10
6109.091545
 20
1806.017041
 30
0.0
 11
-2.5
 21
0.0
 31
0.0
210
0.0
220
0.0
230
1.0
 40
0.422896
 41
0.0
 42
1.570796326794896
  0
LINE
  5
15F
100
AcDbEntity
  8
AM_0
100
AcDbLine
 10
6104.091545
 20
1823.906296
 30
0.0
 11
6106.591545
 21
1823.906296
 31
0.0
  0
LINE
  5
160
100
AcDbEntity
  8
AM_0
100
AcDbLine
 10
6109.091545
 20
1804.9598
 30
0.0
 11
6149.091545
 21
1804.9598
 31
0.0
  0
LINE
  5
161
100
AcDbEntity
  8
AM_0
100
AcDbLine
 10
6259.091545
 20
1729.782919
 30
0.0
 11
6259.091545
 21
1723.782919
 31
0.0
  0
LINE
  5
162
100
AcDbEntity
  8
AM_0
100
AcDbLine
 10
6259.091545
 20
1748.082919
 30
0.0
 11
6259.091545
 21
1745.082919
 31
0.0
  0
LINE
  5
163
100
AcDbEntity
  8
AM_0
100
AcDbLine
 10
6215.491545
 20
1735.082919
 30
0.0
 11
6215.491545
 21
1734.282919
 31
0.0
  0
LINE
  5
164
100
AcDbEntity
  8
AM_0
100
AcDbLine
 10
6230.091545
 20
1734.282919
 30
0.0
 11
6230.091545
 21
1729.782919
 31
0.0
  0
LINE
  5
165
100
AcDbEntity
  8
AM_4
100
AcDbLine
 10
6235.011695
 20
1729.782919
 30
0.0
 11
6235.011695
 21
1735.082919
 31
0.0
  0
LINE
  5
166
100
AcDbEntity
  8
AM_0
100
AcDbLine
 10
6234.091545
 20
1729.782919
 30
0.0
 11
6234.091545
 21
1735.082919
 31
0.0
  0
LINE
  5
167
100
AcDbEntity
  8
AM_4
100
AcDbLine
 10
6243.171395
 20
1729.782919
 30
0.0
 11
6243.171395
 21
1735.082919
 31
0.0
  0
LINE
  5
168
100
AcDbEntity
  8
AM_0
100
AcDbLine
 10
6244.091545
 20
1729.782919
 30
0.0
 11
6244.091545
 21
1735.082919
 31
0.0
  0
ARC
  5
169
100
AcDbEntity
  8
AM_0
100
AcDbCircle
 10
6249.091545
 20
1745.082919
 30
0.0
 40
10.0
100
AcDbArc
 50
270.0
 51
0.0
1001
GENIUS_GENODEF_13
1002
{
1000
HIER
1070
     0
1002
}
1002
{
1000
MANEDIT
1070
     0
1002
}
1002
{
1000
NOSEL
1070
     0
1002
}
1002
{
1000
BEHIND
1070
     0
1002
}
1002
{
1000
REACTOR
1002
}
1001
GENIUS_GENOBJ-N-FIL_13
1002
{
1000
OWNER
1000
GEN
1002
}
  0
LINE
  5
16A
100
AcDbEntity
  8
AM_0
100
AcDbLine
 10
6247.091545
 20
1715.382919
 30
0.0
 11
6231.091545
 21
1715.382919
 31
0.0
  0
LINE
  5
16B
100
AcDbEntity
  8
AM_0
100
AcDbLine
 10
6229.091545
 20
1721.782919
 30
0.0
 11
6249.091545
 21
1721.782919
 31
0.0
  0
ARC
  5
16C
100
AcDbEntity
  8
AM_0
100
AcDbCircle
 10
6232.160946
 20
1719.465716
 30
0.0
 40
4.082798
100
AcDbArc
 50
244.446872
 51
304.446872
  0
LINE
  5
16D
100
AcDbEntity
  8
AM_0
100
AcDbLine
 10
6229.851545
 20
1721.182919
 30
0.0
 11
6248.331545
 21
1721.182919
 31
0.0
  0
LINE
  5
16E
100
AcDbEntity
  8
AM_0
100
AcDbLine
 10
6229.851545
 20
1716.098833
 30
0.0
 11
6229.851545
 21
1721.182919
 31
0.0
  0
LINE
  5
16F
100
AcDbEntity
  8
AM_0
100
AcDbLine
 10
6229.851545
 20
1716.098833
 30
0.0
 11
6231.091545
 21
1715.382919
 31
0.0
  0
LINE
  5
170
100
AcDbEntity
  8
AM_0
100
AcDbLine
 10
6231.776545
 20
1721.182919
 30
0.0
 11
6231.776545
 21
1721.782919
 31
0.0
  0
ARC
  5
171
100
AcDbEntity
  8
AM_0
100
AcDbCircle
 10
6239.091545
 20
1730.655698
 30
0.0
 40
15.272779
100
AcDbArc
 50
252.387526
 51
287.612474
  0
LINE
  5
172
100
AcDbEntity
  8
AM_0
100
AcDbLine
 10
6234.470347
 20
1716.098833
 30
0.0
 11
6234.470347
 21
1721.182919
 31
0.0
  0
LINE
  5
173
100
AcDbEntity
  8
AM_0
100
AcDbLine
 10
6243.712743
 20
1716.098833
 30
0.0
 11
6243.712743
 21
1721.182919
 31
0.0
  0
LINE
  5
174
100
AcDbEntity
  8
AM_0
100
AcDbLine
 10
6248.331545
 20
1716.098833
 30
0.0
 11
6248.331545
 21
1721.182919
 31
0.0
  0
ARC
  5
175
100
AcDbEntity
  8
AM_0
100
AcDbCircle
 10
6246.022144
 20
1719.465716
 30
0.0
 40
4.082798
100
AcDbArc
 50
235.553128
 51
295.553128
  0
LINE
  5
176
100
AcDbEntity
  8
AM_0
100
AcDbLine
 10
6248.331545
 20
1716.098833
 30
0.0
 11
6247.091545
 21
1715.382919
 31
0.0
  0
LINE
  5
177
100
AcDbEntity
  8
AM_0
100
AcDbLine
 10
6246.406545
 20
1721.182919
 30
0.0
 11
6246.406545
 21
1721.782919
 31
0.0
  0
LINE
  5
178
100
AcDbEntity
  8
AM_0
100
AcDbLine
 10
6229.091545
 20
1723.782919
 30
0.0
 11
6229.091545
 21
1721.782919
 31
0.0
  0
LINE
  5
179
100
AcDbEntity
  8
AM_7
100
AcDbLine
 10
6239.091545
 20
1718.651693
 30
0.0
 11
6239.091545
 21
1740.082919
 31
0.0
1001
GENIUS_GENODEF_13
1002
{
1000
HIER
1070
     0
1002
}
1002
{
1000
MANEDIT
1070
     0
1002
}
1002
{
1000
NOSEL
1070
     0
1002
}
1002
{
1000
BEHIND
1070
     0
1002
}
1002
{
1000
REACTOR
1002
}
1001
GENIUS_GENOBJ-N-CEN_13
1002
{
1000
OWNER
1000
GEN
1002
}
  0
LINE
  5
17A
100
AcDbEntity
  8
AM_0
100
AcDbLine
 10
6249.091545
 20
1721.782919
 30
0.0
 11
6249.091545
 21
1723.782919
 31
0.0
  0
LINE
  5
17B
100
AcDbEntity
  8
AM_0
100
AcDbLine
 10
6405.729293
 20
1810.549374
 30
0.0
 11
6405.729293
 21
1556.90256
 31
0.0
  0
LINE
  5
17C
100
AcDbEntity
  8
AM_4
100
AcDbLine
 10
6371.088277
 20
1566.577275
 30
0.0
 11
6371.088277
 21
1791.842569
 31
0.0
  0
LINE
  5
17D
100
AcDbEntity
  8
AM_7
100
AcDbLine
 10
6375.908785
 20
1541.90256
 30
0.0
 11
6375.908785
 21
1574.060297
 31
0.0
1001
GENIUS_GENODEF_13
1002
{
1000
HIER
1070
     0
1002
}
1002
{
1000
MANEDIT
1070
     0
1002
}
1002
{
1000
NOSEL
1070
     0
1002
}
1002
{
1000
BEHIND
1070
     0
1002
}
1002
{
1000
REACTOR
1002
}
1001
GENIUS_GENOBJ-N-CEN_13
1002
{
1000
OWNER
1000
GEN
1002
}
  0
LINE
  5
17E
100
AcDbEntity
  8
AM_0
100
AcDbLine
 10
6375.418404
 20
1559.40256
 30
0.0
 11
6368.588277
 21
1559.40256
 31
0.0
  0
LINE
  5
17F
100
AcDbEntity
  8
AM_0
100
AcDbLine
 10
6368.588277
 20
1561.90256
 30
0.0
 11
6368.588277
 21
1556.90256
 31
0.0
  0
LINE
  5
180
100
AcDbEntity
  8
AM_0
100
AcDbLine
 10
6375.418404
 20
1561.90256
 30
0.0
 11
6368.588277
 21
1561.90256
 31
0.0
  0
LINE
  5
181
100
AcDbEntity
  8
AM_0
100
AcDbLine
 10
6375.418404
 20
1556.90256
 30
0.0
 11
6375.418404
 21
1561.90256
 31
0.0
  0
ARC
  5
182
100
AcDbEntity
  8
AM_0
100
AcDbCircle
 10
6366.091545
 20
1943.043446
 30
0.0
 40
133.0
100
AcDbArc
 50
305.00941
 51
0.0
1001
GENIUS_GENODEF_13
1002
{
1000
HIER
1070
     0
1002
}
1002
{
1000
MANEDIT
1070
     0
1002
}
1002
{
1000
NOSEL
1070
     0
1002
}
1002
{
1000
BEHIND
1070
     0
1002
}
1002
{
1000
REACTOR
1002
}
1001
GENIUS_GENOBJ-N-FIL_13
1002
{
1000
OWNER
1000
GEN
1002
}
  0
ARC
  5
183
100
AcDbEntity
  8
AM_0
100
AcDbCircle
 10
7193.033482
 20
1914.477815
 30
0.0
 40
100.0
100
AcDbArc
 50
180.0
 51
232.802048
1001
GENIUS_GENODEF_13
1002
{
1000
HIER
1070
     0
1002
}
1002
{
1000
MANEDIT
1070
     0
1002
}
1002
{
1000
NOSEL
1070
     0
1002
}
1002
{
1000
BEHIND
1070
     0
1002
}
1002
{
1000
REACTOR
1002
}
1001
GENIUS_GENOBJ-N-FIL_13
1002
{
1000
OWNER
1000
GEN
1002
}
  0
ARC
  5
184
100
AcDbEntity
  8
AM_0
100
AcDbCircle
 10
7174.283482
 20
1943.043446
 30
0.0
 40
133.0
100
AcDbArc
 50
180.0
 51
234.99059
1001
GENIUS_GENODEF_13
1002
{
1000
HIER
1070
     0
1002
}
1002
{
1000
MANEDIT
1070
     0
1002
}
1002
{
1000
NOSEL
1070
     0
1002
}
1002
{
1000
BEHIND
1070
     0
1002
}
1002
{
1000
REACTOR
1002
}
1001
GENIUS_GENOBJ-N-FIL_13
1002
{
1000
OWNER
1000
GEN
1002
}
  0
ARC
  5
185
100
AcDbEntity
  8
AM_0
100
AcDbCircle
 10
7174.283482
 20
1943.043446
 30
0.0
 40
130.9
100
AcDbArc
 50
180.0
 51
234.99059
1001
GENIUS_GENODEF_13
1002
{
1000
HIER
1070
     0
1002
}
1002
{
1000
MANEDIT
1070
     0
1002
}
1002
{
1000
NOSEL
1070
     0
1002
}
1002
{
1000
BEHIND
1070
     0
1002
}
1002
{
1000
REACTOR
1002
}
1001
GENIUS_GENOBJ-N-FIL_13
1002
{
1000
OWNER
1000
GEN
1002
}
  0
LINE
  5
186
100
AcDbEntity
  8
AM_4
100
AcDbLine
 10
7425.133482
 20
1698.782919
 30
0.0
 11
7425.133482
 21
1718.782919
 31
0.0
  0
HATCH
  5
187
100
AcDbEntity
  8
AM_8
100
AcDbHatch
 10
0.0
 20
0.0
 30
0.0
210
0.0
220
0.0
230
1.0
  2
_U
 70
     0
 71
     0
 91
        1
 92
        1
 93
        5
 72
     1
 10
7422.783482
 20
1723.782919
 11
7422.783482
 21
1698.782919
 72
     1
 10
7422.783482
 20
1698.782919
 11
7425.133482
 21
1698.782919
 72
     1
 10
7425.133482
 20
1698.782919
 11
7427.133482
 21
1700.782919
 72
     1
 10
7427.133482
 20
1700.782919
 11
7427.133482
 21
1723.782919
 72
     1
 10
7427.133482
 20
1723.782919
 11
7422.783482
 21
1723.782919
 97
        0
 75
     0
 76
     0
 52
135.0
 41
2.5
 77
     0
 78
     1
 53
135.0
 43
7669.085043
 44
1662.908122
 45
-1.767766952966368
 46
-1.767766952966368
 79
     0
 98
        1
 10
7669.085043
 20
1662.908122
1001
GENIUS_GENODEF_13
1002
{
1000
HIER
1070
     0
1002
}
1002
{
1000
MANEDIT
1070
     0
1002
}
1002
{
1000
NOSEL
1070
     0
1002
}
1002
{
1000
BEHIND
1070
     0
1002
}
1002
{
1000
REACTOR
1002
}
1001
GENIUS_GENOBJ-N-HTC_13
1002
{
1000
OWNER
1000
GEN
1002
}
1001
GENIUS_GENHATCH_13
1002
{
1000
DATA
1040
45.0
1042
2.5
1000
_U
1070
     0
1011
7425.896588
1021
1707.909336
1031
0.0
1002
}
1002
{
1000
UCS
1010
0.0
1020
0.0
1030
0.0
1010
1.0
1020
0.0
1030
0.0
1010
0.0
1020
1.0
1030
0.0
1002
}
  0
LINE
  5
188
100
AcDbEntity
  8
AM_0
100
AcDbLine
 10
7422.783482
 20
1723.782919
 30
0.0
 11
7422.783482
 21
1698.782919
 31
0.0
  0
LINE
  5
189
100
AcDbEntity
  8
AM_0
100
AcDbLine
 10
7427.133482
 20
1700.782919
 30
0.0
 11
7427.133482
 21
1723.782919
 31
0.0
  0
LINE
  5
18A
100
AcDbEntity
  8
AM_4
100
AcDbLine
 10
7397.433482
 20
1698.782919
 30
0.0
 11
7397.433482
 21
1718.782919
 31
0.0
  0
LINE
  5
18B
100
AcDbEntity
  8
AM_0
100
AcDbLine
 10
7399.783482
 20
1723.782919
 30
0.0
 11
7399.783482
 21
1698.782919
 31
0.0
  0
LINE
  5
18C
100
AcDbEntity
  8
AM_0
100
AcDbLine
 10
7395.433482
 20
1700.782919
 30
0.0
 11
7395.433482
 21
1723.782919
 31
0.0
  0
HATCH
  5
18D
100
AcDbEntity
  8
AM_8
100
AcDbHatch
 10
0.0
 20
0.0
 30
0.0
210
0.0
220
0.0
230
1.0
  2
_U
 70
     0
 71
     0
 91
        1
 92
        1
 93
        5
 72
     1
 10
7395.433482
 20
1700.782919
 11
7397.433482
 21
1698.782919
 72
     1
 10
7397.433482
 20
1698.782919
 11
7399.783482
 21
1698.782919
 72
     1
 10
7399.783482
 20
1698.782919
 11
7399.783482
 21
1723.782919
 72
     1
 10
7399.783482
 20
1723.782919
 11
7395.433482
 21
1723.782919
 72
     1
 10
7395.433482
 20
1723.782919
 11
7395.433482
 21
1700.782919
 97
        0
 75
     0
 76
     0
 52
135.0
 41
2.5
 77
     0
 78
     1
 53
135.0
 43
7669.085043
 44
1662.908122
 45
-1.767766952966368
 46
-1.767766952966368
 79
     0
 98
        1
 10
7669.085043
 20
1662.908122
1001
GENIUS_GENODEF_13
1002
{
1000
HIER
1070
     0
1002
}
1002
{
1000
MANEDIT
1070
     0
1002
}
1002
{
1000
NOSEL
1070
     0
1002
}
1002
{
1000
BEHIND
1070
     0
1002
}
1002
{
1000
REACTOR
1002
}
1001
GENIUS_GENOBJ-N-HTC_13
1002
{
1000
OWNER
1000
GEN
1002
}
1001
GENIUS_GENHATCH_13
1002
{
1000
DATA
1040
45.0
1042
2.5
1000
_U
1070
     0
1011
7396.177557
1021
1708.254053
1031
0.0
1002
}
1002
{
1000
UCS
1010
0.0
1020
0.0
1030
0.0
1010
1.0
1020
0.0
1030
0.0
1010
0.0
1020
1.0
1030
0.0
1002
}
  0
LINE
  5
18E
100
AcDbEntity
  8
AM_0
100
AcDbLine
 10
7193.03675
 20
1556.90256
 30
0.0
 11
7193.03675
 21
1780.803013
 31
0.0
  0
LINE
  5
18F
100
AcDbEntity
  8
AM_0
100
AcDbLine
 10
7194.28675
 20
1556.90256
 30
0.0
 11
7194.28675
 21
1780.259898
 31
0.0
  0
LINE
  5
190
100
AcDbEntity
  8
AM_0
100
AcDbLine
 10
7136.475861
 20
1809.478889
 30
0.0
 11
7136.475861
 21
1561.90256
 31
0.0
  0
LINE
  5
191
100
AcDbEntity
  8
AM_0
100
AcDbLine
 10
7169.28675
 20
1556.90256
 30
0.0
 11
7169.28675
 21
1791.842569
 31
0.0
  0
LINE
  5
192
100
AcDbEntity
  8
AM_0
100
AcDbLine
 10
7170.53675
 20
1791.226651
 30
0.0
 11
7170.53675
 21
1556.90256
 31
0.0
  0
DIMENSION
  5
193
100
AcDbEntity
  8
AM_5
100
AcDbDimension
  2
*D4
 10
7288.934046
 20
1698.782919
 30
0.0
 11
7288.934046
 21
1623.520846
 31
0.0
 70
   128
  1
<>
  3
AM_DIN
100
AcDbAlignedDimension
 13
7193.03675
 23
1556.90256
 33
0.0
 14
7397.433482
 24
1698.782919
 34
0.0
 50
90.0
100
AcDbRotatedDimension
1001
ACAD
1000
DSTYLE
1002
{
1070
    40
1040
7.0
1070
   271
1070
     0
1002
}
1001
GENIUS_GENDTOL_13
1000

1000
h7
1000

1040
0.0
1000
<>
  0
LINE
  5
1A0
100
AcDbEntity
  8
AM_0
100
AcDbLine
 10
7138.975861
 20
1556.90256
 30
0.0
 11
7194.28675
 21
1556.90256
 31
0.0
  0
LINE
  5
1A1
100
AcDbEntity
  8
AM_0
100
AcDbLine
 10
7138.975861
 20
1559.40256
 30
0.0
 11
7194.28675
 21
1559.40256
 31
0.0
  0
LINE
  5
1A2
100
AcDbEntity
  8
AM_7
100
AcDbLine
 10
7164.466242
 20
1541.90256
 30
0.0
 11
7164.466242
 21
1574.40256
 31
0.0
1001
GENIUS_GENODEF_13
1002
{
1000
HIER
1070
     0
1002
}
1002
{
1000
MANEDIT
1070
     0
1002
}
1002
{
1000
NOSEL
1070
     0
1002
}
1002
{
1000
BEHIND
1070
     0
1002
}
1002
{
1000
REACTOR
1002
}
1001
GENIUS_GENOBJ-N-CEN_13
1002
{
1000
OWNER
1000
GEN
1002
}
  0
LINE
  5
1A3
100
AcDbEntity
  8
AM_0
100
AcDbLine
 10
7138.975861
 20
1561.90256
 30
0.0
 11
7138.975861
 21
1556.90256
 31
0.0
  0
LINE
  5
1A4
100
AcDbEntity
  8
AM_0
100
AcDbLine
 10
7136.475861
 20
1561.90256
 30
0.0
 11
7138.975861
 21
1561.90256
 31
0.0
  0
LINE
  5
1A5
100
AcDbEntity
  8
AM_0
100
AcDbLine
 10
7427.133482
 20
1700.782919
 30
0.0
 11
7425.133482
 21
1698.782919
 31
0.0
1001
GENIUS_GENFIL_13
1070
     0
1040
2.0
1040
2.0
1040
20.0
1040
0.0
1002
{
1002
}
1001
GENIUS_GENODEF_13
1002
{
1000
HIER
1070
     0
1002
}
1002
{
1000
MANEDIT
1070
     0
1002
}
1002
{
1000
NOSEL
1070
     0
1002
}
1002
{
1000
BEHIND
1070
     0
1002
}
1002
{
1000
REACTOR
1002
}
1001
GENIUS_GENOBJ-N-CHA_13
1002
{
1000
OWNER
1000
GEN
1002
}
  0
LINE
  5
1A8
100
AcDbEntity
  8
AM_0
100
AcDbLine
 10
7397.433482
 20
1698.782919
 30
0.0
 11
7395.433482
 21
1700.782919
 31
0.0
1001
GENIUS_GENFIL_13
1070
     0
1040
2.0
1040
2.0
1040
20.0
1040
0.0
1002
{
1002
}
1001
GENIUS_GENODEF_13
1002
{
1000
HIER
1070
     0
1002
}
1002
{
1000
MANEDIT
1070
     0
1002
}
1002
{
1000
NOSEL
1070
     0
1002
}
1002
{
1000
BEHIND
1070
     0
1002
}
1002
{
1000
REACTOR
1002
}
1001
GENIUS_GENOBJ-N-CHA_13
1002
{
1000
OWNER
1000
GEN
1002
}
  0
LINE
  5
1A9
100
AcDbEntity
  8
AM_0
100
AcDbLine
 10
7397.433482
 20
1698.782919
 30
0.0
 11
7425.133482
 21
1698.782919
 31
0.0
  0
ARC
  5
1AA
100
AcDbEntity
  8
AM_0
100
AcDbCircle
 10
7411.283482
 20
2202.032919
 30
0.0
 40
461.0
100
AcDbArc
 50
232.802048
 51
260.447945
  0
ARC
  5
1AB
100
AcDbEntity
  8
AM_0
100
AcDbCircle
 10
7411.283482
 20
2202.032919
 30
0.0
 40
458.0
100
AcDbArc
 50
232.802048
 51
260.891941
  0
ARC
  5
1AC
100
AcDbEntity
  8
AM_0
100
AcDbCircle
 10
7411.283482
 20
2281.396235
 30
0.0
 40
544.0
100
AcDbArc
 50
234.99059
 51
261.713813
  0
ARC
  5
1AD
100
AcDbEntity
  8
AM_0
100
AcDbCircle
 10
7411.283482
 20
2281.396235
 30
0.0
 40
546.1
100
AcDbArc
 50
234.99059
 51
261.523202
  0
ARC
  5
1AE
100
AcDbEntity
  8
AM_0
100
AcDbCircle
 10
7193.033482
 20
1914.477815
 30
0.0
 40
97.0
100
AcDbArc
 50
180.0
 51
232.802048
1001
GENIUS_GENODEF_13
1002
{
1000
HIER
1070
     0
1002
}
1002
{
1000
MANEDIT
1070
     0
1002
}
1002
{
1000
NOSEL
1070
     0
1002
}
1002
{
1000
BEHIND
1070
     0
1002
}
1002
{
1000
REACTOR
1002
}
1001
GENIUS_GENOBJ-N-FIL_13
1002
{
1000
OWNER
1000
GEN
1002
}
  0
LINE
  5
1AF
100
AcDbEntity
  8
AM_0
100
AcDbLine
 10
7334.783482
 20
1747.424571
 30
0.0
 11
7334.783482
 21
1734.282919
 31
0.0
  0
LINE
  5
1B0
100
AcDbEntity
  8
AM_0
100
AcDbLine
 10
7338.783482
 20
1729.782919
 30
0.0
 11
7338.783482
 21
1749.807588
 31
0.0
  0
LINE
  5
1B1
100
AcDbEntity
  8
AM_0
100
AcDbLine
 10
7330.783482
 20
1741.26203
 30
0.0
 11
7330.783482
 21
1735.082919
 31
0.0
  0
LINE
  5
1B2
100
AcDbEntity
  8
AM_0
100
AcDbLine
 10
7332.883482
 20
1743.07529
 30
0.0
 11
7332.883482
 21
1734.282919
 31
0.0
  0
LINE
  5
1B3
100
AcDbEntity
  8
AM_0
100
AcDbLine
 10
7296.283482
 20
1740.862769
 30
0.0
 11
7297.203632
 21
1741.782919
 31
0.0
  0
LINE
  5
1B4
100
AcDbEntity
  8
AM_0
100
AcDbLine
 10
7305.363332
 20
1741.782919
 30
0.0
 11
7306.283482
 21
1740.862769
 31
0.0
  0
LINE
  5
1B5
100
AcDbEntity
  8
AM_0
100
AcDbLine
 10
7306.283482
 20
1740.862769
 30
0.0
 11
7296.283482
 21
1740.862769
 31
0.0
  0
LINE
  5
1B6
100
AcDbEntity
  8
AM_0
100
AcDbLine
 10
7305.363332
 20
1741.782919
 30
0.0
 11
7297.203632
 21
1741.782919
 31
0.0
  0
LINE
  5
1B7
100
AcDbEntity
  8
AM_4
100
AcDbLine
 10
7297.203632
 20
1730.782919
 30
0.0
 11
7296.283482
 21
1729.282919
 31
0.0
  0
LINE
  5
1B8
100
AcDbEntity
  8
AM_4
100
AcDbLine
 10
7305.363332
 20
1730.782919
 30
0.0
 11
7306.283482
 21
1729.282919
 31
0.0
  0
LINE
  5
1B9
100
AcDbEntity
  8
AM_0
100
AcDbLine
 10
7306.283482
 20
1730.782919
 30
0.0
 11
7296.283482
 21
1730.782919
 31
0.0
  0
LINE
  5
1BA
100
AcDbEntity
  8
AM_0
100
AcDbLine
 10
7296.283482
 20
1723.782919
 30
0.0
 11
7296.283482
 21
1740.862769
 31
0.0
  0
LINE
  5
1BB
100
AcDbEntity
  8
AM_0
100
AcDbLine
 10
7306.283482
 20
1723.782919
 30
0.0
 11
7306.283482
 21
1740.862769
 31
0.0
  0
LINE
  5
1BC
100
AcDbEntity
  8
AM_4
100
AcDbLine
 10
7305.363332
 20
1730.782919
 30
0.0
 11
7305.363332
 21
1741.782919
 31
0.0
  0
LINE
  5
1BD
100
AcDbEntity
  8
AM_4
100
AcDbLine
 10
7297.203632
 20
1730.782919
 30
0.0
 11
7297.203632
 21
1741.782919
 31
0.0
  0
LINE
  5
1BE
100
AcDbEntity
  8
AM_0
100
AcDbLine
 10
7295.283482
 20
1729.782919
 30
0.0
 11
7295.283482
 21
1723.782919
 31
0.0
1001
GENIUS_GENODEF_13
1002
{
1000
HIER
1070
     0
1002
}
1002
{
1000
MANEDIT
1070
     0
1002
}
1002
{
1000
NOSEL
1070
     0
1002
}
1002
{
1000
BEHIND
1070
     0
1002
}
1002
{
1000
REACTOR
1002
}
1001
GENIUS_GENOBJ-N-CEN_13
1002
{
1000
OWNER
1000
GEN
1002
}
  0
LINE
  5
1BF
100
AcDbEntity
  8
AM_0
100
AcDbLine
 10
7307.283482
 20
1729.782919
 30
0.0
 11
7307.283482
 21
1723.782919
 31
0.0
1001
GENIUS_GENODEF_13
1002
{
1000
HIER
1070
     0
1002
}
1002
{
1000
MANEDIT
1070
     0
1002
}
1002
{
1000
NOSEL
1070
     0
1002
}
1002
{
1000
BEHIND
1070
     0
1002
}
1002
{
1000
REACTOR
1002
}
1001
GENIUS_GENOBJ-N-CEN_13
1002
{
1000
OWNER
1000
GEN
1002
}
  0
LINE
  5
1C0
100
AcDbEntity
  8
AM_0
100
AcDbLine
 10
7291.283482
 20
1735.082919
 30
0.0
 11
7296.283482
 21
1735.082919
 31
0.0
  0
LINE
  5
1C1
100
AcDbEntity
  8
AM_0
100
AcDbLine
 10
7291.283482
 20
1740.082919
 30
0.0
 11
7296.283482
 21
1740.082919
 31
0.0
  0
LINE
  5
1C2
100
AcDbEntity
  8
AM_0
100
AcDbLine
 10
7310.283482
 20
1734.282919
 30
0.0
 11
7310.283482
 21
1729.782919
 31
0.0
  0
LINE
  5
1C3
100
AcDbEntity
  8
AM_0
100
AcDbLine
 10
7324.883482
 20
1735.082919
 30
0.0
 11
7324.883482
 21
1734.282919
 31
0.0
  0
LINE
  5
1C4
100
AcDbEntity
  8
AM_0
100
AcDbLine
 10
7281.283482
 20
1723.782919
 30
0.0
 11
7281.283482
 21
1729.782919
 31
0.0
  0
LINE
  5
1C5
100
AcDbEntity
  8
AM_0
100
AcDbLine
 10
7281.283482
 20
1748.082919
 30
0.0
 11
7281.283482
 21
1745.082919
 31
0.0
  0
LINE
  5
1C6
100
AcDbEntity
  8
AM_0
100
AcDbLine
 10
7286.283482
 20
1748.082919
 30
0.0
 11
7286.283482
 21
1745.082919
 31
0.0
  0
LINE
  5
1C7
100
AcDbEntity
  8
AM_0
100
AcDbLine
 10
7281.283482
 20
1729.782919
 30
0.0
 11
7296.283482
 21
1729.782919
 31
0.0
  0
ARC
  5
1C8
100
AcDbEntity
  8
AM_0
100
AcDbCircle
 10
7291.283482
 20
1745.082919
 30
0.0
 40
10.0
100
AcDbArc
 50
180.0
 51
270.0
1001
GENIUS_GENODEF_13
1002
{
1000
HIER
1070
     0
1002
}
1002
{
1000
MANEDIT
1070
     0
1002
}
1002
{
1000
NOSEL
1070
     0
1002
}
1002
{
1000
BEHIND
1070
     0
1002
}
1002
{
1000
REACTOR
1002
}
1001
GENIUS_GENOBJ-N-FIL_13
1002
{
1000
OWNER
1000
GEN
1002
}
  0
ARC
  5
1C9
100
AcDbEntity
  8
AM_0
100
AcDbCircle
 10
7291.283482
 20
1745.082919
 30
0.0
 40
5.0
100
AcDbArc
 50
180.0
 51
270.0
1001
GENIUS_GENODEF_13
1002
{
1000
HIER
1070
     0
1002
}
1002
{
1000
MANEDIT
1070
     0
1002
}
1002
{
1000
NOSEL
1070
     0
1002
}
1002
{
1000
BEHIND
1070
     0
1002
}
1002
{
1000
REACTOR
1002
}
1001
GENIUS_GENOBJ-N-FIL_13
1002
{
1000
OWNER
1000
GEN
1002
}
  0
LINE
  5
1CA
100
AcDbEntity
  8
AM_0
100
AcDbLine
 10
7281.283482
 20
1748.082919
 30
0.0
 11
7293.801072
 21
1748.082919
 31
0.0
  0
LINE
  5
1CB
100
AcDbEntity
  8
AM_0
100
AcDbLine
 10
7291.283482
 20
1721.782919
 30
0.0
 11
7311.283482
 21
1721.782919
 31
0.0
  0
LINE
  5
1CC
100
AcDbEntity
  8
AM_0
100
AcDbLine
 10
7293.283482
 20
1721.182919
 30
0.0
 11
7309.283482
 21
1721.182919
 31
0.0
  0
LINE
  5
1CD
100
AcDbEntity
  8
AM_0
100
AcDbLine
 10
7309.283482
 20
1715.382919
 30
0.0
 11
7293.283482
 21
1715.382919
 31
0.0
  0
ARC
  5
1CE
100
AcDbEntity
  8
AM_0
100
AcDbCircle
 10
7305.283482
 20
1726.915397
 30
0.0
 40
11.532479
100
AcDbArc
 50
249.705445
 51
290.294555
  0
LINE
  5
1CF
100
AcDbEntity
  8
AM_0
100
AcDbLine
 10
7293.968482
 20
1721.182919
 30
0.0
 11
7293.968482
 21
1721.782919
 31
0.0
  0
ARC
  5
1D0
100
AcDbEntity
  8
AM_0
100
AcDbCircle
 10
7297.283482
 20
1726.915397
 30
0.0
 40
11.532479
100
AcDbArc
 50
249.705445
 51
290.294555
  0
LINE
  5
1D1
100
AcDbEntity
  8
AM_0
100
AcDbLine
 10
7301.283482
 20
1716.098833
 30
0.0
 11
7301.283482
 21
1721.182919
 31
0.0
  0
LINE
  5
1D2
100
AcDbEntity
  8
AM_0
100
AcDbLine
 10
7293.283482
 20
1721.182919
 30
0.0
 11
7293.283482
 21
1715.382919
 31
0.0
  0
LINE
  5
1D3
100
AcDbEntity
  8
AM_0
100
AcDbLine
 10
7308.598482
 20
1721.182919
 30
0.0
 11
7308.598482
 21
1721.782919
 31
0.0
  0
LINE
  5
1D4
100
AcDbEntity
  8
AM_0
100
AcDbLine
 10
7309.283482
 20
1721.182919
 30
0.0
 11
7309.283482
 21
1715.382919
 31
0.0
  0
LINE
  5
1D5
100
AcDbEntity
  8
AM_7
100
AcDbLine
 10
7301.283482
 20
1718.651693
 30
0.0
 11
7301.283482
 21
1740.082919
 31
0.0
1001
GENIUS_GENODEF_13
1002
{
1000
HIER
1070
     0
1002
}
1002
{
1000
MANEDIT
1070
     0
1002
}
1002
{
1000
NOSEL
1070
     0
1002
}
1002
{
1000
BEHIND
1070
     0
1002
}
1002
{
1000
REACTOR
1002
}
1001
GENIUS_GENOBJ-N-CEN_13
1002
{
1000
OWNER
1000
GEN
1002
}
  0
LINE
  5
1D6
100
AcDbEntity
  8
AM_0
100
AcDbLine
 10
7291.283482
 20
1723.782919
 30
0.0
 11
7291.283482
 21
1721.782919
 31
0.0
  0
LINE
  5
1D7
100
AcDbEntity
  8
AM_0
100
AcDbLine
 10
7311.283482
 20
1721.782919
 30
0.0
 11
7311.283482
 21
1723.782919
 31
0.0
  0
LINE
  5
1D8
100
AcDbEntity
  8
AM_0
100
AcDbLine
 10
7306.283482
 20
1740.082919
 30
0.0
 11
7330.783482
 21
1740.082919
 31
0.0
  0
LINE
  5
1D9
100
AcDbEntity
  8
AM_0
100
AcDbLine
 10
7306.283482
 20
1735.082919
 30
0.0
 11
7330.783482
 21
1735.082919
 31
0.0
  0
LINE
  5
1DA
100
AcDbEntity
  8
AM_0
100
AcDbLine
 10
7334.783482
 20
1734.282919
 30
0.0
 11
7310.283482
 21
1734.282919
 31
0.0
  0
LINE
  5
1DB
100
AcDbEntity
  8
AM_0
100
AcDbLine
 10
7419.783482
 20
1723.782919
 30
0.0
 11
7419.783482
 21
1729.782919
 31
0.0
  0
LINE
  5
1DC
100
AcDbEntity
  8
AM_0
100
AcDbLine
 10
7423.783482
 20
1723.782919
 30
0.0
 11
7423.783482
 21
1729.782919
 31
0.0
  0
LINE
  5
1DD
100
AcDbEntity
  8
AM_0
100
AcDbLine
 10
7425.133482
 20
1718.782919
 30
0.0
 11
7427.133482
 21
1718.782919
 31
0.0
  0
LINE
  5
1DE
100
AcDbEntity
  8
AM_0
100
AcDbLine
 10
7398.783482
 20
1723.782919
 30
0.0
 11
7398.783482
 21
1729.782919
 31
0.0
  0
LINE
  5
1DF
100
AcDbEntity
  8
AM_0
100
AcDbLine
 10
7402.783482
 20
1723.782919
 30
0.0
 11
7402.783482
 21
1729.782919
 31
0.0
  0
LINE
  5
1E0
100
AcDbEntity
  8
AM_0
100
AcDbLine
 10
7395.433482
 20
1718.782919
 30
0.0
 11
7397.433482
 21
1718.782919
 31
0.0
  0
ARC
  5
1E1
100
AcDbEntity
  8
AM_0
100
AcDbCircle
 10
6129.091545
 20
2229.612986
 30
0.0
 40
546.1
100
AcDbArc
 50
54.99059
 51
125.00941
  0
DIMENSION
  5
1E2
100
AcDbEntity
  8
AM_5
100
AcDbDimension
  2
*D5
 10
5759.091545
 20
2071.875634
 30
0.0
 11
6074.090543
 21
2071.875634
 31
0.0
 70
   128
  1
%%c<>
  3
AM_DIN
100
AcDbAlignedDimension
 13
6499.091545
 23
2071.875634
 33
0.0
 14
5759.091545
 24
2071.875634
 34
0.0
100
AcDbRotatedDimension
1001
ACAD
1000
DSTYLE
1002
{
1070
    40
1040
7.0
1002
}
1001
GENIUS_GENDTOL_13
1000

1000
h7
1000

1040
0.0
1000
%%c<>
  0
LINE
  5
1EF
100
AcDbEntity
  8
AM_0
100
AcDbLine
 10
6499.091545
 20
2259.282919
 30
0.0
 11
5759.091545
 21
2259.282919
 31
0.0
  0
LINE
  5
1F0
100
AcDbEntity
  8
AM_0
100
AcDbLine
 10
5759.091545
 20
2263.502073
 30
0.0
 11
5759.091545
 21
2567.965775
 31
0.0
  0
ARC
  5
1F1
100
AcDbEntity
  8
AM_0
100
AcDbCircle
 10
5761.841545
 20
2263.502073
 30
0.0
 40
2.75
100
AcDbArc
 50
180.0
 51
225.0
1001
GENIUS_GENODEF_13
1002
{
1000
HIER
1070
     0
1002
}
1002
{
1000
MANEDIT
1070
     0
1002
}
1002
{
1000
NOSEL
1070
     0
1002
}
1002
{
1000
BEHIND
1070
     0
1002
}
1002
{
1000
REACTOR
1002
}
1001
GENIUS_GENOBJ-N-FIL_13
1002
{
1000
OWNER
1000
GEN
1002
}
  0
LINE
  5
1F2
100
AcDbEntity
  8
AM_0
100
AcDbLine
 10
5759.897002
 20
2261.557529
 30
0.0
 11
5760.477169
 21
2260.977362
 31
0.0
  0
ARC
  5
1F3
100
AcDbEntity
  8
AM_0
100
AcDbCircle
 10
5759.770062
 20
2260.270255
 30
0.0
 40
1.0
100
AcDbArc
 50
4.0
 51
45.0
1001
GENIUS_GENODEF_13
1002
{
1000
HIER
1070
     0
1002
}
1002
{
1000
MANEDIT
1070
     0
1002
}
1002
{
1000
NOSEL
1070
     0
1002
}
1002
{
1000
BEHIND
1070
     0
1002
}
1002
{
1000
REACTOR
1002
}
1001
GENIUS_GENOBJ-N-FIL_13
1002
{
1000
OWNER
1000
GEN
1002
}
  0
LINE
  5
1F4
100
AcDbEntity
  8
AM_0
100
AcDbLine
 10
5760.841545
 20
2259.282919
 30
0.0
 11
5760.767626
 21
2260.340012
 31
0.0
  0
ARC
  5
1F5
100
AcDbEntity
  8
AM_0
100
AcDbCircle
 10
5892.091545
 20
2567.965775
 30
0.0
 40
133.0
100
AcDbArc
 50
125.00941
 51
180.0
1001
GENIUS_GENODEF_13
1002
{
1000
HIER
1070
     0
1002
}
1002
{
1000
MANEDIT
1070
     0
1002
}
1002
{
1000
NOSEL
1070
     0
1002
}
1002
{
1000
BEHIND
1070
     0
1002
}
1002
{
1000
REACTOR
1002
}
1001
GENIUS_GENOBJ-N-FIL_13
1002
{
1000
OWNER
1000
GEN
1002
}
  0
LINE
  5
1F6
100
AcDbEntity
  8
AM_0
100
AcDbLine
 10
6499.091545
 20
2263.502073
 30
0.0
 11
6499.091545
 21
2567.965775
 31
0.0
  0
LWPOLYLINE
  5
1F7
100
AcDbEntity
  8
AM_6
100
AcDbPolyline
 90
        8
 70
     1
 43
2.0
 10
6054.091545
 20
2212.362986
 10
6204.091545
 20
2212.362986
 42
-0.414214
 10
6209.091545
 20
2207.362986
 10
6209.091545
 20
2152.362986
 42
-0.414214
 10
6204.091545
 20
2147.362986
 10
6054.091545
 20
2147.362986
 42
-0.414214
 10
6049.091545
 20
2152.362986
 10
6049.091545
 20
2207.362986
 42
-0.414214
  0
INSERT
  5
1F9
100
AcDbEntity
  8
AM_6
100
AcDbBlockReference
  2
LOGO
 10
6043.227183
 20
2147.745137
 30
0.0
 41
6.48
 42
6.48
 43
6.48
  0
LINE
  5
215
100
AcDbEntity
  8
0
100
AcDbLine
 10
6086.591545
 20
2397.362986
 30
0.0
 11
6171.591545
 21
2397.362986
 31
0.0
  0
TEXT
  5
216
100
AcDbEntity
  8
0
 62
     3
100
AcDbText
 10
6168.58069
 20
2353.302955
 30
0.0
 40
3.5
  1
ltr.
 41
0.954608
 72
     5
 11
6174.427663
 21
2353.302955
 31
0.0
100
AcDbText
  0
TEXT
  5
217
100
AcDbEntity
  8
0
 62
     3
100
AcDbText
 10
6169.365663
 20
2336.944189
 30
0.0
 40
3.5
  1
K
 41
1.245583
 72
     5
 11
6172.221162
 21
2336.944189
 31
0.0
100
AcDbText
  0
TEXT
  5
218
100
AcDbEntity
  8
0
 62
     3
100
AcDbText
 10
6168.58069
 20
2321.477235
 30
0.0
 40
3.5
  1
bar
 41
0.903007
 72
     5
 11
6174.427663
 21
2321.477235
 31
0.0
100
AcDbText
  0
TEXT
  5
219
100
AcDbEntity
  8
0
 62
     3
100
AcDbText
 10
6168.58069
 20
2329.272104
 30
0.0
 40
3.5
  1
bar
 41
0.903007
 72
     5
 11
6174.427663
 21
2329.272104
 31
0.0
100
AcDbText
  0
LINE
  5
21A
100
AcDbEntity
  8
0
100
AcDbLine
 10
6171.591545
 20
2302.362986
 30
0.0
 11
6086.591545
 21
2302.362986
 31
0.0
  0
MTEXT
  5
21B
100
AcDbEntity
  8
0
 62
     2
100
AcDbMText
 10
6121.302981
 20
2384.531887
 30
0.0
 40
2.7
 41
61.74
 71
     1
 72
     5
  1
\fArial Black|b0|i0|c0|p34;Druckausdehnungsgefäß
1001
ACAD
1000
MTEXTBEGIN
1070
    73
1070
     1
1070
    44
1040
1.0
1070
    74
1070
     0
1000
MTEXTEND
  0
LINE
  5
21C
100
AcDbEntity
  8
0
 62
     2
100
AcDbLine
 10
6141.766565
 20
2327.953774
 30
0.0
 11
6141.766565
 21
2334.953774
 31
0.0
  0
LINE
  5
21D
100
AcDbEntity
  8
0
 62
     2
100
AcDbLine
 10
6166.766565
 20
2334.953774
 30
0.0
 11
6166.766565
 21
2327.953774
 31
0.0
  0
TEXT
  5
21E
100
AcDbEntity
  8
0
 62
     3
100
AcDbText
 10
6085.091348
 20
2329.973628
 30
0.0
 40
3.5
  1
zul.Betr.überdruck/Max.working pressure
 41
0.628728
 72
     5
 11
6139.345823
 21
2329.973628
 31
0.0
100
AcDbText
  0
LINE
  5
21F
100
AcDbEntity
  8
0
100
AcDbLine
 10
6081.591545
 20
2307.362986
 30
0.0
 11
6081.591545
 21
2392.362986
 31
0.0
  0
TEXT
  5
220
100
AcDbEntity
  8
0
 62
     3
100
AcDbText
 10
6143.692168
 20
2313.933391
 30
0.0
 40
3.5
  1
86/NHA 38
100
AcDbText
  0
LINE
  5
221
100
AcDbEntity
  8
0
 62
     2
100
AcDbLine
 10
6154.266565
 20
2319.953774
 30
0.0
 11
6141.766565
 21
2319.953774
 31
0.0
  0
LINE
  5
222
100
AcDbEntity
  8
0
 62
     2
100
AcDbLine
 10
6154.266565
 20
2326.953774
 30
0.0
 11
6141.766565
 21
2326.953774
 31
0.0
  0
LINE
  5
223
100
AcDbEntity
  8
0
 62
     2
100
AcDbLine
 10
6166.766565
 20
2327.953774
 30
0.0
 11
6141.766565
 21
2327.953774
 31
0.0
  0
LINE
  5
224
100
AcDbEntity
  8
0
 62
     2
100
AcDbLine
 10
6166.666565
 20
2318.953774
 30
0.0
 11
6141.666565
 21
2318.953774
 31
0.0
  0
LINE
  5
225
100
AcDbEntity
  8
0
 62
     2
100
AcDbLine
 10
6166.666565
 20
2311.953774
 30
0.0
 11
6141.666565
 21
2311.953774
 31
0.0
  0
LINE
  5
226
100
AcDbEntity
  8
0
 62
     2
100
AcDbLine
 10
6141.666565
 20
2311.953774
 30
0.0
 11
6141.666565
 21
2318.953774
 31
0.0
  0
LINE
  5
227
100
AcDbEntity
  8
0
 62
     2
100
AcDbLine
 10
6141.766565
 20
2319.953774
 30
0.0
 11
6141.766565
 21
2326.953774
 31
0.0
  0
LINE
  5
228
100
AcDbEntity
  8
0
 62
     2
100
AcDbLine
 10
6166.766565
 20
2326.953774
 30
0.0
 11
6155.266565
 21
2326.953774
 31
0.0
  0
LINE
  5
229
100
AcDbEntity
  8
0
 62
     2
100
AcDbLine
 10
6166.766565
 20
2319.953774
 30
0.0
 11
6155.266565
 21
2319.953774
 31
0.0
  0
LINE
  5
22A
100
AcDbEntity
  8
0
 62
     2
100
AcDbLine
 10
6166.666565
 20
2318.953774
 30
0.0
 11
6166.666565
 21
2311.953774
 31
0.0
  0
LINE
  5
22B
100
AcDbEntity
  8
0
 62
     2
100
AcDbLine
 10
6166.766565
 20
2326.953774
 30
0.0
 11
6166.766565
 21
2319.953774
 31
0.0
  0
LINE
  5
22C
100
AcDbEntity
  8
0
 62
     2
100
AcDbLine
 10
6155.266565
 20
2326.953774
 30
0.0
 11
6155.266565
 21
2319.953774
 31
0.0
  0
LINE
  5
22D
100
AcDbEntity
  8
0
 62
     2
100
AcDbLine
 10
6154.266565
 20
2326.953774
 30
0.0
 11
6154.266565
 21
2319.953774
 31
0.0
  0
TEXT
  5
22E
100
AcDbEntity
  8
0
 62
     3
100
AcDbText
 10
6162.683531
 20
2329.575915
 30
0.0
 40
3.5
  1
6
100
AcDbText
  0
POINT
  5
22F
100
AcDbEntity
  8
DEFPOINTS
  6
BYBLOCK
 62
     0
100
AcDbPoint
 10
6082.147532
 20
2305.071536
 30
0.0
  0
ARC
  5
230
100
AcDbEntity
  8
0
100
AcDbCircle
 10
6086.591545
 20
2307.362986
 30
0.0
 40
5.0
100
AcDbArc
 50
180.0
 51
270.0
  0
TEXT
  5
231
100
AcDbEntity
  8
0
 62
     3
100
AcDbText
 10
6084.819396
 20
2324.474129
 30
0.0
 40
2.5
  1
Vordruck/Precharge pressure
 41
1.078418
 72
     5
 11
6133.226897
 21
2324.474129
 31
0.0
100
AcDbText
  0
TEXT
  5
232
100
AcDbEntity
  8
0
 62
     3
100
AcDbText
 10
6084.819396
 20
2320.705535
 30
0.0
 40
2.5
  1
(werksseitig,bauseits/factory,site)
 41
0.928142
 72
     5
 11
6133.226897
 21
2320.705535
 31
0.0
100
AcDbText
1001
GENIUS_GENTRA_14
1002
{
1070
     1
1000
//
1000
(werksseitig,bauseits/factory,site)
1000
DEU
1070
     0
1040
0.762895
1070
     0
1002
}
  0
TEXT
  5
234
100
AcDbEntity
  8
0
 62
     3
100
AcDbText
 10
6085.274899
 20
2314.194839
 30
0.0
 40
3.5
  1
Bauartzulassung/Tuv type test code
 41
0.709812
 72
     5
 11
6140.073278
 21
2314.194839
 31
0.0
100
AcDbText
  0
LINE
  5
235
100
AcDbEntity
  8
0
 62
     2
100
AcDbLine
 10
6107.950741
 20
2393.202493
 30
0.0
 11
6093.480808
 21
2393.202493
 31
0.0
  0
ARC
  5
236
100
AcDbEntity
  8
0
100
AcDbCircle
 10
6086.591545
 20
2392.362986
 30
0.0
 40
5.0
100
AcDbArc
 50
90.0
 51
180.0
  0
LINE
  5
237
100
AcDbEntity
  8
0
 62
     2
100
AcDbLine
 10
6171.189682
 20
2390.458507
 30
0.0
 11
6171.189682
 21
2390.038508
 31
0.0
  0
LINE
  5
238
100
AcDbEntity
  8
0
 62
     2
100
AcDbLine
 10
6171.189682
 20
2388.526509
 30
0.0
 11
6171.189682
 21
2388.10651
 31
0.0
  0
LINE
  5
239
100
AcDbEntity
  8
0
 62
     2
100
AcDbLine
 10
6171.189682
 20
2386.678511
 30
0.0
 11
6171.189682
 21
2386.258512
 31
0.0
  0
LINE
  5
23A
100
AcDbEntity
  8
0
 62
     2
100
AcDbLine
 10
6169.528691
 20
2388.10651
 30
0.0
 11
6171.189682
 21
2388.10651
 31
0.0
  0
LINE
  5
23B
100
AcDbEntity
  8
0
 62
     2
100
AcDbLine
 10
6169.518105
 20
2388.19051
 30
0.0
 11
6171.189682
 21
2388.19051
 31
0.0
  0
LINE
  5
23C
100
AcDbEntity
  8
0
 62
     2
100
AcDbLine
 10
6169.511785
 20
2388.27451
 30
0.0
 11
6171.189682
 21
2388.27451
 31
0.0
  0
LINE
  5
23D
100
AcDbEntity
  8
0
 62
     2
100
AcDbLine
 10
6169.518105
 20
2388.526509
 30
0.0
 11
6171.189682
 21
2388.526509
 31
0.0
  0
LINE
  5
23E
100
AcDbEntity
  8
0
 62
     2
100
AcDbLine
 10
6169.511785
 20
2388.442509
 30
0.0
 11
6171.189682
 21
2388.442509
 31
0.0
  0
LINE
  5
23F
100
AcDbEntity
  8
0
 62
     2
100
AcDbLine
 10
6169.509683
 20
2388.35851
 30
0.0
 11
6171.189682
 21
2388.35851
 31
0.0
  0
ARC
  5
240
100
AcDbEntity
  8
0
 62
     2
100
AcDbCircle
 10
6171.189682
 20
2388.35851
 30
0.0
 40
1.763998
100
AcDbArc
 50
90.0
 51
270.0
  0
ARC
  5
241
100
AcDbEntity
  8
0
 62
     2
100
AcDbCircle
 10
6171.189682
 20
2388.35851
 30
0.0
 40
1.847998
100
AcDbArc
 50
90.0
 51
270.0
  0
ARC
  5
242
100
AcDbEntity
  8
0
 62
     2
100
AcDbCircle
 10
6171.189682
 20
2388.35851
 30
0.0
 40
1.931998
100
AcDbArc
 50
90.0
 51
270.0
  0
ARC
  5
243
100
AcDbEntity
  8
0
 62
     2
100
AcDbCircle
 10
6171.189682
 20
2388.35851
 30
0.0
 40
2.015998
100
AcDbArc
 50
90.0
 51
270.0
  0
ARC
  5
244
100
AcDbEntity
  8
0
 62
     2
100
AcDbCircle
 10
6171.189682
 20
2388.35851
 30
0.0
 40
2.099998
100
AcDbArc
 50
90.0
 51
270.0
  0
ARC
  5
245
100
AcDbEntity
  8
0
 62
     2
100
AcDbCircle
 10
6171.189682
 20
2388.35851
 30
0.0
 40
1.679998
100
AcDbArc
 50
90.0
 51
270.0
  0
TEXT
  5
246
100
AcDbEntity
  8
0
 62
     3
100
AcDbText
 10
6140.553527
 20
2369.274392
 30
0.0
 40
3.5
  1
Reflexomat
100
AcDbText
  0
LINE
  5
247
100
AcDbEntity
  8
0
 62
     2
100
AcDbLine
 10
6166.766565
 20
2334.953774
 30
0.0
 11
6141.766565
 21
2334.953774
 31
0.0
  0
LINE
  5
248
100
AcDbEntity
  8
0
 62
     2
100
AcDbLine
 10
6166.766565
 20
2335.953774
 30
0.0
 11
6141.766565
 21
2335.953774
 31
0.0
  0
LINE
  5
249
100
AcDbEntity
  8
0
 62
     2
100
AcDbLine
 10
6166.766565
 20
2351.953774
 30
0.0
 11
6141.766565
 21
2351.953774
 31
0.0
  0
LINE
  5
24A
100
AcDbEntity
  8
0
 62
     2
100
AcDbLine
 10
6166.766565
 20
2350.953774
 30
0.0
 11
6141.766565
 21
2350.953774
 31
0.0
  0
LINE
  5
24B
100
AcDbEntity
  8
0
 62
     2
100
AcDbLine
 10
6166.766565
 20
2343.953774
 30
0.0
 11
6141.766565
 21
2343.953774
 31
0.0
  0
LINE
  5
24C
100
AcDbEntity
  8
0
 62
     2
100
AcDbLine
 10
6166.766565
 20
2342.953774
 30
0.0
 11
6141.766565
 21
2342.953774
 31
0.0
  0
LINE
  5
24D
100
AcDbEntity
  8
0
 62
     2
100
AcDbLine
 10
6166.766565
 20
2359.953774
 30
0.0
 11
6141.766565
 21
2359.953774
 31
0.0
  0
LINE
  5
24E
100
AcDbEntity
  8
0
 62
     2
100
AcDbLine
 10
6166.766565
 20
2358.953774
 30
0.0
 11
6141.766565
 21
2358.953774
 31
0.0
  0
LINE
  5
24F
100
AcDbEntity
  8
0
 62
     2
100
AcDbLine
 10
6166.766565
 20
2366.953774
 30
0.0
 11
6141.766565
 21
2366.953774
 31
0.0
  0
LINE
  5
250
100
AcDbEntity
  8
0
 62
     2
100
AcDbLine
 10
6141.766565
 20
2359.953774
 30
0.0
 11
6141.766565
 21
2366.953774
 31
0.0
  0
LINE
  5
251
100
AcDbEntity
  8
0
 62
     2
100
AcDbLine
 10
6141.766565
 20
2343.953774
 30
0.0
 11
6141.766565
 21
2350.953774
 31
0.0
  0
LINE
  5
252
100
AcDbEntity
  8
0
 62
     2
100
AcDbLine
 10
6141.766565
 20
2351.953774
 30
0.0
 11
6141.766565
 21
2358.953774
 31
0.0
  0
LINE
  5
253
100
AcDbEntity
  8
0
 62
     2
100
AcDbLine
 10
6141.766565
 20
2335.953774
 30
0.0
 11
6141.766565
 21
2342.953774
 31
0.0
  0
TEXT
  5
254
100
AcDbEntity
  8
0
 62
     3
100
AcDbText
 10
6157.086181
 20
2353.737205
 30
0.0
 40
3.5
  1
400
100
AcDbText
  0
LINE
  5
255
100
AcDbEntity
  8
0
 62
     2
100
AcDbLine
 10
6167.017904
 20
2390.458507
 30
0.0
 11
6167.017904
 21
2389.954508
 31
0.0
  0
LINE
  5
256
100
AcDbEntity
  8
0
 62
     2
100
AcDbLine
 10
6167.017904
 20
2386.762511
 30
0.0
 11
6167.017904
 21
2386.258512
 31
0.0
  0
ARC
  5
257
100
AcDbEntity
  8
0
 62
     2
100
AcDbCircle
 10
6167.017904
 20
2388.35851
 30
0.0
 40
1.763998
100
AcDbArc
 50
90.0
 51
270.0
  0
ARC
  5
258
100
AcDbEntity
  8
0
 62
     2
100
AcDbCircle
 10
6167.017904
 20
2388.35851
 30
0.0
 40
1.847998
100
AcDbArc
 50
90.0
 51
270.0
  0
ARC
  5
259
100
AcDbEntity
  8
0
 62
     2
100
AcDbCircle
 10
6167.017904
 20
2388.35851
 30
0.0
 40
1.931998
100
AcDbArc
 50
90.0
 51
270.0
  0
ARC
  5
25A
100
AcDbEntity
  8
0
 62
     2
100
AcDbCircle
 10
6167.017904
 20
2388.35851
 30
0.0
 40
2.015998
100
AcDbArc
 50
90.0
 51
270.0
  0
ARC
  5
25B
100
AcDbEntity
  8
0
 62
     2
100
AcDbCircle
 10
6167.017904
 20
2388.35851
 30
0.0
 40
2.099998
100
AcDbArc
 50
90.0
 51
270.0
  0
ARC
  5
25C
100
AcDbEntity
  8
0
 62
     2
100
AcDbCircle
 10
6167.017904
 20
2388.35851
 30
0.0
 40
1.595998
100
AcDbArc
 50
90.0
 51
270.0
  0
ARC
  5
25D
100
AcDbEntity
  8
0
 62
     2
100
AcDbCircle
 10
6167.017904
 20
2388.35851
 30
0.0
 40
1.679998
100
AcDbArc
 50
90.0
 51
270.0
  0
LINE
  5
25E
100
AcDbEntity
  8
0
 62
     2
100
AcDbLine
 10
6166.766565
 20
2375.064061
 30
0.0
 11
6166.766565
 21
2368.064061
 31
0.0
  0
TEXT
  5
25F
100
AcDbEntity
  8
0
 62
     3
100
AcDbText
 10
6154.737921
 20
2361.737205
 30
0.0
 40
3.5
  1
2001
100
AcDbText
  0
LINE
  5
260
100
AcDbEntity
  8
0
 62
     2
100
AcDbLine
 10
6166.766565
 20
2366.953774
 30
0.0
 11
6166.766565
 21
2359.953774
 31
0.0
  0
LINE
  5
261
100
AcDbEntity
  8
0
 62
     2
100
AcDbLine
 10
6166.766565
 20
2350.953774
 30
0.0
 11
6166.766565
 21
2343.953774
 31
0.0
  0
LINE
  5
262
100
AcDbEntity
  8
0
 62
     2
100
AcDbLine
 10
6166.766565
 20
2358.953774
 30
0.0
 11
6166.766565
 21
2351.953774
 31
0.0
  0
TEXT
  5
263
100
AcDbEntity
  8
0
 62
     3
100
AcDbText
 10
6157.69348
 20
2337.71359
 30
0.0
 40
3.5
  1
393
100
AcDbText
  0
LINE
  5
264
100
AcDbEntity
  8
0
 62
     2
100
AcDbLine
 10
6166.766565
 20
2342.953774
 30
0.0
 11
6166.766565
 21
2335.953774
 31
0.0
  0
LINE
  5
265
100
AcDbEntity
  8
0
 62
     2
100
AcDbLine
 10
6093.480808
 20
2388.980202
 30
0.0
 11
6107.950741
 21
2388.980202
 31
0.0
  0
TEXT
  5
266
100
AcDbEntity
  8
0
 62
     3
100
AcDbText
 10
6085.091348
 20
2361.561049
 30
0.0
 40
3.5
  1
Baujahr/Year
 41
0.824676
 72
     5
 11
6108.615218
 21
2361.561049
 31
0.0
100
AcDbText
  0
TEXT
  5
267
100
AcDbEntity
  8
0
 62
     3
100
AcDbText
 10
6085.091348
 20
2354.038142
 30
0.0
 40
3.5
  1
Inhalt/Volume
 41
0.824098
 72
     5
 11
6108.88717
 21
2354.038142
 31
0.0
100
AcDbText
  0
TEXT
  5
268
100
AcDbEntity
  8
0
 62
     3
100
AcDbText
 10
6084.955372
 20
2345.563366
 30
0.0
 40
3.5
  1
Fabr.Nr./Serial no.
 41
0.640941
 72
     5
 11
6109.295099
 21
2345.563366
 31
0.0
100
AcDbText
  0
TEXT
  5
269
100
AcDbEntity
  8
0
 62
     3
100
AcDbText
 10
6084.545695
 20
2385.648749
 30
0.0
 40
1.863063
  1
Winkelmann + Pannhoff GmbH + Co.Kg
 41
0.796639
  7
ISO8
 72
     5
 11
6117.333277
 21
2385.648749
 31
0.0
100
AcDbText
  0
TEXT
  5
26B
100
AcDbEntity
  8
0
 62
     3
100
AcDbText
 10
6084.545694
 20
2382.436621
 30
0.0
 40
1.863063
  1
Gersteinstraße 19  D-59227 Ahlen/Westf.
 41
0.707787
  7
ISO8
 72
     5
 11
6117.333275
 21
2382.436621
 31
0.0
100
AcDbText
  0
TEXT
  5
26C
100
AcDbEntity
  8
0
 62
     2
100
AcDbText
 10
6085.138383
 20
2369.797646
 30
0.0
 40
3.5
  1
Typ/Type
 41
1.602146
 72
     5
 11
6116.820821
 21
2369.797646
 31
0.0
100
AcDbText
  0
LINE
  5
26D
100
AcDbEntity
  8
0
 62
     2
100
AcDbLine
 10
6118.766565
 20
2368.064061
 30
0.0
 11
6118.766565
 21
2375.064061
 31
0.0
  0
LINE
  5
26E
100
AcDbEntity
  8
0
 62
     2
100
AcDbLine
 10
6118.766565
 20
2375.064061
 30
0.0
 11
6166.766565
 21
2375.064061
 31
0.0
  0
LINE
  5
26F
100
AcDbEntity
  8
0
 62
     2
100
AcDbLine
 10
6166.766565
 20
2368.064061
 30
0.0
 11
6118.766565
 21
2368.064061
 31
0.0
  0
TEXT
  5
270
100
AcDbEntity
  8
0
 62
     3
100
AcDbText
 10
6085.091348
 20
2337.768497
 30
0.0
 40
3.5
  1
zul.Temperatur/Max.temperature
 41
0.782908
 72
     5
 11
6139.209846
 21
2337.768497
 31
0.0
100
AcDbText
  0
MTEXT
  5
271
100
AcDbEntity
  8
0
 62
     2
100
AcDbMText
 10
6121.229396
 20
2389.355592
 30
0.0
 40
3.0
 41
61.74
 71
     1
 72
     5
  1
\fArial Black|b0|i0|c0|p34;Membran-
1001
ACAD
1000
MTEXTBEGIN
1070
    73
1070
     1
1070
    44
1040
1.0
1070
    74
1070
     0
1000
MTEXTEND
  0
INSERT
  5
272
100
AcDbEntity
  8
AM_4
100
AcDbBlockReference
  2
REFLEX-LOGO
 10
6095.218494
 20
2389.205689
 30
0.0
 41
0.432319
 42
0.432319
 43
0.432319
  0
LINE
  5
273
100
AcDbEntity
  8
0
 62
     2
100
AcDbLine
 10
6093.480808
 20
2393.202493
 30
0.0
 11
6093.480808
 21
2388.980202
 31
0.0
  0
LINE
  5
274
100
AcDbEntity
  8
0
 62
     2
100
AcDbLine
 10
6107.950741
 20
2388.980202
 30
0.0
 11
6107.950741
 21
2393.202493
 31
0.0
  0
LINE
  5
275
100
AcDbEntity
  8
0
100
AcDbLine
 10
6176.591545
 20
2392.362986
 30
0.0
 11
6176.591545
 21
2307.362986
 31
0.0
  0
ARC
  5
276
100
AcDbEntity
  8
0
100
AcDbCircle
 10
6171.591545
 20
2307.362986
 30
0.0
 40
5.0
100
AcDbArc
 50
270.0
 51
0.0
  0
ARC
  5
277
100
AcDbEntity
  8
0
100
AcDbCircle
 10
6171.591545
 20
2392.362986
 30
0.0
 40
5.0
100
AcDbArc
 50
0.0
 51
90.0
  0
ARC
  5
278
100
AcDbEntity
  8
AM_0
100
AcDbCircle
 10
6496.341545
 20
2263.502073
 30
0.0
 40
2.75
100
AcDbArc
 50
315.0
 51
0.0
1001
GENIUS_GENODEF_13
1002
{
1000
HIER
1070
     0
1002
}
1002
{
1000
MANEDIT
1070
     0
1002
}
1002
{
1000
NOSEL
1070
     0
1002
}
1002
{
1000
BEHIND
1070
     0
1002
}
1002
{
1000
REACTOR
1002
}
1001
GENIUS_GENOBJ-N-FIL_13
1002
{
1000
OWNER
1000
GEN
1002
}
  0
LINE
  5
279
100
AcDbEntity
  8
AM_0
100
AcDbLine
 10
6498.286089
 20
2261.557529
 30
0.0
 11
6497.705922
 21
2260.977362
 31
0.0
  0
ARC
  5
27A
100
AcDbEntity
  8
AM_0
100
AcDbCircle
 10
6498.413028
 20
2260.270255
 30
0.0
 40
1.0
100
AcDbArc
 50
135.0
 51
176.0
1001
GENIUS_GENODEF_13
1002
{
1000
HIER
1070
     0
1002
}
1002
{
1000
MANEDIT
1070
     0
1002
}
1002
{
1000
NOSEL
1070
     0
1002
}
1002
{
1000
BEHIND
1070
     0
1002
}
1002
{
1000
REACTOR
1002
}
1001
GENIUS_GENOBJ-N-FIL_13
1002
{
1000
OWNER
1000
GEN
1002
}
  0
LINE
  5
27B
100
AcDbEntity
  8
AM_0
100
AcDbLine
 10
6497.341545
 20
2259.282919
 30
0.0
 11
6497.415464
 21
2260.340012
 31
0.0
  0
ARC
  5
27C
100
AcDbEntity
  8
AM_0
100
AcDbCircle
 10
6139.486545
 20
2784.385891
 30
0.0
 40
6.127095
100
AcDbArc
 50
64.438469
 51
124.438469
  0
ARC
  5
27D
100
AcDbEntity
  8
AM_0
100
AcDbCircle
 10
6139.486545
 20
2781.84008
 30
0.0
 40
6.127095
100
AcDbArc
 50
235.561531
 51
295.561531
  0
LINE
  5
27E
100
AcDbEntity
  8
AM_0
100
AcDbLine
 10
6136.021545
 20
2776.786857
 30
0.0
 11
6136.021545
 21
2789.439114
 31
0.0
  0
LINE
  5
27F
100
AcDbEntity
  8
AM_0
100
AcDbLine
 10
6142.951545
 20
2789.439114
 30
0.0
 11
6141.091545
 21
2790.512986
 31
0.0
  0
LINE
  5
280
100
AcDbEntity
  8
AM_0
100
AcDbLine
 10
6142.951545
 20
2776.786857
 30
0.0
 11
6141.091545
 21
2775.712986
 31
0.0
  0
LINE
  5
281
100
AcDbEntity
  8
AM_0
100
AcDbLine
 10
6142.951545
 20
2776.786857
 30
0.0
 11
6142.951545
 21
2789.439114
 31
0.0
  0
LINE
  5
282
100
AcDbEntity
  8
AM_0
100
AcDbLine
 10
6137.071126
 20
2790.512986
 30
0.0
 11
6137.071126
 21
2809.23774
 31
0.0
  0
LINE
  5
283
100
AcDbEntity
  8
AM_4
100
AcDbLine
 10
6136.071126
 20
2810.23774
 30
0.0
 11
6136.071126
 21
2790.512986
 31
0.0
  0
LINE
  5
284
100
AcDbEntity
  8
AM_0
100
AcDbLine
 10
6137.071126
 20
2809.23774
 30
0.0
 11
6136.071126
 21
2810.23774
 31
0.0
  0
ARC
  5
285
100
AcDbEntity
  8
AM_0
100
AcDbCircle
 10
6118.696545
 20
2784.385891
 30
0.0
 40
6.127095
100
AcDbArc
 50
55.561531
 51
115.561531
  0
ARC
  5
286
100
AcDbEntity
  8
AM_0
100
AcDbCircle
 10
6118.696545
 20
2781.84008
 30
0.0
 40
6.127095
100
AcDbArc
 50
244.438469
 51
304.438469
  0
LINE
  5
287
100
AcDbEntity
  8
AM_0
100
AcDbLine
 10
6115.231545
 20
2789.439114
 30
0.0
 11
6117.091545
 21
2790.512986
 31
0.0
  0
LINE
  5
288
100
AcDbEntity
  8
AM_0
100
AcDbLine
 10
6115.231545
 20
2776.786857
 30
0.0
 11
6117.091545
 21
2775.712986
 31
0.0
  0
LINE
  5
289
100
AcDbEntity
  8
AM_0
100
AcDbLine
 10
6115.231545
 20
2776.786857
 30
0.0
 11
6115.231545
 21
2789.439114
 31
0.0
  0
LINE
  5
28A
100
AcDbEntity
  8
AM_0
100
AcDbLine
 10
6122.161545
 20
2776.786857
 30
0.0
 11
6122.161545
 21
2789.439114
 31
0.0
  0
LINE
  5
28B
100
AcDbEntity
  8
AM_0
100
AcDbLine
 10
6121.071126
 20
2790.512986
 30
0.0
 11
6121.071126
 21
2809.23774
 31
0.0
  0
LINE
  5
28C
100
AcDbEntity
  8
AM_4
100
AcDbLine
 10
6122.071126
 20
2810.23774
 30
0.0
 11
6122.071126
 21
2790.512986
 31
0.0
  0
LINE
  5
28D
100
AcDbEntity
  8
AM_0
100
AcDbLine
 10
6121.071126
 20
2809.23774
 30
0.0
 11
6122.071126
 21
2810.23774
 31
0.0
  0
LINE
  5
28E
100
AcDbEntity
  8
AM_0
100
AcDbLine
 10
6141.091545
 20
2790.512986
 30
0.0
 11
6117.091545
 21
2790.512986
 31
0.0
  0
LINE
  5
28F
100
AcDbEntity
  8
AM_0
100
AcDbLine
 10
6141.091545
 20
2775.712986
 30
0.0
 11
6117.091545
 21
2775.712986
 31
0.0
  0
ARC
  5
290
100
AcDbEntity
  8
AM_0
100
AcDbCircle
 10
6129.091545
 20
2767.615414
 30
0.0
 40
22.897572
100
AcDbArc
 50
72.383031
 51
107.616969
  0
ARC
  5
291
100
AcDbEntity
  8
AM_0
100
AcDbCircle
 10
6129.091545
 20
2798.610558
 30
0.0
 40
22.897572
100
AcDbArc
 50
252.383031
 51
287.616969
  0
LINE
  5
292
100
AcDbEntity
  8
AM_0
100
AcDbLine
 10
6122.071126
 20
2810.23774
 30
0.0
 11
6136.071126
 21
2810.23774
 31
0.0
  0
LINE
  5
293
100
AcDbEntity
  8
AM_0
100
AcDbLine
 10
6121.071126
 20
2809.23774
 30
0.0
 11
6137.071126
 21
2809.23774
 31
0.0
  0
ARC
  5
294
100
AcDbEntity
  8
AM_0
100
AcDbCircle
 10
6366.091545
 20
2567.965775
 30
0.0
 40
133.0
100
AcDbArc
 50
0.0
 51
54.99059
1001
GENIUS_GENODEF_13
1002
{
1000
HIER
1070
     0
1002
}
1002
{
1000
MANEDIT
1070
     0
1002
}
1002
{
1000
NOSEL
1070
     0
1002
}
1002
{
1000
BEHIND
1070
     0
1002
}
1002
{
1000
REACTOR
1002
}
1001
GENIUS_GENOBJ-N-FIL_13
1002
{
1000
OWNER
1000
GEN
1002
}
  0
LINE
  5
295
100
AcDbEntity
  8
AM_0
100
AcDbLine
 10
7043.383482
 20
2263.997048
 30
0.0
 11
7043.383482
 21
2567.965775
 31
0.0
  0
LINE
  5
296
100
AcDbEntity
  8
AM_0
100
AcDbLine
 10
7041.283482
 20
2263.997048
 30
0.0
 11
7041.283482
 21
2567.965775
 31
0.0
  0
HATCH
  5
297
100
AcDbEntity
  8
AM_8
100
AcDbHatch
 10
0.0
 20
0.0
 30
0.0
210
0.0
220
0.0
230
1.0
  2
ANSI31
 70
     0
 71
     0
 91
        1
 92
        1
 93
       18
 72
     1
 10
7042.191451
 20
2261.805017
 11
7043.019106
 21
2260.977362
 72
     2
 10
7042.311999
 20
2260.270255
 40
1.0
 50
315.0
 51
356.0
 73
     0
 72
     1
 10
7043.309563
 20
2260.340012
 11
7043.383482
 21
2259.282919
 72
     1
 10
7043.383482
 20
2259.282919
 11
7043.98275
 21
2250.712986
 72
     1
 10
7043.98275
 20
2250.712986
 11
7044.157615
 21
2250.712986
 72
     2
 10
7044.157615
 20
2252.512986
 40
1.8
 50
270.0
 51
364.0
 73
     1
 72
     1
 10
7045.95323
 20
2252.638547
 11
7045.404448
 21
2260.4865
 72
     2
 10
7042.311999
 20
2260.270255
 40
3.1
 50
4.0
 51
45.0
 73
     1
 72
     1
 10
7044.50403
 20
2262.462286
 11
7043.676375
 21
2263.289941
 72
     2
 10
7044.383482
 20
2263.997048
 40
1.0
 50
135.0
 51
180.0
 73
     0
 72
     1
 10
7043.383482
 20
2263.997048
 11
7043.383482
 21
2567.965775
 72
     2
 10
7174.283482
 20
2567.965775
 40
130.9
 50
180.0
 51
234.99059
 73
     0
 72
     2
 10
7411.283482
 20
2229.612986
 40
544.0
 50
234.99059
 51
237.589597
 73
     0
 72
     1
 10
7119.710315
 20
2688.874445
 11
7118.659388
 21
2690.694702
 72
     2
 10
7411.283482
 20
2229.612986
 40
546.1
 50
122.401128
 51
125.00941
 73
     1
 72
     2
 10
7174.283482
 20
2567.965775
 40
133.0
 50
125.00941
 51
180.0
 73
     1
 72
     1
 10
7041.283482
 20
2567.965775
 11
7041.283482
 21
2263.997048
 72
     2
 10
7044.383482
 20
2263.997048
 40
3.1
 50
180.0
 51
225.0
 73
     1
 97
        0
 75
     0
 76
     1
 52
0.0
 41
1.0
 77
     0
 78
     1
 53
45.0
 43
9015.530948
 44
2463.907888
 45
-2.245064030267287
 46
2.245064030267288
 79
     0
 98
        1
 10
9015.530948
 20
2463.907888
1001
GENIUS_GENODEF_13
1002
{
1000
HIER
1070
     0
1002
}
1002
{
1000
MANEDIT
1070
     0
1002
}
1002
{
1000
NOSEL
1070
     0
1002
}
1002
{
1000
BEHIND
1070
     0
1002
}
1002
{
1000
REACTOR
1002
}
1001
GENIUS_GENOBJ-N-HTC_13
1002
{
1000
OWNER
1000
GEN
1002
}
1001
GENIUS_GENHATCH_13
1002
{
1000
DATA
1040
135.0
1042
2.7
1000
_U
1070
     0
1011
7041.758879
1021
2554.302937
1031
0.0
1002
}
1002
{
1000
UCS
1010
0.0
1020
0.0
1030
0.0
1010
1.0
1020
0.0
1030
0.0
1010
0.0
1020
1.0
1030
0.0
1002
}
  0
LINE
  5
298
100
AcDbEntity
  8
AM_4
100
AcDbLine
 10
7047.292491
 20
2261.642719
 30
0.0
 11
7093.033482
 21
2261.642719
 31
0.0
  0
LINE
  5
299
100
AcDbEntity
  8
AM_4
100
AcDbLine
 10
7045.352377
 20
2263.582834
 30
0.0
 11
7093.033482
 21
2263.582834
 31
0.0
  0
LINE
  5
29A
100
AcDbEntity
  8
AM_0
100
AcDbLine
 10
7043.98275
 20
2250.712986
 30
0.0
 11
7093.033482
 21
2250.712986
 31
0.0
  0
LINE
  5
29B
100
AcDbEntity
  8
AM_0
100
AcDbLine
 10
7043.98275
 20
2250.712986
 30
0.0
 11
7043.309563
 21
2260.340012
 31
0.0
  0
LINE
  5
29C
100
AcDbEntity
  8
AM_0
100
AcDbLine
 10
7042.191451
 20
2261.805017
 30
0.0
 11
7043.019106
 21
2260.977362
 31
0.0
  0
LINE
  5
29D
100
AcDbEntity
  8
AM_0
100
AcDbLine
 10
7043.676375
 20
2263.289941
 30
0.0
 11
7044.50403
 21
2262.462286
 31
0.0
  0
LINE
  5
29E
100
AcDbEntity
  8
AM_0
100
AcDbLine
 10
7045.95323
 20
2252.638547
 30
0.0
 11
7045.404448
 21
2260.4865
 31
0.0
  0
ARC
  5
29F
100
AcDbEntity
  8
AM_0
100
AcDbCircle
 10
7044.383482
 20
2263.997048
 30
0.0
 40
1.0
100
AcDbArc
 50
180.0
 51
225.0
1001
GENIUS_GENODEF_13
1002
{
1000
HIER
1070
     0
1002
}
1002
{
1000
MANEDIT
1070
     0
1002
}
1002
{
1000
NOSEL
1070
     0
1002
}
1002
{
1000
BEHIND
1070
     0
1002
}
1002
{
1000
REACTOR
1002
}
1001
GENIUS_GENOBJ-N-FIL_13
1002
{
1000
OWNER
1000
GEN
1002
}
  0
ARC
  5
2A0
100
AcDbEntity
  8
AM_0
100
AcDbCircle
 10
7042.311999
 20
2260.270255
 30
0.0
 40
1.0
100
AcDbArc
 50
4.0
 51
45.0
1001
GENIUS_GENODEF_13
1002
{
1000
HIER
1070
     0
1002
}
1002
{
1000
MANEDIT
1070
     0
1002
}
1002
{
1000
NOSEL
1070
     0
1002
}
1002
{
1000
BEHIND
1070
     0
1002
}
1002
{
1000
REACTOR
1002
}
1001
GENIUS_GENOBJ-N-FIL_13
1002
{
1000
OWNER
1000
GEN
1002
}
  0
ARC
  5
2A1
100
AcDbEntity
  8
AM_0
100
AcDbCircle
 10
7042.311999
 20
2260.270255
 30
0.0
 40
3.1
100
AcDbArc
 50
4.0
 51
45.0
1001
GENIUS_GENODEF_13
1002
{
1000
HIER
1070
     0
1002
}
1002
{
1000
MANEDIT
1070
     0
1002
}
1002
{
1000
NOSEL
1070
     0
1002
}
1002
{
1000
BEHIND
1070
     0
1002
}
1002
{
1000
REACTOR
1002
}
1001
GENIUS_GENOBJ-N-FIL_13
1002
{
1000
OWNER
1000
GEN
1002
}
  0
ARC
  5
2A2
100
AcDbEntity
  8
AM_0
100
AcDbCircle
 10
7044.383482
 20
2263.997048
 30
0.0
 40
3.1
100
AcDbArc
 50
180.0
 51
225.0
1001
GENIUS_GENODEF_13
1002
{
1000
HIER
1070
     0
1002
}
1002
{
1000
MANEDIT
1070
     0
1002
}
1002
{
1000
NOSEL
1070
     0
1002
}
1002
{
1000
BEHIND
1070
     0
1002
}
1002
{
1000
REACTOR
1002
}
1001
GENIUS_GENOBJ-N-FIL_13
1002
{
1000
OWNER
1000
GEN
1002
}
  0
ARC
  5
2A3
100
AcDbEntity
  8
AM_0
100
AcDbCircle
 10
7044.157615
 20
2252.512986
 30
0.0
 40
1.8
100
AcDbArc
 50
270.0
 51
4.0
1001
GENIUS_GENODEF_13
1002
{
1000
HIER
1070
     0
1002
}
1002
{
1000
MANEDIT
1070
     0
1002
}
1002
{
1000
NOSEL
1070
     0
1002
}
1002
{
1000
BEHIND
1070
     0
1002
}
1002
{
1000
REACTOR
1002
}
1001
GENIUS_GENOBJ-N-FIL_13
1002
{
1000
OWNER
1000
GEN
1002
}
  0
LINE
  5
2A4
100
AcDbEntity
  8
AM_0
100
AcDbLine
 10
7043.383482
 20
2259.282919
 30
0.0
 11
7041.283482
 21
2259.282919
 31
0.0
  0
ARC
  5
2A5
100
AcDbEntity
  8
AM_0
100
AcDbCircle
 10
7193.033482
 20
2594.010795
 30
0.0
 40
100.0
100
AcDbArc
 50
127.318845
 51
180.0
1001
GENIUS_GENODEF_13
1002
{
1000
HIER
1070
     0
1002
}
1002
{
1000
MANEDIT
1070
     0
1002
}
1002
{
1000
NOSEL
1070
     0
1002
}
1002
{
1000
BEHIND
1070
     0
1002
}
1002
{
1000
REACTOR
1002
}
1001
GENIUS_GENOBJ-N-FIL_13
1002
{
1000
OWNER
1000
GEN
1002
}
  0
ARC
  5
2A6
100
AcDbEntity
  8
AM_0
100
AcDbCircle
 10
7174.283482
 20
2567.965775
 30
0.0
 40
130.9
100
AcDbArc
 50
125.00941
 51
180.0
1001
GENIUS_GENODEF_13
1002
{
1000
HIER
1070
     0
1002
}
1002
{
1000
MANEDIT
1070
     0
1002
}
1002
{
1000
NOSEL
1070
     0
1002
}
1002
{
1000
BEHIND
1070
     0
1002
}
1002
{
1000
REACTOR
1002
}
1001
GENIUS_GENOBJ-N-FIL_13
1002
{
1000
OWNER
1000
GEN
1002
}
  0
ARC
  5
2A7
100
AcDbEntity
  8
AM_0
100
AcDbCircle
 10
7174.283482
 20
2567.965775
 30
0.0
 40
133.0
100
AcDbArc
 50
125.00941
 51
180.0
1001
GENIUS_GENODEF_13
1002
{
1000
HIER
1070
     0
1002
}
1002
{
1000
MANEDIT
1070
     0
1002
}
1002
{
1000
NOSEL
1070
     0
1002
}
1002
{
1000
BEHIND
1070
     0
1002
}
1002
{
1000
REACTOR
1002
}
1001
GENIUS_GENOBJ-N-FIL_13
1002
{
1000
OWNER
1000
GEN
1002
}
  0
LINE
  5
2A8
100
AcDbEntity
  8
AM_0
100
AcDbLine
 10
7131.41145
 20
2716.090517
 30
0.0
 11
7115.594692
 21
2706.494676
 31
0.0
  0
LINE
  5
2A9
100
AcDbEntity
  8
AM_0
100
AcDbLine
 10
7139.191861
 20
2703.266118
 30
0.0
 11
7131.41145
 21
2716.090517
 31
0.0
  0
LINE
  5
2AA
100
AcDbEntity
  8
AM_7
  6
AM_DIN_G_W050
 48
7.0
100
AcDbLine
 10
7122.465682
 20
2713.002516
 30
0.0
 11
7132.839565
 21
2695.903318
 31
0.0
  0
ARC
  5
2AB
100
AcDbEntity
  8
AM_0
100
AcDbCircle
 10
7411.283482
 20
2307.712109
 30
0.0
 40
460.0
100
AcDbArc
 50
91.370247
 51
127.318845
  0
ARC
  5
2AC
100
AcDbEntity
  8
AM_0
100
AcDbCircle
 10
7411.283482
 20
2307.712109
 30
0.0
 40
457.0
100
AcDbArc
 50
91.379244
 51
127.318845
  0
ARC
  5
2AD
100
AcDbEntity
  8
AM_0
100
AcDbCircle
 10
7411.283482
 20
2229.612986
 30
0.0
 40
544.0
100
AcDbArc
 50
91.158633
 51
125.00941
  0
LINE
  5
2AE
100
AcDbEntity
  8
AM_0
100
AcDbLine
 10
7115.594692
 20
2706.494676
 30
0.0
 11
7123.375103
 21
2693.670277
 31
0.0
  0
LINE
  5
2AF
100
AcDbEntity
  8
AM_0
100
AcDbLine
 10
7123.375103
 20
2693.670277
 30
0.0
 11
7139.191861
 21
2703.266118
 31
0.0
1001
GENIUS_GENOREF_13
1005
5AD
  0
ARC
  5
2B0
100
AcDbEntity
  8
AM_0
100
AcDbCircle
 10
7193.033482
 20
2594.010795
 30
0.0
 40
97.0
100
AcDbArc
 50
127.318845
 51
180.0
1001
GENIUS_GENODEF_13
1002
{
1000
HIER
1070
     0
1002
}
1002
{
1000
MANEDIT
1070
     0
1002
}
1002
{
1000
NOSEL
1070
     0
1002
}
1002
{
1000
BEHIND
1070
     0
1002
}
1002
{
1000
REACTOR
1002
}
1001
GENIUS_GENOBJ-N-FIL_13
1002
{
1000
OWNER
1000
GEN
1002
}
  0
LINE
  5
2B1
100
AcDbEntity
  8
AM_0
100
AcDbLine
 10
7175.633482
 20
2722.207409
 30
0.0
 11
7196.933482
 21
2732.207409
 31
0.0
  0
LINE
  5
2B2
100
AcDbEntity
  8
AM_0
100
AcDbLine
 10
7196.933482
 20
2747.207409
 30
0.0
 11
7175.633482
 21
2747.207409
 31
0.0
  0
LINE
  5
2B3
100
AcDbEntity
  8
AM_0
100
AcDbLine
 10
7175.633482
 20
2747.207409
 30
0.0
 11
7175.633482
 21
2722.207409
 31
0.0
  0
LINE
  5
2B4
100
AcDbEntity
  8
AM_7
100
AcDbLine
 10
7186.283482
 20
2750.665838
 30
0.0
 11
7186.283482
 21
2724.16565
 31
0.0
  0
LINE
  5
2B5
100
AcDbEntity
  8
AM_0
100
AcDbLine
 10
7196.933482
 20
2732.207409
 30
0.0
 11
7196.933482
 21
2747.207409
 31
0.0
  0
ARC
  5
2B6
100
AcDbEntity
  8
AM_0
100
AcDbCircle
 10
7411.283482
 20
2307.712109
 30
0.0
 40
466.0
100
AcDbArc
 50
91.721591
 51
105.527679
  0
HATCH
  5
2B7
100
AcDbEntity
  8
AM_8
100
AcDbHatch
 10
0.0
 20
0.0
 30
0.0
210
0.0
220
0.0
230
1.0
  2
_U
 70
     0
 71
     0
 91
        1
 92
        1
 93
        5
 72
     1
 10
7400.283482
 20
2773.501761
 11
7397.283482
 21
2773.501761
 72
     2
 10
7411.283482
 20
2307.712109
 40
466.0
 50
91.721591
 51
105.527679
 73
     1
 72
     1
 10
7286.533482
 20
2756.703687
 11
7286.533482
 21
2750.473261
 72
     2
 10
7411.283482
 20
2307.712109
 40
460.0
 50
254.264572
 51
268.629753
 73
     0
 72
     1
 10
7400.283482
 20
2767.580568
 11
7400.283482
 21
2773.501761
 97
        0
 75
     0
 76
     0
 52
45.0
 41
5.0
 77
     0
 78
     1
 53
45.0
 43
9015.530948
 44
2763.657011
 45
-3.535533905932737
 46
3.535533905932737
 79
     0
 98
        1
 10
9015.530948
 20
2763.657011
1001
GENIUS_GENODEF_13
1002
{
1000
HIER
1070
     0
1002
}
1002
{
1000
MANEDIT
1070
     0
1002
}
1002
{
1000
NOSEL
1070
     0
1002
}
1002
{
1000
BEHIND
1070
     0
1002
}
1002
{
1000
REACTOR
1002
}
1001
GENIUS_GENOBJ-N-HTC_13
1002
{
1000
OWNER
1000
GEN
1002
}
1001
GENIUS_GENHATCH_13
1002
{
1000
DATA
1040
45.0
1042
2.5
1000
_U
1070
     0
1011
7362.082845
1021
2767.547161
1031
0.0
1002
}
1002
{
1000
UCS
1010
0.0
1020
0.0
1030
0.0
1010
1.0
1020
0.0
1030
0.0
1010
0.0
1020
1.0
1030
0.0
1002
}
  0
LINE
  5
2B8
100
AcDbEntity
  8
AM_0
100
AcDbLine
 10
7286.533482
 20
2750.473261
 30
0.0
 11
7286.533482
 21
2756.703687
 31
0.0
  0
HATCH
  5
2B9
100
AcDbEntity
  8
AM_8
100
AcDbHatch
 10
0.0
 20
0.0
 30
0.0
210
0.0
220
0.0
230
1.0
  2
_U
 70
     0
 71
     0
 91
        1
 92
        1
 93
        6
 72
     2
 10
7411.283482
 20
2364.318145
 40
400.0
 50
91.181809
 51
96.258973
 73
     1
 72
     2
 10
7367.783482
 20
2760.939816
 40
1.0
 50
96.258973
 51
180.0
 73
     1
 72
     1
 10
7366.783482
 20
2760.939816
 11
7366.783482
 21
2758.927762
 72
     2
 10
7367.783482
 20
2758.927762
 40
1.0
 50
180.0
 51
276.290632
 73
     1
 72
     2
 10
7411.283482
 20
2364.318145
 40
396.0
 50
263.709368
 51
268.806252
 73
     0
 72
     1
 10
7403.033482
 20
2760.232198
 11
7403.033482
 21
2764.233057
 97
        0
 75
     0
 76
     0
 52
135.0
 41
7.0
 77
     0
 78
     1
 53
135.0
 43
0.0
 44
0.0
 45
-4.949747468305833
 46
-4.949747468305831
 79
     0
 98
        1
 10
0.0
 20
0.0
1001
GENIUS_GENOBJ-N-HTC_13
1002
{
1000
OWNER
1000
GEN
1002
}
1001
GENIUS_GENODEF_13
1002
{
1000
HIER
1070
     0
1002
}
1002
{
1000
MANEDIT
1070
     0
1002
}
1002
{
1000
NOSEL
1070
     0
1002
}
1002
{
1000
BEHIND
1070
     0
1002
}
1002
{
1000
OTHER
1070
     0
1002
}
1002
{
1000
REACTOR
1002
}
1001
GENIUS_GENHATCH_13
1002
{
1000
DATA
1040
135.0
1042
1.0
1000
_U
1070
     0
1011
7385.341432
1021
2761.057353
1031
0.0
1002
}
1002
{
1000
UCS
1010
0.0
1020
0.0
1030
0.0
1010
1.0
1020
0.0
1030
0.0
1010
0.0
1020
1.0
1030
0.0
1002
}
  0
ARC
  5
2BA
100
AcDbEntity
  8
AM_0
100
AcDbCircle
 10
7421.678482
 20
2784.385891
 30
0.0
 40
6.127095
100
AcDbArc
 50
64.438469
 51
124.438469
  0
ARC
  5
2BB
100
AcDbEntity
  8
AM_0
100
AcDbCircle
 10
7421.678482
 20
2781.84008
 30
0.0
 40
6.127095
100
AcDbArc
 50
235.561531
 51
295.561531
  0
LINE
  5
2BC
100
AcDbEntity
  8
AM_0
100
AcDbLine
 10
7418.213482
 20
2776.786857
 30
0.0
 11
7418.213482
 21
2789.439114
 31
0.0
  0
LINE
  5
2BD
100
AcDbEntity
  8
AM_0
100
AcDbLine
 10
7425.143482
 20
2789.439114
 30
0.0
 11
7423.283482
 21
2790.512986
 31
0.0
  0
LINE
  5
2BE
100
AcDbEntity
  8
AM_0
100
AcDbLine
 10
7425.143482
 20
2776.786857
 30
0.0
 11
7423.283482
 21
2775.712986
 31
0.0
  0
LINE
  5
2BF
100
AcDbEntity
  8
AM_0
100
AcDbLine
 10
7425.143482
 20
2776.786857
 30
0.0
 11
7425.143482
 21
2789.439114
 31
0.0
  0
LINE
  5
2C0
100
AcDbEntity
  8
AM_0
100
AcDbLine
 10
7419.263063
 20
2790.512986
 30
0.0
 11
7419.263063
 21
2809.23774
 31
0.0
  0
LINE
  5
2C1
100
AcDbEntity
  8
AM_4
100
AcDbLine
 10
7418.263063
 20
2810.23774
 30
0.0
 11
7418.263063
 21
2790.512986
 31
0.0
  0
LINE
  5
2C2
100
AcDbEntity
  8
AM_0
100
AcDbLine
 10
7419.263063
 20
2760.23774
 30
0.0
 11
7419.263063
 21
2775.712986
 31
0.0
  0
LINE
  5
2C3
100
AcDbEntity
  8
AM_4
100
AcDbLine
 10
7418.263063
 20
2775.712986
 30
0.0
 11
7418.263063
 21
2760.23774
 31
0.0
  0
LINE
  5
2C4
100
AcDbEntity
  8
AM_0
100
AcDbLine
 10
7419.533482
 20
2760.232198
 30
0.0
 11
7419.533482
 21
2764.233057
 31
0.0
  0
LINE
  5
2C5
100
AcDbEntity
  8
AM_0
100
AcDbLine
 10
7419.263063
 20
2809.23774
 30
0.0
 11
7418.263063
 21
2810.23774
 31
0.0
  0
LINE
  5
2C6
100
AcDbEntity
  8
AM_0
100
AcDbLine
 10
7422.283482
 20
2764.579705
 30
0.0
 11
7422.283482
 21
2775.602189
 31
0.0
  0
LINE
  5
2C7
100
AcDbEntity
  8
AM_0
100
AcDbLine
 10
7425.283482
 20
2773.501761
 30
0.0
 11
7422.283482
 21
2773.501761
 31
0.0
  0
ARC
  5
2C8
100
AcDbEntity
  8
AM_0
100
AcDbCircle
 10
7400.888482
 20
2784.385891
 30
0.0
 40
6.127095
100
AcDbArc
 50
55.561531
 51
115.561531
  0
ARC
  5
2C9
100
AcDbEntity
  8
AM_0
100
AcDbCircle
 10
7400.888482
 20
2781.84008
 30
0.0
 40
6.127095
100
AcDbArc
 50
244.438469
 51
304.438469
  0
LINE
  5
2CA
100
AcDbEntity
  8
AM_0
100
AcDbLine
 10
7397.423482
 20
2789.439114
 30
0.0
 11
7399.283482
 21
2790.512986
 31
0.0
  0
LINE
  5
2CB
100
AcDbEntity
  8
AM_0
100
AcDbLine
 10
7397.423482
 20
2776.786857
 30
0.0
 11
7399.283482
 21
2775.712986
 31
0.0
  0
LINE
  5
2CC
100
AcDbEntity
  8
AM_0
100
AcDbLine
 10
7397.423482
 20
2776.786857
 30
0.0
 11
7397.423482
 21
2789.439114
 31
0.0
  0
LINE
  5
2CD
100
AcDbEntity
  8
AM_0
100
AcDbLine
 10
7404.353482
 20
2776.786857
 30
0.0
 11
7404.353482
 21
2789.439114
 31
0.0
  0
LINE
  5
2CE
100
AcDbEntity
  8
AM_0
100
AcDbLine
 10
7403.263063
 20
2790.512986
 30
0.0
 11
7403.263063
 21
2809.23774
 31
0.0
  0
LINE
  5
2CF
100
AcDbEntity
  8
AM_4
100
AcDbLine
 10
7404.263063
 20
2810.23774
 30
0.0
 11
7404.263063
 21
2790.512986
 31
0.0
  0
LINE
  5
2D0
100
AcDbEntity
  8
AM_0
100
AcDbLine
 10
7403.263063
 20
2760.23774
 30
0.0
 11
7403.263063
 21
2775.712986
 31
0.0
  0
LINE
  5
2D1
100
AcDbEntity
  8
AM_4
100
AcDbLine
 10
7404.263063
 20
2775.712986
 30
0.0
 11
7404.263063
 21
2760.23774
 31
0.0
  0
LINE
  5
2D2
100
AcDbEntity
  8
AM_0
100
AcDbLine
 10
7403.033482
 20
2760.232198
 30
0.0
 11
7403.033482
 21
2764.233057
 31
0.0
  0
LINE
  5
2D3
100
AcDbEntity
  8
AM_0
100
AcDbLine
 10
7403.263063
 20
2809.23774
 30
0.0
 11
7404.263063
 21
2810.23774
 31
0.0
  0
LINE
  5
2D4
100
AcDbEntity
  8
AM_0
100
AcDbLine
 10
7400.283482
 20
2764.579705
 30
0.0
 11
7400.283482
 21
2775.602189
 31
0.0
  0
LINE
  5
2D5
100
AcDbEntity
  8
AM_0
100
AcDbLine
 10
7400.283482
 20
2773.501761
 30
0.0
 11
7397.283482
 21
2773.501761
 31
0.0
  0
LINE
  5
2D6
100
AcDbEntity
  8
AM_0
100
AcDbLine
 10
7366.783482
 20
2760.939816
 30
0.0
 11
7366.783482
 21
2758.927762
 31
0.0
  0
ARC
  5
2D7
100
AcDbEntity
  8
AM_0
100
AcDbCircle
 10
7367.783482
 20
2758.927762
 30
0.0
 40
1.0
100
AcDbArc
 50
180.0
 51
276.290632
  0
ARC
  5
2D8
100
AcDbEntity
  8
AM_0
100
AcDbCircle
 10
7367.783482
 20
2760.939816
 30
0.0
 40
1.0
100
AcDbArc
 50
96.258973
 51
180.0
  0
ARC
  5
2D9
100
AcDbEntity
  8
AM_0
100
AcDbCircle
 10
7411.283482
 20
2364.318145
 30
0.0
 40
396.0
100
AcDbArc
 50
91.154614
 51
96.290632
  0
ARC
  5
2DA
100
AcDbEntity
  8
AM_0
100
AcDbCircle
 10
7411.283482
 20
2364.318145
 30
0.0
 40
400.0
100
AcDbArc
 50
91.143067
 51
96.258973
  0
ARC
  5
2DB
100
AcDbEntity
  8
AM_0
100
AcDbCircle
 10
7411.283482
 20
2314.601285
 30
0.0
 40
461.1117
100
AcDbArc
 50
85.989478
 51
90.0
  0
LINE
  5
2DC
100
AcDbEntity
  8
AM_0
100
AcDbLine
 10
7423.283482
 20
2790.512986
 30
0.0
 11
7399.283482
 21
2790.512986
 31
0.0
  0
LINE
  5
2DD
100
AcDbEntity
  8
AM_0
100
AcDbLine
 10
7423.283482
 20
2775.712986
 30
0.0
 11
7399.283482
 21
2775.712986
 31
0.0
  0
ARC
  5
2DE
100
AcDbEntity
  8
AM_0
100
AcDbCircle
 10
7411.283482
 20
2767.615414
 30
0.0
 40
22.897572
100
AcDbArc
 50
72.383031
 51
107.616969
  0
ARC
  5
2DF
100
AcDbEntity
  8
AM_0
100
AcDbCircle
 10
7411.283482
 20
2798.610558
 30
0.0
 40
22.897572
100
AcDbArc
 50
252.383031
 51
287.616969
  0
LINE
  5
2E0
100
AcDbEntity
  8
AM_0
100
AcDbLine
 10
7404.263063
 20
2810.23774
 30
0.0
 11
7418.263063
 21
2810.23774
 31
0.0
  0
LINE
  5
2E1
100
AcDbEntity
  8
AM_0
100
AcDbLine
 10
7419.263063
 20
2760.23774
 30
0.0
 11
7403.263063
 21
2760.23774
 31
0.0
  0
LINE
  5
2E2
100
AcDbEntity
  8
AM_0
100
AcDbLine
 10
7403.263063
 20
2809.23774
 30
0.0
 11
7419.263063
 21
2809.23774
 31
0.0
  0
LINE
  5
2E3
100
AcDbEntity
  8
AM_0
100
AcDbLine
 10
7781.283482
 20
2259.282919
 30
0.0
 11
7781.283482
 21
1943.043446
 31
0.0
  0
LINE
  5
2E4
100
AcDbEntity
  8
AM_0
100
AcDbLine
 10
7779.183482
 20
2259.282919
 30
0.0
 11
7779.183482
 21
1943.043446
 31
0.0
  0
HATCH
  5
2E5
100
AcDbEntity
  8
AM_8
100
AcDbHatch
 10
0.0
 20
0.0
 30
0.0
210
0.0
220
0.0
230
1.0
  2
_U
 70
     0
 71
     0
 91
        2
 92
        1
 93
        4
 72
     1
 10
7781.283482
 20
2097.625892
 11
7779.183482
 21
2097.625892
 72
     1
 10
7779.183482
 20
2097.625892
 11
7779.183482
 21
2259.282919
 72
     1
 10
7779.183482
 20
2259.282919
 11
7781.283482
 21
2259.282919
 72
     1
 10
7781.283482
 20
2259.282919
 11
7781.283482
 21
2097.625892
 97
        0
 92
        1
 93
       12
 72
     3
 10
7648.283482
 20
1943.043446
 11
94.045202
 21
94.045202
 40
1.0
 50
45.0
 51
99.99059
 73
     0
 72
     3
 10
7411.283482
 20
2281.396235
 11
-386.151013
 21
386.151013
 40
1.0
 50
189.99059
 51
216.523202
 73
     0
 72
     1
 10
7491.783482
 20
1741.26203
 11
7491.783482
 21
1735.082919
 72
     1
 10
7491.783482
 20
1735.082919
 11
7497.683482
 21
1735.082919
 72
     1
 10
7497.683482
 20
1735.082919
 11
7497.683482
 21
1734.282919
 72
     1
 10
7497.683482
 20
1734.282919
 11
7489.683482
 21
1734.282919
 72
     1
 10
7489.683482
 20
1734.282919
 11
7489.683482
 21
1743.07529
 72
     3
 10
7411.283482
 20
2281.396235
 11
-384.666089
 21
384.666089
 40
1.0
 50
143.286187
 51
170.00941
 73
     1
 72
     3
 10
7648.283482
 20
1943.043446
 11
-92.560278
 21
92.560278
 40
1.0
 50
170.00941
 51
225.0
 73
     1
 72
     1
 10
7779.183482
 20
1943.043446
 11
7779.183482
 21
2019.336142
 72
     1
 10
7779.183482
 20
2019.336142
 11
7781.283482
 21
2019.336142
 72
     1
 10
7781.283482
 20
2019.336142
 11
7781.283482
 21
1943.043446
 97
        0
 75
     0
 76
     0
 52
-675.0
 41
12.5
 77
     0
 78
     1
 53
45.0
 43
9015.530948
 44
2774.911756
 45
-8.838834764831844
 46
8.838834764831844
 79
     0
 98
        1
 10
10615.433059
 20
-728.911309
1001
GENIUS_GENODEF_13
1002
{
1000
HIER
1070
     0
1002
}
1002
{
1000
MANEDIT
1070
     0
1002
}
1002
{
1000
NOSEL
1070
     0
1002
}
1002
{
1000
BEHIND
1070
     0
1002
}
1002
{
1000
REACTOR
1002
}
1001
GENIUS_GENOBJ-N-HTC_13
1002
{
1000
OWNER
1000
GEN
1002
}
1001
GENIUS_GENHATCH_13
1002
{
1000
DATA
1040
45.0
1042
2.5
1000
_U
1070
     0
1011
9380.720626
1021
-1077.653015
1031
0.0
1002
}
1002
{
1000
UCS
1010
0.0
1020
0.0
1030
0.0
1010
1.0
1020
0.0
1030
0.0
1010
0.0
1020
1.0
1030
0.0
1002
}
  0
LINE
  5
2E6
100
AcDbEntity
  8
AM_0
100
AcDbLine
 10
7729.533482
 20
1914.477815
 30
0.0
 11
7729.533482
 21
2594.010795
 31
0.0
  0
LINE
  5
2E7
100
AcDbEntity
  8
AM_0
100
AcDbLine
 10
7726.533482
 20
1914.477815
 30
0.0
 11
7726.533482
 21
2594.010795
 31
0.0
  0
LINE
  5
2E8
100
AcDbEntity
  8
AM_0
100
AcDbLine
 10
8943.477491
 20
105.0
 30
0.0
 11
8943.477491
 21
2975.0
 31
0.0
1001
GENIUS_GENREC_14
1002
{
1000
PYDIR
1011
4855.477491
1021
2975.0
1031
0.0
1002
}
1002
{
1000
PXDIR
1011
8943.477491
1021
105.0
1031
0.0
1002
}
1002
{
1000
PORI
1011
4855.477491
1021
105.0
1031
0.0
1002
}
1002
{
1000
PINS
1011
4855.477491
1021
105.0
1031
0.0
1002
}
1002
{
1000
PINS2
1011
8943.477491
1021
2975.0
1031
0.0
1002
}
1002
{
1000
H
1070
     0
1002
}
1002
{
1000
W
1070
     1
1002
}
1002
{
1000
C
1070
     1
1002
}
1001
GENIUS_GENOBJ-N-REC_13
1002
{
1000
OWNER
1000
GEN
1002
}
1001
GENIUS_GENODEF_13
1002
{
1000
HIER
1070
     0
1002
}
1002
{
1000
MANEDIT
1070
     0
1002
}
1002
{
1000
NOSEL
1070
     0
1002
}
1002
{
1000
BEHIND
1070
     0
1002
}
1002
{
1000
OTHER
1070
     0
1002
}
1002
{
1000
REACTOR
1002
}
  0
TEXT
  5
2E9
100
AcDbEntity
  8
AM_6
100
AcDbText
 10
8171.513122
 20
330.829752
 30
0.0
 40
37.8
  1
Reflex Winkelmann GmbH+Co.KG
 41
0.95
 72
     1
 11
8509.156897
 21
330.829752
 31
0.0
100
AcDbText
  0
TEXT
  5
2EA
100
AcDbEntity
  8
0
100
AcDbText
 10
7639.864901
 20
322.079217
 30
0.0
 40
63.0
  1
RF 400l
 72
     1
 11
7781.614901
 21
303.179217
 31
0.0
100
AcDbText
 73
     1
  0
TEXT
  5
2EB
100
AcDbEntity
  8
0
100
AcDbText
 10
7537.79994
 20
202.379217
 30
0.0
 40
63.0
  1
6 bar - 120°C
 72
     1
 11
7781.614901
 21
183.479217
 31
0.0
100
AcDbText
 73
     1
  0
LINE
  5
2EC
100
AcDbEntity
  8
AM_4
100
AcDbLine
 10
8632.367267
 20
450.797317
 30
0.0
 11
8632.367267
 21
463.831663
 31
0.0
  0
LINE
  5
2ED
100
AcDbEntity
  8
AM_4
100
AcDbLine
 10
8664.239851
 20
399.185981
 30
0.0
 11
8664.239851
 21
489.889668
 31
0.0
  0
LINE
  5
2EE
100
AcDbEntity
  8
AM_4
100
AcDbLine
 10
8665.525767
 20
489.442393
 30
0.0
 11
8665.525767
 21
399.633257
 31
0.0
  0
LINE
  5
2EF
100
AcDbEntity
  8
AM_4
100
AcDbLine
 10
8666.811684
 20
489.442393
 30
0.0
 11
8666.811684
 21
399.633257
 31
0.0
  0
LINE
  5
2F0
100
AcDbEntity
  8
AM_4
100
AcDbLine
 10
8664.43988
 20
489.442393
 30
0.0
 11
8664.43988
 21
399.633257
 31
0.0
  0
HATCH
  5
2F1
100
AcDbEntity
  8
AM_4
100
AcDbHatch
 10
0.0
 20
0.0
 30
0.0
210
0.0
220
0.0
230
1.0
  2
SOLID
 70
     1
 71
     0
 91
        2
 92
        7
 72
     0
 73
     1
 93
        4
 10
8665.525767484645
 20
489.4423931387203
 10
8664.23985123276
 20
489.4423931387203
 10
8664.23985123276
 20
399.6332566483988
 10
8665.525767484645
 20
399.6332566483988
 97
        0
 92
        7
 72
     0
 73
     1
 93
       42
 10
8664.743035853069
 20
395.7382349579101
 10
8665.395312212714
 20
397.5646087649323
 10
8665.525767484645
 20
399.6332566483988
 10
8664.23985123276
 20
399.6332566483988
 10
8664.23985123276
 20
399.1859814303491
 10
8664.202578297929
 20
398.7387062122935
 10
8664.14666889568
 20
398.291430994301
 10
8664.072123025995
 20
397.8441557762092
 10
8663.960304221461
 20
397.4155170255156
 10
8663.848485416968
 20
397.0055147423845
 10
8663.699393677619
 20
396.5955124591654
 10
8663.550301938284
 20
396.1855101759674
 10
8663.363937264085
 20
395.7941443601638
 10
8663.177572589903
 20
395.4027785443717
 10
8662.953934980881
 20
395.0486856634008
 10
8662.730297371858
 20
394.6759563150489
 10
8662.469386827993
 20
394.3404999014934
 10
8662.208476284135
 20
393.9864070205521
 10
8661.928929272866
 20
393.669587074455
 10
8661.630745794138
 20
393.3714035957399
 10
8661.313925848059
 20
393.0732201170476
 10
8660.997105901925
 20
392.7936731057632
 10
8660.643013020965
 20
392.5327625619055
 10
8660.288920140008
 20
392.2718520180384
 10
8659.934827259025
 20
392.0482144090135
 10
8659.562097910693
 20
391.8245767999962
 10
8659.170732094899
 20
391.6382121258002
 10
8658.760729811689
 20
391.451847451629
 10
8658.350727528477
 20
391.3027557122772
 10
8657.940725245273
 20
391.1536639729292
 10
8657.51208649463
 20
391.0418451684129
 10
8657.064811276592
 20
390.9486628313235
 10
8656.617536058545
 20
390.8554804942312
 10
8656.1702608405
 20
390.7995710919746
 10
8655.704349155042
 20
390.762298157137
 10
8655.238437469572
 20
390.762298157137
 10
8655.238437469572
 20
389.4763819052529
 10
8657.307085353037
 20
389.6068371771836
 10
8659.263914431994
 20
390.2591135368353
 10
8660.959832967085
 20
391.1723004403484
 10
8662.525296230258
 20
392.4768531596555
 10
8663.829848949548
 20
393.9118611508838
 97
        0
 75
     0
 76
     1
 47
0.013813
 98
        2
 10
8665.132989
 20
467.637103
 10
8663.658175
 20
395.234473
  0
LINE
  5
2F2
100
AcDbEntity
  8
AM_4
100
AcDbLine
 10
8587.813065
 20
452.323644
 30
0.0
 11
8587.813065
 21
463.831663
 31
0.0
  0
LINE
  5
2F3
100
AcDbEntity
  8
AM_4
100
AcDbLine
 10
8604.069655
 20
453.002011
 30
0.0
 11
8604.069655
 21
463.831663
 31
0.0
  0
LINE
  5
2F4
100
AcDbEntity
  8
AM_4
100
AcDbLine
 10
8616.44986
 20
454.189154
 30
0.0
 11
8616.44986
 21
463.831663
 31
0.0
  0
LINE
  5
2F5
100
AcDbEntity
  8
AM_4
100
AcDbLine
 10
8547.498658
 20
462.64452
 30
0.0
 11
8550.042536
 21
463.662071
 31
0.0
  0
LINE
  5
2F6
100
AcDbEntity
  8
AM_4
100
AcDbLine
 10
8563.246473
 20
464.679622
 30
0.0
 11
8567.48627
 21
463.492479
 31
0.0
  0
LINE
  5
2F7
100
AcDbEntity
  8
AM_4
100
AcDbLine
 10
8497.8567
 20
465.527581
 30
0.0
 11
8497.8567
 21
459.93105
 31
0.0
  0
LINE
  5
2F8
100
AcDbEntity
  8
AM_4
100
AcDbLine
 10
8456.694334
 20
464.679622
 30
0.0
 11
8460.909903
 21
463.492479
 31
0.0
  0
LINE
  5
2F9
100
AcDbEntity
  8
AM_4
100
AcDbLine
 10
8528.359006
 20
410.967459
 30
0.0
 11
8528.359006
 21
484.32805
 31
0.0
  0
LINE
  5
2FA
100
AcDbEntity
  8
AM_4
100
AcDbLine
 10
8481.40629
 20
410.967459
 30
0.0
 11
8481.40629
 21
469.428194
 31
0.0
  0
LINE
  5
2FB
100
AcDbEntity
  8
AM_4
100
AcDbLine
 10
8511.230229
 20
484.32805
 30
0.0
 11
8511.230229
 21
410.967459
 31
0.0
  0
LINE
  5
2FC
100
AcDbEntity
  8
AM_4
100
AcDbLine
 10
8425.513661
 20
450.288542
 30
0.0
 11
8425.513661
 21
464.340438
 31
0.0
  0
LINE
  5
2FD
100
AcDbEntity
  8
AM_4
100
AcDbLine
 10
8413.133455
 20
463.831663
 30
0.0
 11
8410.75917
 21
462.983703
 31
0.0
  0
LINE
  5
2FE
100
AcDbEntity
  8
AM_4
100
AcDbLine
 10
8440.922292
 20
462.64452
 30
0.0
 11
8443.46617
 21
463.662071
 31
0.0
  0
LINE
  5
2FF
100
AcDbEntity
  8
AM_4
100
AcDbLine
 10
8370.715489
 20
399.185981
 30
0.0
 11
8370.715489
 21
489.889668
 31
0.0
  0
LINE
  5
300
100
AcDbEntity
  8
AM_4
100
AcDbLine
 10
8369.429573
 20
399.633257
 30
0.0
 11
8369.429573
 21
489.442393
 31
0.0
  0
LINE
  5
301
100
AcDbEntity
  8
AM_4
100
AcDbLine
 10
8368.143657
 20
399.633257
 30
0.0
 11
8368.143657
 21
489.442393
 31
0.0
  0
LINE
  5
302
100
AcDbEntity
  8
AM_4
100
AcDbLine
 10
8370.515461
 20
399.633257
 30
0.0
 11
8370.515461
 21
489.442393
 31
0.0
  0
HATCH
  5
303
100
AcDbEntity
  8
AM_4
100
AcDbHatch
 10
0.0
 20
0.0
 30
0.0
210
0.0
220
0.0
230
1.0
  2
SOLID
 70
     1
 71
     0
 91
        8
 92
        7
 72
     0
 73
     1
 93
       23
 10
8417.542843651673
 20
444.5224187451624
 10
8417.882027358698
 20
446.3879291337649
 10
8418.560394772729
 20
447.7446639618387
 10
8419.577945893783
 20
448.7622150828887
 10
8420.595497014849
 20
449.6101743504431
 10
8422.630599256951
 20
450.118949910971
 10
8423.648150378012
 20
450.2885417644809
 10
8425.513660766618
 20
450.2885417644818
 10
8425.513660766618
 20
464.3404381981194
 10
8419.408354040278
 20
464.3404381981194
 10
8416.016516970094
 20
464.1708463446104
 10
8413.133455460432
 20
463.8316626375906
 10
8410.759169511278
 20
462.9837033700457
 10
8408.554475415673
 20
462.135744102497
 10
8406.88278428821
 20
460.9486011279428
 10
8405.356457606647
 20
459.7614581533714
 10
8404.169314632081
 20
458.404723325292
 10
8403.151763511022
 20
457.0479884972106
 10
8401.964620536457
 20
454.1891543951968
 10
8401.286253122419
 20
451.8148684460692
 10
8401.116661268906
 20
449.6101743504526
 10
8401.116661268906
 20
410.7978673044295
 10
8417.542843651673
 20
410.7978673044295
 97
        0
 92
        7
 72
     0
 73
     1
 93
       54
 10
8477.869088685745
 20
447.2358884013107
 10
8476.342762004156
 20
450.6277254714998
 10
8474.138067908532
 20
454.0195625416917
 10
8471.594190105895
 20
456.8783966437035
 10
8468.371944889218
 20
459.5918662998557
 10
8464.810515965515
 20
461.796560395479
 10
8460.909903334794
 20
463.4924789305716
 10
8456.694334404708
 20
464.6796219051383
 10
8452.284946213465
 20
465.0188056121573
 10
8449.062700996787
 20
464.8492137586482
 10
8446.17963948712
 20
464.3404381981223
 10
8443.466169830969
 20
463.6620707840835
 10
8440.922292028336
 20
462.644519663022
 10
8438.548006079203
 20
461.4573766884573
 10
8436.512903837083
 20
460.1006418603884
 10
8434.64739344848
 20
458.4047233252901
 10
8432.781883059879
 20
456.7088047902061
 10
8431.279783785948
 20
454.8675218092422
 10
8430.092640811379
 20
452.832419567123
 10
8428.905497836806
 20
450.6277254714912
 10
8428.057538569261
 20
448.4230313758841
 10
8426.870395594692
 20
443.8440513311207
 10
8426.361620034162
 20
439.0954794328657
 10
8426.531211887679
 20
435.5340505091734
 10
8427.039987448207
 20
432.3360327001264
 10
8427.887946715747
 20
429.283379336963
 10
8429.075089690313
 20
426.4003178272913
 10
8430.4318245184
 20
423.8564400246529
 10
8431.958151199967
 20
421.4821540755291
 10
8433.799434180928
 20
419.2774599799049
 10
8435.834536423051
 20
417.2423577377876
 10
8438.208822372176
 20
415.546439202696
 10
8440.583108321288
 20
414.18970437463
 10
8443.126986123955
 20
412.8329695465419
 10
8445.670863926594
 20
411.8154184254852
 10
8448.553925436284
 20
411.1370510114417
 10
8451.267395092411
 20
410.4586835974115
 10
8454.150456602066
 20
410.1194998903917
 10
8457.009290704096
 20
410.1194998903917
 10
8460.909903334794
 20
410.2890917439025
 10
8464.471332258497
 20
410.7978673044295
 10
8467.523985621674
 20
411.4762347184711
 10
8470.237455277818
 20
412.3241939860159
 10
8473.968476055011
 20
414.0201125211076
 10
8475.155619029592
 20
414.6984799351454
 10
8475.155619029592
 20
431.3184815790697
 10
8471.424598252379
 20
428.7746037764322
 10
8467.693577475177
 20
426.7395015343169
 10
8463.453781137429
 20
425.2131748527284
 10
8461.418678895329
 20
424.7043992922025
 10
8459.383576653221
 20
424.5348074386925
 10
8456.015966990669
 20
424.5348074386925
 10
8453.641681041547
 20
425.0435829992195
 10
8452.624129920485
 20
425.2131748527303
 97
        0
 92
       22
 72
     0
 73
     1
 93
       15
 10
8442.448618709914
 20
435.0252749486293
 10
8441.939843149386
 20
436.2124179231979
 10
8441.600659442377
 20
437.5691527512372
 10
8441.261475735354
 20
439.2650712863709
 10
8441.431067588858
 20
441.3001735284843
 10
8441.939843149386
 20
443.5048676241048
 10
8443.126986123955
 20
445.8791535732379
 10
8445.162088366066
 20
448.2534395223685
 10
8447.536374315195
 20
449.949358057461
 10
8450.080252117841
 20
450.7973173250097
 10
8452.45453806697
 20
450.9669091785187
 10
8454.489640309089
 20
450.6277254714998
 10
8456.355150697691
 20
450.1189499109718
 10
8457.687658118123
 20
449.4405824969341
 10
8458.874801092687
 20
448.7622150828963
 97
        0
 92
        7
 72
     0
 73
     1
 93
       27
 10
8497.856699992208
 20
447.2358884013117
 10
8505.149149693112
 20
447.2358884013117
 10
8505.149149693112
 20
459.9310500068737
 10
8497.856699992208
 20
459.9310500068737
 10
8497.856699992208
 20
465.5275811726812
 10
8498.19588369923
 20
467.3930915612876
 10
8498.874251113262
 20
468.7498263893642
 10
8499.891802234333
 20
469.7673775104219
 10
8500.90935335538
 20
470.6153367779686
 10
8503.114047450994
 20
471.1241123384974
 10
8503.96200671855
 20
471.2937041920055
 10
8505.803289699507
 20
471.2937041920055
 10
8505.803289699507
 20
484.3280495045873
 10
8499.722210380808
 20
484.3280495045873
 10
8496.499965164131
 20
484.1584576510784
 10
8493.616903654478
 20
483.6496820905495
 10
8491.073025851852
 20
482.8017228230085
 10
8488.868331756213
 20
481.9537635554579
 10
8487.172413221108
 20
480.7666205808931
 10
8485.646086539528
 20
479.6037050139737
 10
8484.458943564964
 20
478.2469701858935
 10
8483.610984297426
 20
476.8902353578273
 10
8482.254249469345
 20
474.1767657016704
 10
8481.575882055304
 20
471.6328878990244
 10
8481.406290201794
 20
469.4281938033886
 10
8481.406290201794
 20
410.9674591579394
 10
8497.856699992208
 20
410.9674591579404
 97
        0
 92
        7
 72
     0
 73
     1
 93
        4
 10
8528.359006216264
 20
484.3280495045873
 10
8511.230229011809
 20
484.3280495045873
 10
8511.230229011809
 20
410.9674591579404
 10
8528.359006216264
 20
410.9674591579404
 97
        0
 92
        7
 72
     0
 73
     1
 93
       54
 10
8584.421227504952
 20
447.2358884013098
 10
8582.89490082336
 20
450.6277254715026
 10
8580.690206727743
 20
454.0195625416917
 10
8578.1463289251
 20
456.8783966437045
 10
8574.948311116061
 20
459.5918662998577
 10
8571.386882192371
 20
461.7965603954752
 10
8567.486269561651
 20
463.4924789305727
 10
8563.246473223911
 20
464.6796219051383
 10
8558.837085032669
 20
465.0188056121573
 10
8555.614839815993
 20
464.8492137586482
 10
8552.756005713964
 20
464.3404381981213
 10
8550.042536057825
 20
463.6620707840815
 10
8547.498658255166
 20
462.644519663022
 10
8545.124372306043
 20
461.4573766884554
 10
8543.089270063928
 20
460.1006418603817
 10
8541.223759675338
 20
458.4047233252901
 10
8539.358249286735
 20
456.7088047901946
 10
8538.00151445866
 20
454.8675218092365
 10
8536.644779630583
 20
452.8324195671288
 10
8535.45763665601
 20
450.6277254715026
 10
8534.609677388464
 20
448.4230313758841
 10
8533.422534413901
 20
443.8440513311265
 10
8532.913758853366
 20
439.0954794328562
 10
8533.083350706876
 20
435.5340505091677
 10
8533.592126267411
 20
432.3360327001302
 10
8534.440085534956
 20
429.283379336961
 10
8535.627228509525
 20
426.4003178272932
 10
8536.983963337604
 20
423.8564400246309
 10
8538.510290019186
 20
421.4821540755215
 10
8540.375800407785
 20
419.2774599799029
 10
8542.580494503409
 20
417.2423577377915
 10
8544.785188599034
 20
415.5464392026941
 10
8547.159474548157
 20
414.1897043746184
 10
8549.703352350809
 20
412.8329695465419
 10
8552.247230153449
 20
411.8154184254871
 10
8555.106064255477
 20
411.1370510114417
 10
8557.819533911606
 20
410.4586835974115
 10
8560.702595421274
 20
410.1194998903917
 10
8563.585656930921
 20
410.1194998903917
 10
8567.486269561642
 20
410.2890917439025
 10
8571.047698485354
 20
410.7978673044304
 10
8574.269943702017
 20
411.4762347184654
 10
8576.813821504675
 20
412.324193986014
 10
8580.520614874219
 20
414.0201125211114
 10
8581.707757848795
 20
414.6984799351463
 10
8581.707757848802
 20
431.3184815790678
 10
8577.976737071596
 20
428.7746037764322
 10
8574.269943702031
 20
426.739501534313
 10
8570.030147364294
 20
425.2131748527323
 10
8567.995045122177
 20
424.7043992922025
 10
8565.959942880061
 20
424.5348074386925
 10
8562.568105809875
 20
424.5348074386925
 10
8560.193819860746
 20
425.0435829992233
 10
8559.176268739694
 20
425.2131748527323
 97
        0
 92
       22
 72
     0
 73
     1
 93
       15
 10
8547.8378419622
 20
439.265071286369
 10
8548.007433815703
 20
441.3001735284795
 10
8548.516209376245
 20
443.5048676241048
 10
8549.703352350801
 20
445.8791535732323
 10
8551.738454592921
 20
448.2534395223674
 10
8554.0885131344
 20
449.9493580574629
 10
8556.632390937044
 20
450.7973173250097
 10
8559.006676886175
 20
450.9669091785187
 10
8561.041779128293
 20
450.6277254714998
 10
8562.907289516894
 20
450.1189499109728
 10
8564.264024344971
 20
449.4405824969321
 10
8565.451167319535
 20
448.7622150828963
 10
8549.024984936769
 20
435.0252749486331
 10
8548.516209376245
 20
436.212417923194
 10
8548.177025669222
 20
437.5691527512429
 97
        0
 92
        7
 72
     0
 73
     1
 93
       66
 10
8627.957879041577
 20
437.5691527512754
 10
8626.601144213502
 20
438.417112018824
 10
8625.438228646581
 20
439.09547943286
 10
8627.788287188073
 20
440.6218061144427
 10
8629.484205723164
 20
442.6569083565484
 10
8630.840940551243
 20
444.8616024521842
 10
8631.688899818794
 20
447.0662965478027
 10
8632.367267232824
 20
450.7973173250078
 10
8632.367267232824
 20
452.4932358601051
 10
8632.367267232824
 20
463.8316626375906
 10
8616.449860410581
 20
463.8316626375906
 10
8616.449860410588
 20
454.1891543952083
 10
8616.280268557071
 20
453.0020114206378
 10
8615.601901143042
 20
450.6277254715045
 10
8614.923533729001
 20
449.4405824969351
 10
8613.73639075443
 20
448.2534395223674
 10
8612.040472219339
 20
447.4054802548207
 10
8610.005369977226
 20
447.2358884013117
 10
8607.970267735115
 20
447.4054802548207
 10
8606.274349200019
 20
448.2534395223685
 10
8605.256798078965
 20
449.2709906434233
 10
8604.578430664922
 20
450.6277254714998
 10
8604.069655104394
 20
453.0020114206358
 10
8604.069655104394
 20
454.0195625416887
 10
8604.069655104394
 20
463.8316626375906
 10
8587.813064575135
 20
463.8316626375906
 10
8587.813064575135
 20
452.3236440065905
 10
8588.152248282156
 20
448.7622150829001
 10
8589.000207549698
 20
446.0487454267508
 10
8590.017758670759
 20
443.6744594776136
 10
8591.374493498831
 20
441.9785409425287
 10
8592.731228326917
 20
440.6218061144427
 10
8593.74877944797
 20
439.7738468468959
 10
8594.935922422534
 20
439.09547943286
 10
8593.409595740954
 20
438.417112018825
 10
8592.222452766391
 20
437.5691527512792
 10
8590.356942377777
 20
435.5340505091687
 10
8588.830615696195
 20
433.1597645600287
 10
8587.982656428641
 20
430.8097060185456
 10
8587.304289014609
 20
428.6050119229251
 10
8586.965105307591
 20
426.7395015343092
 10
8586.795513454081
 20
425.0435829992118
 10
8586.795513454081
 20
410.9674591579404
 10
8603.730471397382
 20
410.9674591579404
 10
8603.730471397376
 20
423.8564400246624
 10
8603.900063250888
 20
425.2131748527494
 10
8604.069655104401
 20
426.400317827295
 10
8604.408838811414
 20
427.9266445088816
 10
8605.256798078958
 20
429.2833793369543
 10
8606.443941053534
 20
430.6401141650328
 10
8608.139859588625
 20
431.4880734325796
 10
8610.514145537761
 20
431.8272571395994
 10
8612.718839633377
 20
431.4880734325796
 10
8614.41475816847
 20
430.6401141650309
 10
8615.432309289529
 20
429.2833793369562
 10
8616.110676703568
 20
427.7570526553793
 10
8616.449860410588
 20
426.4003178272865
 10
8616.619452264094
 20
425.0435829992233
 10
8616.619452264094
 20
423.8564400246567
 10
8616.619452264094
 20
410.9674591579404
 10
8633.384818353887
 20
410.9674591579404
 10
8633.384818353887
 20
425.213174852739
 10
8633.045634646867
 20
428.9441956299392
 10
8632.028083525813
 20
431.9968489931008
 10
8630.840940551236
 20
434.3469075345992
 10
8629.314613869654
 20
436.2124179231998
 97
        0
 75
     0
 76
     1
 47
0.04298
 98
        8
 10
8410.187208
 20
441.832364
 10
8443.993341
 20
426.592279
 10
8443.993341
 20
426.592279
 10
8490.393938
 20
433.218397
 10
8520.885744
 20
436.531456
 10
8541.434572
 20
439.844515
 10
8541.434572
 20
439.844515
 10
8599.76673
 20
437.194072
  0
HATCH
  5
304
100
AcDbEntity
  8
AM_4
100
AcDbHatch
 10
0.0
 20
0.0
 30
0.0
210
0.0
220
0.0
230
1.0
  2
SOLID
 70
     1
 71
     0
 91
        3
 92
        7
 72
     0
 73
     1
 93
        4
 10
8655.238437469572
 20
501.015639405681
 10
8379.716903152724
 20
501.015639405681
 10
8379.716903152724
 20
499.7297231537969
 10
8655.238437469572
 20
499.7297231537969
 97
        0
 92
        7
 72
     0
 73
     1
 93
        4
 10
8369.429573137649
 20
489.4423931387203
 10
8368.143656885761
 20
489.4423931387203
 10
8368.143656885761
 20
399.6332566483988
 10
8369.429573137649
 20
399.6332566483988
 97
        0
 92
        7
 72
     0
 73
     1
 93
       42
 10
8371.815040967216
 20
493.6915077101552
 10
8372.038678576251
 20
494.0642370585358
 10
8372.262316185272
 20
494.4369664069086
 10
8372.523226729157
 20
494.7910592879006
 10
8372.784137273002
 20
495.126515701416
 10
8373.082320751686
 20
495.4619721149218
 10
8373.380504230395
 20
495.7787920610485
 10
8373.697324176511
 20
496.0769755397407
 10
8374.032780590045
 20
496.3565225510271
 10
8374.368237003579
 20
496.6360695623068
 10
8374.722329884532
 20
496.8969801061673
 10
8375.095059232906
 20
497.1206177151903
 10
8375.467788581271
 20
497.3442553242133
 10
8375.859154397073
 20
497.5492564658189
 10
8376.250520212858
 20
497.7356211400054
 10
8376.66052249607
 20
497.8847128793534
 10
8377.070524779286
 20
498.0338046187034
 10
8377.499163529902
 20
498.1642598906303
 10
8377.927802280536
 20
498.2574422277206
 10
8378.375077498583
 20
498.3506245648205
 10
8378.822352716635
 20
498.4065339670744
 10
8379.269627934673
 20
498.4438069019129
 10
8379.716903152724
 20
498.4438069019129
 10
8379.716903152724
 20
499.7297231537969
 10
8377.648255269255
 20
499.4688126099354
 10
8375.821881462227
 20
498.9469915222127
 10
8373.995507655211
 20
497.9033493467707
 10
8372.56049966397
 20
496.7292518993943
 10
8371.255946944673
 20
495.1637886362334
 10
8370.342760041159
 20
493.4678701011417
 10
8369.690483681505
 20
491.511041022181
 10
8369.429573137649
 20
489.4423931387203
 10
8370.715489389533
 20
489.4423931387184
 10
8370.715489389533
 20
489.8896683567739
 10
8370.75276232437
 20
490.3369435748161
 10
8370.808671726621
 20
490.7842187928563
 10
8370.901854063694
 20
491.2314940109558
 10
8370.995036400815
 20
491.6601327615366
 10
8371.125491672767
 20
492.0701350447902
 10
8371.255946944673
 20
492.4987737953729
 10
8371.423675151451
 20
492.9087760785823
 10
8371.610039825634
 20
493.3001418943612
 97
        0
 75
     0
 76
     1
 47
0.005631
 98
        3
 10
8393.936746
 20
500.181504
 10
8368.616344
 20
487.225619
 10
8370.754212
 20
493.302856
  0
HATCH
  5
305
100
AcDbEntity
  8
AM_4
100
AcDbHatch
 10
0.0
 20
0.0
 30
0.0
210
0.0
220
0.0
230
1.0
  2
SOLID
 70
     1
 71
     0
 91
       13
 92
        7
 72
     0
 73
     1
 93
        4
 10
8370.715489389528
 20
489.4423931387203
 10
8369.429573137649
 20
489.4423931387203
 10
8369.429573137649
 20
399.6332566483988
 10
8370.715489389533
 20
399.6332566483988
 97
        0
 92
        7
 72
     0
 73
     1
 93
        4
 10
8655.238437469565
 20
390.762298157137
 10
8379.716903152724
 20
390.762298157137
 10
8379.716903152724
 20
389.4763819052529
 10
8655.238437469572
 20
389.4763819052529
 97
        0
 92
        7
 72
     0
 73
     1
 93
        4
 10
8655.238437469572
 20
499.7297231537969
 10
8379.716903152724
 20
499.7297231537969
 10
8379.716903152724
 20
498.4438069019129
 10
8655.238437469572
 20
498.4438069019129
 97
        0
 92
        7
 72
     0
 73
     1
 93
        4
 10
8666.811683736529
 20
489.4423931387203
 10
8665.525767484645
 20
489.4423931387203
 10
8665.525767484645
 20
399.6332566483988
 10
8666.811683736529
 20
399.6332566483988
 97
        0
 92
        7
 72
     0
 73
     1
 93
       42
 10
8375.821881462231
 20
498.9469915222145
 10
8377.648255269255
 20
499.4688126099354
 10
8379.716903152724
 20
499.7297231537969
 10
8379.716903152724
 20
501.015639405681
 10
8379.139172662744
 20
500.9970029382637
 10
8378.561442172777
 20
500.9410935360079
 10
8377.983711682787
 20
500.866547666332
 10
8377.405981192817
 20
500.7733653292389
 10
8376.846887170255
 20
500.6429100573099
 10
8376.306429615116
 20
500.4751818505447
 10
8375.765972059962
 20
500.2888171763506
 10
8375.244150972248
 20
500.0838160347506
 10
8374.74096635195
 20
499.8601784257219
 10
8374.237781731652
 20
499.5992678818701
 10
8373.753233578755
 20
499.3197208705913
 10
8373.287321893361
 20
499.0029009244683
 10
8372.840046675243
 20
498.6860809783608
 10
8372.392771457226
 20
498.3319880973917
 10
8371.96413270658
 20
497.9778952164476
 10
8371.572766890778
 20
497.5865294006507
 10
8371.181401074991
 20
497.1765271174326
 10
8370.827308194053
 20
496.7665248342462
 10
8370.473215313086
 20
496.3192496162001
 10
8370.156395366969
 20
495.8719743981255
 10
8369.839575420845
 20
495.406062712668
 10
8369.560028409571
 20
494.9215145597759
 10
8369.299117865713
 20
494.4183299394933
 10
8369.075480256697
 20
493.9151453192106
 10
8368.870479115086
 20
493.3933242314859
 10
8368.684114440888
 20
492.8528666763075
 10
8368.516386234132
 20
492.312409121175
 10
8368.385930962203
 20
491.7533150986328
 10
8368.292748625114
 20
491.1755846086447
 10
8368.218202755437
 20
490.5978541186604
 10
8368.162293353179
 20
490.0201236287008
 10
8368.143656885761
 20
489.4423931387203
 10
8369.429573137649
 20
489.4423931387203
 10
8369.690483681505
 20
491.511041022183
 10
8370.34276004115
 20
493.467870101137
 10
8371.255946944673
 20
495.1637886362391
 10
8372.560499663977
 20
496.7292518993972
 10
8373.995507655203
 20
497.9033493467737
 97
        0
 92
        7
 72
     0
 73
     1
 93
       42
 10
8376.250520212863
 20
497.7356211400054
 10
8376.66052249607
 20
497.8847128793534
 10
8377.070524779286
 20
498.0338046187034
 10
8377.499163529902
 20
498.1642598906303
 10
8377.927802280536
 20
498.2574422277206
 10
8378.375077498583
 20
498.3506245648205
 10
8378.822352716635
 20
498.4065339670744
 10
8379.269627934673
 20
498.4438069019129
 10
8379.716903152724
 20
498.4438069019129
 10
8379.716903152724
 20
499.7297231537969
 10
8377.648255269255
 20
499.4688126099354
 10
8375.821881462227
 20
498.9469915222127
 10
8373.995507655211
 20
497.9033493467707
 10
8372.56049966397
 20
496.7292518993943
 10
8371.255946944673
 20
495.1637886362334
 10
8370.342760041159
 20
493.4678701011417
 10
8369.690483681505
 20
491.511041022181
 10
8369.429573137649
 20
489.4423931387203
 10
8370.715489389533
 20
489.4423931387184
 10
8370.715489389533
 20
489.8896683567739
 10
8370.75276232437
 20
490.3369435748161
 10
8370.808671726621
 20
490.7842187928563
 10
8370.901854063694
 20
491.2314940109558
 10
8370.995036400815
 20
491.6601327615366
 10
8371.125491672767
 20
492.0701350447902
 10
8371.255946944673
 20
492.4987737953729
 10
8371.423675151451
 20
492.9087760785823
 10
8371.610039825634
 20
493.3001418943612
 10
8371.815040967218
 20
493.691507710159
 10
8372.038678576251
 20
494.0642370585358
 10
8372.262316185272
 20
494.4369664069086
 10
8372.523226729157
 20
494.7910592879006
 10
8372.784137273002
 20
495.126515701416
 10
8373.082320751686
 20
495.4619721149218
 10
8373.380504230395
 20
495.7787920610485
 10
8373.697324176511
 20
496.0769755397407
 10
8374.032780590045
 20
496.3565225510271
 10
8374.368237003579
 20
496.6360695623068
 10
8374.722329884532
 20
496.8969801061673
 10
8375.095059232906
 20
497.1206177151903
 10
8375.467788581271
 20
497.3442553242133
 10
8375.859154397073
 20
497.5492564658189
 97
        0
 92
        7
 72
     0
 73
     1
 93
        4
 10
8655.238437469572
 20
389.4763819052529
 10
8379.716903152724
 20
389.4763819052529
 10
8379.716903152724
 20
388.1904656533688
 10
8655.238437469572
 20
388.1904656533688
 97
        0
 92
       22
 72
     0
 73
     1
 93
       42
 10
8663.829848949555
 20
393.9118611508819
 10
8664.743035853065
 20
395.7382349579071
 10
8665.395312212714
 20
397.5646087649333
 10
8665.525767484645
 20
399.6332566483988
 10
8664.23985123276
 20
399.6332566483988
 10
8664.23985123276
 20
399.1859814303471
 10
8664.202578297926
 20
398.7387062122935
 10
8664.146668895671
 20
398.2914309942504
 10
8664.072123025995
 20
397.8441557762111
 10
8663.960304221461
 20
397.4155170254831
 10
8663.848485416968
 20
397.0055147423749
 10
8663.699393677619
 20
396.5955124591654
 10
8663.550301938284
 20
396.1855101759674
 10
8663.363937264085
 20
395.7941443601638
 10
8663.177572589903
 20
395.4027785443717
 10
8662.953934980881
 20
395.0486856634008
 10
8662.730297371858
 20
394.6759563150489
 10
8662.469386827993
 20
394.3404999014934
 10
8662.208476284135
 20
393.9864070205521
 10
8661.928929272866
 20
393.669587074455
 10
8661.630745794138
 20
393.3714035957399
 10
8661.313925848059
 20
393.0732201170476
 10
8660.997105901925
 20
392.7936731057632
 10
8660.643013020965
 20
392.5327625619055
 10
8660.288920140008
 20
392.2718520180384
 10
8659.934827259025
 20
392.0482144090135
 10
8659.562097910693
 20
391.8245767999962
 10
8659.170732094899
 20
391.6382121258002
 10
8658.760729811689
 20
391.451847451629
 10
8658.350727528477
 20
391.3027557122772
 10
8657.940725245273
 20
391.1536639729292
 10
8657.51208649463
 20
391.0418451684129
 10
8657.064811276592
 20
390.9486628313235
 10
8656.617536058545
 20
390.8554804942312
 10
8656.1702608405
 20
390.7995710919746
 10
8655.704349155042
 20
390.762298157137
 10
8655.238437469572
 20
390.762298157137
 10
8655.238437469572
 20
389.4763819052529
 10
8657.307085353037
 20
389.6068371771836
 10
8659.263914431994
 20
390.2591135368353
 10
8660.959832967085
 20
391.1723004403484
 10
8662.525296230258
 20
392.4768531596555
 97
        0
 92
        7
 72
     0
 73
     1
 93
       42
 10
8664.16530536309
 20
392.3650343551384
 10
8664.519398244051
 20
392.7936731057708
 10
8664.836218190167
 20
393.2409483238053
 10
8665.13440166886
 20
393.7068600092801
 10
8665.413948680116
 20
394.1914081621358
 10
8665.674859223996
 20
394.6759563150566
 10
8665.898496833026
 20
395.1791409353411
 10
8666.103497974633
 20
395.7009620230696
 10
8666.289862648813
 20
396.241419578227
 10
8666.438954388155
 20
396.7818771333233
 10
8666.569409660096
 20
397.3409711559209
 10
8666.6812284646
 20
397.9000651784668
 10
8666.737137866855
 20
398.4777956684455
 10
8666.793047269115
 20
399.0555261584317
 10
8666.811683736529
 20
399.6332566483988
 10
8665.525767484645
 20
399.6332566483988
 10
8665.395312212714
 20
397.5646087649353
 10
8664.743035853065
 20
395.7382349579043
 10
8663.829848949548
 20
393.9118611508838
 10
8662.525296230244
 20
392.4768531596459
 10
8660.959832967085
 20
391.1723004403446
 10
8659.263914431992
 20
390.2591135368334
 10
8657.307085353037
 20
389.6068371771836
 10
8655.238437469572
 20
389.4763819052529
 10
8655.238437469572
 20
388.1904656533688
 10
8655.816167959548
 20
388.2091021207861
 10
8656.412534916938
 20
388.2650115230419
 10
8657.008901874339
 20
388.3209209252986
 10
8657.567995896897
 20
388.4327397298092
 10
8658.127089919446
 20
388.5445585343207
 10
8658.68618394202
 20
388.7122867410917
 10
8659.226641497095
 20
388.8986514152724
 10
8659.748462584879
 20
389.0850160894608
 10
8660.270283672575
 20
389.3272901658935
 10
8660.754831825501
 20
389.5695642423529
 10
8661.23937997836
 20
389.8491112536278
 10
8661.723928131253
 20
390.147294732319
 10
8662.171203349284
 20
390.4641146784353
 10
8662.618478567337
 20
390.7995710919735
 10
8663.028480850549
 20
391.1723004403465
 10
8663.438483133759
 20
391.5450297887232
 10
8663.811212482142
 20
391.9363956045135
 97
        0
 92
        7
 72
     0
 73
     1
 93
       42
 10
8662.525296230244
 20
496.7292518994001
 10
8660.959832967089
 20
497.9033493467689
 10
8659.263914431992
 20
498.9469915222145
 10
8657.307085353037
 20
499.4688126099354
 10
8655.238437469565
 20
499.7297231537969
 10
8655.238437469572
 20
498.4438069019129
 10
8655.704349155035
 20
498.4438069019129
 10
8656.170260840502
 20
498.4065339670744
 10
8656.617536058545
 20
498.3319880973994
 10
8657.064811276592
 20
498.2574422277264
 10
8657.493450027219
 20
498.1642598906321
 10
8657.922088777853
 20
498.0338046187014
 10
8658.350727528484
 20
497.8847128793516
 10
8658.760729811689
 20
497.7356211400054
 10
8659.152095627488
 20
497.5492564658189
 10
8659.543461443261
 20
497.3442553242171
 10
8659.916190791646
 20
497.1206177151903
 10
8660.28892014002
 20
496.8969801061635
 10
8660.643013020957
 20
496.6360695623097
 10
8660.978469434509
 20
496.3751590184426
 10
8661.313925848027
 20
496.0769755397484
 10
8661.630745794159
 20
495.7787920610466
 10
8661.910292805428
 20
495.4619721149447
 10
8662.208476284128
 20
495.145152168818
 10
8662.469386828
 20
494.7910592878662
 10
8662.71166090444
 20
494.4369664069086
 10
8662.953934980873
 20
494.0828735259569
 10
8663.15893612248
 20
493.6915077101609
 10
8663.363937264092
 20
493.3187783617841
 10
8663.550301938281
 20
492.9087760785709
 10
8663.699393677619
 20
492.4987737953729
 10
8663.848485416968
 20
492.0887715121491
 10
8663.960304221484
 20
491.6601327615348
 10
8664.072123025995
 20
491.2314940109033
 10
8664.146668895657
 20
490.7842187928869
 10
8664.202578297926
 20
490.3555800422525
 10
8664.23985123276
 20
489.8896683567663
 10
8664.23985123276
 20
489.4423931387203
 10
8665.525767484645
 20
489.4423931387203
 10
8665.395312212714
 20
491.5110410221926
 10
8664.743035853069
 20
493.4678701011379
 10
8663.829848949555
 20
495.1637886362334
 97
        0
 92
        7
 72
     0
 73
     1
 93
       42
 10
8663.04711731796
 20
497.959258749036
 10
8662.618478567347
 20
498.3319880973937
 10
8662.18983981671
 20
498.686080978357
 10
8661.723928131246
 20
499.0029009244703
 10
8661.258016445783
 20
499.3197208705875
 10
8660.773468292894
 20
499.5992678818691
 10
8660.270283672605
 20
499.8601784257219
 10
8659.767099052301
 20
500.0838160347487
 10
8659.226641497154
 20
500.2888171763544
 10
8658.686183942013
 20
500.4751818505408
 10
8658.145726386873
 20
500.6429100573099
 10
8657.567995896895
 20
500.7733653292407
 10
8657.008901874332
 20
500.866547666333
 10
8656.412534916938
 20
500.941093536007
 10
8655.834804426964
 20
500.9970029382619
 10
8655.238437469572
 20
501.015639405681
 10
8655.238437469572
 20
499.7297231537969
 10
8657.307085353037
 20
499.4688126099354
 10
8659.263914431992
 20
498.9469915222145
 10
8660.959832967089
 20
497.9033493467717
 10
8662.525296230244
 20
496.7292518994001
 10
8663.829848949555
 20
495.1637886362372
 10
8664.743035853069
 20
493.4678701011379
 10
8665.395312212714
 20
491.5110410221849
 10
8665.525767484645
 20
489.4423931387203
 10
8666.811683736529
 20
489.4423931387203
 10
8666.793047269115
 20
490.0201236286894
 10
8666.737137866855
 20
490.5978541186737
 10
8666.6812284646
 20
491.1755846086466
 10
8666.569409660084
 20
491.7346786312613
 10
8666.438954388155
 20
492.2937726537749
 10
8666.28986264881
 20
492.8342302089074
 10
8666.103497974628
 20
493.3746877640381
 10
8665.898496833015
 20
493.8965088517609
 10
8665.674859223996
 20
494.4183299394913
 10
8665.413948680139
 20
494.9028780923748
 10
8665.153038136276
 20
495.3874262452564
 10
8664.836218190167
 20
495.8719743981427
 10
8664.519398244028
 20
496.3192496161791
 10
8664.183941830504
 20
496.7665248342346
 10
8663.81121248213
 20
497.1765271174461
 10
8663.438483133759
 20
497.5865294006536
 97
        0
 92
       23
 72
     0
 73
     1
 93
       42
 10
8373.380504230395
 20
393.3714035957436
 10
8373.063684284275
 20
393.688223541857
 10
8372.78413727301
 20
394.0050434879685
 10
8372.523226729152
 20
394.3404999015164
 10
8372.262316185279
 20
394.6945927824624
 10
8372.020042108824
 20
395.0486856634256
 10
8371.796404499809
 20
395.4214150117919
 10
8371.610039825634
 20
395.8127808275621
 10
8371.42367515144
 20
396.1855101759483
 10
8371.255946944653
 20
396.5955124591845
 10
8371.106855205319
 20
397.0055147423701
 10
8370.995036400804
 20
397.434153493015
 10
8370.901854063713
 20
397.8627922436303
 10
8370.808671726621
 20
398.2914309942533
 10
8370.752762324363
 20
398.7387062123011
 10
8370.715489389533
 20
399.1859814303586
 10
8370.715489389533
 20
399.6332566483988
 10
8369.429573137649
 20
399.6332566483988
 10
8369.690483681505
 20
397.5646087649266
 10
8370.34276004115
 20
395.7382349579157
 10
8371.255946944673
 20
393.9118611508838
 10
8372.56049966397
 20
392.4768531596536
 10
8373.995507655203
 20
391.1723004403475
 10
8375.821881462227
 20
390.2591135368353
 10
8377.648255269255
 20
389.6068371771836
 10
8379.716903152724
 20
389.4763819052529
 10
8379.716903152724
 20
390.762298157137
 10
8379.269627934673
 20
390.762298157137
 10
8378.803716249214
 20
390.7995710919735
 10
8378.35644103116
 20
390.8554804942312
 10
8377.927802280529
 20
390.9300263639043
 10
8377.499163529902
 20
391.0418451684158
 10
8377.070524779286
 20
391.1536639729273
 10
8376.66052249607
 20
391.3027557122772
 10
8376.250520212858
 20
391.4518474516271
 10
8375.840517929651
 20
391.6382121258097
 10
8375.467788581266
 20
391.8245768000019
 10
8375.076422765491
 20
392.0482144090192
 10
8374.722329884532
 20
392.2904884854652
 10
8374.349600536159
 20
392.5327625619055
 10
8374.014144122625
 20
392.7936731057632
 10
8373.678687709091
 20
393.0732201170457
 97
        0
 92
        7
 72
     0
 73
     1
 93
       42
 10
8372.560499663963
 20
392.4768531596536
 10
8371.255946944673
 20
393.9118611508838
 10
8370.34276004115
 20
395.7382349579148
 10
8369.690483681505
 20
397.5646087649305
 10
8369.429573137649
 20
399.6332566483988
 10
8368.143656885761
 20
399.6332566483988
 10
8368.162293353179
 20
399.0555261584279
 10
8368.218202755437
 20
398.4777956684321
 10
8368.29274862511
 20
397.900065178463
 10
8368.385930962203
 20
397.3409711559056
 10
8368.516386234132
 20
396.7818771333376
 10
8368.684114440904
 20
396.2414195782061
 10
8368.870479115081
 20
395.7009620230859
 10
8369.075480256688
 20
395.1791409353583
 10
8369.317754333145
 20
394.6759563150164
 10
8369.578664876987
 20
394.1727716947529
 10
8369.858211888287
 20
393.7068600092572
 10
8370.156395366977
 20
393.2409483238053
 10
8370.473215313086
 20
392.7936731057708
 10
8370.827308194037
 20
392.3650343551479
 10
8371.200037542399
 20
391.9363956045135
 10
8371.572766890785
 20
391.5450297887232
 10
8371.982769173994
 20
391.1723004403599
 10
8372.41140792463
 20
390.7995710919688
 10
8372.840046675253
 20
390.464114678441
 10
8373.287321893291
 20
390.1472947323258
 10
8373.771870046157
 20
389.8491112536335
 10
8374.237781731645
 20
389.5695642423471
 10
8374.740966351946
 20
389.3272901659069
 10
8375.262787439664
 20
389.0850160894646
 10
8375.784608527354
 20
388.8986514152877
 10
8376.325066082536
 20
388.7122867410898
 10
8376.865523637681
 20
388.5445585343207
 10
8377.424617660231
 20
388.4327397298092
 10
8377.983711682793
 20
388.3209209252986
 10
8378.561442172765
 20
388.2650115230419
 10
8379.139172662744
 20
388.2091021207881
 10
8379.716903152724
 20
388.1904656533688
 10
8379.716903152724
 20
389.4763819052529
 10
8377.648255269255
 20
389.6068371771836
 10
8375.821881462231
 20
390.2591135368353
 10
8373.995507655203
 20
391.1723004403465
 97
        0
 75
     0
 76
     1
 47
0.02498
 98
       13
 10
8369.919567
 20
455.525109
 10
8427.537866
 20
389.773598
 10
8494.334338
 20
498.849745
 10
8666.169481
 20
460.112418
 10
8371.889417
 20
497.847773
 10
8373.96385
 20
497.551544
 10
8556.515565
 20
388.832596
 10
8662.312579
 20
393.572392
 10
8663.794339
 20
392.091209
 10
8662.312579
 20
496.36659
 10
8662.905278
 20
497.847773
 10
8372.778452
 20
392.979915
 10
8372.482115
 20
391.498732
  0
LINE
  5
306
100
AcDbEntity
  8
AM_4
100
AcDbLine
 10
8551.738455
 20
448.25344
 30
0.0
 11
8549.703352
 21
445.879154
 31
0.0
  0
LINE
  5
307
100
AcDbEntity
  8
AM_4
100
AcDbLine
 10
8552.24723
 20
411.815418
 30
0.0
 11
8549.703352
 21
412.83297
 31
0.0
  0
LINE
  5
308
100
AcDbEntity
  8
AM_4
100
AcDbLine
 10
8549.024985
 20
435.025275
 30
0.0
 11
8565.451167
 21
448.762215
 31
0.0
  0
TEXT
  5
309
100
AcDbEntity
  8
AM_6
100
AcDbText
 10
8335.141967
 20
277.797681
 30
0.0
 40
37.8
  1
D- 59227 Ahlen
 72
     1
 11
8509.773015
 21
277.797681
 31
0.0
100
AcDbText
  0
LINE
  5
30A
100
AcDbEntity
  8
AM_4
100
AcDbLine
 10
8379.269628
 20
390.762298
 30
0.0
 11
8655.704349
 21
390.762298
 31
0.0
  0
LINE
  5
30B
100
AcDbEntity
  8
AM_4
100
AcDbLine
 10
8379.716903
 20
388.190466
 30
0.0
 11
8655.238437
 21
388.190466
 31
0.0
  0
LINE
  5
30C
100
AcDbEntity
  8
AM_4
100
AcDbLine
 10
8655.238437
 20
389.476382
 30
0.0
 11
8379.716903
 21
389.476382
 31
0.0
  0
LINE
  5
30D
100
AcDbEntity
  8
AM_4
100
AcDbLine
 10
8656.170261
 20
390.799571
 30
0.0
 11
8379.716903
 21
390.762298
 31
0.0
  0
LINE
  5
30E
100
AcDbEntity
  8
AM_4
100
AcDbLine
 10
8656.279299
 20
388.227753
 30
0.0
 11
8379.71725
 21
388.190466
 31
0.0
  0
LINE
  5
30F
100
AcDbEntity
  8
AM_4
100
AcDbLine
 10
8656.179266
 20
390.599544
 30
0.0
 11
8379.71693
 21
390.562269
 31
0.0
  0
ARC
  5
310
100
AcDbEntity
  8
AM_4
100
AcDbCircle
 10
8379.715686
 20
399.786228
 30
0.0
 40
11.595762
100
AcDbArc
 50
186.666075
 51
270.007725
  0
LINE
  5
311
100
AcDbEntity
  8
AM_4
100
AcDbLine
 10
8458.874801
 20
448.762215
 30
0.0
 11
8457.687658
 21
449.440582
 31
0.0
  0
LINE
  5
312
100
AcDbEntity
  8
AM_4
100
AcDbLine
 10
8460.909903
 20
410.289092
 30
0.0
 11
8457.009291
 21
410.1195
 31
0.0
  0
LINE
  5
313
100
AcDbEntity
  8
AM_4
100
AcDbLine
 10
8456.015967
 20
424.534807
 30
0.0
 11
8459.383577
 21
424.534807
 31
0.0
  0
LINE
  5
314
100
AcDbEntity
  8
AM_4
100
AcDbLine
 10
8477.869089
 20
447.235888
 30
0.0
 11
8452.62413
 21
425.213175
 31
0.0
  0
LINE
  5
315
100
AcDbEntity
  8
AM_4
100
AcDbLine
 10
8442.448619
 20
435.025275
 30
0.0
 11
8458.874801
 21
448.762215
 31
0.0
  0
LINE
  5
316
100
AcDbEntity
  8
AM_4
100
AcDbLine
 10
8457.687658
 20
449.440582
 30
0.0
 11
8456.355151
 21
450.11895
 31
0.0
  0
LINE
  5
317
100
AcDbEntity
  8
AM_4
100
AcDbLine
 10
8456.355151
 20
450.11895
 30
0.0
 11
8454.48964
 21
450.627725
 31
0.0
  0
LINE
  5
318
100
AcDbEntity
  8
AM_4
100
AcDbLine
 10
8454.48964
 20
450.627725
 30
0.0
 11
8452.454538
 21
450.966909
 31
0.0
  0
LINE
  5
319
100
AcDbEntity
  8
AM_4
100
AcDbLine
 10
8452.454538
 20
450.966909
 30
0.0
 11
8450.080252
 21
450.797317
 31
0.0
  0
LINE
  5
31A
100
AcDbEntity
  8
AM_4
100
AcDbLine
 10
8457.009291
 20
410.1195
 30
0.0
 11
8454.150457
 21
410.1195
 31
0.0
  0
LINE
  5
31B
100
AcDbEntity
  8
AM_4
100
AcDbLine
 10
8454.150457
 20
410.1195
 30
0.0
 11
8451.267395
 21
410.458684
 31
0.0
  0
LINE
  5
31C
100
AcDbEntity
  8
AM_4
100
AcDbLine
 10
8452.62413
 20
425.213175
 30
0.0
 11
8453.641681
 21
425.043583
 31
0.0
  0
LINE
  5
31D
100
AcDbEntity
  8
AM_4
100
AcDbLine
 10
8453.641681
 20
425.043583
 30
0.0
 11
8456.015967
 21
424.534807
 31
0.0
  0
LINE
  5
31E
100
AcDbEntity
  8
AM_4
100
AcDbLine
 10
8431.279784
 20
454.867522
 30
0.0
 11
8432.781883
 21
456.708805
 31
0.0
  0
LINE
  5
31F
100
AcDbEntity
  8
AM_4
100
AcDbLine
 10
8417.542844
 20
444.522419
 30
0.0
 11
8417.882027
 21
446.387929
 31
0.0
  0
LINE
  5
320
100
AcDbEntity
  8
AM_4
100
AcDbLine
 10
8417.882027
 20
446.387929
 30
0.0
 11
8418.560395
 21
447.744664
 31
0.0
  0
LINE
  5
321
100
AcDbEntity
  8
AM_4
100
AcDbLine
 10
8418.560395
 20
447.744664
 30
0.0
 11
8419.577946
 21
448.762215
 31
0.0
  0
LINE
  5
322
100
AcDbEntity
  8
AM_4
100
AcDbLine
 10
8419.577946
 20
448.762215
 30
0.0
 11
8420.595497
 21
449.610174
 31
0.0
  0
LINE
  5
323
100
AcDbEntity
  8
AM_4
100
AcDbLine
 10
8420.595497
 20
449.610174
 30
0.0
 11
8422.630599
 21
450.11895
 31
0.0
  0
LINE
  5
324
100
AcDbEntity
  8
AM_4
100
AcDbLine
 10
8422.630599
 20
450.11895
 30
0.0
 11
8423.64815
 21
450.288542
 31
0.0
  0
LINE
  5
325
100
AcDbEntity
  8
AM_4
100
AcDbLine
 10
8423.64815
 20
450.288542
 30
0.0
 11
8425.513661
 21
450.288542
 31
0.0
  0
LINE
  5
326
100
AcDbEntity
  8
AM_4
100
AcDbLine
 10
8410.75917
 20
462.983703
 30
0.0
 11
8408.554475
 21
462.135744
 31
0.0
  0
LINE
  5
327
100
AcDbEntity
  8
AM_4
100
AcDbLine
 10
8417.542844
 20
444.522419
 30
0.0
 11
8417.542844
 21
444.522419
 31
0.0
  0
LINE
  5
328
100
AcDbEntity
  8
AM_4
100
AcDbLine
 10
8428.057539
 20
448.423031
 30
0.0
 11
8428.905498
 21
450.627725
 31
0.0
  0
LINE
  5
329
100
AcDbEntity
  8
AM_4
100
AcDbLine
 10
8428.905498
 20
450.627725
 30
0.0
 11
8430.092641
 21
452.83242
 31
0.0
  0
LINE
  5
32A
100
AcDbEntity
  8
AM_4
100
AcDbLine
 10
8430.092641
 20
452.83242
 30
0.0
 11
8431.279784
 21
454.867522
 31
0.0
  0
LINE
  5
32B
100
AcDbEntity
  8
AM_4
100
AcDbLine
 10
8408.554475
 20
462.135744
 30
0.0
 11
8406.882784
 21
460.948601
 31
0.0
  0
LINE
  5
32C
100
AcDbEntity
  8
AM_4
100
AcDbLine
 10
8447.536374
 20
449.949358
 30
0.0
 11
8445.162088
 21
448.25344
 31
0.0
  0
LINE
  5
32D
100
AcDbEntity
  8
AM_4
100
AcDbLine
 10
8445.162088
 20
448.25344
 30
0.0
 11
8443.126986
 21
445.879154
 31
0.0
  0
LINE
  5
32E
100
AcDbEntity
  8
AM_4
100
AcDbLine
 10
8432.781883
 20
456.708805
 30
0.0
 11
8436.512904
 21
460.100642
 31
0.0
  0
LINE
  5
32F
100
AcDbEntity
  8
AM_4
100
AcDbLine
 10
8436.512904
 20
460.100642
 30
0.0
 11
8438.548006
 21
461.457377
 31
0.0
  0
LINE
  5
330
100
AcDbEntity
  8
AM_4
100
AcDbLine
 10
8438.548006
 20
461.457377
 30
0.0
 11
8440.922292
 21
462.64452
 31
0.0
  0
LINE
  5
331
100
AcDbEntity
  8
AM_4
100
AcDbLine
 10
8405.356458
 20
459.761458
 30
0.0
 11
8404.169315
 21
458.404723
 31
0.0
  0
LINE
  5
332
100
AcDbEntity
  8
AM_4
100
AcDbLine
 10
8404.169315
 20
458.404723
 30
0.0
 11
8403.151764
 21
457.047988
 31
0.0
  0
LINE
  5
333
100
AcDbEntity
  8
AM_4
100
AcDbLine
 10
8403.151764
 20
457.047988
 30
0.0
 11
8401.964621
 21
454.189154
 31
0.0
  0
LINE
  5
334
100
AcDbEntity
  8
AM_4
100
AcDbLine
 10
8401.964621
 20
454.189154
 30
0.0
 11
8401.286253
 21
451.814868
 31
0.0
  0
LINE
  5
335
100
AcDbEntity
  8
AM_4
100
AcDbLine
 10
8401.286253
 20
451.814868
 30
0.0
 11
8401.116661
 21
449.610174
 31
0.0
  0
LINE
  5
336
100
AcDbEntity
  8
AM_4
100
AcDbLine
 10
8406.882784
 20
460.948601
 30
0.0
 11
8405.356458
 21
459.761458
 31
0.0
  0
LINE
  5
337
100
AcDbEntity
  8
AM_4
100
AcDbLine
 10
8441.600659
 20
437.569153
 30
0.0
 11
8441.939843
 21
436.212418
 31
0.0
  0
LINE
  5
338
100
AcDbEntity
  8
AM_4
100
AcDbLine
 10
8426.531212
 20
435.534051
 30
0.0
 11
8426.36162
 21
439.095479
 31
0.0
  0
LINE
  5
339
100
AcDbEntity
  8
AM_4
100
AcDbLine
 10
8431.958151
 20
421.482154
 30
0.0
 11
8430.431825
 21
423.85644
 31
0.0
  0
LINE
  5
33A
100
AcDbEntity
  8
AM_4
100
AcDbLine
 10
8430.431825
 20
423.85644
 30
0.0
 11
8429.07509
 21
426.400318
 31
0.0
  0
LINE
  5
33B
100
AcDbEntity
  8
AM_4
100
AcDbLine
 10
8429.07509
 20
426.400318
 30
0.0
 11
8427.887947
 21
429.283379
 31
0.0
  0
LINE
  5
33C
100
AcDbEntity
  8
AM_4
100
AcDbLine
 10
8427.887947
 20
429.283379
 30
0.0
 11
8427.039987
 21
432.336033
 31
0.0
  0
LINE
  5
33D
100
AcDbEntity
  8
AM_4
100
AcDbLine
 10
8427.039987
 20
432.336033
 30
0.0
 11
8426.531212
 21
435.534051
 31
0.0
  0
LINE
  5
33E
100
AcDbEntity
  8
AM_4
100
AcDbLine
 10
8441.939843
 20
436.212418
 30
0.0
 11
8442.448619
 21
435.025275
 31
0.0
  0
LINE
  5
33F
100
AcDbEntity
  8
AM_4
100
AcDbLine
 10
8442.448619
 20
435.025275
 30
0.0
 11
8442.448619
 21
435.025275
 31
0.0
  0
LINE
  5
340
100
AcDbEntity
  8
AM_4
100
AcDbLine
 10
8448.553925
 20
411.137051
 30
0.0
 11
8445.670864
 21
411.815418
 31
0.0
  0
LINE
  5
341
100
AcDbEntity
  8
AM_4
100
AcDbLine
 10
8445.670864
 20
411.815418
 30
0.0
 11
8443.126986
 21
412.83297
 31
0.0
  0
LINE
  5
342
100
AcDbEntity
  8
AM_4
100
AcDbLine
 10
8443.126986
 20
412.83297
 30
0.0
 11
8440.583108
 21
414.189704
 31
0.0
  0
LINE
  5
343
100
AcDbEntity
  8
AM_4
100
AcDbLine
 10
8440.583108
 20
414.189704
 30
0.0
 11
8438.208822
 21
415.546439
 31
0.0
  0
LINE
  5
344
100
AcDbEntity
  8
AM_4
100
AcDbLine
 10
8438.208822
 20
415.546439
 30
0.0
 11
8435.834536
 21
417.242358
 31
0.0
  0
LINE
  5
345
100
AcDbEntity
  8
AM_4
100
AcDbLine
 10
8435.834536
 20
417.242358
 30
0.0
 11
8433.799434
 21
419.27746
 31
0.0
  0
LINE
  5
346
100
AcDbEntity
  8
AM_4
100
AcDbLine
 10
8433.799434
 20
419.27746
 30
0.0
 11
8431.958151
 21
421.482154
 31
0.0
  0
LINE
  5
347
100
AcDbEntity
  8
AM_4
100
AcDbLine
 10
8426.36162
 20
439.095479
 30
0.0
 11
8426.870396
 21
443.844051
 31
0.0
  0
LINE
  5
348
100
AcDbEntity
  8
AM_4
100
AcDbLine
 10
8441.939843
 20
443.504868
 30
0.0
 11
8441.431068
 21
441.300174
 31
0.0
  0
LINE
  5
349
100
AcDbEntity
  8
AM_4
100
AcDbLine
 10
8441.431068
 20
441.300174
 30
0.0
 11
8441.261476
 21
439.265071
 31
0.0
  0
LINE
  5
34A
100
AcDbEntity
  8
AM_4
100
AcDbLine
 10
8441.261476
 20
439.265071
 30
0.0
 11
8441.600659
 21
437.569153
 31
0.0
  0
LINE
  5
34B
100
AcDbEntity
  8
AM_4
100
AcDbLine
 10
8370.715489
 20
399.633257
 30
0.0
 11
8368.143657
 21
399.633257
 31
0.0
  0
LINE
  5
34C
100
AcDbEntity
  8
AM_4
100
AcDbLine
 10
8368.143657
 20
399.633257
 30
0.0
 11
8368.143657
 21
399.633257
 31
0.0
  0
LINE
  5
34D
100
AcDbEntity
  8
AM_4
100
AcDbLine
 10
8368.162293
 20
399.055526
 30
0.0
 11
8368.218203
 21
398.477796
 31
0.0
  0
LINE
  5
34E
100
AcDbEntity
  8
AM_4
100
AcDbLine
 10
8368.218203
 20
398.477796
 30
0.0
 11
8368.292749
 21
397.900065
 31
0.0
  0
LINE
  5
34F
100
AcDbEntity
  8
AM_4
100
AcDbLine
 10
8368.292749
 20
397.900065
 30
0.0
 11
8368.385931
 21
397.340971
 31
0.0
  0
LINE
  5
350
100
AcDbEntity
  8
AM_4
100
AcDbLine
 10
8368.385931
 20
397.340971
 30
0.0
 11
8368.516386
 21
396.781877
 31
0.0
  0
LINE
  5
351
100
AcDbEntity
  8
AM_4
100
AcDbLine
 10
8368.516386
 20
396.781877
 30
0.0
 11
8368.684114
 21
396.24142
 31
0.0
  0
LINE
  5
352
100
AcDbEntity
  8
AM_4
100
AcDbLine
 10
8368.684114
 20
396.24142
 30
0.0
 11
8368.870479
 21
395.700962
 31
0.0
  0
LINE
  5
353
100
AcDbEntity
  8
AM_4
100
AcDbLine
 10
8368.870479
 20
395.700962
 30
0.0
 11
8369.07548
 21
395.179141
 31
0.0
  0
LINE
  5
354
100
AcDbEntity
  8
AM_4
100
AcDbLine
 10
8369.07548
 20
395.179141
 30
0.0
 11
8369.317754
 21
394.675956
 31
0.0
  0
LINE
  5
355
100
AcDbEntity
  8
AM_4
100
AcDbLine
 10
8369.317754
 20
394.675956
 30
0.0
 11
8369.578665
 21
394.172772
 31
0.0
  0
LINE
  5
356
100
AcDbEntity
  8
AM_4
100
AcDbLine
 10
8369.578665
 20
394.172772
 30
0.0
 11
8369.858212
 21
393.70686
 31
0.0
  0
LINE
  5
357
100
AcDbEntity
  8
AM_4
100
AcDbLine
 10
8369.858212
 20
393.70686
 30
0.0
 11
8370.156395
 21
393.240948
 31
0.0
  0
LINE
  5
358
100
AcDbEntity
  8
AM_4
100
AcDbLine
 10
8370.156395
 20
393.240948
 30
0.0
 11
8370.473215
 21
392.793673
 31
0.0
  0
LINE
  5
359
100
AcDbEntity
  8
AM_4
100
AcDbLine
 10
8370.473215
 20
392.793673
 30
0.0
 11
8370.827308
 21
392.365034
 31
0.0
  0
LINE
  5
35A
100
AcDbEntity
  8
AM_4
100
AcDbLine
 10
8370.827308
 20
392.365034
 30
0.0
 11
8371.200038
 21
391.936396
 31
0.0
  0
LINE
  5
35B
100
AcDbEntity
  8
AM_4
100
AcDbLine
 10
8371.200038
 20
391.936396
 30
0.0
 11
8371.572767
 21
391.54503
 31
0.0
  0
LINE
  5
35C
100
AcDbEntity
  8
AM_4
100
AcDbLine
 10
8371.572767
 20
391.54503
 30
0.0
 11
8371.982769
 21
391.1723
 31
0.0
  0
LINE
  5
35D
100
AcDbEntity
  8
AM_4
100
AcDbLine
 10
8371.982769
 20
391.1723
 30
0.0
 11
8372.411408
 21
390.799571
 31
0.0
  0
LINE
  5
35E
100
AcDbEntity
  8
AM_4
100
AcDbLine
 10
8372.411408
 20
390.799571
 30
0.0
 11
8372.840047
 21
390.464115
 31
0.0
  0
LINE
  5
35F
100
AcDbEntity
  8
AM_4
100
AcDbLine
 10
8372.840047
 20
390.464115
 30
0.0
 11
8373.287322
 21
390.147295
 31
0.0
  0
LINE
  5
360
100
AcDbEntity
  8
AM_4
100
AcDbLine
 10
8373.287322
 20
390.147295
 30
0.0
 11
8373.77187
 21
389.849111
 31
0.0
  0
LINE
  5
361
100
AcDbEntity
  8
AM_4
100
AcDbLine
 10
8373.77187
 20
389.849111
 30
0.0
 11
8374.237782
 21
389.569564
 31
0.0
  0
LINE
  5
362
100
AcDbEntity
  8
AM_4
100
AcDbLine
 10
8374.237782
 20
389.569564
 30
0.0
 11
8374.740966
 21
389.32729
 31
0.0
  0
LINE
  5
363
100
AcDbEntity
  8
AM_4
100
AcDbLine
 10
8374.740966
 20
389.32729
 30
0.0
 11
8375.262787
 21
389.085016
 31
0.0
  0
LINE
  5
364
100
AcDbEntity
  8
AM_4
100
AcDbLine
 10
8375.262787
 20
389.085016
 30
0.0
 11
8375.784609
 21
388.898651
 31
0.0
  0
LINE
  5
365
100
AcDbEntity
  8
AM_4
100
AcDbLine
 10
8375.784609
 20
388.898651
 30
0.0
 11
8376.325066
 21
388.712287
 31
0.0
  0
LINE
  5
366
100
AcDbEntity
  8
AM_4
100
AcDbLine
 10
8376.325066
 20
388.712287
 30
0.0
 11
8376.865524
 21
388.544559
 31
0.0
  0
LINE
  5
367
100
AcDbEntity
  8
AM_4
100
AcDbLine
 10
8376.865524
 20
388.544559
 30
0.0
 11
8377.983712
 21
388.320921
 31
0.0
  0
LINE
  5
368
100
AcDbEntity
  8
AM_4
100
AcDbLine
 10
8377.983712
 20
388.320921
 30
0.0
 11
8379.139173
 21
388.209102
 31
0.0
  0
LINE
  5
369
100
AcDbEntity
  8
AM_4
100
AcDbLine
 10
8379.139173
 20
388.209102
 30
0.0
 11
8379.716903
 21
388.190466
 31
0.0
  0
LINE
  5
36A
100
AcDbEntity
  8
AM_4
100
AcDbLine
 10
8379.269628
 20
390.762298
 30
0.0
 11
8378.803716
 21
390.799571
 31
0.0
  0
LINE
  5
36B
100
AcDbEntity
  8
AM_4
100
AcDbLine
 10
8378.803716
 20
390.799571
 30
0.0
 11
8378.356441
 21
390.85548
 31
0.0
  0
LINE
  5
36C
100
AcDbEntity
  8
AM_4
100
AcDbLine
 10
8378.356441
 20
390.85548
 30
0.0
 11
8377.927802
 21
390.930026
 31
0.0
  0
LINE
  5
36D
100
AcDbEntity
  8
AM_4
100
AcDbLine
 10
8377.070525
 20
391.153664
 30
0.0
 11
8377.927802
 21
390.930026
 31
0.0
  0
LINE
  5
36E
100
AcDbEntity
  8
AM_4
100
AcDbLine
 10
8376.25052
 20
391.451847
 30
0.0
 11
8377.070525
 21
391.153664
 31
0.0
  0
LINE
  5
36F
100
AcDbEntity
  8
AM_4
100
AcDbLine
 10
8376.25052
 20
391.451847
 30
0.0
 11
8375.840518
 21
391.638212
 31
0.0
  0
LINE
  5
370
100
AcDbEntity
  8
AM_4
100
AcDbLine
 10
8375.840518
 20
391.638212
 30
0.0
 11
8375.467789
 21
391.824577
 31
0.0
  0
LINE
  5
371
100
AcDbEntity
  8
AM_4
100
AcDbLine
 10
8375.467789
 20
391.824577
 30
0.0
 11
8375.076423
 21
392.048214
 31
0.0
  0
LINE
  5
372
100
AcDbEntity
  8
AM_4
100
AcDbLine
 10
8375.076423
 20
392.048214
 30
0.0
 11
8374.72233
 21
392.290488
 31
0.0
  0
LINE
  5
373
100
AcDbEntity
  8
AM_4
100
AcDbLine
 10
8374.72233
 20
392.290488
 30
0.0
 11
8374.349601
 21
392.532763
 31
0.0
  0
LINE
  5
374
100
AcDbEntity
  8
AM_4
100
AcDbLine
 10
8374.349601
 20
392.532763
 30
0.0
 11
8374.014144
 21
392.793673
 31
0.0
  0
LINE
  5
375
100
AcDbEntity
  8
AM_4
100
AcDbLine
 10
8374.014144
 20
392.793673
 30
0.0
 11
8373.678688
 21
393.07322
 31
0.0
  0
LINE
  5
376
100
AcDbEntity
  8
AM_4
100
AcDbLine
 10
8373.063684
 20
393.688224
 30
0.0
 11
8373.678688
 21
393.07322
 31
0.0
  0
LINE
  5
377
100
AcDbEntity
  8
AM_4
100
AcDbLine
 10
8373.063684
 20
393.688224
 30
0.0
 11
8372.784137
 21
394.005043
 31
0.0
  0
LINE
  5
378
100
AcDbEntity
  8
AM_4
100
AcDbLine
 10
8372.784137
 20
394.005043
 30
0.0
 11
8372.523227
 21
394.3405
 31
0.0
  0
LINE
  5
379
100
AcDbEntity
  8
AM_4
100
AcDbLine
 10
8372.523227
 20
394.3405
 30
0.0
 11
8372.262316
 21
394.694593
 31
0.0
  0
LINE
  5
37A
100
AcDbEntity
  8
AM_4
100
AcDbLine
 10
8372.262316
 20
394.694593
 30
0.0
 11
8372.020042
 21
395.048686
 31
0.0
  0
LINE
  5
37B
100
AcDbEntity
  8
AM_4
100
AcDbLine
 10
8372.020042
 20
395.048686
 30
0.0
 11
8371.796404
 21
395.421415
 31
0.0
  0
LINE
  5
37C
100
AcDbEntity
  8
AM_4
100
AcDbLine
 10
8371.796404
 20
395.421415
 30
0.0
 11
8371.61004
 21
395.812781
 31
0.0
  0
LINE
  5
37D
100
AcDbEntity
  8
AM_4
100
AcDbLine
 10
8371.61004
 20
395.812781
 30
0.0
 11
8371.423675
 21
396.18551
 31
0.0
  0
LINE
  5
37E
100
AcDbEntity
  8
AM_4
100
AcDbLine
 10
8371.423675
 20
396.18551
 30
0.0
 11
8371.255947
 21
396.595512
 31
0.0
  0
LINE
  5
37F
100
AcDbEntity
  8
AM_4
100
AcDbLine
 10
8371.255947
 20
396.595512
 30
0.0
 11
8371.106855
 21
397.005515
 31
0.0
  0
LINE
  5
380
100
AcDbEntity
  8
AM_4
100
AcDbLine
 10
8371.106855
 20
397.005515
 30
0.0
 11
8370.995036
 21
397.434153
 31
0.0
  0
LINE
  5
381
100
AcDbEntity
  8
AM_4
100
AcDbLine
 10
8370.808672
 20
398.291431
 30
0.0
 11
8370.995036
 21
397.434153
 31
0.0
  0
LINE
  5
382
100
AcDbEntity
  8
AM_4
100
AcDbLine
 10
8370.808672
 20
398.291431
 30
0.0
 11
8370.752762
 21
398.738706
 31
0.0
  0
LINE
  5
383
100
AcDbEntity
  8
AM_4
100
AcDbLine
 10
8379.716903
 20
390.762298
 30
0.0
 11
8379.716903
 21
388.190466
 31
0.0
  0
LINE
  5
384
100
AcDbEntity
  8
AM_4
100
AcDbLine
 10
8379.716903
 20
388.190466
 30
0.0
 11
8379.716903
 21
388.190466
 31
0.0
  0
LINE
  5
385
100
AcDbEntity
  8
AM_4
100
AcDbLine
 10
8379.716903
 20
389.476382
 30
0.0
 11
8377.648255
 21
389.606837
 31
0.0
  0
LINE
  5
386
100
AcDbEntity
  8
AM_4
100
AcDbLine
 10
8377.648255
 20
389.606837
 30
0.0
 11
8375.821881
 21
390.259114
 31
0.0
  0
LINE
  5
387
100
AcDbEntity
  8
AM_4
100
AcDbLine
 10
8375.821881
 20
390.259114
 30
0.0
 11
8373.995508
 21
391.1723
 31
0.0
  0
LINE
  5
388
100
AcDbEntity
  8
AM_4
100
AcDbLine
 10
8373.995508
 20
391.1723
 30
0.0
 11
8372.5605
 21
392.476853
 31
0.0
  0
LINE
  5
389
100
AcDbEntity
  8
AM_4
100
AcDbLine
 10
8372.5605
 20
392.476853
 30
0.0
 11
8371.255947
 21
393.911861
 31
0.0
  0
LINE
  5
38A
100
AcDbEntity
  8
AM_4
100
AcDbLine
 10
8371.255947
 20
393.911861
 30
0.0
 11
8370.34276
 21
395.738235
 31
0.0
  0
LINE
  5
38B
100
AcDbEntity
  8
AM_4
100
AcDbLine
 10
8370.34276
 20
395.738235
 30
0.0
 11
8369.690484
 21
397.564609
 31
0.0
  0
ARC
  5
38C
100
AcDbEntity
  8
AM_4
100
AcDbCircle
 10
8379.715686
 20
399.786228
 30
0.0
 40
9.02393
100
AcDbArc
 50
186.666075
 51
270.007725
  0
ARC
  5
38D
100
AcDbEntity
  8
AM_4
100
AcDbCircle
 10
8379.715686
 20
399.786228
 30
0.0
 40
9.223959
100
AcDbArc
 50
186.666075
 51
270.007725
  0
LINE
  5
38E
100
AcDbEntity
  8
AM_4
100
AcDbLine
 10
8368.143657
 20
399.633257
 30
0.0
 11
8368.162293
 21
399.055526
 31
0.0
  0
LINE
  5
38F
100
AcDbEntity
  8
AM_4
100
AcDbLine
 10
8370.752762
 20
398.738706
 30
0.0
 11
8370.715489
 21
399.185981
 31
0.0
  0
LINE
  5
390
100
AcDbEntity
  8
AM_4
100
AcDbLine
 10
8369.690484
 20
397.564609
 30
0.0
 11
8369.429573
 21
399.633257
 31
0.0
  0
ARC
  5
391
100
AcDbEntity
  8
AM_4
100
AcDbCircle
 10
8376.700862
 20
399.433877
 30
0.0
 40
6.188613
100
AcDbArc
 50
178.153773
 51
186.666075
  0
LINE
  5
392
100
AcDbEntity
  8
AM_4
100
AcDbLine
 10
8401.116661
 20
410.797867
 30
0.0
 11
8417.542844
 21
410.797867
 31
0.0
  0
LINE
  5
393
100
AcDbEntity
  8
AM_4
100
AcDbLine
 10
8417.542844
 20
410.797867
 30
0.0
 11
8417.542844
 21
444.522419
 31
0.0
  0
LINE
  5
394
100
AcDbEntity
  8
AM_4
100
AcDbLine
 10
8401.116661
 20
449.610174
 30
0.0
 11
8401.116661
 21
410.797867
 31
0.0
  0
LINE
  5
395
100
AcDbEntity
  8
AM_4
100
AcDbLine
 10
8426.870396
 20
443.844051
 30
0.0
 11
8428.057539
 21
448.423031
 31
0.0
  0
LINE
  5
396
100
AcDbEntity
  8
AM_4
100
AcDbLine
 10
8443.126986
 20
445.879154
 30
0.0
 11
8441.939843
 21
443.504868
 31
0.0
  0
LINE
  5
397
100
AcDbEntity
  8
AM_4
100
AcDbLine
 10
8451.267395
 20
410.458684
 30
0.0
 11
8448.553925
 21
411.137051
 31
0.0
  0
LINE
  5
398
100
AcDbEntity
  8
AM_4
100
AcDbLine
 10
8450.080252
 20
450.797317
 30
0.0
 11
8447.536374
 21
449.949358
 31
0.0
  0
LINE
  5
399
100
AcDbEntity
  8
AM_4
100
AcDbLine
 10
8535.457637
 20
450.627725
 30
0.0
 11
8536.64478
 21
452.83242
 31
0.0
  0
LINE
  5
39A
100
AcDbEntity
  8
AM_4
100
AcDbLine
 10
8536.64478
 20
452.83242
 30
0.0
 11
8538.001514
 21
454.867522
 31
0.0
  0
LINE
  5
39B
100
AcDbEntity
  8
AM_4
100
AcDbLine
 10
8538.001514
 20
454.867522
 30
0.0
 11
8539.358249
 21
456.708805
 31
0.0
  0
LINE
  5
39C
100
AcDbEntity
  8
AM_4
100
AcDbLine
 10
8539.358249
 20
456.708805
 30
0.0
 11
8543.08927
 21
460.100642
 31
0.0
  0
LINE
  5
39D
100
AcDbEntity
  8
AM_4
100
AcDbLine
 10
8543.08927
 20
460.100642
 30
0.0
 11
8545.124372
 21
461.457377
 31
0.0
  0
LINE
  5
39E
100
AcDbEntity
  8
AM_4
100
AcDbLine
 10
8545.124372
 20
461.457377
 30
0.0
 11
8547.498658
 21
462.64452
 31
0.0
  0
LINE
  5
39F
100
AcDbEntity
  8
AM_4
100
AcDbLine
 10
8497.8567
 20
459.93105
 30
0.0
 11
8505.14915
 21
459.93105
 31
0.0
  0
LINE
  5
3A0
100
AcDbEntity
  8
AM_4
100
AcDbLine
 10
8505.14915
 20
459.93105
 30
0.0
 11
8505.14915
 21
447.235888
 31
0.0
  0
LINE
  5
3A1
100
AcDbEntity
  8
AM_4
100
AcDbLine
 10
8505.14915
 20
447.235888
 30
0.0
 11
8497.8567
 21
447.235888
 31
0.0
  0
LINE
  5
3A2
100
AcDbEntity
  8
AM_4
100
AcDbLine
 10
8474.138068
 20
454.019563
 30
0.0
 11
8476.342762
 21
450.627725
 31
0.0
  0
LINE
  5
3A3
100
AcDbEntity
  8
AM_4
100
AcDbLine
 10
8468.371945
 20
459.591866
 30
0.0
 11
8471.59419
 21
456.878397
 31
0.0
  0
LINE
  5
3A4
100
AcDbEntity
  8
AM_4
100
AcDbLine
 10
8471.59419
 20
456.878397
 30
0.0
 11
8474.138068
 21
454.019563
 31
0.0
  0
LINE
  5
3A5
100
AcDbEntity
  8
AM_4
100
AcDbLine
 10
8460.909903
 20
463.492479
 30
0.0
 11
8464.810516
 21
461.79656
 31
0.0
  0
LINE
  5
3A6
100
AcDbEntity
  8
AM_4
100
AcDbLine
 10
8464.810516
 20
461.79656
 30
0.0
 11
8468.371945
 21
459.591866
 31
0.0
  0
LINE
  5
3A7
100
AcDbEntity
  8
AM_4
100
AcDbLine
 10
8476.342762
 20
450.627725
 30
0.0
 11
8477.869089
 21
447.235888
 31
0.0
  0
LINE
  5
3A8
100
AcDbEntity
  8
AM_4
100
AcDbLine
 10
8534.609677
 20
448.423031
 30
0.0
 11
8535.457637
 21
450.627725
 31
0.0
  0
LINE
  5
3A9
100
AcDbEntity
  8
AM_4
100
AcDbLine
 10
8548.177026
 20
437.569153
 30
0.0
 11
8548.516209
 21
436.212418
 31
0.0
  0
LINE
  5
3AA
100
AcDbEntity
  8
AM_4
100
AcDbLine
 10
8547.159475
 20
414.189704
 30
0.0
 11
8544.785189
 21
415.546439
 31
0.0
  0
LINE
  5
3AB
100
AcDbEntity
  8
AM_4
100
AcDbLine
 10
8544.785189
 20
415.546439
 30
0.0
 11
8542.580495
 21
417.242358
 31
0.0
  0
LINE
  5
3AC
100
AcDbEntity
  8
AM_4
100
AcDbLine
 10
8542.580495
 20
417.242358
 30
0.0
 11
8540.3758
 21
419.27746
 31
0.0
  0
LINE
  5
3AD
100
AcDbEntity
  8
AM_4
100
AcDbLine
 10
8540.3758
 20
419.27746
 30
0.0
 11
8538.51029
 21
421.482154
 31
0.0
  0
LINE
  5
3AE
100
AcDbEntity
  8
AM_4
100
AcDbLine
 10
8538.51029
 20
421.482154
 30
0.0
 11
8536.983963
 21
423.85644
 31
0.0
  0
LINE
  5
3AF
100
AcDbEntity
  8
AM_4
100
AcDbLine
 10
8536.983963
 20
423.85644
 30
0.0
 11
8535.627229
 21
426.400318
 31
0.0
  0
LINE
  5
3B0
100
AcDbEntity
  8
AM_4
100
AcDbLine
 10
8548.516209
 20
436.212418
 30
0.0
 11
8549.024985
 21
435.025275
 31
0.0
  0
LINE
  5
3B1
100
AcDbEntity
  8
AM_4
100
AcDbLine
 10
8549.024985
 20
435.025275
 30
0.0
 11
8549.024985
 21
435.025275
 31
0.0
  0
LINE
  5
3B2
100
AcDbEntity
  8
AM_4
100
AcDbLine
 10
8549.703352
 20
412.83297
 30
0.0
 11
8547.159475
 21
414.189704
 31
0.0
  0
LINE
  5
3B3
100
AcDbEntity
  8
AM_4
100
AcDbLine
 10
8548.516209
 20
443.504868
 30
0.0
 11
8548.007434
 21
441.300174
 31
0.0
  0
LINE
  5
3B4
100
AcDbEntity
  8
AM_4
100
AcDbLine
 10
8548.007434
 20
441.300174
 30
0.0
 11
8547.837842
 21
439.265071
 31
0.0
  0
LINE
  5
3B5
100
AcDbEntity
  8
AM_4
100
AcDbLine
 10
8547.837842
 20
439.265071
 30
0.0
 11
8548.177026
 21
437.569153
 31
0.0
  0
LINE
  5
3B6
100
AcDbEntity
  8
AM_4
100
AcDbLine
 10
8533.083351
 20
435.534051
 30
0.0
 11
8532.913759
 21
439.095479
 31
0.0
  0
LINE
  5
3B7
100
AcDbEntity
  8
AM_4
100
AcDbLine
 10
8511.230229
 20
410.967459
 30
0.0
 11
8528.359006
 21
410.967459
 31
0.0
  0
LINE
  5
3B8
100
AcDbEntity
  8
AM_4
100
AcDbLine
 10
8534.440086
 20
429.283379
 30
0.0
 11
8533.592126
 21
432.336033
 31
0.0
  0
LINE
  5
3B9
100
AcDbEntity
  8
AM_4
100
AcDbLine
 10
8533.592126
 20
432.336033
 30
0.0
 11
8533.083351
 21
435.534051
 31
0.0
  0
LINE
  5
3BA
100
AcDbEntity
  8
AM_4
100
AcDbLine
 10
8532.913759
 20
439.095479
 30
0.0
 11
8533.422534
 21
443.844051
 31
0.0
  0
LINE
  5
3BB
100
AcDbEntity
  8
AM_4
100
AcDbLine
 10
8475.155619
 20
414.69848
 30
0.0
 11
8473.968476
 21
414.020113
 31
0.0
  0
LINE
  5
3BC
100
AcDbEntity
  8
AM_4
100
AcDbLine
 10
8471.424598
 20
428.774604
 30
0.0
 11
8475.155619
 21
431.318482
 31
0.0
  0
LINE
  5
3BD
100
AcDbEntity
  8
AM_4
100
AcDbLine
 10
8473.968476
 20
414.020113
 30
0.0
 11
8470.237455
 21
412.324194
 31
0.0
  0
LINE
  5
3BE
100
AcDbEntity
  8
AM_4
100
AcDbLine
 10
8467.523986
 20
411.476235
 30
0.0
 11
8464.471332
 21
410.797867
 31
0.0
  0
LINE
  5
3BF
100
AcDbEntity
  8
AM_4
100
AcDbLine
 10
8464.471332
 20
410.797867
 30
0.0
 11
8460.909903
 21
410.289092
 31
0.0
  0
LINE
  5
3C0
100
AcDbEntity
  8
AM_4
100
AcDbLine
 10
8459.383577
 20
424.534807
 30
0.0
 11
8461.418679
 21
424.704399
 31
0.0
  0
LINE
  5
3C1
100
AcDbEntity
  8
AM_4
100
AcDbLine
 10
8461.418679
 20
424.704399
 30
0.0
 11
8463.453781
 21
425.213175
 31
0.0
  0
LINE
  5
3C2
100
AcDbEntity
  8
AM_4
100
AcDbLine
 10
8463.453781
 20
425.213175
 30
0.0
 11
8467.693577
 21
426.739502
 31
0.0
  0
LINE
  5
3C3
100
AcDbEntity
  8
AM_4
100
AcDbLine
 10
8470.237455
 20
412.324194
 30
0.0
 11
8467.523986
 21
411.476235
 31
0.0
  0
LINE
  5
3C4
100
AcDbEntity
  8
AM_4
100
AcDbLine
 10
8467.693577
 20
426.739502
 30
0.0
 11
8471.424598
 21
428.774604
 31
0.0
  0
LINE
  5
3C5
100
AcDbEntity
  8
AM_4
100
AcDbLine
 10
8481.40629
 20
410.967459
 30
0.0
 11
8481.40629
 21
410.967459
 31
0.0
  0
LINE
  5
3C6
100
AcDbEntity
  8
AM_4
100
AcDbLine
 10
8475.155619
 20
431.318482
 30
0.0
 11
8475.155619
 21
414.69848
 31
0.0
  0
LINE
  5
3C7
100
AcDbEntity
  8
AM_4
100
AcDbLine
 10
8475.155619
 20
431.318482
 30
0.0
 11
8475.155619
 21
431.318482
 31
0.0
  0
LINE
  5
3C8
100
AcDbEntity
  8
AM_4
100
AcDbLine
 10
8497.8567
 20
410.967459
 30
0.0
 11
8481.40629
 21
410.967459
 31
0.0
  0
LINE
  5
3C9
100
AcDbEntity
  8
AM_4
100
AcDbLine
 10
8535.627229
 20
426.400318
 30
0.0
 11
8534.440086
 21
429.283379
 31
0.0
  0
LINE
  5
3CA
100
AcDbEntity
  8
AM_4
100
AcDbLine
 10
8497.8567
 20
447.235888
 30
0.0
 11
8497.8567
 21
410.967459
 31
0.0
  0
LINE
  5
3CB
100
AcDbEntity
  8
AM_4
100
AcDbLine
 10
8533.422534
 20
443.844051
 30
0.0
 11
8534.609677
 21
448.423031
 31
0.0
  0
LINE
  5
3CC
100
AcDbEntity
  8
AM_4
100
AcDbLine
 10
8549.703352
 20
445.879154
 30
0.0
 11
8548.516209
 21
443.504868
 31
0.0
  0
LINE
  5
3CD
100
AcDbEntity
  8
AM_4
100
AcDbLine
 10
8632.367267
 20
450.797317
 30
0.0
 11
8631.6889
 21
447.066297
 31
0.0
  0
LINE
  5
3CE
100
AcDbEntity
  8
AM_4
100
AcDbLine
 10
8631.6889
 20
447.066297
 30
0.0
 11
8630.840941
 21
444.861602
 31
0.0
  0
LINE
  5
3CF
100
AcDbEntity
  8
AM_4
100
AcDbLine
 10
8627.957879
 20
437.569153
 30
0.0
 11
8629.314614
 21
436.212418
 31
0.0
  0
LINE
  5
3D0
100
AcDbEntity
  8
AM_4
100
AcDbLine
 10
8629.314614
 20
436.212418
 30
0.0
 11
8630.840941
 21
434.346908
 31
0.0
  0
LINE
  5
3D1
100
AcDbEntity
  8
AM_4
100
AcDbLine
 10
8630.840941
 20
434.346908
 30
0.0
 11
8632.028084
 21
431.996849
 31
0.0
  0
LINE
  5
3D2
100
AcDbEntity
  8
AM_4
100
AcDbLine
 10
8632.028084
 20
431.996849
 30
0.0
 11
8633.045635
 21
428.944196
 31
0.0
  0
LINE
  5
3D3
100
AcDbEntity
  8
AM_4
100
AcDbLine
 10
8633.045635
 20
428.944196
 30
0.0
 11
8633.384818
 21
425.213175
 31
0.0
  0
LINE
  5
3D4
100
AcDbEntity
  8
AM_4
100
AcDbLine
 10
8633.384818
 20
425.213175
 30
0.0
 11
8633.384818
 21
410.967459
 31
0.0
  0
LINE
  5
3D5
100
AcDbEntity
  8
AM_4
100
AcDbLine
 10
8629.484206
 20
442.656908
 30
0.0
 11
8627.788287
 21
440.621806
 31
0.0
  0
LINE
  5
3D6
100
AcDbEntity
  8
AM_4
100
AcDbLine
 10
8627.788287
 20
440.621806
 30
0.0
 11
8625.438229
 21
439.095479
 31
0.0
  0
LINE
  5
3D7
100
AcDbEntity
  8
AM_4
100
AcDbLine
 10
8625.438229
 20
439.095479
 30
0.0
 11
8626.601144
 21
438.417112
 31
0.0
  0
LINE
  5
3D8
100
AcDbEntity
  8
AM_4
100
AcDbLine
 10
8626.601144
 20
438.417112
 30
0.0
 11
8627.957879
 21
437.569153
 31
0.0
  0
LINE
  5
3D9
100
AcDbEntity
  8
AM_4
100
AcDbLine
 10
8630.840941
 20
444.861602
 30
0.0
 11
8629.484206
 21
442.656908
 31
0.0
  0
LINE
  5
3DA
100
AcDbEntity
  8
AM_4
100
AcDbLine
 10
8580.690207
 20
454.019563
 30
0.0
 11
8582.894901
 21
450.627725
 31
0.0
  0
LINE
  5
3DB
100
AcDbEntity
  8
AM_4
100
AcDbLine
 10
8582.894901
 20
450.627725
 30
0.0
 11
8584.421228
 21
447.235888
 31
0.0
  0
LINE
  5
3DC
100
AcDbEntity
  8
AM_4
100
AcDbLine
 10
8588.152248
 20
448.762215
 30
0.0
 11
8587.813065
 21
452.323644
 31
0.0
  0
LINE
  5
3DD
100
AcDbEntity
  8
AM_4
100
AcDbLine
 10
8589.000208
 20
446.048745
 30
0.0
 11
8588.152248
 21
448.762215
 31
0.0
  0
LINE
  5
3DE
100
AcDbEntity
  8
AM_4
100
AcDbLine
 10
8604.069655
 20
453.002011
 30
0.0
 11
8604.578431
 21
450.627725
 31
0.0
  0
LINE
  5
3DF
100
AcDbEntity
  8
AM_4
100
AcDbLine
 10
8604.578431
 20
450.627725
 30
0.0
 11
8605.256798
 21
449.270991
 31
0.0
  0
LINE
  5
3E0
100
AcDbEntity
  8
AM_4
100
AcDbLine
 10
8605.256798
 20
449.270991
 30
0.0
 11
8606.274349
 21
448.25344
 31
0.0
  0
LINE
  5
3E1
100
AcDbEntity
  8
AM_4
100
AcDbLine
 10
8606.274349
 20
448.25344
 30
0.0
 11
8607.970268
 21
447.40548
 31
0.0
  0
LINE
  5
3E2
100
AcDbEntity
  8
AM_4
100
AcDbLine
 10
8607.970268
 20
447.40548
 30
0.0
 11
8610.00537
 21
447.235888
 31
0.0
  0
LINE
  5
3E3
100
AcDbEntity
  8
AM_4
100
AcDbLine
 10
8610.00537
 20
447.235888
 30
0.0
 11
8612.040472
 21
447.40548
 31
0.0
  0
LINE
  5
3E4
100
AcDbEntity
  8
AM_4
100
AcDbLine
 10
8612.040472
 20
447.40548
 30
0.0
 11
8613.736391
 21
448.25344
 31
0.0
  0
LINE
  5
3E5
100
AcDbEntity
  8
AM_4
100
AcDbLine
 10
8613.736391
 20
448.25344
 30
0.0
 11
8614.923534
 21
449.440582
 31
0.0
  0
LINE
  5
3E6
100
AcDbEntity
  8
AM_4
100
AcDbLine
 10
8614.923534
 20
449.440582
 30
0.0
 11
8615.601901
 21
450.627725
 31
0.0
  0
LINE
  5
3E7
100
AcDbEntity
  8
AM_4
100
AcDbLine
 10
8615.601901
 20
450.627725
 30
0.0
 11
8616.280269
 21
453.002011
 31
0.0
  0
LINE
  5
3E8
100
AcDbEntity
  8
AM_4
100
AcDbLine
 10
8616.280269
 20
453.002011
 30
0.0
 11
8616.44986
 21
454.189154
 31
0.0
  0
LINE
  5
3E9
100
AcDbEntity
  8
AM_4
100
AcDbLine
 10
8561.041779
 20
450.627725
 30
0.0
 11
8559.006677
 21
450.966909
 31
0.0
  0
LINE
  5
3EA
100
AcDbEntity
  8
AM_4
100
AcDbLine
 10
8559.006677
 20
450.966909
 30
0.0
 11
8556.632391
 21
450.797317
 31
0.0
  0
LINE
  5
3EB
100
AcDbEntity
  8
AM_4
100
AcDbLine
 10
8556.632391
 20
450.797317
 30
0.0
 11
8554.088513
 21
449.949358
 31
0.0
  0
LINE
  5
3EC
100
AcDbEntity
  8
AM_4
100
AcDbLine
 10
8554.088513
 20
449.949358
 30
0.0
 11
8551.738455
 21
448.25344
 31
0.0
  0
LINE
  5
3ED
100
AcDbEntity
  8
AM_4
100
AcDbLine
 10
8567.48627
 20
463.492479
 30
0.0
 11
8571.386882
 21
461.79656
 31
0.0
  0
LINE
  5
3EE
100
AcDbEntity
  8
AM_4
100
AcDbLine
 10
8571.386882
 20
461.79656
 30
0.0
 11
8574.948311
 21
459.591866
 31
0.0
  0
LINE
  5
3EF
100
AcDbEntity
  8
AM_4
100
AcDbLine
 10
8574.948311
 20
459.591866
 30
0.0
 11
8578.146329
 21
456.878397
 31
0.0
  0
LINE
  5
3F0
100
AcDbEntity
  8
AM_4
100
AcDbLine
 10
8565.451167
 20
448.762215
 30
0.0
 11
8564.264024
 21
449.440582
 31
0.0
  0
LINE
  5
3F1
100
AcDbEntity
  8
AM_4
100
AcDbLine
 10
8564.264024
 20
449.440582
 30
0.0
 11
8562.90729
 21
450.11895
 31
0.0
  0
LINE
  5
3F2
100
AcDbEntity
  8
AM_4
100
AcDbLine
 10
8562.90729
 20
450.11895
 30
0.0
 11
8561.041779
 21
450.627725
 31
0.0
  0
LINE
  5
3F3
100
AcDbEntity
  8
AM_4
100
AcDbLine
 10
8578.146329
 20
456.878397
 30
0.0
 11
8580.690207
 21
454.019563
 31
0.0
  0
LINE
  5
3F4
100
AcDbEntity
  8
AM_4
100
AcDbLine
 10
8590.356942
 20
435.534051
 30
0.0
 11
8592.222453
 21
437.569153
 31
0.0
  0
LINE
  5
3F5
100
AcDbEntity
  8
AM_4
100
AcDbLine
 10
8603.730471
 20
410.967459
 30
0.0
 11
8586.795513
 21
410.967459
 31
0.0
  0
LINE
  5
3F6
100
AcDbEntity
  8
AM_4
100
AcDbLine
 10
8588.830616
 20
433.159765
 30
0.0
 11
8590.356942
 21
435.534051
 31
0.0
  0
LINE
  5
3F7
100
AcDbEntity
  8
AM_4
100
AcDbLine
 10
8581.707758
 20
431.318482
 30
0.0
 11
8581.707758
 21
414.69848
 31
0.0
  0
LINE
  5
3F8
100
AcDbEntity
  8
AM_4
100
AcDbLine
 10
8581.707758
 20
414.69848
 30
0.0
 11
8580.520615
 21
414.020113
 31
0.0
  0
LINE
  5
3F9
100
AcDbEntity
  8
AM_4
100
AcDbLine
 10
8581.707758
 20
431.318482
 30
0.0
 11
8581.707758
 21
431.318482
 31
0.0
  0
LINE
  5
3FA
100
AcDbEntity
  8
AM_4
100
AcDbLine
 10
8586.795513
 20
410.967459
 30
0.0
 11
8586.795513
 21
425.043583
 31
0.0
  0
LINE
  5
3FB
100
AcDbEntity
  8
AM_4
100
AcDbLine
 10
8586.795513
 20
425.043583
 30
0.0
 11
8586.965105
 21
426.739502
 31
0.0
  0
LINE
  5
3FC
100
AcDbEntity
  8
AM_4
100
AcDbLine
 10
8586.965105
 20
426.739502
 30
0.0
 11
8587.304289
 21
428.605012
 31
0.0
  0
LINE
  5
3FD
100
AcDbEntity
  8
AM_4
100
AcDbLine
 10
8587.304289
 20
428.605012
 30
0.0
 11
8587.982656
 21
430.809706
 31
0.0
  0
LINE
  5
3FE
100
AcDbEntity
  8
AM_4
100
AcDbLine
 10
8587.982656
 20
430.809706
 30
0.0
 11
8588.830616
 21
433.159765
 31
0.0
  0
LINE
  5
3FF
100
AcDbEntity
  8
AM_4
100
AcDbLine
 10
8616.619452
 20
410.967459
 30
0.0
 11
8616.619452
 21
425.043583
 31
0.0
  0
LINE
  5
400
100
AcDbEntity
  8
AM_4
100
AcDbLine
 10
8616.619452
 20
425.043583
 30
0.0
 11
8616.44986
 21
426.400318
 31
0.0
  0
LINE
  5
401
100
AcDbEntity
  8
AM_4
100
AcDbLine
 10
8616.44986
 20
426.400318
 30
0.0
 11
8616.110677
 21
427.757053
 31
0.0
  0
LINE
  5
402
100
AcDbEntity
  8
AM_4
100
AcDbLine
 10
8616.110677
 20
427.757053
 30
0.0
 11
8615.432309
 21
429.283379
 31
0.0
  0
LINE
  5
403
100
AcDbEntity
  8
AM_4
100
AcDbLine
 10
8615.432309
 20
429.283379
 30
0.0
 11
8614.414758
 21
430.640114
 31
0.0
  0
LINE
  5
404
100
AcDbEntity
  8
AM_4
100
AcDbLine
 10
8614.414758
 20
430.640114
 30
0.0
 11
8612.71884
 21
431.488073
 31
0.0
  0
LINE
  5
405
100
AcDbEntity
  8
AM_4
100
AcDbLine
 10
8612.71884
 20
431.488073
 30
0.0
 11
8610.514146
 21
431.827257
 31
0.0
  0
LINE
  5
406
100
AcDbEntity
  8
AM_4
100
AcDbLine
 10
8610.514146
 20
431.827257
 30
0.0
 11
8608.13986
 21
431.488073
 31
0.0
  0
LINE
  5
407
100
AcDbEntity
  8
AM_4
100
AcDbLine
 10
8608.13986
 20
431.488073
 30
0.0
 11
8606.443941
 21
430.640114
 31
0.0
  0
LINE
  5
408
100
AcDbEntity
  8
AM_4
100
AcDbLine
 10
8606.443941
 20
430.640114
 30
0.0
 11
8605.256798
 21
429.283379
 31
0.0
  0
LINE
  5
409
100
AcDbEntity
  8
AM_4
100
AcDbLine
 10
8605.256798
 20
429.283379
 30
0.0
 11
8604.408839
 21
427.926645
 31
0.0
  0
LINE
  5
40A
100
AcDbEntity
  8
AM_4
100
AcDbLine
 10
8604.408839
 20
427.926645
 30
0.0
 11
8604.069655
 21
426.400318
 31
0.0
  0
LINE
  5
40B
100
AcDbEntity
  8
AM_4
100
AcDbLine
 10
8604.069655
 20
426.400318
 30
0.0
 11
8603.900063
 21
425.213175
 31
0.0
  0
LINE
  5
40C
100
AcDbEntity
  8
AM_4
100
AcDbLine
 10
8603.900063
 20
425.213175
 30
0.0
 11
8603.730471
 21
423.85644
 31
0.0
  0
LINE
  5
40D
100
AcDbEntity
  8
AM_4
100
AcDbLine
 10
8603.730471
 20
423.85644
 30
0.0
 11
8603.730471
 21
410.967459
 31
0.0
  0
LINE
  5
40E
100
AcDbEntity
  8
AM_4
100
AcDbLine
 10
8592.222453
 20
437.569153
 30
0.0
 11
8593.409596
 21
438.417112
 31
0.0
  0
LINE
  5
40F
100
AcDbEntity
  8
AM_4
100
AcDbLine
 10
8593.409596
 20
438.417112
 30
0.0
 11
8594.935922
 21
439.095479
 31
0.0
  0
LINE
  5
410
100
AcDbEntity
  8
AM_4
100
AcDbLine
 10
8594.935922
 20
439.095479
 30
0.0
 11
8593.748779
 21
439.773847
 31
0.0
  0
LINE
  5
411
100
AcDbEntity
  8
AM_4
100
AcDbLine
 10
8593.748779
 20
439.773847
 30
0.0
 11
8592.731228
 21
440.621806
 31
0.0
  0
LINE
  5
412
100
AcDbEntity
  8
AM_4
100
AcDbLine
 10
8592.731228
 20
440.621806
 30
0.0
 11
8591.374493
 21
441.978541
 31
0.0
  0
LINE
  5
413
100
AcDbEntity
  8
AM_4
100
AcDbLine
 10
8591.374493
 20
441.978541
 30
0.0
 11
8590.017759
 21
443.674459
 31
0.0
  0
LINE
  5
414
100
AcDbEntity
  8
AM_4
100
AcDbLine
 10
8560.702595
 20
410.1195
 30
0.0
 11
8557.819534
 21
410.458684
 31
0.0
  0
LINE
  5
415
100
AcDbEntity
  8
AM_4
100
AcDbLine
 10
8560.19382
 20
425.043583
 30
0.0
 11
8562.568106
 21
424.534807
 31
0.0
  0
LINE
  5
416
100
AcDbEntity
  8
AM_4
100
AcDbLine
 10
8557.819534
 20
410.458684
 30
0.0
 11
8555.106064
 21
411.137051
 31
0.0
  0
LINE
  5
417
100
AcDbEntity
  8
AM_4
100
AcDbLine
 10
8555.106064
 20
411.137051
 30
0.0
 11
8552.24723
 21
411.815418
 31
0.0
  0
LINE
  5
418
100
AcDbEntity
  8
AM_4
100
AcDbLine
 10
8559.176269
 20
425.213175
 30
0.0
 11
8560.19382
 21
425.043583
 31
0.0
  0
LINE
  5
419
100
AcDbEntity
  8
AM_4
100
AcDbLine
 10
8576.813822
 20
412.324194
 30
0.0
 11
8574.269944
 21
411.476235
 31
0.0
  0
LINE
  5
41A
100
AcDbEntity
  8
AM_4
100
AcDbLine
 10
8574.269944
 20
411.476235
 30
0.0
 11
8571.047698
 21
410.797867
 31
0.0
  0
LINE
  5
41B
100
AcDbEntity
  8
AM_4
100
AcDbLine
 10
8571.047698
 20
410.797867
 30
0.0
 11
8567.48627
 21
410.289092
 31
0.0
  0
LINE
  5
41C
100
AcDbEntity
  8
AM_4
100
AcDbLine
 10
8567.48627
 20
410.289092
 30
0.0
 11
8563.585657
 21
410.1195
 31
0.0
  0
LINE
  5
41D
100
AcDbEntity
  8
AM_4
100
AcDbLine
 10
8563.585657
 20
410.1195
 30
0.0
 11
8560.702595
 21
410.1195
 31
0.0
  0
LINE
  5
41E
100
AcDbEntity
  8
AM_4
100
AcDbLine
 10
8562.568106
 20
424.534807
 30
0.0
 11
8565.959943
 21
424.534807
 31
0.0
  0
LINE
  5
41F
100
AcDbEntity
  8
AM_4
100
AcDbLine
 10
8565.959943
 20
424.534807
 30
0.0
 11
8567.995045
 21
424.704399
 31
0.0
  0
LINE
  5
420
100
AcDbEntity
  8
AM_4
100
AcDbLine
 10
8567.995045
 20
424.704399
 30
0.0
 11
8570.030147
 21
425.213175
 31
0.0
  0
LINE
  5
421
100
AcDbEntity
  8
AM_4
100
AcDbLine
 10
8570.030147
 20
425.213175
 30
0.0
 11
8574.269944
 21
426.739502
 31
0.0
  0
LINE
  5
422
100
AcDbEntity
  8
AM_4
100
AcDbLine
 10
8574.269944
 20
426.739502
 30
0.0
 11
8577.976737
 21
428.774604
 31
0.0
  0
LINE
  5
423
100
AcDbEntity
  8
AM_4
100
AcDbLine
 10
8580.520615
 20
414.020113
 30
0.0
 11
8576.813822
 21
412.324194
 31
0.0
  0
LINE
  5
424
100
AcDbEntity
  8
AM_4
100
AcDbLine
 10
8577.976737
 20
428.774604
 30
0.0
 11
8581.707758
 21
431.318482
 31
0.0
  0
LINE
  5
425
100
AcDbEntity
  8
AM_4
100
AcDbLine
 10
8584.421228
 20
447.235888
 30
0.0
 11
8559.176269
 21
425.213175
 31
0.0
  0
LINE
  5
426
100
AcDbEntity
  8
AM_4
100
AcDbLine
 10
8590.017759
 20
443.674459
 30
0.0
 11
8589.000208
 21
446.048745
 31
0.0
  0
LINE
  5
427
100
AcDbEntity
  8
AM_4
100
AcDbLine
 10
8633.384818
 20
410.967459
 30
0.0
 11
8616.619452
 21
410.967459
 31
0.0
  0
LINE
  5
428
100
AcDbEntity
  8
AM_4
100
AcDbLine
 10
8666.811684
 20
399.633257
 30
0.0
 11
8666.811684
 21
399.633257
 31
0.0
  0
LINE
  5
429
100
AcDbEntity
  8
AM_4
100
AcDbLine
 10
8664.519398
 20
392.793673
 30
0.0
 11
8664.836218
 21
393.240948
 31
0.0
  0
LINE
  5
42A
100
AcDbEntity
  8
AM_4
100
AcDbLine
 10
8664.836218
 20
393.240948
 30
0.0
 11
8665.134402
 21
393.70686
 31
0.0
  0
LINE
  5
42B
100
AcDbEntity
  8
AM_4
100
AcDbLine
 10
8665.134402
 20
393.70686
 30
0.0
 11
8665.413949
 21
394.191408
 31
0.0
  0
LINE
  5
42C
100
AcDbEntity
  8
AM_4
100
AcDbLine
 10
8665.413949
 20
394.191408
 30
0.0
 11
8665.674859
 21
394.675956
 31
0.0
  0
LINE
  5
42D
100
AcDbEntity
  8
AM_4
100
AcDbLine
 10
8665.674859
 20
394.675956
 30
0.0
 11
8665.898497
 21
395.179141
 31
0.0
  0
LINE
  5
42E
100
AcDbEntity
  8
AM_4
100
AcDbLine
 10
8665.898497
 20
395.179141
 30
0.0
 11
8666.103498
 21
395.700962
 31
0.0
  0
LINE
  5
42F
100
AcDbEntity
  8
AM_4
100
AcDbLine
 10
8666.103498
 20
395.700962
 30
0.0
 11
8666.289863
 21
396.24142
 31
0.0
  0
LINE
  5
430
100
AcDbEntity
  8
AM_4
100
AcDbLine
 10
8666.289863
 20
396.24142
 30
0.0
 11
8666.438954
 21
396.781877
 31
0.0
  0
LINE
  5
431
100
AcDbEntity
  8
AM_4
100
AcDbLine
 10
8666.438954
 20
396.781877
 30
0.0
 11
8666.56941
 21
397.340971
 31
0.0
  0
LINE
  5
432
100
AcDbEntity
  8
AM_4
100
AcDbLine
 10
8666.56941
 20
397.340971
 30
0.0
 11
8666.681228
 21
397.900065
 31
0.0
  0
LINE
  5
433
100
AcDbEntity
  8
AM_4
100
AcDbLine
 10
8666.681228
 20
397.900065
 30
0.0
 11
8666.793047
 21
399.055526
 31
0.0
  0
LINE
  5
434
100
AcDbEntity
  8
AM_4
100
AcDbLine
 10
8665.395312
 20
397.564609
 30
0.0
 11
8664.743036
 21
395.738235
 31
0.0
  0
LINE
  5
435
100
AcDbEntity
  8
AM_4
100
AcDbLine
 10
8666.793047
 20
399.055526
 30
0.0
 11
8666.811684
 21
399.633257
 31
0.0
  0
LINE
  5
436
100
AcDbEntity
  8
AM_4
100
AcDbLine
 10
8665.525767
 20
399.633257
 30
0.0
 11
8665.395312
 21
397.564609
 31
0.0
  0
LINE
  5
437
100
AcDbEntity
  8
AM_4
100
AcDbLine
 10
8655.238437
 20
388.190466
 30
0.0
 11
8655.816168
 21
388.209102
 31
0.0
  0
LINE
  5
438
100
AcDbEntity
  8
AM_4
100
AcDbLine
 10
8655.816168
 20
388.209102
 30
0.0
 11
8657.008902
 21
388.320921
 31
0.0
  0
LINE
  5
439
100
AcDbEntity
  8
AM_4
100
AcDbLine
 10
8657.008902
 20
388.320921
 30
0.0
 11
8658.12709
 21
388.544559
 31
0.0
  0
LINE
  5
43A
100
AcDbEntity
  8
AM_4
100
AcDbLine
 10
8658.12709
 20
388.544559
 30
0.0
 11
8658.686184
 21
388.712287
 31
0.0
  0
LINE
  5
43B
100
AcDbEntity
  8
AM_4
100
AcDbLine
 10
8658.686184
 20
388.712287
 30
0.0
 11
8659.226641
 21
388.898651
 31
0.0
  0
LINE
  5
43C
100
AcDbEntity
  8
AM_4
100
AcDbLine
 10
8659.226641
 20
388.898651
 30
0.0
 11
8659.748463
 21
389.085016
 31
0.0
  0
LINE
  5
43D
100
AcDbEntity
  8
AM_4
100
AcDbLine
 10
8659.748463
 20
389.085016
 30
0.0
 11
8660.270284
 21
389.32729
 31
0.0
  0
LINE
  5
43E
100
AcDbEntity
  8
AM_4
100
AcDbLine
 10
8660.270284
 20
389.32729
 30
0.0
 11
8660.754832
 21
389.569564
 31
0.0
  0
LINE
  5
43F
100
AcDbEntity
  8
AM_4
100
AcDbLine
 10
8660.754832
 20
389.569564
 30
0.0
 11
8661.23938
 21
389.849111
 31
0.0
  0
LINE
  5
440
100
AcDbEntity
  8
AM_4
100
AcDbLine
 10
8661.23938
 20
389.849111
 30
0.0
 11
8661.723928
 21
390.147295
 31
0.0
  0
LINE
  5
441
100
AcDbEntity
  8
AM_4
100
AcDbLine
 10
8661.723928
 20
390.147295
 30
0.0
 11
8662.171203
 21
390.464115
 31
0.0
  0
LINE
  5
442
100
AcDbEntity
  8
AM_4
100
AcDbLine
 10
8662.171203
 20
390.464115
 30
0.0
 11
8662.618479
 21
390.799571
 31
0.0
  0
LINE
  5
443
100
AcDbEntity
  8
AM_4
100
AcDbLine
 10
8662.618479
 20
390.799571
 30
0.0
 11
8663.438483
 21
391.54503
 31
0.0
  0
LINE
  5
444
100
AcDbEntity
  8
AM_4
100
AcDbLine
 10
8663.438483
 20
391.54503
 30
0.0
 11
8663.811212
 21
391.936396
 31
0.0
  0
LINE
  5
445
100
AcDbEntity
  8
AM_4
100
AcDbLine
 10
8664.202578
 20
398.738706
 30
0.0
 11
8664.146669
 21
398.291431
 31
0.0
  0
LINE
  5
446
100
AcDbEntity
  8
AM_4
100
AcDbLine
 10
8664.146669
 20
398.291431
 30
0.0
 11
8664.072123
 21
397.844156
 31
0.0
  0
LINE
  5
447
100
AcDbEntity
  8
AM_4
100
AcDbLine
 10
8664.072123
 20
397.844156
 30
0.0
 11
8663.960304
 21
397.415517
 31
0.0
  0
LINE
  5
448
100
AcDbEntity
  8
AM_4
100
AcDbLine
 10
8663.960304
 20
397.415517
 30
0.0
 11
8663.848485
 21
397.005515
 31
0.0
  0
LINE
  5
449
100
AcDbEntity
  8
AM_4
100
AcDbLine
 10
8663.550302
 20
396.18551
 30
0.0
 11
8663.848485
 21
397.005515
 31
0.0
  0
LINE
  5
44A
100
AcDbEntity
  8
AM_4
100
AcDbLine
 10
8663.177573
 20
395.402779
 30
0.0
 11
8663.550302
 21
396.18551
 31
0.0
  0
LINE
  5
44B
100
AcDbEntity
  8
AM_4
100
AcDbLine
 10
8663.177573
 20
395.402779
 30
0.0
 11
8662.953935
 21
395.048686
 31
0.0
  0
LINE
  5
44C
100
AcDbEntity
  8
AM_4
100
AcDbLine
 10
8662.953935
 20
395.048686
 30
0.0
 11
8662.730297
 21
394.675956
 31
0.0
  0
LINE
  5
44D
100
AcDbEntity
  8
AM_4
100
AcDbLine
 10
8662.730297
 20
394.675956
 30
0.0
 11
8662.469387
 21
394.3405
 31
0.0
  0
LINE
  5
44E
100
AcDbEntity
  8
AM_4
100
AcDbLine
 10
8662.469387
 20
394.3405
 30
0.0
 11
8662.208476
 21
393.986407
 31
0.0
  0
LINE
  5
44F
100
AcDbEntity
  8
AM_4
100
AcDbLine
 10
8662.208476
 20
393.986407
 30
0.0
 11
8661.928929
 21
393.669587
 31
0.0
  0
LINE
  5
450
100
AcDbEntity
  8
AM_4
100
AcDbLine
 10
8661.928929
 20
393.669587
 30
0.0
 11
8661.630746
 21
393.371404
 31
0.0
  0
LINE
  5
451
100
AcDbEntity
  8
AM_4
100
AcDbLine
 10
8661.630746
 20
393.371404
 30
0.0
 11
8661.313926
 21
393.07322
 31
0.0
  0
LINE
  5
452
100
AcDbEntity
  8
AM_4
100
AcDbLine
 10
8661.313926
 20
393.07322
 30
0.0
 11
8660.997106
 21
392.793673
 31
0.0
  0
LINE
  5
453
100
AcDbEntity
  8
AM_4
100
AcDbLine
 10
8660.28892
 20
392.271852
 30
0.0
 11
8660.997106
 21
392.793673
 31
0.0
  0
LINE
  5
454
100
AcDbEntity
  8
AM_4
100
AcDbLine
 10
8660.28892
 20
392.271852
 30
0.0
 11
8659.934827
 21
392.048214
 31
0.0
  0
LINE
  5
455
100
AcDbEntity
  8
AM_4
100
AcDbLine
 10
8659.934827
 20
392.048214
 30
0.0
 11
8659.562098
 21
391.824577
 31
0.0
  0
LINE
  5
456
100
AcDbEntity
  8
AM_4
100
AcDbLine
 10
8659.562098
 20
391.824577
 30
0.0
 11
8659.170732
 21
391.638212
 31
0.0
  0
LINE
  5
457
100
AcDbEntity
  8
AM_4
100
AcDbLine
 10
8659.170732
 20
391.638212
 30
0.0
 11
8658.76073
 21
391.451847
 31
0.0
  0
LINE
  5
458
100
AcDbEntity
  8
AM_4
100
AcDbLine
 10
8657.940725
 20
391.153664
 30
0.0
 11
8658.76073
 21
391.451847
 31
0.0
  0
LINE
  5
459
100
AcDbEntity
  8
AM_4
100
AcDbLine
 10
8657.940725
 20
391.153664
 30
0.0
 11
8657.512086
 21
391.041845
 31
0.0
  0
LINE
  5
45A
100
AcDbEntity
  8
AM_4
100
AcDbLine
 10
8656.617536
 20
390.85548
 30
0.0
 11
8657.512086
 21
391.041845
 31
0.0
  0
LINE
  5
45B
100
AcDbEntity
  8
AM_4
100
AcDbLine
 10
8656.617536
 20
390.85548
 30
0.0
 11
8656.170261
 21
390.799571
 31
0.0
  0
LINE
  5
45C
100
AcDbEntity
  8
AM_4
100
AcDbLine
 10
8656.170261
 20
390.799571
 30
0.0
 11
8655.704349
 21
390.762298
 31
0.0
  0
LINE
  5
45D
100
AcDbEntity
  8
AM_4
100
AcDbLine
 10
8655.238437
 20
388.190466
 30
0.0
 11
8655.238437
 21
388.190466
 31
0.0
  0
LINE
  5
45E
100
AcDbEntity
  8
AM_4
100
AcDbLine
 10
8655.238437
 20
388.190466
 30
0.0
 11
8655.238437
 21
390.762298
 31
0.0
  0
LINE
  5
45F
100
AcDbEntity
  8
AM_4
100
AcDbLine
 10
8663.829849
 20
393.911861
 30
0.0
 11
8662.525296
 21
392.476853
 31
0.0
  0
LINE
  5
460
100
AcDbEntity
  8
AM_4
100
AcDbLine
 10
8662.525296
 20
392.476853
 30
0.0
 11
8660.959833
 21
391.1723
 31
0.0
  0
LINE
  5
461
100
AcDbEntity
  8
AM_4
100
AcDbLine
 10
8660.959833
 20
391.1723
 30
0.0
 11
8659.263914
 21
390.259114
 31
0.0
  0
LINE
  5
462
100
AcDbEntity
  8
AM_4
100
AcDbLine
 10
8659.263914
 20
390.259114
 30
0.0
 11
8657.307085
 21
389.606837
 31
0.0
  0
LINE
  5
463
100
AcDbEntity
  8
AM_4
100
AcDbLine
 10
8657.307085
 20
389.606837
 30
0.0
 11
8655.238437
 21
389.476382
 31
0.0
  0
LINE
  5
464
100
AcDbEntity
  8
AM_4
100
AcDbLine
 10
8664.239851
 20
399.185981
 30
0.0
 11
8664.202578
 21
398.738706
 31
0.0
  0
LINE
  5
465
100
AcDbEntity
  8
AM_4
100
AcDbLine
 10
8666.811684
 20
399.633257
 30
0.0
 11
8664.239851
 21
399.633257
 31
0.0
  0
LINE
  5
466
100
AcDbEntity
  8
AM_4
100
AcDbLine
 10
8663.811212
 20
391.936396
 30
0.0
 11
8664.519398
 21
392.793673
 31
0.0
  0
LINE
  5
467
100
AcDbEntity
  8
AM_4
100
AcDbLine
 10
8664.743036
 20
395.738235
 30
0.0
 11
8663.829849
 21
393.911861
 31
0.0
  0
ARC
  5
468
100
AcDbEntity
  8
AM_4
100
AcDbCircle
 10
8655.36999
 20
399.633257
 30
0.0
 40
8.869861
100
AcDbArc
 50
275.176469
 51
0.0
  0
ARC
  5
469
100
AcDbEntity
  8
AM_4
100
AcDbCircle
 10
8655.36999
 20
399.633257
 30
0.0
 40
11.441693
100
AcDbArc
 50
274.558289
 51
360.0
  0
ARC
  5
46A
100
AcDbEntity
  8
AM_4
100
AcDbCircle
 10
8655.36999
 20
399.633257
 30
0.0
 40
9.06989
100
AcDbArc
 50
275.119117
 51
360.0
  0
LINE
  5
46B
100
AcDbEntity
  8
AM_4
100
AcDbLine
 10
8550.042536
 20
463.662071
 30
0.0
 11
8552.756006
 21
464.340438
 31
0.0
  0
LINE
  5
46C
100
AcDbEntity
  8
AM_4
100
AcDbLine
 10
8379.269628
 20
498.443807
 30
0.0
 11
8655.704349
 21
498.443807
 31
0.0
  0
LINE
  5
46D
100
AcDbEntity
  8
AM_4
100
AcDbLine
 10
8379.716903
 20
499.729723
 30
0.0
 11
8655.238437
 21
499.729723
 31
0.0
  0
LINE
  5
46E
100
AcDbEntity
  8
AM_4
100
AcDbLine
 10
8379.716903
 20
501.015639
 30
0.0
 11
8655.238437
 21
501.015639
 31
0.0
  0
LINE
  5
46F
100
AcDbEntity
  8
AM_4
100
AcDbLine
 10
8379.716903
 20
498.643836
 30
0.0
 11
8655.238437
 21
498.643836
 31
0.0
  0
ARC
  5
470
100
AcDbEntity
  8
AM_4
100
AcDbCircle
 10
8379.716903
 20
489.442393
 30
0.0
 40
11.573246
100
AcDbArc
 50
90.0
 51
180.0
  0
LINE
  5
471
100
AcDbEntity
  8
AM_4
100
AcDbLine
 10
8452.284946
 20
465.018806
 30
0.0
 11
8456.694334
 21
464.679622
 31
0.0
  0
LINE
  5
472
100
AcDbEntity
  8
AM_4
100
AcDbLine
 10
8425.513661
 20
464.340438
 30
0.0
 11
8419.408354
 21
464.340438
 31
0.0
  0
LINE
  5
473
100
AcDbEntity
  8
AM_4
100
AcDbLine
 10
8419.408354
 20
464.340438
 30
0.0
 11
8416.016517
 21
464.170846
 31
0.0
  0
LINE
  5
474
100
AcDbEntity
  8
AM_4
100
AcDbLine
 10
8416.016517
 20
464.170846
 30
0.0
 11
8413.133455
 21
463.831663
 31
0.0
  0
LINE
  5
475
100
AcDbEntity
  8
AM_4
100
AcDbLine
 10
8443.46617
 20
463.662071
 30
0.0
 11
8446.179639
 21
464.340438
 31
0.0
  0
LINE
  5
476
100
AcDbEntity
  8
AM_4
100
AcDbLine
 10
8446.179639
 20
464.340438
 30
0.0
 11
8449.062701
 21
464.849214
 31
0.0
  0
ARC
  5
477
100
AcDbEntity
  8
AM_4
100
AcDbCircle
 10
8379.716903
 20
489.442393
 30
0.0
 40
9.001414
100
AcDbArc
 50
90.0
 51
180.0
  0
ARC
  5
478
100
AcDbEntity
  8
AM_4
100
AcDbCircle
 10
8379.716903
 20
489.442393
 30
0.0
 40
9.201442
100
AcDbArc
 50
90.0
 51
180.0
  0
LINE
  5
479
100
AcDbEntity
  8
AM_4
100
AcDbLine
 10
8371.964133
 20
497.977895
 30
0.0
 11
8371.572767
 21
497.586529
 31
0.0
  0
LINE
  5
47A
100
AcDbEntity
  8
AM_4
100
AcDbLine
 10
8375.859154
 20
497.549256
 30
0.0
 11
8376.25052
 21
497.735621
 31
0.0
  0
LINE
  5
47B
100
AcDbEntity
  8
AM_4
100
AcDbLine
 10
8372.5605
 20
496.729252
 30
0.0
 11
8373.995508
 21
497.903349
 31
0.0
  0
LINE
  5
47C
100
AcDbEntity
  8
AM_4
100
AcDbLine
 10
8368.143657
 20
489.442393
 30
0.0
 11
8368.143657
 21
489.442393
 31
0.0
  0
LINE
  5
47D
100
AcDbEntity
  8
AM_4
100
AcDbLine
 10
8371.572767
 20
497.586529
 30
0.0
 11
8371.181401
 21
497.176527
 31
0.0
  0
LINE
  5
47E
100
AcDbEntity
  8
AM_4
100
AcDbLine
 10
8371.181401
 20
497.176527
 30
0.0
 11
8370.827308
 21
496.766525
 31
0.0
  0
LINE
  5
47F
100
AcDbEntity
  8
AM_4
100
AcDbLine
 10
8370.827308
 20
496.766525
 30
0.0
 11
8370.473215
 21
496.31925
 31
0.0
  0
LINE
  5
480
100
AcDbEntity
  8
AM_4
100
AcDbLine
 10
8370.473215
 20
496.31925
 30
0.0
 11
8370.156395
 21
495.871974
 31
0.0
  0
LINE
  5
481
100
AcDbEntity
  8
AM_4
100
AcDbLine
 10
8370.156395
 20
495.871974
 30
0.0
 11
8369.839575
 21
495.406063
 31
0.0
  0
LINE
  5
482
100
AcDbEntity
  8
AM_4
100
AcDbLine
 10
8369.839575
 20
495.406063
 30
0.0
 11
8369.560028
 21
494.921515
 31
0.0
  0
LINE
  5
483
100
AcDbEntity
  8
AM_4
100
AcDbLine
 10
8369.560028
 20
494.921515
 30
0.0
 11
8369.299118
 21
494.41833
 31
0.0
  0
LINE
  5
484
100
AcDbEntity
  8
AM_4
100
AcDbLine
 10
8369.299118
 20
494.41833
 30
0.0
 11
8369.07548
 21
493.915145
 31
0.0
  0
LINE
  5
485
100
AcDbEntity
  8
AM_4
100
AcDbLine
 10
8369.07548
 20
493.915145
 30
0.0
 11
8368.870479
 21
493.393324
 31
0.0
  0
LINE
  5
486
100
AcDbEntity
  8
AM_4
100
AcDbLine
 10
8368.870479
 20
493.393324
 30
0.0
 11
8368.684114
 21
492.852867
 31
0.0
  0
LINE
  5
487
100
AcDbEntity
  8
AM_4
100
AcDbLine
 10
8368.684114
 20
492.852867
 30
0.0
 11
8368.516386
 21
492.312409
 31
0.0
  0
LINE
  5
488
100
AcDbEntity
  8
AM_4
100
AcDbLine
 10
8368.516386
 20
492.312409
 30
0.0
 11
8368.385931
 21
491.753315
 31
0.0
  0
LINE
  5
489
100
AcDbEntity
  8
AM_4
100
AcDbLine
 10
8368.385931
 20
491.753315
 30
0.0
 11
8368.292749
 21
491.175585
 31
0.0
  0
LINE
  5
48A
100
AcDbEntity
  8
AM_4
100
AcDbLine
 10
8368.292749
 20
491.175585
 30
0.0
 11
8368.218203
 21
490.597854
 31
0.0
  0
LINE
  5
48B
100
AcDbEntity
  8
AM_4
100
AcDbLine
 10
8368.218203
 20
490.597854
 30
0.0
 11
8368.162293
 21
490.020124
 31
0.0
  0
LINE
  5
48C
100
AcDbEntity
  8
AM_4
100
AcDbLine
 10
8368.162293
 20
490.020124
 30
0.0
 11
8368.143657
 21
489.442393
 31
0.0
  0
LINE
  5
48D
100
AcDbEntity
  8
AM_4
100
AcDbLine
 10
8368.143657
 20
489.442393
 30
0.0
 11
8370.715489
 21
489.442393
 31
0.0
  0
LINE
  5
48E
100
AcDbEntity
  8
AM_4
100
AcDbLine
 10
8370.715489
 20
489.889668
 30
0.0
 11
8370.752762
 21
490.336944
 31
0.0
  0
LINE
  5
48F
100
AcDbEntity
  8
AM_4
100
AcDbLine
 10
8370.752762
 20
490.336944
 30
0.0
 11
8370.808672
 21
490.784219
 31
0.0
  0
LINE
  5
490
100
AcDbEntity
  8
AM_4
100
AcDbLine
 10
8370.808672
 20
490.784219
 30
0.0
 11
8370.901854
 21
491.231494
 31
0.0
  0
LINE
  5
491
100
AcDbEntity
  8
AM_4
100
AcDbLine
 10
8370.901854
 20
491.231494
 30
0.0
 11
8370.995036
 21
491.660133
 31
0.0
  0
LINE
  5
492
100
AcDbEntity
  8
AM_4
100
AcDbLine
 10
8370.995036
 20
491.660133
 30
0.0
 11
8371.125492
 21
492.070135
 31
0.0
  0
LINE
  5
493
100
AcDbEntity
  8
AM_4
100
AcDbLine
 10
8371.125492
 20
492.070135
 30
0.0
 11
8371.255947
 21
492.498774
 31
0.0
  0
LINE
  5
494
100
AcDbEntity
  8
AM_4
100
AcDbLine
 10
8371.255947
 20
492.498774
 30
0.0
 11
8371.423675
 21
492.908776
 31
0.0
  0
LINE
  5
495
100
AcDbEntity
  8
AM_4
100
AcDbLine
 10
8371.423675
 20
492.908776
 30
0.0
 11
8371.61004
 21
493.300142
 31
0.0
  0
LINE
  5
496
100
AcDbEntity
  8
AM_4
100
AcDbLine
 10
8371.61004
 20
493.300142
 30
0.0
 11
8371.815041
 21
493.691508
 31
0.0
  0
LINE
  5
497
100
AcDbEntity
  8
AM_4
100
AcDbLine
 10
8371.815041
 20
493.691508
 30
0.0
 11
8372.262316
 21
494.436966
 31
0.0
  0
LINE
  5
498
100
AcDbEntity
  8
AM_4
100
AcDbLine
 10
8372.262316
 20
494.436966
 30
0.0
 11
8372.523227
 21
494.791059
 31
0.0
  0
LINE
  5
499
100
AcDbEntity
  8
AM_4
100
AcDbLine
 10
8372.523227
 20
494.791059
 30
0.0
 11
8372.784137
 21
495.126516
 31
0.0
  0
LINE
  5
49A
100
AcDbEntity
  8
AM_4
100
AcDbLine
 10
8372.784137
 20
495.126516
 30
0.0
 11
8373.082321
 21
495.461972
 31
0.0
  0
LINE
  5
49B
100
AcDbEntity
  8
AM_4
100
AcDbLine
 10
8373.082321
 20
495.461972
 30
0.0
 11
8373.380504
 21
495.778792
 31
0.0
  0
LINE
  5
49C
100
AcDbEntity
  8
AM_4
100
AcDbLine
 10
8373.380504
 20
495.778792
 30
0.0
 11
8373.697324
 21
496.076976
 31
0.0
  0
LINE
  5
49D
100
AcDbEntity
  8
AM_4
100
AcDbLine
 10
8373.697324
 20
496.076976
 30
0.0
 11
8374.368237
 21
496.63607
 31
0.0
  0
LINE
  5
49E
100
AcDbEntity
  8
AM_4
100
AcDbLine
 10
8374.368237
 20
496.63607
 30
0.0
 11
8374.72233
 21
496.89698
 31
0.0
  0
LINE
  5
49F
100
AcDbEntity
  8
AM_4
100
AcDbLine
 10
8374.72233
 20
496.89698
 30
0.0
 11
8375.467789
 21
497.344255
 31
0.0
  0
LINE
  5
4A0
100
AcDbEntity
  8
AM_4
100
AcDbLine
 10
8375.467789
 20
497.344255
 30
0.0
 11
8375.859154
 21
497.549256
 31
0.0
  0
LINE
  5
4A1
100
AcDbEntity
  8
AM_4
100
AcDbLine
 10
8369.429573
 20
489.442393
 30
0.0
 11
8369.690484
 21
491.511041
 31
0.0
  0
LINE
  5
4A2
100
AcDbEntity
  8
AM_4
100
AcDbLine
 10
8369.690484
 20
491.511041
 30
0.0
 11
8370.34276
 21
493.46787
 31
0.0
  0
LINE
  5
4A3
100
AcDbEntity
  8
AM_4
100
AcDbLine
 10
8370.34276
 20
493.46787
 30
0.0
 11
8371.255947
 21
495.163789
 31
0.0
  0
LINE
  5
4A4
100
AcDbEntity
  8
AM_4
100
AcDbLine
 10
8371.255947
 20
495.163789
 30
0.0
 11
8372.5605
 21
496.729252
 31
0.0
  0
LINE
  5
4A5
100
AcDbEntity
  8
AM_4
100
AcDbLine
 10
8379.716903
 20
501.015639
 30
0.0
 11
8379.139173
 21
500.997003
 31
0.0
  0
LINE
  5
4A6
100
AcDbEntity
  8
AM_4
100
AcDbLine
 10
8379.139173
 20
500.997003
 30
0.0
 11
8378.561442
 21
500.941094
 31
0.0
  0
LINE
  5
4A7
100
AcDbEntity
  8
AM_4
100
AcDbLine
 10
8378.561442
 20
500.941094
 30
0.0
 11
8377.983712
 21
500.866548
 31
0.0
  0
LINE
  5
4A8
100
AcDbEntity
  8
AM_4
100
AcDbLine
 10
8377.983712
 20
500.866548
 30
0.0
 11
8377.405981
 21
500.773365
 31
0.0
  0
LINE
  5
4A9
100
AcDbEntity
  8
AM_4
100
AcDbLine
 10
8377.405981
 20
500.773365
 30
0.0
 11
8376.846887
 21
500.64291
 31
0.0
  0
LINE
  5
4AA
100
AcDbEntity
  8
AM_4
100
AcDbLine
 10
8376.846887
 20
500.64291
 30
0.0
 11
8376.30643
 21
500.475182
 31
0.0
  0
LINE
  5
4AB
100
AcDbEntity
  8
AM_4
100
AcDbLine
 10
8376.30643
 20
500.475182
 30
0.0
 11
8375.765972
 21
500.288817
 31
0.0
  0
LINE
  5
4AC
100
AcDbEntity
  8
AM_4
100
AcDbLine
 10
8375.765972
 20
500.288817
 30
0.0
 11
8375.244151
 21
500.083816
 31
0.0
  0
LINE
  5
4AD
100
AcDbEntity
  8
AM_4
100
AcDbLine
 10
8375.244151
 20
500.083816
 30
0.0
 11
8374.740966
 21
499.860178
 31
0.0
  0
LINE
  5
4AE
100
AcDbEntity
  8
AM_4
100
AcDbLine
 10
8374.740966
 20
499.860178
 30
0.0
 11
8374.237782
 21
499.599268
 31
0.0
  0
LINE
  5
4AF
100
AcDbEntity
  8
AM_4
100
AcDbLine
 10
8374.237782
 20
499.599268
 30
0.0
 11
8373.753234
 21
499.319721
 31
0.0
  0
LINE
  5
4B0
100
AcDbEntity
  8
AM_4
100
AcDbLine
 10
8373.753234
 20
499.319721
 30
0.0
 11
8373.287322
 21
499.002901
 31
0.0
  0
LINE
  5
4B1
100
AcDbEntity
  8
AM_4
100
AcDbLine
 10
8373.287322
 20
499.002901
 30
0.0
 11
8372.840047
 21
498.686081
 31
0.0
  0
LINE
  5
4B2
100
AcDbEntity
  8
AM_4
100
AcDbLine
 10
8372.840047
 20
498.686081
 30
0.0
 11
8372.392771
 21
498.331988
 31
0.0
  0
LINE
  5
4B3
100
AcDbEntity
  8
AM_4
100
AcDbLine
 10
8372.392771
 20
498.331988
 30
0.0
 11
8371.964133
 21
497.977895
 31
0.0
  0
LINE
  5
4B4
100
AcDbEntity
  8
AM_4
100
AcDbLine
 10
8376.25052
 20
497.735621
 30
0.0
 11
8377.070525
 21
498.033805
 31
0.0
  0
LINE
  5
4B5
100
AcDbEntity
  8
AM_4
100
AcDbLine
 10
8377.070525
 20
498.033805
 30
0.0
 11
8377.499164
 21
498.16426
 31
0.0
  0
LINE
  5
4B6
100
AcDbEntity
  8
AM_4
100
AcDbLine
 10
8377.499164
 20
498.16426
 30
0.0
 11
8377.927802
 21
498.257442
 31
0.0
  0
LINE
  5
4B7
100
AcDbEntity
  8
AM_4
100
AcDbLine
 10
8377.927802
 20
498.257442
 30
0.0
 11
8378.375077
 21
498.350625
 31
0.0
  0
LINE
  5
4B8
100
AcDbEntity
  8
AM_4
100
AcDbLine
 10
8378.375077
 20
498.350625
 30
0.0
 11
8378.822353
 21
498.406534
 31
0.0
  0
LINE
  5
4B9
100
AcDbEntity
  8
AM_4
100
AcDbLine
 10
8378.822353
 20
498.406534
 30
0.0
 11
8379.269628
 21
498.443807
 31
0.0
  0
LINE
  5
4BA
100
AcDbEntity
  8
AM_4
100
AcDbLine
 10
8379.716903
 20
501.015639
 30
0.0
 11
8379.716903
 21
501.015639
 31
0.0
  0
LINE
  5
4BB
100
AcDbEntity
  8
AM_4
100
AcDbLine
 10
8379.716903
 20
501.015639
 30
0.0
 11
8379.716903
 21
498.443807
 31
0.0
  0
LINE
  5
4BC
100
AcDbEntity
  8
AM_4
100
AcDbLine
 10
8373.995508
 20
497.903349
 30
0.0
 11
8375.821881
 21
498.946992
 31
0.0
  0
LINE
  5
4BD
100
AcDbEntity
  8
AM_4
100
AcDbLine
 10
8375.821881
 20
498.946992
 30
0.0
 11
8377.648255
 21
499.468813
 31
0.0
  0
LINE
  5
4BE
100
AcDbEntity
  8
AM_4
100
AcDbLine
 10
8377.648255
 20
499.468813
 30
0.0
 11
8379.716903
 21
499.729723
 31
0.0
  0
LINE
  5
4BF
100
AcDbEntity
  8
AM_4
100
AcDbLine
 10
8379.716903
 20
499.729723
 30
0.0
 11
8379.716903
 21
499.729723
 31
0.0
  0
LINE
  5
4C0
100
AcDbEntity
  8
AM_4
100
AcDbLine
 10
8449.062701
 20
464.849214
 30
0.0
 11
8452.284946
 21
465.018806
 31
0.0
  0
LINE
  5
4C1
100
AcDbEntity
  8
AM_4
100
AcDbLine
 10
8528.359006
 20
484.32805
 30
0.0
 11
8511.230229
 21
484.32805
 31
0.0
  0
LINE
  5
4C2
100
AcDbEntity
  8
AM_4
100
AcDbLine
 10
8511.230229
 20
484.32805
 30
0.0
 11
8511.230229
 21
484.32805
 31
0.0
  0
LINE
  5
4C3
100
AcDbEntity
  8
AM_4
100
AcDbLine
 10
8499.72221
 20
484.32805
 30
0.0
 11
8505.80329
 21
484.32805
 31
0.0
  0
LINE
  5
4C4
100
AcDbEntity
  8
AM_4
100
AcDbLine
 10
8493.616904
 20
483.649682
 30
0.0
 11
8496.499965
 21
484.158458
 31
0.0
  0
LINE
  5
4C5
100
AcDbEntity
  8
AM_4
100
AcDbLine
 10
8505.80329
 20
471.293704
 30
0.0
 11
8503.962007
 21
471.293704
 31
0.0
  0
LINE
  5
4C6
100
AcDbEntity
  8
AM_4
100
AcDbLine
 10
8503.962007
 20
471.293704
 30
0.0
 11
8503.114047
 21
471.124112
 31
0.0
  0
LINE
  5
4C7
100
AcDbEntity
  8
AM_4
100
AcDbLine
 10
8503.114047
 20
471.124112
 30
0.0
 11
8500.909353
 21
470.615337
 31
0.0
  0
LINE
  5
4C8
100
AcDbEntity
  8
AM_4
100
AcDbLine
 10
8500.909353
 20
470.615337
 30
0.0
 11
8499.891802
 21
469.767378
 31
0.0
  0
LINE
  5
4C9
100
AcDbEntity
  8
AM_4
100
AcDbLine
 10
8499.891802
 20
469.767378
 30
0.0
 11
8498.874251
 21
468.749826
 31
0.0
  0
LINE
  5
4CA
100
AcDbEntity
  8
AM_4
100
AcDbLine
 10
8498.874251
 20
468.749826
 30
0.0
 11
8498.195884
 21
467.393092
 31
0.0
  0
LINE
  5
4CB
100
AcDbEntity
  8
AM_4
100
AcDbLine
 10
8498.195884
 20
467.393092
 30
0.0
 11
8497.8567
 21
465.527581
 31
0.0
  0
LINE
  5
4CC
100
AcDbEntity
  8
AM_4
100
AcDbLine
 10
8496.499965
 20
484.158458
 30
0.0
 11
8499.72221
 21
484.32805
 31
0.0
  0
LINE
  5
4CD
100
AcDbEntity
  8
AM_4
100
AcDbLine
 10
8505.80329
 20
484.32805
 30
0.0
 11
8505.80329
 21
471.293704
 31
0.0
  0
LINE
  5
4CE
100
AcDbEntity
  8
AM_4
100
AcDbLine
 10
8481.40629
 20
469.428194
 30
0.0
 11
8481.575882
 21
471.632888
 31
0.0
  0
LINE
  5
4CF
100
AcDbEntity
  8
AM_4
100
AcDbLine
 10
8481.575882
 20
471.632888
 30
0.0
 11
8482.254249
 21
474.176766
 31
0.0
  0
LINE
  5
4D0
100
AcDbEntity
  8
AM_4
100
AcDbLine
 10
8482.254249
 20
474.176766
 30
0.0
 11
8483.610984
 21
476.890235
 31
0.0
  0
LINE
  5
4D1
100
AcDbEntity
  8
AM_4
100
AcDbLine
 10
8483.610984
 20
476.890235
 30
0.0
 11
8484.458944
 21
478.24697
 31
0.0
  0
LINE
  5
4D2
100
AcDbEntity
  8
AM_4
100
AcDbLine
 10
8484.458944
 20
478.24697
 30
0.0
 11
8485.646087
 21
479.603705
 31
0.0
  0
LINE
  5
4D3
100
AcDbEntity
  8
AM_4
100
AcDbLine
 10
8485.646087
 20
479.603705
 30
0.0
 11
8487.172413
 21
480.766621
 31
0.0
  0
LINE
  5
4D4
100
AcDbEntity
  8
AM_4
100
AcDbLine
 10
8487.172413
 20
480.766621
 30
0.0
 11
8488.868332
 21
481.953764
 31
0.0
  0
LINE
  5
4D5
100
AcDbEntity
  8
AM_4
100
AcDbLine
 10
8488.868332
 20
481.953764
 30
0.0
 11
8491.073026
 21
482.801723
 31
0.0
  0
LINE
  5
4D6
100
AcDbEntity
  8
AM_4
100
AcDbLine
 10
8491.073026
 20
482.801723
 30
0.0
 11
8493.616904
 21
483.649682
 31
0.0
  0
LINE
  5
4D7
100
AcDbEntity
  8
AM_4
100
AcDbLine
 10
8587.813065
 20
463.831663
 30
0.0
 11
8604.069655
 21
463.831663
 31
0.0
  0
LINE
  5
4D8
100
AcDbEntity
  8
AM_4
100
AcDbLine
 10
8587.813065
 20
463.831663
 30
0.0
 11
8587.813065
 21
463.831663
 31
0.0
  0
LINE
  5
4D9
100
AcDbEntity
  8
AM_4
100
AcDbLine
 10
8558.837085
 20
465.018806
 30
0.0
 11
8563.246473
 21
464.679622
 31
0.0
  0
LINE
  5
4DA
100
AcDbEntity
  8
AM_4
100
AcDbLine
 10
8552.756006
 20
464.340438
 30
0.0
 11
8555.61484
 21
464.849214
 31
0.0
  0
LINE
  5
4DB
100
AcDbEntity
  8
AM_4
100
AcDbLine
 10
8555.61484
 20
464.849214
 30
0.0
 11
8558.837085
 21
465.018806
 31
0.0
  0
LINE
  5
4DC
100
AcDbEntity
  8
AM_4
100
AcDbLine
 10
8616.44986
 20
463.831663
 30
0.0
 11
8632.367267
 21
463.831663
 31
0.0
  0
LINE
  5
4DD
100
AcDbEntity
  8
AM_4
100
AcDbLine
 10
8666.811684
 20
489.442393
 30
0.0
 11
8666.793047
 21
490.020124
 31
0.0
  0
LINE
  5
4DE
100
AcDbEntity
  8
AM_4
100
AcDbLine
 10
8666.681228
 20
491.175585
 30
0.0
 11
8666.793047
 21
490.020124
 31
0.0
  0
LINE
  5
4DF
100
AcDbEntity
  8
AM_4
100
AcDbLine
 10
8666.681228
 20
491.175585
 30
0.0
 11
8666.56941
 21
491.734679
 31
0.0
  0
LINE
  5
4E0
100
AcDbEntity
  8
AM_4
100
AcDbLine
 10
8666.56941
 20
491.734679
 30
0.0
 11
8666.438954
 21
492.293773
 31
0.0
  0
LINE
  5
4E1
100
AcDbEntity
  8
AM_4
100
AcDbLine
 10
8666.438954
 20
492.293773
 30
0.0
 11
8666.289863
 21
492.83423
 31
0.0
  0
LINE
  5
4E2
100
AcDbEntity
  8
AM_4
100
AcDbLine
 10
8666.289863
 20
492.83423
 30
0.0
 11
8666.103498
 21
493.374688
 31
0.0
  0
LINE
  5
4E3
100
AcDbEntity
  8
AM_4
100
AcDbLine
 10
8666.103498
 20
493.374688
 30
0.0
 11
8665.898497
 21
493.896509
 31
0.0
  0
LINE
  5
4E4
100
AcDbEntity
  8
AM_4
100
AcDbLine
 10
8665.898497
 20
493.896509
 30
0.0
 11
8665.674859
 21
494.41833
 31
0.0
  0
LINE
  5
4E5
100
AcDbEntity
  8
AM_4
100
AcDbLine
 10
8665.153038
 20
495.387426
 30
0.0
 11
8665.674859
 21
494.41833
 31
0.0
  0
LINE
  5
4E6
100
AcDbEntity
  8
AM_4
100
AcDbLine
 10
8665.153038
 20
495.387426
 30
0.0
 11
8664.836218
 21
495.871974
 31
0.0
  0
LINE
  5
4E7
100
AcDbEntity
  8
AM_4
100
AcDbLine
 10
8664.836218
 20
495.871974
 30
0.0
 11
8664.519398
 21
496.31925
 31
0.0
  0
LINE
  5
4E8
100
AcDbEntity
  8
AM_4
100
AcDbLine
 10
8666.811684
 20
489.442393
 30
0.0
 11
8666.811684
 21
489.442393
 31
0.0
  0
LINE
  5
4E9
100
AcDbEntity
  8
AM_4
100
AcDbLine
 10
8664.743036
 20
493.46787
 30
0.0
 11
8665.395312
 21
491.511041
 31
0.0
  0
LINE
  5
4EA
100
AcDbEntity
  8
AM_4
100
AcDbLine
 10
8665.395312
 20
491.511041
 30
0.0
 11
8665.525767
 21
489.442393
 31
0.0
  0
LINE
  5
4EB
100
AcDbEntity
  8
AM_4
100
AcDbLine
 10
8663.438483
 20
497.586529
 30
0.0
 11
8663.047117
 21
497.959259
 31
0.0
  0
LINE
  5
4EC
100
AcDbEntity
  8
AM_4
100
AcDbLine
 10
8658.76073
 20
497.735621
 30
0.0
 11
8659.152096
 21
497.549256
 31
0.0
  0
LINE
  5
4ED
100
AcDbEntity
  8
AM_4
100
AcDbLine
 10
8660.959833
 20
497.903349
 30
0.0
 11
8662.525296
 21
496.729252
 31
0.0
  0
LINE
  5
4EE
100
AcDbEntity
  8
AM_4
100
AcDbLine
 10
8663.438483
 20
497.586529
 30
0.0
 11
8664.183942
 21
496.766525
 31
0.0
  0
LINE
  5
4EF
100
AcDbEntity
  8
AM_4
100
AcDbLine
 10
8659.152096
 20
497.549256
 30
0.0
 11
8659.543461
 21
497.344255
 31
0.0
  0
LINE
  5
4F0
100
AcDbEntity
  8
AM_4
100
AcDbLine
 10
8659.543461
 20
497.344255
 30
0.0
 11
8660.28892
 21
496.89698
 31
0.0
  0
LINE
  5
4F1
100
AcDbEntity
  8
AM_4
100
AcDbLine
 10
8660.28892
 20
496.89698
 30
0.0
 11
8660.643013
 21
496.63607
 31
0.0
  0
LINE
  5
4F2
100
AcDbEntity
  8
AM_4
100
AcDbLine
 10
8660.643013
 20
496.63607
 30
0.0
 11
8660.978469
 21
496.375159
 31
0.0
  0
LINE
  5
4F3
100
AcDbEntity
  8
AM_4
100
AcDbLine
 10
8660.978469
 20
496.375159
 30
0.0
 11
8661.313926
 21
496.076976
 31
0.0
  0
LINE
  5
4F4
100
AcDbEntity
  8
AM_4
100
AcDbLine
 10
8661.313926
 20
496.076976
 30
0.0
 11
8661.630746
 21
495.778792
 31
0.0
  0
LINE
  5
4F5
100
AcDbEntity
  8
AM_4
100
AcDbLine
 10
8661.630746
 20
495.778792
 30
0.0
 11
8661.910293
 21
495.461972
 31
0.0
  0
LINE
  5
4F6
100
AcDbEntity
  8
AM_4
100
AcDbLine
 10
8661.910293
 20
495.461972
 30
0.0
 11
8662.208476
 21
495.145152
 31
0.0
  0
LINE
  5
4F7
100
AcDbEntity
  8
AM_4
100
AcDbLine
 10
8662.208476
 20
495.145152
 30
0.0
 11
8662.469387
 21
494.791059
 31
0.0
  0
LINE
  5
4F8
100
AcDbEntity
  8
AM_4
100
AcDbLine
 10
8662.469387
 20
494.791059
 30
0.0
 11
8662.953935
 21
494.082874
 31
0.0
  0
LINE
  5
4F9
100
AcDbEntity
  8
AM_4
100
AcDbLine
 10
8662.953935
 20
494.082874
 30
0.0
 11
8663.158936
 21
493.691508
 31
0.0
  0
LINE
  5
4FA
100
AcDbEntity
  8
AM_4
100
AcDbLine
 10
8663.158936
 20
493.691508
 30
0.0
 11
8663.363937
 21
493.318778
 31
0.0
  0
LINE
  5
4FB
100
AcDbEntity
  8
AM_4
100
AcDbLine
 10
8663.363937
 20
493.318778
 30
0.0
 11
8663.550302
 21
492.908776
 31
0.0
  0
LINE
  5
4FC
100
AcDbEntity
  8
AM_4
100
AcDbLine
 10
8663.550302
 20
492.908776
 30
0.0
 11
8663.848485
 21
492.088772
 31
0.0
  0
LINE
  5
4FD
100
AcDbEntity
  8
AM_4
100
AcDbLine
 10
8663.848485
 20
492.088772
 30
0.0
 11
8663.960304
 21
491.660133
 31
0.0
  0
LINE
  5
4FE
100
AcDbEntity
  8
AM_4
100
AcDbLine
 10
8663.960304
 20
491.660133
 30
0.0
 11
8664.072123
 21
491.231494
 31
0.0
  0
LINE
  5
4FF
100
AcDbEntity
  8
AM_4
100
AcDbLine
 10
8664.072123
 20
491.231494
 30
0.0
 11
8664.146669
 21
490.784219
 31
0.0
  0
LINE
  5
500
100
AcDbEntity
  8
AM_4
100
AcDbLine
 10
8664.146669
 20
490.784219
 30
0.0
 11
8664.202578
 21
490.35558
 31
0.0
  0
LINE
  5
501
100
AcDbEntity
  8
AM_4
100
AcDbLine
 10
8664.202578
 20
490.35558
 30
0.0
 11
8664.239851
 21
489.889668
 31
0.0
  0
LINE
  5
502
100
AcDbEntity
  8
AM_4
100
AcDbLine
 10
8662.525296
 20
496.729252
 30
0.0
 11
8663.829849
 21
495.163789
 31
0.0
  0
LINE
  5
503
100
AcDbEntity
  8
AM_4
100
AcDbLine
 10
8663.047117
 20
497.959259
 30
0.0
 11
8662.618479
 21
498.331988
 31
0.0
  0
LINE
  5
504
100
AcDbEntity
  8
AM_4
100
AcDbLine
 10
8662.618479
 20
498.331988
 30
0.0
 11
8662.18984
 21
498.686081
 31
0.0
  0
LINE
  5
505
100
AcDbEntity
  8
AM_4
100
AcDbLine
 10
8661.258016
 20
499.319721
 30
0.0
 11
8662.18984
 21
498.686081
 31
0.0
  0
LINE
  5
506
100
AcDbEntity
  8
AM_4
100
AcDbLine
 10
8661.258016
 20
499.319721
 30
0.0
 11
8660.773468
 21
499.599268
 31
0.0
  0
LINE
  5
507
100
AcDbEntity
  8
AM_4
100
AcDbLine
 10
8660.773468
 20
499.599268
 30
0.0
 11
8660.270284
 21
499.860178
 31
0.0
  0
LINE
  5
508
100
AcDbEntity
  8
AM_4
100
AcDbLine
 10
8660.270284
 20
499.860178
 30
0.0
 11
8659.767099
 21
500.083816
 31
0.0
  0
LINE
  5
509
100
AcDbEntity
  8
AM_4
100
AcDbLine
 10
8659.767099
 20
500.083816
 30
0.0
 11
8659.226641
 21
500.288817
 31
0.0
  0
LINE
  5
50A
100
AcDbEntity
  8
AM_4
100
AcDbLine
 10
8659.226641
 20
500.288817
 30
0.0
 11
8658.686184
 21
500.475182
 31
0.0
  0
LINE
  5
50B
100
AcDbEntity
  8
AM_4
100
AcDbLine
 10
8658.686184
 20
500.475182
 30
0.0
 11
8658.145726
 21
500.64291
 31
0.0
  0
LINE
  5
50C
100
AcDbEntity
  8
AM_4
100
AcDbLine
 10
8658.145726
 20
500.64291
 30
0.0
 11
8657.567996
 21
500.773365
 31
0.0
  0
LINE
  5
50D
100
AcDbEntity
  8
AM_4
100
AcDbLine
 10
8657.567996
 20
500.773365
 30
0.0
 11
8657.008902
 21
500.866548
 31
0.0
  0
LINE
  5
50E
100
AcDbEntity
  8
AM_4
100
AcDbLine
 10
8657.008902
 20
500.866548
 30
0.0
 11
8656.412535
 21
500.941094
 31
0.0
  0
LINE
  5
50F
100
AcDbEntity
  8
AM_4
100
AcDbLine
 10
8656.412535
 20
500.941094
 30
0.0
 11
8655.834804
 21
500.997003
 31
0.0
  0
LINE
  5
510
100
AcDbEntity
  8
AM_4
100
AcDbLine
 10
8655.834804
 20
500.997003
 30
0.0
 11
8655.238437
 21
501.015639
 31
0.0
  0
LINE
  5
511
100
AcDbEntity
  8
AM_4
100
AcDbLine
 10
8655.704349
 20
498.443807
 30
0.0
 11
8656.170261
 21
498.406534
 31
0.0
  0
LINE
  5
512
100
AcDbEntity
  8
AM_4
100
AcDbLine
 10
8656.170261
 20
498.406534
 30
0.0
 11
8657.064811
 21
498.257442
 31
0.0
  0
LINE
  5
513
100
AcDbEntity
  8
AM_4
100
AcDbLine
 10
8657.064811
 20
498.257442
 30
0.0
 11
8657.49345
 21
498.16426
 31
0.0
  0
LINE
  5
514
100
AcDbEntity
  8
AM_4
100
AcDbLine
 10
8657.49345
 20
498.16426
 30
0.0
 11
8657.922089
 21
498.033805
 31
0.0
  0
LINE
  5
515
100
AcDbEntity
  8
AM_4
100
AcDbLine
 10
8657.922089
 20
498.033805
 30
0.0
 11
8658.350728
 21
497.884713
 31
0.0
  0
LINE
  5
516
100
AcDbEntity
  8
AM_4
100
AcDbLine
 10
8658.350728
 20
497.884713
 30
0.0
 11
8658.76073
 21
497.735621
 31
0.0
  0
LINE
  5
517
100
AcDbEntity
  8
AM_4
100
AcDbLine
 10
8655.238437
 20
498.443807
 30
0.0
 11
8655.238437
 21
501.015639
 31
0.0
  0
LINE
  5
518
100
AcDbEntity
  8
AM_4
100
AcDbLine
 10
8655.238437
 20
501.015639
 30
0.0
 11
8655.238437
 21
501.015639
 31
0.0
  0
LINE
  5
519
100
AcDbEntity
  8
AM_4
100
AcDbLine
 10
8655.238437
 20
499.729723
 30
0.0
 11
8657.307085
 21
499.468813
 31
0.0
  0
LINE
  5
51A
100
AcDbEntity
  8
AM_4
100
AcDbLine
 10
8657.307085
 20
499.468813
 30
0.0
 11
8659.263914
 21
498.946992
 31
0.0
  0
LINE
  5
51B
100
AcDbEntity
  8
AM_4
100
AcDbLine
 10
8659.263914
 20
498.946992
 30
0.0
 11
8660.959833
 21
497.903349
 31
0.0
  0
ARC
  5
51C
100
AcDbEntity
  8
AM_4
100
AcDbCircle
 10
8655.238437
 20
489.442393
 30
0.0
 40
9.001414
100
AcDbArc
 50
0.0
 51
90.0
  0
ARC
  5
51D
100
AcDbEntity
  8
AM_4
100
AcDbCircle
 10
8655.238437
 20
489.442393
 30
0.0
 40
11.573246
100
AcDbArc
 50
0.0
 51
90.0
  0
ARC
  5
51E
100
AcDbEntity
  8
AM_4
100
AcDbCircle
 10
8655.238437
 20
489.442393
 30
0.0
 40
9.201442
100
AcDbArc
 50
0.0
 51
90.0
  0
LINE
  5
51F
100
AcDbEntity
  8
AM_4
100
AcDbLine
 10
8664.519398
 20
496.31925
 30
0.0
 11
8664.183942
 21
496.766525
 31
0.0
  0
LINE
  5
520
100
AcDbEntity
  8
AM_4
100
AcDbLine
 10
8664.239851
 20
489.442393
 30
0.0
 11
8666.811684
 21
489.442393
 31
0.0
  0
LINE
  5
521
100
AcDbEntity
  8
AM_4
100
AcDbLine
 10
8663.829849
 20
495.163789
 30
0.0
 11
8664.743036
 21
493.46787
 31
0.0
  0
HATCH
  5
522
100
AcDbEntity
  8
AM_8
100
AcDbHatch
 10
0.0
 20
0.0
 30
0.0
210
0.0
220
0.0
230
1.0
  2
_U
 70
     0
 71
     0
 91
        1
 92
        1
 93
        8
 72
     1
 10
7681.283482
 20
1556.90256
 11
7716.283482
 21
1556.90256
 72
     1
 10
7716.283482
 20
1556.90256
 11
7716.283482
 21
1559.40256
 72
     1
 10
7716.283482
 20
1559.40256
 11
7681.283482
 21
1559.40256
 72
     2
 10
7681.283482
 20
1561.90256
 40
2.5
 50
90.0
 51
180.0
 73
     0
 72
     1
 10
7678.783482
 20
1561.90256
 11
7678.783482
 21
1804.9598
 72
     2
 10
7442.27681
 20
2360.730071
 40
604.0
 50
66.947941
 51
67.205427
 73
     0
 72
     1
 10
7676.283482
 20
1803.90256
 11
7676.283482
 21
1561.90256
 72
     2
 10
7681.283482
 20
1561.90256
 40
5.0
 50
180.0
 51
270.0
 73
     1
 97
        0
 75
     0
 76
     0
 52
135.0
 41
5.0
 77
     0
 78
     1
 53
135.0
 43
8996.476842
 44
2675.677189
 45
-3.535533905932737
 46
-3.535533905932737
 79
     0
 98
        1
 10
1631.530224
 20
-288.347299
1001
GENIUS_GENOBJ-N-HTC_13
1002
{
1000
OWNER
1000
GEN
1002
}
1001
GENIUS_GENODEF_13
1002
{
1000
HIER
1070
     0
1002
}
1002
{
1000
MANEDIT
1070
     0
1002
}
1002
{
1000
NOSEL
1070
     0
1002
}
1002
{
1000
BEHIND
1070
     0
1002
}
1002
{
1000
OTHER
1070
     0
1002
}
1002
{
1000
REACTOR
1002
}
1001
GENIUS_GENHATCH_13
1002
{
1000
DATA
1040
135.0
1042
1.0
1000
_U
1070
     0
1011
7677.164121
1021
1618.91597
1031
0.0
1002
}
1002
{
1000
UCS
1010
0.0
1020
0.0
1030
0.0
1010
1.0
1020
0.0
1030
0.0
1010
0.0
1020
1.0
1030
0.0
1002
}
  0
LINE
  5
523
100
AcDbEntity
  8
AM_0
100
AcDbLine
 10
7676.283482
 20
1803.90256
 30
0.0
 11
7676.283482
 21
1561.90256
 31
0.0
  0
LINE
  5
524
100
AcDbEntity
  8
AM_0
100
AcDbLine
 10
7678.783482
 20
1804.9598
 30
0.0
 11
7678.783482
 21
1561.90256
 31
0.0
  0
LINE
  5
525
100
AcDbEntity
  8
AM_0
100
AcDbLine
 10
7716.283482
 20
1556.90256
 30
0.0
 11
7716.283482
 21
1821.706296
 31
0.0
  0
ARC
  5
526
100
AcDbEntity
  8
AM_0
100
AcDbCircle
 10
7681.283482
 20
1561.90256
 30
0.0
 40
5.0
100
AcDbArc
 50
180.0
 51
270.0
1001
GENIUS_GENODEF_13
1002
{
1000
HIER
1070
     0
1002
}
1002
{
1000
MANEDIT
1070
     0
1002
}
1002
{
1000
NOSEL
1070
     0
1002
}
1002
{
1000
BEHIND
1070
     0
1002
}
1002
{
1000
OTHER
1070
     0
1002
}
1002
{
1000
REACTOR
1002
}
1001
GENIUS_GENOBJ-N-FIL_13
1002
{
1000
OWNER
1000
GEN
1002
}
  0
ARC
  5
527
100
AcDbEntity
  8
AM_0
100
AcDbCircle
 10
7681.283482
 20
1561.90256
 30
0.0
 40
2.5
100
AcDbArc
 50
180.0
 51
270.0
1001
GENIUS_GENOBJ-N-FIL_13
1002
{
1000
OWNER
1000
GEN
1002
}
1001
GENIUS_GENODEF_13
1002
{
1000
HIER
1070
     0
1002
}
1002
{
1000
MANEDIT
1070
     0
1002
}
1002
{
1000
NOSEL
1070
     0
1002
}
1002
{
1000
BEHIND
1070
     0
1002
}
1002
{
1000
OTHER
1070
     0
1002
}
1002
{
1000
REACTOR
1002
}
  0
LINE
  5
528
100
AcDbEntity
  8
AM_0
100
AcDbLine
 10
7681.283482
 20
1559.40256
 30
0.0
 11
7716.283482
 21
1559.40256
 31
0.0
  0
LINE
  5
529
100
AcDbEntity
  8
AM_0
100
AcDbLine
 10
7681.283482
 20
1556.90256
 30
0.0
 11
7716.283482
 21
1556.90256
 31
0.0
  0
LINE
  5
52A
100
AcDbEntity
  8
AM_7
100
AcDbLine
 10
7696.283482
 20
1545.288793
 30
0.0
 11
7696.283482
 21
1572.457012
 31
0.0
1001
GENIUS_GENODEF_13
1002
{
1000
HIER
1070
     0
1002
}
1002
{
1000
MANEDIT
1070
     0
1002
}
1002
{
1000
NOSEL
1070
     0
1002
}
1002
{
1000
BEHIND
1070
     0
1002
}
1002
{
1000
REACTOR
1002
}
1001
GENIUS_GENOBJ-N-CEN_13
1002
{
1000
OWNER
1000
GEN
1002
}
  0
ARC
  5
52B
100
AcDbEntity
  8
AM_0
100
AcDbCircle
 10
7411.283482
 20
2202.032919
 30
0.0
 40
458.0
100
AcDbArc
 50
279.108059
 51
307.197952
  0
ARC
  5
52C
100
AcDbEntity
  8
AM_0
100
AcDbCircle
 10
7411.283482
 20
2202.032919
 30
0.0
 40
461.0
100
AcDbArc
 50
279.552055
 51
307.197952
  0
ARC
  5
52D
100
AcDbEntity
  8
AM_0
100
AcDbCircle
 10
7411.283482
 20
2281.396235
 30
0.0
 40
544.0
100
AcDbArc
 50
278.286187
 51
305.00941
  0
ARC
  5
52E
100
AcDbEntity
  8
AM_0
100
AcDbCircle
 10
7411.283482
 20
2281.396235
 30
0.0
 40
546.1
100
AcDbArc
 50
278.476798
 51
305.00941
  0
LINE
  5
52F
100
AcDbEntity
  8
AM_0
100
AcDbLine
 10
7526.283482
 20
1730.782919
 30
0.0
 11
7516.283482
 21
1730.782919
 31
0.0
  0
LINE
  5
530
100
AcDbEntity
  8
AM_0
100
AcDbLine
 10
7526.283482
 20
1740.862769
 30
0.0
 11
7516.283482
 21
1740.862769
 31
0.0
  0
LINE
  5
531
100
AcDbEntity
  8
AM_0
100
AcDbLine
 10
7525.363332
 20
1741.782919
 30
0.0
 11
7517.203632
 21
1741.782919
 31
0.0
  0
LINE
  5
532
100
AcDbEntity
  8
AM_4
100
AcDbLine
 10
7517.203632
 20
1730.782919
 30
0.0
 11
7516.283482
 21
1729.282919
 31
0.0
  0
LINE
  5
533
100
AcDbEntity
  8
AM_4
100
AcDbLine
 10
7517.203632
 20
1730.782919
 30
0.0
 11
7517.203632
 21
1741.782919
 31
0.0
  0
LINE
  5
534
100
AcDbEntity
  8
AM_0
100
AcDbLine
 10
7516.283482
 20
1740.862769
 30
0.0
 11
7517.203632
 21
1741.782919
 31
0.0
  0
LINE
  5
535
100
AcDbEntity
  8
AM_0
100
AcDbLine
 10
7516.283482
 20
1723.782919
 30
0.0
 11
7516.283482
 21
1740.862769
 31
0.0
  0
LINE
  5
536
100
AcDbEntity
  8
AM_0
100
AcDbLine
 10
7515.283482
 20
1729.782919
 30
0.0
 11
7515.283482
 21
1723.782919
 31
0.0
1001
GENIUS_GENODEF_13
1002
{
1000
HIER
1070
     0
1002
}
1002
{
1000
MANEDIT
1070
     0
1002
}
1002
{
1000
NOSEL
1070
     0
1002
}
1002
{
1000
BEHIND
1070
     0
1002
}
1002
{
1000
REACTOR
1002
}
1001
GENIUS_GENOBJ-N-CEN_13
1002
{
1000
OWNER
1000
GEN
1002
}
  0
LINE
  5
537
100
AcDbEntity
  8
AM_0
100
AcDbLine
 10
7512.283482
 20
1734.282919
 30
0.0
 11
7512.283482
 21
1729.782919
 31
0.0
  0
LINE
  5
538
100
AcDbEntity
  8
AM_4
100
AcDbLine
 10
7525.363332
 20
1730.782919
 30
0.0
 11
7526.283482
 21
1729.282919
 31
0.0
  0
LINE
  5
539
100
AcDbEntity
  8
AM_4
100
AcDbLine
 10
7525.363332
 20
1730.782919
 30
0.0
 11
7525.363332
 21
1741.782919
 31
0.0
  0
LINE
  5
53A
100
AcDbEntity
  8
AM_0
100
AcDbLine
 10
7525.363332
 20
1741.782919
 30
0.0
 11
7526.283482
 21
1740.862769
 31
0.0
  0
LINE
  5
53B
100
AcDbEntity
  8
AM_0
100
AcDbLine
 10
7526.283482
 20
1723.782919
 30
0.0
 11
7526.283482
 21
1740.862769
 31
0.0
  0
LINE
  5
53C
100
AcDbEntity
  8
AM_0
100
AcDbLine
 10
7526.283482
 20
1729.782919
 30
0.0
 11
7541.283482
 21
1729.782919
 31
0.0
  0
LINE
  5
53D
100
AcDbEntity
  8
AM_0
100
AcDbLine
 10
7527.283482
 20
1729.782919
 30
0.0
 11
7527.283482
 21
1723.782919
 31
0.0
1001
GENIUS_GENODEF_13
1002
{
1000
HIER
1070
     0
1002
}
1002
{
1000
MANEDIT
1070
     0
1002
}
1002
{
1000
NOSEL
1070
     0
1002
}
1002
{
1000
BEHIND
1070
     0
1002
}
1002
{
1000
REACTOR
1002
}
1001
GENIUS_GENOBJ-N-CEN_13
1002
{
1000
OWNER
1000
GEN
1002
}
  0
LINE
  5
53E
100
AcDbEntity
  8
AM_0
100
AcDbLine
 10
7541.283482
 20
1723.782919
 30
0.0
 11
7541.283482
 21
1729.782919
 31
0.0
  0
LINE
  5
53F
100
AcDbEntity
  8
AM_0
100
AcDbLine
 10
7531.283482
 20
1735.082919
 30
0.0
 11
7526.283482
 21
1735.082919
 31
0.0
  0
LINE
  5
540
100
AcDbEntity
  8
AM_0
100
AcDbLine
 10
7541.283482
 20
1748.082919
 30
0.0
 11
7541.283482
 21
1745.082919
 31
0.0
  0
LINE
  5
541
100
AcDbEntity
  8
AM_0
100
AcDbLine
 10
7531.283482
 20
1740.082919
 30
0.0
 11
7526.283482
 21
1740.082919
 31
0.0
  0
LINE
  5
542
100
AcDbEntity
  8
AM_0
100
AcDbLine
 10
7536.283482
 20
1748.082919
 30
0.0
 11
7536.283482
 21
1745.082919
 31
0.0
  0
LINE
  5
543
100
AcDbEntity
  8
AM_0
100
AcDbLine
 10
7541.283482
 20
1748.082919
 30
0.0
 11
7528.765893
 21
1748.082919
 31
0.0
  0
ARC
  5
544
100
AcDbEntity
  8
AM_0
100
AcDbCircle
 10
7531.283482
 20
1745.082919
 30
0.0
 40
5.0
100
AcDbArc
 50
270.0
 51
0.0
1001
GENIUS_GENODEF_13
1002
{
1000
HIER
1070
     0
1002
}
1002
{
1000
MANEDIT
1070
     0
1002
}
1002
{
1000
NOSEL
1070
     0
1002
}
1002
{
1000
BEHIND
1070
     0
1002
}
1002
{
1000
REACTOR
1002
}
1001
GENIUS_GENOBJ-N-FIL_13
1002
{
1000
OWNER
1000
GEN
1002
}
  0
ARC
  5
545
100
AcDbEntity
  8
AM_0
100
AcDbCircle
 10
7531.283482
 20
1745.082919
 30
0.0
 40
10.0
100
AcDbArc
 50
270.0
 51
0.0
1001
GENIUS_GENODEF_13
1002
{
1000
HIER
1070
     0
1002
}
1002
{
1000
MANEDIT
1070
     0
1002
}
1002
{
1000
NOSEL
1070
     0
1002
}
1002
{
1000
BEHIND
1070
     0
1002
}
1002
{
1000
REACTOR
1002
}
1001
GENIUS_GENOBJ-N-FIL_13
1002
{
1000
OWNER
1000
GEN
1002
}
  0
LINE
  5
546
100
AcDbEntity
  8
AM_0
100
AcDbLine
 10
7511.283482
 20
1721.782919
 30
0.0
 11
7531.283482
 21
1721.782919
 31
0.0
  0
ARC
  5
547
100
AcDbEntity
  8
AM_0
100
AcDbCircle
 10
7525.283482
 20
1726.915397
 30
0.0
 40
11.532479
100
AcDbArc
 50
249.705445
 51
290.294555
  0
LINE
  5
548
100
AcDbEntity
  8
AM_0
100
AcDbLine
 10
7529.283482
 20
1715.382919
 30
0.0
 11
7513.283482
 21
1715.382919
 31
0.0
  0
LINE
  5
549
100
AcDbEntity
  8
AM_0
100
AcDbLine
 10
7513.283482
 20
1721.182919
 30
0.0
 11
7529.283482
 21
1721.182919
 31
0.0
  0
LINE
  5
54A
100
AcDbEntity
  8
AM_0
100
AcDbLine
 10
7513.283482
 20
1721.182919
 30
0.0
 11
7513.283482
 21
1715.382919
 31
0.0
  0
LINE
  5
54B
100
AcDbEntity
  8
AM_0
100
AcDbLine
 10
7521.283482
 20
1716.098833
 30
0.0
 11
7521.283482
 21
1721.182919
 31
0.0
  0
ARC
  5
54C
100
AcDbEntity
  8
AM_0
100
AcDbCircle
 10
7517.283482
 20
1726.915397
 30
0.0
 40
11.532479
100
AcDbArc
 50
249.705445
 51
290.294555
  0
LINE
  5
54D
100
AcDbEntity
  8
AM_0
100
AcDbLine
 10
7513.968482
 20
1721.182919
 30
0.0
 11
7513.968482
 21
1721.782919
 31
0.0
  0
LINE
  5
54E
100
AcDbEntity
  8
AM_0
100
AcDbLine
 10
7529.283482
 20
1721.182919
 30
0.0
 11
7529.283482
 21
1715.382919
 31
0.0
  0
LINE
  5
54F
100
AcDbEntity
  8
AM_0
100
AcDbLine
 10
7528.598482
 20
1721.182919
 30
0.0
 11
7528.598482
 21
1721.782919
 31
0.0
  0
LINE
  5
550
100
AcDbEntity
  8
AM_7
100
AcDbLine
 10
7521.283482
 20
1718.651693
 30
0.0
 11
7521.283482
 21
1740.082919
 31
0.0
1001
GENIUS_GENODEF_13
1002
{
1000
HIER
1070
     0
1002
}
1002
{
1000
MANEDIT
1070
     0
1002
}
1002
{
1000
NOSEL
1070
     0
1002
}
1002
{
1000
BEHIND
1070
     0
1002
}
1002
{
1000
REACTOR
1002
}
1001
GENIUS_GENOBJ-N-CEN_13
1002
{
1000
OWNER
1000
GEN
1002
}
  0
LINE
  5
551
100
AcDbEntity
  8
AM_0
100
AcDbLine
 10
7511.283482
 20
1723.782919
 30
0.0
 11
7511.283482
 21
1721.782919
 31
0.0
  0
LINE
  5
552
100
AcDbEntity
  8
AM_0
100
AcDbLine
 10
7531.283482
 20
1721.782919
 30
0.0
 11
7531.283482
 21
1723.782919
 31
0.0
  0
LINE
  5
553
100
AcDbEntity
  8
AM_0
100
AcDbLine
 10
7487.783482
 20
1747.424571
 30
0.0
 11
7487.783482
 21
1734.282919
 31
0.0
  0
LINE
  5
554
100
AcDbEntity
  8
AM_0
100
AcDbLine
 10
7483.783482
 20
1729.782919
 30
0.0
 11
7483.783482
 21
1749.807588
 31
0.0
  0
LINE
  5
555
100
AcDbEntity
  8
AM_0
100
AcDbLine
 10
7491.783482
 20
1741.26203
 30
0.0
 11
7491.783482
 21
1735.082919
 31
0.0
  0
LINE
  5
556
100
AcDbEntity
  8
AM_0
100
AcDbLine
 10
7497.683482
 20
1735.082919
 30
0.0
 11
7497.683482
 21
1734.282919
 31
0.0
  0
LINE
  5
557
100
AcDbEntity
  8
AM_0
100
AcDbLine
 10
7489.683482
 20
1743.07529
 30
0.0
 11
7489.683482
 21
1734.282919
 31
0.0
  0
LINE
  5
558
100
AcDbEntity
  8
AM_0
100
AcDbLine
 10
7487.783482
 20
1734.282919
 30
0.0
 11
7512.283482
 21
1734.282919
 31
0.0
  0
LINE
  5
559
100
AcDbEntity
  8
AM_0
100
AcDbLine
 10
7516.283482
 20
1740.082919
 30
0.0
 11
7491.783482
 21
1740.082919
 31
0.0
  0
LINE
  5
55A
100
AcDbEntity
  8
AM_0
100
AcDbLine
 10
7516.283482
 20
1735.082919
 30
0.0
 11
7491.783482
 21
1735.082919
 31
0.0
  0
ARC
  5
55B
100
AcDbEntity
  8
AM_0
100
AcDbCircle
 10
7629.533482
 20
1914.477815
 30
0.0
 40
97.0
100
AcDbArc
 50
307.197952
 51
0.0
1001
GENIUS_GENODEF_13
1002
{
1000
HIER
1070
     0
1002
}
1002
{
1000
MANEDIT
1070
     0
1002
}
1002
{
1000
NOSEL
1070
     0
1002
}
1002
{
1000
BEHIND
1070
     0
1002
}
1002
{
1000
REACTOR
1002
}
1001
GENIUS_GENOBJ-N-FIL_13
1002
{
1000
OWNER
1000
GEN
1002
}
  0
ARC
  5
55C
100
AcDbEntity
  8
AM_0
100
AcDbCircle
 10
7629.533482
 20
1914.477815
 30
0.0
 40
100.0
100
AcDbArc
 50
307.197952
 51
0.0
1001
GENIUS_GENODEF_13
1002
{
1000
HIER
1070
     0
1002
}
1002
{
1000
MANEDIT
1070
     0
1002
}
1002
{
1000
NOSEL
1070
     0
1002
}
1002
{
1000
BEHIND
1070
     0
1002
}
1002
{
1000
REACTOR
1002
}
1001
GENIUS_GENOBJ-N-FIL_13
1002
{
1000
OWNER
1000
GEN
1002
}
  0
ARC
  5
55D
100
AcDbEntity
  8
AM_0
100
AcDbCircle
 10
7648.283482
 20
1943.043446
 30
0.0
 40
133.0
100
AcDbArc
 50
305.00941
 51
0.0
1001
GENIUS_GENODEF_13
1002
{
1000
HIER
1070
     0
1002
}
1002
{
1000
MANEDIT
1070
     0
1002
}
1002
{
1000
NOSEL
1070
     0
1002
}
1002
{
1000
BEHIND
1070
     0
1002
}
1002
{
1000
REACTOR
1002
}
1001
GENIUS_GENOBJ-N-FIL_13
1002
{
1000
OWNER
1000
GEN
1002
}
  0
ARC
  5
55E
100
AcDbEntity
  8
AM_0
100
AcDbCircle
 10
7648.283482
 20
1943.043446
 30
0.0
 40
130.9
100
AcDbArc
 50
305.00941
 51
0.0
1001
GENIUS_GENODEF_13
1002
{
1000
HIER
1070
     0
1002
}
1002
{
1000
MANEDIT
1070
     0
1002
}
1002
{
1000
NOSEL
1070
     0
1002
}
1002
{
1000
BEHIND
1070
     0
1002
}
1002
{
1000
REACTOR
1002
}
1001
GENIUS_GENOBJ-N-FIL_13
1002
{
1000
OWNER
1000
GEN
1002
}
  0
ARC
  5
55F
100
AcDbEntity
  8
AM_0
100
AcDbCircle
 10
7442.27681
 20
2360.730071
 30
0.0
 40
604.0
100
AcDbArc
 50
292.794573
 51
295.130405
  0
ARC
  5
560
100
AcDbEntity
  8
AM_0
100
AcDbCircle
 10
7669.926341
 20
1871.027558
 30
0.0
 40
64.0
100
AcDbArc
 50
296.800982
 51
311.837966
  0
ARC
  5
561
100
AcDbEntity
  8
AM_0
100
AcDbCircle
 10
7714.083482
 20
1821.706296
 30
0.0
 40
2.2
100
AcDbArc
 50
0.0
 51
131.837966
  0
LINE
  5
562
100
AcDbEntity
  8
AM_0
100
AcDbLine
 10
7779.183482
 20
2263.997048
 30
0.0
 11
7779.183482
 21
2567.965775
 31
0.0
  0
LINE
  5
563
100
AcDbEntity
  8
AM_0
100
AcDbLine
 10
7781.283482
 20
2263.997048
 30
0.0
 11
7781.283482
 21
2567.965775
 31
0.0
  0
ARC
  5
564
100
AcDbEntity
  8
AM_0
100
AcDbCircle
 10
7778.40935
 20
2252.512986
 30
0.0
 40
1.8
100
AcDbArc
 50
176.0
 51
270.0
1001
GENIUS_GENODEF_13
1002
{
1000
HIER
1070
     0
1002
}
1002
{
1000
MANEDIT
1070
     0
1002
}
1002
{
1000
NOSEL
1070
     0
1002
}
1002
{
1000
BEHIND
1070
     0
1002
}
1002
{
1000
REACTOR
1002
}
1001
GENIUS_GENOBJ-N-FIL_13
1002
{
1000
OWNER
1000
GEN
1002
}
  0
LINE
  5
565
100
AcDbEntity
  8
AM_0
100
AcDbLine
 10
7776.613735
 20
2252.638547
 30
0.0
 11
7777.162517
 21
2260.4865
 31
0.0
  0
ARC
  5
566
100
AcDbEntity
  8
AM_0
100
AcDbCircle
 10
7778.183482
 20
2263.997048
 30
0.0
 40
3.1
100
AcDbArc
 50
315.0
 51
0.0
1001
GENIUS_GENODEF_13
1002
{
1000
HIER
1070
     0
1002
}
1002
{
1000
MANEDIT
1070
     0
1002
}
1002
{
1000
NOSEL
1070
     0
1002
}
1002
{
1000
BEHIND
1070
     0
1002
}
1002
{
1000
REACTOR
1002
}
1001
GENIUS_GENOBJ-N-FIL_13
1002
{
1000
OWNER
1000
GEN
1002
}
  0
LINE
  5
567
100
AcDbEntity
  8
AM_0
100
AcDbLine
 10
7780.375513
 20
2261.805017
 30
0.0
 11
7779.547859
 21
2260.977362
 31
0.0
  0
ARC
  5
568
100
AcDbEntity
  8
AM_0
100
AcDbCircle
 10
7780.254965
 20
2260.270255
 30
0.0
 40
3.1
100
AcDbArc
 50
135.0
 51
176.0
1001
GENIUS_GENODEF_13
1002
{
1000
HIER
1070
     0
1002
}
1002
{
1000
MANEDIT
1070
     0
1002
}
1002
{
1000
NOSEL
1070
     0
1002
}
1002
{
1000
BEHIND
1070
     0
1002
}
1002
{
1000
REACTOR
1002
}
1001
GENIUS_GENOBJ-N-FIL_13
1002
{
1000
OWNER
1000
GEN
1002
}
  0
LINE
  5
569
100
AcDbEntity
  8
AM_0
100
AcDbLine
 10
7778.890589
 20
2263.289941
 30
0.0
 11
7778.062934
 21
2262.462286
 31
0.0
  0
ARC
  5
56A
100
AcDbEntity
  8
AM_0
100
AcDbCircle
 10
7780.254965
 20
2260.270255
 30
0.0
 40
1.0
100
AcDbArc
 50
135.0
 51
176.0
1001
GENIUS_GENODEF_13
1002
{
1000
HIER
1070
     0
1002
}
1002
{
1000
MANEDIT
1070
     0
1002
}
1002
{
1000
NOSEL
1070
     0
1002
}
1002
{
1000
BEHIND
1070
     0
1002
}
1002
{
1000
REACTOR
1002
}
1001
GENIUS_GENOBJ-N-FIL_13
1002
{
1000
OWNER
1000
GEN
1002
}
  0
LINE
  5
56B
100
AcDbEntity
  8
AM_0
100
AcDbLine
 10
7778.584214
 20
2250.712986
 30
0.0
 11
7779.257401
 21
2260.340012
 31
0.0
  0
ARC
  5
56C
100
AcDbEntity
  8
AM_0
100
AcDbCircle
 10
7778.183482
 20
2263.997048
 30
0.0
 40
1.0
100
AcDbArc
 50
315.0
 51
0.0
1001
GENIUS_GENODEF_13
1002
{
1000
HIER
1070
     0
1002
}
1002
{
1000
MANEDIT
1070
     0
1002
}
1002
{
1000
NOSEL
1070
     0
1002
}
1002
{
1000
BEHIND
1070
     0
1002
}
1002
{
1000
REACTOR
1002
}
1001
GENIUS_GENOBJ-N-FIL_13
1002
{
1000
OWNER
1000
GEN
1002
}
  0
LINE
  5
56D
100
AcDbEntity
  8
AM_0
100
AcDbLine
 10
7781.283482
 20
2259.282919
 30
0.0
 11
7779.183482
 21
2259.282919
 31
0.0
  0
LINE
  5
56E
100
AcDbEntity
  8
AM_0
100
AcDbLine
 10
7778.584214
 20
2250.712986
 30
0.0
 11
7729.533482
 21
2250.712986
 31
0.0
  0
LINE
  5
56F
100
AcDbEntity
  8
AM_4
100
AcDbLine
 10
7775.274473
 20
2261.642719
 30
0.0
 11
7729.533482
 21
2261.642719
 31
0.0
  0
LINE
  5
570
100
AcDbEntity
  8
AM_4
100
AcDbLine
 10
7777.214588
 20
2263.582834
 30
0.0
 11
7729.533482
 21
2263.582834
 31
0.0
  0
ARC
  5
571
100
AcDbEntity
  8
AM_0
100
AcDbCircle
 10
7648.283482
 20
2567.965775
 30
0.0
 40
130.9
100
AcDbArc
 50
0.0
 51
54.99059
1001
GENIUS_GENODEF_13
1002
{
1000
HIER
1070
     0
1002
}
1002
{
1000
MANEDIT
1070
     0
1002
}
1002
{
1000
NOSEL
1070
     0
1002
}
1002
{
1000
BEHIND
1070
     0
1002
}
1002
{
1000
REACTOR
1002
}
1001
GENIUS_GENOBJ-N-FIL_13
1002
{
1000
OWNER
1000
GEN
1002
}
  0
ARC
  5
572
100
AcDbEntity
  8
AM_0
100
AcDbCircle
 10
7648.283482
 20
2567.965775
 30
0.0
 40
133.0
100
AcDbArc
 50
0.0
 51
54.99059
1001
GENIUS_GENODEF_13
1002
{
1000
HIER
1070
     0
1002
}
1002
{
1000
MANEDIT
1070
     0
1002
}
1002
{
1000
NOSEL
1070
     0
1002
}
1002
{
1000
BEHIND
1070
     0
1002
}
1002
{
1000
REACTOR
1002
}
1001
GENIUS_GENOBJ-N-FIL_13
1002
{
1000
OWNER
1000
GEN
1002
}
  0
ARC
  5
573
100
AcDbEntity
  8
AM_0
100
AcDbCircle
 10
7629.533482
 20
2594.010795
 30
0.0
 40
97.0
100
AcDbArc
 50
0.0
 51
52.681155
1001
GENIUS_GENODEF_13
1002
{
1000
HIER
1070
     0
1002
}
1002
{
1000
MANEDIT
1070
     0
1002
}
1002
{
1000
NOSEL
1070
     0
1002
}
1002
{
1000
BEHIND
1070
     0
1002
}
1002
{
1000
REACTOR
1002
}
1001
GENIUS_GENOBJ-N-FIL_13
1002
{
1000
OWNER
1000
GEN
1002
}
  0
ARC
  5
574
100
AcDbEntity
  8
AM_0
100
AcDbCircle
 10
7629.533482
 20
2594.010795
 30
0.0
 40
100.0
100
AcDbArc
 50
0.0
 51
52.681155
1001
GENIUS_GENODEF_13
1002
{
1000
HIER
1070
     0
1002
}
1002
{
1000
MANEDIT
1070
     0
1002
}
1002
{
1000
NOSEL
1070
     0
1002
}
1002
{
1000
BEHIND
1070
     0
1002
}
1002
{
1000
REACTOR
1002
}
1001
GENIUS_GENOBJ-N-FIL_13
1002
{
1000
OWNER
1000
GEN
1002
}
  0
LINE
  5
575
100
AcDbEntity
  8
AM_0
100
AcDbLine
 10
7455.783482
 20
2760.939816
 30
0.0
 11
7455.783482
 21
2758.927762
 31
0.0
  0
ARC
  5
576
100
AcDbEntity
  8
AM_0
100
AcDbCircle
 10
7454.783482
 20
2760.939816
 30
0.0
 40
1.0
100
AcDbArc
 50
0.0
 51
83.741027
  0
ARC
  5
577
100
AcDbEntity
  8
AM_0
100
AcDbCircle
 10
7454.783482
 20
2758.927762
 30
0.0
 40
1.0
100
AcDbArc
 50
263.709368
 51
0.0
  0
LINE
  5
578
100
AcDbEntity
  8
AM_0
100
AcDbLine
 10
7536.033482
 20
2750.473261
 30
0.0
 11
7536.033482
 21
2756.703687
 31
0.0
  0
POINT
  5
5AD
100
AcDbEntity
  8
0
 60
     1
100
AcDbPoint
 10
7198.225905
 20
2496.386146
 30
0.0
 50
152.755304
1001
GENIUS_GENOBJ-NBEHI-BHB_13
1002
{
1000
OWNER
1000
GENBEHI
1002
}
1001
GENIUS_GENOENT_13
1002
{
1000
MYREF
1005
5AD
1002
}
1002
{
1000
GRP
1005
0
1002
}
1001
GENIUS_GENOLIS_13
1002
{
1000
ENT
1005
2AF
1002
}
1001
GENIUS_GENODEF_13
1002
{
1000
HIER
1070
     1
1002
}
1002
{
1000
MANEDIT
1070
     1
1002
}
1002
{
1000
NOSEL
1070
     1
1002
}
1002
{
1000
BEHIND
1070
     0
1002
}
1002
{
1000
REACTOR
1002
}
1002
{
1000
OTHER
1070
     1
1002
}
1001
GENIUS_GENBH_13
1002
{
1000
FGO
1005
0
1002
}
  0
POINT
  5
5B2
100
AcDbEntity
  8
0
 60
     1
100
AcDbPoint
 10
-424.767488
 20
2284.827366
 30
0.0
 50
160.198303
1001
GENIUS_GENOBJ-NBEHI-BHB_13
1002
{
1000
OWNER
1000
GENBEHI
1002
}
1001
GENIUS_GENOENT_13
1002
{
1000
MYREF
1005
5B2
1002
}
1002
{
1000
GRP
1005
0
1002
}
1001
GENIUS_GENOLIS_13
1002
{
1000
ENT
1005
CF
1002
}
1001
GENIUS_GENODEF_13
1002
{
1000
HIER
1070
     1
1002
}
1002
{
1000
MANEDIT
1070
     1
1002
}
1002
{
1000
NOSEL
1070
     1
1002
}
1002
{
1000
BEHIND
1070
     0
1002
}
1002
{
1000
REACTOR
1002
}
1002
{
1000
OTHER
1070
     1
1002
}
1001
GENIUS_GENBH_13
1002
{
1000
FGO
1005
0
1002
}
  0
ENDSEC
  0
SECTION
  2
OBJECTS
  0
DICTIONARY
  5
8
102
{ACAD_XDICTIONARY
360
62A
102
}
100
AcDbDictionary
  3
ACAD_GROUP
350
22
  3
ACAD_LAYOUT
350
7
  3
ACAD_MLINESTYLE
350
23
  3
ACAD_PLOTSETTINGS
350
24
  3
ACAD_PLOTSTYLENAME
350
10
  3
ACDBHEADERROUNDTRIPXREC
350
606
  3
ACDBVARIABLEDICTIONARY
350
5B9
  3
ACGREF_MASTER
350
5B3
  3
ACGREFACAD_MASTER
350
5D3
  3
ACMDICTIONARY
350
58A
  3
AMG
350
57A
  3
AMGSNAPSETTINGS
350
5D9
  3
AMI_MASTER
350
5D4
  3
DWGPROPS
350
5D7
  0
DICTIONARY
  5
604
100
AcDbDictionary
280
     1
  3
ACAD_XREC_ROUNDTRIP
360
605
  0
DICTIONARY
  5
5F6
100
AcDbDictionary
280
     1
  3
ACAD_XREC_ROUNDTRIP
360
5F7
  0
DICTIONARY
  5
5F8
100
AcDbDictionary
280
     1
  3
ACAD_XREC_ROUNDTRIP
360
5F9
  0
DICTIONARY
  5
5FA
100
AcDbDictionary
280
     1
  3
ACAD_XREC_ROUNDTRIP
360
5FB
  0
DICTIONARY
  5
5FC
100
AcDbDictionary
280
     1
  3
ACAD_XREC_ROUNDTRIP
360
5FD
  0
DICTIONARY
  5
5FE
100
AcDbDictionary
280
     1
  3
ACAD_XREC_ROUNDTRIP
360
5FF
  0
DICTIONARY
  5
600
100
AcDbDictionary
280
     1
  3
ACAD_XREC_ROUNDTRIP
360
601
  0
DICTIONARY
  5
602
100
AcDbDictionary
280
     1
  3
ACAD_XREC_ROUNDTRIP
360
603
  0
DICTIONARY
  5
633
100
AcDbDictionary
280
     1
  3
ACAD_XREC_ROUNDTRIP
360
634
  0
DICTIONARY
  5
637
100
AcDbDictionary
280
     1
  3
ACAD_XREC_ROUNDTRIP
360
638
  0
DICTIONARY
  5
653
100
AcDbDictionary
280
     1
  3
ACAD_XREC_ROUNDTRIP
360
654
  0
DICTIONARY
  5
635
100
AcDbDictionary
280
     1
  3
ACAD_XREC_ROUNDTRIP
360
636
  0
DICTIONARY
  5
639
100
AcDbDictionary
280
     1
  3
ACAD_XREC_ROUNDTRIP
360
63A
  0
DICTIONARY
  5
64D
100
AcDbDictionary
280
     1
  3
ACAD_XREC_ROUNDTRIP
360
64E
  0
DICTIONARY
  5
63B
100
AcDbDictionary
280
     1
  3
ACAD_XREC_ROUNDTRIP
360
63C
  0
DICTIONARY
  5
64B
100
AcDbDictionary
280
     1
  3
ACAD_XREC_ROUNDTRIP
360
64C
  0
DICTIONARY
  5
64F
100
AcDbDictionary
280
     1
  3
ACAD_XREC_ROUNDTRIP
360
650
  0
DICTIONARY
  5
651
100
AcDbDictionary
280
     1
  3
ACAD_XREC_ROUNDTRIP
360
652
  0
DICTIONARY
  5
669
100
AcDbDictionary
280
     1
  3
ACAD_XREC_ROUNDTRIP
360
66A
  0
DICTIONARY
  5
62D
100
AcDbDictionary
280
     1
  3
ACAD_XREC_ROUNDTRIP
360
62E
  0
DICTIONARY
  5
65B
100
AcDbDictionary
280
     1
  3
ACAD_XREC_ROUNDTRIP
360
65C
  0
DICTIONARY
  5
65D
100
AcDbDictionary
280
     1
  3
ACAD_XREC_ROUNDTRIP
360
65E
  0
DICTIONARY
  5
65F
100
AcDbDictionary
280
     1
  3
ACAD_XREC_ROUNDTRIP
360
660
  0
DICTIONARY
  5
661
100
AcDbDictionary
280
     1
  3
ACAD_XREC_ROUNDTRIP
360
662
  0
DICTIONARY
  5
663
100
AcDbDictionary
280
     1
  3
ACAD_XREC_ROUNDTRIP
360
664
  0
DICTIONARY
  5
665
100
AcDbDictionary
280
     1
  3
ACAD_XREC_ROUNDTRIP
360
666
  0
DICTIONARY
  5
62F
100
AcDbDictionary
280
     1
  3
ACAD_XREC_ROUNDTRIP
360
630
  0
DICTIONARY
  5
3
100
AcDbDictionary
280
     1
  3
ACAD_INDEX
360
5E0
  3
ACAD_LAYOUTSELFREF
360
627
  3
ACAD_XREC_ROUNDTRIP
360
5F3
  0
DICTIONARY
  5
5F4
100
AcDbDictionary
280
     1
  3
ACAD_LAYOUTSELFREF
360
62C
  3
ACAD_XREC_ROUNDTRIP
360
5F5
  0
DICTIONARY
  5
62A
100
AcDbDictionary
280
     1
  3
ACAD_XREC_ROUNDTRIP
360
62B
  0
DICTIONARY
  5
22
102
{ACAD_REACTORS
330
8
102
}
100
AcDbDictionary
  0
DICTIONARY
  5
7
102
{ACAD_XDICTIONARY
360
628
102
}
102
{ACAD_REACTORS
330
8
102
}
100
AcDbDictionary
  3
LAYOUT1
350
C
  3
MODEL
350
6
  0
DICTIONARY
  5
23
102
{ACAD_XDICTIONARY
360
631
102
}
102
{ACAD_REACTORS
330
8
102
}
100
AcDbDictionary
  3
STANDARD
350
26
  0
DICTIONARY
  5
24
102
{ACAD_REACTORS
330
8
102
}
100
AcDbDictionary
  0
ACAD_PROXY_OBJECT
  5
10
102
{ACAD_REACTORS
330
8
102
}
100
AcDbProxyObject
 90
      499
 91
      500
 93
       86
310
405010041939BDC9B585B0
350
F
340
F
 94
        0
  0
DICTIONARY
  5
606
102
{ACAD_REACTORS
330
8
102
}
100
AcDbDictionary
  3
CEPSNTYPE
350
610
  3
DIMSTYLEDATA
350
614
  3
FINGERPRINTGUID
350
611
  3
HYPERLINKBASE
350
609
  3
INSUNITS
350
60F
  3
LAYOUTDICT
350
60B
  3
LWETCUNION
350
60E
  3
PLOTSETDICT
350
60C
  3
PLOTSTYLNAMDICT
350
60D
  3
PSVPSCALE
350
613
  3
PUCSBASE
350
617
  3
PUCSORGBACK
350
61D
  3
PUCSORGBOTTOM
350
619
  3
PUCSORGFRONT
350
61C
  3
PUCSORGLEFT
350
61A
  3
PUCSORGRIGHT
350
61B
  3
PUCSORGTOP
350
618
  3
PUCSORTHOREF
350
615
  3
PUCSORTHOVIEW
350
616
  3
STYLESHEET
350
60A
  3
TSTACKALIGN
350
607
  3
TSTACKSIZE
350
608
  3
UCSBASE
350
620
  3
UCSORGBACK
350
626
  3
UCSORGBOTTOM
350
622
  3
UCSORGFRONT
350
625
  3
UCSORGLEFT
350
623
  3
UCSORGRIGHT
350
624
  3
UCSORGTOP
350
621
  3
UCSORTHOREF
350
61E
  3
UCSORTHOVIEW
350
61F
  3
VERSIONGUID
350
612
  0
DICTIONARY
  5
5B9
102
{ACAD_REACTORS
330
8
102
}
100
AcDbDictionary
  3
DIMASSOC
350
5BB
  3
HIDETEXT
350
5BA
  3
INDEXCTL
350
5EE
  0
ACAD_PROXY_OBJECT
  5
5B3
102
{ACAD_REACTORS
330
8
102
}
100
AcDbProxyObject
 90
      499
 91
      517
 93
       34
310
0400004290
 94
        0
  0
ACAD_PROXY_OBJECT
  5
5D3
102
{ACAD_REACTORS
330
8
102
}
100
AcDbProxyObject
 90
      499
 91
      520
 93
      114
310
04000041C000000000000000000000
 94
        0
  0
DICTIONARY
  5
58A
102
{ACAD_XDICTIONARY
360
659
102
}
102
{ACAD_REACTORS
330
8
102
}
100
AcDbDictionary
  3
ACMSTDDICTIONARY
350
58B
  0
DICTIONARY
  5
57A
102
{ACAD_XDICTIONARY
360
655
102
}
102
{ACAD_REACTORS
330
8
102
}
100
AcDbDictionary
  3
ACMGSETTINGS
350
582
  0
DICTIONARY
  5
5D9
102
{ACAD_XDICTIONARY
360
667
102
}
102
{ACAD_REACTORS
330
8
102
}
100
AcDbDictionary
  0
ACAD_PROXY_OBJECT
  5
5D4
102
{ACAD_REACTORS
330
8
102
}
100
AcDbProxyObject
 90
      499
 91
      521
 93
       34
310
0500004280
 94
        0
  0
XRECORD
  5
5D7
102
{ACAD_REACTORS
330
8
102
}
100
AcDbXrecord
  1
DWGPROPS COOKIE
  2

  3

  4

  6

  7

  8

  9

300
AmdtFileType=84
301
=
302
=
303
=
304
=
305
=
306
=
307
=
308
=
309
=
 40
0.917119
 41
2452896.394699
 42
2452900.684543
  1

 90
        1
  0
XRECORD
  5
605
102
{ACAD_REACTORS
330
604
102
}
100
AcDbXrecord
102
EXTNAMES
  1
*ACTIVE
  2
*Active
102
UCS
 74
     0
 71
     0
 10
0.0
 20
0.0
 30
0.0
 10
1.0
 20
0.0
 30
0.0
 10
0.0
 20
1.0
 30
0.0
146
0.0
 79
     0
102
VIEW
281
     0
  0
XRECORD
  5
5F7
102
{ACAD_REACTORS
330
5F6
102
}
100
AcDbXrecord
102
EXTNAMES
  1
BYBLOCK
  2
ByBlock
  0
XRECORD
  5
5F9
102
{ACAD_REACTORS
330
5F8
102
}
100
AcDbXrecord
102
EXTNAMES
  1
BYLAYER
  2
ByLayer
  0
XRECORD
  5
5FB
102
{ACAD_REACTORS
330
5FA
102
}
100
AcDbXrecord
102
EXTNAMES
  1
CONTINUOUS
  2
Continuous
  0
XRECORD
  5
5FD
102
{ACAD_REACTORS
330
5FC
102
}
100
AcDbXrecord
102
EXTNAMES
  1
AMCONSTR
  2
Amconstr
  0
XRECORD
  5
5FF
102
{ACAD_REACTORS
330
5FE
102
}
100
AcDbXrecord
102
EXTNAMES
  1
AMZIGZAG
  2
Amzigzag
  0
XRECORD
  5
601
102
{ACAD_REACTORS
330
600
102
}
100
AcDbXrecord
102
EXTNAMES
  1
AM_DIN_G_W050X2
  2
AM_DIN_G_W050x2
  0
XRECORD
  5
603
102
{ACAD_REACTORS
330
602
102
}
100
AcDbXrecord
102
EXTNAMES
  1
AM_DIN_F_W050X2
  2
AM_DIN_F_W050x2
  0
XRECORD
  5
634
102
{ACAD_REACTORS
330
633
102
}
100
AcDbXrecord
102
LINEWEIGHT
280
    11
  0
XRECORD
  5
638
102
{ACAD_REACTORS
330
637
102
}
100
AcDbXrecord
102
PLOTBIT
280
     0
  0
XRECORD
  5
654
102
{ACAD_REACTORS
330
653
102
}
100
AcDbXrecord
102
LINEWEIGHT
280
     9
  0
XRECORD
  5
636
102
{ACAD_REACTORS
330
635
102
}
100
AcDbXrecord
102
LINEWEIGHT
280
     7
  0
XRECORD
  5
63A
102
{ACAD_REACTORS
330
639
102
}
100
AcDbXrecord
102
LINEWEIGHT
280
     7
  0
XRECORD
  5
64E
102
{ACAD_REACTORS
330
64D
102
}
100
AcDbXrecord
102
LINEWEIGHT
280
     7
  0
XRECORD
  5
63C
102
{ACAD_REACTORS
330
63B
102
}
100
AcDbXrecord
102
LINEWEIGHT
280
     7
  0
XRECORD
  5
64C
102
{ACAD_REACTORS
330
64B
102
}
100
AcDbXrecord
102
LINEWEIGHT
280
     7
  0
XRECORD
  5
650
102
{ACAD_REACTORS
330
64F
102
}
100
AcDbXrecord
102
LINEWEIGHT
280
    11
  0
XRECORD
  5
652
102
{ACAD_REACTORS
330
651
102
}
100
AcDbXrecord
102
LINEWEIGHT
280
     7
  0
XRECORD
  5
66A
102
{ACAD_REACTORS
330
669
102
}
100
AcDbXrecord
102
UCS
 72
     0
 10
0.0
 20
0.0
 30
0.0
 10
1.0
 20
0.0
 30
0.0
 10
0.0
 20
1.0
 30
0.0
146
0.0
 79
     0
102
VIEW
281
     0
  0
XRECORD
  5
62E
102
{ACAD_REACTORS
330
62D
102
}
100
AcDbXrecord
102
ACADR14ROUNDTRIP
1000
DSTYLE
1002
{
1070
    79
 70
     2
1070
   371
 70
    -1
1070
   372
 70
    -1
1002
}
  0
XRECORD
  5
65C
102
{ACAD_REACTORS
330
65B
102
}
100
AcDbXrecord
102
ACADR14ROUNDTRIP
1000
DSTYLE
1002
{
1070
    79
 70
     2
1070
   289
 70
     0
1070
   371
 70
    -1
1070
   372
 70
    -1
1002
}
  0
XRECORD
  5
65E
102
{ACAD_REACTORS
330
65D
102
}
100
AcDbXrecord
102
ACADR14ROUNDTRIP
1000
DSTYLE
1002
{
1070
    79
 70
     2
1070
   279
 70
     1
1070
   289
 70
     0
1070
   371
 70
    -1
1070
   372
 70
    -1
1002
}
  0
XRECORD
  5
660
102
{ACAD_REACTORS
330
65F
102
}
100
AcDbXrecord
102
ACADR14ROUNDTRIP
1000
DSTYLE
1002
{
1070
    79
 70
     2
1070
   371
 70
    -1
1070
   372
 70
    -1
1002
}
  0
XRECORD
  5
662
102
{ACAD_REACTORS
330
661
102
}
100
AcDbXrecord
102
ACADR14ROUNDTRIP
1000
DSTYLE
1002
{
1070
    79
 70
     2
1070
   371
 70
    -1
1070
   372
 70
    -1
1002
}
  0
XRECORD
  5
664
102
{ACAD_REACTORS
330
663
102
}
100
AcDbXrecord
102
ACADR14ROUNDTRIP
1000
DSTYLE
1002
{
1070
    79
 70
     2
1070
   371
 70
    -1
1070
   372
 70
    -1
1002
}
  0
XRECORD
  5
666
102
{ACAD_REACTORS
330
665
102
}
100
AcDbXrecord
102
ACADR14ROUNDTRIP
1000
DSTYLE
1002
{
1070
    79
 70
     2
1070
   343
340
5A6
1070
   371
 70
    -1
1070
   372
 70
    -1
1002
}
  0
XRECORD
  5
630
102
{ACAD_REACTORS
330
62F
102
}
100
AcDbXrecord
102
ACADR14ROUNDTRIP
1000
DSTYLE
1002
{
1070
    79
 70
     2
1070
   371
 70
    -1
1070
   372
 70
    -1
1002
}
  0
DICTIONARY
  5
5E0
102
{ACAD_REACTORS
330
3
102
}
100
AcDbDictionary
  3
*A1
350
5E1
  0
XRECORD
  5
627
102
{ACAD_REACTORS
330
3
102
}
100
AcDbXrecord
340
2
  0
XRECORD
  5
5F3
102
{ACAD_REACTORS
330
3
102
}
100
AcDbXrecord
102
EXTNAMES
  1
*MODEL_SPACE
  2
*Model_Space
  0
XRECORD
  5
62C
102
{ACAD_REACTORS
330
5F4
102
}
100
AcDbXrecord
340
9
  0
XRECORD
  5
5F5
102
{ACAD_REACTORS
330
5F4
102
}
100
AcDbXrecord
102
EXTNAMES
  1
*PAPER_SPACE
  2
*Paper_Space
  0
XRECORD
  5
62B
102
{ACAD_REACTORS
330
62A
102
}
100
AcDbXrecord
102
EXTNAMES
  1
ACDBVARIABLEDICTIONARY
  2
AcDbVariableDictionary
  1
ACMDICTIONARY
  2
AcmDictionary
  1
ACMESYSVARMANAGER
  2
AcmeSysVarManager
  1
ACMSYSTEMVARIABLEMANAGER
  2
AcmSystemVariableManager
  0
DICTIONARY
  5
628
100
AcDbDictionary
280
     1
  3
ACAD_XREC_ROUNDTRIP
360
629
  0
ACAD_PROXY_OBJECT
  5
C
102
{ACAD_REACTORS
330
7
102
}
100
AcDbProxyObject
 90
      499
 91
      502
 93
     1580
310
90B6E6F6E655F6465766963652C0E80000006066661940000000181999865000000000068661940000000001A1986500000000C0CCFC6A4000000018199D9C5011C4C65747465725F28382E35305F785F31312E30305F496E6368657329A40501416AA591069074C61796F75743140501A8000000000000000000000000000
310
00000000000000101E900000000000241C902A6A6A10232D5E076BC5510408CB5781DAF154410232D5E076BC5510408CB5781DAF15C410232D5E076BC5710408CB5781DAF15C40
330
9
330
0
340
0
340
0
 94
        0
  0
ACAD_PROXY_OBJECT
  5
6
102
{ACAD_REACTORS
330
7
102
}
100
AcDbProxyObject
 90
      499
 91
      502
 93
     1684
310
9075044462E7063332D0B80000002033931C40000000380B24C71000000000034931C40000000000C24C71000000006080406A40000000280AE41C90102413480070A598E3E6FF3F405014105C18F2F6ABDEB140299640D59E51973002E0C79FB55ECC0400CF953CD73236950108414D5F56494557364EA10B96CC9582D404
310
359D85B9E97D9995A5B8B98DD18A047601D0D3DCAC4FC5C18F2F6ABDEB1C0299640D59E5197101054D6F64656C901A800000000000000000000000000000000000000000000A1000000000000008902A6A6AAAA0
330
2
330
0
340
0
340
0
 94
        0
  0
DICTIONARY
  5
631
100
AcDbDictionary
280
     1
  3
ACAD_XREC_ROUNDTRIP
360
632
  0
MLINESTYLE
  5
26
102
{ACAD_REACTORS
330
23
102
}
100
AcDbMlineStyle
  2
STANDARD
 70
     0
  3

 62
   256
 51
90.0
 52
90.0
 71
     2
 49
0.5
 62
   256
  6
BYLAYER
 49
-0.5
 62
   256
  6
BYLAYER
  0
ACAD_PROXY_OBJECT
  5
F
102
{ACAD_REACTORS
330
10
102
}
100
AcDbProxyObject
 90
      499
 91
      501
 93
        0
 94
        0
  0
XRECORD
  5
610
102
{ACAD_REACTORS
330
606
102
}
100
AcDbXrecord
 90
        0
  0
XRECORD
  5
614
102
{ACAD_REACTORS
330
606
102
}
100
AcDbXrecord
1000
DSTYLE
1002
{
1070
    79
 70
     2
1070
   371
 70
    -1
1070
   372
 70
    -1
1002
}
  0
XRECORD
  5
611
102
{ACAD_REACTORS
330
606
102
}
100
AcDbXrecord
  1
{3784B30D-4D27-11D4-B99F-00C04F7995CB}
  0
XRECORD
  5
609
102
{ACAD_REACTORS
330
606
102
}
100
AcDbXrecord
  1

  0
XRECORD
  5
60F
102
{ACAD_REACTORS
330
606
102
}
100
AcDbXrecord
 90
        4
  0
XRECORD
  5
60B
102
{ACAD_REACTORS
330
606
102
}
100
AcDbXrecord
340
7
  0
XRECORD
  5
60E
102
{ACAD_REACTORS
330
606
102
}
100
AcDbXrecord
 90
    10781
  0
XRECORD
  5
60C
102
{ACAD_REACTORS
330
606
102
}
100
AcDbXrecord
340
24
  0
XRECORD
  5
60D
102
{ACAD_REACTORS
330
606
102
}
100
AcDbXrecord
340
10
  0
XRECORD
  5
613
102
{ACAD_REACTORS
330
606
102
}
100
AcDbXrecord
 40
0.0
  0
XRECORD
  5
617
102
{ACAD_REACTORS
330
606
102
}
100
AcDbXrecord
340
0
  0
XRECORD
  5
61D
102
{ACAD_REACTORS
330
606
102
}
100
AcDbXrecord
 10
0.0
 20
0.0
 30
0.0
  0
XRECORD
  5
619
102
{ACAD_REACTORS
330
606
102
}
100
AcDbXrecord
 10
0.0
 20
0.0
 30
0.0
  0
XRECORD
  5
61C
102
{ACAD_REACTORS
330
606
102
}
100
AcDbXrecord
 10
0.0
 20
0.0
 30
0.0
  0
XRECORD
  5
61A
102
{ACAD_REACTORS
330
606
102
}
100
AcDbXrecord
 10
0.0
 20
0.0
 30
0.0
  0
XRECORD
  5
61B
102
{ACAD_REACTORS
330
606
102
}
100
AcDbXrecord
 10
0.0
 20
0.0
 30
0.0
  0
XRECORD
  5
618
102
{ACAD_REACTORS
330
606
102
}
100
AcDbXrecord
 10
0.0
 20
0.0
 30
0.0
  0
XRECORD
  5
615
102
{ACAD_REACTORS
330
606
102
}
100
AcDbXrecord
340
0
  0
XRECORD
  5
616
102
{ACAD_REACTORS
330
606
102
}
100
AcDbXrecord
 70
     0
  0
XRECORD
  5
60A
102
{ACAD_REACTORS
330
606
102
}
100
AcDbXrecord
  1
ganz_fein.ctb
  0
XRECORD
  5
607
102
{ACAD_REACTORS
330
606
102
}
100
AcDbXrecord
 90
        1
  0
XRECORD
  5
608
102
{ACAD_REACTORS
330
606
102
}
100
AcDbXrecord
 90
       70
  0
XRECORD
  5
620
102
{ACAD_REACTORS
330
606
102
}
100
AcDbXrecord
340
0
  0
XRECORD
  5
626
102
{ACAD_REACTORS
330
606
102
}
100
AcDbXrecord
 10
0.0
 20
0.0
 30
0.0
  0
XRECORD
  5
622
102
{ACAD_REACTORS
330
606
102
}
100
AcDbXrecord
 10
0.0
 20
0.0
 30
0.0
  0
XRECORD
  5
625
102
{ACAD_REACTORS
330
606
102
}
100
AcDbXrecord
 10
0.0
 20
0.0
 30
0.0
  0
XRECORD
  5
623
102
{ACAD_REACTORS
330
606
102
}
100
AcDbXrecord
 10
0.0
 20
0.0
 30
0.0
  0
XRECORD
  5
624
102
{ACAD_REACTORS
330
606
102
}
100
AcDbXrecord
 10
0.0
 20
0.0
 30
0.0
  0
XRECORD
  5
621
102
{ACAD_REACTORS
330
606
102
}
100
AcDbXrecord
 10
0.0
 20
0.0
 30
0.0
  0
XRECORD
  5
61E
102
{ACAD_REACTORS
330
606
102
}
100
AcDbXrecord
340
0
  0
XRECORD
  5
61F
102
{ACAD_REACTORS
330
606
102
}
100
AcDbXrecord
 70
     0
  0
XRECORD
  5
612
102
{ACAD_REACTORS
330
606
102
}
100
AcDbXrecord
  1
{08519324-2820-499B-B18D-5554CD893234}
  0
DICTIONARYVAR
  5
5BB
102
{ACAD_REACTORS
330
5B9
102
}
100
DictionaryVariables
280
     0
  1
1
  0
DICTIONARYVAR
  5
5BA
102
{ACAD_REACTORS
330
5B9
102
}
100
DictionaryVariables
280
     0
  1
1
  0
DICTIONARYVAR
  5
5EE
102
{ACAD_REACTORS
330
5B9
102
}
100
DictionaryVariables
280
     0
  1
1
  0
DICTIONARY
  5
659
100
AcDbDictionary
280
     1
  3
ACAD_XREC_ROUNDTRIP
360
65A
  0
DICTIONARY
  5
58B
102
{ACAD_REACTORS
330
58A
102
}
100
AcDbDictionary
  0
DICTIONARY
  5
655
100
AcDbDictionary
280
     1
  3
ACAD_XREC_ROUNDTRIP
360
656
  0
DICTIONARY
  5
582
102
{ACAD_XDICTIONARY
360
657
102
}
102
{ACAD_REACTORS
330
57A
102
}
100
AcDbDictionary
  3
DWGSETTINGS
350
583
  0
DICTIONARY
  5
667
100
AcDbDictionary
280
     1
  3
ACAD_XREC_ROUNDTRIP
360
668
  0
LAYER_INDEX
  5
5E1
102
{ACAD_REACTORS
330
5E0
102
}
100
AcDbIndex
 40
2452900.69116228
100
AcDbLayerIndex
  8
0
360
5E2
 90
   100
  8
AM_0
360
5E3
 90
   384
  8
DEFPOINTS
360
5E4
 90
     1
  8
AM_6
360
5E5
 90
     4
  8
AM_5
360
5E6
 90
     8
  8
AM_8
360
5E7
 90
    15
  8
AM_4
360
5E8
 90
   593
  8
AM_7
360
5E9
 90
    33
  8
AM_3
360
5EA
 90
    67
  8
AM_0N
360
5EB
 90
     8
  8
AM_4N
360
5EC
 90
     1
  0
XRECORD
  5
629
102
{ACAD_REACTORS
330
628
102
}
100
AcDbXrecord
102
EXTNAMES
  1
LAYOUT1
  2
Layout1
  1
MODEL
  2
Model
  0
XRECORD
  5
632
102
{ACAD_REACTORS
330
631
102
}
100
AcDbXrecord
102
EXTNAMES
  1
STANDARD
  2
Standard
  0
XRECORD
  5
65A
102
{ACAD_REACTORS
330
659
102
}
100
AcDbXrecord
102
EXTNAMES
  1
ACMBOMDATA
  2
AcmBOMDATA
  1
ACMSTDDICTIONARY
  2
AcmStdDictionary
  0
XRECORD
  5
656
102
{ACAD_REACTORS
330
655
102
}
100
AcDbXrecord
102
EXTNAMES
  1
ACMGSETTINGS
  2
AcMgSettings
  0
DICTIONARY
  5
657
100
AcDbDictionary
280
     1
  3
ACAD_XREC_ROUNDTRIP
360
658
  0
XRECORD
  5
583
102
{ACAD_REACTORS
330
582
102
}
100
AcDbXrecord
  1
VERSION
140
15.0
  1
PRODUCT
  2
AutoCAD Mechanical 2000
  0
XRECORD
  5
668
102
{ACAD_REACTORS
330
667
102
}
100
AcDbXrecord
102
EXTNAMES
  1
HATCH__1_
  2
HATCH (1)
  1
HATCH__2_
  2
HATCH (2)
  1
SIMPLE_WELD
  2
SIMPLE WELD
  0
IDBUFFER
  5
5E2
100
AcDbIdBuffer
330
246
330
247
330
248
330
249
330
24A
330
24B
330
24C
330
24D
330
24E
330
24F
330
250
330
251
330
252
330
253
330
254
330
255
330
256
330
257
330
258
330
259
330
25A
330
25B
330
25C
330
25D
330
25E
330
25F
330
260
330
261
330
262
330
263
330
264
330
265
330
266
330
267
330
268
330
269
330
26B
330
26C
330
26D
330
26E
330
26F
330
270
330
271
330
273
330
274
330
275
330
276
330
277
330
2EA
330
2EB
330
5AD
330
5B2
330
57
330
215
330
216
330
217
330
218
330
219
330
21A
330
21B
330
21C
330
21D
330
21E
330
21F
330
220
330
221
330
222
330
223
330
224
330
225
330
226
330
227
330
228
330
229
330
22A
330
22B
330
22C
330
22D
330
22E
330
230
330
231
330
232
330
234
330
235
330
236
330
237
330
238
330
239
330
23A
330
23B
330
23C
330
23D
330
23E
330
23F
330
240
330
241
330
242
330
243
330
244
330
245
  0
IDBUFFER
  5
5E3
100
AcDbIdBuffer
330
29E
330
29F
330
2A0
330
2A1
330
2A2
330
2A3
330
2A4
330
2A5
330
2A6
330
2A7
330
2A8
330
2A9
330
2AB
330
2AC
330
2AD
330
2AE
330
2AF
330
2B0
330
2B1
330
2B2
330
2B3
330
2B5
330
2B6
330
2B8
330
2BA
330
2BB
330
2BC
330
2BD
330
2BE
330
2BF
330
2C0
330
2C2
330
2C4
330
2C5
330
2C6
330
2C7
330
2C8
330
2C9
330
2CA
330
2CB
330
2CC
330
2CD
330
2CE
330
2D0
330
2D2
330
2D3
330
2D4
330
2D5
330
2D6
330
2D7
330
2D8
330
2D9
330
2DA
330
2DB
330
2DC
330
2DD
330
2DE
330
2DF
330
2E0
330
2E1
330
2E2
330
2E3
330
2E4
330
2E6
330
2E7
330
2E8
330
523
330
524
330
525
330
526
330
527
330
528
330
529
330
52B
330
52C
330
52D
330
52E
330
52F
330
530
330
531
330
534
330
535
330
536
330
537
330
53A
330
53B
330
53C
330
53D
330
53E
330
53F
330
540
330
541
330
542
330
543
330
544
330
545
330
546
330
547
330
548
330
549
330
54A
330
54B
330
54C
330
54D
330
54E
330
54F
330
551
330
552
330
553
330
554
330
555
330
556
330
557
330
558
330
559
330
55A
330
55B
330
55C
330
55D
330
55E
330
55F
330
560
330
561
330
562
330
563
330
564
330
565
330
566
330
567
330
568
330
569
330
56A
330
56B
330
56C
330
56D
330
56E
330
571
330
572
330
573
330
574
330
575
330
576
330
577
330
578
330
4A
330
4B
330
4C
330
4E
330
4F
330
50
330
51
330
52
330
55
330
58
330
5B
330
6A
330
6B
330
71
330
72
330
73
330
74
330
91
330
93
330
94
330
A7
330
A9
330
C2
330
C5
330
C6
330
C7
330
C8
330
CA
330
CB
330
CC
330
CD
330
CE
330
CF
330
D1
330
D3
330
D4
330
10D
330
10F
330
11F
330
121
330
122
330
123
330
124
330
125
330
126
330
127
330
128
330
129
330
12A
330
12B
330
12C
330
12D
330
12E
330
12F
330
130
330
131
330
132
330
133
330
134
330
135
330
136
330
137
330
138
330
139
330
13A
330
13B
330
13C
330
13D
330
13E
330
13F
330
140
330
141
330
142
330
144
330
145
330
146
330
147
330
148
330
14A
330
14B
330
14C
330
14D
330
14E
330
14F
330
150
330
151
330
152
330
153
330
154
330
155
330
156
330
157
330
158
330
15A
330
15B
330
15C
330
15D
330
15E
330
15F
330
160
330
161
330
162
330
163
330
164
330
166
330
168
330
169
330
16A
330
16B
330
16C
330
16D
330
16E
330
16F
330
170
330
171
330
172
330
173
330
174
330
175
330
176
330
177
330
178
330
17A
330
17B
330
17E
330
17F
330
180
330
181
330
182
330
183
330
184
330
185
330
188
330
189
330
18B
330
18C
330
18E
330
18F
330
190
330
191
330
192
330
1A0
330
1A1
330
1A3
330
1A4
330
1A5
330
1A8
330
1A9
330
1AA
330
1AB
330
1AC
330
1AD
330
1AE
330
1AF
330
1B0
330
1B1
330
1B2
330
1B3
330
1B4
330
1B5
330
1B6
330
1B9
330
1BA
330
1BB
330
1BE
330
1BF
330
1C0
330
1C1
330
1C2
330
1C3
330
1C4
330
1C5
330
1C6
330
1C7
330
1C8
330
1C9
330
1CA
330
1CB
330
1CC
330
1CD
330
1CE
330
1CF
330
1D0
330
1D1
330
1D2
330
1D3
330
1D4
330
1D6
330
1D7
330
1D8
330
1D9
330
1DA
330
1DB
330
1DC
330
1DD
330
1DE
330
1DF
330
1E0
330
1E1
330
1EF
330
1F0
330
1F1
330
1F2
330
1F3
330
1F4
330
1F5
330
1F6
330
278
330
279
330
27A
330
27B
330
27C
330
27D
330
27E
330
27F
330
280
330
281
330
282
330
284
330
285
330
286
330
287
330
288
330
289
330
28A
330
28B
330
28D
330
28E
330
28F
330
290
330
291
330
292
330
293
330
294
330
295
330
296
330
29A
330
29B
330
29C
330
29D
  0
IDBUFFER
  5
5E4
100
AcDbIdBuffer
330
22F
  0
IDBUFFER
  5
5E5
100
AcDbIdBuffer
330
1F7
330
1F9
330
2E9
330
309
  0
IDBUFFER
  5
5E6
100
AcDbIdBuffer
330
27
330
35
330
5C
330
76
330
84
330
97
330
193
330
1E2
  0
IDBUFFER
  5
5E7
100
AcDbIdBuffer
330
44
330
49
330
4D
330
53
330
54
330
56
330
69
330
6C
330
187
330
18D
330
297
330
2B7
330
2B9
330
2E5
330
522
  0
IDBUFFER
  5
5E8
100
AcDbIdBuffer
330
4C7
330
4C8
330
4C9
330
4CA
330
4CB
330
4CC
330
4CD
330
4CE
330
4CF
330
4D0
330
4D1
330
4D2
330
4D3
330
4D4
330
4D5
330
4D6
330
4D7
330
4D8
330
4D9
330
4DA
330
4DB
330
4DC
330
4DD
330
4DE
330
4DF
330
4E0
330
4E1
330
4E2
330
4E3
330
4E4
330
4E5
330
4E6
330
4E7
330
4E8
330
4E9
330
4EA
330
4EB
330
4EC
330
4ED
330
4EE
330
4EF
330
4F0
330
4F1
330
4F2
330
4F3
330
4F4
330
4F5
330
4F6
330
4F7
330
4F8
330
4F9
330
4FA
330
4FB
330
4FC
330
4FD
330
4FE
330
4FF
330
500
330
501
330
502
330
503
330
504
330
505
330
506
330
507
330
508
330
509
330
50A
330
50B
330
50C
330
50D
330
50E
330
50F
330
510
330
511
330
512
330
513
330
514
330
515
330
516
330
517
330
518
330
519
330
51A
330
51B
330
51C
330
51D
330
51E
330
51F
330
520
330
521
330
532
330
533
330
538
330
539
330
56F
330
570
330
C3
330
10E
330
143
330
149
330
165
330
167
330
17C
330
186
330
18A
330
1B7
330
1B8
330
1BC
330
1BD
330
272
330
283
330
28C
330
298
330
299
330
2C1
330
2C3
330
2CF
330
2D1
330
2EC
330
2ED
330
2EE
330
2EF
330
2F0
330
2F1
330
2F2
330
2F3
330
2F4
330
2F5
330
2F6
330
2F7
330
2F8
330
2F9
330
2FA
330
2FB
330
2FC
330
2FD
330
2FE
330
2FF
330
300
330
301
330
302
330
303
330
304
330
305
330
306
330
307
330
308
330
30A
330
30B
330
30C
330
30D
330
30E
330
30F
330
310
330
311
330
312
330
313
330
314
330
315
330
316
330
317
330
318
330
319
330
31A
330
31B
330
31C
330
31D
330
31E
330
31F
330
320
330
321
330
322
330
323
330
324
330
325
330
326
330
327
330
328
330
329
330
32A
330
32B
330
32C
330
32D
330
32E
330
32F
330
330
330
331
330
332
330
333
330
334
330
335
330
336
330
337
330
338
330
339
330
33A
330
33B
330
33C
330
33D
330
33E
330
33F
330
340
330
341
330
342
330
343
330
344
330
345
330
346
330
347
330
348
330
349
330
34A
330
34B
330
34C
330
34D
330
34E
330
34F
330
350
330
351
330
352
330
353
330
354
330
355
330
356
330
357
330
358
330
359
330
35A
330
35B
330
35C
330
35D
330
35E
330
35F
330
360
330
361
330
362
330
363
330
364
330
365
330
366
330
367
330
368
330
369
330
36A
330
36B
330
36C
330
36D
330
36E
330
36F
330
370
330
371
330
372
330
373
330
374
330
375
330
376
330
377
330
378
330
379
330
37A
330
37B
330
37C
330
37D
330
37E
330
37F
330
380
330
381
330
382
330
383
330
384
330
385
330
386
330
387
330
388
330
389
330
38A
330
38B
330
38C
330
38D
330
38E
330
38F
330
390
330
391
330
392
330
393
330
394
330
395
330
396
330
397
330
398
330
399
330
39A
330
39B
330
39C
330
39D
330
39E
330
39F
330
3A0
330
3A1
330
3A2
330
3A3
330
3A4
330
3A5
330
3A6
330
3A7
330
3A8
330
3A9
330
3AA
330
3AB
330
3AC
330
3AD
330
3AE
330
3AF
330
3B0
330
3B1
330
3B2
330
3B3
330
3B4
330
3B5
330
3B6
330
3B7
330
3B8
330
3B9
330
3BA
330
3BB
330
3BC
330
3BD
330
3BE
330
3BF
330
3C0
330
3C1
330
3C2
330
3C3
330
3C4
330
3C5
330
3C6
330
3C7
330
3C8
330
3C9
330
3CA
330
3CB
330
3CC
330
3CD
330
3CE
330
3CF
330
3D0
330
3D1
330
3D2
330
3D3
330
3D4
330
3D5
330
3D6
330
3D7
330
3D8
330
3D9
330
3DA
330
3DB
330
3DC
330
3DD
330
3DE
330
3DF
330
3E0
330
3E1
330
3E2
330
3E3
330
3E4
330
3E5
330
3E6
330
3E7
330
3E8
330
3E9
330
3EA
330
3EB
330
3EC
330
3ED
330
3EE
330
3EF
330
3F0
330
3F1
330
3F2
330
3F3
330
3F4
330
3F5
330
3F6
330
3F7
330
3F8
330
3F9
330
3FA
330
3FB
330
3FC
330
3FD
330
3FE
330
3FF
330
400
330
401
330
402
330
403
330
404
330
405
330
406
330
407
330
408
330
409
330
40A
330
40B
330
40C
330
40D
330
40E
330
40F
330
410
330
411
330
412
330
413
330
414
330
415
330
416
330
417
330
418
330
419
330
41A
330
41B
330
41C
330
41D
330
41E
330
41F
330
420
330
421
330
422
330
423
330
424
330
425
330
426
330
427
330
428
330
429
330
42A
330
42B
330
42C
330
42D
330
42E
330
42F
330
430
330
431
330
432
330
433
330
434
330
435
330
436
330
437
330
438
330
439
330
43A
330
43B
330
43C
330
43D
330
43E
330
43F
330
440
330
441
330
442
330
443
330
444
330
445
330
446
330
447
330
448
330
449
330
44A
330
44B
330
44C
330
44D
330
44E
330
44F
330
450
330
451
330
452
330
453
330
454
330
455
330
456
330
457
330
458
330
459
330
45A
330
45B
330
45C
330
45D
330
45E
330
45F
330
460
330
461
330
462
330
463
330
464
330
465
330
466
330
467
330
468
330
469
330
46A
330
46B
330
46C
330
46D
330
46E
330
46F
330
470
330
471
330
472
330
473
330
474
330
475
330
476
330
477
330
478
330
479
330
47A
330
47B
330
47C
330
47D
330
47E
330
47F
330
480
330
481
330
482
330
483
330
484
330
485
330
486
330
487
330
488
330
489
330
48A
330
48B
330
48C
330
48D
330
48E
330
48F
330
490
330
491
330
492
330
493
330
494
330
495
330
496
330
497
330
498
330
499
330
49A
330
49B
330
49C
330
49D
330
49E
330
49F
330
4A0
330
4A1
330
4A2
330
4A3
330
4A4
330
4A5
330
4A6
330
4A7
330
4A8
330
4A9
330
4AA
330
4AB
330
4AC
330
4AD
330
4AE
330
4AF
330
4B0
330
4B1
330
4B2
330
4B3
330
4B4
330
4B5
330
4B6
330
4B7
330
4B8
330
4B9
330
4BA
330
4BB
330
4BC
330
4BD
330
4BE
330
4BF
330
4C0
330
4C1
330
4C2
330
4C3
330
4C4
330
4C5
330
4C6
  0
IDBUFFER
  5
5E9
100
AcDbIdBuffer
330
101
330
104
330
105
330
10B
330
10C
330
110
330
11E
330
120
330
159
330
179
330
17D
330
1A2
330
1D5
330
2AA
330
2B4
330
52A
330
550
330
6D
330
75
330
92
330
95
330
96
330
A6
330
A8
330
BB
330
C9
330
D2
330
D5
330
EA
330
F7
330
F9
330
FB
330
FF
  0
IDBUFFER
  5
5EA
100
AcDbIdBuffer
330
100
330
102
330
103
330
106
330
107
330
10A
330
111
330
112
330
113
330
114
330
115
330
116
330
117
330
118
330
119
330
11A
330
11B
330
11C
330
11D
330
AA
330
AD
330
AE
330
AF
330
B0
330
B1
330
B2
330
B3
330
B5
330
B6
330
B7
330
B8
330
B9
330
BA
330
BC
330
BD
330
BE
330
BF
330
C0
330
C1
330
D6
330
D7
330
D8
330
D9
330
DA
330
DB
330
DC
330
DD
330
DE
330
DF
330
E0
330
E1
330
E2
330
E3
330
E4
330
E5
330
E6
330
E7
330
E8
330
E9
330
ED
330
F3
330
F4
330
F5
330
F6
330
F8
330
FA
330
FC
  0
IDBUFFER
  5
5EB
100
AcDbIdBuffer
330
EB
330
EE
330
EF
330
F0
330
FD
330
FE
330
108
330
109
  0
IDBUFFER
  5
5EC
100
AcDbIdBuffer
330
F1
  0
XRECORD
  5
658
102
{ACAD_REACTORS
330
657
102
}
100
AcDbXrecord
102
EXTNAMES
  1
SHAFT
  2
Shaft
  0
ENDSEC
  0
EOF
