  0
SECTION
  2
HEADER
  9
$ACADVER
  1
AC1014
  9
$ACADMAINTVER
 70
     9
  9
$DWGCODEPAGE
  3
ANSI_1252
  9
$INSBASE
 10
4011.767236
 20
854.912046
 30
0.0
  9
$EXTMIN
 10
4011.767236
 20
854.912046
 30
0.0
  9
$EXTMAX
 10
6931.767236
 20
2904.912046
 30
0.0
  9
$LIMMIN
 10
3923.888653
 20
793.207594
  9
$LIMMAX
 10
7019.456893
 20
2966.683962
  9
$ORTHOMODE
 70
     0
  9
$REGENMODE
 70
     1
  9
$FILLMODE
 70
     1
  9
$QTEXTMODE
 70
     0
  9
$MIRRTEXT
 70
     0
  9
$DRAGMODE
 70
     2
  9
$LTSCALE
 40
5.0
  9
$OSMODE
 70
     0
  9
$ATTMODE
 70
     1
  9
$TEXTSIZE
 40
50.0
  9
$TRACEWID
 40
1.0
  9
$TEXTSTYLE
  7
STANDARD
  9
$CLAYER
  8
AM_0
  9
$CELTYPE
  6
BYLAYER
  9
$CECOLOR
 62
   256
  9
$CELTSCALE
 40
1.0
  9
$DELOBJ
 70
     1
  9
$DISPSILH
 70
     0
  9
$DIMSCALE
 40
1.0
  9
$DIMASZ
 40
2.5
  9
$DIMEXO
 40
0.0
  9
$DIMDLI
 40
10.0
  9
$DIMRND
 40
0.0
  9
$DIMDLE
 40
0.0
  9
$DIMEXE
 40
1.0
  9
$DIMTP
 40
0.1
  9
$DIMTM
 40
0.1
  9
$DIMTXT
 40
3.0
  9
$DIMCEN
 40
0.0
  9
$DIMTSZ
 40
0.0
  9
$DIMTOL
 70
     0
  9
$DIMLIM
 70
     0
  9
$DIMTIH
 70
     0
  9
$DIMTOH
 70
     0
  9
$DIMSE1
 70
     0
  9
$DIMSE2
 70
     0
  9
$DIMTAD
 70
     1
  9
$DIMZIN
 70
     8
  9
$DIMBLK
  1

  9
$DIMASO
 70
     1
  9
$DIMSHO
 70
     1
  9
$DIMPOST
  1

  9
$DIMAPOST
  1
"
  9
$DIMALT
 70
     0
  9
$DIMALTD
 70
     2
  9
$DIMALTF
 40
0.03937
  9
$DIMLFAC
 40
1.0
  9
$DIMTOFL
 70
     1
  9
$DIMTVP
 40
0.0
  9
$DIMTIX
 70
     0
  9
$DIMSOXD
 70
     0
  9
$DIMSAH
 70
     0
  9
$DIMBLK1
  1

  9
$DIMBLK2
  1

  9
$DIMSTYLE
  2
AM_DIN
  9
$DIMCLRD
 70
   256
  9
$DIMCLRE
 70
   256
  9
$DIMCLRT
 70
     2
  9
$DIMTFAC
 40
0.71
  9
$DIMGAP
 40
0.7
  9
$DIMJUST
 70
     0
  9
$DIMSD1
 70
     0
  9
$DIMSD2
 70
     0
  9
$DIMTOLJ
 70
     0
  9
$DIMTZIN
 70
     8
  9
$DIMALTZ
 70
     0
  9
$DIMALTTZ
 70
     0
  9
$DIMFIT
 70
     3
  9
$DIMUPT
 70
     0
  9
$DIMUNIT
 70
     2
  9
$DIMDEC
 70
     2
  9
$DIMTDEC
 70
     2
  9
$DIMALTU
 70
     2
  9
$DIMALTTD
 70
     2
  9
$DIMTXSTY
  7
STANDARD
  9
$DIMAUNIT
 70
     0
  9
$LUNITS
 70
     2
  9
$LUPREC
 70
     2
  9
$SKETCHINC
 40
1.0
  9
$FILLETRAD
 40
2.5
  9
$AUNITS
 70
     0
  9
$AUPREC
 70
     0
  9
$MENU
  1
.
  9
$ELEVATION
 40
0.0
  9
$PELEVATION
 40
0.0
  9
$THICKNESS
 40
0.0
  9
$LIMCHECK
 70
     0
  9
$BLIPMODE
 70
     0
  9
$CHAMFERA
 40
12.5
  9
$CHAMFERB
 40
12.5
  9
$CHAMFERC
 40
20.0
  9
$CHAMFERD
 40
0.0
  9
$SKPOLY
 70
     0
  9
$TDCREATE
 40
2452896.394699433
  9
$TDUPDATE
 40
2452900.689457997
  9
$TDINDWG
 40
0.8755351273
  9
$TDUSRTIMER
 40
0.8754843056
  9
$USRTIMER
 70
     1
  9
$ANGBASE
 50
0.0
  9
$ANGDIR
 70
     0
  9
$PDMODE
 70
     0
  9
$PDSIZE
 40
0.0
  9
$PLINEWID
 40
0.0
  9
$COORDS
 70
     2
  9
$SPLFRAME
 70
     0
  9
$SPLINETYPE
 70
     6
  9
$SPLINESEGS
 70
     8
  9
$ATTDIA
 70
     1
  9
$ATTREQ
 70
     0
  9
$HANDLING
 70
     1
  9
$HANDSEED
  5
696
  9
$SURFTAB1
 70
     6
  9
$SURFTAB2
 70
     6
  9
$SURFTYPE
 70
     6
  9
$SURFU
 70
     6
  9
$SURFV
 70
     6
  9
$UCSNAME
  2

  9
$UCSORG
 10
0.0
 20
0.0
 30
0.0
  9
$UCSXDIR
 10
1.0
 20
0.0
 30
0.0
  9
$UCSYDIR
 10
0.0
 20
1.0
 30
0.0
  9
$PUCSNAME
  2

  9
$PUCSORG
 10
0.0
 20
0.0
 30
0.0
  9
$PUCSXDIR
 10
1.0
 20
0.0
 30
0.0
  9
$PUCSYDIR
 10
0.0
 20
1.0
 30
0.0
  9
$USERI1
 70
     0
  9
$USERI2
 70
     0
  9
$USERI3
 70
     0
  9
$USERI4
 70
     0
  9
$USERI5
 70
     0
  9
$USERR1
 40
0.0
  9
$USERR2
 40
0.0
  9
$USERR3
 40
0.0
  9
$USERR4
 40
0.0
  9
$USERR5
 40
0.0
  9
$WORLDVIEW
 70
     1
  9
$SHADEDGE
 70
     3
  9
$SHADEDIF
 70
    70
  9
$TILEMODE
 70
     1
  9
$MAXACTVP
 70
    48
  9
$PINSBASE
 10
0.0
 20
0.0
 30
0.0
  9
$PLIMCHECK
 70
     0
  9
$PEXTMIN
 10
1.000000E+20
 20
1.000000E+20
 30
1.000000E+20
  9
$PEXTMAX
 10
-1.000000E+20
 20
-1.000000E+20
 30
-1.000000E+20
  9
$PLIMMIN
 10
0.0
 20
0.0
  9
$PLIMMAX
 10
420.0
 20
297.0
  9
$UNITMODE
 70
     0
  9
$VISRETAIN
 70
     1
  9
$PLINEGEN
 70
     0
  9
$PSLTSCALE
 70
     1
  9
$TREEDEPTH
 70
  3020
  9
$PICKSTYLE
 70
     0
  9
$CMLSTYLE
  2
STANDARD
  9
$CMLJUST
 70
     0
  9
$CMLSCALE
 40
20.0
  9
$PROXYGRAPHICS
 70
     1
  9
$MEASUREMENT
 70
     1
  0
ENDSEC
  0
SECTION
  2
CLASSES
  0
CLASS
  1
ACDBDICTIONARYWDFLT
  2
AcDbDictionaryWithDefault
  3
AutoCAD 2000
 90
        0
280
     0
281
     0
  0
CLASS
  1
ACDBPLACEHOLDER
  2
AcDbPlaceHolder
  3
AutoCAD 2000
 90
        0
280
     0
281
     0
  0
CLASS
  1
LAYOUT
  2
AcDbLayout
  3
AutoCAD 2000
 90
        0
280
     0
281
     0
  0
CLASS
  1
AMGSETTINGSOBJ
  2
AmgSettingsObj
  3
"AcadM|Product Description: AutoCAD Mechanical 2000|Company: Autodesk"
 90
        0
280
     0
281
     0
  0
CLASS
  1
ACME_DOCUMENT
  2
AcMeDbDoc
  3
AcMeServices
 90
        0
280
     0
281
     0
  0
CLASS
  1
ACMESCOPE
  2
AcMeScope
  3
AcMeServices
 90
        0
280
     0
281
     0
  0
CLASS
  1
ACMECOMMANDHISTORY
  2
AcMeCommandHistory
  3
AcMeServices
 90
        0
280
     0
281
     0
  0
CLASS
  1
DICTIONARYVAR
  2
AcDbDictionaryVar
  3
"AutoCAD"
 90
        0
280
     0
281
     0
  0
CLASS
  1
ACIMSYSVARMAN
  2
AcImSysVarManager
  3
AcMeServices
 90
        0
280
     0
281
     0
  0
CLASS
  1
ACIMREALSYSVAR
  2
AcImRealSysVar
  3
AcMeServices
 90
        0
280
     0
281
     0
  0
CLASS
  1
ACIMINTSYSVAR
  2
AcImIntSysVar
  3
AcMeServices
 90
        0
280
     0
281
     0
  0
CLASS
  1
ACMEDRAWINGMAN
  2
AcMeDrawingMan
  3
AcMeServices
 90
        0
280
     0
281
     0
  0
CLASS
  1
ACMEVIEW
  2
AcMeView
  3
AcMeServices
 90
        0
280
     0
281
     0
  0
CLASS
  1
ACDBENTITYCACHE
  2
AcMeEntityCache
  3
AcMeServices
 90
        0
280
     0
281
     0
  0
CLASS
  1
GSMANAGER
  2
AcMeGSManager
  3
AcMeServices
 90
        0
280
     0
281
     0
  0
CLASS
  1
AMDTINTERNALREACTOR
  2
AmdtInternalReactor
  3
AcMeServices
 90
        0
280
     0
281
     0
  0
CLASS
  1
ACMESTATEMGR
  2
AcMeStateMgr
  3
AcMeServices
 90
        0
280
     0
281
     0
  0
CLASS
  1
ACGREFMASTER
  2
AcGrefMaster
  3
AcAttribServices
 90
        0
280
     0
281
     0
  0
CLASS
  1
ACME_DATABASE
  2
AcMeDbDatabase
  3
AcMeServices
 90
        0
280
     0
281
     0
  0
CLASS
  1
ACRFINSADJUSTERMGR
  2
AcRfInsAdjusterMgr
  3
AcMeServices
 90
        0
280
     0
281
     0
  0
CLASS
  1
ACGREFACADMASTER
  2
AcGrefacadMaster
  3
AcGrefServices
 90
        0
280
     0
281
     0
  0
CLASS
  1
AMIMASTER
  2
AmiMaster
  3
AmiServices
 90
        0
280
     0
281
     0
  0
CLASS
  1
ACIMSTRSYSVAR
  2
AcImStrSysVar
  3
AcMeServices
 90
        0
280
     0
281
     0
  0
CLASS
  1
ACMSTANDARDDIN
  2
AcmStandardDIN
  3
"Amdt_StdImp|Product Description: AutoCAD Mechanical 2000|Company: Autodesk"
 90
        0
280
     0
281
     0
  0
CLASS
  1
AMGOBJPROPCFG
  2
AmgObjPropCfg
  3
"AmgLay|Product Description: AutoCAD Mechanical 2000|Company: Autodesk"
 90
        1
280
     0
281
     0
  0
CLASS
  1
AMDTEDGESTANDARDDIN
  2
AmdtEdgeStdDIN
  3
"Amdt_StdImp|Product Description: AutoCAD Mechanical 2000|Company: Autodesk"
 90
        0
280
     0
281
     0
  0
CLASS
  1
ACMSURFSTANDARDDIN
  2
AcmSurfTextStdDIN
  3
"Amdt_StdImp|Product Description: AutoCAD Mechanical 2000|Company: Autodesk"
 90
        0
280
     0
281
     0
  0
CLASS
  1
ACMFCFSTANDARDDIN
  2
AcmFCFStdDIN
  3
"Amdt_StdImp|Product Description: AutoCAD Mechanical 2000|Company: Autodesk"
 90
        0
280
     0
281
     0
  0
CLASS
  1
ACMWELDSTANDARDDIN
  2
AcmWeldingStdDIN
  3
"Amdt_StdImp|Product Description: AutoCAD Mechanical 2000|Company: Autodesk"
 90
        0
280
     0
281
     0
  0
CLASS
  1
ACMIDSTANDARDDIN
  2
AcmIdStdDIN
  3
"Amdt_StdImp|Product Description: AutoCAD Mechanical 2000|Company: Autodesk"
 90
        0
280
     0
281
     0
  0
CLASS
  1
ACMDATUMSTANDARDDIN
  2
AcmDatumStdDIN
  3
"Amdt_StdImp|Product Description: AutoCAD Mechanical 2000|Company: Autodesk"
 90
        0
280
     0
281
     0
  0
CLASS
  1
ACMBOMSTANDARDDIN
  2
AcmBOMStdDIN
  3
"Amdt_StdImp|Product Description: AutoCAD Mechanical 2000|Company: Autodesk"
 90
        0
280
     0
281
     0
  0
CLASS
  1
ACMDETAILSTANDARDDIN
  2
AmdtDetailSymStdDIN
  3
"Amdt_StdImp|Product Description: AutoCAD Mechanical 2000|Company: Autodesk"
 90
        0
280
     0
281
     0
  0
CLASS
  1
ACMSECTIONSTANDARDDIN
  2
AmdtSectionSymStdDIN
  3
"Amdt_StdImp|Product Description: AutoCAD Mechanical 2000|Company: Autodesk"
 90
        0
280
     0
281
     0
  0
CLASS
  1
ACMCENTERLINESTANDARDDIN
  2
AmdtCenterLineStdDIN
  3
"Amdt_StdImp|Product Description: AutoCAD Mechanical 2000|Company: Autodesk"
 90
        0
280
     0
281
     0
  0
CLASS
  1
ACMTHREADLINESTANDARDDIN
  2
AmdtThreadLineStdDIN
  3
"Amdt_StdImp|Product Description: AutoCAD Mechanical 2000|Company: Autodesk"
 90
        0
280
     0
281
     0
  0
CLASS
  1
ACAMGLAYSTD
  2
AcAmgLayStd
  3
"AcAmgLayStd|Product Description: AutoCAD Mechanical 2000|Company: Autodesk"
 90
        0
280
     0
281
     0
  0
CLASS
  1
ACAMGDIMSTD
  2
AcAmgDimStd
  3
"AcAmgDimStd|Product Description: AutoCAD Mechanical 2000|Company: Autodesk"
 90
        0
280
     0
281
     0
  0
CLASS
  1
ACAMGTITLESTD
  2
AcAmgTitleStd
  3
"TITLEAPP"
 90
        0
280
     0
281
     0
  0
CLASS
  1
ACMDATADICTIONARY
  2
AcmDataDictionary
  3
"AcmSymBB|Product Description: AutoCAD Mechanical 2000|Company: Autodesk"
 90
        0
280
     0
281
     0
  0
CLASS
  1
ACMDATAENTRYBLOCK
  2
AcmDataEntryBlock
  3
"AcmSymBB|Product Description: AutoCAD Mechanical 2000|Company: Autodesk"
 90
        0
280
     0
281
     0
  0
CLASS
  1
LAYER_INDEX
  2
AcDbLayerIndex
  3
"Acad"
 90
        0
280
     0
281
     0
  0
CLASS
  1
IDBUFFER
  2
AcDbIdBuffer
  3
"Acad"
 90
        0
280
     0
281
     0
  0
CLASS
  1
AM_DRAWING_MGR
  2
AcDmDwgMgr
  3
AcMechDwgViewMgmt
 90
        0
280
     1
281
     0
  0
CLASS
  1
AM_DWG_DOCUMENT
  2
AcDmDwgDocument
  3
AcMechDwgViewMgmt
 90
        0
280
     1
281
     0
  0
CLASS
  1
AM_DWG_SHEET
  2
AcDmSheet
  3
AcMechDwgViewMgmt
 90
        0
280
     1
281
     0
  0
CLASS
  1
AM_VIEWDIMPARMAP
  2
AcDmViewDimParMap
  3
AcMechDwgViewMgmt
 90
        0
280
     1
281
     0
  0
CLASS
  1
AM_DWGMGR_NAME
  2
AcDmDwgMgrName
  3
AcMechDwgViewMgmt
 90
        0
280
     1
281
     0
  0
CLASS
  1
AMDTMENUSTATEMGR
  2
AmdtMenuStateMgr
  3
McadcomServices
 90
        0
280
     1
281
     0
  0
CLASS
  1
AMDTMCOMMENUSTATE
  2
AmdtMcomMenuState
  3
McadcomServices
 90
        0
280
     1
281
     0
  0
CLASS
  1
ASAPP
  2
AcAsAppObject
  3
AutoSurfServices
 90
        0
280
     1
281
     0
  0
CLASS
  1
IM_STATIC_MAN
  2
AcImStaticVarManager
  3
AcMeServices
 90
        0
280
     0
281
     0
  0
CLASS
  1
ACIMDBLSTATICVAR
  2
AcImDblStaticVar
  3
AcMeServices
 90
        0
280
     0
281
     0
  0
CLASS
  1
ACIMSTRSTATICVAR
  2
AcImStrStaticVar
  3
AcMeServices
 90
        0
280
     0
281
     0
  0
CLASS
  1
ACIMINTSTATICVAR
  2
AcImIntStaticVar
  3
AcMeServices
 90
        0
280
     0
281
     0
  0
CLASS
  1
ACASGREFMASTER
  2
AcAsGrefMaster
  3
AutoSurfResolverServices
 90
        0
280
     1
281
     0
  0
CLASS
  1
ACADGREFMODULE
  2
AcAdGrefModule
  3
AdGrefServices
 90
        0
280
     1
281
     0
  0
CLASS
  1
AMDTMAPISURFMOUDULE
  2
AmdtMApiSurfModule
  3
MApiSurfServices
 90
        0
280
     1
281
     0
  0
CLASS
  1
MAPIAMMOUDLE
  2
MApiAmModule
  3
MApiAmServices
 90
        0
280
     1
281
     0
  0
CLASS
  1
AMDTADMENUSTATE
  2
AmdtAdMenuState
  3
DesignerServices
 90
        0
280
     1
281
     0
  0
CLASS
  1
ADAPPL
  2
AcAdAppl
  3
DesignerServices
 90
        0
280
     1
281
     0
  0
CLASS
  1
DEPMGR
  2
AcAdDepMgr
  3
DesignerServices
 90
        0
280
     1
281
     0
  0
CLASS
  1
PARAMMGR
  2
AcAdParamMgr
  3
DesignerServices
 90
        0
280
     1
281
     0
  0
CLASS
  1
PARAMSCOPE
  2
AcAdParamScope
  3
DesignerServices
 90
        0
280
     1
281
     0
  0
CLASS
  1
NAMEDAPPL
  2
AcAdNamedAppl
  3
DesignerServices
 90
        0
280
     1
281
     0
  0
CLASS
  1
ADHNTMPLT
  2
AdHoleNoteTemplateMgr
  3
DesignerServices
 90
        0
280
     1
281
     0
  0
CLASS
  1
AM_HNTEMPLATE_MGR_NAME
  2
AdHoleNoteTemplateMgrName
  3
DesignerServices
 90
        0
280
     1
281
     0
  0
CLASS
  1
AMDTDMMENUSTATE
  2
AmdtDmMenuState
  3
AcMechDwgViewMgmt
 90
        0
280
     1
281
     0
  0
CLASS
  1
MAPIADMODULE
  2
MApiAdModule
  3
MApiAdServices
 90
        0
280
     1
281
     0
  0
CLASS
  1
AMDTAMMENUSTATE
  2
AmdtAmMenuState
  3
DesignerAssemblies
 90
        0
280
     1
281
     0
  0
CLASS
  1
ACAMPROJECT
  2
AcAmProject
  3
DesignerAssemblies
 90
        0
280
     1
281
     0
  0
CLASS
  1
ACAMGRCOMPDEF
  2
AcAmGrCompDef
  3
DesignerAssemblies
 90
        0
280
     1
281
     0
  0
CLASS
  1
ACCMCONTEXT
  2
AcCmContext
  3
DesignerAssemblies
 90
        0
280
     1
281
     0
  0
CLASS
  1
ACAMCOMPDEF
  2
AcAmCompDef
  3
DesignerAssemblies
 90
        0
280
     1
281
     0
  0
CLASS
  1
ACAMCOMPDEFMGR
  2
AcAmCompDefMgr
  3
DesignerAssemblies
 90
        0
280
     1
281
     0
  0
CLASS
  1
AMCONTEXTMGR
  2
AcAmContextMgr
  3
DesignerAssemblies
 90
        0
280
     1
281
     0
  0
CLASS
  1
ACAMCONTEXTMODELER
  2
AcAmContextModeler
  3
DesignerAssemblies
 90
        0
280
     1
281
     0
  0
CLASS
  1
CATALOGSTATE
  2
AcAmCatalogState
  3
DesignerAssemblies
 90
        0
280
     1
281
     0
  0
CLASS
  1
ACAMGRCOMPDEFSET
  2
AcAmGrCompDefSet
  3
DesignerAssemblies
 90
        0
280
     1
281
     0
  0
CLASS
  1
AMDTBROWSERDBTAB
  2
AmdtBrowserDbTab
  3
McadcomServices
 90
        0
280
     1
281
     0
  0
CLASS
  1
CBROWSERAPPOBJECT
  2
CBrowserAppObject
  3
McadcomServices
 90
        0
280
     1
281
     0
  0
CLASS
  1
DM_PLACEHOLDER
  2
AcDmSelsetPlaceholder
  3
AcMechDwgViewMgmt
 90
        0
280
     1
281
     0
  0
CLASS
  1
ACAMGFILTERDAT
  2
AcAmgFilterDat
  3
"AcadM|Product Description: AutoCAD Mechanical 2000|Company: Autodesk"
 90
        0
280
     0
281
     0
  0
CLASS
  1
AMDTFORMULAUPDATEDISPATCHER
  2
AmdtFormulaUpdateDispatcher
  3
AcMeServices
 90
        0
280
     0
281
     0
  0
CLASS
  1
ACMNOTESTANDARDDIN
  2
AmdtNoteStdDIN
  3
"Amdt_StdImp|Product Description: AutoCAD Mechanical 2000|Company: Autodesk"
 90
        0
280
     0
281
     0
  0
CLASS
  1
ACAMGHOLECHARTSTDDIN
  2
AcAmgHoleChartStdDIN
  3
ACMSYMBB_MODULE_NAME
 90
        0
280
     0
281
     0
  0
CLASS
  1
AMDTNOTE
  2
AmdtNote
  3
"AcmSymBB|Product Description: AutoCAD Mechanical 2000|Company: Autodesk"
 90
     1023
280
     0
281
     1
  0
CLASS
  1
ACMPARTREF
  2
AcmPartRef
  3
"AcmSymBB|Product Description: AutoCAD Mechanical 2000|Company: Autodesk"
 90
     1023
280
     0
281
     1
  0
CLASS
  1
ACDBLINERES
  2
AcDbLineRes
  3
AcGrefServices
 90
        0
280
     0
281
     0
  0
CLASS
  1
ACRFINSADJ
  2
AcRfInsAdjuster
  3
AcMeServices
 90
        0
280
     0
281
     0
  0
CLASS
  1
ACMDATAENTRYPART
  2
AcmDataEntryPart
  3
"AcmSymBB|Product Description: AutoCAD Mechanical 2000|Company: Autodesk"
 90
        0
280
     0
281
     0
  0
CLASS
  1
ACMPICKOBJ
  2
AcmPickEnt
  3
"AcmSymBB|Product Description: AutoCAD Mechanical 2000|Company: Autodesk"
 90
        0
280
     0
281
     1
  0
CLASS
  1
ACMDATAENTRY
  2
AcmDataEntry
  3
"AcmSymBB|Product Description: AutoCAD Mechanical 2000|Company: Autodesk"
 90
        0
280
     0
281
     0
  0
CLASS
  1
ACMBOM
  2
AcmBom
  3
"AcmSymBB|Product Description: AutoCAD Mechanical 2000|Company: Autodesk"
 90
        0
280
     0
281
     0
  0
CLASS
  1
ACMBOMROW
  2
AcmBomRow
  3
"AcmSymBB|Product Description: AutoCAD Mechanical 2000|Company: Autodesk"
 90
        0
280
     0
281
     0
  0
CLASS
  1
ACMPARTLIST
  2
AcmPartList
  3
"AcmSymBB|Product Description: AutoCAD Mechanical 2000|Company: Autodesk"
 90
     1023
280
     0
281
     1
  0
CLASS
  1
ACDBCIRCARCRES
  2
AcDbCircArcRes
  3
AcGrefServices
 90
        0
280
     0
281
     0
  0
CLASS
  1
ACMBALLOON
  2
AcmBalloon
  3
"AcmSymBB|Product Description: AutoCAD Mechanical 2000|Company: Autodesk"
 90
     1023
280
     0
281
     1
  0
CLASS
  1
ACMSTANDARDISO
  2
AcmStandardISO
  3
"Amdt_StdImp|Product Description: AutoCAD Mechanical 2000|Company: Autodesk"
 90
        0
280
     0
281
     0
  0
CLASS
  1
AMDTEDGESTANDARDISO
  2
AmdtEdgeStdISO
  3
"Amdt_StdImp|Product Description: AutoCAD Mechanical 2000|Company: Autodesk"
 90
        0
280
     0
281
     0
  0
CLASS
  1
ACMSURFSTANDARDISO
  2
AcmSurfTextStdISO
  3
"Amdt_StdImp|Product Description: AutoCAD Mechanical 2000|Company: Autodesk"
 90
        0
280
     0
281
     0
  0
CLASS
  1
ACMFCFSTANDARDISO
  2
AcmFCFStdISO
  3
"Amdt_StdImp|Product Description: AutoCAD Mechanical 2000|Company: Autodesk"
 90
        0
280
     0
281
     0
  0
CLASS
  1
ACMWELDSTANDARDISO
  2
AcmWeldingStdISO
  3
"Amdt_StdImp|Product Description: AutoCAD Mechanical 2000|Company: Autodesk"
 90
        0
280
     0
281
     0
  0
CLASS
  1
ACMIDSTANDARDISO
  2
AcmIdStdISO
  3
"Amdt_StdImp|Product Description: AutoCAD Mechanical 2000|Company: Autodesk"
 90
        0
280
     0
281
     0
  0
CLASS
  1
ACMDATUMSTANDARDISO
  2
AcmDatumStdISO
  3
"Amdt_StdImp|Product Description: AutoCAD Mechanical 2000|Company: Autodesk"
 90
        0
280
     0
281
     0
  0
CLASS
  1
ACMBOMSTANDARDISO
  2
AcmBOMStdISO
  3
"Amdt_StdImp|Product Description: AutoCAD Mechanical 2000|Company: Autodesk"
 90
        0
280
     0
281
     0
  0
CLASS
  1
ACMDETAILSTANDARDISO
  2
AmdtDetailSymStdISO
  3
"Amdt_StdImp|Product Description: AutoCAD Mechanical 2000|Company: Autodesk"
 90
        0
280
     0
281
     0
  0
CLASS
  1
ACMSECTIONSTANDARDISO
  2
AmdtSectionSymStdISO
  3
"Amdt_StdImp|Product Description: AutoCAD Mechanical 2000|Company: Autodesk"
 90
        0
280
     0
281
     0
  0
CLASS
  1
ACMCENTERLINESTANDARDISO
  2
AmdtCenterLineStdISO
  3
"Amdt_StdImp|Product Description: AutoCAD Mechanical 2000|Company: Autodesk"
 90
        0
280
     0
281
     0
  0
CLASS
  1
ACMNOTESTANDARDISO
  2
AmdtNoteStdISO
  3
"Amdt_StdImp|Product Description: AutoCAD Mechanical 2000|Company: Autodesk"
 90
        0
280
     0
281
     0
  0
CLASS
  1
ACAMGHOLECHARTSTDISO
  2
AcAmgHoleChartStdISO
  3
ACMSYMBB_MODULE_NAME
 90
        0
280
     0
281
     0
  0
CLASS
  1
ACDBOPPOLYLINERES
  2
AcDbOpPolylineRes
  3
AcGrefServices
 90
        0
280
     0
281
     0
  0
CLASS
  1
ACMSURFSYM
  2
AcmSurfaceTexture
  3
"AcmSymBB|Product Description: AutoCAD Mechanical 2000|Company: Autodesk"
 90
     1023
280
     0
281
     1
  0
CLASS
  1
ACMWELDSYM
  2
AcmWelding
  3
"AcmSymBB|Product Description: AutoCAD Mechanical 2000|Company: Autodesk"
 90
     1023
280
     0
281
     1
  0
CLASS
  1
STDPART2D
  2
AmgStdPart
  3
"AmgStdPart|Product Description: AutoCAD Mechanical 2000|Company: Autodesk"
 90
     1023
280
     0
281
     1
  0
CLASS
  1
ACDBSTDPARTRES_LINE
  2
AcDbStdPartRes_Line
  3
"AcDbStdPartRes_Line|Product Description: AutoCAD Mechanical 2000|Company: Autodesk"
 90
        0
280
     0
281
     0
  0
CLASS
  1
ACDBSTDPARTRES_ARC
  2
AcDbStdPartRes_Arc
  3
"AcDbStdPartRes_Arc|Product Description: AutoCAD Mechanical 2000|Company: Autodesk"
 90
        0
280
     0
281
     0
  0
CLASS
  1
ACDBDIMENSIONRES
  2
AcDbDimensionRes
  3
"AcDbDimensionRes|Product Description: AutoCAD Mechanical 2000|Company: Autodesk"
 90
        0
280
     0
281
     0
  0
CLASS
  1
ACDBPOLYLINERES
  2
AcDbPolylineRes
  3
AcGrefServices
 90
        0
280
     0
281
     0
  0
CLASS
  1
ACDBELLIPSERES
  2
AcDbEllipseRes
  3
AcGrefServices
 90
        0
280
     0
281
     0
  0
CLASS
  1
ACMDIMBREAKPERSREACTOR
  2
AcmDimBreakPersReactor
  3
amgDimApp().moduleName()
 90
     1023
280
     0
281
     0
  0
CLASS
  1
SORTENTSTABLE
  2
AcDbSortentsTable
  3
"AutoCAD"
 90
        0
280
     0
281
     0
  0
CLASS
  1
LONG_TRANSACTION
  2
AcDbLongTransaction
  3
AutoCAD 2000
 90
        0
280
     0
281
     0
  0
CLASS
  1
LWPOLYLINE
  2
AcDbPolyline
  3
"AutoCAD"
 90
        0
280
     0
281
     1
  0
CLASS
  1
HATCH
  2
AcDbHatch
  3
"ACAD_SEDONA"
 90
        0
280
     0
281
     1
  0
CLASS
  1
XRECORD
  2
AcDbXrecord
  3
"<Built In>"
 90
        0
280
     0
281
     0
  0
ENDSEC
  0
SECTION
  2
TABLES
  0
TABLE
  2
VPORT
  5
1B
100
AcDbSymbolTable
 70
     1
  0
VPORT
  5
5FE
102
{ACAD_XDICTIONARY
360
610
102
}
100
AcDbSymbolTableRecord
100
AcDbViewportTableRecord
  2
*ACTIVE
 70
     0
 10
0.0
 20
0.0
 11
1.0
 21
1.0
 12
5191.86751
 22
1662.844622
 13
0.0
 23
0.0
 14
12.5
 24
12.5
 15
50.0
 25
50.0
 16
0.0
 26
0.0
 36
1.0
 17
279.805263
 27
217.101156
 37
0.0
 40
2173.454634
 41
1.907895
 42
50.0
 43
0.0
 44
0.0
 50
0.0
 51
0.0
 71
    16
 72
  3000
 73
     1
 74
     2
 75
     0
 76
     0
 77
     0
 78
     0
  0
ENDTAB
  0
TABLE
  2
LTYPE
  5
16
100
AcDbSymbolTable
 70
    12
  0
LTYPE
  5
17
102
{ACAD_XDICTIONARY
360
602
102
}
100
AcDbSymbolTableRecord
100
AcDbLinetypeTableRecord
  2
BYBLOCK
 70
     0
  3

 72
    65
 73
     0
 40
0.0
  0
LTYPE
  5
18
102
{ACAD_XDICTIONARY
360
604
102
}
100
AcDbSymbolTableRecord
100
AcDbLinetypeTableRecord
  2
BYLAYER
 70
     0
  3

 72
    65
 73
     0
 40
0.0
  0
LTYPE
  5
A
102
{ACAD_XDICTIONARY
360
606
102
}
100
AcDbSymbolTableRecord
100
AcDbLinetypeTableRecord
  2
CONTINUOUS
 70
     0
  3
Solid line
 72
    65
 73
     0
 40
0.0
  0
LTYPE
  5
57F
102
{ACAD_XDICTIONARY
360
608
102
}
100
AcDbSymbolTableRecord
100
AcDbLinetypeTableRecord
  2
AMCONSTR
 70
     0
  3
_______________________
 72
    65
 73
     2
 40
9999.0
 49
9999.0
 74
     0
 49
0.0
 74
     0
  0
LTYPE
  5
581
102
{ACAD_XDICTIONARY
360
60A
102
}
100
AcDbSymbolTableRecord
100
AcDbLinetypeTableRecord
  2
AMZIGZAG
 70
     0
  3
/\/-/\/-/\/-/\/-/\/-/\/
 72
    65
 73
     2
 40
11.0001
 49
0.0001
 74
     4
 75
   135
340
582
 46
0.04
 50
0.0
 44
0.0
 45
0.0
 49
-11.0
 74
     0
  0
LTYPE
  5
A2
100
AcDbSymbolTableRecord
100
AcDbLinetypeTableRecord
  2
AM_DIN_F_W050
 70
     0
  3
__ __ __ __ __ __ __ __ __ __ __ __ __ __ __
 72
    65
 73
     2
 40
6.25
 49
4.75
 74
     0
 49
-1.5
 74
     0
  0
LTYPE
  5
3C
100
AcDbSymbolTableRecord
100
AcDbLinetypeTableRecord
  2
AM_DIN_G_W050
 70
     0
  3
____ . ____ . ____ . ____ . ____ . ____ . ____
 72
    65
 73
     4
 40
13.75
 49
9.75
 74
     0
 49
-1.5
 74
     0
 49
1.0
 74
     0
 49
-1.5
 74
     0
  0
LTYPE
  5
57E
100
AcDbSymbolTableRecord
100
AcDbLinetypeTableRecord
  2
AM_DIN_K_W050
 70
     0
  3
_____ . . _____ . . _____ . . ____ .. ____
 72
    65
 73
     6
 40
16.25
 49
9.75
 74
     0
 49
-1.5
 74
     0
 49
1.0
 74
     0
 49
-1.5
 74
     0
 49
1.0
 74
     0
 49
-1.5
 74
     0
  0
LTYPE
  5
54D
102
{ACAD_XDICTIONARY
360
60C
102
}
100
AcDbSymbolTableRecord
100
AcDbLinetypeTableRecord
  2
AM_DIN_G_W050X2
 70
     0
  3
__ . __ . __ . __ . __ . __
 72
    65
 73
     4
 40
6.875
 49
4.75
 74
     0
 49
-0.875
 74
     0
 49
0.375
 74
     0
 49
-0.875
 74
     0
  0
LTYPE
  5
580
102
{ACAD_XDICTIONARY
360
60E
102
}
100
AcDbSymbolTableRecord
100
AcDbLinetypeTableRecord
  2
AM_DIN_F_W050X2
 70
     0
  3
 _ _ _ _ _ _ _ _ _ _ _ _
 72
    65
 73
     2
 40
3.125
 49
2.25
 74
     0
 49
-0.875
 74
     0
  0
LTYPE
  5
595
100
AcDbSymbolTableRecord
100
AcDbLinetypeTableRecord
  2
ACDINWELD
 70
     0
  3
_ _ _ _ _
 72
    65
 73
     2
 40
2.0
 49
2.0
 74
     0
 49
-1.0
 74
     0
  0
LTYPE
  5
598
100
AcDbSymbolTableRecord
100
AcDbLinetypeTableRecord
  2
ACDINTGB
 70
     0
  3
__ . . __ . .
 72
    65
 73
     6
 40
9.0
 49
4.0
 74
     0
 49
-1.0
 74
     0
 49
1.0
 74
     0
 49
-1.0
 74
     0
 49
1.0
 74
     0
 49
-1.0
 74
     0
  0
LTYPE
  5
599
100
AcDbSymbolTableRecord
100
AcDbLinetypeTableRecord
  2
ACDINTGL
 70
     0
  3
_ _ _ _ _
 72
    65
 73
     2
 40
3.0
 49
2.0
 74
     0
 49
-1.0
 74
     0
  0
LTYPE
  5
59D
100
AcDbSymbolTableRecord
100
AcDbLinetypeTableRecord
  2
CENTER
 70
     0
  3
__ . __
 72
    65
 73
     4
 40
7.0
 49
4.0
 74
     0
 49
-1.0
 74
     0
 49
1.0
 74
     0
 49
-1.0
 74
     0
  0
ENDTAB
  0
TABLE
  2
LAYER
  5
12
100
AcDbSymbolTable
 70
    14
  0
LAYER
  5
6
100
AcDbSymbolTableRecord
100
AcDbLayerTableRecord
  2
0
 70
     0
 62
     7
  6
CONTINUOUS
  0
LAYER
  5
25
102
{ACAD_XDICTIONARY
360
63D
102
}
100
AcDbSymbolTableRecord
100
AcDbLayerTableRecord
  2
AM_0
 70
     0
 62
     7
  6
CONTINUOUS
  0
LAYER
  5
33
102
{ACAD_XDICTIONARY
360
641
102
}
100
AcDbSymbolTableRecord
100
AcDbLayerTableRecord
  2
DEFPOINTS
 70
     0
 62
     7
  6
CONTINUOUS
  0
LAYER
  5
9F
102
{ACAD_XDICTIONARY
360
655
102
}
100
AcDbSymbolTableRecord
100
AcDbLayerTableRecord
  2
AM_6
 70
     0
 62
     2
  6
CONTINUOUS
  0
LAYER
  5
2A
102
{ACAD_XDICTIONARY
360
63F
102
}
100
AcDbSymbolTableRecord
100
AcDbLayerTableRecord
  2
AM_5
 70
     0
 62
     3
  6
CONTINUOUS
  0
LAYER
  5
6E
102
{ACAD_XDICTIONARY
360
653
102
}
100
AcDbSymbolTableRecord
100
AcDbLayerTableRecord
  2
AM_8
 70
     0
 62
     1
  6
CONTINUOUS
  0
LAYER
  5
B2
102
{ACAD_XDICTIONARY
360
659
102
}
100
AcDbSymbolTableRecord
100
AcDbLayerTableRecord
  2
AM_4
 70
     0
 62
     3
  6
CONTINUOUS
  0
LAYER
  5
3B
102
{ACAD_XDICTIONARY
360
643
102
}
100
AcDbSymbolTableRecord
100
AcDbLayerTableRecord
  2
AM_7
 70
     0
 62
     4
  6
AM_DIN_G_W050
  0
LAYER
  5
A1
102
{ACAD_XDICTIONARY
360
657
102
}
100
AcDbSymbolTableRecord
100
AcDbLayerTableRecord
  2
AM_3
 70
     0
 62
     6
  6
AM_DIN_F_W050
  0
LAYER
  5
54B
102
{ACAD_XDICTIONARY
360
667
102
}
100
AcDbSymbolTableRecord
100
AcDbLayerTableRecord
  2
AM_0N
 70
     0
 62
     7
  6
CONTINUOUS
  0
LAYER
  5
550
102
{ACAD_XDICTIONARY
360
66F
102
}
100
AcDbSymbolTableRecord
100
AcDbLayerTableRecord
  2
AM_9
 70
     0
 62
  -253
  6
CONTINUOUS
  0
LAYER
  5
54E
102
{ACAD_XDICTIONARY
360
66B
102
}
100
AcDbSymbolTableRecord
100
AcDbLayerTableRecord
  2
AM_9N
 70
     0
 62
  -253
  6
CONTINUOUS
  0
LAYER
  5
54F
102
{ACAD_XDICTIONARY
360
66D
102
}
100
AcDbSymbolTableRecord
100
AcDbLayerTableRecord
  2
AM_4N
 70
     0
 62
     3
  6
CONTINUOUS
  0
LAYER
  5
54C
102
{ACAD_XDICTIONARY
360
669
102
}
100
AcDbSymbolTableRecord
100
AcDbLayerTableRecord
  2
AM_7N
 70
     0
 62
     4
  6
AM_DIN_G_W050
  0
ENDTAB
  0
TABLE
  2
STYLE
  5
13
100
AcDbSymbolTable
 70
     5
  0
STYLE
  5
14
100
AcDbSymbolTableRecord
100
AcDbTextStyleTableRecord
  2
STANDARD
 70
     0
 40
0.0
 41
1.0
 50
0.0
 71
     0
 42
50.0
  3
ISOCP.SHX
  4

  0
STYLE
  5
582
100
AcDbSymbolTableRecord
100
AcDbTextStyleTableRecord
  2

 70
     1
 40
0.0
 41
1.0
 50
0.0
 71
     0
 42
2.5
  3
ltypeshp.shx
  4

  0
STYLE
  5
58F
100
AcDbSymbolTableRecord
100
AcDbTextStyleTableRecord
  2
ACDINTS
 70
     0
 40
1.0
 41
1.0
 50
0.0
 71
     0
 42
2.5
  3
isocp.shx
  4

  0
STYLE
  5
593
100
AcDbSymbolTableRecord
100
AcDbTextStyleTableRecord
  2
ACDINGDT
 70
     0
 40
0.0
 41
1.0
 50
0.0
 71
     0
 42
2.5
  3
amgdt.shx
  4

  0
STYLE
  5
456
100
AcDbSymbolTableRecord
100
AcDbTextStyleTableRecord
  2
ISO8
 70
     0
 40
0.0
 41
1.0
 50
0.0
 71
     0
 42
2.5
  3
g13f12d.shx
  4

  0
ENDTAB
  0
TABLE
  2
VIEW
  5
19
100
AcDbSymbolTable
 70
     1
  0
VIEW
  5
5FC
102
{ACAD_XDICTIONARY
360
68D
102
}
100
AcDbSymbolTableRecord
100
AcDbViewTableRecord
  2
AM_VIEW6
 70
     0
 40
2173.454634
 10
5191.86751
 20
1662.844622
 41
4144.365108
 11
0.0
 21
0.0
 31
1.0
 12
279.805263
 22
217.101156
 32
0.0
 42
50.0
 43
0.0
 44
0.0
 50
0.0
 71
    16
  0
ENDTAB
  0
TABLE
  2
UCS
  5
1A
100
AcDbSymbolTable
 70
     0
  0
ENDTAB
  0
TABLE
  2
APPID
  5
1D
100
AcDbSymbolTable
 70
    23
  0
APPID
  5
1E
100
AcDbSymbolTableRecord
100
AcDbRegAppTableRecord
  2
ACAD
 70
     0
  0
APPID
  5
38
100
AcDbSymbolTableRecord
100
AcDbRegAppTableRecord
  2
GENIUS_GENDTOL_13
 70
     0
  0
APPID
  5
45A
100
AcDbSymbolTableRecord
100
AcDbRegAppTableRecord
  2
GENIUS_GENTRA_14
 70
     0
  0
APPID
  5
3D
100
AcDbSymbolTableRecord
100
AcDbRegAppTableRecord
  2
GENIUS_GENODEF_13
 70
     0
  0
APPID
  5
5B1
100
AcDbSymbolTableRecord
100
AcDbRegAppTableRecord
  2
GENIUS_GENOENT_13
 70
     0
  0
APPID
  5
10A
100
AcDbSymbolTableRecord
100
AcDbRegAppTableRecord
  2
GENIUS_GENOREF_13
 70
     0
  0
APPID
  5
5B2
100
AcDbSymbolTableRecord
100
AcDbRegAppTableRecord
  2
GENIUS_GENOLIS_13
 70
     0
  0
APPID
  5
67
100
AcDbSymbolTableRecord
100
AcDbRegAppTableRecord
  2
GENIUS_GENOBJ-N-FIL_13
 70
     0
  0
APPID
  5
1B7
100
AcDbSymbolTableRecord
100
AcDbRegAppTableRecord
  2
GENIUS_GENOBJ-N-HTC_13
 70
     0
  0
APPID
  5
1B8
100
AcDbSymbolTableRecord
100
AcDbRegAppTableRecord
  2
GENIUS_GENHATCH_13
 70
     0
  0
APPID
  5
3E
100
AcDbSymbolTableRecord
100
AcDbRegAppTableRecord
  2
GENIUS_GENOBJ-N-CEN_13
 70
     0
  0
APPID
  5
5B3
100
AcDbSymbolTableRecord
100
AcDbRegAppTableRecord
  2
GENIUS_GENBH_13
 70
     0
  0
APPID
  5
5B0
100
AcDbSymbolTableRecord
100
AcDbRegAppTableRecord
  2
GENIUS_GENOBJ-NBEHI-BHB_13
 70
     0
  0
APPID
  5
5D
100
AcDbSymbolTableRecord
100
AcDbRegAppTableRecord
  2
GENIUS_GENREC_14
 70
     0
  0
APPID
  5
9B
100
AcDbSymbolTableRecord
100
AcDbRegAppTableRecord
  2
GENIUS_GENDREL_13
 70
     0
  0
APPID
  5
1BE
100
AcDbSymbolTableRecord
100
AcDbRegAppTableRecord
  2
GENIUS_GENFIL_13
 70
     0
  0
APPID
  5
1BF
100
AcDbSymbolTableRecord
100
AcDbRegAppTableRecord
  2
GENIUS_GENOBJ-N-CHA_13
 70
     0
  0
APPID
  5
5E
100
AcDbSymbolTableRecord
100
AcDbRegAppTableRecord
  2
GENIUS_GENOBJ-N-REC_13
 70
     0
  0
APPID
  5
5B5
100
AcDbSymbolTableRecord
100
AcDbRegAppTableRecord
  2
GENIUS_GENOBJ-NBEHI-BHF_13
 70
     0
  0
APPID
  5
5B7
100
AcDbSymbolTableRecord
100
AcDbRegAppTableRecord
  2
GENIUS_GENOBJ-F-SCPASSM_13
 70
     0
  0
APPID
  5
5CD
100
AcDbSymbolTableRecord
100
AcDbRegAppTableRecord
  2
MCAD_NO_VIS
 70
     0
  0
APPID
  5
5CE
100
AcDbSymbolTableRecord
100
AcDbRegAppTableRecord
  2
ACAD_TEMP_GRAPHIC
 70
     0
  0
APPID
  5
5DB
100
AcDbSymbolTableRecord
100
AcDbRegAppTableRecord
  2
ACATTRIBSERVICES
 70
     0
  0
ENDTAB
  0
TABLE
  2
DIMSTYLE
  5
1F
100
AcDbSymbolTable
 70
     7
  0
DIMSTYLE
105
20
102
{ACAD_XDICTIONARY
360
639
102
}
102
{ACAD_REACTORS
330
3F
330
4F
330
8E
330
81
330
29
330
167
330
15C
330
557
102
}
100
AcDbSymbolTableRecord
100
AcDbDimStyleTableRecord
  2
AM_DIN
 70
     0
  3

  4
"
  5

  6

  7

 40
1.0
 41
2.5
 42
0.0
 43
10.0
 44
1.0
 45
0.0
 46
0.0
 47
0.1
 48
0.1
140
3.0
141
0.0
142
0.0
143
0.03937
144
1.0
145
0.0
146
0.71
147
0.7
 71
     0
 72
     0
 73
     0
 74
     0
 75
     0
 76
     0
 77
     1
 78
     8
170
     0
171
     2
172
     1
173
     0
174
     0
175
     0
176
   256
177
   256
178
     2
270
     2
271
     2
272
     2
273
     2
274
     2
340
14
275
     0
280
     0
281
     0
282
     0
283
     0
284
     8
285
     0
286
     0
287
     3
288
     0
  0
DIMSTYLE
105
5A2
102
{ACAD_XDICTIONARY
360
67C
102
}
100
AcDbSymbolTableRecord
100
AcDbDimStyleTableRecord
  2
AM_DIN$3
 70
     0
  3

  4
"
  5

  6

  7

 40
1.0
 41
2.5
 42
1.0
 43
10.0
 44
1.0
 45
0.0
 46
0.0
 47
0.1
 48
0.1
140
3.5
141
0.0
142
0.0
143
0.03937
144
1.0
145
0.0
146
0.71
147
1.5
 71
     0
 72
     0
 73
     0
 74
     1
 75
     0
 76
     0
 77
     1
 78
     8
170
     0
171
     2
172
     0
173
     0
174
     0
175
     0
176
   256
177
   256
178
     2
270
     2
271
     2
272
     3
273
     2
274
     4
340
14
275
     0
280
     0
281
     0
282
     0
283
     0
284
     8
285
     0
286
     0
287
     0
288
     1
  0
DIMSTYLE
105
5A3
102
{ACAD_XDICTIONARY
360
67E
102
}
100
AcDbSymbolTableRecord
100
AcDbDimStyleTableRecord
  2
AM_DIN$4
 70
     0
  3

  4
"
  5

  6

  7

 40
1.0
 41
2.5
 42
1.0
 43
10.0
 44
1.0
 45
0.0
 46
0.0
 47
0.1
 48
0.1
140
3.5
141
0.0
142
0.0
143
0.03937
144
1.0
145
0.0
146
0.71
147
1.5
 71
     0
 72
     0
 73
     0
 74
     1
 75
     0
 76
     0
 77
     1
 78
     8
170
     0
171
     2
172
     0
173
     0
174
     0
175
     0
176
   256
177
   256
178
     2
270
     2
271
     2
272
     3
273
     2
274
     2
340
14
275
     0
280
     0
281
     0
282
     0
283
     0
284
     8
285
     0
286
     0
287
     4
288
     1
  0
DIMSTYLE
105
5A4
102
{ACAD_XDICTIONARY
360
680
102
}
100
AcDbSymbolTableRecord
100
AcDbDimStyleTableRecord
  2
AM_DIN$6
 70
     0
  3

  4
"
  5

  6

  7

 40
1.0
 41
2.5
 42
1.0
 43
10.0
 44
1.0
 45
0.0
 46
0.0
 47
0.1
 48
0.1
140
3.5
141
0.0
142
0.0
143
0.03937
144
1.0
145
0.0
146
0.71
147
1.5
 71
     0
 72
     0
 73
     0
 74
     0
 75
     0
 76
     0
 77
     0
 78
     8
170
     0
171
     2
172
     1
173
     0
174
     0
175
     0
176
   256
177
   256
178
     2
270
     2
271
     2
272
     3
273
     2
274
     2
340
14
275
     0
280
     0
281
     0
282
     0
283
     0
284
     8
285
     0
286
     0
287
     3
288
     0
  0
DIMSTYLE
105
5A5
102
{ACAD_XDICTIONARY
360
682
102
}
100
AcDbSymbolTableRecord
100
AcDbDimStyleTableRecord
  2
AM_DIN$7
 70
     0
  3

  4
"
  5

  6

  7

 40
1.0
 41
2.5
 42
1.0
 43
10.0
 44
1.0
 45
0.0
 46
0.0
 47
0.1
 48
0.1
140
5.0
141
0.0
142
0.0
143
0.03937
144
1.0
145
0.0
146
0.71
147
1.5
 71
     0
 72
     0
 73
     0
 74
     0
 75
     0
 76
     0
 77
     1
 78
     8
170
     0
171
     2
172
     1
173
     0
174
     0
175
     0
176
   256
177
   256
178
     2
270
     2
271
     2
272
     3
273
     2
274
     4
340
14
275
     0
280
     0
281
     0
282
     0
283
     0
284
     8
285
     0
286
     0
287
     3
288
     0
  0
DIMSTYLE
105
5A6
102
{ACAD_XDICTIONARY
360
684
102
}
100
AcDbSymbolTableRecord
100
AcDbDimStyleTableRecord
  2
AM_DIN$SF
 70
     0
  3

  4
"
  5

  6

  7

 40
1.0
 41
2.5
 42
1.0
 43
10.0
 44
1.0
 45
0.0
 46
0.0
 47
0.1
 48
0.1
140
3.5
141
0.0
142
0.0
143
0.03937
144
1.0
145
0.0
146
0.71
147
1.5
 71
     0
 72
     0
 73
     0
 74
     0
 75
     1
 76
     1
 77
     1
 78
     8
170
     0
171
     2
172
     1
173
     0
174
     0
175
     0
176
   256
177
   256
178
     2
270
     2
271
     2
272
     3
273
     2
274
     4
340
14
275
     0
280
     0
281
     0
282
     0
283
     0
284
     8
285
     0
286
     0
287
     3
288
     0
  0
DIMSTYLE
105
5A7
102
{ACAD_XDICTIONARY
360
686
102
}
100
AcDbSymbolTableRecord
100
AcDbDimStyleTableRecord
  2
AM_DIN$SH
 70
     0
  3

  4
"
  5

  6
GENAXEH
  7

 40
1.0
 41
2.5
 42
1.0
 43
10.0
 44
1.0
 45
0.0
 46
0.0
 47
0.1
 48
0.1
140
3.5
141
0.0
142
0.0
143
0.03937
144
2.0
145
0.0
146
0.71
147
1.5
 71
     0
 72
     0
 73
     0
 74
     0
 75
     1
 76
     1
 77
     1
 78
     8
170
     0
171
     2
172
     1
173
     1
174
     0
175
     0
176
   256
177
   256
178
     2
270
     2
271
     2
272
     3
273
     2
274
     4
340
14
275
     0
280
     0
281
     0
282
     0
283
     0
284
     8
285
     0
286
     0
287
     3
288
     0
  0
ENDTAB
  0
TABLE
  2
BLOCK_RECORD
  5
1
100
AcDbSymbolTable
 70
    15
  0
BLOCK_RECORD
  5
2
102
{ACAD_XDICTIONARY
360
3
102
}
100
AcDbSymbolTableRecord
100
AcDbBlockTableRecord
  2
*MODEL_SPACE
  0
BLOCK_RECORD
  5
E
102
{ACAD_XDICTIONARY
360
600
102
}
100
AcDbSymbolTableRecord
100
AcDbBlockTableRecord
  2
*PAPER_SPACE
  0
BLOCK_RECORD
  5
5A8
100
AcDbSymbolTableRecord
100
AcDbBlockTableRecord
  2
GENAXEH
  0
BLOCK_RECORD
  5
439
100
AcDbSymbolTableRecord
100
AcDbBlockTableRecord
  2
REFLEX-LOGO
  0
BLOCK_RECORD
  5
437
100
AcDbSymbolTableRecord
100
AcDbBlockTableRecord
  2
LOGO
  0
BLOCK_RECORD
  5
50
100
AcDbSymbolTableRecord
100
AcDbBlockTableRecord
  2
*D4
  0
BLOCK_RECORD
  5
8F
100
AcDbSymbolTableRecord
100
AcDbBlockTableRecord
  2
*D5
  0
BLOCK_RECORD
  5
82
100
AcDbSymbolTableRecord
100
AcDbBlockTableRecord
  2
*D6
  0
BLOCK_RECORD
  5
2B
100
AcDbSymbolTableRecord
100
AcDbBlockTableRecord
  2
*D7
  0
BLOCK_RECORD
  5
168
100
AcDbSymbolTableRecord
100
AcDbBlockTableRecord
  2
*D8
  0
BLOCK_RECORD
  5
15D
100
AcDbSymbolTableRecord
100
AcDbBlockTableRecord
  2
*D9
  0
BLOCK_RECORD
  5
558
100
AcDbSymbolTableRecord
100
AcDbBlockTableRecord
  2
*D10
  0
BLOCK_RECORD
  5
645
100
AcDbSymbolTableRecord
100
AcDbBlockTableRecord
  2
*D11
  0
BLOCK_RECORD
  5
65B
100
AcDbSymbolTableRecord
100
AcDbBlockTableRecord
  2
*U12
  0
BLOCK_RECORD
  5
671
100
AcDbSymbolTableRecord
100
AcDbBlockTableRecord
  2
*U13
  0
BLOCK_RECORD
  5
688
100
AcDbSymbolTableRecord
100
AcDbBlockTableRecord
  2
*U14
  0
ENDTAB
  0
ENDSEC
  0
SECTION
  2
BLOCKS
  0
BLOCK
  5
5
100
AcDbEntity
  8
0
100
AcDbBlockBegin
  2
*MODEL_SPACE
 70
     0
 10
0.0
 20
0.0
 30
0.0
  3
*MODEL_SPACE
  1

  0
ENDBLK
  5
B
100
AcDbEntity
  8
0
100
AcDbBlockEnd
  0
BLOCK
  5
F
100
AcDbEntity
 67
     1
  8
0
100
AcDbBlockBegin
  2
*PAPER_SPACE
 70
     0
 10
0.0
 20
0.0
 30
0.0
  3
*PAPER_SPACE
  1

  0
ENDBLK
  5
10
100
AcDbEntity
 67
     1
  8
0
100
AcDbBlockEnd
  0
BLOCK
  5
5AA
100
AcDbEntity
  8
0
100
AcDbBlockBegin
  2
GENAXEH
 70
     0
 10
0.0
 20
0.0
 30
0.0
  3
GENAXEH
  1

  0
LINE
  5
5A9
100
AcDbEntity
  8
0
100
AcDbLine
 10
-1.0
 20
0.0
 30
0.0
 11
1.0
 21
0.0
 31
0.0
  0
ENDBLK
  5
5AB
100
AcDbEntity
  8
0
100
AcDbBlockEnd
  0
BLOCK
  5
44E
100
AcDbEntity
  8
0
100
AcDbBlockBegin
  2
REFLEX-LOGO
 70
     0
 10
0.0
 20
0.0
 30
0.0
  3
REFLEX-LOGO
  1

  0
LWPOLYLINE
  5
43A
100
AcDbEntity
  8
AM_4
100
AcDbPolyline
 90
        4
 70
     1
 43
0.0
 10
7.168893
 20
2.77
 10
8.050201
 20
1.751759
 42
-2.569164
 10
8.4566
 20
5.004875
 10
6.110139
 20
2.570883
 42
0.268569
  0
LWPOLYLINE
  5
43B
100
AcDbEntity
  8
AM_4
100
AcDbPolyline
 90
        2
 70
     0
 43
1.344148
 10
7.675507
 20
4.839334
 42
2.261413
 10
7.610669
 20
2.260219
 42
0.980224
  0
LWPOLYLINE
  5
43C
100
AcDbEntity
  8
AM_4
100
AcDbPolyline
 90
        7
 70
     0
 43
0.0
 10
3.098261
 20
4.704713
 42
0.412244
 10
2.574402
 20
4.210062
 10
2.574402
 20
1.142232
 10
1.222422
 20
1.142232
 10
1.222422
 20
4.253389
 42
-0.412244
 10
3.132488
 20
6.056958
 10
3.132488
 20
4.704283
  0
LWPOLYLINE
  5
43D
100
AcDbEntity
  8
AM_4
100
AcDbPolyline
 90
        2
 70
     0
 43
0.672074
 10
8.213784
 20
5.242072
 10
5.791652
 20
2.724738
  0
LWPOLYLINE
  5
43E
100
AcDbEntity
  8
AM_4
100
AcDbPolyline
 90
        3
 70
     0
 43
1.344148
 10
1.892757
 20
1.138361
 10
1.892757
 20
4.189317
 42
-0.42258
 10
3.116309
 20
5.378512
 42
-0.584026
  0
LWPOLYLINE
  5
43F
100
AcDbEntity
  8
AM_4
100
AcDbPolyline
 90
        2
 70
     1
 43
0.0
 10
7.030078
 20
4.486213
 10
5.577363
 20
2.986869
 42
-0.802942
  0
LWPOLYLINE
  5
440
100
AcDbEntity
  8
AM_4
100
AcDbPolyline
 90
        4
 70
     1
 43
0.0
 10
12.616976
 20
7.850047
 10
12.616976
 20
1.131363
 10
13.96896
 20
1.131363
 10
13.96896
 20
7.850047
  0
LWPOLYLINE
  5
441
100
AcDbEntity
  8
AM_4
100
AcDbPolyline
 90
       10
 70
     0
 43
0.0
 10
11.539816
 20
6.502413
 10
11.539816
 20
7.855087
 42
0.412244
 10
9.629755
 20
6.051518
 10
9.629755
 20
1.141883
 10
10.981735
 20
1.141883
 10
10.981735
 20
4.65696
 10
11.547854
 20
4.65696
 10
11.547854
 20
6.008196
 10
10.981735
 20
6.008196
 42
-0.412244
 10
11.505594
 20
6.502843
  0
LWPOLYLINE
  5
442
100
AcDbEntity
  8
AM_4
100
AcDbPolyline
 90
        2
 70
     0
 43
1.344148
 10
13.292132
 20
7.847206
 10
13.292132
 20
1.133598
  0
LWPOLYLINE
  5
443
100
AcDbEntity
  8
AM_4
100
AcDbPolyline
 90
        3
 70
     0
 43
1.344148
 10
10.303943
 20
1.138361
 10
10.303943
 20
5.981488
 42
-0.42258
 10
11.52749
 20
7.170678
 42
-0.584026
  0
LWPOLYLINE
  5
444
100
AcDbEntity
  8
AM_4
100
AcDbPolyline
 90
       20
 70
     1
 43
0.0
 10
23.696238
 20
5.229778
 10
23.696238
 20
5.996381
 10
25.040578
 20
5.996381
 10
25.040578
 20
5.227896
 42
-0.200193
 10
24.365932
 20
3.612714
 42
-0.200193
 10
25.040578
 20
1.997532
 10
25.040578
 20
1.087476
 10
23.696238
 20
1.087476
 10
23.696238
 20
1.99565
 42
0.431175
 10
22.723097
 20
2.938301
 42
0.431175
 10
21.74996
 20
1.99565
 10
21.74996
 20
1.087476
 10
20.40562
 20
1.087476
 10
20.40562
 20
1.997532
 42
-0.200193
 10
21.080266
 20
3.612714
 42
-0.200193
 10
20.40562
 20
5.227896
 10
20.40562
 20
5.996381
 10
21.74996
 20
5.996381
 10
21.74996
 20
5.229778
 42
0.431175
 10
22.723097
 20
4.287127
 42
0.431175
  0
LWPOLYLINE
  5
445
100
AcDbEntity
  8
AM_4
100
AcDbPolyline
 90
        4
 70
     1
 43
0.0
 10
18.248679
 20
2.771757
 10
19.129987
 20
1.753515
 42
-2.569164
 10
19.536386
 20
5.006631
 10
17.189925
 20
2.572639
 42
0.268569
  0
LWPOLYLINE
  5
446
100
AcDbEntity
  8
AM_4
100
AcDbPolyline
 90
        3
 70
     0
 43
1.344148
 10
24.368397
 20
5.996381
 10
24.368397
 20
5.229778
 42
-0.419272
 10
22.723097
 20
3.612602
 42
-1.628847
  0
LWPOLYLINE
  5
447
100
AcDbEntity
  8
AM_4
100
AcDbPolyline
 90
        3
 70
     0
 43
1.344148
 10
24.368397
 20
1.087539
 10
24.368397
 20
1.995426
 42
0.419272
 10
22.723097
 20
3.612602
 42
1.628847
  0
LWPOLYLINE
  5
448
100
AcDbEntity
  8
AM_4
100
AcDbPolyline
 90
        2
 70
     0
 43
0.672074
 10
19.290362
 20
5.242072
 10
16.86823
 20
2.724738
  0
LWPOLYLINE
  5
449
100
AcDbEntity
  8
AM_4
100
AcDbPolyline
 90
        2
 70
     0
 43
1.344148
 10
18.752084
 20
4.839334
 42
2.261413
 10
18.687247
 20
2.260219
 42
0.980224
  0
LWPOLYLINE
  5
44A
100
AcDbEntity
  8
AM_4
100
AcDbPolyline
 90
        3
 70
     0
 43
1.344148
 10
21.077797
 20
5.996381
 10
21.077797
 20
5.229778
 42
0.419272
 10
22.723097
 20
3.612602
 42
1.628847
  0
LWPOLYLINE
  5
44B
100
AcDbEntity
  8
AM_4
100
AcDbPolyline
 90
        3
 70
     0
 43
1.344148
 10
21.077797
 20
1.087539
 10
21.077797
 20
1.995426
 42
-0.419272
 10
22.723097
 20
3.612602
 42
-1.628847
  0
LWPOLYLINE
  5
44C
100
AcDbEntity
  8
AM_4
100
AcDbPolyline
 90
        2
 70
     1
 43
0.0
 10
18.109864
 20
4.487969
 10
16.657149
 20
2.988626
 42
-0.802942
  0
LWPOLYLINE
  5
44D
100
AcDbEntity
  8
AM_4
100
AcDbPolyline
 90
        2
 70
     0
 43
1.344148
 10
10.950958
 20
5.331924
 10
11.548266
 20
5.331924
  0
ENDBLK
  5
44F
100
AcDbEntity
  8
0
100
AcDbBlockEnd
  0
BLOCK
  5
450
100
AcDbEntity
  8
0
100
AcDbBlockBegin
  2
LOGO
 70
     0
 10
0.0
 20
0.0
 30
0.0
  3
LOGO
  1

  0
INSERT
  5
438
100
AcDbEntity
  8
AM_4
100
AcDbBlockReference
  2
REFLEX-LOGO
 10
0.184903
 20
0.739308
 30
0.0
  0
ENDBLK
  5
451
100
AcDbEntity
  8
0
100
AcDbBlockEnd
  0
BLOCK
  5
5A
100
AcDbEntity
  8
0
100
AcDbBlockBegin
  2
*D4
 70
     1
 10
0.0
 20
0.0
 30
0.0
  3
*D4
  1

  0
LINE
  5
51
100
AcDbEntity
  8
AM_5
100
AcDbLine
 10
5220.352428
 20
2243.533715
 30
0.0
 11
5220.352428
 21
2248.533715
 31
0.0
  0
LINE
  5
52
100
AcDbEntity
  8
AM_5
100
AcDbLine
 10
4586.352428
 20
2243.533715
 30
0.0
 11
4586.352428
 21
2248.533715
 31
0.0
  0
LINE
  5
53
100
AcDbEntity
  8
AM_5
100
AcDbLine
 10
5207.852428
 20
2243.533715
 30
0.0
 11
4598.852428
 21
2243.533715
 31
0.0
  0
SOLID
  5
54
100
AcDbEntity
  8
AM_5
100
AcDbTrace
 10
5207.852428
 20
2245.617049
 30
0.0
 11
5207.852428
 21
2241.450382
 31
0.0
 12
5220.352428
 22
2243.533715
 32
0.0
 13
5220.352428
 23
2243.533715
 33
0.0
  0
SOLID
  5
55
100
AcDbEntity
  8
AM_5
100
AcDbTrace
 10
4598.852428
 20
2245.617049
 30
0.0
 11
4598.852428
 21
2241.450382
 31
0.0
 12
4586.352428
 22
2243.533715
 32
0.0
 13
4586.352428
 23
2243.533715
 33
0.0
  0
MTEXT
  5
56
100
AcDbEntity
  8
AM_5
 62
     2
100
AcDbMText
 10
4848.351426
 20
2254.533715
 30
0.0
 40
15.0
 41
0.0
 71
     5
 72
     1
  1
%%c634
1001
ACAD
1000
MTEXTBEGIN
1070
    73
1070
     1
1070
    44
1040
1.0
1070
    74
1070
     0
1000
MTEXTEND
  0
POINT
  5
57
100
AcDbEntity
  8
DEFPOINTS
 62
     0
100
AcDbPoint
 10
5220.352428
 20
2243.533715
 30
0.0
  0
POINT
  5
58
100
AcDbEntity
  8
DEFPOINTS
 62
     0
100
AcDbPoint
 10
4586.352428
 20
2243.533715
 30
0.0
  0
POINT
  5
59
100
AcDbEntity
  8
DEFPOINTS
 62
     0
100
AcDbPoint
 10
4586.352428
 20
2243.533715
 30
0.0
  0
ENDBLK
  5
5B
100
AcDbEntity
  8
0
100
AcDbBlockEnd
  0
BLOCK
  5
99
100
AcDbEntity
  8
0
100
AcDbBlockBegin
  2
*D5
 70
     1
 10
0.0
 20
0.0
 30
0.0
  3
*D5
  1

  0
LINE
  5
90
100
AcDbEntity
  8
AM_5
100
AcDbLine
 10
4903.352428
 20
2035.941
 30
0.0
 11
5291.806794
 21
2035.941
 31
0.0
  0
LINE
  5
91
100
AcDbEntity
  8
AM_5
100
AcDbLine
 10
4903.352428
 20
2777.371067
 30
0.0
 11
5291.806794
 21
2777.371067
 31
0.0
  0
LINE
  5
92
100
AcDbEntity
  8
AM_5
100
AcDbLine
 10
5286.806794
 20
2048.441
 30
0.0
 11
5286.806794
 21
2764.871067
 31
0.0
  0
SOLID
  5
93
100
AcDbEntity
  8
AM_5
100
AcDbTrace
 10
5284.723461
 20
2048.441
 30
0.0
 11
5288.890128
 21
2048.441
 31
0.0
 12
5286.806794
 22
2035.941
 32
0.0
 13
5286.806794
 23
2035.941
 33
0.0
  0
SOLID
  5
94
100
AcDbEntity
  8
AM_5
100
AcDbTrace
 10
5284.723461
 20
2764.871067
 30
0.0
 11
5288.890128
 21
2764.871067
 31
0.0
 12
5286.806794
 22
2777.371067
 32
0.0
 13
5286.806794
 23
2777.371067
 33
0.0
  0
MTEXT
  5
95
100
AcDbEntity
  8
AM_5
 62
     2
100
AcDbMText
 10
5275.806794
 20
2406.656033
 30
0.0
 40
15.0
 41
0.0
 71
     5
 72
     1
  1
741 {}{\C2;%%p5}
 11
0.0
 21
1.0
 31
0.0
1001
ACAD
1000
MTEXTBEGIN
1070
    73
1070
     1
1070
    44
1040
1.0
1070
    74
1070
     0
1000
MTEXTEND
  0
POINT
  5
96
100
AcDbEntity
  8
DEFPOINTS
 62
     0
100
AcDbPoint
 10
4903.352428
 20
2035.941
 30
0.0
  0
POINT
  5
97
100
AcDbEntity
  8
DEFPOINTS
 62
     0
100
AcDbPoint
 10
4903.352428
 20
2777.371067
 30
0.0
  0
POINT
  5
98
100
AcDbEntity
  8
DEFPOINTS
 62
     0
100
AcDbPoint
 10
5286.806794
 20
2777.371067
 30
0.0
  0
ENDBLK
  5
9A
100
AcDbEntity
  8
0
100
AcDbBlockEnd
  0
BLOCK
  5
8C
100
AcDbEntity
  8
0
100
AcDbBlockBegin
  2
*D6
 70
     1
 10
0.0
 20
0.0
 30
0.0
  3
*D6
  1

  0
LINE
  5
83
100
AcDbEntity
  8
AM_5
100
AcDbLine
 10
4903.352428
 20
2777.371067
 30
0.0
 11
5357.173556
 21
2777.371067
 31
0.0
  0
LINE
  5
84
100
AcDbEntity
  8
AM_5
100
AcDbLine
 10
5143.184097
 20
1845.249859
 30
0.0
 11
5357.173556
 21
1845.249859
 31
0.0
  0
LINE
  5
85
100
AcDbEntity
  8
AM_5
100
AcDbLine
 10
5352.173556
 20
2764.871067
 30
0.0
 11
5352.173556
 21
1857.749859
 31
0.0
  0
SOLID
  5
86
100
AcDbEntity
  8
AM_5
100
AcDbTrace
 10
5350.090223
 20
2764.871067
 30
0.0
 11
5354.256889
 21
2764.871067
 31
0.0
 12
5352.173556
 22
2777.371067
 32
0.0
 13
5352.173556
 23
2777.371067
 33
0.0
  0
SOLID
  5
87
100
AcDbEntity
  8
AM_5
100
AcDbTrace
 10
5350.090223
 20
1857.749859
 30
0.0
 11
5354.256889
 21
1857.749859
 31
0.0
 12
5352.173556
 22
1845.249859
 32
0.0
 13
5352.173556
 23
1845.249859
 33
0.0
  0
MTEXT
  5
88
100
AcDbEntity
  8
AM_5
 62
     2
100
AcDbMText
 10
5341.168455
 20
2311.310463
 30
0.0
 40
15.0
 41
0.0
 71
     5
 72
     1
  1
932 {}{\C2;%%p8}
 11
0.0
 21
1.0
 31
0.0
1001
ACAD
1000
MTEXTBEGIN
1070
    73
1070
     1
1070
    44
1040
1.0
1070
    74
1070
     0
1000
MTEXTEND
  0
POINT
  5
89
100
AcDbEntity
  8
DEFPOINTS
 62
     0
100
AcDbPoint
 10
4903.352428
 20
2777.371067
 30
0.0
  0
POINT
  5
8A
100
AcDbEntity
  8
DEFPOINTS
 62
     0
100
AcDbPoint
 10
5143.184097
 20
1845.249859
 30
0.0
  0
POINT
  5
8B
100
AcDbEntity
  8
DEFPOINTS
 62
     0
100
AcDbPoint
 10
5352.173556
 20
1845.249859
 30
0.0
  0
ENDBLK
  5
8D
100
AcDbEntity
  8
0
100
AcDbBlockEnd
  0
BLOCK
  5
36
100
AcDbEntity
  8
0
100
AcDbBlockBegin
  2
*D7
 70
     1
 10
0.0
 20
0.0
 30
0.0
  3
*D7
  1

  0
LINE
  5
2C
100
AcDbEntity
  8
AM_5
100
AcDbLine
 10
4896.332009
 20
2811.686261
 30
0.0
 11
4521.046988
 21
2811.686261
 31
0.0
  0
LINE
  5
2D
100
AcDbEntity
  8
AM_5
100
AcDbLine
 10
4663.52076
 20
1845.249859
 30
0.0
 11
4521.046988
 21
1845.249859
 31
0.0
  0
LINE
  5
2E
100
AcDbEntity
  8
AM_5
100
AcDbLine
 10
4526.046988
 20
2799.186261
 30
0.0
 11
4526.046988
 21
1857.749859
 31
0.0
  0
SOLID
  5
2F
100
AcDbEntity
  8
AM_5
100
AcDbTrace
 10
4523.963654
 20
2799.186261
 30
0.0
 11
4528.130321
 21
2799.186261
 31
0.0
 12
4526.046988
 22
2811.686261
 32
0.0
 13
4526.046988
 23
2811.686261
 33
0.0
  0
SOLID
  5
30
100
AcDbEntity
  8
AM_5
100
AcDbTrace
 10
4523.963654
 20
1857.749859
 30
0.0
 11
4528.130321
 21
1857.749859
 31
0.0
 12
4526.046988
 22
1845.249859
 32
0.0
 13
4526.046988
 23
1845.249859
 33
0.0
  0
MTEXT
  5
31
100
AcDbEntity
  8
AM_5
 62
     2
100
AcDbMText
 10
4515.046988
 20
2328.46806
 30
0.0
 40
15.0
 41
0.0
 71
     5
 72
     1
  1
966 {}{\C2;%%p15}
 11
0.0
 21
1.0
 31
0.0
1001
ACAD
1000
MTEXTBEGIN
1070
    73
1070
     1
1070
    44
1040
1.0
1070
    74
1070
     0
1000
MTEXTEND
  0
POINT
  5
32
100
AcDbEntity
  8
DEFPOINTS
 62
     0
100
AcDbPoint
 10
4896.332009
 20
2811.686261
 30
0.0
  0
POINT
  5
34
100
AcDbEntity
  8
DEFPOINTS
 62
     0
100
AcDbPoint
 10
4663.52076
 20
1845.249859
 30
0.0
  0
POINT
  5
35
100
AcDbEntity
  8
DEFPOINTS
 62
     0
100
AcDbPoint
 10
4526.046988
 20
1845.249859
 30
0.0
  0
ENDBLK
  5
37
100
AcDbEntity
  8
0
100
AcDbBlockEnd
  0
BLOCK
  5
172
100
AcDbEntity
  8
0
100
AcDbBlockBegin
  2
*D8
 70
     1
 10
0.0
 20
0.0
 30
0.0
  3
*D8
  1

  0
LINE
  5
169
100
AcDbEntity
  8
AM_5
100
AcDbLine
 10
5730.823766
 20
1845.249859
 30
0.0
 11
5777.328025
 21
1845.249859
 31
0.0
  0
LINE
  5
16A
100
AcDbEntity
  8
AM_5
100
AcDbLine
 10
5808.403258
 20
2000.441
 30
0.0
 11
5767.328025
 21
2000.441
 31
0.0
  0
LINE
  5
16B
100
AcDbEntity
  8
AM_5
100
AcDbLine
 10
5772.328025
 20
1857.749859
 30
0.0
 11
5772.328025
 21
1987.941
 31
0.0
  0
SOLID
  5
16C
100
AcDbEntity
  8
AM_5
100
AcDbTrace
 10
5770.244691
 20
1857.749859
 30
0.0
 11
5774.411358
 21
1857.749859
 31
0.0
 12
5772.328025
 22
1845.249859
 32
0.0
 13
5772.328025
 23
1845.249859
 33
0.0
  0
SOLID
  5
16D
100
AcDbEntity
  8
AM_5
100
AcDbTrace
 10
5770.244691
 20
1987.941
 30
0.0
 11
5774.411358
 21
1987.941
 31
0.0
 12
5772.328025
 22
2000.441
 32
0.0
 13
5772.328025
 23
2000.441
 33
0.0
  0
MTEXT
  5
16E
100
AcDbEntity
  8
AM_5
 62
     2
100
AcDbMText
 10
5761.328025
 20
1922.84543
 30
0.0
 40
15.0
 41
0.0
 71
     5
 72
     1
  1
155
 11
0.0
 21
1.0
 31
0.0
1001
ACAD
1000
MTEXTBEGIN
1070
    73
1070
     1
1070
    44
1040
1.0
1070
    74
1070
     0
1000
MTEXTEND
  0
POINT
  5
16F
100
AcDbEntity
  8
DEFPOINTS
 62
     0
100
AcDbPoint
 10
5730.823766
 20
1845.249859
 30
0.0
  0
POINT
  5
170
100
AcDbEntity
  8
DEFPOINTS
 62
     0
100
AcDbPoint
 10
5808.403258
 20
2000.441
 30
0.0
  0
POINT
  5
171
100
AcDbEntity
  8
DEFPOINTS
 62
     0
100
AcDbPoint
 10
5772.328025
 20
2000.441
 30
0.0
  0
ENDBLK
  5
173
100
AcDbEntity
  8
0
100
AcDbBlockEnd
  0
BLOCK
  5
165
100
AcDbEntity
  8
0
100
AcDbBlockBegin
  2
*D9
 70
     1
 10
0.0
 20
0.0
 30
0.0
  3
*D9
  1

  0
LINE
  5
15E
100
AcDbEntity
  8
AM_5
100
AcDbLine
 10
6064.753258
 20
1833.636092
 30
0.0
 11
6064.753258
 21
1775.249858
 31
0.0
  0
LINE
  5
15F
100
AcDbEntity
  8
AM_5
100
AcDbLine
 10
6052.253258
 20
1780.249858
 30
0.0
 11
5844.427815
 21
1780.249858
 31
0.0
  0
SOLID
  5
160
100
AcDbEntity
  8
AM_5
100
AcDbTrace
 10
6052.253258
 20
1782.333191
 30
0.0
 11
6052.253258
 21
1778.166525
 31
0.0
 12
6064.753258
 22
1780.249858
 32
0.0
 13
6064.753258
 23
1780.249858
 33
0.0
  0
MTEXT
  5
161
100
AcDbEntity
  8
AM_5
 62
     2
100
AcDbMText
 10
5882.878258
 20
1802.251334
 30
0.0
 40
15.0
 41
0.0
 71
     5
 72
     1
  1
%%c485 {}{\C2;%%p2}
1001
ACAD
1000
MTEXTBEGIN
1070
    73
1070
     1
1070
    44
1040
1.0
1070
    74
1070
     0
1000
MTEXTEND
  0
POINT
  5
162
100
AcDbEntity
  8
DEFPOINTS
 62
     0
100
AcDbPoint
 10
5701.003258
 20
1830.249859
 30
0.0
  0
POINT
  5
163
100
AcDbEntity
  8
DEFPOINTS
 62
     0
100
AcDbPoint
 10
6064.753258
 20
1833.636092
 30
0.0
  0
POINT
  5
164
100
AcDbEntity
  8
DEFPOINTS
 62
     0
100
AcDbPoint
 10
6064.753258
 20
1780.249858
 30
0.0
  0
ENDBLK
  5
166
100
AcDbEntity
  8
0
100
AcDbBlockEnd
  0
BLOCK
  5
564
100
AcDbEntity
  8
0
100
AcDbBlockBegin
  2
*D10
 70
     1
 10
0.0
 20
0.0
 30
0.0
  3
*D10
  1

  0
LINE
  5
559
100
AcDbEntity
  8
AM_5
100
AcDbLine
 10
5806.403258
 20
2002.441
 30
0.0
 11
5806.403258
 21
1952.468297
 31
0.0
  0
LINE
  5
55A
100
AcDbEntity
  8
AM_5
100
AcDbLine
 10
5838.103258
 20
2002.441
 30
0.0
 11
5838.103258
 21
1952.468297
 31
0.0
  0
LINE
  5
55B
100
AcDbEntity
  8
AM_5
100
AcDbLine
 10
5793.903258
 20
1957.468297
 30
0.0
 11
5781.403258
 21
1957.468297
 31
0.0
  0
LINE
  5
55C
100
AcDbEntity
  8
AM_5
100
AcDbLine
 10
5850.603258
 20
1957.468297
 30
0.0
 11
5951.879908
 21
1957.468297
 31
0.0
  0
LINE
  5
55D
100
AcDbEntity
  8
AM_5
100
AcDbLine
 10
5806.403258
 20
1957.468297
 30
0.0
 11
5838.103258
 21
1957.468297
 31
0.0
  0
SOLID
  5
55E
100
AcDbEntity
  8
AM_5
100
AcDbTrace
 10
5793.903258
 20
1959.55163
 30
0.0
 11
5793.903258
 21
1955.384963
 31
0.0
 12
5806.403258
 22
1957.468297
 32
0.0
 13
5806.403258
 23
1957.468297
 33
0.0
  0
SOLID
  5
55F
100
AcDbEntity
  8
AM_5
100
AcDbTrace
 10
5850.603258
 20
1959.55163
 30
0.0
 11
5850.603258
 21
1955.384963
 31
0.0
 12
5838.103258
 22
1957.468297
 32
0.0
 13
5838.103258
 23
1957.468297
 33
0.0
  0
MTEXT
  5
560
100
AcDbEntity
  8
AM_5
 62
     2
100
AcDbMText
 10
5907.491583
 20
1968.494947
 30
0.0
 40
15.0
 41
0.0
 71
     5
 72
     1
  1
G1 ISO228
1001
ACAD
1000
MTEXTBEGIN
1070
    73
1070
     1
1070
    44
1040
1.0
1070
    74
1070
     0
1000
MTEXTEND
  0
POINT
  5
561
100
AcDbEntity
  8
DEFPOINTS
 62
     0
100
AcDbPoint
 10
5806.403258
 20
2002.441
 30
0.0
  0
POINT
  5
562
100
AcDbEntity
  8
DEFPOINTS
 62
     0
100
AcDbPoint
 10
5838.103258
 20
2002.441
 30
0.0
  0
POINT
  5
563
100
AcDbEntity
  8
DEFPOINTS
 62
     0
100
AcDbPoint
 10
5838.103258
 20
1957.468297
 30
0.0
  0
ENDBLK
  5
565
100
AcDbEntity
  8
0
100
AcDbBlockEnd
  0
BLOCK
  5
651
100
AcDbEntity
  8
0
100
AcDbBlockBegin
  2
*D11
 70
     1
 10
0.0
 20
0.0
 30
0.0
  3
*D11
  1

  0
LINE
  5
646
100
AcDbEntity
  8
AM_5
100
AcDbLine
 10
5251.47681
 20
1315.17606
 30
0.0
 11
5266.818503
 21
1315.17606
 31
0.0
  0
LINE
  5
647
100
AcDbEntity
  8
AM_5
100
AcDbLine
 10
5143.674478
 20
1453.92606
 30
0.0
 11
5218.123283
 21
1496.909098
 31
0.0
  0
ARC
  5
648
100
AcDbEntity
  8
AM_5
100
AcDbCircle
 10
4903.352428
 20
1315.17606
 30
0.0
 40
358.466075
100
AcDbArc
 50
1.998051
 51
28.001949
  0
SOLID
  5
649
100
AcDbEntity
  8
AM_5
100
AcDbTrace
 10
5263.683578
 20
1327.710484
 30
0.0
 11
5259.517544
 21
1327.637836
 31
0.0
 12
5261.818503
 22
1315.17606
 32
0.0
 13
5261.818503
 23
1315.17606
 33
0.0
  0
SOLID
  5
64A
100
AcDbEntity
  8
AM_5
100
AcDbTrace
 10
5218.031355
 20
1482.466403
 30
0.0
 11
5221.675569
 21
1484.486505
 31
0.0
 12
5213.793156
 22
1494.409098
 32
0.0
 13
5213.793156
 23
1494.409098
 33
0.0
  0
MTEXT
  5
64B
100
AcDbEntity
  8
AM_5
 62
     2
100
AcDbMText
 10
5260.953697
 20
1410.995031
 30
0.0
 40
15.0
 41
0.0
 71
     5
 72
     1
  1
30°  (3x120°)
 11
0.258819
 21
-0.965926
 31
0.0
  0
POINT
  5
64C
100
AcDbEntity
  8
DEFPOINTS
 62
     0
100
AcDbPoint
 10
5256.372598
 20
1377.423041
 30
0.0
  0
POINT
  5
64D
100
AcDbEntity
  8
DEFPOINTS
 62
     0
100
AcDbPoint
 10
4547.109898
 20
1315.17606
 30
0.0
  0
POINT
  5
64E
100
AcDbEntity
  8
DEFPOINTS
 62
     0
100
AcDbPoint
 10
5083.0527
 20
1418.92606
 30
0.0
  0
POINT
  5
64F
100
AcDbEntity
  8
DEFPOINTS
 62
     0
100
AcDbPoint
 10
5143.674478
 20
1453.92606
 30
0.0
  0
POINT
  5
650
100
AcDbEntity
  8
DEFPOINTS
 62
     0
100
AcDbPoint
 10
5251.47681
 20
1315.17606
 30
0.0
  0
ENDBLK
  5
652
100
AcDbEntity
  8
0
100
AcDbBlockEnd
  0
BLOCK
  5
665
100
AcDbEntity
  8
0
100
AcDbBlockBegin
  2
*U12
 70
     1
 10
0.0
 20
0.0
 30
0.0
  3
*U12
  1

  0
LINE
  5
65C
100
AcDbEntity
  8
AM_0N
100
AcDbLine
 10
4891.352428
 20
1308.247857
 30
0.0
 11
4903.352428
 21
1301.319654
 31
0.0
  0
LINE
  5
65D
100
AcDbEntity
  8
AM_0N
100
AcDbLine
 10
4903.352428
 20
1301.319654
 30
0.0
 11
4915.352428
 21
1308.247857
 31
0.0
  0
LINE
  5
65E
100
AcDbEntity
  8
AM_0N
100
AcDbLine
 10
4915.352428
 20
1308.247857
 30
0.0
 11
4915.352428
 21
1322.104263
 31
0.0
  0
LINE
  5
65F
100
AcDbEntity
  8
AM_0N
100
AcDbLine
 10
4915.352428
 20
1322.104263
 30
0.0
 11
4903.352428
 21
1329.032467
 31
0.0
  0
LINE
  5
660
100
AcDbEntity
  8
AM_0N
100
AcDbLine
 10
4903.352428
 20
1329.032467
 30
0.0
 11
4891.352428
 21
1322.104263
 31
0.0
  0
LINE
  5
661
100
AcDbEntity
  8
AM_0N
100
AcDbLine
 10
4891.352428
 20
1322.104263
 30
0.0
 11
4891.352428
 21
1308.247857
 31
0.0
  0
CIRCLE
  5
662
100
AcDbEntity
  8
AM_0N
100
AcDbCircle
 10
4903.352428
 20
1315.17606
 30
0.0
 40
12.0
  0
CIRCLE
  5
663
100
AcDbEntity
  8
AM_9N
100
AcDbCircle
 10
4903.352428
 20
1315.17606
 30
0.0
 40
6.917468
  0
ARC
  5
664
100
AcDbEntity
  8
AM_9N
100
AcDbCircle
 10
4903.352428
 20
1315.17606
 30
0.0
 40
8.0
100
AcDbArc
 50
260.0
 51
170.0
  0
ENDBLK
  5
666
100
AcDbEntity
  8
0
100
AcDbBlockEnd
  0
BLOCK
  5
674
100
AcDbEntity
  8
0
100
AcDbBlockBegin
  2
*U13
 70
     1
 10
0.0
 20
0.0
 30
0.0
  3
*U13
  1

  0
ARC
  5
672
100
AcDbEntity
  8
AM_4N
100
AcDbCircle
 10
4903.352428
 20
1315.17606
 30
0.0
 40
6.917468
100
AcDbArc
 50
260.0
 51
170.0
  0
CIRCLE
  5
673
100
AcDbEntity
  8
AM_0N
100
AcDbCircle
 10
4903.352428
 20
1315.17606
 30
0.0
 40
8.0
  0
ENDBLK
  5
675
100
AcDbEntity
  8
0
100
AcDbBlockEnd
  0
BLOCK
  5
689
100
AcDbEntity
  8
0
100
AcDbBlockBegin
  2
*U14
 70
     1
 10
0.0
 20
0.0
 30
0.0
  3
*U14
  1

  0
ENDBLK
  5
68A
100
AcDbEntity
  8
0
100
AcDbBlockEnd
  0
ENDSEC
  0
SECTION
  2
ENTITIES
  0
ARC
  5
27
100
AcDbEntity
  8
AM_0
100
AcDbCircle
 10
4903.352428
 20
2309.621067
 30
0.0
 40
467.75
100
AcDbArc
 50
91.715149
 51
124.871159
  0
ARC
  5
28
100
AcDbEntity
  8
AM_0
100
AcDbCircle
 10
4903.352428
 20
2503.691
 30
0.0
 40
467.75
100
AcDbArc
 50
235.128841
 51
256.047763
  0
DIMENSION
  5
29
100
AcDbEntity
  8
AM_5
100
AcDbDimension
  2
*D7
 10
4526.046988
 20
1845.249859
 30
0.0
 11
4515.046988
 21
2328.46806
 31
0.0
  1
<> {}{\C2;%%p15}
  3
AM_DIN
100
AcDbAlignedDimension
 13
4896.332009
 23
2811.686261
 33
0.0
 14
4663.52076
 24
1845.249859
 34
0.0
 50
90.0
100
AcDbRotatedDimension
1001
GENIUS_GENDTOL_13
1000
TolPm
1000

1000
{$3%%p$P}
1040
966.0
1001
ACAD
1000
DSTYLE
1002
{
1070
    40
1040
5.0
1070
    47
1040
15.0
1070
    48
1040
15.0
1070
   271
1070
     0
1002
}
  0
LINE
  5
39
100
AcDbEntity
  8
AM_0
100
AcDbLine
 10
5220.352428
 20
2410.941
 30
0.0
 11
4586.352428
 21
2410.941
 31
0.0
  0
LINE
  5
3A
100
AcDbEntity
  8
AM_7
100
AcDbLine
 10
4547.109898
 20
1315.17606
 30
0.0
 11
5251.47681
 21
1315.17606
 31
0.0
1001
GENIUS_GENODEF_13
1002
{
1000
HIER
1070
     0
1002
}
1002
{
1000
MANEDIT
1070
     0
1002
}
1002
{
1000
NOSEL
1070
     0
1002
}
1002
{
1000
BEHIND
1070
     0
1002
}
1002
{
1000
REACTOR
1002
}
1001
GENIUS_GENOBJ-N-CEN_13
1002
{
1000
OWNER
1000
GEN
1002
}
  0
DIMENSION
  5
3F
100
AcDbEntity
  8
AM_5
100
AcDbDimension
  2
*D11
 10
5251.47681
 20
1315.17606
 30
0.0
 11
5260.953697
 21
1410.995031
 31
0.0
 70
    34
  1
<>  (3x120°)
  3
AM_DIN
100
AcDb2LineAngularDimension
 13
5083.0527
 23
1418.92606
 33
0.0
 14
5143.674478
 24
1453.92606
 34
0.0
 15
4547.109898
 25
1315.17606
 35
0.0
 16
5256.372598
 26
1377.423041
 36
0.0
1001
GENIUS_GENDTOL_13
1000

1000
h7
1000

1040
0.0
1000
<>
1001
ACAD
1000
DSTYLE
1002
{
1070
   271
1070
     0
1070
    40
1040
5.0
1002
}
  0
CIRCLE
  5
4E
100
AcDbEntity
  8
AM_0
100
AcDbCircle
 10
4903.352428
 20
1315.17606
 30
0.0
 40
317.0
  0
DIMENSION
  5
4F
100
AcDbEntity
  8
AM_5
100
AcDbDimension
  2
*D4
 10
4586.352428
 20
2243.533715
 30
0.0
 11
4848.351426
 21
2243.533715
 31
0.0
 70
   128
  1
%%c<>
  3
AM_DIN
100
AcDbAlignedDimension
 13
5220.352428
 23
2243.533715
 33
0.0
 14
4586.352428
 24
2243.533715
 34
0.0
100
AcDbRotatedDimension
1001
ACAD
1000
DSTYLE
1002
{
1070
    40
1040
5.0
1002
}
1001
GENIUS_GENDTOL_13
1000

1000
h7
1000

1040
0.0
1000
%%c<>
  0
LINE
  5
5C
100
AcDbEntity
  8
AM_0
100
AcDbLine
 10
6931.767236
 20
2904.912046
 30
0.0
 11
4011.767236
 21
2904.912046
 31
0.0
1001
GENIUS_GENREC_14
1002
{
1000
PYDIR
1011
4011.767236
1021
2904.912046
1031
0.0
1002
}
1002
{
1000
PXDIR
1011
6931.767236
1021
854.912046
1031
0.0
1002
}
1002
{
1000
PORI
1011
4011.767236
1021
854.912046
1031
0.0
1002
}
1002
{
1000
PINS
1011
4011.767236
1021
854.912046
1031
0.0
1002
}
1002
{
1000
PINS2
1011
6931.767236
1021
2904.912046
1031
0.0
1002
}
1002
{
1000
H
1070
     0
1002
}
1002
{
1000
W
1070
     1
1002
}
1002
{
1000
C
1070
     1
1002
}
1001
GENIUS_GENODEF_13
1002
{
1000
HIER
1070
     0
1002
}
1002
{
1000
MANEDIT
1070
     0
1002
}
1002
{
1000
NOSEL
1070
     0
1002
}
1002
{
1000
BEHIND
1070
     0
1002
}
1002
{
1000
OTHER
1070
     0
1002
}
1002
{
1000
REACTOR
1002
}
1001
GENIUS_GENOBJ-N-REC_13
1002
{
1000
OWNER
1000
GEN
1002
}
  0
LINE
  5
5F
100
AcDbEntity
  8
AM_0
100
AcDbLine
 10
4011.767236
 20
854.912046
 30
0.0
 11
6931.767236
 21
854.912046
 31
0.0
1001
GENIUS_GENREC_14
1002
{
1000
PYDIR
1011
4011.767236
1021
2904.912046
1031
0.0
1002
}
1002
{
1000
PXDIR
1011
6931.767236
1021
854.912046
1031
0.0
1002
}
1002
{
1000
PORI
1011
4011.767236
1021
854.912046
1031
0.0
1002
}
1002
{
1000
PINS
1011
4011.767236
1021
854.912046
1031
0.0
1002
}
1002
{
1000
PINS2
1011
6931.767236
1021
2904.912046
1031
0.0
1002
}
1002
{
1000
H
1070
     0
1002
}
1002
{
1000
W
1070
     1
1002
}
1002
{
1000
C
1070
     1
1002
}
1001
GENIUS_GENODEF_13
1002
{
1000
HIER
1070
     0
1002
}
1002
{
1000
MANEDIT
1070
     0
1002
}
1002
{
1000
NOSEL
1070
     0
1002
}
1002
{
1000
BEHIND
1070
     0
1002
}
1002
{
1000
OTHER
1070
     0
1002
}
1002
{
1000
REACTOR
1002
}
1001
GENIUS_GENOBJ-N-REC_13
1002
{
1000
OWNER
1000
GEN
1002
}
  0
LINE
  5
60
100
AcDbEntity
  8
AM_0
100
AcDbLine
 10
6931.767236
 20
2904.912046
 30
0.0
 11
4011.767236
 21
2904.912046
 31
0.0
1001
GENIUS_GENREC_14
1002
{
1000
PYDIR
1011
4011.767236
1021
2904.912046
1031
0.0
1002
}
1002
{
1000
PXDIR
1011
6931.767236
1021
854.912046
1031
0.0
1002
}
1002
{
1000
PORI
1011
4011.767236
1021
854.912046
1031
0.0
1002
}
1002
{
1000
PINS
1011
4011.767236
1021
854.912046
1031
0.0
1002
}
1002
{
1000
PINS2
1011
6931.767236
1021
2904.912046
1031
0.0
1002
}
1002
{
1000
H
1070
     0
1002
}
1002
{
1000
W
1070
     1
1002
}
1002
{
1000
C
1070
     1
1002
}
1001
GENIUS_GENOBJ-N-REC_13
1002
{
1000
OWNER
1000
GEN
1002
}
1001
GENIUS_GENODEF_13
1002
{
1000
HIER
1070
     0
1002
}
1002
{
1000
MANEDIT
1070
     0
1002
}
1002
{
1000
NOSEL
1070
     0
1002
}
1002
{
1000
BEHIND
1070
     0
1002
}
1002
{
1000
OTHER
1070
     0
1002
}
1002
{
1000
REACTOR
1002
}
  0
LINE
  5
61
100
AcDbEntity
  8
AM_0
100
AcDbLine
 10
4011.767236
 20
854.912046
 30
0.0
 11
6931.767236
 21
854.912046
 31
0.0
1001
GENIUS_GENREC_14
1002
{
1000
PYDIR
1011
4011.767236
1021
2904.912046
1031
0.0
1002
}
1002
{
1000
PXDIR
1011
6931.767236
1021
854.912046
1031
0.0
1002
}
1002
{
1000
PORI
1011
4011.767236
1021
854.912046
1031
0.0
1002
}
1002
{
1000
PINS
1011
4011.767236
1021
854.912046
1031
0.0
1002
}
1002
{
1000
PINS2
1011
6931.767236
1021
2904.912046
1031
0.0
1002
}
1002
{
1000
H
1070
     0
1002
}
1002
{
1000
W
1070
     1
1002
}
1002
{
1000
C
1070
     1
1002
}
1001
GENIUS_GENOBJ-N-REC_13
1002
{
1000
OWNER
1000
GEN
1002
}
1001
GENIUS_GENODEF_13
1002
{
1000
HIER
1070
     0
1002
}
1002
{
1000
MANEDIT
1070
     0
1002
}
1002
{
1000
NOSEL
1070
     0
1002
}
1002
{
1000
BEHIND
1070
     0
1002
}
1002
{
1000
OTHER
1070
     0
1002
}
1002
{
1000
REACTOR
1002
}
  0
LINE
  5
62
100
AcDbEntity
  8
AM_0
100
AcDbLine
 10
4011.767236
 20
2904.912046
 30
0.0
 11
4011.767236
 21
854.912046
 31
0.0
1001
GENIUS_GENREC_14
1002
{
1000
PYDIR
1011
4011.767236
1021
2904.912046
1031
0.0
1002
}
1002
{
1000
PXDIR
1011
6931.767236
1021
854.912046
1031
0.0
1002
}
1002
{
1000
PORI
1011
4011.767236
1021
854.912046
1031
0.0
1002
}
1002
{
1000
PINS
1011
4011.767236
1021
854.912046
1031
0.0
1002
}
1002
{
1000
PINS2
1011
6931.767236
1021
2904.912046
1031
0.0
1002
}
1002
{
1000
H
1070
     0
1002
}
1002
{
1000
W
1070
     1
1002
}
1002
{
1000
C
1070
     1
1002
}
1001
GENIUS_GENODEF_13
1002
{
1000
HIER
1070
     0
1002
}
1002
{
1000
MANEDIT
1070
     0
1002
}
1002
{
1000
NOSEL
1070
     0
1002
}
1002
{
1000
BEHIND
1070
     0
1002
}
1002
{
1000
OTHER
1070
     0
1002
}
1002
{
1000
REACTOR
1002
}
1001
GENIUS_GENOBJ-N-REC_13
1002
{
1000
OWNER
1000
GEN
1002
}
  0
LINE
  5
63
100
AcDbEntity
  8
AM_0
100
AcDbLine
 10
4011.767236
 20
2904.912046
 30
0.0
 11
4011.767236
 21
854.912046
 31
0.0
1001
GENIUS_GENREC_14
1002
{
1000
PYDIR
1011
4011.767236
1021
2904.912046
1031
0.0
1002
}
1002
{
1000
PXDIR
1011
6931.767236
1021
854.912046
1031
0.0
1002
}
1002
{
1000
PORI
1011
4011.767236
1021
854.912046
1031
0.0
1002
}
1002
{
1000
PINS
1011
4011.767236
1021
854.912046
1031
0.0
1002
}
1002
{
1000
PINS2
1011
6931.767236
1021
2904.912046
1031
0.0
1002
}
1002
{
1000
H
1070
     0
1002
}
1002
{
1000
W
1070
     1
1002
}
1002
{
1000
C
1070
     1
1002
}
1001
GENIUS_GENOBJ-N-REC_13
1002
{
1000
OWNER
1000
GEN
1002
}
1001
GENIUS_GENODEF_13
1002
{
1000
HIER
1070
     0
1002
}
1002
{
1000
MANEDIT
1070
     0
1002
}
1002
{
1000
NOSEL
1070
     0
1002
}
1002
{
1000
BEHIND
1070
     0
1002
}
1002
{
1000
OTHER
1070
     0
1002
}
1002
{
1000
REACTOR
1002
}
  0
LINE
  5
64
100
AcDbEntity
  8
AM_0
100
AcDbLine
 10
4586.352428
 20
2415.160154
 30
0.0
 11
4586.352428
 21
2598.415868
 31
0.0
  0
LINE
  5
65
100
AcDbEntity
  8
AM_0
100
AcDbLine
 10
4586.352428
 20
2410.941
 30
0.0
 11
4586.352428
 21
2214.896198
 31
0.0
  0
ARC
  5
66
100
AcDbEntity
  8
AM_0
100
AcDbCircle
 10
4702.102428
 20
2214.896198
 30
0.0
 40
115.75
100
AcDbArc
 50
180.0
 51
235.128841
1001
GENIUS_GENODEF_13
1002
{
1000
HIER
1070
     0
1002
}
1002
{
1000
MANEDIT
1070
     0
1002
}
1002
{
1000
NOSEL
1070
     0
1002
}
1002
{
1000
BEHIND
1070
     0
1002
}
1002
{
1000
REACTOR
1002
}
1001
GENIUS_GENOBJ-N-FIL_13
1002
{
1000
OWNER
1000
GEN
1002
}
  0
ARC
  5
68
100
AcDbEntity
  8
AM_0
100
AcDbCircle
 10
4587.030945
 20
2411.928336
 30
0.0
 40
1.0
100
AcDbArc
 50
4.0
 51
45.0
1001
GENIUS_GENODEF_13
1002
{
1000
HIER
1070
     0
1002
}
1002
{
1000
MANEDIT
1070
     0
1002
}
1002
{
1000
NOSEL
1070
     0
1002
}
1002
{
1000
BEHIND
1070
     0
1002
}
1002
{
1000
REACTOR
1002
}
1001
GENIUS_GENOBJ-N-FIL_13
1002
{
1000
OWNER
1000
GEN
1002
}
  0
LINE
  5
69
100
AcDbEntity
  8
AM_0
100
AcDbLine
 10
4587.157885
 20
2413.21561
 30
0.0
 11
4587.738052
 21
2412.635443
 31
0.0
  0
ARC
  5
6A
100
AcDbEntity
  8
AM_0
100
AcDbCircle
 10
4589.102428
 20
2415.160154
 30
0.0
 40
2.75
100
AcDbArc
 50
180.0
 51
225.0
1001
GENIUS_GENODEF_13
1002
{
1000
HIER
1070
     0
1002
}
1002
{
1000
MANEDIT
1070
     0
1002
}
1002
{
1000
NOSEL
1070
     0
1002
}
1002
{
1000
BEHIND
1070
     0
1002
}
1002
{
1000
REACTOR
1002
}
1001
GENIUS_GENOBJ-N-FIL_13
1002
{
1000
OWNER
1000
GEN
1002
}
  0
LINE
  5
6B
100
AcDbEntity
  8
AM_0
100
AcDbLine
 10
4588.102428
 20
2410.941
 30
0.0
 11
4588.028509
 21
2411.998093
 31
0.0
  0
ARC
  5
6C
100
AcDbEntity
  8
AM_0
100
AcDbCircle
 10
4702.102428
 20
2598.415868
 30
0.0
 40
115.75
100
AcDbArc
 50
124.871159
 51
180.0
1001
GENIUS_GENODEF_13
1002
{
1000
HIER
1070
     0
1002
}
1002
{
1000
MANEDIT
1070
     0
1002
}
1002
{
1000
NOSEL
1070
     0
1002
}
1002
{
1000
BEHIND
1070
     0
1002
}
1002
{
1000
REACTOR
1002
}
1001
GENIUS_GENOBJ-N-FIL_13
1002
{
1000
OWNER
1000
GEN
1002
}
  0
HATCH
  5
6D
100
AcDbEntity
  8
AM_8
100
AcDbHatch
 10
0.0
 20
0.0
 30
0.0
210
0.0
220
0.0
230
1.0
  2
_U
 70
     0
 71
     0
 91
        2
 92
        7
 72
     1
 73
     1
 93
       16
 10
5560.003257916083
 20
2629.452956075015
 42
-0.2805017776813032
 10
5612.47756347164
 20
2715.62988183963
 42
-0.1136931607721573
 10
5811.253257916063
 20
2766.488662338565
 42
0.0
 10
5811.253257916063
 20
2769.489526092682
 42
0.1137329242769909
 10
5611.100480138306
 20
2718.295147584928
 42
0.2805017776812997
 10
5557.003257916083
 20
2629.452956075016
 42
0.0
 10
5557.003257916079
 20
2182.733935128026
 42
0.2808876369100686
 10
5611.227634647381
 20
2093.82616092148
 42
0.077342428321653
 10
5745.753257916082
 20
2049.082652092064
 42
0.0
 10
5745.753257916082
 20
2035.941000013656
 42
0.0
 10
5721.253257916083
 20
2035.941000013656
 42
0.0
 10
5721.253257916083
 20
2031.441000013657
 42
0.0
 10
5749.753257916083
 20
2031.441000013657
 42
0.0
 10
5749.753257916083
 20
2051.465669011511
 42
-0.0792916095304582
 10
5612.600903345442
 20
2096.493394147676
 42
-0.2808876369100678
 10
5560.003257916079
 20
2182.733935128026
 42
0.0
 97
        0
 92
        7
 72
     1
 73
     1
 93
       16
 10
6087.503257916083
 20
2629.452956075013
 42
0.2805017776813027
 10
6033.406035693861
 20
2718.295147584926
 42
0.1137329242770141
 10
5833.253257916062
 20
2769.489526092683
 42
0.0
 10
5833.253257916062
 20
2766.488662338566
 42
-0.1136931607721812
 10
6032.028952360528
 20
2715.629881839629
 42
-0.280501777681302
 10
6084.503257916083
 20
2629.452956075013
 42
0.0
 10
6084.503257916081
 20
2182.733935128023
 42
-0.2808876369100677
 10
6031.905612486717
 20
2096.493394147674
 42
-0.0792916095304547
 10
5894.753257916082
 20
2051.465669011511
 42
0.0
 10
5894.753257916082
 20
2031.441000013657
 42
0.0
 10
5923.253257916083
 20
2031.441000013657
 42
0.0
 10
5923.253257916083
 20
2035.941000013656
 42
0.0
 10
5898.753257916083
 20
2035.941000013656
 42
0.0
 10
5898.753257916083
 20
2049.082652092064
 42
0.077342428321649
 10
6033.278881184777
 20
2093.826160921476
 42
0.2808876369100691
 10
6087.503257916081
 20
2182.733935128023
 42
0.0
 97
        0
 75
     0
 76
     0
 52
45.0
 41
5.0
 77
     0
 78
     1
 53
45.0
 43
7426.500723
 44
2964.024488
 45
-3.535533905932737
 46
3.535533905932737
 79
     0
 47
1.017985
 98
        2
 10
5559.196091
 20
2575.926972
 10
6086.728291
 20
2334.664643
  0
ARC
  5
6F
100
AcDbEntity
  8
AM_0
100
AcDbCircle
 10
5987.503258
 20
2182.733935
 30
0.0
 40
97.0
100
AcDbArc
 50
297.242416
 51
0.0
1001
GENIUS_GENODEF_13
1002
{
1000
HIER
1070
     0
1002
}
1002
{
1000
MANEDIT
1070
     0
1002
}
1002
{
1000
NOSEL
1070
     0
1002
}
1002
{
1000
BEHIND
1070
     0
1002
}
1002
{
1000
REACTOR
1002
}
1001
GENIUS_GENOBJ-N-FIL_13
1002
{
1000
OWNER
1000
GEN
1002
}
  0
ARC
  5
70
100
AcDbEntity
  8
AM_0
100
AcDbCircle
 10
5657.003258
 20
2182.733935
 30
0.0
 40
97.0
100
AcDbArc
 50
180.0
 51
242.757584
1001
GENIUS_GENODEF_13
1002
{
1000
HIER
1070
     0
1002
}
1002
{
1000
MANEDIT
1070
     0
1002
}
1002
{
1000
NOSEL
1070
     0
1002
}
1002
{
1000
BEHIND
1070
     0
1002
}
1002
{
1000
REACTOR
1002
}
1001
GENIUS_GENOBJ-N-FIL_13
1002
{
1000
OWNER
1000
GEN
1002
}
  0
ARC
  5
71
100
AcDbEntity
  8
AM_0
100
AcDbCircle
 10
5657.003258
 20
2182.733935
 30
0.0
 40
100.0
100
AcDbArc
 50
180.0
 51
242.757584
1001
GENIUS_GENODEF_13
1002
{
1000
HIER
1070
     0
1002
}
1002
{
1000
MANEDIT
1070
     0
1002
}
1002
{
1000
NOSEL
1070
     0
1002
}
1002
{
1000
BEHIND
1070
     0
1002
}
1002
{
1000
REACTOR
1002
}
1001
GENIUS_GENOBJ-N-FIL_13
1002
{
1000
OWNER
1000
GEN
1002
}
  0
ARC
  5
72
100
AcDbEntity
  8
AM_0
100
AcDbCircle
 10
5987.503258
 20
2182.733935
 30
0.0
 40
100.0
100
AcDbArc
 50
297.242416
 51
0.0
1001
GENIUS_GENODEF_13
1002
{
1000
HIER
1070
     0
1002
}
1002
{
1000
MANEDIT
1070
     0
1002
}
1002
{
1000
NOSEL
1070
     0
1002
}
1002
{
1000
BEHIND
1070
     0
1002
}
1002
{
1000
REACTOR
1002
}
1001
GENIUS_GENOBJ-N-FIL_13
1002
{
1000
OWNER
1000
GEN
1002
}
  0
HATCH
  5
73
100
AcDbEntity
  8
AM_8
100
AcDbHatch
 10
0.0
 20
0.0
 30
0.0
210
0.0
220
0.0
230
1.0
  2
ANSI31
 70
     0
 71
     0
 91
        2
 92
        5
 93
       13
 72
     1
 10
5505.253258
 20
2214.896198
 11
5505.253258
 21
2410.941
 72
     1
 10
5505.253258
 20
2410.941
 11
5507.003258
 21
2410.941
 72
     1
 10
5507.003258
 20
2410.941
 11
5507.003258
 21
2214.896198
 72
     3
 10
5621.003258
 20
2214.896198
 11
-80.610173
 21
80.610173
 40
1.0
 50
45.0
 51
100.128841
 73
     1
 72
     3
 10
5822.253258
 20
2503.691
 11
329.51176
 21
329.51176
 40
1.0
 50
190.128841
 51
215.090032
 73
     1
 72
     3
 10
5741.753258
 20
2042.920111
 11
-1.237437
 21
1.237437
 40
1.0
 50
54.909968
 51
135.0
 73
     0
 72
     1
 10
5743.503258
 20
2042.920111
 11
5743.503258
 21
2035.941
 72
     1
 10
5743.503258
 20
2035.941
 11
5735.853258
 21
2035.941
 72
     1
 10
5735.853258
 20
2035.941
 11
5735.853258
 21
2036.741
 72
     1
 10
5735.853258
 20
2036.741
 11
5741.753258
 21
2036.741
 72
     1
 10
5741.753258
 20
2036.741
 11
5741.753258
 21
2042.920111
 72
     3
 10
5822.253258
 20
2503.691
 11
330.749197
 21
330.749197
 40
1.0
 50
144.909968
 51
169.871157
 73
     0
 72
     3
 10
5621.003258
 20
2214.896198
 11
81.84761
 21
81.84761
 40
1.0
 50
169.871152
 51
225.0
 73
     0
 97
        0
 92
        5
 93
       13
 72
     1
 10
6139.253258
 20
2410.941
 11
6137.503258
 21
2410.941
 72
     1
 10
6137.503258
 20
2410.941
 11
6137.503258
 21
2214.896198
 72
     3
 10
6023.503258
 20
2214.896198
 11
80.610173
 21
80.610173
 40
1.0
 50
45.0
 51
100.128841
 73
     0
 72
     3
 10
5822.253258
 20
2503.691
 11
-329.51176
 21
329.51176
 40
1.0
 50
190.128841
 51
215.090032
 73
     0
 72
     3
 10
5902.753258
 20
2042.920111
 11
1.237437
 21
1.237437
 40
1.0
 50
54.909968
 51
135.0
 73
     1
 72
     1
 10
5901.003258
 20
2042.920111
 11
5901.003258
 21
2035.941
 72
     1
 10
5901.003258
 20
2035.941
 11
5908.653258
 21
2035.941
 72
     1
 10
5908.653258
 20
2035.941
 11
5908.653258
 21
2036.741
 72
     1
 10
5908.653258
 20
2036.741
 11
5902.753258
 21
2036.741
 72
     1
 10
5902.753258
 20
2036.741
 11
5902.753258
 21
2042.920111
 72
     3
 10
5822.253258
 20
2503.691
 11
-330.749197
 21
330.749197
 40
1.0
 50
144.909968
 51
169.871159
 73
     1
 72
     3
 10
6023.503258
 20
2214.896198
 11
-81.84761
 21
81.84761
 40
1.0
 50
169.871159
 51
225.0
 73
     1
 72
     1
 10
6139.253258
 20
2214.896198
 11
6139.253258
 21
2410.941
 97
        0
 75
     0
 76
     1
 52
-1710.0
 41
1.0
 77
     0
 78
     1
 53
135.0
 43
11035.789173
 44
548.93292
 45
-2.245064030267288
 46
-2.245064030267287
 79
     0
 47
0.619008
 98
        2
 10
7175.503828
 20
1681.806656
 10
7808.389031
 20
1612.477801
  0
ARC
  5
74
100
AcDbEntity
  8
AM_0
100
AcDbCircle
 10
5822.253258
 20
2503.691
 30
0.0
 40
467.75
100
AcDbArc
 50
235.128841
 51
260.090032
  0
ARC
  5
75
100
AcDbEntity
  8
AM_0
100
AcDbCircle
 10
5822.253258
 20
2503.691
 30
0.0
 40
466.0
100
AcDbArc
 50
235.128841
 51
260.090032
  0
ARC
  5
76
100
AcDbEntity
  8
AM_0
100
AcDbCircle
 10
5822.253258
 20
2503.691
 30
0.0
 40
466.0
100
AcDbArc
 50
279.909968
 51
304.871159
  0
ARC
  5
77
100
AcDbEntity
  8
AM_0
100
AcDbCircle
 10
5822.253258
 20
2503.691
 30
0.0
 40
467.75
100
AcDbArc
 50
279.909968
 51
304.871159
  0
LINE
  5
78
100
AcDbEntity
  8
AM_0
100
AcDbLine
 10
6084.753258
 20
1845.249859
 30
0.0
 11
6084.753258
 21
2110.053595
 31
0.0
  0
ARC
  5
79
100
AcDbEntity
  8
AM_0
100
AcDbCircle
 10
6038.396117
 20
2159.374857
 30
0.0
 40
64.0
100
AcDbArc
 50
296.800982
 51
311.837966
  0
LINE
  5
7A
100
AcDbEntity
  8
AM_7
100
AcDbLine
 10
5822.253258
 20
1994.768638
 30
0.0
 11
5822.253258
 21
2826.686261
 31
0.0
1001
GENIUS_GENODEF_13
1002
{
1000
HIER
1070
     0
1002
}
1002
{
1000
MANEDIT
1070
     0
1002
}
1002
{
1000
NOSEL
1070
     0
1002
}
1002
{
1000
BEHIND
1070
     0
1002
}
1002
{
1000
REACTOR
1002
}
1001
GENIUS_GENOBJ-N-CEN_13
1002
{
1000
OWNER
1000
GEN
1002
}
  0
LINE
  5
7B
100
AcDbEntity
  8
AM_0
100
AcDbLine
 10
4928.352428
 20
1850.249859
 30
0.0
 11
4928.352428
 21
2112.253595
 31
0.0
  0
LINE
  5
7C
100
AcDbEntity
  8
AM_0
100
AcDbLine
 10
4925.852428
 20
1850.249859
 30
0.0
 11
4925.852428
 21
2112.253595
 31
0.0
  0
LINE
  5
7D
100
AcDbEntity
  8
AM_0
100
AcDbLine
 10
4878.352428
 20
2112.253595
 30
0.0
 11
4878.352428
 21
1850.249859
 31
0.0
  0
LINE
  5
7E
100
AcDbEntity
  8
AM_0
100
AcDbLine
 10
4880.852428
 20
1850.249859
 30
0.0
 11
4880.852428
 21
2112.253595
 31
0.0
  0
LINE
  5
7F
100
AcDbEntity
  8
AM_7
100
AcDbLine
 10
4903.352428
 20
1830.249859
 30
0.0
 11
4903.352428
 21
2826.686261
 31
0.0
  0
ARC
  5
80
100
AcDbEntity
  8
AM_0
100
AcDbCircle
 10
4903.352428
 20
2503.691
 30
0.0
 40
467.75
100
AcDbArc
 50
283.952237
 51
304.871159
  0
DIMENSION
  5
81
100
AcDbEntity
  8
AM_5
100
AcDbDimension
  2
*D6
 10
5352.173556
 20
1845.249859
 30
0.0
 11
5341.168455
 21
2311.310463
 31
0.0
  1
<> {}{\C2;%%p8}
  3
AM_DIN
100
AcDbAlignedDimension
 13
4903.352428
 23
2777.371067
 33
0.0
 14
5143.184097
 24
1845.249859
 34
0.0
 50
90.0
100
AcDbRotatedDimension
1001
ACAD
1000
DSTYLE
1002
{
1070
    40
1040
5.0
1070
    47
1040
8.0
1070
    48
1040
8.0
1070
   271
1070
     0
1002
}
1001
GENIUS_GENDTOL_13
1000
TolPm
1000

1000
{$3%%p$P}
1040
932.0
  0
DIMENSION
  5
8E
100
AcDbEntity
  8
AM_5
100
AcDbDimension
  2
*D5
 10
5286.806794
 20
2777.371067
 30
0.0
 11
5275.806794
 21
2406.656033
 31
0.0
  1
<> {}{\C2;%%p5}
  3
AM_DIN
100
AcDbAlignedDimension
 13
4903.352428
 23
2035.941
 33
0.0
 14
4903.352428
 24
2777.371067
 34
0.0
 50
90.0
100
AcDbRotatedDimension
1001
ACAD
1000
DSTYLE
1002
{
1070
    40
1040
5.0
1070
    47
1040
5.0
1070
    48
1040
5.0
1070
   271
1070
     0
1002
}
1001
GENIUS_GENDREL_13
1005
0
1005
0
1040
0.0
1001
GENIUS_GENDTOL_13
1000
TolPm
1000

1000
{$3%%p$P}
1040
741.0
  0
LINE
  5
9C
100
AcDbEntity
  8
AM_0
100
AcDbLine
 10
6931.767236
 20
854.912046
 30
0.0
 11
6931.767236
 21
2904.912046
 31
0.0
1001
GENIUS_GENREC_14
1002
{
1000
PYDIR
1011
4011.767236
1021
2904.912046
1031
0.0
1002
}
1002
{
1000
PXDIR
1011
6931.767236
1021
854.912046
1031
0.0
1002
}
1002
{
1000
PORI
1011
4011.767236
1021
854.912046
1031
0.0
1002
}
1002
{
1000
PINS
1011
4011.767236
1021
854.912046
1031
0.0
1002
}
1002
{
1000
PINS2
1011
6931.767236
1021
2904.912046
1031
0.0
1002
}
1002
{
1000
H
1070
     0
1002
}
1002
{
1000
W
1070
     1
1002
}
1002
{
1000
C
1070
     1
1002
}
1001
GENIUS_GENODEF_13
1002
{
1000
HIER
1070
     0
1002
}
1002
{
1000
MANEDIT
1070
     0
1002
}
1002
{
1000
NOSEL
1070
     0
1002
}
1002
{
1000
BEHIND
1070
     0
1002
}
1002
{
1000
OTHER
1070
     0
1002
}
1002
{
1000
REACTOR
1002
}
1001
GENIUS_GENOBJ-N-REC_13
1002
{
1000
OWNER
1000
GEN
1002
}
  0
LINE
  5
9D
100
AcDbEntity
  8
AM_0
100
AcDbLine
 10
6931.767236
 20
854.912046
 30
0.0
 11
6931.767236
 21
2904.912046
 31
0.0
1001
GENIUS_GENREC_14
1002
{
1000
PYDIR
1011
4011.767236
1021
2904.912046
1031
0.0
1002
}
1002
{
1000
PXDIR
1011
6931.767236
1021
854.912046
1031
0.0
1002
}
1002
{
1000
PORI
1011
4011.767236
1021
854.912046
1031
0.0
1002
}
1002
{
1000
PINS
1011
4011.767236
1021
854.912046
1031
0.0
1002
}
1002
{
1000
PINS2
1011
6931.767236
1021
2904.912046
1031
0.0
1002
}
1002
{
1000
H
1070
     0
1002
}
1002
{
1000
W
1070
     1
1002
}
1002
{
1000
C
1070
     1
1002
}
1001
GENIUS_GENOBJ-N-REC_13
1002
{
1000
OWNER
1000
GEN
1002
}
1001
GENIUS_GENODEF_13
1002
{
1000
HIER
1070
     0
1002
}
1002
{
1000
MANEDIT
1070
     0
1002
}
1002
{
1000
NOSEL
1070
     0
1002
}
1002
{
1000
BEHIND
1070
     0
1002
}
1002
{
1000
OTHER
1070
     0
1002
}
1002
{
1000
REACTOR
1002
}
  0
TEXT
  5
9E
100
AcDbEntity
  8
AM_6
100
AcDbText
 10
6380.364115
 20
1016.219012
 30
0.0
 40
27.0
  1
Reflex Winkelmann GmbH+Co.KG
 41
0.95
 72
     1
 11
6621.53824
 21
1016.219012
 31
0.0
100
AcDbText
  0
LINE
  5
A0
100
AcDbEntity
  8
AM_3
100
AcDbLine
 10
5089.123208
 20
1448.411632
 30
0.0
 11
5119.434097
 21
1465.911632
 31
0.0
  0
LINE
  5
A3
100
AcDbEntity
  8
AM_3
100
AcDbLine
 10
5118.184097
 20
1468.076695
 30
0.0
 11
5087.873208
 21
1450.576695
 31
0.0
  0
LINE
  5
A4
100
AcDbEntity
  8
AM_3
100
AcDbLine
 10
5143.184097
 20
1424.775425
 30
0.0
 11
5118.184097
 21
1468.076695
 31
0.0
  0
LINE
  5
A5
100
AcDbEntity
  8
AM_3
100
AcDbLine
 10
4687.27076
 20
1465.911632
 30
0.0
 11
4717.581649
 21
1448.411632
 31
0.0
  0
LINE
  5
A6
100
AcDbEntity
  8
AM_3
100
AcDbLine
 10
4718.831649
 20
1450.576695
 30
0.0
 11
4688.52076
 21
1468.076695
 31
0.0
  0
LINE
  5
A7
100
AcDbEntity
  8
AM_3
100
AcDbLine
 10
4688.52076
 20
1468.076695
 30
0.0
 11
4663.52076
 21
1424.775425
 31
0.0
  0
LINE
  5
A8
100
AcDbEntity
  8
AM_7
100
AcDbLine
 10
4903.352428
 20
1652.03072
 30
0.0
 11
4903.352428
 21
972.693415
 31
0.0
1001
GENIUS_GENODEF_13
1002
{
1000
HIER
1070
     0
1002
}
1002
{
1000
MANEDIT
1070
     0
1002
}
1002
{
1000
NOSEL
1070
     0
1002
}
1002
{
1000
BEHIND
1070
     0
1002
}
1002
{
1000
REACTOR
1002
}
1001
GENIUS_GENOBJ-N-CEN_13
1002
{
1000
OWNER
1000
GEN
1002
}
  0
CIRCLE
  5
A9
100
AcDbEntity
  8
AM_7
100
AcDbCircle
 10
4903.352428
 20
1315.17606
 30
0.0
 40
242.5
  0
CIRCLE
  5
AA
100
AcDbEntity
  8
AM_3
100
AcDbCircle
 10
5113.363589
 20
1436.42606
 30
0.0
 40
6.5
  0
LINE
  5
AB
100
AcDbEntity
  8
AM_3
100
AcDbLine
 10
5141.934097
 20
1426.940488
 30
0.0
 11
5111.623208
 21
1409.440488
 31
0.0
  0
LINE
  5
AC
100
AcDbEntity
  8
AM_3
100
AcDbLine
 10
5112.873208
 20
1407.275425
 30
0.0
 11
5143.184097
 21
1424.775425
 31
0.0
  0
LINE
  5
AD
100
AcDbEntity
  8
AM_7
100
AcDbLine
 10
5083.0527
 20
1418.92606
 30
0.0
 11
5143.674478
 21
1453.92606
 31
0.0
1001
GENIUS_GENODEF_13
1002
{
1000
HIER
1070
     0
1002
}
1002
{
1000
MANEDIT
1070
     0
1002
}
1002
{
1000
NOSEL
1070
     0
1002
}
1002
{
1000
BEHIND
1070
     0
1002
}
1002
{
1000
REACTOR
1002
}
1001
GENIUS_GENOBJ-N-CEN_13
1002
{
1000
OWNER
1000
GEN
1002
}
  0
LINE
  5
AE
100
AcDbEntity
  8
AM_3
100
AcDbLine
 10
4883.352428
 20
1090.17606
 30
0.0
 11
4923.352428
 21
1090.17606
 31
0.0
  0
LINE
  5
AF
100
AcDbEntity
  8
AM_3
100
AcDbLine
 10
4923.352428
 20
1092.67606
 30
0.0
 11
4883.352428
 21
1092.67606
 31
0.0
  0
LINE
  5
B0
100
AcDbEntity
  8
AM_3
100
AcDbLine
 10
4878.352428
 20
1052.67606
 30
0.0
 11
4928.352428
 21
1052.67606
 31
0.0
  0
ARC
  5
B1
100
AcDbEntity
  8
AM_4
100
AcDbCircle
 10
4903.352428
 20
1315.17606
 30
0.0
 40
318.0
100
AcDbArc
 50
263.952904
 51
276.047096
  0
LINE
  5
B3
100
AcDbEntity
  8
AM_3
100
AcDbLine
 10
4880.852428
 20
1052.67606
 30
0.0
 11
4880.852428
 21
1087.67606
 31
0.0
  0
LINE
  5
B4
100
AcDbEntity
  8
AM_3
100
AcDbLine
 10
4878.352428
 20
1087.67606
 30
0.0
 11
4878.352428
 21
1052.67606
 31
0.0
  0
LINE
  5
B5
100
AcDbEntity
  8
AM_4
100
AcDbLine
 10
4869.852428
 20
999.95114
 30
0.0
 11
4869.852428
 21
998.945527
 31
0.0
1001
GENIUS_GENODEF_13
1002
{
1000
HIER
1070
     0
1002
}
1002
{
1000
MANEDIT
1070
     0
1002
}
1002
{
1000
NOSEL
1070
     0
1002
}
1002
{
1000
BEHIND
1070
     0
1002
}
1002
{
1000
REACTOR
1002
}
1001
GENIUS_GENOBJ-N-CEN_13
1002
{
1000
OWNER
1000
GEN
1002
}
  0
ARC
  5
B6
100
AcDbEntity
  8
AM_3
100
AcDbCircle
 10
4883.352428
 20
1087.67606
 30
0.0
 40
2.5
100
AcDbArc
 50
90.0
 51
180.0
1001
GENIUS_GENODEF_13
1002
{
1000
HIER
1070
     0
1002
}
1002
{
1000
MANEDIT
1070
     0
1002
}
1002
{
1000
NOSEL
1070
     0
1002
}
1002
{
1000
BEHIND
1070
     0
1002
}
1002
{
1000
REACTOR
1002
}
1001
GENIUS_GENOBJ-N-FIL_13
1002
{
1000
OWNER
1000
GEN
1002
}
  0
ARC
  5
B7
100
AcDbEntity
  8
AM_3
100
AcDbCircle
 10
4883.352428
 20
1087.67606
 30
0.0
 40
5.0
100
AcDbArc
 50
90.0
 51
180.0
1001
GENIUS_GENODEF_13
1002
{
1000
HIER
1070
     0
1002
}
1002
{
1000
MANEDIT
1070
     0
1002
}
1002
{
1000
NOSEL
1070
     0
1002
}
1002
{
1000
BEHIND
1070
     0
1002
}
1002
{
1000
REACTOR
1002
}
1001
GENIUS_GENOBJ-N-FIL_13
1002
{
1000
OWNER
1000
GEN
1002
}
  0
LINE
  5
B8
100
AcDbEntity
  8
AM_3
100
AcDbLine
 10
4883.352428
 20
1087.67606
 30
0.0
 11
4883.352428
 21
1090.17606
 31
0.0
  0
LINE
  5
B9
100
AcDbEntity
  8
AM_3
100
AcDbLine
 10
4880.852428
 20
1087.67606
 30
0.0
 11
4883.352428
 21
1087.67606
 31
0.0
  0
LINE
  5
BA
100
AcDbEntity
  8
AM_3
100
AcDbLine
 10
4925.852428
 20
1087.67606
 30
0.0
 11
4925.852428
 21
1052.67606
 31
0.0
  0
LINE
  5
BB
100
AcDbEntity
  8
AM_3
100
AcDbLine
 10
4928.352428
 20
1052.67606
 30
0.0
 11
4928.352428
 21
1087.67606
 31
0.0
  0
LINE
  5
BC
100
AcDbEntity
  8
AM_4
100
AcDbLine
 10
4936.852428
 20
999.95114
 30
0.0
 11
4936.852428
 21
998.945527
 31
0.0
1001
GENIUS_GENODEF_13
1002
{
1000
HIER
1070
     0
1002
}
1002
{
1000
MANEDIT
1070
     0
1002
}
1002
{
1000
NOSEL
1070
     0
1002
}
1002
{
1000
BEHIND
1070
     0
1002
}
1002
{
1000
REACTOR
1002
}
1001
GENIUS_GENOBJ-N-CEN_13
1002
{
1000
OWNER
1000
GEN
1002
}
  0
ARC
  5
BD
100
AcDbEntity
  8
AM_3
100
AcDbCircle
 10
4923.352428
 20
1087.67606
 30
0.0
 40
2.5
100
AcDbArc
 50
0.0
 51
90.0
1001
GENIUS_GENODEF_13
1002
{
1000
HIER
1070
     0
1002
}
1002
{
1000
MANEDIT
1070
     0
1002
}
1002
{
1000
NOSEL
1070
     0
1002
}
1002
{
1000
BEHIND
1070
     0
1002
}
1002
{
1000
REACTOR
1002
}
1001
GENIUS_GENOBJ-N-FIL_13
1002
{
1000
OWNER
1000
GEN
1002
}
  0
ARC
  5
BE
100
AcDbEntity
  8
AM_3
100
AcDbCircle
 10
4923.352428
 20
1087.67606
 30
0.0
 40
5.0
100
AcDbArc
 50
0.0
 51
90.0
1001
GENIUS_GENODEF_13
1002
{
1000
HIER
1070
     0
1002
}
1002
{
1000
MANEDIT
1070
     0
1002
}
1002
{
1000
NOSEL
1070
     0
1002
}
1002
{
1000
BEHIND
1070
     0
1002
}
1002
{
1000
REACTOR
1002
}
1001
GENIUS_GENOBJ-N-FIL_13
1002
{
1000
OWNER
1000
GEN
1002
}
  0
LINE
  5
BF
100
AcDbEntity
  8
AM_3
100
AcDbLine
 10
4923.352428
 20
1090.17606
 30
0.0
 11
4923.352428
 21
1087.67606
 31
0.0
  0
LINE
  5
C0
100
AcDbEntity
  8
AM_3
100
AcDbLine
 10
4923.352428
 20
1087.67606
 30
0.0
 11
4925.852428
 21
1087.67606
 31
0.0
  0
CIRCLE
  5
C1
100
AcDbEntity
  8
AM_3
100
AcDbCircle
 10
4903.352428
 20
1072.67606
 30
0.0
 40
6.5
  0
CIRCLE
  5
C2
100
AcDbEntity
  8
AM_3
100
AcDbCircle
 10
4903.352428
 20
1315.17606
 30
0.0
 40
130.0
  0
CIRCLE
  5
C3
100
AcDbEntity
  8
AM_7
100
AcDbCircle
 10
4903.352428
 20
1315.17606
 30
0.0
 40
110.0
  0
LINE
  5
C4
100
AcDbEntity
  8
AM_7
100
AcDbLine
 10
4865.849452
 20
1224.635866
 30
0.0
 11
4856.665049
 21
1202.462757
 31
0.0
1001
GENIUS_GENODEF_13
1002
{
1000
HIER
1070
     0
1002
}
1002
{
1000
MANEDIT
1070
     0
1002
}
1002
{
1000
NOSEL
1070
     0
1002
}
1002
{
1000
BEHIND
1070
     0
1002
}
1002
{
1000
REACTOR
1002
}
1001
GENIUS_GENOBJ-N-CEN_13
1002
{
1000
OWNER
1000
GEN
1002
}
  0
CIRCLE
  5
C5
100
AcDbEntity
  8
AM_3
100
AcDbCircle
 10
4861.257251
 20
1213.549311
 30
0.0
 40
6.0
  0
LINE
  5
C6
100
AcDbEntity
  8
AM_7
100
AcDbLine
 10
4812.812234
 20
1277.673084
 30
0.0
 11
4790.639125
 21
1268.488681
 31
0.0
1001
GENIUS_GENODEF_13
1002
{
1000
HIER
1070
     0
1002
}
1002
{
1000
MANEDIT
1070
     0
1002
}
1002
{
1000
NOSEL
1070
     0
1002
}
1002
{
1000
BEHIND
1070
     0
1002
}
1002
{
1000
REACTOR
1002
}
1001
GENIUS_GENOBJ-N-CEN_13
1002
{
1000
OWNER
1000
GEN
1002
}
  0
CIRCLE
  5
C7
100
AcDbEntity
  8
AM_3
100
AcDbCircle
 10
4801.72568
 20
1273.080883
 30
0.0
 40
6.0
  0
LINE
  5
C8
100
AcDbEntity
  8
AM_3
100
AcDbLine
 10
4711.233241
 20
1324.42606
 30
0.0
 11
4718.352428
 21
1324.42606
 31
0.0
  0
LINE
  5
C9
100
AcDbEntity
  8
AM_3
100
AcDbLine
 10
4711.233241
 20
1305.92606
 30
0.0
 11
4718.352428
 21
1305.92606
 31
0.0
  0
ELLIPSE
  5
CA
100
AcDbEntity
  8
AM_3
100
AcDbEllipse
 10
4718.352428
 20
1315.17606
 30
0.0
 11
0.0
 21
-9.25
 31
0.0
210
0.0
220
0.0
230
1.0
 40
0.790188
 41
0.0
 42
6.283185307179586
  0
ELLIPSE
  5
CB
100
AcDbEntity
  8
AM_3
100
AcDbEllipse
 10
4711.233241
 20
1315.17606
 30
0.0
 11
0.0
 21
-9.25
 31
0.0
210
0.0
220
0.0
230
1.0
 40
0.790188
 41
3.141592653589793
 42
6.283185307179586
  0
LINE
  5
CC
100
AcDbEntity
  8
AM_3
100
AcDbLine
 10
4718.496712
 20
1444.996568
 30
0.0
 11
4698.496712
 21
1410.355552
 31
0.0
  0
LINE
  5
CD
100
AcDbEntity
  8
AM_3
100
AcDbLine
 10
4700.661776
 20
1409.105552
 30
0.0
 11
4720.661776
 21
1443.746568
 31
0.0
  0
LINE
  5
CE
100
AcDbEntity
  8
AM_7
100
AcDbLine
 10
4723.652157
 20
1418.92606
 30
0.0
 11
4663.030379
 21
1453.92606
 31
0.0
1001
GENIUS_GENODEF_13
1002
{
1000
HIER
1070
     0
1002
}
1002
{
1000
MANEDIT
1070
     0
1002
}
1002
{
1000
NOSEL
1070
     0
1002
}
1002
{
1000
BEHIND
1070
     0
1002
}
1002
{
1000
REACTOR
1002
}
1001
GENIUS_GENOBJ-N-CEN_13
1002
{
1000
OWNER
1000
GEN
1002
}
  0
ARC
  5
CF
100
AcDbEntity
  8
AM_3
100
AcDbCircle
 10
4696.331649
 20
1411.605552
 30
0.0
 40
2.5
100
AcDbArc
 50
240.0
 51
330.0
1001
GENIUS_GENODEF_13
1002
{
1000
HIER
1070
     0
1002
}
1002
{
1000
MANEDIT
1070
     0
1002
}
1002
{
1000
NOSEL
1070
     0
1002
}
1002
{
1000
BEHIND
1070
     0
1002
}
1002
{
1000
REACTOR
1002
}
1001
GENIUS_GENOBJ-N-FIL_13
1002
{
1000
OWNER
1000
GEN
1002
}
  0
ARC
  5
D0
100
AcDbEntity
  8
AM_3
100
AcDbCircle
 10
4696.331649
 20
1411.605552
 30
0.0
 40
5.0
100
AcDbArc
 50
240.0
 51
330.0
1001
GENIUS_GENODEF_13
1002
{
1000
HIER
1070
     0
1002
}
1002
{
1000
MANEDIT
1070
     0
1002
}
1002
{
1000
NOSEL
1070
     0
1002
}
1002
{
1000
BEHIND
1070
     0
1002
}
1002
{
1000
REACTOR
1002
}
1001
GENIUS_GENOBJ-N-FIL_13
1002
{
1000
OWNER
1000
GEN
1002
}
  0
LINE
  5
D1
100
AcDbEntity
  8
AM_3
100
AcDbLine
 10
4695.081649
 20
1409.440488
 30
0.0
 11
4664.77076
 21
1426.940488
 31
0.0
  0
LINE
  5
D2
100
AcDbEntity
  8
AM_3
100
AcDbLine
 10
4663.52076
 20
1424.775425
 30
0.0
 11
4693.831649
 21
1407.275425
 31
0.0
  0
LINE
  5
D3
100
AcDbEntity
  8
AM_3
100
AcDbLine
 10
4698.496712
 20
1410.355552
 30
0.0
 11
4696.331649
 21
1411.605552
 31
0.0
  0
LINE
  5
D4
100
AcDbEntity
  8
AM_3
100
AcDbLine
 10
4696.331649
 20
1411.605552
 30
0.0
 11
4695.081649
 21
1409.440488
 31
0.0
  0
CIRCLE
  5
D5
100
AcDbEntity
  8
AM_3
100
AcDbCircle
 10
4693.341268
 20
1436.42606
 30
0.0
 40
6.5
  0
ARC
  5
D6
100
AcDbEntity
  8
AM_3
100
AcDbCircle
 10
4716.331649
 20
1446.246568
 30
0.0
 40
2.5
100
AcDbArc
 50
330.0
 51
60.0
1001
GENIUS_GENODEF_13
1002
{
1000
HIER
1070
     0
1002
}
1002
{
1000
MANEDIT
1070
     0
1002
}
1002
{
1000
NOSEL
1070
     0
1002
}
1002
{
1000
BEHIND
1070
     0
1002
}
1002
{
1000
REACTOR
1002
}
1001
GENIUS_GENOBJ-N-FIL_13
1002
{
1000
OWNER
1000
GEN
1002
}
  0
ARC
  5
D7
100
AcDbEntity
  8
AM_3
100
AcDbCircle
 10
4716.331649
 20
1446.246568
 30
0.0
 40
5.0
100
AcDbArc
 50
330.0
 51
60.0
1001
GENIUS_GENODEF_13
1002
{
1000
HIER
1070
     0
1002
}
1002
{
1000
MANEDIT
1070
     0
1002
}
1002
{
1000
NOSEL
1070
     0
1002
}
1002
{
1000
BEHIND
1070
     0
1002
}
1002
{
1000
REACTOR
1002
}
1001
GENIUS_GENOBJ-N-FIL_13
1002
{
1000
OWNER
1000
GEN
1002
}
  0
LINE
  5
D8
100
AcDbEntity
  8
AM_3
100
AcDbLine
 10
4716.331649
 20
1446.246568
 30
0.0
 11
4718.496712
 21
1444.996568
 31
0.0
  0
LINE
  5
D9
100
AcDbEntity
  8
AM_3
100
AcDbLine
 10
4717.581649
 20
1448.411632
 30
0.0
 11
4716.331649
 21
1446.246568
 31
0.0
  0
LINE
  5
DA
100
AcDbEntity
  8
AM_7
100
AcDbLine
 10
4812.812234
 20
1352.679036
 30
0.0
 11
4790.639125
 21
1361.863439
 31
0.0
1001
GENIUS_GENODEF_13
1002
{
1000
HIER
1070
     0
1002
}
1002
{
1000
MANEDIT
1070
     0
1002
}
1002
{
1000
NOSEL
1070
     0
1002
}
1002
{
1000
BEHIND
1070
     0
1002
}
1002
{
1000
REACTOR
1002
}
1001
GENIUS_GENOBJ-N-CEN_13
1002
{
1000
OWNER
1000
GEN
1002
}
  0
CIRCLE
  5
DB
100
AcDbEntity
  8
AM_3
100
AcDbCircle
 10
4801.72568
 20
1357.271238
 30
0.0
 40
6.0
  0
CIRCLE
  5
DC
100
AcDbEntity
  8
AM_3
100
AcDbCircle
 10
4861.257251
 20
1416.802809
 30
0.0
 40
6.0
  0
LINE
  5
DD
100
AcDbEntity
  8
AM_7
100
AcDbLine
 10
4865.849452
 20
1405.716254
 30
0.0
 11
4856.665049
 21
1427.889363
 31
0.0
1001
GENIUS_GENODEF_13
1002
{
1000
HIER
1070
     0
1002
}
1002
{
1000
MANEDIT
1070
     0
1002
}
1002
{
1000
NOSEL
1070
     0
1002
}
1002
{
1000
BEHIND
1070
     0
1002
}
1002
{
1000
REACTOR
1002
}
1001
GENIUS_GENOBJ-N-CEN_13
1002
{
1000
OWNER
1000
GEN
1002
}
  0
CIRCLE
  5
DE
100
AcDbEntity
  8
AM_3
100
AcDbCircle
 10
4903.352428
 20
1306.67606
 30
0.0
 40
5.0
  0
CIRCLE
  5
DF
100
AcDbEntity
  8
AM_3
100
AcDbCircle
 10
4903.352428
 20
1315.17606
 30
0.0
 40
16.2
  0
CIRCLE
  5
E0
100
AcDbEntity
  8
AM_3
100
AcDbCircle
 10
4903.352428
 20
1315.17606
 30
0.0
 40
11.75
  0
LINE
  5
E1
100
AcDbEntity
  8
AM_7
100
AcDbLine
 10
4993.892622
 20
1277.673084
 30
0.0
 11
5016.065731
 21
1268.488681
 31
0.0
1001
GENIUS_GENODEF_13
1002
{
1000
HIER
1070
     0
1002
}
1002
{
1000
MANEDIT
1070
     0
1002
}
1002
{
1000
NOSEL
1070
     0
1002
}
1002
{
1000
BEHIND
1070
     0
1002
}
1002
{
1000
REACTOR
1002
}
1001
GENIUS_GENOBJ-N-CEN_13
1002
{
1000
OWNER
1000
GEN
1002
}
  0
CIRCLE
  5
E2
100
AcDbEntity
  8
AM_3
100
AcDbCircle
 10
5004.979177
 20
1273.080883
 30
0.0
 40
6.0
  0
LINE
  5
E3
100
AcDbEntity
  8
AM_7
100
AcDbLine
 10
4940.855405
 20
1224.635866
 30
0.0
 11
4950.039807
 21
1202.462757
 31
0.0
1001
GENIUS_GENODEF_13
1002
{
1000
HIER
1070
     0
1002
}
1002
{
1000
MANEDIT
1070
     0
1002
}
1002
{
1000
NOSEL
1070
     0
1002
}
1002
{
1000
BEHIND
1070
     0
1002
}
1002
{
1000
REACTOR
1002
}
1001
GENIUS_GENOBJ-N-CEN_13
1002
{
1000
OWNER
1000
GEN
1002
}
  0
CIRCLE
  5
E4
100
AcDbEntity
  8
AM_3
100
AcDbCircle
 10
4945.447606
 20
1213.549311
 30
0.0
 40
6.0
  0
LINE
  5
E5
100
AcDbEntity
  8
AM_7
100
AcDbLine
 10
4993.892622
 20
1352.679036
 30
0.0
 11
5016.065731
 21
1361.863439
 31
0.0
1001
GENIUS_GENODEF_13
1002
{
1000
HIER
1070
     0
1002
}
1002
{
1000
MANEDIT
1070
     0
1002
}
1002
{
1000
NOSEL
1070
     0
1002
}
1002
{
1000
BEHIND
1070
     0
1002
}
1002
{
1000
REACTOR
1002
}
1001
GENIUS_GENOBJ-N-CEN_13
1002
{
1000
OWNER
1000
GEN
1002
}
  0
CIRCLE
  5
E6
100
AcDbEntity
  8
AM_3
100
AcDbCircle
 10
5004.979177
 20
1357.271238
 30
0.0
 40
6.0
  0
CIRCLE
  5
E7
100
AcDbEntity
  8
AM_3
100
AcDbCircle
 10
4903.352428
 20
1323.67606
 30
0.0
 40
5.0
  0
CIRCLE
  5
E8
100
AcDbEntity
  8
AM_3
100
AcDbCircle
 10
4894.852428
 20
1315.17606
 30
0.0
 40
5.0
  0
CIRCLE
  5
E9
100
AcDbEntity
  8
AM_3
100
AcDbCircle
 10
4911.852428
 20
1315.17606
 30
0.0
 40
5.0
  0
CIRCLE
  5
EA
100
AcDbEntity
  8
AM_3
100
AcDbCircle
 10
4945.447606
 20
1416.802809
 30
0.0
 40
6.0
  0
LINE
  5
EB
100
AcDbEntity
  8
AM_7
100
AcDbLine
 10
4940.855405
 20
1405.716254
 30
0.0
 11
4950.039807
 21
1427.889363
 31
0.0
1001
GENIUS_GENODEF_13
1002
{
1000
HIER
1070
     0
1002
}
1002
{
1000
MANEDIT
1070
     0
1002
}
1002
{
1000
NOSEL
1070
     0
1002
}
1002
{
1000
BEHIND
1070
     0
1002
}
1002
{
1000
REACTOR
1002
}
1001
GENIUS_GENOBJ-N-CEN_13
1002
{
1000
OWNER
1000
GEN
1002
}
  0
ARC
  5
EC
100
AcDbEntity
  8
AM_3
100
AcDbCircle
 10
5110.373208
 20
1411.605552
 30
0.0
 40
2.5
100
AcDbArc
 50
210.0
 51
300.0
1001
GENIUS_GENODEF_13
1002
{
1000
HIER
1070
     0
1002
}
1002
{
1000
MANEDIT
1070
     0
1002
}
1002
{
1000
NOSEL
1070
     0
1002
}
1002
{
1000
BEHIND
1070
     0
1002
}
1002
{
1000
REACTOR
1002
}
1001
GENIUS_GENOBJ-N-FIL_13
1002
{
1000
OWNER
1000
GEN
1002
}
  0
ARC
  5
ED
100
AcDbEntity
  8
AM_3
100
AcDbCircle
 10
5110.373208
 20
1411.605552
 30
0.0
 40
5.0
100
AcDbArc
 50
210.0
 51
300.0
1001
GENIUS_GENODEF_13
1002
{
1000
HIER
1070
     0
1002
}
1002
{
1000
MANEDIT
1070
     0
1002
}
1002
{
1000
NOSEL
1070
     0
1002
}
1002
{
1000
BEHIND
1070
     0
1002
}
1002
{
1000
REACTOR
1002
}
1001
GENIUS_GENOBJ-N-FIL_13
1002
{
1000
OWNER
1000
GEN
1002
}
  0
LINE
  5
EE
100
AcDbEntity
  8
AM_3
100
AcDbLine
 10
5110.373208
 20
1411.605552
 30
0.0
 11
5108.208144
 21
1410.355552
 31
0.0
  0
LINE
  5
EF
100
AcDbEntity
  8
AM_3
100
AcDbLine
 10
5111.623208
 20
1409.440488
 30
0.0
 11
5110.373208
 21
1411.605552
 31
0.0
  0
ARC
  5
F0
100
AcDbEntity
  8
AM_3
100
AcDbCircle
 10
5090.373208
 20
1446.246568
 30
0.0
 40
2.5
100
AcDbArc
 50
120.0
 51
210.0
1001
GENIUS_GENODEF_13
1002
{
1000
HIER
1070
     0
1002
}
1002
{
1000
MANEDIT
1070
     0
1002
}
1002
{
1000
NOSEL
1070
     0
1002
}
1002
{
1000
BEHIND
1070
     0
1002
}
1002
{
1000
REACTOR
1002
}
1001
GENIUS_GENOBJ-N-FIL_13
1002
{
1000
OWNER
1000
GEN
1002
}
  0
ARC
  5
F1
100
AcDbEntity
  8
AM_3
100
AcDbCircle
 10
5090.373208
 20
1446.246568
 30
0.0
 40
5.0
100
AcDbArc
 50
120.0
 51
210.0
1001
GENIUS_GENODEF_13
1002
{
1000
HIER
1070
     0
1002
}
1002
{
1000
MANEDIT
1070
     0
1002
}
1002
{
1000
NOSEL
1070
     0
1002
}
1002
{
1000
BEHIND
1070
     0
1002
}
1002
{
1000
REACTOR
1002
}
1001
GENIUS_GENOBJ-N-FIL_13
1002
{
1000
OWNER
1000
GEN
1002
}
  0
LINE
  5
F2
100
AcDbEntity
  8
AM_3
100
AcDbLine
 10
5088.208144
 20
1444.996568
 30
0.0
 11
5090.373208
 21
1446.246568
 31
0.0
  0
LINE
  5
F3
100
AcDbEntity
  8
AM_3
100
AcDbLine
 10
5090.373208
 20
1446.246568
 30
0.0
 11
5089.123208
 21
1448.411632
 31
0.0
  0
LINE
  5
F4
100
AcDbEntity
  8
AM_3
100
AcDbLine
 10
5108.208144
 20
1410.355552
 30
0.0
 11
5088.208144
 21
1444.996568
 31
0.0
  0
LINE
  5
F5
100
AcDbEntity
  8
AM_3
100
AcDbLine
 10
5086.043081
 20
1443.746568
 30
0.0
 11
5106.043081
 21
1409.105552
 31
0.0
  0
LINE
  5
F6
100
AcDbEntity
  8
AM_0
100
AcDbLine
 10
5143.184097
 20
1845.249859
 30
0.0
 11
5086.043081
 21
1845.249859
 31
0.0
  0
ARC
  5
F7
100
AcDbEntity
  8
AM_4
100
AcDbCircle
 10
4903.352428
 20
1540.17606
 30
0.0
 40
8.331
100
AcDbArc
 50
10.0
 51
300.0
  0
CIRCLE
  5
F8
100
AcDbEntity
  8
AM_0
100
AcDbCircle
 10
4903.352428
 20
1540.17606
 30
0.0
 40
10.65
  0
CIRCLE
  5
F9
100
AcDbEntity
  8
AM_0
100
AcDbCircle
 10
4903.352428
 20
1540.17606
 30
0.0
 40
7.474885
  0
LINE
  5
FA
100
AcDbEntity
  8
AM_7
100
AcDbLine
 10
4919.683428
 20
1540.17606
 30
0.0
 11
4887.021428
 21
1540.17606
 31
0.0
  0
LINE
  5
FB
100
AcDbEntity
  8
AM_0
100
AcDbLine
 10
4883.352428
 20
2093.307099
 30
0.0
 11
4923.352428
 21
2093.307099
 31
0.0
  0
LINE
  5
FC
100
AcDbEntity
  8
AM_4
100
AcDbLine
 10
4698.161776
 20
1854.924575
 30
0.0
 11
4698.161776
 21
2083.34964
 31
0.0
  0
LINE
  5
FD
100
AcDbEntity
  8
AM_0
100
AcDbLine
 10
4663.52076
 20
2102.1056
 30
0.0
 11
4663.52076
 21
1845.249859
 31
0.0
  0
LINE
  5
FE
100
AcDbEntity
  8
AM_0
100
AcDbLine
 10
4721.331649
 20
1850.249859
 30
0.0
 11
4721.331649
 21
2057.611539
 31
0.0
  0
LINE
  5
FF
100
AcDbEntity
  8
AM_0
100
AcDbLine
 10
4663.52076
 20
1845.249859
 30
0.0
 11
4720.661776
 21
1845.249859
 31
0.0
  0
LINE
  5
100
100
AcDbEntity
  8
AM_0
100
AcDbLine
 10
4693.831649
 20
1845.249859
 30
0.0
 11
4693.831649
 21
1850.249859
 31
0.0
  0
LINE
  5
101
100
AcDbEntity
  8
AM_0
100
AcDbLine
 10
4693.831649
 20
1850.249859
 30
0.0
 11
4700.661776
 21
1850.249859
 31
0.0
  0
LINE
  5
102
100
AcDbEntity
  8
AM_0
100
AcDbLine
 10
4700.661776
 20
1850.249859
 30
0.0
 11
4700.661776
 21
1845.249859
 31
0.0
  0
LINE
  5
103
100
AcDbEntity
  8
AM_0
100
AcDbLine
 10
4693.831649
 20
1847.749859
 30
0.0
 11
4700.661776
 21
1847.749859
 31
0.0
  0
LINE
  5
104
100
AcDbEntity
  8
AM_7
100
AcDbLine
 10
4693.341268
 20
1830.249859
 30
0.0
 11
4693.341268
 21
1862.407597
 31
0.0
1001
GENIUS_GENODEF_13
1002
{
1000
HIER
1070
     0
1002
}
1002
{
1000
MANEDIT
1070
     0
1002
}
1002
{
1000
NOSEL
1070
     0
1002
}
1002
{
1000
BEHIND
1070
     0
1002
}
1002
{
1000
REACTOR
1002
}
1001
GENIUS_GENOBJ-N-CEN_13
1002
{
1000
OWNER
1000
GEN
1002
}
  0
LINE
  5
105
100
AcDbEntity
  8
AM_0
100
AcDbLine
 10
4720.661776
 20
1845.249859
 30
0.0
 11
4720.661776
 21
1850.249859
 31
0.0
  0
LINE
  5
106
100
AcDbEntity
  8
AM_0
100
AcDbLine
 10
4720.661776
 20
1850.249859
 30
0.0
 11
4721.331649
 21
1850.249859
 31
0.0
  0
ARC
  5
107
100
AcDbEntity
  8
AM_0
100
AcDbCircle
 10
4783.352428
 20
2046.741
 30
0.0
 40
10.0
100
AcDbArc
 50
180.0
 51
270.0
1001
GENIUS_GENODEF_13
1002
{
1000
HIER
1070
     0
1002
}
1002
{
1000
MANEDIT
1070
     0
1002
}
1002
{
1000
NOSEL
1070
     0
1002
}
1002
{
1000
BEHIND
1070
     0
1002
}
1002
{
1000
REACTOR
1002
}
1001
GENIUS_GENOBJ-N-FIL_13
1002
{
1000
OWNER
1000
GEN
1002
}
  0
LINE
  5
108
100
AcDbEntity
  8
AM_7
100
AcDbLine
 10
4719.143449
 20
2075.917562
 30
0.0
 11
4711.233241
 21
2057.548332
 31
0.0
  0
LINE
  5
109
100
AcDbEntity
  8
AM_0
100
AcDbLine
 10
4720.915541
 20
2056.645245
 30
0.0
 11
4703.924003
 21
2063.962188
 31
0.0
1001
GENIUS_GENOREF_13
1005
5AF
  0
LINE
  5
10B
100
AcDbEntity
  8
AM_0
100
AcDbLine
 10
4709.856659
 20
2077.73911
 30
0.0
 11
4726.848197
 21
2070.422167
 31
0.0
  0
LINE
  5
10C
100
AcDbEntity
  8
AM_0
100
AcDbLine
 10
4703.924003
 20
2063.962188
 30
0.0
 11
4709.856659
 21
2077.73911
 31
0.0
  0
LINE
  5
10D
100
AcDbEntity
  8
AM_0
100
AcDbLine
 10
4726.848197
 20
2070.422167
 30
0.0
 11
4720.915541
 21
2056.645245
 31
0.0
  0
LINE
  5
10E
100
AcDbEntity
  8
AM_7
100
AcDbLine
 10
4793.352428
 20
2020.309775
 30
0.0
 11
4793.352428
 21
2041.741
 31
0.0
1001
GENIUS_GENODEF_13
1002
{
1000
HIER
1070
     0
1002
}
1002
{
1000
MANEDIT
1070
     0
1002
}
1002
{
1000
NOSEL
1070
     0
1002
}
1002
{
1000
BEHIND
1070
     0
1002
}
1002
{
1000
REACTOR
1002
}
1001
GENIUS_GENOBJ-N-CEN_13
1002
{
1000
OWNER
1000
GEN
1002
}
  0
LINE
  5
10F
100
AcDbEntity
  8
AM_0
100
AcDbLine
 10
4803.352428
 20
2023.441
 30
0.0
 11
4803.352428
 21
2025.441
 31
0.0
  0
LINE
  5
110
100
AcDbEntity
  8
AM_0
100
AcDbLine
 10
4783.352428
 20
2025.441
 30
0.0
 11
4783.352428
 21
2023.441
 31
0.0
  0
LINE
  5
111
100
AcDbEntity
  8
AM_0
100
AcDbLine
 10
4802.592428
 20
2017.756914
 30
0.0
 11
4802.592428
 21
2022.841
 31
0.0
  0
LINE
  5
112
100
AcDbEntity
  8
AM_0
100
AcDbLine
 10
4801.352428
 20
2017.041
 30
0.0
 11
4785.352428
 21
2017.041
 31
0.0
  0
LINE
  5
113
100
AcDbEntity
  8
AM_0
100
AcDbLine
 10
4784.112428
 20
2022.841
 30
0.0
 11
4802.592428
 21
2022.841
 31
0.0
  0
LINE
  5
114
100
AcDbEntity
  8
AM_0
100
AcDbLine
 10
4784.112428
 20
2017.756914
 30
0.0
 11
4785.352428
 21
2017.041
 31
0.0
  0
LINE
  5
115
100
AcDbEntity
  8
AM_0
100
AcDbLine
 10
4784.112428
 20
2017.756914
 30
0.0
 11
4784.112428
 21
2022.841
 31
0.0
  0
LINE
  5
116
100
AcDbEntity
  8
AM_0
100
AcDbLine
 10
4800.667428
 20
2022.841
 30
0.0
 11
4800.667428
 21
2023.441
 31
0.0
  0
LINE
  5
117
100
AcDbEntity
  8
AM_0
100
AcDbLine
 10
4786.037428
 20
2022.841
 30
0.0
 11
4786.037428
 21
2023.441
 31
0.0
  0
ARC
  5
118
100
AcDbEntity
  8
AM_0
100
AcDbCircle
 10
4793.352428
 20
2032.313779
 30
0.0
 40
15.272779
100
AcDbArc
 50
252.387526
 51
287.612474
  0
LINE
  5
119
100
AcDbEntity
  8
AM_0
100
AcDbLine
 10
4788.73123
 20
2017.756914
 30
0.0
 11
4788.73123
 21
2022.841
 31
0.0
  0
ARC
  5
11A
100
AcDbEntity
  8
AM_0
100
AcDbCircle
 10
4786.421829
 20
2021.123798
 30
0.0
 40
4.082798
100
AcDbArc
 50
244.446872
 51
304.446872
  0
LINE
  5
11B
100
AcDbEntity
  8
AM_0
100
AcDbLine
 10
4797.973626
 20
2017.756914
 30
0.0
 11
4797.973626
 21
2022.841
 31
0.0
  0
LINE
  5
11C
100
AcDbEntity
  8
AM_0
100
AcDbLine
 10
4783.352428
 20
2023.441
 30
0.0
 11
4803.352428
 21
2023.441
 31
0.0
  0
ARC
  5
11D
100
AcDbEntity
  8
AM_0
100
AcDbCircle
 10
4800.283027
 20
2021.123798
 30
0.0
 40
4.082798
100
AcDbArc
 50
235.553128
 51
295.553128
  0
LINE
  5
11E
100
AcDbEntity
  8
AM_0
100
AcDbLine
 10
4802.592428
 20
2017.756914
 30
0.0
 11
4801.352428
 21
2017.041
 31
0.0
  0
LINE
  5
11F
100
AcDbEntity
  8
AM_0
100
AcDbLine
 10
4878.352428
 20
2025.441
 30
0.0
 11
4773.352428
 21
2025.441
 31
0.0
  0
LINE
  5
120
100
AcDbEntity
  8
AM_0
100
AcDbLine
 10
4773.352428
 20
2031.441
 30
0.0
 11
4878.352428
 21
2031.441
 31
0.0
  0
LINE
  5
121
100
AcDbEntity
  8
AM_0
100
AcDbLine
 10
4878.352428
 20
2036.741
 30
0.0
 11
4783.352428
 21
2036.741
 31
0.0
  0
LINE
  5
122
100
AcDbEntity
  8
AM_0
100
AcDbLine
 10
4878.352428
 20
2035.941
 30
0.0
 11
4802.352428
 21
2035.941
 31
0.0
  0
LINE
  5
123
100
AcDbEntity
  8
AM_0
100
AcDbLine
 10
4773.352428
 20
2049.741
 30
0.0
 11
4880.852428
 21
2049.741
 31
0.0
  0
LINE
  5
124
100
AcDbEntity
  8
AM_0
100
AcDbLine
 10
4816.952428
 20
2036.741
 30
0.0
 11
4816.952428
 21
2035.941
 31
0.0
  0
LINE
  5
125
100
AcDbEntity
  8
AM_0
100
AcDbLine
 10
4773.352428
 20
2025.441
 30
0.0
 11
4773.352428
 21
2031.441
 31
0.0
  0
LINE
  5
126
100
AcDbEntity
  8
AM_0
100
AcDbLine
 10
4802.352428
 20
2035.941
 30
0.0
 11
4802.352428
 21
2031.441
 31
0.0
  0
LINE
  5
127
100
AcDbEntity
  8
AM_0
100
AcDbLine
 10
4773.352428
 20
2049.741
 30
0.0
 11
4773.352428
 21
2046.741
 31
0.0
  0
LINE
  5
128
100
AcDbEntity
  8
AM_0
100
AcDbLine
 10
4798.352428
 20
2031.441
 30
0.0
 11
4798.352428
 21
2036.741
 31
0.0
  0
LINE
  5
129
100
AcDbEntity
  8
AM_4
100
AcDbLine
 10
4797.432278
 20
2031.441
 30
0.0
 11
4797.432278
 21
2036.741
 31
0.0
  0
LINE
  5
12A
100
AcDbEntity
  8
AM_4
100
AcDbLine
 10
4789.272578
 20
2031.441
 30
0.0
 11
4789.272578
 21
2036.741
 31
0.0
  0
LINE
  5
12B
100
AcDbEntity
  8
AM_0
100
AcDbLine
 10
4788.352428
 20
2031.441
 30
0.0
 11
4788.352428
 21
2036.741
 31
0.0
  0
ELLIPSE
  5
12C
100
AcDbEntity
  8
AM_0
100
AcDbEllipse
 10
4883.352428
 20
2094.36434
 30
0.0
 11
-2.5
 21
0.0
 31
0.0
210
0.0
220
0.0
230
1.0
 40
0.422896
 41
0.0
 42
1.570796326794896
  0
LINE
  5
12D
100
AcDbEntity
  8
AM_4
100
AcDbLine
 10
5108.543081
 20
1854.924575
 30
0.0
 11
5108.543081
 21
2083.34964
 31
0.0
  0
LINE
  5
12E
100
AcDbEntity
  8
AM_0
100
AcDbLine
 10
5085.373208
 20
1850.249859
 30
0.0
 11
5085.373208
 21
2072.809928
 31
0.0
  0
LINE
  5
12F
100
AcDbEntity
  8
AM_0
100
AcDbLine
 10
5112.873208
 20
1845.249859
 30
0.0
 11
5112.873208
 21
1850.249859
 31
0.0
  0
LINE
  5
130
100
AcDbEntity
  8
AM_0
100
AcDbLine
 10
5112.873208
 20
1850.249859
 30
0.0
 11
5106.043081
 21
1850.249859
 31
0.0
  0
LINE
  5
131
100
AcDbEntity
  8
AM_0
100
AcDbLine
 10
5106.043081
 20
1850.249859
 30
0.0
 11
5106.043081
 21
1845.249859
 31
0.0
  0
LINE
  5
132
100
AcDbEntity
  8
AM_0
100
AcDbLine
 10
5112.873208
 20
1847.749859
 30
0.0
 11
5106.043081
 21
1847.749859
 31
0.0
  0
LINE
  5
133
100
AcDbEntity
  8
AM_7
100
AcDbLine
 10
5113.363589
 20
1830.249859
 30
0.0
 11
5113.363589
 21
1862.407597
 31
0.0
1001
GENIUS_GENODEF_13
1002
{
1000
HIER
1070
     0
1002
}
1002
{
1000
MANEDIT
1070
     0
1002
}
1002
{
1000
NOSEL
1070
     0
1002
}
1002
{
1000
BEHIND
1070
     0
1002
}
1002
{
1000
REACTOR
1002
}
1001
GENIUS_GENOBJ-N-CEN_13
1002
{
1000
OWNER
1000
GEN
1002
}
  0
LINE
  5
134
100
AcDbEntity
  8
AM_0
100
AcDbLine
 10
5086.043081
 20
1845.249859
 30
0.0
 11
5086.043081
 21
1850.249859
 31
0.0
  0
LINE
  5
135
100
AcDbEntity
  8
AM_0
100
AcDbLine
 10
5086.043081
 20
1850.249859
 30
0.0
 11
5085.373208
 21
1850.249859
 31
0.0
  0
LINE
  5
136
100
AcDbEntity
  8
AM_0
100
AcDbLine
 10
4928.352428
 20
2031.441
 30
0.0
 11
5033.352428
 21
2031.441
 31
0.0
  0
LINE
  5
137
100
AcDbEntity
  8
AM_0
100
AcDbLine
 10
5033.352428
 20
2025.441
 30
0.0
 11
4928.352428
 21
2025.441
 31
0.0
  0
LINE
  5
138
100
AcDbEntity
  8
AM_0
100
AcDbLine
 10
4928.352428
 20
2049.741
 30
0.0
 11
5033.352428
 21
2049.741
 31
0.0
  0
LINE
  5
139
100
AcDbEntity
  8
AM_0
100
AcDbLine
 10
5023.352428
 20
2036.741
 30
0.0
 11
4928.352428
 21
2036.741
 31
0.0
  0
LINE
  5
13A
100
AcDbEntity
  8
AM_0
100
AcDbLine
 10
5004.352428
 20
2035.941
 30
0.0
 11
4928.352428
 21
2035.941
 31
0.0
  0
ELLIPSE
  5
13B
100
AcDbEntity
  8
AM_0
100
AcDbEllipse
 10
4923.352428
 20
2094.36434
 30
0.0
 11
2.5
 21
0.0
 31
0.0
210
0.0
220
0.0
230
1.0
 40
0.422896
 41
4.712388980384689
 42
6.283185307179586
  0
LINE
  5
13C
100
AcDbEntity
  8
AM_0
100
AcDbLine
 10
4989.752428
 20
2036.741
 30
0.0
 11
4989.752428
 21
2035.941
 31
0.0
  0
LINE
  5
13D
100
AcDbEntity
  8
AM_7
100
AcDbLine
 10
5013.352428
 20
2020.309775
 30
0.0
 11
5013.352428
 21
2041.741
 31
0.0
1001
GENIUS_GENODEF_13
1002
{
1000
HIER
1070
     0
1002
}
1002
{
1000
MANEDIT
1070
     0
1002
}
1002
{
1000
NOSEL
1070
     0
1002
}
1002
{
1000
BEHIND
1070
     0
1002
}
1002
{
1000
REACTOR
1002
}
1001
GENIUS_GENOBJ-N-CEN_13
1002
{
1000
OWNER
1000
GEN
1002
}
  0
LINE
  5
13E
100
AcDbEntity
  8
AM_0
100
AcDbLine
 10
5023.352428
 20
2023.441
 30
0.0
 11
5023.352428
 21
2025.441
 31
0.0
  0
LINE
  5
13F
100
AcDbEntity
  8
AM_0
100
AcDbLine
 10
5003.352428
 20
2025.441
 30
0.0
 11
5003.352428
 21
2023.441
 31
0.0
  0
LINE
  5
140
100
AcDbEntity
  8
AM_0
100
AcDbLine
 10
5021.352428
 20
2017.041
 30
0.0
 11
5005.352428
 21
2017.041
 31
0.0
  0
ARC
  5
141
100
AcDbEntity
  8
AM_0
100
AcDbCircle
 10
5020.283027
 20
2021.123798
 30
0.0
 40
4.082798
100
AcDbArc
 50
235.553128
 51
295.553128
  0
LINE
  5
142
100
AcDbEntity
  8
AM_0
100
AcDbLine
 10
5006.037428
 20
2022.841
 30
0.0
 11
5006.037428
 21
2023.441
 31
0.0
  0
ARC
  5
143
100
AcDbEntity
  8
AM_0
100
AcDbCircle
 10
5013.352428
 20
2032.313779
 30
0.0
 40
15.272779
100
AcDbArc
 50
252.387526
 51
287.612474
  0
LINE
  5
144
100
AcDbEntity
  8
AM_0
100
AcDbLine
 10
5008.73123
 20
2017.756914
 30
0.0
 11
5008.73123
 21
2022.841
 31
0.0
  0
ARC
  5
145
100
AcDbEntity
  8
AM_0
100
AcDbCircle
 10
5006.421829
 20
2021.123798
 30
0.0
 40
4.082798
100
AcDbArc
 50
244.446872
 51
304.446872
  0
LINE
  5
146
100
AcDbEntity
  8
AM_0
100
AcDbLine
 10
5017.973626
 20
2017.756914
 30
0.0
 11
5017.973626
 21
2022.841
 31
0.0
  0
LINE
  5
147
100
AcDbEntity
  8
AM_0
100
AcDbLine
 10
5020.667428
 20
2022.841
 30
0.0
 11
5020.667428
 21
2023.441
 31
0.0
  0
LINE
  5
148
100
AcDbEntity
  8
AM_0
100
AcDbLine
 10
5022.592428
 20
2017.756914
 30
0.0
 11
5022.592428
 21
2022.841
 31
0.0
  0
LINE
  5
149
100
AcDbEntity
  8
AM_0
100
AcDbLine
 10
5022.592428
 20
2017.756914
 30
0.0
 11
5021.352428
 21
2017.041
 31
0.0
  0
LINE
  5
14A
100
AcDbEntity
  8
AM_0
100
AcDbLine
 10
5004.112428
 20
2017.756914
 30
0.0
 11
5004.112428
 21
2022.841
 31
0.0
  0
LINE
  5
14B
100
AcDbEntity
  8
AM_0
100
AcDbLine
 10
5003.352428
 20
2023.441
 30
0.0
 11
5023.352428
 21
2023.441
 31
0.0
  0
LINE
  5
14C
100
AcDbEntity
  8
AM_0
100
AcDbLine
 10
5004.112428
 20
2022.841
 30
0.0
 11
5022.592428
 21
2022.841
 31
0.0
  0
LINE
  5
14D
100
AcDbEntity
  8
AM_0
100
AcDbLine
 10
5004.112428
 20
2017.756914
 30
0.0
 11
5005.352428
 21
2017.041
 31
0.0
  0
LINE
  5
14E
100
AcDbEntity
  8
AM_0
100
AcDbLine
 10
5033.352428
 20
2031.441
 30
0.0
 11
5033.352428
 21
2025.441
 31
0.0
  0
LINE
  5
14F
100
AcDbEntity
  8
AM_0
100
AcDbLine
 10
5004.352428
 20
2035.941
 30
0.0
 11
5004.352428
 21
2031.441
 31
0.0
  0
ARC
  5
150
100
AcDbEntity
  8
AM_0
100
AcDbCircle
 10
5023.352428
 20
2046.741
 30
0.0
 40
10.0
100
AcDbArc
 50
270.0
 51
0.0
1001
GENIUS_GENODEF_13
1002
{
1000
HIER
1070
     0
1002
}
1002
{
1000
MANEDIT
1070
     0
1002
}
1002
{
1000
NOSEL
1070
     0
1002
}
1002
{
1000
BEHIND
1070
     0
1002
}
1002
{
1000
REACTOR
1002
}
1001
GENIUS_GENOBJ-N-FIL_13
1002
{
1000
OWNER
1000
GEN
1002
}
  0
LINE
  5
151
100
AcDbEntity
  8
AM_0
100
AcDbLine
 10
5033.352428
 20
2049.741
 30
0.0
 11
5033.352428
 21
2046.741
 31
0.0
  0
LINE
  5
152
100
AcDbEntity
  8
AM_4
100
AcDbLine
 10
5017.432278
 20
2031.441
 30
0.0
 11
5017.432278
 21
2036.741
 31
0.0
  0
LINE
  5
153
100
AcDbEntity
  8
AM_0
100
AcDbLine
 10
5018.352428
 20
2031.441
 30
0.0
 11
5018.352428
 21
2036.741
 31
0.0
  0
LINE
  5
154
100
AcDbEntity
  8
AM_0
100
AcDbLine
 10
5008.352428
 20
2031.441
 30
0.0
 11
5008.352428
 21
2036.741
 31
0.0
  0
LINE
  5
155
100
AcDbEntity
  8
AM_4
100
AcDbLine
 10
5009.272578
 20
2031.441
 30
0.0
 11
5009.272578
 21
2036.741
 31
0.0
  0
LINE
  5
156
100
AcDbEntity
  8
AM_0
100
AcDbLine
 10
5143.184097
 20
2102.1056
 30
0.0
 11
5143.184097
 21
1845.249859
 31
0.0
  0
TEXT
  5
157
100
AcDbEntity
  8
0
100
AcDbText
 10
6002.865386
 20
1009.968629
 30
0.0
 40
45.0
  1
RF 200l
 72
     1
 11
6101.865386
 21
996.468629
 31
0.0
100
AcDbText
 73
     1
  0
TEXT
  5
158
100
AcDbEntity
  8
0
100
AcDbText
 10
5792.9164
 20
1095.468629
 30
0.0
 40
45.0
  1
reflexomat Folgegefäß
 72
     1
 11
6101.865386
 21
1081.968629
 31
0.0
100
AcDbText
 73
     1
  0
TEXT
  5
159
100
AcDbEntity
  8
0
100
AcDbText
 10
5927.711843
 20
924.468629
 30
0.0
 40
45.0
  1
6 bar - 120°C
 72
     1
 11
6101.865386
 21
910.968629
 31
0.0
100
AcDbText
 73
     1
  0
ARC
  5
15A
100
AcDbEntity
  8
AM_0
100
AcDbCircle
 10
5822.253258
 20
2503.691
 30
0.0
 40
461.0
100
AcDbArc
 50
279.552055
 51
297.242416
  0
ARC
  5
15B
100
AcDbEntity
  8
AM_0
100
AcDbCircle
 10
5822.253258
 20
2503.691
 30
0.0
 40
458.0
100
AcDbArc
 50
279.108059
 51
297.242416
  0
DIMENSION
  5
15C
100
AcDbEntity
  8
AM_5
100
AcDbDimension
  2
*D9
 10
6064.753258
 20
1780.249858
 30
0.0
 11
5882.878258
 21
1802.251334
 31
0.0
  1
%%c485 {}{\C2;%%p2}
  3
AM_DIN
100
AcDbAlignedDimension
 13
5701.003258
 23
1830.249859
 33
0.0
 14
6064.753258
 24
1833.636092
 34
0.0
100
AcDbRotatedDimension
1001
ACAD
1000
DSTYLE
1002
{
1070
    40
1040
5.0
1070
    47
1040
2.0
1070
    48
1040
2.0
1070
    75
1070
     1
1070
   281
1070
     1
1002
}
1001
GENIUS_GENDTOL_13
1000
TolPm
1000
h7
1000
{$3%%p$P}
1040
485.0
  0
DIMENSION
  5
167
100
AcDbEntity
  8
AM_5
100
AcDbDimension
  2
*D8
 10
5772.328025
 20
2000.441
 30
0.0
 11
5761.328025
 21
1922.84543
 31
0.0
  1
<>
  3
AM_DIN
100
AcDbAlignedDimension
 13
5730.823766
 23
1845.249859
 33
0.0
 14
5808.403258
 24
2000.441
 34
0.0
 50
90.0
100
AcDbRotatedDimension
1001
ACAD
1000
DSTYLE
1002
{
1070
    40
1040
5.0
1070
   271
1070
     0
1002
}
1001
GENIUS_GENDTOL_13
1000

1000
h7
1000

1040
0.0
1000
<>
  0
HATCH
  5
174
100
AcDbEntity
  8
AM_8
100
AcDbHatch
 10
0.0
 20
0.0
 30
0.0
210
0.0
220
0.0
230
1.0
  2
ANSI31
 70
     0
 71
     0
 91
        6
 92
        7
 72
     0
 73
     1
 93
        4
 10
5706.253257916082
 20
2025.441000013656
 10
5706.253257916082
 20
2031.441000013655
 10
5692.253257916082
 20
2031.441000013655
 10
5692.253257916082
 20
2025.441000013655
 97
        0
 92
        7
 72
     0
 73
     1
 93
        4
 10
5809.753257916082
 20
2025.441000013663
 10
5809.753257916082
 20
2031.441000013662
 10
5718.253257916082
 20
2031.441000013657
 10
5718.253257916082
 20
2025.441000013656
 97
        0
 92
        7
 72
     0
 73
     1
 93
        4
 10
5813.753257916083
 20
2031.441000013663
 10
5813.753257916083
 20
2025.441000013663
 10
5822.253257916083
 20
2025.441000013664
 10
5822.253257916083
 20
2031.441000013663
 97
        0
 92
        7
 72
     0
 73
     1
 93
        4
 10
5822.253257916083
 20
2025.441000013664
 10
5830.753257916082
 20
2025.441000013664
 10
5830.753257916082
 20
2031.441000013664
 10
5822.253257916083
 20
2031.441000013663
 97
        0
 92
        7
 72
     0
 73
     1
 93
        4
 10
5926.253257916084
 20
2025.44100001367
 10
5926.253257916084
 20
2031.44100001367
 10
5834.753257916083
 20
2031.441000013664
 10
5834.753257916083
 20
2025.441000013664
 97
        0
 92
        7
 72
     0
 73
     1
 93
        4
 10
5952.253257916083
 20
2025.441000013672
 10
5952.253257916083
 20
2031.441000013672
 10
5938.253257916084
 20
2031.441000013671
 10
5938.253257916084
 20
2025.441000013671
 97
        0
 75
     0
 76
     1
 52
-90.0
 41
1.0
 77
     0
 78
     1
 53
315.0
 43
7469.320968
 44
2926.569838
 45
2.245064030267288
 46
2.245064030267287
 79
     0
 47
0.345291
 98
        6
 10
5699.311614
 20
2028.355363
 10
5754.23546
 20
2026.97419
 10
5817.104264
 20
2029.736528
 10
5824.358351
 20
2028.010072
 10
5859.247085
 20
2026.97419
 10
5945.605327
 20
2028.355363
  0
LINE
  5
175
100
AcDbEntity
  8
AM_0
100
AcDbLine
 10
5692.253258
 20
2025.441
 30
0.0
 11
5952.253258
 21
2025.441
 31
0.0
  0
LINE
  5
176
100
AcDbEntity
  8
AM_0
100
AcDbLine
 10
5717.253258
 20
2031.441
 30
0.0
 11
5927.253258
 21
2031.441
 31
0.0
  0
HATCH
  5
177
100
AcDbEntity
  8
AM_8
100
AcDbHatch
 10
0.0
 20
0.0
 30
0.0
210
0.0
220
0.0
230
1.0
  2
ANSI31
 70
     0
 71
     0
 91
        4
 92
        5
 93
        8
 72
     1
 10
5697.253258
 20
2046.741
 11
5697.253258
 21
2049.741
 72
     1
 10
5697.253258
 20
2049.741
 11
5692.253258
 21
2049.741
 72
     1
 10
5692.253258
 20
2049.741
 11
5692.253258
 21
2046.741
 72
     3
 10
5702.253258
 20
2046.741
 11
-7.071068
 21
7.071068
 40
1.0
 50
45.0
 51
135.0
 73
     1
 72
     1
 10
5702.253258
 20
2036.741
 11
5707.253258
 21
2036.741
 72
     1
 10
5707.253258
 20
2036.741
 11
5707.253258
 21
2041.741
 72
     1
 10
5707.253258
 20
2041.741
 11
5702.253258
 21
2041.741
 72
     3
 10
5702.253258
 20
2046.741
 11
3.535534
 21
3.535534
 40
1.0
 50
135.0
 51
225.0
 73
     0
 97
        0
 92
        5
 93
        4
 72
     1
 10
5741.753258
 20
2041.741
 11
5717.253258
 21
2041.741
 72
     1
 10
5717.253258
 20
2041.741
 11
5717.253258
 21
2036.741
 72
     1
 10
5717.253258
 20
2036.741
 11
5741.753258
 21
2036.741
 72
     1
 10
5741.753258
 20
2036.741
 11
5741.753258
 21
2041.741
 97
        0
 92
        5
 93
        4
 72
     1
 10
5927.253258
 20
2041.741
 11
5902.753258
 21
2041.741
 72
     1
 10
5902.753258
 20
2041.741
 11
5902.753258
 21
2036.741
 72
     1
 10
5902.753258
 20
2036.741
 11
5927.253258
 21
2036.741
 72
     1
 10
5927.253258
 20
2036.741
 11
5927.253258
 21
2041.741
 97
        0
 92
        5
 93
        8
 72
     1
 10
5952.253258
 20
2046.741
 11
5952.253258
 21
2049.741
 72
     1
 10
5952.253258
 20
2049.741
 11
5947.253258
 21
2049.741
 72
     1
 10
5947.253258
 20
2049.741
 11
5947.253258
 21
2046.741
 72
     3
 10
5942.253258
 20
2046.741
 11
3.535534
 21
3.535534
 40
1.0
 50
45.0
 51
135.0
 73
     0
 72
     1
 10
5942.253258
 20
2041.741
 11
5937.253258
 21
2041.741
 72
     1
 10
5937.253258
 20
2041.741
 11
5937.253258
 21
2036.741
 72
     1
 10
5937.253258
 20
2036.741
 11
5942.253258
 21
2036.741
 72
     3
 10
5942.253258
 20
2046.741
 11
7.071068
 21
7.071068
 40
1.0
 50
225.0
 51
315.0
 73
     1
 97
        0
 75
     0
 76
     1
 52
-1800.0
 41
1.0
 77
     0
 78
     1
 53
45.0
 43
11035.789173
 44
548.93292
 45
-2.245064030267287
 46
2.245064030267288
 79
     0
 47
0.619008
 98
        4
 10
7364.378567
 20
1364.255745
 10
7395.960908
 20
1357.446661
 10
7582.358599
 20
1357.446661
 10
7617.037244
 20
1364.255745
  0
LINE
  5
178
100
AcDbEntity
  8
AM_0
100
AcDbLine
 10
5730.823766
 20
1845.249859
 30
0.0
 11
5730.823766
 21
2025.441
 31
0.0
  0
LINE
  5
179
100
AcDbEntity
  8
AM_0
100
AcDbLine
 10
5729.573766
 20
1845.249859
 30
0.0
 11
5729.573766
 21
2025.441
 31
0.0
  0
LINE
  5
17A
100
AcDbEntity
  8
AM_0
100
AcDbLine
 10
5707.073766
 20
2017.041
 30
0.0
 11
5707.073766
 21
1845.249859
 31
0.0
  0
LINE
  5
17B
100
AcDbEntity
  8
AM_0
100
AcDbLine
 10
5705.823766
 20
1845.249859
 30
0.0
 11
5705.823766
 21
2017.041
 31
0.0
  0
LINE
  5
17C
100
AcDbEntity
  8
AM_0
100
AcDbLine
 10
5673.012877
 20
2060.388202
 30
0.0
 11
5673.012877
 21
1850.249859
 31
0.0
  0
LINE
  5
17D
100
AcDbEntity
  8
AM_0
100
AcDbLine
 10
5675.512877
 20
1847.749859
 30
0.0
 11
5730.823766
 21
1847.749859
 31
0.0
  0
LINE
  5
17E
100
AcDbEntity
  8
AM_0
100
AcDbLine
 10
5675.512877
 20
1845.249859
 30
0.0
 11
5730.823766
 21
1845.249859
 31
0.0
  0
LINE
  5
17F
100
AcDbEntity
  8
AM_0
100
AcDbLine
 10
5673.012877
 20
1850.249859
 30
0.0
 11
5675.512877
 21
1850.249859
 31
0.0
  0
LINE
  5
180
100
AcDbEntity
  8
AM_0
100
AcDbLine
 10
5675.512877
 20
1850.249859
 30
0.0
 11
5675.512877
 21
1845.249859
 31
0.0
  0
LINE
  5
181
100
AcDbEntity
  8
AM_7
100
AcDbLine
 10
5701.003258
 20
1830.249859
 30
0.0
 11
5701.003258
 21
1862.749859
 31
0.0
1001
GENIUS_GENODEF_13
1002
{
1000
HIER
1070
     0
1002
}
1002
{
1000
MANEDIT
1070
     0
1002
}
1002
{
1000
NOSEL
1070
     0
1002
}
1002
{
1000
BEHIND
1070
     0
1002
}
1002
{
1000
REACTOR
1002
}
1001
GENIUS_GENOBJ-N-CEN_13
1002
{
1000
OWNER
1000
GEN
1002
}
  0
ARC
  5
182
100
AcDbEntity
  8
AM_0
100
AcDbCircle
 10
5822.253258
 20
2503.691
 30
0.0
 40
458.0
100
AcDbArc
 50
242.757584
 51
260.891941
  0
ARC
  5
183
100
AcDbEntity
  8
AM_0
100
AcDbCircle
 10
5822.253258
 20
2503.691
 30
0.0
 40
461.0
100
AcDbArc
 50
242.757584
 51
260.447945
  0
LINE
  5
184
100
AcDbEntity
  8
AM_7
100
AcDbLine
 10
5712.253258
 20
2020.309775
 30
0.0
 11
5712.253258
 21
2041.741
 31
0.0
1001
GENIUS_GENODEF_13
1002
{
1000
HIER
1070
     0
1002
}
1002
{
1000
MANEDIT
1070
     0
1002
}
1002
{
1000
NOSEL
1070
     0
1002
}
1002
{
1000
BEHIND
1070
     0
1002
}
1002
{
1000
REACTOR
1002
}
1001
GENIUS_GENOBJ-N-CEN_13
1002
{
1000
OWNER
1000
GEN
1002
}
  0
LINE
  5
185
100
AcDbEntity
  8
AM_0
100
AcDbLine
 10
5722.253258
 20
2023.441
 30
0.0
 11
5722.253258
 21
2025.441
 31
0.0
  0
LINE
  5
186
100
AcDbEntity
  8
AM_0
100
AcDbLine
 10
5702.253258
 20
2025.441
 30
0.0
 11
5702.253258
 21
2023.441
 31
0.0
  0
LINE
  5
187
100
AcDbEntity
  8
AM_0
100
AcDbLine
 10
5704.253258
 20
2022.841
 30
0.0
 11
5704.253258
 21
2017.041
 31
0.0
  0
LINE
  5
188
100
AcDbEntity
  8
AM_0
100
AcDbLine
 10
5720.253258
 20
2022.841
 30
0.0
 11
5720.253258
 21
2017.041
 31
0.0
  0
LINE
  5
189
100
AcDbEntity
  8
AM_0
100
AcDbLine
 10
5712.253258
 20
2017.756914
 30
0.0
 11
5712.253258
 21
2022.841
 31
0.0
  0
ARC
  5
18A
100
AcDbEntity
  8
AM_0
100
AcDbCircle
 10
5716.253258
 20
2028.573479
 30
0.0
 40
11.532479
100
AcDbArc
 50
249.705445
 51
290.294555
  0
LINE
  5
18B
100
AcDbEntity
  8
AM_0
100
AcDbLine
 10
5720.253258
 20
2017.041
 30
0.0
 11
5704.253258
 21
2017.041
 31
0.0
  0
ARC
  5
18C
100
AcDbEntity
  8
AM_0
100
AcDbCircle
 10
5708.253258
 20
2028.573479
 30
0.0
 40
11.532479
100
AcDbArc
 50
249.705445
 51
290.294555
  0
LINE
  5
18D
100
AcDbEntity
  8
AM_0
100
AcDbLine
 10
5719.568258
 20
2022.841
 30
0.0
 11
5719.568258
 21
2023.441
 31
0.0
  0
LINE
  5
18E
100
AcDbEntity
  8
AM_0
100
AcDbLine
 10
5704.938258
 20
2022.841
 30
0.0
 11
5704.938258
 21
2023.441
 31
0.0
  0
LINE
  5
18F
100
AcDbEntity
  8
AM_0
100
AcDbLine
 10
5704.253258
 20
2022.841
 30
0.0
 11
5720.253258
 21
2022.841
 31
0.0
  0
LINE
  5
190
100
AcDbEntity
  8
AM_0
100
AcDbLine
 10
5702.253258
 20
2023.441
 30
0.0
 11
5722.253258
 21
2023.441
 31
0.0
  0
LINE
  5
191
100
AcDbEntity
  8
AM_0
100
AcDbLine
 10
5745.753258
 20
2035.941
 30
0.0
 11
5721.253258
 21
2035.941
 31
0.0
  0
LINE
  5
192
100
AcDbEntity
  8
AM_0
100
AcDbLine
 10
5735.853258
 20
2036.741
 30
0.0
 11
5735.853258
 21
2035.941
 31
0.0
  0
LINE
  5
193
100
AcDbEntity
  8
AM_0
100
AcDbLine
 10
5741.753258
 20
2042.920111
 30
0.0
 11
5741.753258
 21
2036.741
 31
0.0
  0
LINE
  5
194
100
AcDbEntity
  8
AM_0
100
AcDbLine
 10
5718.253258
 20
2031.441
 30
0.0
 11
5718.253258
 21
2025.441
 31
0.0
1001
GENIUS_GENODEF_13
1002
{
1000
HIER
1070
     0
1002
}
1002
{
1000
MANEDIT
1070
     0
1002
}
1002
{
1000
NOSEL
1070
     0
1002
}
1002
{
1000
BEHIND
1070
     0
1002
}
1002
{
1000
REACTOR
1002
}
1001
GENIUS_GENOBJ-N-CEN_13
1002
{
1000
OWNER
1000
GEN
1002
}
  0
LINE
  5
195
100
AcDbEntity
  8
AM_0
100
AcDbLine
 10
5706.253258
 20
2031.441
 30
0.0
 11
5706.253258
 21
2025.441
 31
0.0
1001
GENIUS_GENODEF_13
1002
{
1000
HIER
1070
     0
1002
}
1002
{
1000
MANEDIT
1070
     0
1002
}
1002
{
1000
NOSEL
1070
     0
1002
}
1002
{
1000
BEHIND
1070
     0
1002
}
1002
{
1000
REACTOR
1002
}
1001
GENIUS_GENOBJ-N-CEN_13
1002
{
1000
OWNER
1000
GEN
1002
}
  0
LINE
  5
196
100
AcDbEntity
  8
AM_0
100
AcDbLine
 10
5692.253258
 20
2025.441
 30
0.0
 11
5692.253258
 21
2031.441
 31
0.0
  0
LINE
  5
197
100
AcDbEntity
  8
AM_0
100
AcDbLine
 10
5692.253258
 20
2031.441
 30
0.0
 11
5707.253258
 21
2031.441
 31
0.0
  0
LINE
  5
198
100
AcDbEntity
  8
AM_0
100
AcDbLine
 10
5721.253258
 20
2035.941
 30
0.0
 11
5721.253258
 21
2031.441
 31
0.0
  0
LINE
  5
199
100
AcDbEntity
  8
AM_0
100
AcDbLine
 10
5692.253258
 20
2049.741
 30
0.0
 11
5709.472674
 21
2049.741
 31
0.0
  0
LINE
  5
19A
100
AcDbEntity
  8
AM_0
100
AcDbLine
 10
5697.253258
 20
2049.741
 30
0.0
 11
5697.253258
 21
2046.741
 31
0.0
  0
ARC
  5
19B
100
AcDbEntity
  8
AM_0
100
AcDbCircle
 10
5702.253258
 20
2046.741
 30
0.0
 40
5.0
100
AcDbArc
 50
180.0
 51
270.0
1001
GENIUS_GENODEF_13
1002
{
1000
HIER
1070
     0
1002
}
1002
{
1000
MANEDIT
1070
     0
1002
}
1002
{
1000
NOSEL
1070
     0
1002
}
1002
{
1000
BEHIND
1070
     0
1002
}
1002
{
1000
REACTOR
1002
}
1001
GENIUS_GENOBJ-N-FIL_13
1002
{
1000
OWNER
1000
GEN
1002
}
  0
LINE
  5
19C
100
AcDbEntity
  8
AM_0
100
AcDbLine
 10
5692.253258
 20
2049.741
 30
0.0
 11
5692.253258
 21
2046.741
 31
0.0
  0
ARC
  5
19D
100
AcDbEntity
  8
AM_0
100
AcDbCircle
 10
5702.253258
 20
2046.741
 30
0.0
 40
10.0
100
AcDbArc
 50
180.0
 51
270.0
1001
GENIUS_GENODEF_13
1002
{
1000
HIER
1070
     0
1002
}
1002
{
1000
MANEDIT
1070
     0
1002
}
1002
{
1000
NOSEL
1070
     0
1002
}
1002
{
1000
BEHIND
1070
     0
1002
}
1002
{
1000
REACTOR
1002
}
1001
GENIUS_GENOBJ-N-FIL_13
1002
{
1000
OWNER
1000
GEN
1002
}
  0
LINE
  5
19E
100
AcDbEntity
  8
AM_0
100
AcDbLine
 10
5702.253258
 20
2041.741
 30
0.0
 11
5707.253258
 21
2041.741
 31
0.0
  0
LINE
  5
19F
100
AcDbEntity
  8
AM_0
100
AcDbLine
 10
5702.253258
 20
2036.741
 30
0.0
 11
5707.253258
 21
2036.741
 31
0.0
  0
LINE
  5
1A0
100
AcDbEntity
  8
AM_4
100
AcDbLine
 10
5708.173408
 20
2032.441
 30
0.0
 11
5708.173408
 21
2043.441
 31
0.0
  0
LINE
  5
1A1
100
AcDbEntity
  8
AM_4
100
AcDbLine
 10
5716.333108
 20
2032.441
 30
0.0
 11
5716.333108
 21
2043.441
 31
0.0
  0
LINE
  5
1A2
100
AcDbEntity
  8
AM_0
100
AcDbLine
 10
5717.253258
 20
2025.441
 30
0.0
 11
5717.253258
 21
2042.52085
 31
0.0
  0
LINE
  5
1A3
100
AcDbEntity
  8
AM_0
100
AcDbLine
 10
5707.253258
 20
2025.441
 30
0.0
 11
5707.253258
 21
2042.52085
 31
0.0
  0
LINE
  5
1A4
100
AcDbEntity
  8
AM_0
100
AcDbLine
 10
5717.253258
 20
2032.441
 30
0.0
 11
5707.253258
 21
2032.441
 31
0.0
  0
LINE
  5
1A5
100
AcDbEntity
  8
AM_4
100
AcDbLine
 10
5716.333108
 20
2032.441
 30
0.0
 11
5717.253258
 21
2030.941
 31
0.0
  0
LINE
  5
1A6
100
AcDbEntity
  8
AM_4
100
AcDbLine
 10
5708.173408
 20
2032.441
 30
0.0
 11
5707.253258
 21
2030.941
 31
0.0
  0
LINE
  5
1A7
100
AcDbEntity
  8
AM_0
100
AcDbLine
 10
5716.333108
 20
2043.441
 30
0.0
 11
5708.173408
 21
2043.441
 31
0.0
  0
LINE
  5
1A8
100
AcDbEntity
  8
AM_0
100
AcDbLine
 10
5717.253258
 20
2042.52085
 30
0.0
 11
5707.253258
 21
2042.52085
 31
0.0
  0
LINE
  5
1A9
100
AcDbEntity
  8
AM_0
100
AcDbLine
 10
5716.333108
 20
2043.441
 30
0.0
 11
5717.253258
 21
2042.52085
 31
0.0
  0
LINE
  5
1AA
100
AcDbEntity
  8
AM_0
100
AcDbLine
 10
5707.253258
 20
2042.52085
 30
0.0
 11
5708.173408
 21
2043.441
 31
0.0
  0
LINE
  5
1AB
100
AcDbEntity
  8
AM_0
100
AcDbLine
 10
5717.253258
 20
2036.741
 30
0.0
 11
5741.753258
 21
2036.741
 31
0.0
  0
LINE
  5
1AC
100
AcDbEntity
  8
AM_0
100
AcDbLine
 10
5717.253258
 20
2041.741
 30
0.0
 11
5741.753258
 21
2041.741
 31
0.0
  0
LINE
  5
1AD
100
AcDbEntity
  8
AM_0
100
AcDbLine
 10
5749.753258
 20
2031.441
 30
0.0
 11
5749.753258
 21
2051.465669
 31
0.0
  0
LINE
  5
1AE
100
AcDbEntity
  8
AM_0
100
AcDbLine
 10
5745.753258
 20
2049.082652
 30
0.0
 11
5745.753258
 21
2035.941
 31
0.0
  0
ARC
  5
1AF
100
AcDbEntity
  8
AM_0
100
AcDbCircle
 10
5741.753258
 20
2042.920111
 30
0.0
 40
1.75
100
AcDbArc
 50
0.0
 51
80.090032
1001
GENIUS_GENODEF_13
1002
{
1000
HIER
1070
     0
1002
}
1002
{
1000
MANEDIT
1070
     0
1002
}
1002
{
1000
NOSEL
1070
     0
1002
}
1002
{
1000
BEHIND
1070
     0
1002
}
1002
{
1000
REACTOR
1002
}
1001
GENIUS_GENOBJ-N-FIL_13
1002
{
1000
OWNER
1000
GEN
1002
}
  0
LINE
  5
1B0
100
AcDbEntity
  8
AM_0
100
AcDbLine
 10
5743.503258
 20
2042.920111
 30
0.0
 11
5743.503258
 21
2035.941
 31
0.0
  0
LINE
  5
1B1
100
AcDbEntity
  8
AM_0
100
AcDbLine
 10
5927.253258
 20
2036.741
 30
0.0
 11
5902.753258
 21
2036.741
 31
0.0
  0
LINE
  5
1B2
100
AcDbEntity
  8
AM_0
100
AcDbLine
 10
5927.253258
 20
2041.741
 30
0.0
 11
5902.753258
 21
2041.741
 31
0.0
  0
LINE
  5
1B3
100
AcDbEntity
  8
AM_0
100
AcDbLine
 10
5898.753258
 20
2035.941
 30
0.0
 11
5923.253258
 21
2035.941
 31
0.0
  0
LINE
  5
1B4
100
AcDbEntity
  8
AM_0
100
AcDbLine
 10
5838.103258
 20
2002.441
 30
0.0
 11
5838.103258
 21
2025.441
 31
0.0
  0
LINE
  5
1B5
100
AcDbEntity
  8
AM_0
100
AcDbLine
 10
5833.753258
 20
2025.441
 30
0.0
 11
5833.753258
 21
2000.441
 31
0.0
  0
HATCH
  5
1B6
100
AcDbEntity
  8
AM_8
100
AcDbHatch
 10
0.0
 20
0.0
 30
0.0
210
0.0
220
0.0
230
1.0
  2
_U
 70
     0
 71
     0
 91
        1
 92
        1
 93
        5
 72
     1
 10
5833.753258
 20
2025.441
 11
5833.753258
 21
2000.441
 72
     1
 10
5833.753258
 20
2000.441
 11
5836.103258
 21
2000.441
 72
     1
 10
5836.103258
 20
2000.441
 11
5838.103258
 21
2002.441
 72
     1
 10
5838.103258
 20
2002.441
 11
5838.103258
 21
2025.441
 72
     1
 10
5838.103258
 20
2025.441
 11
5833.753258
 21
2025.441
 97
        0
 75
     0
 76
     0
 52
135.0
 41
2.5
 77
     0
 78
     1
 53
135.0
 43
6080.054819
 44
1964.566203
 45
-1.767766952966368
 46
-1.767766952966368
 79
     0
 98
        1
 10
6080.054819
 20
1964.566203
1001
GENIUS_GENODEF_13
1002
{
1000
HIER
1070
     0
1002
}
1002
{
1000
MANEDIT
1070
     0
1002
}
1002
{
1000
NOSEL
1070
     0
1002
}
1002
{
1000
BEHIND
1070
     0
1002
}
1002
{
1000
REACTOR
1002
}
1001
GENIUS_GENOBJ-N-HTC_13
1002
{
1000
OWNER
1000
GEN
1002
}
1001
GENIUS_GENHATCH_13
1002
{
1000
DATA
1040
45.0
1042
2.5
1000
_U
1070
     0
1011
5836.866363
1021
2009.567417
1031
0.0
1002
}
1002
{
1000
UCS
1010
0.0
1020
0.0
1030
0.0
1010
1.0
1020
0.0
1030
0.0
1010
0.0
1020
1.0
1030
0.0
1002
}
  0
HATCH
  5
1B9
100
AcDbEntity
  8
AM_8
100
AcDbHatch
 10
0.0
 20
0.0
 30
0.0
210
0.0
220
0.0
230
1.0
  2
_U
 70
     0
 71
     0
 91
        1
 92
        1
 93
        5
 72
     1
 10
5806.403258
 20
2002.441
 11
5808.403258
 21
2000.441
 72
     1
 10
5808.403258
 20
2000.441
 11
5810.753258
 21
2000.441
 72
     1
 10
5810.753258
 20
2000.441
 11
5810.753258
 21
2025.441
 72
     1
 10
5810.753258
 20
2025.441
 11
5806.403258
 21
2025.441
 72
     1
 10
5806.403258
 20
2025.441
 11
5806.403258
 21
2002.441
 97
        0
 75
     0
 76
     0
 52
135.0
 41
2.5
 77
     0
 78
     1
 53
135.0
 43
6080.054819
 44
1964.566203
 45
-1.767766952966368
 46
-1.767766952966368
 79
     0
 98
        1
 10
6080.054819
 20
1964.566203
1001
GENIUS_GENODEF_13
1002
{
1000
HIER
1070
     0
1002
}
1002
{
1000
MANEDIT
1070
     0
1002
}
1002
{
1000
NOSEL
1070
     0
1002
}
1002
{
1000
BEHIND
1070
     0
1002
}
1002
{
1000
REACTOR
1002
}
1001
GENIUS_GENOBJ-N-HTC_13
1002
{
1000
OWNER
1000
GEN
1002
}
1001
GENIUS_GENHATCH_13
1002
{
1000
DATA
1040
45.0
1042
2.5
1000
_U
1070
     0
1011
5807.147333
1021
2009.912134
1031
0.0
1002
}
1002
{
1000
UCS
1010
0.0
1020
0.0
1030
0.0
1010
1.0
1020
0.0
1030
0.0
1010
0.0
1020
1.0
1030
0.0
1002
}
  0
LINE
  5
1BA
100
AcDbEntity
  8
AM_0
100
AcDbLine
 10
5806.403258
 20
2002.441
 30
0.0
 11
5806.403258
 21
2025.441
 31
0.0
  0
LINE
  5
1BB
100
AcDbEntity
  8
AM_0
100
AcDbLine
 10
5810.753258
 20
2025.441
 30
0.0
 11
5810.753258
 21
2000.441
 31
0.0
  0
LINE
  5
1BC
100
AcDbEntity
  8
AM_0
100
AcDbLine
 10
5836.103258
 20
2020.441
 30
0.0
 11
5838.103258
 21
2020.441
 31
0.0
  0
LINE
  5
1BD
100
AcDbEntity
  8
AM_0
100
AcDbLine
 10
5838.103258
 20
2002.441
 30
0.0
 11
5836.103258
 21
2000.441
 31
0.0
1001
GENIUS_GENFIL_13
1070
     0
1040
2.0
1040
2.0
1040
20.0
1040
0.0
1002
{
1002
}
1001
GENIUS_GENODEF_13
1002
{
1000
HIER
1070
     0
1002
}
1002
{
1000
MANEDIT
1070
     0
1002
}
1002
{
1000
NOSEL
1070
     0
1002
}
1002
{
1000
BEHIND
1070
     0
1002
}
1002
{
1000
REACTOR
1002
}
1001
GENIUS_GENOBJ-N-CHA_13
1002
{
1000
OWNER
1000
GEN
1002
}
  0
LINE
  5
1C0
100
AcDbEntity
  8
AM_4
100
AcDbLine
 10
5836.103258
 20
2000.441
 30
0.0
 11
5836.103258
 21
2020.441
 31
0.0
  0
LINE
  5
1C1
100
AcDbEntity
  8
AM_0
100
AcDbLine
 10
5806.403258
 20
2020.441
 30
0.0
 11
5808.403258
 21
2020.441
 31
0.0
  0
LINE
  5
1C2
100
AcDbEntity
  8
AM_0
100
AcDbLine
 10
5808.403258
 20
2000.441
 30
0.0
 11
5806.403258
 21
2002.441
 31
0.0
1001
GENIUS_GENFIL_13
1070
     0
1040
2.0
1040
2.0
1040
20.0
1040
0.0
1002
{
1002
}
1001
GENIUS_GENODEF_13
1002
{
1000
HIER
1070
     0
1002
}
1002
{
1000
MANEDIT
1070
     0
1002
}
1002
{
1000
NOSEL
1070
     0
1002
}
1002
{
1000
BEHIND
1070
     0
1002
}
1002
{
1000
REACTOR
1002
}
1001
GENIUS_GENOBJ-N-CHA_13
1002
{
1000
OWNER
1000
GEN
1002
}
  0
LINE
  5
1C3
100
AcDbEntity
  8
AM_4
100
AcDbLine
 10
5808.403258
 20
2000.441
 30
0.0
 11
5808.403258
 21
2020.441
 31
0.0
  0
LINE
  5
1C4
100
AcDbEntity
  8
AM_0
100
AcDbLine
 10
5808.403258
 20
2000.441
 30
0.0
 11
5836.103258
 21
2000.441
 31
0.0
  0
LINE
  5
1C5
100
AcDbEntity
  8
AM_0
100
AcDbLine
 10
5834.753258
 20
2025.441
 30
0.0
 11
5834.753258
 21
2031.441
 31
0.0
  0
LINE
  5
1C6
100
AcDbEntity
  8
AM_0
100
AcDbLine
 10
5830.753258
 20
2025.441
 30
0.0
 11
5830.753258
 21
2031.441
 31
0.0
  0
LINE
  5
1C7
100
AcDbEntity
  8
AM_0
100
AcDbLine
 10
5813.753258
 20
2025.441
 30
0.0
 11
5813.753258
 21
2031.441
 31
0.0
  0
LINE
  5
1C8
100
AcDbEntity
  8
AM_0
100
AcDbLine
 10
5809.753258
 20
2025.441
 30
0.0
 11
5809.753258
 21
2031.441
 31
0.0
  0
LINE
  5
1C9
100
AcDbEntity
  8
AM_0
100
AcDbLine
 10
5908.653258
 20
2036.741
 30
0.0
 11
5908.653258
 21
2035.941
 31
0.0
  0
ARC
  5
1CA
100
AcDbEntity
  8
AM_0
100
AcDbCircle
 10
5902.753258
 20
2042.920111
 30
0.0
 40
1.75
100
AcDbArc
 50
99.909968
 51
180.0
1001
GENIUS_GENODEF_13
1002
{
1000
HIER
1070
     0
1002
}
1002
{
1000
MANEDIT
1070
     0
1002
}
1002
{
1000
NOSEL
1070
     0
1002
}
1002
{
1000
BEHIND
1070
     0
1002
}
1002
{
1000
REACTOR
1002
}
1001
GENIUS_GENOBJ-N-FIL_13
1002
{
1000
OWNER
1000
GEN
1002
}
  0
LINE
  5
1CB
100
AcDbEntity
  8
AM_0
100
AcDbLine
 10
5902.753258
 20
2042.920111
 30
0.0
 11
5902.753258
 21
2036.741
 31
0.0
  0
LINE
  5
1CC
100
AcDbEntity
  8
AM_0
100
AcDbLine
 10
5901.003258
 20
2042.920111
 30
0.0
 11
5901.003258
 21
2035.941
 31
0.0
  0
LINE
  5
1CD
100
AcDbEntity
  8
AM_0
100
AcDbLine
 10
5894.753258
 20
2031.441
 30
0.0
 11
5894.753258
 21
2051.465669
 31
0.0
  0
LINE
  5
1CE
100
AcDbEntity
  8
AM_0
100
AcDbLine
 10
5898.753258
 20
2049.082652
 30
0.0
 11
5898.753258
 21
2035.941
 31
0.0
  0
LINE
  5
1CF
100
AcDbEntity
  8
AM_7
100
AcDbLine
 10
5932.253258
 20
2020.309775
 30
0.0
 11
5932.253258
 21
2041.741
 31
0.0
1001
GENIUS_GENODEF_13
1002
{
1000
HIER
1070
     0
1002
}
1002
{
1000
MANEDIT
1070
     0
1002
}
1002
{
1000
NOSEL
1070
     0
1002
}
1002
{
1000
BEHIND
1070
     0
1002
}
1002
{
1000
REACTOR
1002
}
1001
GENIUS_GENOBJ-N-CEN_13
1002
{
1000
OWNER
1000
GEN
1002
}
  0
LINE
  5
1D0
100
AcDbEntity
  8
AM_0
100
AcDbLine
 10
5942.253258
 20
2023.441
 30
0.0
 11
5942.253258
 21
2025.441
 31
0.0
  0
LINE
  5
1D1
100
AcDbEntity
  8
AM_0
100
AcDbLine
 10
5922.253258
 20
2025.441
 30
0.0
 11
5922.253258
 21
2023.441
 31
0.0
  0
LINE
  5
1D2
100
AcDbEntity
  8
AM_0
100
AcDbLine
 10
5939.568258
 20
2022.841
 30
0.0
 11
5939.568258
 21
2023.441
 31
0.0
  0
LINE
  5
1D3
100
AcDbEntity
  8
AM_0
100
AcDbLine
 10
5940.253258
 20
2022.841
 30
0.0
 11
5940.253258
 21
2017.041
 31
0.0
  0
LINE
  5
1D4
100
AcDbEntity
  8
AM_0
100
AcDbLine
 10
5924.253258
 20
2022.841
 30
0.0
 11
5940.253258
 21
2022.841
 31
0.0
  0
LINE
  5
1D5
100
AcDbEntity
  8
AM_0
100
AcDbLine
 10
5924.938258
 20
2022.841
 30
0.0
 11
5924.938258
 21
2023.441
 31
0.0
  0
ARC
  5
1D6
100
AcDbEntity
  8
AM_0
100
AcDbCircle
 10
5928.253258
 20
2028.573479
 30
0.0
 40
11.532479
100
AcDbArc
 50
249.705445
 51
290.294555
  0
LINE
  5
1D7
100
AcDbEntity
  8
AM_0
100
AcDbLine
 10
5932.253258
 20
2017.756914
 30
0.0
 11
5932.253258
 21
2022.841
 31
0.0
  0
LINE
  5
1D8
100
AcDbEntity
  8
AM_0
100
AcDbLine
 10
5924.253258
 20
2022.841
 30
0.0
 11
5924.253258
 21
2017.041
 31
0.0
  0
LINE
  5
1D9
100
AcDbEntity
  8
AM_0
100
AcDbLine
 10
5940.253258
 20
2017.041
 30
0.0
 11
5924.253258
 21
2017.041
 31
0.0
  0
ARC
  5
1DA
100
AcDbEntity
  8
AM_0
100
AcDbCircle
 10
5936.253258
 20
2028.573479
 30
0.0
 40
11.532479
100
AcDbArc
 50
249.705445
 51
290.294555
  0
LINE
  5
1DB
100
AcDbEntity
  8
AM_0
100
AcDbLine
 10
5922.253258
 20
2023.441
 30
0.0
 11
5942.253258
 21
2023.441
 31
0.0
  0
LINE
  5
1DC
100
AcDbEntity
  8
AM_0
100
AcDbLine
 10
5952.253258
 20
2025.441
 30
0.0
 11
5952.253258
 21
2031.441
 31
0.0
  0
LINE
  5
1DD
100
AcDbEntity
  8
AM_0
100
AcDbLine
 10
5938.253258
 20
2031.441
 30
0.0
 11
5938.253258
 21
2025.441
 31
0.0
1001
GENIUS_GENODEF_13
1002
{
1000
HIER
1070
     0
1002
}
1002
{
1000
MANEDIT
1070
     0
1002
}
1002
{
1000
NOSEL
1070
     0
1002
}
1002
{
1000
BEHIND
1070
     0
1002
}
1002
{
1000
REACTOR
1002
}
1001
GENIUS_GENOBJ-N-CEN_13
1002
{
1000
OWNER
1000
GEN
1002
}
  0
LINE
  5
1DE
100
AcDbEntity
  8
AM_0
100
AcDbLine
 10
5926.253258
 20
2031.441
 30
0.0
 11
5926.253258
 21
2025.441
 31
0.0
1001
GENIUS_GENODEF_13
1002
{
1000
HIER
1070
     0
1002
}
1002
{
1000
MANEDIT
1070
     0
1002
}
1002
{
1000
NOSEL
1070
     0
1002
}
1002
{
1000
BEHIND
1070
     0
1002
}
1002
{
1000
REACTOR
1002
}
1001
GENIUS_GENOBJ-N-CEN_13
1002
{
1000
OWNER
1000
GEN
1002
}
  0
LINE
  5
1DF
100
AcDbEntity
  8
AM_0
100
AcDbLine
 10
5937.253258
 20
2031.441
 30
0.0
 11
5952.253258
 21
2031.441
 31
0.0
  0
LINE
  5
1E0
100
AcDbEntity
  8
AM_0
100
AcDbLine
 10
5923.253258
 20
2035.941
 30
0.0
 11
5923.253258
 21
2031.441
 31
0.0
  0
ARC
  5
1E1
100
AcDbEntity
  8
AM_0
100
AcDbCircle
 10
5942.253258
 20
2046.741
 30
0.0
 40
10.0
100
AcDbArc
 50
270.0
 51
0.0
1001
GENIUS_GENODEF_13
1002
{
1000
HIER
1070
     0
1002
}
1002
{
1000
MANEDIT
1070
     0
1002
}
1002
{
1000
NOSEL
1070
     0
1002
}
1002
{
1000
BEHIND
1070
     0
1002
}
1002
{
1000
REACTOR
1002
}
1001
GENIUS_GENOBJ-N-FIL_13
1002
{
1000
OWNER
1000
GEN
1002
}
  0
ARC
  5
1E2
100
AcDbEntity
  8
AM_0
100
AcDbCircle
 10
5942.253258
 20
2046.741
 30
0.0
 40
5.0
100
AcDbArc
 50
270.0
 51
0.0
1001
GENIUS_GENODEF_13
1002
{
1000
HIER
1070
     0
1002
}
1002
{
1000
MANEDIT
1070
     0
1002
}
1002
{
1000
NOSEL
1070
     0
1002
}
1002
{
1000
BEHIND
1070
     0
1002
}
1002
{
1000
REACTOR
1002
}
1001
GENIUS_GENOBJ-N-FIL_13
1002
{
1000
OWNER
1000
GEN
1002
}
  0
LINE
  5
1E3
100
AcDbEntity
  8
AM_0
100
AcDbLine
 10
5952.253258
 20
2049.741
 30
0.0
 11
5935.033841
 21
2049.741
 31
0.0
  0
LINE
  5
1E4
100
AcDbEntity
  8
AM_0
100
AcDbLine
 10
5947.253258
 20
2049.741
 30
0.0
 11
5947.253258
 21
2046.741
 31
0.0
  0
LINE
  5
1E5
100
AcDbEntity
  8
AM_0
100
AcDbLine
 10
5942.253258
 20
2041.741
 30
0.0
 11
5937.253258
 21
2041.741
 31
0.0
  0
LINE
  5
1E6
100
AcDbEntity
  8
AM_0
100
AcDbLine
 10
5952.253258
 20
2049.741
 30
0.0
 11
5952.253258
 21
2046.741
 31
0.0
  0
LINE
  5
1E7
100
AcDbEntity
  8
AM_0
100
AcDbLine
 10
5942.253258
 20
2036.741
 30
0.0
 11
5937.253258
 21
2036.741
 31
0.0
  0
LINE
  5
1E8
100
AcDbEntity
  8
AM_0
100
AcDbLine
 10
5937.253258
 20
2025.441
 30
0.0
 11
5937.253258
 21
2042.52085
 31
0.0
  0
LINE
  5
1E9
100
AcDbEntity
  8
AM_0
100
AcDbLine
 10
5936.333108
 20
2043.441
 30
0.0
 11
5937.253258
 21
2042.52085
 31
0.0
  0
LINE
  5
1EA
100
AcDbEntity
  8
AM_4
100
AcDbLine
 10
5936.333108
 20
2032.441
 30
0.0
 11
5936.333108
 21
2043.441
 31
0.0
  0
LINE
  5
1EB
100
AcDbEntity
  8
AM_4
100
AcDbLine
 10
5936.333108
 20
2032.441
 30
0.0
 11
5937.253258
 21
2030.941
 31
0.0
  0
LINE
  5
1EC
100
AcDbEntity
  8
AM_0
100
AcDbLine
 10
5927.253258
 20
2025.441
 30
0.0
 11
5927.253258
 21
2042.52085
 31
0.0
  0
LINE
  5
1ED
100
AcDbEntity
  8
AM_0
100
AcDbLine
 10
5927.253258
 20
2042.52085
 30
0.0
 11
5928.173408
 21
2043.441
 31
0.0
  0
LINE
  5
1EE
100
AcDbEntity
  8
AM_4
100
AcDbLine
 10
5928.173408
 20
2032.441
 30
0.0
 11
5928.173408
 21
2043.441
 31
0.0
  0
LINE
  5
1EF
100
AcDbEntity
  8
AM_4
100
AcDbLine
 10
5928.173408
 20
2032.441
 30
0.0
 11
5927.253258
 21
2030.941
 31
0.0
  0
LINE
  5
1F0
100
AcDbEntity
  8
AM_0
100
AcDbLine
 10
5936.333108
 20
2043.441
 30
0.0
 11
5928.173408
 21
2043.441
 31
0.0
  0
LINE
  5
1F1
100
AcDbEntity
  8
AM_0
100
AcDbLine
 10
5937.253258
 20
2042.52085
 30
0.0
 11
5927.253258
 21
2042.52085
 31
0.0
  0
LINE
  5
1F2
100
AcDbEntity
  8
AM_0
100
AcDbLine
 10
5937.253258
 20
2032.441
 30
0.0
 11
5927.253258
 21
2032.441
 31
0.0
  0
LINE
  5
1F3
100
AcDbEntity
  8
AM_0
100
AcDbLine
 10
6047.253258
 20
2093.307099
 30
0.0
 11
6047.253258
 21
1850.249859
 31
0.0
  0
LINE
  5
1F4
100
AcDbEntity
  8
AM_0
100
AcDbLine
 10
6044.753258
 20
2092.249859
 30
0.0
 11
6044.753258
 21
1850.249859
 31
0.0
  0
LINE
  5
1F5
100
AcDbEntity
  8
AM_7
100
AcDbLine
 10
6064.753258
 20
1833.636092
 30
0.0
 11
6064.753258
 21
1860.804312
 31
0.0
1001
GENIUS_GENODEF_13
1002
{
1000
HIER
1070
     0
1002
}
1002
{
1000
MANEDIT
1070
     0
1002
}
1002
{
1000
NOSEL
1070
     0
1002
}
1002
{
1000
BEHIND
1070
     0
1002
}
1002
{
1000
REACTOR
1002
}
1001
GENIUS_GENOBJ-N-CEN_13
1002
{
1000
OWNER
1000
GEN
1002
}
  0
ARC
  5
1F6
100
AcDbEntity
  8
AM_0
100
AcDbCircle
 10
5810.746586
 20
2649.077371
 30
0.0
 40
604.0
100
AcDbArc
 50
292.794573
 51
295.130405
  0
LINE
  5
1F7
100
AcDbEntity
  8
AM_4
100
AcDbLine
 10
6726.554218
 20
1058.91172
 30
0.0
 11
6529.081121
 21
1058.885095
 31
0.0
  0
LINE
  5
1F8
100
AcDbEntity
  8
AM_4
100
AcDbLine
 10
6529.081102
 20
1136.086214
 30
0.0
 11
6725.882198
 21
1136.086214
 31
0.0
  0
LINE
  5
1F9
100
AcDbEntity
  8
AM_4
100
AcDbLine
 10
6726.62567
 20
1057.217584
 30
0.0
 11
6529.081349
 21
1057.19095
 31
0.0
  0
LINE
  5
1FA
100
AcDbEntity
  8
AM_4
100
AcDbLine
 10
6529.081102
 20
1137.780359
 30
0.0
 11
6725.882198
 21
1137.780359
 31
0.0
  0
LINE
  5
1FB
100
AcDbEntity
  8
AM_4
100
AcDbLine
 10
6726.547786
 20
1059.054596
 30
0.0
 11
6529.081102
 21
1059.027973
 31
0.0
  0
LINE
  5
1FC
100
AcDbEntity
  8
AM_4
100
AcDbLine
 10
6725.882198
 20
1058.109461
 30
0.0
 11
6529.081102
 21
1058.109461
 31
0.0
  0
LINE
  5
1FD
100
AcDbEntity
  8
AM_4
100
AcDbLine
 10
6529.081102
 20
1136.861848
 30
0.0
 11
6725.882198
 21
1136.861848
 31
0.0
  0
LINE
  5
1FE
100
AcDbEntity
  8
AM_4
100
AcDbLine
 10
6529.081102
 20
1057.19095
 30
0.0
 11
6725.882198
 21
1057.19095
 31
0.0
  0
LINE
  5
1FF
100
AcDbEntity
  8
AM_4
100
AcDbLine
 10
6528.761619
 20
1135.943336
 30
0.0
 11
6726.214992
 21
1135.943336
 31
0.0
  0
LINE
  5
200
100
AcDbEntity
  8
AM_4
100
AcDbLine
 10
6528.761619
 20
1059.027973
 30
0.0
 11
6726.214992
 21
1059.027973
 31
0.0
  0
TEXT
  5
201
100
AcDbEntity
  8
AM_6
100
AcDbText
 10
6497.241861
 20
978.338961
 30
0.0
 40
27.0
  1
D- 59227 Ahlen
 72
     1
 11
6621.978325
 21
978.338961
 31
0.0
100
AcDbText
  0
HATCH
  5
202
100
AcDbEntity
  8
AM_4
100
AcDbHatch
 10
0.0
 20
0.0
 30
0.0
210
0.0
220
0.0
230
1.0
  2
SOLID
 70
     1
 71
     0
 91
       13
 92
        7
 72
     0
 73
     1
 93
        4
 10
6522.651520387651
 20
1129.51375500774
 10
6521.733008779165
 20
1129.51375500774
 10
6521.733008779165
 20
1065.364371800367
 10
6522.651520387656
 20
1065.364371800367
 97
        0
 92
        7
 72
     0
 73
     1
 93
        4
 10
6725.882197587679
 20
1059.027972878037
 10
6529.081101647077
 20
1059.027972878037
 10
6529.081101647077
 20
1058.109461269549
 10
6725.882197587684
 20
1058.109461269549
 97
        0
 92
        7
 72
     0
 73
     1
 93
        4
 10
6725.882197587684
 20
1136.861847875652
 10
6529.081101647077
 20
1136.861847875652
 10
6529.081101647077
 20
1135.943336267163
 10
6725.882197587684
 20
1135.943336267163
 97
        0
 92
        7
 72
     0
 73
     1
 93
        4
 10
6734.148802064081
 20
1129.51375500774
 10
6733.230290455593
 20
1129.51375500774
 10
6733.230290455593
 20
1065.364371800367
 10
6734.148802064081
 20
1065.364371800367
 97
        0
 92
        7
 72
     0
 73
     1
 93
       42
 10
6526.298943296724
 20
1136.302753853093
 10
6527.603496016029
 20
1136.675483201465
 10
6529.081101647077
 20
1136.861847875652
 10
6529.081101647077
 20
1137.78035948414
 10
6528.668437011377
 20
1137.767047721699
 10
6528.255772375686
 20
1137.727112434374
 10
6527.84310773998
 20
1137.673865384605
 10
6527.430443104285
 20
1137.607306572396
 10
6527.031090231028
 20
1137.514124235304
 10
6526.645049120213
 20
1137.394318373329
 10
6526.25900800939
 20
1137.261200748904
 10
6525.886278661022
 20
1137.114771362047
 10
6525.526861075096
 20
1136.955030212741
 10
6525.167443489168
 20
1136.768665538561
 10
6524.82133766567
 20
1136.568989101933
 10
6524.488543604675
 20
1136.342689140417
 10
6524.16906130602
 20
1136.116389178912
 10
6523.849579007438
 20
1135.863465692505
 10
6523.543408471259
 20
1135.610542206116
 10
6523.263861459972
 20
1135.330995194833
 10
6522.984314448696
 20
1135.038136421106
 10
6522.731390962313
 20
1134.745277647401
 10
6522.478467475909
 20
1134.425795348797
 10
6522.252167514395
 20
1134.106313050172
 10
6522.025867552878
 20
1133.773518989131
 10
6521.826191116254
 20
1133.427413165636
 10
6521.639826442068
 20
1133.06799557972
 10
6521.480085292772
 20
1132.708577993804
 10
6521.333655905905
 20
1132.33584864543
 10
6521.200538281481
 20
1131.949807534588
 10
6521.080732419512
 20
1131.563766423779
 10
6520.98755008242
 20
1131.164413550534
 10
6520.920991270213
 20
1130.751748914829
 10
6520.867744220445
 20
1130.339084279125
 10
6520.827808933117
 20
1129.92641964344
 10
6520.814497170675
 20
1129.51375500774
 10
6521.733008779165
 20
1129.51375500774
 10
6521.919373453349
 20
1130.991360638785
 10
6522.385285138811
 20
1132.38909569518
 10
6523.037561498469
 20
1133.600466077396
 10
6523.969384869403
 20
1134.718654122509
 10
6524.99439057742
 20
1135.557295156349
 97
        0
 92
        7
 72
     0
 73
     1
 93
       42
 10
6526.605113832892
 20
1135.437489294372
 10
6526.897972606611
 20
1135.543983393906
 10
6527.190831380337
 20
1135.650477493442
 10
6527.49700191649
 20
1135.743659830533
 10
6527.803172452657
 20
1135.81021864274
 10
6528.122654751263
 20
1135.876777454954
 10
6528.442137049871
 20
1135.916712742278
 10
6528.761619348469
 20
1135.943336267163
 10
6529.081101647077
 20
1135.943336267163
 10
6529.081101647077
 20
1136.861847875652
 10
6527.603496016029
 20
1136.675483201465
 10
6526.298943296723
 20
1136.302753853091
 10
6524.994390577425
 20
1135.557295156347
 10
6523.969384869397
 20
1134.718654122507
 10
6523.037561498469
 20
1133.600466077392
 10
6522.385285138816
 20
1132.389095695184
 10
6521.919373453349
 20
1130.991360638783
 10
6521.733008779165
 20
1129.51375500774
 10
6522.651520387656
 20
1129.513755007738
 10
6522.651520387656
 20
1129.833237306349
 10
6522.678143912539
 20
1130.152719604951
 10
6522.718079199862
 20
1130.472201903551
 10
6522.784638012055
 20
1130.791684202194
 10
6522.851196824285
 20
1131.097854738323
 10
6522.944379161394
 20
1131.390713512075
 10
6523.037561498469
 20
1131.696884048206
 10
6523.157367360454
 20
1131.989742821927
 10
6523.290484984871
 20
1132.269289833198
 10
6523.436914371716
 20
1132.548836844482
 10
6523.596655521024
 20
1132.815072093322
 10
6523.756396670326
 20
1133.08130734216
 10
6523.94276134453
 20
1133.334230828583
 10
6524.129126018704
 20
1133.573842552522
 10
6524.342114217765
 20
1133.813454276455
 10
6524.555102416842
 20
1134.039754237974
 10
6524.781402378355
 20
1134.25274243704
 10
6525.021014102307
 20
1134.452418873673
 10
6525.26062582626
 20
1134.652095310302
 10
6525.513549312655
 20
1134.838459984488
 10
6525.779784561493
 20
1134.99820113379
 10
6526.046019810324
 20
1135.157942283092
 10
6526.325566821611
 20
1135.304371669953
 97
        0
 92
        7
 72
     0
 73
     1
 93
        4
 10
6725.882197587684
 20
1058.109461269549
 10
6529.081101647077
 20
1058.109461269549
 10
6529.081101647077
 20
1057.19094966106
 10
6725.882197587684
 20
1057.19094966106
 97
        0
 92
       22
 72
     0
 73
     1
 93
       42
 10
6732.018920073386
 20
1061.277660730712
 10
6732.671196433035
 20
1062.582213450016
 10
6733.137108118498
 20
1063.88676616932
 10
6733.230290455593
 20
1065.364371800367
 10
6732.311778847102
 20
1065.364371800367
 10
6732.311778847102
 20
1065.044889501759
 10
6732.28515532222
 20
1064.725407203149
 10
6732.245220034897
 20
1064.405924904547
 10
6732.191972985129
 20
1064.086442605947
 10
6732.112102410461
 20
1063.780272069713
 10
6732.032231835825
 20
1063.487413296064
 10
6731.925737736289
 20
1063.194554522344
 10
6731.819243636763
 20
1062.901695748631
 10
6731.686126012334
 20
1062.622148737342
 10
6731.553008387918
 20
1062.342601726062
 10
6731.393267238619
 20
1062.089678239654
 10
6731.233526089316
 20
1061.823442990832
 10
6731.047161415126
 20
1061.583831266863
 10
6730.860796740943
 20
1061.330907780477
 10
6730.661120304322
 20
1061.104607818979
 10
6730.448132105229
 20
1060.891619619897
 10
6730.221832143745
 20
1060.678631420831
 10
6729.995532182222
 20
1060.478954984199
 10
6729.742608695822
 20
1060.292590310015
 10
6729.489685209422
 20
1060.106225635824
 10
6729.236761723007
 20
1059.94648448652
 10
6728.970526474198
 20
1059.786743337223
 10
6728.690979462917
 20
1059.653625712797
 10
6728.398120689195
 20
1059.520508088389
 10
6728.105261915472
 20
1059.414013988852
 10
6727.812403141756
 20
1059.307519889318
 10
6727.506232605581
 20
1059.227649314663
 10
6727.186750306983
 20
1059.161090502456
 10
6726.867268008378
 20
1059.094531690248
 10
6726.547785709773
 20
1059.054596402921
 10
6726.214991648733
 20
1059.027972878037
 10
6725.882197587684
 20
1059.027972878037
 10
6725.882197587684
 20
1058.109461269549
 10
6727.359803218729
 20
1058.202643606642
 10
6728.757538275127
 20
1058.668555292108
 10
6729.968908657335
 20
1059.32083165176
 10
6731.087096702458
 20
1060.252655022693
 97
        0
 92
        7
 72
     0
 73
     1
 93
       42
 10
6732.258531797339
 20
1060.172784448038
 10
6732.511455283739
 20
1060.478954984205
 10
6732.73775524525
 20
1060.7984372828
 10
6732.950743444317
 20
1061.131231343854
 10
6733.150419880928
 20
1061.477337167322
 10
6733.336784555129
 20
1061.823442990837
 10
6733.496525704437
 20
1062.182860576755
 10
6733.642955091298
 20
1062.555589925132
 10
6733.776072715713
 20
1062.941631035959
 10
6733.882566815243
 20
1063.327672146742
 10
6733.975749152342
 20
1063.727025020026
 10
6734.055619726989
 20
1064.126377893273
 10
6734.095555014313
 20
1064.539042528972
 10
6734.135490301643
 20
1064.951707164677
 10
6734.148802064081
 20
1065.364371800367
 10
6733.230290455593
 20
1065.364371800367
 10
6733.137108118498
 20
1063.886766169322
 10
6732.671196433035
 20
1062.582213450014
 10
6732.018920073381
 20
1061.277660730714
 10
6731.08709670245
 20
1060.252655022687
 10
6729.968908657335
 20
1059.320831651757
 10
6728.757538275125
 20
1058.668555292106
 10
6727.359803218729
 20
1058.202643606642
 10
6725.882197587684
 20
1058.109461269549
 10
6725.882197587684
 20
1057.19094966106
 10
6726.29486222338
 20
1057.204261423501
 10
6726.720838621517
 20
1057.244196710827
 10
6727.14681501966
 20
1057.284131998153
 10
6727.546167892914
 20
1057.364002572803
 10
6727.945520766166
 20
1057.443873147454
 10
6728.344873639432
 20
1057.563679009434
 10
6728.7309147502
 20
1057.696796633848
 10
6729.103644098618
 20
1057.829914258269
 10
6729.476373446971
 20
1058.002967170006
 10
6729.82247927049
 20
1058.176020081763
 10
6730.168585093959
 20
1058.375696518388
 10
6730.514690917456
 20
1058.588684717453
 10
6730.83417321605
 20
1058.814984678965
 10
6731.153655514657
 20
1059.054596402921
 10
6731.446514288382
 20
1059.320831651759
 10
6731.739373062102
 20
1059.587066900599
 10
6732.005608310949
 20
1059.866613911878
 97
        0
 92
        7
 72
     0
 73
     1
 93
       42
 10
6731.08709670245
 20
1134.718654122511
 10
6729.968908657338
 20
1135.557295156346
 10
6728.757538275125
 20
1136.302753853093
 10
6727.359803218729
 20
1136.675483201465
 10
6725.882197587679
 20
1136.861847875652
 10
6725.882197587684
 20
1135.943336267163
 10
6726.214991648729
 20
1135.943336267163
 10
6726.547785709778
 20
1135.916712742278
 10
6726.867268008378
 20
1135.863465692511
 10
6727.186750306983
 20
1135.810218642744
 10
6727.492920843146
 20
1135.743659830534
 10
6727.799091379313
 20
1135.650477493441
 10
6728.105261915477
 20
1135.543983393905
 10
6728.398120689195
 20
1135.437489294372
 10
6728.67766770048
 20
1135.304371669953
 10
6728.957214711747
 20
1135.157942283095
 10
6729.223449960592
 20
1134.99820113379
 10
6729.489685209431
 20
1134.838459984485
 10
6729.742608695815
 20
1134.652095310304
 10
6729.982220419781
 20
1134.465730636113
 10
6730.221832143723
 20
1134.252742437045
 10
6730.448132105244
 20
1134.039754237973
 10
6730.647808541866
 20
1133.813454276471
 10
6730.860796740937
 20
1133.587154314952
 10
6731.047161415133
 20
1133.334230828558
 10
6731.220214326874
 20
1133.08130734216
 10
6731.393267238613
 20
1132.828383855766
 10
6731.539696625474
 20
1132.548836844483
 10
6731.68612601234
 20
1132.282601595643
 10
6731.819243636761
 20
1131.989742821919
 10
6731.925737736289
 20
1131.696884048206
 10
6732.032231835825
 20
1131.404025274475
 10
6732.112102410479
 20
1131.097854738322
 10
6732.191972985129
 20
1130.791684202156
 10
6732.245220034887
 20
1130.472201903573
 10
6732.28515532222
 20
1130.166031367406
 10
6732.311778847102
 20
1129.833237306344
 10
6732.311778847102
 20
1129.51375500774
 10
6733.230290455593
 20
1129.51375500774
 10
6733.137108118498
 20
1130.991360638791
 10
6732.671196433038
 20
1132.389095695181
 10
6732.018920073386
 20
1133.600466077392
 97
        0
 92
        7
 72
     0
 73
     1
 93
       42
 10
6731.459826050818
 20
1135.59723044368
 10
6731.153655514664
 20
1135.863465692507
 10
6730.847484978496
 20
1136.116389178909
 10
6730.514690917451
 20
1136.342689140418
 10
6730.181896856406
 20
1136.568989101931
 10
6729.835791032915
 20
1136.76866553856
 10
6729.476373446992
 20
1136.955030212741
 10
6729.11695586106
 20
1137.114771362046
 10
6728.73091475024
 20
1137.261200748907
 10
6728.344873639426
 20
1137.394318373326
 10
6727.958832528611
 20
1137.514124235304
 10
6727.546167892914
 20
1137.607306572397
 10
6727.146815019654
 20
1137.673865384606
 10
6726.720838621517
 20
1137.727112434373
 10
6726.30817398582
 20
1137.767047721698
 10
6725.882197587684
 20
1137.78035948414
 10
6725.882197587684
 20
1136.861847875652
 10
6727.359803218729
 20
1136.675483201465
 10
6728.757538275125
 20
1136.302753853093
 10
6729.968908657338
 20
1135.557295156348
 10
6731.08709670245
 20
1134.718654122511
 10
6732.018920073386
 20
1133.600466077395
 10
6732.671196433038
 20
1132.389095695181
 10
6733.137108118498
 20
1130.991360638786
 10
6733.230290455593
 20
1129.51375500774
 10
6734.148802064081
 20
1129.51375500774
 10
6734.135490301643
 20
1129.926419643432
 10
6734.095555014313
 20
1130.339084279135
 10
6734.055619726989
 20
1130.75174891483
 10
6733.975749152334
 20
1131.151101788126
 10
6733.882566815243
 20
1131.55045466135
 10
6733.776072715709
 20
1131.936495772159
 10
6733.642955091294
 20
1132.322536882967
 10
6733.496525704428
 20
1132.69526623134
 10
6733.336784555129
 20
1133.067995579719
 10
6733.150419880946
 20
1133.414101403207
 10
6732.964055206757
 20
1133.760207226694
 10
6732.73775524525
 20
1134.106313050184
 10
6732.511455283722
 20
1134.425795348782
 10
6732.271843559778
 20
1134.745277647393
 10
6732.005608310939
 20
1135.038136421115
 10
6731.739373062102
 20
1135.330995194835
 97
        0
 92
       23
 72
     0
 73
     1
 93
       42
 10
6524.555102416842
 20
1060.891619619899
 10
6524.328802455329
 20
1061.117919581409
 10
6524.12912601871
 20
1061.344219542917
 10
6523.942761344525
 20
1061.58383126688
 10
6523.75639667033
 20
1061.83675475327
 10
6523.583343758577
 20
1062.089678239672
 10
6523.42360260928
 20
1062.355913488505
 10
6523.290484984871
 20
1062.63546049977
 10
6523.157367360446
 20
1062.901695748617
 10
6523.037561498455
 20
1063.194554522357
 10
6522.931067398932
 20
1063.487413296061
 10
6522.851196824277
 20
1063.793583832236
 10
6522.784638012069
 20
1064.09975436839
 10
6522.718079199862
 20
1064.405924904549
 10
6522.678143912533
 20
1064.725407203155
 10
6522.651520387656
 20
1065.044889501767
 10
6522.651520387656
 20
1065.364371800367
 10
6521.733008779165
 20
1065.364371800367
 10
6521.919373453349
 20
1063.886766169316
 10
6522.385285138811
 20
1062.582213450022
 10
6523.037561498469
 20
1061.277660730714
 10
6523.969384869397
 20
1060.252655022692
 10
6524.99439057742
 20
1059.320831651759
 10
6526.298943296723
 20
1058.668555292108
 10
6527.603496016027
 20
1058.202643606642
 10
6529.081101647077
 20
1058.109461269549
 10
6529.081101647077
 20
1059.027972878037
 10
6528.761619348469
 20
1059.027972878037
 10
6528.428825287426
 20
1059.054596402921
 10
6528.109342988817
 20
1059.094531690248
 10
6527.803172452654
 20
1059.147778740014
 10
6527.49700191649
 20
1059.227649314665
 10
6527.190831380337
 20
1059.307519889316
 10
6526.897972606611
 20
1059.414013988852
 10
6526.605113832887
 20
1059.520508088388
 10
6526.312255059169
 20
1059.653625712804
 10
6526.046019810323
 20
1059.786743337226
 10
6525.766472799054
 20
1059.946484486525
 10
6525.513549312655
 20
1060.119537398272
 10
6525.247314063817
 20
1060.292590310015
 10
6525.007702339864
 20
1060.478954984199
 10
6524.768090615912
 20
1060.678631420829
 97
        0
 92
        7
 72
     0
 73
     1
 93
       42
 10
6523.969384869392
 20
1060.252655022692
 10
6523.037561498469
 20
1061.277660730714
 10
6522.385285138811
 20
1062.582213450022
 10
6521.919373453349
 20
1063.886766169318
 10
6521.733008779165
 20
1065.364371800367
 10
6520.814497170675
 20
1065.364371800367
 10
6520.827808933117
 20
1064.951707164674
 10
6520.867744220445
 20
1064.539042528963
 10
6520.920991270211
 20
1064.12637789327
 10
6520.98755008242
 20
1063.727025020015
 10
6521.080732419512
 20
1063.327672146752
 10
6521.20053828149
 20
1062.941631035944
 10
6521.333655905904
 20
1062.555589925144
 10
6521.480085292765
 20
1062.182860576767
 10
6521.653138204522
 20
1061.823442990808
 10
6521.839502878695
 20
1061.464025404906
 10
6522.039179315335
 20
1061.131231343837
 10
6522.252167514402
 20
1060.7984372828
 10
6522.478467475909
 20
1060.478954984205
 10
6522.731390962301
 20
1060.172784448045
 10
6522.997626211132
 20
1059.866613911878
 10
6523.263861459978
 20
1059.587066900599
 10
6523.556720233701
 20
1059.320831651768
 10
6523.862890769868
 20
1059.054596402917
 10
6524.169061306027
 20
1058.814984678969
 10
6524.488543604626
 20
1058.588684717458
 10
6524.8346494281
 20
1058.375696518392
 10
6525.167443489163
 20
1058.176020081759
 10
6525.526861075093
 20
1058.002967170016
 10
6525.899590423463
 20
1057.829914258271
 10
6526.272319771813
 20
1057.696796633859
 10
6526.658360882656
 20
1057.563679009432
 10
6527.044401993475
 20
1057.443873147454
 10
6527.443754866727
 20
1057.364002572803
 10
6527.843107739982
 20
1057.284131998153
 10
6528.255772375678
 20
1057.244196710827
 10
6528.668437011377
 20
1057.204261423502
 10
6529.081101647077
 20
1057.19094966106
 10
6529.081101647077
 20
1058.109461269549
 10
6527.603496016027
 20
1058.202643606642
 10
6526.298943296724
 20
1058.668555292108
 10
6524.99439057742
 20
1059.320831651759
 97
        0
 75
     0
 76
     1
 47
0.02498
 98
       13
 10
6522.083004
 20
1105.287124
 10
6563.238932
 20
1058.321758
 10
6610.950698
 20
1136.233292
 10
6733.690086
 20
1108.563773
 10
6523.49004
 20
1135.517598
 10
6524.971778
 20
1135.306005
 10
6655.36586
 20
1057.649614
 10
6730.935156
 20
1061.035183
 10
6731.993556
 20
1059.977195
 10
6730.935156
 20
1134.45961
 10
6731.358512
 20
1135.517598
 10
6524.125065
 20
1060.611985
 10
6523.913396
 20
1059.553997
  0
HATCH
  5
203
100
AcDbEntity
  8
AM_4
100
AcDbHatch
 10
0.0
 20
0.0
 30
0.0
210
0.0
220
0.0
230
1.0
  2
SOLID
 70
     1
 71
     0
 91
        3
 92
        7
 72
     0
 73
     1
 93
        4
 10
6725.882197587684
 20
1137.78035948414
 10
6529.081101647077
 20
1137.78035948414
 10
6529.081101647077
 20
1136.861847875652
 10
6725.882197587684
 20
1136.861847875652
 97
        0
 92
        7
 72
     0
 73
     1
 93
        4
 10
6521.733008779165
 20
1129.51375500774
 10
6520.814497170675
 20
1129.51375500774
 10
6520.814497170675
 20
1065.364371800367
 10
6521.733008779165
 20
1065.364371800367
 97
        0
 92
        7
 72
     0
 73
     1
 93
       42
 10
6523.436914371714
 20
1132.548836844479
 10
6523.596655521024
 20
1132.815072093322
 10
6523.756396670326
 20
1133.08130734216
 10
6523.94276134453
 20
1133.334230828583
 10
6524.129126018704
 20
1133.573842552522
 10
6524.342114217765
 20
1133.813454276455
 10
6524.555102416842
 20
1134.039754237974
 10
6524.781402378355
 20
1134.25274243704
 10
6525.021014102307
 20
1134.452418873673
 10
6525.26062582626
 20
1134.652095310302
 10
6525.513549312655
 20
1134.838459984488
 10
6525.779784561493
 20
1134.99820113379
 10
6526.046019810324
 20
1135.157942283092
 10
6526.325566821611
 20
1135.304371669953
 10
6526.605113832887
 20
1135.437489294372
 10
6526.897972606611
 20
1135.543983393906
 10
6527.190831380337
 20
1135.650477493442
 10
6527.49700191649
 20
1135.743659830533
 10
6527.803172452657
 20
1135.81021864274
 10
6528.122654751263
 20
1135.876777454954
 10
6528.442137049871
 20
1135.916712742278
 10
6528.761619348469
 20
1135.943336267163
 10
6529.081101647077
 20
1135.943336267163
 10
6529.081101647077
 20
1136.861847875652
 10
6527.603496016029
 20
1136.675483201465
 10
6526.298943296723
 20
1136.302753853091
 10
6524.994390577425
 20
1135.557295156347
 10
6523.969384869397
 20
1134.718654122507
 10
6523.037561498469
 20
1133.600466077392
 10
6522.385285138816
 20
1132.389095695184
 10
6521.919373453349
 20
1130.991360638783
 10
6521.733008779165
 20
1129.51375500774
 10
6522.651520387656
 20
1129.513755007738
 10
6522.651520387656
 20
1129.833237306349
 10
6522.678143912539
 20
1130.152719604951
 10
6522.718079199862
 20
1130.472201903551
 10
6522.784638012055
 20
1130.791684202194
 10
6522.851196824285
 20
1131.097854738323
 10
6522.944379161394
 20
1131.390713512075
 10
6523.037561498469
 20
1131.696884048206
 10
6523.157367360454
 20
1131.989742821927
 10
6523.290484984871
 20
1132.269289833198
 97
        0
 75
     0
 76
     1
 47
0.005631
 98
        3
 10
6539.238132
 20
1137.184549
 10
6521.152131
 20
1127.930345
 10
6522.67918
 20
1132.271229
  0
HATCH
  5
204
100
AcDbEntity
  8
AM_4
100
AcDbHatch
 10
0.0
 20
0.0
 30
0.0
210
0.0
220
0.0
230
1.0
  2
SOLID
 70
     1
 71
     0
 91
        8
 92
        7
 72
     0
 73
     1
 93
       23
 10
6556.0996305749
 20
1097.428059012341
 10
6556.341904651344
 20
1098.760566432771
 10
6556.826452804223
 20
1099.729662738539
 10
6557.553275033548
 20
1100.45648496786
 10
6558.280097262882
 20
1101.06217015897
 10
6559.733741721526
 20
1101.425581273633
 10
6560.460563950854
 20
1101.546718311855
 10
6561.793071371288
 20
1101.546718311855
 10
6561.793071371288
 20
1111.583787193025
 10
6557.432137995331
 20
1111.583787193025
 10
6555.009397230913
 20
1111.462650154804
 10
6552.950067581156
 20
1111.220376078361
 10
6551.254149046044
 20
1110.614690887258
 10
6549.679367549185
 20
1110.009005696152
 10
6548.485302458138
 20
1109.161046428613
 10
6547.395069114164
 20
1108.313087161062
 10
6546.547109846618
 20
1107.343990855291
 10
6545.820287617289
 20
1106.374894549519
 10
6544.972328349745
 20
1104.332870190937
 10
6544.48778019686
 20
1102.636951655846
 10
6544.366643158635
 20
1101.062170158977
 10
6544.366643158635
 20
1073.339093697532
 10
6556.0996305749
 20
1073.339093697532
 97
        0
 92
        7
 72
     0
 73
     1
 93
       54
 10
6599.189805599235
 20
1099.366251623876
 10
6598.099572255243
 20
1101.788992388297
 10
6596.524790758369
 20
1104.211733152719
 10
6594.707735185057
 20
1106.253757511299
 10
6592.406131458858
 20
1108.191950122836
 10
6589.862253656214
 20
1109.76673161971
 10
6587.076101777127
 20
1110.978102001919
 10
6584.06498111278
 20
1111.826061269467
 10
6580.915418119035
 20
1112.068335345909
 10
6578.613814392837
 20
1111.947198307688
 10
6576.554484743073
 20
1111.583787193027
 10
6574.616292131539
 20
1111.099239040142
 10
6572.799236558228
 20
1110.372416810812
 10
6571.103318023133
 20
1109.524457543266
 10
6569.649673564478
 20
1108.555361237503
 10
6568.317166144047
 20
1107.34399085529
 10
6566.984658723616
 20
1106.132620473087
 10
6565.911730670809
 20
1104.817418343827
 10
6565.063771403258
 20
1103.36377388517
 10
6564.215812135708
 20
1101.78899238829
 10
6563.610126944604
 20
1100.214210891428
 10
6562.762167677054
 20
1096.943510859454
 10
6562.398756562391
 20
1093.551673789272
 10
6562.519893600617
 20
1091.007795986635
 10
6562.883304715278
 20
1088.723497551601
 10
6563.488989906378
 20
1086.543030863627
 10
6564.336949173926
 20
1084.483701213862
 10
6565.306045479703
 20
1082.666645640549
 10
6566.39627882368
 20
1080.97072710546
 10
6567.711480952937
 20
1079.395945608586
 10
6569.165125411597
 20
1077.942301149931
 10
6570.861043946687
 20
1076.730930767722
 10
6572.556962481765
 20
1075.761834461961
 10
6574.374018055102
 20
1074.792738156184
 10
6576.191073628414
 20
1074.065915926857
 10
6578.250403278191
 20
1073.581367773969
 10
6580.188595889712
 20
1073.096819621091
 10
6582.247925539466
 20
1072.854545544648
 10
6584.289949898057
 20
1072.854545544648
 10
6587.076101777127
 20
1072.97568258287
 10
6589.619979579772
 20
1073.339093697532
 10
6591.800446267756
 20
1073.823641850419
 10
6593.738638879287
 20
1074.429327041522
 10
6596.403653720141
 20
1075.640697423731
 10
6597.251612987699
 20
1076.125245576615
 10
6597.251612987699
 20
1087.996675322275
 10
6594.58659814683
 20
1086.179619748963
 10
6591.921583305972
 20
1084.725975290309
 10
6588.893157350438
 20
1083.635741946317
 10
6587.439512891795
 20
1083.272330831656
 10
6585.985868433147
 20
1083.151193793434
 10
6583.580432959895
 20
1083.151193793434
 10
6581.884514424809
 20
1083.514604908096
 10
6581.157692195478
 20
1083.635741946318
 97
        0
 92
       22
 72
     0
 73
     1
 93
       15
 10
6573.889469902212
 20
1090.64438487196
 10
6573.526058787551
 20
1091.49234413951
 10
6573.283784711115
 20
1092.461440445252
 10
6573.04151063467
 20
1093.67281082749
 10
6573.162647672889
 20
1095.126455286143
 10
6573.526058787551
 20
1096.701236783014
 10
6574.374018055102
 20
1098.397155318109
 10
6575.827662513751
 20
1100.093073853203
 10
6577.523581048841
 20
1101.304444235412
 10
6579.34063662216
 20
1101.910129426518
 10
6581.036555157251
 20
1102.031266464739
 10
6582.49019961591
 20
1101.788992388297
 10
6583.822707036339
 20
1101.425581273634
 10
6584.774498050935
 20
1100.94103312075
 10
6585.622457318478
 20
1100.456484967865
 97
        0
 92
        7
 72
     0
 73
     1
 93
       27
 10
6613.466670818137
 20
1099.366251623876
 10
6618.67556346164
 20
1099.366251623876
 10
6618.67556346164
 20
1108.434224199278
 10
6613.466670818137
 20
1108.434224199278
 10
6613.466670818137
 20
1112.431746460569
 10
6613.708944894582
 20
1113.764253881002
 10
6614.193493047462
 20
1114.733350186771
 10
6614.920315276798
 20
1115.460172416098
 10
6615.647137506117
 20
1116.065857607203
 10
6617.221919002985
 20
1116.429268721866
 10
6617.827604194096
 20
1116.550405760086
 10
6619.14280632335
 20
1116.550405760086
 10
6619.14280632335
 20
1125.860652411931
 10
6614.799178238567
 20
1125.860652411931
 10
6612.497574512369
 20
1125.73951537371
 10
6610.438244862617
 20
1125.376104259046
 10
6608.621189289312
 20
1124.770419067946
 10
6607.046407792426
 20
1124.164733876838
 10
6605.835037410209
 20
1123.316774609292
 10
6604.744804066221
 20
1122.486120632921
 10
6603.896844798677
 20
1121.517024327149
 10
6603.291159607579
 20
1120.547928021388
 10
6602.322063301807
 20
1118.609735409847
 10
6601.837515148919
 20
1116.792679836528
 10
6601.716378110698
 20
1115.217898339646
 10
6601.716378110698
 20
1073.460230735753
 10
6613.466670818137
 20
1073.460230735754
 97
        0
 92
        7
 72
     0
 73
     1
 93
        4
 10
6635.254032406749
 20
1125.860652411931
 10
6623.019191546425
 20
1125.860652411931
 10
6623.019191546425
 20
1073.460230735754
 10
6635.254032406749
 20
1073.460230735754
 97
        0
 92
        7
 72
     0
 73
     1
 93
       54
 10
6675.298476184384
 20
1099.366251623875
 10
6674.208242840389
 20
1101.788992388299
 10
6672.63346134352
 20
1104.211733152719
 10
6670.816405770203
 20
1106.2537575113
 10
6668.532107335176
 20
1108.191950122838
 10
6665.98822953254
 20
1109.766731619708
 10
6663.202077653453
 20
1110.97810200192
 10
6660.173651697926
 20
1111.826061269467
 10
6657.024088704182
 20
1112.068335345909
 10
6654.722484977984
 20
1111.947198307688
 10
6652.68046061939
 20
1111.583787193026
 10
6650.742268007864
 20
1111.099239040141
 10
6648.925212434537
 20
1110.372416810812
 10
6647.229293899449
 20
1109.524457543265
 10
6645.775649440794
 20
1108.555361237498
 10
6644.443142020373
 20
1107.34399085529
 10
6643.110634599944
 20
1106.132620473079
 10
6642.141538294175
 20
1104.817418343823
 10
6641.172441988406
 20
1103.363773885174
 10
6640.324482720853
 20
1101.788992388299
 10
6639.71879752975
 20
1100.214210891428
 10
6638.870838262204
 20
1096.943510859458
 10
6638.507427147537
 20
1093.551673789265
 10
6638.628564185758
 20
1091.007795986631
 10
6638.991975300425
 20
1088.723497551604
 10
6639.597660491529
 20
1086.543030863626
 10
6640.445619759079
 20
1084.483701213863
 10
6641.41471606485
 20
1082.666645640533
 10
6642.504949408837
 20
1080.970727105455
 10
6643.837456829264
 20
1079.395945608584
 10
6645.412238326137
 20
1077.942301149934
 10
6646.987019823012
 20
1076.730930767721
 10
6648.682938358101
 20
1075.761834461953
 10
6650.499993931425
 20
1074.792738156184
 10
6652.317049504738
 20
1074.065915926859
 10
6654.35907386333
 20
1073.581367773969
 10
6656.29726647485
 20
1073.096819621091
 10
6658.356596124614
 20
1072.854545544648
 10
6660.415925774362
 20
1072.854545544648
 10
6663.202077653449
 20
1072.97568258287
 10
6665.745955456099
 20
1073.339093697533
 10
6668.047559182287
 20
1073.823641850415
 10
6669.864614755613
 20
1074.429327041521
 10
6672.512324305287
 20
1075.640697423733
 10
6673.360283572844
 20
1076.125245576615
 10
6673.360283572847
 20
1087.996675322274
 10
6670.695268731987
 20
1086.179619748963
 10
6668.047559182295
 20
1084.725975290306
 10
6665.01913322677
 20
1083.63574194632
 10
6663.565488768115
 20
1083.272330831656
 10
6662.111844309461
 20
1083.151193793434
 10
6659.689103545042
 20
1083.151193793434
 10
6657.993185009951
 20
1083.514604908099
 10
6657.266362780626
 20
1083.63574194632
 97
        0
 92
       22
 72
     0
 73
     1
 93
       15
 10
6649.167486510989
 20
1093.672810827489
 10
6649.288623549207
 20
1095.126455286139
 10
6649.652034663877
 20
1096.701236783014
 10
6650.499993931418
 20
1098.397155318106
 10
6651.953638390075
 20
1100.093073853202
 10
6653.63225163399
 20
1101.304444235413
 10
6655.449307207307
 20
1101.910129426518
 10
6657.145225742401
 20
1102.031266464739
 10
6658.598870201057
 20
1101.788992388297
 10
6659.931377621484
 20
1101.425581273635
 10
6660.900473927255
 20
1100.941033120748
 10
6661.748433194801
 20
1100.456484967865
 10
6650.01544577854
 20
1090.644384871963
 10
6649.652034663877
 20
1091.492344139507
 10
6649.409760587431
 20
1092.461440445256
 97
        0
 92
        7
 72
     0
 73
     1
 93
       66
 10
6706.396084424828
 20
1092.461440445279
 10
6705.426988119061
 20
1093.067125636385
 10
6704.596334142689
 20
1093.551673789268
 10
6706.274947386612
 20
1094.641907133256
 10
6707.48631776882
 20
1096.095551591903
 10
6708.455414074591
 20
1097.670333088785
 10
6709.061099265699
 20
1099.245114585656
 10
6709.545647418578
 20
1101.910129426517
 10
6709.545647418578
 20
1103.121499808729
 10
6709.545647418578
 20
1111.220376078361
 10
6698.176071116975
 20
1111.220376078361
 10
6698.176071116981
 20
1104.332870190946
 10
6698.054934078754
 20
1103.484910923395
 10
6697.570385925875
 20
1101.7889923883
 10
6697.08583777299
 20
1100.94103312075
 10
6696.237878505439
 20
1100.093073853202
 10
6695.026508123231
 20
1099.487388662097
 10
6693.572863664577
 20
1099.366251623876
 10
6692.119219205928
 20
1099.487388662097
 10
6690.907848823716
 20
1100.093073853203
 10
6690.181026594391
 20
1100.819896082528
 10
6689.696478441504
 20
1101.788992388297
 10
6689.333067326842
 20
1103.484910923394
 10
6689.333067326842
 20
1104.211733152717
 10
6689.333067326842
 20
1111.220376078361
 10
6677.7212169488
 20
1111.220376078361
 10
6677.7212169488
 20
1103.000362770504
 10
6677.963491025244
 20
1100.456484967868
 10
6678.569176216344
 20
1098.518292356333
 10
6679.295998445674
 20
1096.822373821235
 10
6680.265094751439
 20
1095.611003439031
 10
6681.234191057216
 20
1094.641907133256
 10
6681.961013286541
 20
1094.036221942151
 10
6682.808972554084
 20
1093.551673789268
 10
6681.718739210099
 20
1093.067125636386
 10
6680.870779942553
 20
1092.461440445282
 10
6679.538272522115
 20
1091.007795986632
 10
6678.448039178128
 20
1089.311877451532
 10
6677.842353987019
 20
1087.633264207615
 10
6677.357805834137
 20
1086.058482710743
 10
6677.115531757696
 20
1084.725975290303
 10
6676.994394719475
 20
1083.514604908091
 10
6676.994394719475
 20
1073.460230735754
 10
6689.090793250405
 20
1073.460230735754
 10
6689.090793250402
 20
1082.666645640556
 10
6689.211930288623
 20
1083.635741946332
 10
6689.333067326848
 20
1084.483701213865
 10
6689.575341403283
 20
1085.573934557855
 10
6690.181026594387
 20
1086.543030863621
 10
6691.028985861942
 20
1087.512127169392
 10
6692.24035624415
 20
1088.117812360496
 10
6693.936274779246
 20
1088.360086436939
 10
6695.511056276115
 20
1088.117812360496
 10
6696.722426658325
 20
1087.51212716939
 10
6697.44924888765
 20
1086.543030863623
 10
6697.933797040538
 20
1085.452797519639
 10
6698.176071116981
 20
1084.483701213858
 10
6698.297208155199
 20
1083.514604908099
 10
6698.297208155199
 20
1082.666645640552
 10
6698.297208155199
 20
1073.460230735754
 10
6710.272469647907
 20
1073.460230735754
 10
6710.272469647907
 20
1083.635741946324
 10
6710.030195571466
 20
1086.300756787182
 10
6709.303373342142
 20
1088.481223475154
 10
6708.455414074586
 20
1090.159836719082
 10
6707.365180730599
 20
1091.492344139511
 97
        0
 75
     0
 76
     1
 47
0.04298
 98
        8
 10
6550.845605
 20
1095.506592
 10
6574.992843
 20
1084.620816
 10
6574.992843
 20
1084.620816
 10
6608.136126
 20
1089.353758
 10
6629.915988
 20
1091.720229
 10
6644.593722
 20
1094.086699
 10
6644.593722
 20
1094.086699
 10
6686.259549
 20
1092.193526
  0
LINE
  5
205
100
AcDbEntity
  8
AM_4
100
AcDbLine
 10
6599.189806
 20
1099.366252
 30
0.0
 11
6581.157692
 21
1083.635742
 31
0.0
  0
LINE
  5
206
100
AcDbEntity
  8
AM_4
100
AcDbLine
 10
6596.524791
 20
1104.211733
 30
0.0
 11
6598.099572
 21
1101.788992
 31
0.0
  0
ARC
  5
207
100
AcDbEntity
  8
AM_4
100
AcDbCircle
 10
6529.080233
 20
1065.473637
 30
0.0
 40
6.588542
100
AcDbArc
 50
186.666075
 51
270.007725
  0
ARC
  5
208
100
AcDbEntity
  8
AM_4
100
AcDbCircle
 10
6529.080233
 20
1065.473637
 30
0.0
 40
8.282687
100
AcDbArc
 50
186.666075
 51
270.007725
  0
ARC
  5
209
100
AcDbEntity
  8
AM_4
100
AcDbCircle
 10
6529.080233
 20
1065.473637
 30
0.0
 40
6.445664
100
AcDbArc
 50
186.666075
 51
270.007725
  0
LINE
  5
20A
100
AcDbEntity
  8
AM_4
100
AcDbLine
 10
6522.385285
 20
1062.582213
 30
0.0
 11
6521.919373
 21
1063.886766
 31
0.0
  0
LINE
  5
20B
100
AcDbEntity
  8
AM_4
100
AcDbLine
 10
6523.037561
 20
1063.194555
 30
0.0
 11
6522.931067
 21
1063.487413
 31
0.0
  0
LINE
  5
20C
100
AcDbEntity
  8
AM_4
100
AcDbLine
 10
6521.080732
 20
1063.327672
 30
0.0
 11
6521.200538
 21
1062.941631
 31
0.0
  0
LINE
  5
20D
100
AcDbEntity
  8
AM_4
100
AcDbLine
 10
6523.037561
 20
1061.277661
 30
0.0
 11
6522.385285
 21
1062.582213
 31
0.0
  0
LINE
  5
20E
100
AcDbEntity
  8
AM_4
100
AcDbLine
 10
6523.969385
 20
1060.252655
 30
0.0
 11
6523.037561
 21
1061.277661
 31
0.0
  0
LINE
  5
20F
100
AcDbEntity
  8
AM_4
100
AcDbLine
 10
6524.994391
 20
1059.320832
 30
0.0
 11
6523.969385
 21
1060.252655
 31
0.0
  0
LINE
  5
210
100
AcDbEntity
  8
AM_4
100
AcDbLine
 10
6526.298943
 20
1058.668555
 30
0.0
 11
6524.994391
 21
1059.320832
 31
0.0
  0
LINE
  5
211
100
AcDbEntity
  8
AM_4
100
AcDbLine
 10
6527.603496
 20
1058.202644
 30
0.0
 11
6526.298943
 21
1058.668555
 31
0.0
  0
LINE
  5
212
100
AcDbEntity
  8
AM_4
100
AcDbLine
 10
6529.081102
 20
1058.109461
 30
0.0
 11
6527.603496
 21
1058.202644
 31
0.0
  0
LINE
  5
213
100
AcDbEntity
  8
AM_4
100
AcDbLine
 10
6529.081102
 20
1057.19095
 30
0.0
 11
6529.081102
 21
1057.19095
 31
0.0
  0
LINE
  5
214
100
AcDbEntity
  8
AM_4
100
AcDbLine
 10
6529.081102
 20
1059.027973
 30
0.0
 11
6529.081102
 21
1057.19095
 31
0.0
  0
LINE
  5
215
100
AcDbEntity
  8
AM_4
100
AcDbLine
 10
6523.157367
 20
1062.901696
 30
0.0
 11
6523.037561
 21
1063.194555
 31
0.0
  0
LINE
  5
216
100
AcDbEntity
  8
AM_4
100
AcDbLine
 10
6523.290485
 20
1062.63546
 30
0.0
 11
6523.157367
 21
1062.901696
 31
0.0
  0
LINE
  5
217
100
AcDbEntity
  8
AM_4
100
AcDbLine
 10
6523.423603
 20
1062.355913
 30
0.0
 11
6523.290485
 21
1062.63546
 31
0.0
  0
LINE
  5
218
100
AcDbEntity
  8
AM_4
100
AcDbLine
 10
6523.583344
 20
1062.089678
 30
0.0
 11
6523.423603
 21
1062.355913
 31
0.0
  0
LINE
  5
219
100
AcDbEntity
  8
AM_4
100
AcDbLine
 10
6523.756397
 20
1061.836755
 30
0.0
 11
6523.583344
 21
1062.089678
 31
0.0
  0
LINE
  5
21A
100
AcDbEntity
  8
AM_4
100
AcDbLine
 10
6523.942761
 20
1061.583831
 30
0.0
 11
6523.756397
 21
1061.836755
 31
0.0
  0
LINE
  5
21B
100
AcDbEntity
  8
AM_4
100
AcDbLine
 10
6524.129126
 20
1061.34422
 30
0.0
 11
6523.942761
 21
1061.583831
 31
0.0
  0
LINE
  5
21C
100
AcDbEntity
  8
AM_4
100
AcDbLine
 10
6524.328802
 20
1061.11792
 30
0.0
 11
6524.129126
 21
1061.34422
 31
0.0
  0
LINE
  5
21D
100
AcDbEntity
  8
AM_4
100
AcDbLine
 10
6524.328802
 20
1061.11792
 30
0.0
 11
6524.768091
 21
1060.678631
 31
0.0
  0
LINE
  5
21E
100
AcDbEntity
  8
AM_4
100
AcDbLine
 10
6525.007702
 20
1060.478955
 30
0.0
 11
6524.768091
 21
1060.678631
 31
0.0
  0
LINE
  5
21F
100
AcDbEntity
  8
AM_4
100
AcDbLine
 10
6525.247314
 20
1060.29259
 30
0.0
 11
6525.007702
 21
1060.478955
 31
0.0
  0
LINE
  5
220
100
AcDbEntity
  8
AM_4
100
AcDbLine
 10
6525.513549
 20
1060.119537
 30
0.0
 11
6525.247314
 21
1060.29259
 31
0.0
  0
LINE
  5
221
100
AcDbEntity
  8
AM_4
100
AcDbLine
 10
6525.766473
 20
1059.946484
 30
0.0
 11
6525.513549
 21
1060.119537
 31
0.0
  0
LINE
  5
222
100
AcDbEntity
  8
AM_4
100
AcDbLine
 10
6526.04602
 20
1059.786743
 30
0.0
 11
6525.766473
 21
1059.946484
 31
0.0
  0
LINE
  5
223
100
AcDbEntity
  8
AM_4
100
AcDbLine
 10
6526.312255
 20
1059.653626
 30
0.0
 11
6526.04602
 21
1059.786743
 31
0.0
  0
LINE
  5
224
100
AcDbEntity
  8
AM_4
100
AcDbLine
 10
6526.605114
 20
1059.520508
 30
0.0
 11
6526.312255
 21
1059.653626
 31
0.0
  0
LINE
  5
225
100
AcDbEntity
  8
AM_4
100
AcDbLine
 10
6526.605114
 20
1059.520508
 30
0.0
 11
6527.190831
 21
1059.30752
 31
0.0
  0
LINE
  5
226
100
AcDbEntity
  8
AM_4
100
AcDbLine
 10
6527.190831
 20
1059.30752
 30
0.0
 11
6527.803172
 21
1059.147779
 31
0.0
  0
LINE
  5
227
100
AcDbEntity
  8
AM_4
100
AcDbLine
 10
6528.109343
 20
1059.094532
 30
0.0
 11
6527.803172
 21
1059.147779
 31
0.0
  0
LINE
  5
228
100
AcDbEntity
  8
AM_4
100
AcDbLine
 10
6528.428825
 20
1059.054596
 30
0.0
 11
6528.109343
 21
1059.094532
 31
0.0
  0
LINE
  5
229
100
AcDbEntity
  8
AM_4
100
AcDbLine
 10
6528.761619
 20
1059.027973
 30
0.0
 11
6528.428825
 21
1059.054596
 31
0.0
  0
LINE
  5
22A
100
AcDbEntity
  8
AM_4
100
AcDbLine
 10
6528.668437
 20
1057.204261
 30
0.0
 11
6529.081102
 21
1057.19095
 31
0.0
  0
LINE
  5
22B
100
AcDbEntity
  8
AM_4
100
AcDbLine
 10
6527.843108
 20
1057.284132
 30
0.0
 11
6528.668437
 21
1057.204261
 31
0.0
  0
LINE
  5
22C
100
AcDbEntity
  8
AM_4
100
AcDbLine
 10
6527.044402
 20
1057.443873
 30
0.0
 11
6527.843108
 21
1057.284132
 31
0.0
  0
LINE
  5
22D
100
AcDbEntity
  8
AM_4
100
AcDbLine
 10
6526.658361
 20
1057.563679
 30
0.0
 11
6527.044402
 21
1057.443873
 31
0.0
  0
LINE
  5
22E
100
AcDbEntity
  8
AM_4
100
AcDbLine
 10
6526.27232
 20
1057.696797
 30
0.0
 11
6526.658361
 21
1057.563679
 31
0.0
  0
LINE
  5
22F
100
AcDbEntity
  8
AM_4
100
AcDbLine
 10
6525.89959
 20
1057.829914
 30
0.0
 11
6526.27232
 21
1057.696797
 31
0.0
  0
LINE
  5
230
100
AcDbEntity
  8
AM_4
100
AcDbLine
 10
6525.526861
 20
1058.002967
 30
0.0
 11
6525.89959
 21
1057.829914
 31
0.0
  0
LINE
  5
231
100
AcDbEntity
  8
AM_4
100
AcDbLine
 10
6525.167443
 20
1058.17602
 30
0.0
 11
6525.526861
 21
1058.002967
 31
0.0
  0
LINE
  5
232
100
AcDbEntity
  8
AM_4
100
AcDbLine
 10
6524.834649
 20
1058.375697
 30
0.0
 11
6525.167443
 21
1058.17602
 31
0.0
  0
LINE
  5
233
100
AcDbEntity
  8
AM_4
100
AcDbLine
 10
6524.488544
 20
1058.588685
 30
0.0
 11
6524.834649
 21
1058.375697
 31
0.0
  0
LINE
  5
234
100
AcDbEntity
  8
AM_4
100
AcDbLine
 10
6524.169061
 20
1058.814985
 30
0.0
 11
6524.488544
 21
1058.588685
 31
0.0
  0
LINE
  5
235
100
AcDbEntity
  8
AM_4
100
AcDbLine
 10
6523.862891
 20
1059.054596
 30
0.0
 11
6524.169061
 21
1058.814985
 31
0.0
  0
LINE
  5
236
100
AcDbEntity
  8
AM_4
100
AcDbLine
 10
6523.55672
 20
1059.320832
 30
0.0
 11
6523.862891
 21
1059.054596
 31
0.0
  0
LINE
  5
237
100
AcDbEntity
  8
AM_4
100
AcDbLine
 10
6523.263861
 20
1059.587067
 30
0.0
 11
6523.55672
 21
1059.320832
 31
0.0
  0
LINE
  5
238
100
AcDbEntity
  8
AM_4
100
AcDbLine
 10
6522.997626
 20
1059.866614
 30
0.0
 11
6523.263861
 21
1059.587067
 31
0.0
  0
LINE
  5
239
100
AcDbEntity
  8
AM_4
100
AcDbLine
 10
6522.731391
 20
1060.172784
 30
0.0
 11
6522.997626
 21
1059.866614
 31
0.0
  0
LINE
  5
23A
100
AcDbEntity
  8
AM_4
100
AcDbLine
 10
6522.478467
 20
1060.478955
 30
0.0
 11
6522.731391
 21
1060.172784
 31
0.0
  0
LINE
  5
23B
100
AcDbEntity
  8
AM_4
100
AcDbLine
 10
6522.252168
 20
1060.798437
 30
0.0
 11
6522.478467
 21
1060.478955
 31
0.0
  0
LINE
  5
23C
100
AcDbEntity
  8
AM_4
100
AcDbLine
 10
6522.039179
 20
1061.131231
 30
0.0
 11
6522.252168
 21
1060.798437
 31
0.0
  0
LINE
  5
23D
100
AcDbEntity
  8
AM_4
100
AcDbLine
 10
6521.839503
 20
1061.464025
 30
0.0
 11
6522.039179
 21
1061.131231
 31
0.0
  0
LINE
  5
23E
100
AcDbEntity
  8
AM_4
100
AcDbLine
 10
6521.653138
 20
1061.823443
 30
0.0
 11
6521.839503
 21
1061.464025
 31
0.0
  0
LINE
  5
23F
100
AcDbEntity
  8
AM_4
100
AcDbLine
 10
6521.480085
 20
1062.182861
 30
0.0
 11
6521.653138
 21
1061.823443
 31
0.0
  0
LINE
  5
240
100
AcDbEntity
  8
AM_4
100
AcDbLine
 10
6521.333656
 20
1062.55559
 30
0.0
 11
6521.480085
 21
1062.182861
 31
0.0
  0
LINE
  5
241
100
AcDbEntity
  8
AM_4
100
AcDbLine
 10
6521.200538
 20
1062.941631
 30
0.0
 11
6521.333656
 21
1062.55559
 31
0.0
  0
LINE
  5
242
100
AcDbEntity
  8
AM_4
100
AcDbLine
 10
6522.508643
 20
1065.364372
 30
0.0
 11
6522.508643
 21
1129.513755
 31
0.0
  0
LINE
  5
243
100
AcDbEntity
  8
AM_4
100
AcDbLine
 10
6520.814497
 20
1065.364372
 30
0.0
 11
6520.814497
 21
1129.513755
 31
0.0
  0
LINE
  5
244
100
AcDbEntity
  8
AM_4
100
AcDbLine
 10
6521.733009
 20
1065.364372
 30
0.0
 11
6521.733009
 21
1129.513755
 31
0.0
  0
LINE
  5
245
100
AcDbEntity
  8
AM_4
100
AcDbLine
 10
6522.65152
 20
1065.04489
 30
0.0
 11
6522.65152
 21
1129.833237
 31
0.0
  0
ARC
  5
246
100
AcDbEntity
  8
AM_4
100
AcDbCircle
 10
6526.926786
 20
1065.221958
 30
0.0
 40
4.420438
100
AcDbArc
 50
178.153773
 51
186.666075
  0
LINE
  5
247
100
AcDbEntity
  8
AM_4
100
AcDbLine
 10
6521.919373
 20
1063.886766
 30
0.0
 11
6521.733009
 21
1065.364372
 31
0.0
  0
LINE
  5
248
100
AcDbEntity
  8
AM_4
100
AcDbLine
 10
6520.814497
 20
1065.364372
 30
0.0
 11
6520.814497
 21
1065.364372
 31
0.0
  0
LINE
  5
249
100
AcDbEntity
  8
AM_4
100
AcDbLine
 10
6522.65152
 20
1065.364372
 30
0.0
 11
6520.814497
 21
1065.364372
 31
0.0
  0
LINE
  5
24A
100
AcDbEntity
  8
AM_4
100
AcDbLine
 10
6522.678144
 20
1064.725407
 30
0.0
 11
6522.65152
 21
1065.04489
 31
0.0
  0
LINE
  5
24B
100
AcDbEntity
  8
AM_4
100
AcDbLine
 10
6522.718079
 20
1064.405925
 30
0.0
 11
6522.678144
 21
1064.725407
 31
0.0
  0
LINE
  5
24C
100
AcDbEntity
  8
AM_4
100
AcDbLine
 10
6522.718079
 20
1064.405925
 30
0.0
 11
6522.851197
 21
1063.793584
 31
0.0
  0
LINE
  5
24D
100
AcDbEntity
  8
AM_4
100
AcDbLine
 10
6522.931067
 20
1063.487413
 30
0.0
 11
6522.851197
 21
1063.793584
 31
0.0
  0
LINE
  5
24E
100
AcDbEntity
  8
AM_4
100
AcDbLine
 10
6520.98755
 20
1063.727025
 30
0.0
 11
6521.080732
 21
1063.327672
 31
0.0
  0
LINE
  5
24F
100
AcDbEntity
  8
AM_4
100
AcDbLine
 10
6520.920991
 20
1064.126378
 30
0.0
 11
6520.98755
 21
1063.727025
 31
0.0
  0
LINE
  5
250
100
AcDbEntity
  8
AM_4
100
AcDbLine
 10
6520.867744
 20
1064.539043
 30
0.0
 11
6520.920991
 21
1064.126378
 31
0.0
  0
LINE
  5
251
100
AcDbEntity
  8
AM_4
100
AcDbLine
 10
6520.827809
 20
1064.951707
 30
0.0
 11
6520.867744
 21
1064.539043
 31
0.0
  0
LINE
  5
252
100
AcDbEntity
  8
AM_4
100
AcDbLine
 10
6520.814497
 20
1065.364372
 30
0.0
 11
6520.827809
 21
1064.951707
 31
0.0
  0
ARC
  5
253
100
AcDbEntity
  8
AM_4
100
AcDbCircle
 10
6529.081102
 20
1129.513755
 30
0.0
 40
6.572459
100
AcDbArc
 50
90.0
 51
180.0
  0
ARC
  5
254
100
AcDbEntity
  8
AM_4
100
AcDbCircle
 10
6529.081102
 20
1129.513755
 30
0.0
 40
8.266604
100
AcDbArc
 50
90.0
 51
180.0
  0
ARC
  5
255
100
AcDbEntity
  8
AM_4
100
AcDbCircle
 10
6529.081102
 20
1129.513755
 30
0.0
 40
6.429581
100
AcDbArc
 50
90.0
 51
180.0
  0
LINE
  5
256
100
AcDbEntity
  8
AM_4
100
AcDbLine
 10
6529.081102
 20
1136.861848
 30
0.0
 11
6529.081102
 21
1136.861848
 31
0.0
  0
LINE
  5
257
100
AcDbEntity
  8
AM_4
100
AcDbLine
 10
6527.603496
 20
1136.675483
 30
0.0
 11
6529.081102
 21
1136.861848
 31
0.0
  0
LINE
  5
258
100
AcDbEntity
  8
AM_4
100
AcDbLine
 10
6526.298943
 20
1136.302754
 30
0.0
 11
6527.603496
 21
1136.675483
 31
0.0
  0
LINE
  5
259
100
AcDbEntity
  8
AM_4
100
AcDbLine
 10
6524.994391
 20
1135.557295
 30
0.0
 11
6526.298943
 21
1136.302754
 31
0.0
  0
LINE
  5
25A
100
AcDbEntity
  8
AM_4
100
AcDbLine
 10
6523.969385
 20
1134.718654
 30
0.0
 11
6524.994391
 21
1135.557295
 31
0.0
  0
LINE
  5
25B
100
AcDbEntity
  8
AM_4
100
AcDbLine
 10
6523.037561
 20
1133.600466
 30
0.0
 11
6523.969385
 21
1134.718654
 31
0.0
  0
LINE
  5
25C
100
AcDbEntity
  8
AM_4
100
AcDbLine
 10
6522.385285
 20
1132.389096
 30
0.0
 11
6523.037561
 21
1133.600466
 31
0.0
  0
LINE
  5
25D
100
AcDbEntity
  8
AM_4
100
AcDbLine
 10
6521.919373
 20
1130.991361
 30
0.0
 11
6522.385285
 21
1132.389096
 31
0.0
  0
LINE
  5
25E
100
AcDbEntity
  8
AM_4
100
AcDbLine
 10
6521.733009
 20
1129.513755
 30
0.0
 11
6521.919373
 21
1130.991361
 31
0.0
  0
LINE
  5
25F
100
AcDbEntity
  8
AM_4
100
AcDbLine
 10
6529.081102
 20
1137.780359
 30
0.0
 11
6529.081102
 21
1135.943336
 31
0.0
  0
LINE
  5
260
100
AcDbEntity
  8
AM_4
100
AcDbLine
 10
6529.081102
 20
1137.780359
 30
0.0
 11
6529.081102
 21
1137.780359
 31
0.0
  0
LINE
  5
261
100
AcDbEntity
  8
AM_4
100
AcDbLine
 10
6528.442137
 20
1135.916713
 30
0.0
 11
6528.761619
 21
1135.943336
 31
0.0
  0
LINE
  5
262
100
AcDbEntity
  8
AM_4
100
AcDbLine
 10
6528.122655
 20
1135.876777
 30
0.0
 11
6528.442137
 21
1135.916713
 31
0.0
  0
LINE
  5
263
100
AcDbEntity
  8
AM_4
100
AcDbLine
 10
6527.803172
 20
1135.810219
 30
0.0
 11
6528.122655
 21
1135.876777
 31
0.0
  0
LINE
  5
264
100
AcDbEntity
  8
AM_4
100
AcDbLine
 10
6527.497002
 20
1135.74366
 30
0.0
 11
6527.803172
 21
1135.810219
 31
0.0
  0
LINE
  5
265
100
AcDbEntity
  8
AM_4
100
AcDbLine
 10
6527.190831
 20
1135.650477
 30
0.0
 11
6527.497002
 21
1135.74366
 31
0.0
  0
LINE
  5
266
100
AcDbEntity
  8
AM_4
100
AcDbLine
 10
6526.605114
 20
1135.437489
 30
0.0
 11
6527.190831
 21
1135.650477
 31
0.0
  0
LINE
  5
267
100
AcDbEntity
  8
AM_4
100
AcDbLine
 10
6526.325567
 20
1135.304372
 30
0.0
 11
6526.605114
 21
1135.437489
 31
0.0
  0
LINE
  5
268
100
AcDbEntity
  8
AM_4
100
AcDbLine
 10
6526.04602
 20
1135.157942
 30
0.0
 11
6526.325567
 21
1135.304372
 31
0.0
  0
LINE
  5
269
100
AcDbEntity
  8
AM_4
100
AcDbLine
 10
6525.513549
 20
1134.83846
 30
0.0
 11
6526.04602
 21
1135.157942
 31
0.0
  0
LINE
  5
26A
100
AcDbEntity
  8
AM_4
100
AcDbLine
 10
6525.260626
 20
1134.652095
 30
0.0
 11
6525.513549
 21
1134.83846
 31
0.0
  0
LINE
  5
26B
100
AcDbEntity
  8
AM_4
100
AcDbLine
 10
6524.781402
 20
1134.252742
 30
0.0
 11
6525.260626
 21
1134.652095
 31
0.0
  0
LINE
  5
26C
100
AcDbEntity
  8
AM_4
100
AcDbLine
 10
6524.555102
 20
1134.039754
 30
0.0
 11
6524.781402
 21
1134.252742
 31
0.0
  0
LINE
  5
26D
100
AcDbEntity
  8
AM_4
100
AcDbLine
 10
6524.342114
 20
1133.813454
 30
0.0
 11
6524.555102
 21
1134.039754
 31
0.0
  0
LINE
  5
26E
100
AcDbEntity
  8
AM_4
100
AcDbLine
 10
6524.129126
 20
1133.573843
 30
0.0
 11
6524.342114
 21
1133.813454
 31
0.0
  0
LINE
  5
26F
100
AcDbEntity
  8
AM_4
100
AcDbLine
 10
6523.942761
 20
1133.334231
 30
0.0
 11
6524.129126
 21
1133.573843
 31
0.0
  0
LINE
  5
270
100
AcDbEntity
  8
AM_4
100
AcDbLine
 10
6523.756397
 20
1133.081307
 30
0.0
 11
6523.942761
 21
1133.334231
 31
0.0
  0
LINE
  5
271
100
AcDbEntity
  8
AM_4
100
AcDbLine
 10
6523.436914
 20
1132.548837
 30
0.0
 11
6523.756397
 21
1133.081307
 31
0.0
  0
LINE
  5
272
100
AcDbEntity
  8
AM_4
100
AcDbLine
 10
6523.290485
 20
1132.26929
 30
0.0
 11
6523.436914
 21
1132.548837
 31
0.0
  0
LINE
  5
273
100
AcDbEntity
  8
AM_4
100
AcDbLine
 10
6523.157367
 20
1131.989743
 30
0.0
 11
6523.290485
 21
1132.26929
 31
0.0
  0
LINE
  5
274
100
AcDbEntity
  8
AM_4
100
AcDbLine
 10
6523.037561
 20
1131.696884
 30
0.0
 11
6523.157367
 21
1131.989743
 31
0.0
  0
LINE
  5
275
100
AcDbEntity
  8
AM_4
100
AcDbLine
 10
6522.944379
 20
1131.390714
 30
0.0
 11
6523.037561
 21
1131.696884
 31
0.0
  0
LINE
  5
276
100
AcDbEntity
  8
AM_4
100
AcDbLine
 10
6522.851197
 20
1131.097855
 30
0.0
 11
6522.944379
 21
1131.390714
 31
0.0
  0
LINE
  5
277
100
AcDbEntity
  8
AM_4
100
AcDbLine
 10
6522.784638
 20
1130.791684
 30
0.0
 11
6522.851197
 21
1131.097855
 31
0.0
  0
LINE
  5
278
100
AcDbEntity
  8
AM_4
100
AcDbLine
 10
6522.718079
 20
1130.472202
 30
0.0
 11
6522.784638
 21
1130.791684
 31
0.0
  0
LINE
  5
279
100
AcDbEntity
  8
AM_4
100
AcDbLine
 10
6522.678144
 20
1130.15272
 30
0.0
 11
6522.718079
 21
1130.472202
 31
0.0
  0
LINE
  5
27A
100
AcDbEntity
  8
AM_4
100
AcDbLine
 10
6522.65152
 20
1129.833237
 30
0.0
 11
6522.678144
 21
1130.15272
 31
0.0
  0
LINE
  5
27B
100
AcDbEntity
  8
AM_4
100
AcDbLine
 10
6520.814497
 20
1129.513755
 30
0.0
 11
6522.65152
 21
1129.513755
 31
0.0
  0
LINE
  5
27C
100
AcDbEntity
  8
AM_4
100
AcDbLine
 10
6520.827809
 20
1129.92642
 30
0.0
 11
6520.814497
 21
1129.513755
 31
0.0
  0
LINE
  5
27D
100
AcDbEntity
  8
AM_4
100
AcDbLine
 10
6520.867744
 20
1130.339084
 30
0.0
 11
6520.827809
 21
1129.92642
 31
0.0
  0
LINE
  5
27E
100
AcDbEntity
  8
AM_4
100
AcDbLine
 10
6520.920991
 20
1130.751749
 30
0.0
 11
6520.867744
 21
1130.339084
 31
0.0
  0
LINE
  5
27F
100
AcDbEntity
  8
AM_4
100
AcDbLine
 10
6520.98755
 20
1131.164414
 30
0.0
 11
6520.920991
 21
1130.751749
 31
0.0
  0
LINE
  5
280
100
AcDbEntity
  8
AM_4
100
AcDbLine
 10
6521.080732
 20
1131.563766
 30
0.0
 11
6520.98755
 21
1131.164414
 31
0.0
  0
LINE
  5
281
100
AcDbEntity
  8
AM_4
100
AcDbLine
 10
6521.200538
 20
1131.949808
 30
0.0
 11
6521.080732
 21
1131.563766
 31
0.0
  0
LINE
  5
282
100
AcDbEntity
  8
AM_4
100
AcDbLine
 10
6521.333656
 20
1132.335849
 30
0.0
 11
6521.200538
 21
1131.949808
 31
0.0
  0
LINE
  5
283
100
AcDbEntity
  8
AM_4
100
AcDbLine
 10
6521.480085
 20
1132.708578
 30
0.0
 11
6521.333656
 21
1132.335849
 31
0.0
  0
LINE
  5
284
100
AcDbEntity
  8
AM_4
100
AcDbLine
 10
6521.639826
 20
1133.067996
 30
0.0
 11
6521.480085
 21
1132.708578
 31
0.0
  0
LINE
  5
285
100
AcDbEntity
  8
AM_4
100
AcDbLine
 10
6521.826191
 20
1133.427413
 30
0.0
 11
6521.639826
 21
1133.067996
 31
0.0
  0
LINE
  5
286
100
AcDbEntity
  8
AM_4
100
AcDbLine
 10
6522.025868
 20
1133.773519
 30
0.0
 11
6521.826191
 21
1133.427413
 31
0.0
  0
LINE
  5
287
100
AcDbEntity
  8
AM_4
100
AcDbLine
 10
6522.252168
 20
1134.106313
 30
0.0
 11
6522.025868
 21
1133.773519
 31
0.0
  0
LINE
  5
288
100
AcDbEntity
  8
AM_4
100
AcDbLine
 10
6522.478467
 20
1134.425795
 30
0.0
 11
6522.252168
 21
1134.106313
 31
0.0
  0
LINE
  5
289
100
AcDbEntity
  8
AM_4
100
AcDbLine
 10
6522.731391
 20
1134.745278
 30
0.0
 11
6522.478467
 21
1134.425795
 31
0.0
  0
LINE
  5
28A
100
AcDbEntity
  8
AM_4
100
AcDbLine
 10
6522.984314
 20
1135.038136
 30
0.0
 11
6522.731391
 21
1134.745278
 31
0.0
  0
LINE
  5
28B
100
AcDbEntity
  8
AM_4
100
AcDbLine
 10
6523.263861
 20
1135.330995
 30
0.0
 11
6522.984314
 21
1135.038136
 31
0.0
  0
LINE
  5
28C
100
AcDbEntity
  8
AM_4
100
AcDbLine
 10
6523.543408
 20
1135.610542
 30
0.0
 11
6523.263861
 21
1135.330995
 31
0.0
  0
LINE
  5
28D
100
AcDbEntity
  8
AM_4
100
AcDbLine
 10
6523.849579
 20
1135.863466
 30
0.0
 11
6523.543408
 21
1135.610542
 31
0.0
  0
LINE
  5
28E
100
AcDbEntity
  8
AM_4
100
AcDbLine
 10
6524.169061
 20
1136.116389
 30
0.0
 11
6523.849579
 21
1135.863466
 31
0.0
  0
LINE
  5
28F
100
AcDbEntity
  8
AM_4
100
AcDbLine
 10
6524.488544
 20
1136.342689
 30
0.0
 11
6524.169061
 21
1136.116389
 31
0.0
  0
LINE
  5
290
100
AcDbEntity
  8
AM_4
100
AcDbLine
 10
6524.821338
 20
1136.568989
 30
0.0
 11
6524.488544
 21
1136.342689
 31
0.0
  0
LINE
  5
291
100
AcDbEntity
  8
AM_4
100
AcDbLine
 10
6525.167443
 20
1136.768666
 30
0.0
 11
6524.821338
 21
1136.568989
 31
0.0
  0
LINE
  5
292
100
AcDbEntity
  8
AM_4
100
AcDbLine
 10
6525.526861
 20
1136.95503
 30
0.0
 11
6525.167443
 21
1136.768666
 31
0.0
  0
LINE
  5
293
100
AcDbEntity
  8
AM_4
100
AcDbLine
 10
6525.886279
 20
1137.114771
 30
0.0
 11
6525.526861
 21
1136.95503
 31
0.0
  0
LINE
  5
294
100
AcDbEntity
  8
AM_4
100
AcDbLine
 10
6526.259008
 20
1137.261201
 30
0.0
 11
6525.886279
 21
1137.114771
 31
0.0
  0
LINE
  5
295
100
AcDbEntity
  8
AM_4
100
AcDbLine
 10
6526.645049
 20
1137.394318
 30
0.0
 11
6526.259008
 21
1137.261201
 31
0.0
  0
LINE
  5
296
100
AcDbEntity
  8
AM_4
100
AcDbLine
 10
6527.03109
 20
1137.514124
 30
0.0
 11
6526.645049
 21
1137.394318
 31
0.0
  0
LINE
  5
297
100
AcDbEntity
  8
AM_4
100
AcDbLine
 10
6527.430443
 20
1137.607307
 30
0.0
 11
6527.03109
 21
1137.514124
 31
0.0
  0
LINE
  5
298
100
AcDbEntity
  8
AM_4
100
AcDbLine
 10
6527.843108
 20
1137.673865
 30
0.0
 11
6527.430443
 21
1137.607307
 31
0.0
  0
LINE
  5
299
100
AcDbEntity
  8
AM_4
100
AcDbLine
 10
6528.255772
 20
1137.727112
 30
0.0
 11
6527.843108
 21
1137.673865
 31
0.0
  0
LINE
  5
29A
100
AcDbEntity
  8
AM_4
100
AcDbLine
 10
6528.668437
 20
1137.767048
 30
0.0
 11
6528.255772
 21
1137.727112
 31
0.0
  0
LINE
  5
29B
100
AcDbEntity
  8
AM_4
100
AcDbLine
 10
6529.081102
 20
1137.780359
 30
0.0
 11
6528.668437
 21
1137.767048
 31
0.0
  0
LINE
  5
29C
100
AcDbEntity
  8
AM_4
100
AcDbLine
 10
6520.814497
 20
1129.513755
 30
0.0
 11
6520.814497
 21
1129.513755
 31
0.0
  0
LINE
  5
29D
100
AcDbEntity
  8
AM_4
100
AcDbLine
 10
6594.586598
 20
1086.17962
 30
0.0
 11
6597.251613
 21
1087.996675
 31
0.0
  0
LINE
  5
29E
100
AcDbEntity
  8
AM_4
100
AcDbLine
 10
6597.251613
 20
1076.125246
 30
0.0
 11
6596.403654
 21
1075.640697
 31
0.0
  0
LINE
  5
29F
100
AcDbEntity
  8
AM_4
100
AcDbLine
 10
6591.921583
 20
1084.725975
 30
0.0
 11
6594.586598
 21
1086.17962
 31
0.0
  0
LINE
  5
2A0
100
AcDbEntity
  8
AM_4
100
AcDbLine
 10
6588.893157
 20
1083.635742
 30
0.0
 11
6591.921583
 21
1084.725975
 31
0.0
  0
LINE
  5
2A1
100
AcDbEntity
  8
AM_4
100
AcDbLine
 10
6587.439513
 20
1083.272331
 30
0.0
 11
6588.893157
 21
1083.635742
 31
0.0
  0
LINE
  5
2A2
100
AcDbEntity
  8
AM_4
100
AcDbLine
 10
6585.985868
 20
1083.151194
 30
0.0
 11
6587.439513
 21
1083.272331
 31
0.0
  0
LINE
  5
2A3
100
AcDbEntity
  8
AM_4
100
AcDbLine
 10
6583.580433
 20
1083.151194
 30
0.0
 11
6585.985868
 21
1083.151194
 31
0.0
  0
LINE
  5
2A4
100
AcDbEntity
  8
AM_4
100
AcDbLine
 10
6581.884514
 20
1083.514605
 30
0.0
 11
6583.580433
 21
1083.151194
 31
0.0
  0
LINE
  5
2A5
100
AcDbEntity
  8
AM_4
100
AcDbLine
 10
6581.157692
 20
1083.635742
 30
0.0
 11
6581.884514
 21
1083.514605
 31
0.0
  0
LINE
  5
2A6
100
AcDbEntity
  8
AM_4
100
AcDbLine
 10
6594.707735
 20
1106.253758
 30
0.0
 11
6596.524791
 21
1104.211733
 31
0.0
  0
LINE
  5
2A7
100
AcDbEntity
  8
AM_4
100
AcDbLine
 10
6592.406131
 20
1108.19195
 30
0.0
 11
6594.707735
 21
1106.253758
 31
0.0
  0
LINE
  5
2A8
100
AcDbEntity
  8
AM_4
100
AcDbLine
 10
6589.862254
 20
1109.766732
 30
0.0
 11
6592.406131
 21
1108.19195
 31
0.0
  0
LINE
  5
2A9
100
AcDbEntity
  8
AM_4
100
AcDbLine
 10
6587.076102
 20
1110.978102
 30
0.0
 11
6589.862254
 21
1109.766732
 31
0.0
  0
LINE
  5
2AA
100
AcDbEntity
  8
AM_4
100
AcDbLine
 10
6584.064981
 20
1111.826061
 30
0.0
 11
6587.076102
 21
1110.978102
 31
0.0
  0
LINE
  5
2AB
100
AcDbEntity
  8
AM_4
100
AcDbLine
 10
6580.915418
 20
1112.068335
 30
0.0
 11
6584.064981
 21
1111.826061
 31
0.0
  0
LINE
  5
2AC
100
AcDbEntity
  8
AM_4
100
AcDbLine
 10
6578.613814
 20
1111.947198
 30
0.0
 11
6580.915418
 21
1112.068335
 31
0.0
  0
LINE
  5
2AD
100
AcDbEntity
  8
AM_4
100
AcDbLine
 10
6576.554485
 20
1111.583787
 30
0.0
 11
6578.613814
 21
1111.947198
 31
0.0
  0
LINE
  5
2AE
100
AcDbEntity
  8
AM_4
100
AcDbLine
 10
6574.616292
 20
1111.099239
 30
0.0
 11
6576.554485
 21
1111.583787
 31
0.0
  0
LINE
  5
2AF
100
AcDbEntity
  8
AM_4
100
AcDbLine
 10
6572.799237
 20
1110.372417
 30
0.0
 11
6574.616292
 21
1111.099239
 31
0.0
  0
LINE
  5
2B0
100
AcDbEntity
  8
AM_4
100
AcDbLine
 10
6571.103318
 20
1109.524458
 30
0.0
 11
6572.799237
 21
1110.372417
 31
0.0
  0
LINE
  5
2B1
100
AcDbEntity
  8
AM_4
100
AcDbLine
 10
6569.649674
 20
1108.555361
 30
0.0
 11
6571.103318
 21
1109.524458
 31
0.0
  0
LINE
  5
2B2
100
AcDbEntity
  8
AM_4
100
AcDbLine
 10
6566.984659
 20
1106.13262
 30
0.0
 11
6569.649674
 21
1108.555361
 31
0.0
  0
LINE
  5
2B3
100
AcDbEntity
  8
AM_4
100
AcDbLine
 10
6565.911731
 20
1104.817418
 30
0.0
 11
6566.984659
 21
1106.13262
 31
0.0
  0
LINE
  5
2B4
100
AcDbEntity
  8
AM_4
100
AcDbLine
 10
6565.063771
 20
1103.363774
 30
0.0
 11
6565.911731
 21
1104.817418
 31
0.0
  0
LINE
  5
2B5
100
AcDbEntity
  8
AM_4
100
AcDbLine
 10
6564.215812
 20
1101.788992
 30
0.0
 11
6565.063771
 21
1103.363774
 31
0.0
  0
LINE
  5
2B6
100
AcDbEntity
  8
AM_4
100
AcDbLine
 10
6563.610127
 20
1100.214211
 30
0.0
 11
6564.215812
 21
1101.788992
 31
0.0
  0
LINE
  5
2B7
100
AcDbEntity
  8
AM_4
100
AcDbLine
 10
6562.762168
 20
1096.943511
 30
0.0
 11
6563.610127
 21
1100.214211
 31
0.0
  0
LINE
  5
2B8
100
AcDbEntity
  8
AM_4
100
AcDbLine
 10
6562.398757
 20
1093.551674
 30
0.0
 11
6562.762168
 21
1096.943511
 31
0.0
  0
LINE
  5
2B9
100
AcDbEntity
  8
AM_4
100
AcDbLine
 10
6562.519894
 20
1091.007796
 30
0.0
 11
6562.398757
 21
1093.551674
 31
0.0
  0
LINE
  5
2BA
100
AcDbEntity
  8
AM_4
100
AcDbLine
 10
6562.883305
 20
1088.723498
 30
0.0
 11
6562.519894
 21
1091.007796
 31
0.0
  0
LINE
  5
2BB
100
AcDbEntity
  8
AM_4
100
AcDbLine
 10
6563.48899
 20
1086.543031
 30
0.0
 11
6562.883305
 21
1088.723498
 31
0.0
  0
LINE
  5
2BC
100
AcDbEntity
  8
AM_4
100
AcDbLine
 10
6564.336949
 20
1084.483701
 30
0.0
 11
6563.48899
 21
1086.543031
 31
0.0
  0
LINE
  5
2BD
100
AcDbEntity
  8
AM_4
100
AcDbLine
 10
6565.306045
 20
1082.666646
 30
0.0
 11
6564.336949
 21
1084.483701
 31
0.0
  0
LINE
  5
2BE
100
AcDbEntity
  8
AM_4
100
AcDbLine
 10
6566.396279
 20
1080.970727
 30
0.0
 11
6565.306045
 21
1082.666646
 31
0.0
  0
LINE
  5
2BF
100
AcDbEntity
  8
AM_4
100
AcDbLine
 10
6567.711481
 20
1079.395946
 30
0.0
 11
6566.396279
 21
1080.970727
 31
0.0
  0
LINE
  5
2C0
100
AcDbEntity
  8
AM_4
100
AcDbLine
 10
6569.165125
 20
1077.942301
 30
0.0
 11
6567.711481
 21
1079.395946
 31
0.0
  0
LINE
  5
2C1
100
AcDbEntity
  8
AM_4
100
AcDbLine
 10
6570.861044
 20
1076.730931
 30
0.0
 11
6569.165125
 21
1077.942301
 31
0.0
  0
LINE
  5
2C2
100
AcDbEntity
  8
AM_4
100
AcDbLine
 10
6572.556962
 20
1075.761834
 30
0.0
 11
6570.861044
 21
1076.730931
 31
0.0
  0
LINE
  5
2C3
100
AcDbEntity
  8
AM_4
100
AcDbLine
 10
6574.374018
 20
1074.792738
 30
0.0
 11
6572.556962
 21
1075.761834
 31
0.0
  0
LINE
  5
2C4
100
AcDbEntity
  8
AM_4
100
AcDbLine
 10
6576.191074
 20
1074.065916
 30
0.0
 11
6574.374018
 21
1074.792738
 31
0.0
  0
LINE
  5
2C5
100
AcDbEntity
  8
AM_4
100
AcDbLine
 10
6578.250403
 20
1073.581368
 30
0.0
 11
6576.191074
 21
1074.065916
 31
0.0
  0
LINE
  5
2C6
100
AcDbEntity
  8
AM_4
100
AcDbLine
 10
6580.188596
 20
1073.09682
 30
0.0
 11
6578.250403
 21
1073.581368
 31
0.0
  0
LINE
  5
2C7
100
AcDbEntity
  8
AM_4
100
AcDbLine
 10
6582.247926
 20
1072.854546
 30
0.0
 11
6580.188596
 21
1073.09682
 31
0.0
  0
LINE
  5
2C8
100
AcDbEntity
  8
AM_4
100
AcDbLine
 10
6584.28995
 20
1072.854546
 30
0.0
 11
6582.247926
 21
1072.854546
 31
0.0
  0
LINE
  5
2C9
100
AcDbEntity
  8
AM_4
100
AcDbLine
 10
6587.076102
 20
1072.975683
 30
0.0
 11
6584.28995
 21
1072.854546
 31
0.0
  0
LINE
  5
2CA
100
AcDbEntity
  8
AM_4
100
AcDbLine
 10
6589.61998
 20
1073.339094
 30
0.0
 11
6587.076102
 21
1072.975683
 31
0.0
  0
LINE
  5
2CB
100
AcDbEntity
  8
AM_4
100
AcDbLine
 10
6591.800446
 20
1073.823642
 30
0.0
 11
6589.61998
 21
1073.339094
 31
0.0
  0
LINE
  5
2CC
100
AcDbEntity
  8
AM_4
100
AcDbLine
 10
6593.738639
 20
1074.429327
 30
0.0
 11
6591.800446
 21
1073.823642
 31
0.0
  0
LINE
  5
2CD
100
AcDbEntity
  8
AM_4
100
AcDbLine
 10
6596.403654
 20
1075.640697
 30
0.0
 11
6593.738639
 21
1074.429327
 31
0.0
  0
LINE
  5
2CE
100
AcDbEntity
  8
AM_4
100
AcDbLine
 10
6556.099631
 20
1097.428059
 30
0.0
 11
6556.099631
 21
1097.428059
 31
0.0
  0
LINE
  5
2CF
100
AcDbEntity
  8
AM_4
100
AcDbLine
 10
6556.099631
 20
1073.339094
 30
0.0
 11
6556.099631
 21
1097.428059
 31
0.0
  0
LINE
  5
2D0
100
AcDbEntity
  8
AM_4
100
AcDbLine
 10
6544.366643
 20
1073.339094
 30
0.0
 11
6556.099631
 21
1073.339094
 31
0.0
  0
LINE
  5
2D1
100
AcDbEntity
  8
AM_4
100
AcDbLine
 10
6544.366643
 20
1101.06217
 30
0.0
 11
6544.366643
 21
1073.339094
 31
0.0
  0
LINE
  5
2D2
100
AcDbEntity
  8
AM_4
100
AcDbLine
 10
6544.48778
 20
1102.636952
 30
0.0
 11
6544.366643
 21
1101.06217
 31
0.0
  0
LINE
  5
2D3
100
AcDbEntity
  8
AM_4
100
AcDbLine
 10
6544.972328
 20
1104.33287
 30
0.0
 11
6544.48778
 21
1102.636952
 31
0.0
  0
LINE
  5
2D4
100
AcDbEntity
  8
AM_4
100
AcDbLine
 10
6545.820288
 20
1106.374895
 30
0.0
 11
6544.972328
 21
1104.33287
 31
0.0
  0
LINE
  5
2D5
100
AcDbEntity
  8
AM_4
100
AcDbLine
 10
6546.54711
 20
1107.343991
 30
0.0
 11
6545.820288
 21
1106.374895
 31
0.0
  0
LINE
  5
2D6
100
AcDbEntity
  8
AM_4
100
AcDbLine
 10
6547.395069
 20
1108.313087
 30
0.0
 11
6546.54711
 21
1107.343991
 31
0.0
  0
LINE
  5
2D7
100
AcDbEntity
  8
AM_4
100
AcDbLine
 10
6548.485302
 20
1109.161046
 30
0.0
 11
6547.395069
 21
1108.313087
 31
0.0
  0
LINE
  5
2D8
100
AcDbEntity
  8
AM_4
100
AcDbLine
 10
6549.679368
 20
1110.009006
 30
0.0
 11
6548.485302
 21
1109.161046
 31
0.0
  0
LINE
  5
2D9
100
AcDbEntity
  8
AM_4
100
AcDbLine
 10
6551.254149
 20
1110.614691
 30
0.0
 11
6549.679368
 21
1110.009006
 31
0.0
  0
LINE
  5
2DA
100
AcDbEntity
  8
AM_4
100
AcDbLine
 10
6552.950068
 20
1111.220376
 30
0.0
 11
6551.254149
 21
1110.614691
 31
0.0
  0
LINE
  5
2DB
100
AcDbEntity
  8
AM_4
100
AcDbLine
 10
6555.009397
 20
1111.46265
 30
0.0
 11
6552.950068
 21
1111.220376
 31
0.0
  0
LINE
  5
2DC
100
AcDbEntity
  8
AM_4
100
AcDbLine
 10
6557.432138
 20
1111.583787
 30
0.0
 11
6555.009397
 21
1111.46265
 31
0.0
  0
LINE
  5
2DD
100
AcDbEntity
  8
AM_4
100
AcDbLine
 10
6561.793071
 20
1111.583787
 30
0.0
 11
6557.432138
 21
1111.583787
 31
0.0
  0
LINE
  5
2DE
100
AcDbEntity
  8
AM_4
100
AcDbLine
 10
6561.793071
 20
1101.546718
 30
0.0
 11
6561.793071
 21
1111.583787
 31
0.0
  0
LINE
  5
2DF
100
AcDbEntity
  8
AM_4
100
AcDbLine
 10
6560.460564
 20
1101.546718
 30
0.0
 11
6561.793071
 21
1101.546718
 31
0.0
  0
LINE
  5
2E0
100
AcDbEntity
  8
AM_4
100
AcDbLine
 10
6559.733742
 20
1101.425581
 30
0.0
 11
6560.460564
 21
1101.546718
 31
0.0
  0
LINE
  5
2E1
100
AcDbEntity
  8
AM_4
100
AcDbLine
 10
6558.280097
 20
1101.06217
 30
0.0
 11
6559.733742
 21
1101.425581
 31
0.0
  0
LINE
  5
2E2
100
AcDbEntity
  8
AM_4
100
AcDbLine
 10
6557.553275
 20
1100.456485
 30
0.0
 11
6558.280097
 21
1101.06217
 31
0.0
  0
LINE
  5
2E3
100
AcDbEntity
  8
AM_4
100
AcDbLine
 10
6556.826453
 20
1099.729663
 30
0.0
 11
6557.553275
 21
1100.456485
 31
0.0
  0
LINE
  5
2E4
100
AcDbEntity
  8
AM_4
100
AcDbLine
 10
6556.341905
 20
1098.760566
 30
0.0
 11
6556.826453
 21
1099.729663
 31
0.0
  0
LINE
  5
2E5
100
AcDbEntity
  8
AM_4
100
AcDbLine
 10
6556.099631
 20
1097.428059
 30
0.0
 11
6556.341905
 21
1098.760566
 31
0.0
  0
LINE
  5
2E6
100
AcDbEntity
  8
AM_4
100
AcDbLine
 10
6573.88947
 20
1090.644385
 30
0.0
 11
6573.88947
 21
1090.644385
 31
0.0
  0
LINE
  5
2E7
100
AcDbEntity
  8
AM_4
100
AcDbLine
 10
6573.526059
 20
1091.492344
 30
0.0
 11
6573.88947
 21
1090.644385
 31
0.0
  0
LINE
  5
2E8
100
AcDbEntity
  8
AM_4
100
AcDbLine
 10
6573.283785
 20
1092.46144
 30
0.0
 11
6573.526059
 21
1091.492344
 31
0.0
  0
LINE
  5
2E9
100
AcDbEntity
  8
AM_4
100
AcDbLine
 10
6573.041511
 20
1093.672811
 30
0.0
 11
6573.283785
 21
1092.46144
 31
0.0
  0
LINE
  5
2EA
100
AcDbEntity
  8
AM_4
100
AcDbLine
 10
6573.162648
 20
1095.126455
 30
0.0
 11
6573.041511
 21
1093.672811
 31
0.0
  0
LINE
  5
2EB
100
AcDbEntity
  8
AM_4
100
AcDbLine
 10
6573.526059
 20
1096.701237
 30
0.0
 11
6573.162648
 21
1095.126455
 31
0.0
  0
LINE
  5
2EC
100
AcDbEntity
  8
AM_4
100
AcDbLine
 10
6574.374018
 20
1098.397155
 30
0.0
 11
6573.526059
 21
1096.701237
 31
0.0
  0
LINE
  5
2ED
100
AcDbEntity
  8
AM_4
100
AcDbLine
 10
6575.827663
 20
1100.093074
 30
0.0
 11
6574.374018
 21
1098.397155
 31
0.0
  0
LINE
  5
2EE
100
AcDbEntity
  8
AM_4
100
AcDbLine
 10
6577.523581
 20
1101.304444
 30
0.0
 11
6575.827663
 21
1100.093074
 31
0.0
  0
LINE
  5
2EF
100
AcDbEntity
  8
AM_4
100
AcDbLine
 10
6579.340637
 20
1101.910129
 30
0.0
 11
6577.523581
 21
1101.304444
 31
0.0
  0
LINE
  5
2F0
100
AcDbEntity
  8
AM_4
100
AcDbLine
 10
6581.036555
 20
1102.031266
 30
0.0
 11
6579.340637
 21
1101.910129
 31
0.0
  0
LINE
  5
2F1
100
AcDbEntity
  8
AM_4
100
AcDbLine
 10
6582.4902
 20
1101.788992
 30
0.0
 11
6581.036555
 21
1102.031266
 31
0.0
  0
LINE
  5
2F2
100
AcDbEntity
  8
AM_4
100
AcDbLine
 10
6583.822707
 20
1101.425581
 30
0.0
 11
6582.4902
 21
1101.788992
 31
0.0
  0
LINE
  5
2F3
100
AcDbEntity
  8
AM_4
100
AcDbLine
 10
6584.774498
 20
1100.941033
 30
0.0
 11
6583.822707
 21
1101.425581
 31
0.0
  0
LINE
  5
2F4
100
AcDbEntity
  8
AM_4
100
AcDbLine
 10
6585.622457
 20
1100.456485
 30
0.0
 11
6584.774498
 21
1100.941033
 31
0.0
  0
LINE
  5
2F5
100
AcDbEntity
  8
AM_4
100
AcDbLine
 10
6573.88947
 20
1090.644385
 30
0.0
 11
6585.622457
 21
1100.456485
 31
0.0
  0
LINE
  5
2F6
100
AcDbEntity
  8
AM_4
100
AcDbLine
 10
6597.251613
 20
1087.996675
 30
0.0
 11
6597.251613
 21
1087.996675
 31
0.0
  0
LINE
  5
2F7
100
AcDbEntity
  8
AM_4
100
AcDbLine
 10
6597.251613
 20
1087.996675
 30
0.0
 11
6597.251613
 21
1076.125246
 31
0.0
  0
LINE
  5
2F8
100
AcDbEntity
  8
AM_4
100
AcDbLine
 10
6650.015446
 20
1090.644385
 30
0.0
 11
6661.748433
 21
1100.456485
 31
0.0
  0
LINE
  5
2F9
100
AcDbEntity
  8
AM_4
100
AcDbLine
 10
6655.449307
 20
1101.910129
 30
0.0
 11
6653.632252
 21
1101.304444
 31
0.0
  0
LINE
  5
2FA
100
AcDbEntity
  8
AM_4
100
AcDbLine
 10
6652.680461
 20
1111.583787
 30
0.0
 11
6654.722485
 21
1111.947198
 31
0.0
  0
LINE
  5
2FB
100
AcDbEntity
  8
AM_4
100
AcDbLine
 10
6656.297266
 20
1073.09682
 30
0.0
 11
6654.359074
 21
1073.581368
 31
0.0
  0
LINE
  5
2FC
100
AcDbEntity
  8
AM_4
100
AcDbLine
 10
6650.499994
 20
1098.397155
 30
0.0
 11
6649.652035
 21
1096.701237
 31
0.0
  0
LINE
  5
2FD
100
AcDbEntity
  8
AM_4
100
AcDbLine
 10
6648.925212
 20
1110.372417
 30
0.0
 11
6650.742268
 21
1111.099239
 31
0.0
  0
LINE
  5
2FE
100
AcDbEntity
  8
AM_4
100
AcDbLine
 10
6650.499994
 20
1074.792738
 30
0.0
 11
6648.682938
 21
1075.761834
 31
0.0
  0
LINE
  5
2FF
100
AcDbEntity
  8
AM_4
100
AcDbLine
 10
6598.099572
 20
1101.788992
 30
0.0
 11
6599.189806
 21
1099.366252
 31
0.0
  0
LINE
  5
300
100
AcDbEntity
  8
AM_4
100
AcDbLine
 10
6601.716378
 20
1073.460231
 30
0.0
 11
6601.716378
 21
1073.460231
 31
0.0
  0
LINE
  5
301
100
AcDbEntity
  8
AM_4
100
AcDbLine
 10
6613.466671
 20
1073.460231
 30
0.0
 11
6601.716378
 21
1073.460231
 31
0.0
  0
LINE
  5
302
100
AcDbEntity
  8
AM_4
100
AcDbLine
 10
6613.466671
 20
1099.366252
 30
0.0
 11
6613.466671
 21
1073.460231
 31
0.0
  0
LINE
  5
303
100
AcDbEntity
  8
AM_4
100
AcDbLine
 10
6618.675563
 20
1099.366252
 30
0.0
 11
6613.466671
 21
1099.366252
 31
0.0
  0
LINE
  5
304
100
AcDbEntity
  8
AM_4
100
AcDbLine
 10
6618.675563
 20
1108.434224
 30
0.0
 11
6618.675563
 21
1099.366252
 31
0.0
  0
LINE
  5
305
100
AcDbEntity
  8
AM_4
100
AcDbLine
 10
6613.466671
 20
1108.434224
 30
0.0
 11
6618.675563
 21
1108.434224
 31
0.0
  0
LINE
  5
306
100
AcDbEntity
  8
AM_4
100
AcDbLine
 10
6613.466671
 20
1112.431746
 30
0.0
 11
6613.466671
 21
1108.434224
 31
0.0
  0
LINE
  5
307
100
AcDbEntity
  8
AM_4
100
AcDbLine
 10
6613.708945
 20
1113.764254
 30
0.0
 11
6613.466671
 21
1112.431746
 31
0.0
  0
LINE
  5
308
100
AcDbEntity
  8
AM_4
100
AcDbLine
 10
6614.193493
 20
1114.73335
 30
0.0
 11
6613.708945
 21
1113.764254
 31
0.0
  0
LINE
  5
309
100
AcDbEntity
  8
AM_4
100
AcDbLine
 10
6614.920315
 20
1115.460172
 30
0.0
 11
6614.193493
 21
1114.73335
 31
0.0
  0
LINE
  5
30A
100
AcDbEntity
  8
AM_4
100
AcDbLine
 10
6615.647138
 20
1116.065858
 30
0.0
 11
6614.920315
 21
1115.460172
 31
0.0
  0
LINE
  5
30B
100
AcDbEntity
  8
AM_4
100
AcDbLine
 10
6617.221919
 20
1116.429269
 30
0.0
 11
6615.647138
 21
1116.065858
 31
0.0
  0
LINE
  5
30C
100
AcDbEntity
  8
AM_4
100
AcDbLine
 10
6617.827604
 20
1116.550406
 30
0.0
 11
6617.221919
 21
1116.429269
 31
0.0
  0
LINE
  5
30D
100
AcDbEntity
  8
AM_4
100
AcDbLine
 10
6619.142806
 20
1116.550406
 30
0.0
 11
6617.827604
 21
1116.550406
 31
0.0
  0
LINE
  5
30E
100
AcDbEntity
  8
AM_4
100
AcDbLine
 10
6619.142806
 20
1125.860652
 30
0.0
 11
6619.142806
 21
1116.550406
 31
0.0
  0
LINE
  5
30F
100
AcDbEntity
  8
AM_4
100
AcDbLine
 10
6614.799178
 20
1125.860652
 30
0.0
 11
6619.142806
 21
1125.860652
 31
0.0
  0
LINE
  5
310
100
AcDbEntity
  8
AM_4
100
AcDbLine
 10
6612.497575
 20
1125.739515
 30
0.0
 11
6614.799178
 21
1125.860652
 31
0.0
  0
LINE
  5
311
100
AcDbEntity
  8
AM_4
100
AcDbLine
 10
6610.438245
 20
1125.376104
 30
0.0
 11
6612.497575
 21
1125.739515
 31
0.0
  0
LINE
  5
312
100
AcDbEntity
  8
AM_4
100
AcDbLine
 10
6608.621189
 20
1124.770419
 30
0.0
 11
6610.438245
 21
1125.376104
 31
0.0
  0
LINE
  5
313
100
AcDbEntity
  8
AM_4
100
AcDbLine
 10
6607.046408
 20
1124.164734
 30
0.0
 11
6608.621189
 21
1124.770419
 31
0.0
  0
LINE
  5
314
100
AcDbEntity
  8
AM_4
100
AcDbLine
 10
6605.835037
 20
1123.316775
 30
0.0
 11
6607.046408
 21
1124.164734
 31
0.0
  0
LINE
  5
315
100
AcDbEntity
  8
AM_4
100
AcDbLine
 10
6604.744804
 20
1122.486121
 30
0.0
 11
6605.835037
 21
1123.316775
 31
0.0
  0
LINE
  5
316
100
AcDbEntity
  8
AM_4
100
AcDbLine
 10
6603.896845
 20
1121.517024
 30
0.0
 11
6604.744804
 21
1122.486121
 31
0.0
  0
LINE
  5
317
100
AcDbEntity
  8
AM_4
100
AcDbLine
 10
6603.29116
 20
1120.547928
 30
0.0
 11
6603.896845
 21
1121.517024
 31
0.0
  0
LINE
  5
318
100
AcDbEntity
  8
AM_4
100
AcDbLine
 10
6602.322063
 20
1118.609735
 30
0.0
 11
6603.29116
 21
1120.547928
 31
0.0
  0
LINE
  5
319
100
AcDbEntity
  8
AM_4
100
AcDbLine
 10
6601.837515
 20
1116.79268
 30
0.0
 11
6602.322063
 21
1118.609735
 31
0.0
  0
LINE
  5
31A
100
AcDbEntity
  8
AM_4
100
AcDbLine
 10
6601.716378
 20
1115.217898
 30
0.0
 11
6601.837515
 21
1116.79268
 31
0.0
  0
LINE
  5
31B
100
AcDbEntity
  8
AM_4
100
AcDbLine
 10
6601.716378
 20
1073.460231
 30
0.0
 11
6601.716378
 21
1115.217898
 31
0.0
  0
LINE
  5
31C
100
AcDbEntity
  8
AM_4
100
AcDbLine
 10
6650.015446
 20
1090.644385
 30
0.0
 11
6650.015446
 21
1090.644385
 31
0.0
  0
LINE
  5
31D
100
AcDbEntity
  8
AM_4
100
AcDbLine
 10
6649.652035
 20
1091.492344
 30
0.0
 11
6650.015446
 21
1090.644385
 31
0.0
  0
LINE
  5
31E
100
AcDbEntity
  8
AM_4
100
AcDbLine
 10
6649.409761
 20
1092.46144
 30
0.0
 11
6649.652035
 21
1091.492344
 31
0.0
  0
LINE
  5
31F
100
AcDbEntity
  8
AM_4
100
AcDbLine
 10
6649.167487
 20
1093.672811
 30
0.0
 11
6649.409761
 21
1092.46144
 31
0.0
  0
LINE
  5
320
100
AcDbEntity
  8
AM_4
100
AcDbLine
 10
6649.288624
 20
1095.126455
 30
0.0
 11
6649.167487
 21
1093.672811
 31
0.0
  0
LINE
  5
321
100
AcDbEntity
  8
AM_4
100
AcDbLine
 10
6649.652035
 20
1096.701237
 30
0.0
 11
6649.288624
 21
1095.126455
 31
0.0
  0
LINE
  5
322
100
AcDbEntity
  8
AM_4
100
AcDbLine
 10
6647.229294
 20
1109.524458
 30
0.0
 11
6648.925212
 21
1110.372417
 31
0.0
  0
LINE
  5
323
100
AcDbEntity
  8
AM_4
100
AcDbLine
 10
6645.775649
 20
1108.555361
 30
0.0
 11
6647.229294
 21
1109.524458
 31
0.0
  0
LINE
  5
324
100
AcDbEntity
  8
AM_4
100
AcDbLine
 10
6643.110635
 20
1106.13262
 30
0.0
 11
6645.775649
 21
1108.555361
 31
0.0
  0
LINE
  5
325
100
AcDbEntity
  8
AM_4
100
AcDbLine
 10
6642.141538
 20
1104.817418
 30
0.0
 11
6643.110635
 21
1106.13262
 31
0.0
  0
LINE
  5
326
100
AcDbEntity
  8
AM_4
100
AcDbLine
 10
6641.172442
 20
1103.363774
 30
0.0
 11
6642.141538
 21
1104.817418
 31
0.0
  0
LINE
  5
327
100
AcDbEntity
  8
AM_4
100
AcDbLine
 10
6640.324483
 20
1101.788992
 30
0.0
 11
6641.172442
 21
1103.363774
 31
0.0
  0
LINE
  5
328
100
AcDbEntity
  8
AM_4
100
AcDbLine
 10
6639.718798
 20
1100.214211
 30
0.0
 11
6640.324483
 21
1101.788992
 31
0.0
  0
LINE
  5
329
100
AcDbEntity
  8
AM_4
100
AcDbLine
 10
6638.870838
 20
1096.943511
 30
0.0
 11
6639.718798
 21
1100.214211
 31
0.0
  0
LINE
  5
32A
100
AcDbEntity
  8
AM_4
100
AcDbLine
 10
6638.507427
 20
1093.551674
 30
0.0
 11
6638.870838
 21
1096.943511
 31
0.0
  0
LINE
  5
32B
100
AcDbEntity
  8
AM_4
100
AcDbLine
 10
6638.628564
 20
1091.007796
 30
0.0
 11
6638.507427
 21
1093.551674
 31
0.0
  0
LINE
  5
32C
100
AcDbEntity
  8
AM_4
100
AcDbLine
 10
6638.991975
 20
1088.723498
 30
0.0
 11
6638.628564
 21
1091.007796
 31
0.0
  0
LINE
  5
32D
100
AcDbEntity
  8
AM_4
100
AcDbLine
 10
6639.59766
 20
1086.543031
 30
0.0
 11
6638.991975
 21
1088.723498
 31
0.0
  0
LINE
  5
32E
100
AcDbEntity
  8
AM_4
100
AcDbLine
 10
6640.44562
 20
1084.483701
 30
0.0
 11
6639.59766
 21
1086.543031
 31
0.0
  0
LINE
  5
32F
100
AcDbEntity
  8
AM_4
100
AcDbLine
 10
6641.414716
 20
1082.666646
 30
0.0
 11
6640.44562
 21
1084.483701
 31
0.0
  0
LINE
  5
330
100
AcDbEntity
  8
AM_4
100
AcDbLine
 10
6642.504949
 20
1080.970727
 30
0.0
 11
6641.414716
 21
1082.666646
 31
0.0
  0
LINE
  5
331
100
AcDbEntity
  8
AM_4
100
AcDbLine
 10
6643.837457
 20
1079.395946
 30
0.0
 11
6642.504949
 21
1080.970727
 31
0.0
  0
LINE
  5
332
100
AcDbEntity
  8
AM_4
100
AcDbLine
 10
6645.412238
 20
1077.942301
 30
0.0
 11
6643.837457
 21
1079.395946
 31
0.0
  0
LINE
  5
333
100
AcDbEntity
  8
AM_4
100
AcDbLine
 10
6646.98702
 20
1076.730931
 30
0.0
 11
6645.412238
 21
1077.942301
 31
0.0
  0
LINE
  5
334
100
AcDbEntity
  8
AM_4
100
AcDbLine
 10
6648.682938
 20
1075.761834
 30
0.0
 11
6646.98702
 21
1076.730931
 31
0.0
  0
LINE
  5
335
100
AcDbEntity
  8
AM_4
100
AcDbLine
 10
6623.019192
 20
1125.860652
 30
0.0
 11
6623.019192
 21
1125.860652
 31
0.0
  0
LINE
  5
336
100
AcDbEntity
  8
AM_4
100
AcDbLine
 10
6635.254032
 20
1125.860652
 30
0.0
 11
6623.019192
 21
1125.860652
 31
0.0
  0
LINE
  5
337
100
AcDbEntity
  8
AM_4
100
AcDbLine
 10
6635.254032
 20
1073.460231
 30
0.0
 11
6635.254032
 21
1125.860652
 31
0.0
  0
LINE
  5
338
100
AcDbEntity
  8
AM_4
100
AcDbLine
 10
6623.019192
 20
1073.460231
 30
0.0
 11
6635.254032
 21
1073.460231
 31
0.0
  0
LINE
  5
339
100
AcDbEntity
  8
AM_4
100
AcDbLine
 10
6623.019192
 20
1125.860652
 30
0.0
 11
6623.019192
 21
1073.460231
 31
0.0
  0
LINE
  5
33A
100
AcDbEntity
  8
AM_4
100
AcDbLine
 10
6651.953638
 20
1100.093074
 30
0.0
 11
6650.499994
 21
1098.397155
 31
0.0
  0
LINE
  5
33B
100
AcDbEntity
  8
AM_4
100
AcDbLine
 10
6653.632252
 20
1101.304444
 30
0.0
 11
6651.953638
 21
1100.093074
 31
0.0
  0
LINE
  5
33C
100
AcDbEntity
  8
AM_4
100
AcDbLine
 10
6650.742268
 20
1111.099239
 30
0.0
 11
6652.680461
 21
1111.583787
 31
0.0
  0
LINE
  5
33D
100
AcDbEntity
  8
AM_4
100
AcDbLine
 10
6652.31705
 20
1074.065916
 30
0.0
 11
6650.499994
 21
1074.792738
 31
0.0
  0
LINE
  5
33E
100
AcDbEntity
  8
AM_4
100
AcDbLine
 10
6654.359074
 20
1073.581368
 30
0.0
 11
6652.31705
 21
1074.065916
 31
0.0
  0
LINE
  5
33F
100
AcDbEntity
  8
AM_4
100
AcDbLine
 10
6710.27247
 20
1073.460231
 30
0.0
 11
6698.297208
 21
1073.460231
 31
0.0
  0
LINE
  5
340
100
AcDbEntity
  8
AM_4
100
AcDbLine
 10
6698.176071
 20
1111.220376
 30
0.0
 11
6709.545647
 21
1111.220376
 31
0.0
  0
LINE
  5
341
100
AcDbEntity
  8
AM_4
100
AcDbLine
 10
6677.721217
 20
1111.220376
 30
0.0
 11
6677.721217
 21
1111.220376
 31
0.0
  0
LINE
  5
342
100
AcDbEntity
  8
AM_4
100
AcDbLine
 10
6677.721217
 20
1103.000363
 30
0.0
 11
6677.721217
 21
1111.220376
 31
0.0
  0
LINE
  5
343
100
AcDbEntity
  8
AM_4
100
AcDbLine
 10
6677.963491
 20
1100.456485
 30
0.0
 11
6677.721217
 21
1103.000363
 31
0.0
  0
LINE
  5
344
100
AcDbEntity
  8
AM_4
100
AcDbLine
 10
6678.569176
 20
1098.518292
 30
0.0
 11
6677.963491
 21
1100.456485
 31
0.0
  0
LINE
  5
345
100
AcDbEntity
  8
AM_4
100
AcDbLine
 10
6679.295998
 20
1096.822374
 30
0.0
 11
6678.569176
 21
1098.518292
 31
0.0
  0
LINE
  5
346
100
AcDbEntity
  8
AM_4
100
AcDbLine
 10
6680.265095
 20
1095.611003
 30
0.0
 11
6679.295998
 21
1096.822374
 31
0.0
  0
LINE
  5
347
100
AcDbEntity
  8
AM_4
100
AcDbLine
 10
6681.234191
 20
1094.641907
 30
0.0
 11
6680.265095
 21
1095.611003
 31
0.0
  0
LINE
  5
348
100
AcDbEntity
  8
AM_4
100
AcDbLine
 10
6681.961013
 20
1094.036222
 30
0.0
 11
6681.234191
 21
1094.641907
 31
0.0
  0
LINE
  5
349
100
AcDbEntity
  8
AM_4
100
AcDbLine
 10
6682.808973
 20
1093.551674
 30
0.0
 11
6681.961013
 21
1094.036222
 31
0.0
  0
LINE
  5
34A
100
AcDbEntity
  8
AM_4
100
AcDbLine
 10
6681.718739
 20
1093.067126
 30
0.0
 11
6682.808973
 21
1093.551674
 31
0.0
  0
LINE
  5
34B
100
AcDbEntity
  8
AM_4
100
AcDbLine
 10
6680.87078
 20
1092.46144
 30
0.0
 11
6681.718739
 21
1093.067126
 31
0.0
  0
LINE
  5
34C
100
AcDbEntity
  8
AM_4
100
AcDbLine
 10
6679.538273
 20
1091.007796
 30
0.0
 11
6680.87078
 21
1092.46144
 31
0.0
  0
LINE
  5
34D
100
AcDbEntity
  8
AM_4
100
AcDbLine
 10
6678.448039
 20
1089.311877
 30
0.0
 11
6679.538273
 21
1091.007796
 31
0.0
  0
LINE
  5
34E
100
AcDbEntity
  8
AM_4
100
AcDbLine
 10
6677.842354
 20
1087.633264
 30
0.0
 11
6678.448039
 21
1089.311877
 31
0.0
  0
LINE
  5
34F
100
AcDbEntity
  8
AM_4
100
AcDbLine
 10
6677.357806
 20
1086.058483
 30
0.0
 11
6677.842354
 21
1087.633264
 31
0.0
  0
LINE
  5
350
100
AcDbEntity
  8
AM_4
100
AcDbLine
 10
6677.115532
 20
1084.725975
 30
0.0
 11
6677.357806
 21
1086.058483
 31
0.0
  0
LINE
  5
351
100
AcDbEntity
  8
AM_4
100
AcDbLine
 10
6676.994395
 20
1083.514605
 30
0.0
 11
6677.115532
 21
1084.725975
 31
0.0
  0
LINE
  5
352
100
AcDbEntity
  8
AM_4
100
AcDbLine
 10
6676.994395
 20
1073.460231
 30
0.0
 11
6676.994395
 21
1083.514605
 31
0.0
  0
LINE
  5
353
100
AcDbEntity
  8
AM_4
100
AcDbLine
 10
6689.090793
 20
1073.460231
 30
0.0
 11
6676.994395
 21
1073.460231
 31
0.0
  0
LINE
  5
354
100
AcDbEntity
  8
AM_4
100
AcDbLine
 10
6689.090793
 20
1082.666646
 30
0.0
 11
6689.090793
 21
1073.460231
 31
0.0
  0
LINE
  5
355
100
AcDbEntity
  8
AM_4
100
AcDbLine
 10
6689.21193
 20
1083.635742
 30
0.0
 11
6689.090793
 21
1082.666646
 31
0.0
  0
LINE
  5
356
100
AcDbEntity
  8
AM_4
100
AcDbLine
 10
6689.333067
 20
1084.483701
 30
0.0
 11
6689.21193
 21
1083.635742
 31
0.0
  0
LINE
  5
357
100
AcDbEntity
  8
AM_4
100
AcDbLine
 10
6689.575341
 20
1085.573935
 30
0.0
 11
6689.333067
 21
1084.483701
 31
0.0
  0
LINE
  5
358
100
AcDbEntity
  8
AM_4
100
AcDbLine
 10
6690.181027
 20
1086.543031
 30
0.0
 11
6689.575341
 21
1085.573935
 31
0.0
  0
LINE
  5
359
100
AcDbEntity
  8
AM_4
100
AcDbLine
 10
6691.028986
 20
1087.512127
 30
0.0
 11
6690.181027
 21
1086.543031
 31
0.0
  0
LINE
  5
35A
100
AcDbEntity
  8
AM_4
100
AcDbLine
 10
6692.240356
 20
1088.117812
 30
0.0
 11
6691.028986
 21
1087.512127
 31
0.0
  0
LINE
  5
35B
100
AcDbEntity
  8
AM_4
100
AcDbLine
 10
6693.936275
 20
1088.360086
 30
0.0
 11
6692.240356
 21
1088.117812
 31
0.0
  0
LINE
  5
35C
100
AcDbEntity
  8
AM_4
100
AcDbLine
 10
6695.511056
 20
1088.117812
 30
0.0
 11
6693.936275
 21
1088.360086
 31
0.0
  0
LINE
  5
35D
100
AcDbEntity
  8
AM_4
100
AcDbLine
 10
6696.722427
 20
1087.512127
 30
0.0
 11
6695.511056
 21
1088.117812
 31
0.0
  0
LINE
  5
35E
100
AcDbEntity
  8
AM_4
100
AcDbLine
 10
6697.449249
 20
1086.543031
 30
0.0
 11
6696.722427
 21
1087.512127
 31
0.0
  0
LINE
  5
35F
100
AcDbEntity
  8
AM_4
100
AcDbLine
 10
6697.933797
 20
1085.452798
 30
0.0
 11
6697.449249
 21
1086.543031
 31
0.0
  0
LINE
  5
360
100
AcDbEntity
  8
AM_4
100
AcDbLine
 10
6698.176071
 20
1084.483701
 30
0.0
 11
6697.933797
 21
1085.452798
 31
0.0
  0
LINE
  5
361
100
AcDbEntity
  8
AM_4
100
AcDbLine
 10
6698.297208
 20
1083.514605
 30
0.0
 11
6698.176071
 21
1084.483701
 31
0.0
  0
LINE
  5
362
100
AcDbEntity
  8
AM_4
100
AcDbLine
 10
6698.297208
 20
1073.460231
 30
0.0
 11
6698.297208
 21
1083.514605
 31
0.0
  0
LINE
  5
363
100
AcDbEntity
  8
AM_4
100
AcDbLine
 10
6698.176071
 20
1104.33287
 30
0.0
 11
6698.176071
 21
1111.220376
 31
0.0
  0
LINE
  5
364
100
AcDbEntity
  8
AM_4
100
AcDbLine
 10
6698.054934
 20
1103.484911
 30
0.0
 11
6698.176071
 21
1104.33287
 31
0.0
  0
LINE
  5
365
100
AcDbEntity
  8
AM_4
100
AcDbLine
 10
6697.570386
 20
1101.788992
 30
0.0
 11
6698.054934
 21
1103.484911
 31
0.0
  0
LINE
  5
366
100
AcDbEntity
  8
AM_4
100
AcDbLine
 10
6697.085838
 20
1100.941033
 30
0.0
 11
6697.570386
 21
1101.788992
 31
0.0
  0
LINE
  5
367
100
AcDbEntity
  8
AM_4
100
AcDbLine
 10
6696.237879
 20
1100.093074
 30
0.0
 11
6697.085838
 21
1100.941033
 31
0.0
  0
LINE
  5
368
100
AcDbEntity
  8
AM_4
100
AcDbLine
 10
6695.026508
 20
1099.487389
 30
0.0
 11
6696.237879
 21
1100.093074
 31
0.0
  0
LINE
  5
369
100
AcDbEntity
  8
AM_4
100
AcDbLine
 10
6693.572864
 20
1099.366252
 30
0.0
 11
6695.026508
 21
1099.487389
 31
0.0
  0
LINE
  5
36A
100
AcDbEntity
  8
AM_4
100
AcDbLine
 10
6692.119219
 20
1099.487389
 30
0.0
 11
6693.572864
 21
1099.366252
 31
0.0
  0
LINE
  5
36B
100
AcDbEntity
  8
AM_4
100
AcDbLine
 10
6690.907849
 20
1100.093074
 30
0.0
 11
6692.119219
 21
1099.487389
 31
0.0
  0
LINE
  5
36C
100
AcDbEntity
  8
AM_4
100
AcDbLine
 10
6690.181027
 20
1100.819896
 30
0.0
 11
6690.907849
 21
1100.093074
 31
0.0
  0
LINE
  5
36D
100
AcDbEntity
  8
AM_4
100
AcDbLine
 10
6689.696478
 20
1101.788992
 30
0.0
 11
6690.181027
 21
1100.819896
 31
0.0
  0
LINE
  5
36E
100
AcDbEntity
  8
AM_4
100
AcDbLine
 10
6689.333067
 20
1103.484911
 30
0.0
 11
6689.696478
 21
1101.788992
 31
0.0
  0
LINE
  5
36F
100
AcDbEntity
  8
AM_4
100
AcDbLine
 10
6689.333067
 20
1103.484911
 30
0.0
 11
6689.333067
 21
1111.220376
 31
0.0
  0
LINE
  5
370
100
AcDbEntity
  8
AM_4
100
AcDbLine
 10
6677.721217
 20
1111.220376
 30
0.0
 11
6689.333067
 21
1111.220376
 31
0.0
  0
LINE
  5
371
100
AcDbEntity
  8
AM_4
100
AcDbLine
 10
6657.145226
 20
1102.031266
 30
0.0
 11
6655.449307
 21
1101.910129
 31
0.0
  0
LINE
  5
372
100
AcDbEntity
  8
AM_4
100
AcDbLine
 10
6658.59887
 20
1101.788992
 30
0.0
 11
6657.145226
 21
1102.031266
 31
0.0
  0
LINE
  5
373
100
AcDbEntity
  8
AM_4
100
AcDbLine
 10
6659.931378
 20
1101.425581
 30
0.0
 11
6658.59887
 21
1101.788992
 31
0.0
  0
LINE
  5
374
100
AcDbEntity
  8
AM_4
100
AcDbLine
 10
6660.900474
 20
1100.941033
 30
0.0
 11
6659.931378
 21
1101.425581
 31
0.0
  0
LINE
  5
375
100
AcDbEntity
  8
AM_4
100
AcDbLine
 10
6661.748433
 20
1100.456485
 30
0.0
 11
6660.900474
 21
1100.941033
 31
0.0
  0
LINE
  5
376
100
AcDbEntity
  8
AM_4
100
AcDbLine
 10
6673.360284
 20
1087.996675
 30
0.0
 11
6673.360284
 21
1087.996675
 31
0.0
  0
LINE
  5
377
100
AcDbEntity
  8
AM_4
100
AcDbLine
 10
6670.695269
 20
1086.17962
 30
0.0
 11
6673.360284
 21
1087.996675
 31
0.0
  0
LINE
  5
378
100
AcDbEntity
  8
AM_4
100
AcDbLine
 10
6668.047559
 20
1084.725975
 30
0.0
 11
6670.695269
 21
1086.17962
 31
0.0
  0
LINE
  5
379
100
AcDbEntity
  8
AM_4
100
AcDbLine
 10
6665.019133
 20
1083.635742
 30
0.0
 11
6668.047559
 21
1084.725975
 31
0.0
  0
LINE
  5
37A
100
AcDbEntity
  8
AM_4
100
AcDbLine
 10
6663.565489
 20
1083.272331
 30
0.0
 11
6665.019133
 21
1083.635742
 31
0.0
  0
LINE
  5
37B
100
AcDbEntity
  8
AM_4
100
AcDbLine
 10
6662.111844
 20
1083.151194
 30
0.0
 11
6663.565489
 21
1083.272331
 31
0.0
  0
LINE
  5
37C
100
AcDbEntity
  8
AM_4
100
AcDbLine
 10
6659.689104
 20
1083.151194
 30
0.0
 11
6662.111844
 21
1083.151194
 31
0.0
  0
LINE
  5
37D
100
AcDbEntity
  8
AM_4
100
AcDbLine
 10
6657.993185
 20
1083.514605
 30
0.0
 11
6659.689104
 21
1083.151194
 31
0.0
  0
LINE
  5
37E
100
AcDbEntity
  8
AM_4
100
AcDbLine
 10
6657.266363
 20
1083.635742
 30
0.0
 11
6657.993185
 21
1083.514605
 31
0.0
  0
LINE
  5
37F
100
AcDbEntity
  8
AM_4
100
AcDbLine
 10
6675.298476
 20
1099.366252
 30
0.0
 11
6657.266363
 21
1083.635742
 31
0.0
  0
LINE
  5
380
100
AcDbEntity
  8
AM_4
100
AcDbLine
 10
6674.208243
 20
1101.788992
 30
0.0
 11
6675.298476
 21
1099.366252
 31
0.0
  0
LINE
  5
381
100
AcDbEntity
  8
AM_4
100
AcDbLine
 10
6672.633461
 20
1104.211733
 30
0.0
 11
6674.208243
 21
1101.788992
 31
0.0
  0
LINE
  5
382
100
AcDbEntity
  8
AM_4
100
AcDbLine
 10
6670.816406
 20
1106.253758
 30
0.0
 11
6672.633461
 21
1104.211733
 31
0.0
  0
LINE
  5
383
100
AcDbEntity
  8
AM_4
100
AcDbLine
 10
6668.532107
 20
1108.19195
 30
0.0
 11
6670.816406
 21
1106.253758
 31
0.0
  0
LINE
  5
384
100
AcDbEntity
  8
AM_4
100
AcDbLine
 10
6665.98823
 20
1109.766732
 30
0.0
 11
6668.532107
 21
1108.19195
 31
0.0
  0
LINE
  5
385
100
AcDbEntity
  8
AM_4
100
AcDbLine
 10
6663.202078
 20
1110.978102
 30
0.0
 11
6665.98823
 21
1109.766732
 31
0.0
  0
LINE
  5
386
100
AcDbEntity
  8
AM_4
100
AcDbLine
 10
6660.173652
 20
1111.826061
 30
0.0
 11
6663.202078
 21
1110.978102
 31
0.0
  0
LINE
  5
387
100
AcDbEntity
  8
AM_4
100
AcDbLine
 10
6657.024089
 20
1112.068335
 30
0.0
 11
6660.173652
 21
1111.826061
 31
0.0
  0
LINE
  5
388
100
AcDbEntity
  8
AM_4
100
AcDbLine
 10
6654.722485
 20
1111.947198
 30
0.0
 11
6657.024089
 21
1112.068335
 31
0.0
  0
LINE
  5
389
100
AcDbEntity
  8
AM_4
100
AcDbLine
 10
6658.356596
 20
1072.854546
 30
0.0
 11
6656.297266
 21
1073.09682
 31
0.0
  0
LINE
  5
38A
100
AcDbEntity
  8
AM_4
100
AcDbLine
 10
6660.415926
 20
1072.854546
 30
0.0
 11
6658.356596
 21
1072.854546
 31
0.0
  0
LINE
  5
38B
100
AcDbEntity
  8
AM_4
100
AcDbLine
 10
6663.202078
 20
1072.975683
 30
0.0
 11
6660.415926
 21
1072.854546
 31
0.0
  0
LINE
  5
38C
100
AcDbEntity
  8
AM_4
100
AcDbLine
 10
6665.745955
 20
1073.339094
 30
0.0
 11
6663.202078
 21
1072.975683
 31
0.0
  0
LINE
  5
38D
100
AcDbEntity
  8
AM_4
100
AcDbLine
 10
6668.047559
 20
1073.823642
 30
0.0
 11
6665.745955
 21
1073.339094
 31
0.0
  0
LINE
  5
38E
100
AcDbEntity
  8
AM_4
100
AcDbLine
 10
6669.864615
 20
1074.429327
 30
0.0
 11
6668.047559
 21
1073.823642
 31
0.0
  0
LINE
  5
38F
100
AcDbEntity
  8
AM_4
100
AcDbLine
 10
6672.512324
 20
1075.640697
 30
0.0
 11
6669.864615
 21
1074.429327
 31
0.0
  0
LINE
  5
390
100
AcDbEntity
  8
AM_4
100
AcDbLine
 10
6673.360284
 20
1076.125246
 30
0.0
 11
6672.512324
 21
1075.640697
 31
0.0
  0
LINE
  5
391
100
AcDbEntity
  8
AM_4
100
AcDbLine
 10
6673.360284
 20
1087.996675
 30
0.0
 11
6673.360284
 21
1076.125246
 31
0.0
  0
LINE
  5
392
100
AcDbEntity
  8
AM_4
100
AcDbLine
 10
6710.27247
 20
1083.635742
 30
0.0
 11
6710.27247
 21
1073.460231
 31
0.0
  0
LINE
  5
393
100
AcDbEntity
  8
AM_4
100
AcDbLine
 10
6710.030196
 20
1086.300757
 30
0.0
 11
6710.27247
 21
1083.635742
 31
0.0
  0
LINE
  5
394
100
AcDbEntity
  8
AM_4
100
AcDbLine
 10
6709.303373
 20
1088.481223
 30
0.0
 11
6710.030196
 21
1086.300757
 31
0.0
  0
LINE
  5
395
100
AcDbEntity
  8
AM_4
100
AcDbLine
 10
6708.455414
 20
1090.159837
 30
0.0
 11
6709.303373
 21
1088.481223
 31
0.0
  0
LINE
  5
396
100
AcDbEntity
  8
AM_4
100
AcDbLine
 10
6707.365181
 20
1091.492344
 30
0.0
 11
6708.455414
 21
1090.159837
 31
0.0
  0
LINE
  5
397
100
AcDbEntity
  8
AM_4
100
AcDbLine
 10
6706.396084
 20
1092.46144
 30
0.0
 11
6707.365181
 21
1091.492344
 31
0.0
  0
LINE
  5
398
100
AcDbEntity
  8
AM_4
100
AcDbLine
 10
6705.426988
 20
1093.067126
 30
0.0
 11
6706.396084
 21
1092.46144
 31
0.0
  0
LINE
  5
399
100
AcDbEntity
  8
AM_4
100
AcDbLine
 10
6704.596334
 20
1093.551674
 30
0.0
 11
6705.426988
 21
1093.067126
 31
0.0
  0
LINE
  5
39A
100
AcDbEntity
  8
AM_4
100
AcDbLine
 10
6706.274947
 20
1094.641907
 30
0.0
 11
6704.596334
 21
1093.551674
 31
0.0
  0
LINE
  5
39B
100
AcDbEntity
  8
AM_4
100
AcDbLine
 10
6707.486318
 20
1096.095552
 30
0.0
 11
6706.274947
 21
1094.641907
 31
0.0
  0
LINE
  5
39C
100
AcDbEntity
  8
AM_4
100
AcDbLine
 10
6708.455414
 20
1097.670333
 30
0.0
 11
6707.486318
 21
1096.095552
 31
0.0
  0
LINE
  5
39D
100
AcDbEntity
  8
AM_4
100
AcDbLine
 10
6709.061099
 20
1099.245115
 30
0.0
 11
6708.455414
 21
1097.670333
 31
0.0
  0
LINE
  5
39E
100
AcDbEntity
  8
AM_4
100
AcDbLine
 10
6709.545647
 20
1101.910129
 30
0.0
 11
6709.061099
 21
1099.245115
 31
0.0
  0
LINE
  5
39F
100
AcDbEntity
  8
AM_4
100
AcDbLine
 10
6709.545647
 20
1101.910129
 30
0.0
 11
6709.545647
 21
1111.220376
 31
0.0
  0
HATCH
  5
3A0
100
AcDbEntity
  8
AM_4
100
AcDbHatch
 10
0.0
 20
0.0
 30
0.0
210
0.0
220
0.0
230
1.0
  2
SOLID
 70
     1
 71
     0
 91
        2
 92
        7
 72
     0
 73
     1
 93
        4
 10
6733.230290455593
 20
1129.51375500774
 10
6732.311778847102
 20
1129.51375500774
 10
6732.311778847102
 20
1065.364371800367
 10
6733.230290455593
 20
1065.364371800367
 97
        0
 92
        7
 72
     0
 73
     1
 93
       42
 10
6732.671196433038
 20
1062.582213450018
 10
6733.137108118498
 20
1063.88676616932
 10
6733.230290455593
 20
1065.364371800367
 10
6732.311778847102
 20
1065.364371800367
 10
6732.311778847102
 20
1065.04488950176
 10
6732.285155322225
 20
1064.725407203149
 10
6732.245220034902
 20
1064.405924904583
 10
6732.191972985129
 20
1064.086442605946
 10
6732.112102410461
 20
1063.780272069736
 10
6732.032231835825
 20
1063.487413296071
 10
6731.925737736289
 20
1063.194554522344
 10
6731.819243636763
 20
1062.901695748631
 10
6731.686126012334
 20
1062.622148737342
 10
6731.553008387918
 20
1062.342601726062
 10
6731.393267238619
 20
1062.089678239654
 10
6731.233526089316
 20
1061.823442990832
 10
6731.047161415126
 20
1061.583831266863
 10
6730.860796740943
 20
1061.330907780477
 10
6730.661120304322
 20
1061.104607818979
 10
6730.448132105229
 20
1060.891619619897
 10
6730.221832143745
 20
1060.678631420831
 10
6729.995532182222
 20
1060.478954984199
 10
6729.742608695822
 20
1060.292590310015
 10
6729.489685209422
 20
1060.106225635824
 10
6729.236761723007
 20
1059.94648448652
 10
6728.970526474198
 20
1059.786743337223
 10
6728.690979462917
 20
1059.653625712797
 10
6728.398120689195
 20
1059.520508088389
 10
6728.105261915472
 20
1059.414013988852
 10
6727.812403141756
 20
1059.307519889318
 10
6727.506232605581
 20
1059.227649314663
 10
6727.186750306983
 20
1059.161090502456
 10
6726.867268008378
 20
1059.094531690248
 10
6726.547785709773
 20
1059.054596402921
 10
6726.214991648733
 20
1059.027972878037
 10
6725.882197587684
 20
1059.027972878037
 10
6725.882197587684
 20
1058.109461269549
 10
6727.359803218729
 20
1058.202643606642
 10
6728.757538275127
 20
1058.668555292108
 10
6729.968908657335
 20
1059.32083165176
 10
6731.087096702458
 20
1060.252655022693
 10
6732.018920073381
 20
1061.277660730714
 97
        0
 75
     0
 76
     1
 47
0.013813
 98
        2
 10
6732.949734
 20
1113.938548
 10
6731.896296
 20
1062.222383
  0
ARC
  5
3A1
100
AcDbEntity
  8
AM_4
100
AcDbCircle
 10
6725.976164
 20
1065.364372
 30
0.0
 40
6.478493
100
AcDbArc
 50
275.119117
 51
360.0
  0
ARC
  5
3A2
100
AcDbEntity
  8
AM_4
100
AcDbCircle
 10
6725.976164
 20
1065.364372
 30
0.0
 40
8.172638
100
AcDbArc
 50
274.558289
 51
360.0
  0
ARC
  5
3A3
100
AcDbEntity
  8
AM_4
100
AcDbCircle
 10
6725.976164
 20
1065.364372
 30
0.0
 40
6.335615
100
AcDbArc
 50
275.176469
 51
0.0
  0
LINE
  5
3A4
100
AcDbEntity
  8
AM_4
100
AcDbLine
 10
6733.137108
 20
1063.886766
 30
0.0
 11
6732.671196
 21
1062.582213
 31
0.0
  0
LINE
  5
3A5
100
AcDbEntity
  8
AM_4
100
AcDbLine
 10
6731.819244
 20
1062.901696
 30
0.0
 11
6732.032232
 21
1063.487413
 31
0.0
  0
LINE
  5
3A6
100
AcDbEntity
  8
AM_4
100
AcDbLine
 10
6733.776073
 20
1062.941631
 30
0.0
 11
6733.882567
 21
1063.327672
 31
0.0
  0
LINE
  5
3A7
100
AcDbEntity
  8
AM_4
100
AcDbLine
 10
6727.359803
 20
1058.202644
 30
0.0
 11
6725.882198
 21
1058.109461
 31
0.0
  0
LINE
  5
3A8
100
AcDbEntity
  8
AM_4
100
AcDbLine
 10
6728.757538
 20
1058.668555
 30
0.0
 11
6727.359803
 21
1058.202644
 31
0.0
  0
LINE
  5
3A9
100
AcDbEntity
  8
AM_4
100
AcDbLine
 10
6729.968909
 20
1059.320832
 30
0.0
 11
6728.757538
 21
1058.668555
 31
0.0
  0
LINE
  5
3AA
100
AcDbEntity
  8
AM_4
100
AcDbLine
 10
6731.087097
 20
1060.252655
 30
0.0
 11
6729.968909
 21
1059.320832
 31
0.0
  0
LINE
  5
3AB
100
AcDbEntity
  8
AM_4
100
AcDbLine
 10
6732.01892
 20
1061.277661
 30
0.0
 11
6731.087097
 21
1060.252655
 31
0.0
  0
LINE
  5
3AC
100
AcDbEntity
  8
AM_4
100
AcDbLine
 10
6732.671196
 20
1062.582213
 30
0.0
 11
6732.01892
 21
1061.277661
 31
0.0
  0
LINE
  5
3AD
100
AcDbEntity
  8
AM_4
100
AcDbLine
 10
6725.882198
 20
1057.19095
 30
0.0
 11
6725.882198
 21
1059.027973
 31
0.0
  0
LINE
  5
3AE
100
AcDbEntity
  8
AM_4
100
AcDbLine
 10
6725.882198
 20
1057.19095
 30
0.0
 11
6725.882198
 21
1057.19095
 31
0.0
  0
LINE
  5
3AF
100
AcDbEntity
  8
AM_4
100
AcDbLine
 10
6726.547786
 20
1059.054596
 30
0.0
 11
6726.214992
 21
1059.027973
 31
0.0
  0
LINE
  5
3B0
100
AcDbEntity
  8
AM_4
100
AcDbLine
 10
6726.867268
 20
1059.094532
 30
0.0
 11
6726.547786
 21
1059.054596
 31
0.0
  0
LINE
  5
3B1
100
AcDbEntity
  8
AM_4
100
AcDbLine
 10
6726.867268
 20
1059.094532
 30
0.0
 11
6727.506233
 21
1059.227649
 31
0.0
  0
LINE
  5
3B2
100
AcDbEntity
  8
AM_4
100
AcDbLine
 10
6727.812403
 20
1059.30752
 30
0.0
 11
6727.506233
 21
1059.227649
 31
0.0
  0
LINE
  5
3B3
100
AcDbEntity
  8
AM_4
100
AcDbLine
 10
6727.812403
 20
1059.30752
 30
0.0
 11
6728.398121
 21
1059.520508
 31
0.0
  0
LINE
  5
3B4
100
AcDbEntity
  8
AM_4
100
AcDbLine
 10
6728.690979
 20
1059.653626
 30
0.0
 11
6728.398121
 21
1059.520508
 31
0.0
  0
LINE
  5
3B5
100
AcDbEntity
  8
AM_4
100
AcDbLine
 10
6728.970526
 20
1059.786743
 30
0.0
 11
6728.690979
 21
1059.653626
 31
0.0
  0
LINE
  5
3B6
100
AcDbEntity
  8
AM_4
100
AcDbLine
 10
6729.236762
 20
1059.946484
 30
0.0
 11
6728.970526
 21
1059.786743
 31
0.0
  0
LINE
  5
3B7
100
AcDbEntity
  8
AM_4
100
AcDbLine
 10
6729.489685
 20
1060.106226
 30
0.0
 11
6729.236762
 21
1059.946484
 31
0.0
  0
LINE
  5
3B8
100
AcDbEntity
  8
AM_4
100
AcDbLine
 10
6729.489685
 20
1060.106226
 30
0.0
 11
6729.995532
 21
1060.478955
 31
0.0
  0
LINE
  5
3B9
100
AcDbEntity
  8
AM_4
100
AcDbLine
 10
6730.221832
 20
1060.678631
 30
0.0
 11
6729.995532
 21
1060.478955
 31
0.0
  0
LINE
  5
3BA
100
AcDbEntity
  8
AM_4
100
AcDbLine
 10
6730.448132
 20
1060.89162
 30
0.0
 11
6730.221832
 21
1060.678631
 31
0.0
  0
LINE
  5
3BB
100
AcDbEntity
  8
AM_4
100
AcDbLine
 10
6730.66112
 20
1061.104608
 30
0.0
 11
6730.448132
 21
1060.89162
 31
0.0
  0
LINE
  5
3BC
100
AcDbEntity
  8
AM_4
100
AcDbLine
 10
6730.860797
 20
1061.330908
 30
0.0
 11
6730.66112
 21
1061.104608
 31
0.0
  0
LINE
  5
3BD
100
AcDbEntity
  8
AM_4
100
AcDbLine
 10
6731.047161
 20
1061.583831
 30
0.0
 11
6730.860797
 21
1061.330908
 31
0.0
  0
LINE
  5
3BE
100
AcDbEntity
  8
AM_4
100
AcDbLine
 10
6731.233526
 20
1061.823443
 30
0.0
 11
6731.047161
 21
1061.583831
 31
0.0
  0
LINE
  5
3BF
100
AcDbEntity
  8
AM_4
100
AcDbLine
 10
6731.393267
 20
1062.089678
 30
0.0
 11
6731.233526
 21
1061.823443
 31
0.0
  0
LINE
  5
3C0
100
AcDbEntity
  8
AM_4
100
AcDbLine
 10
6731.553008
 20
1062.342602
 30
0.0
 11
6731.393267
 21
1062.089678
 31
0.0
  0
LINE
  5
3C1
100
AcDbEntity
  8
AM_4
100
AcDbLine
 10
6731.553008
 20
1062.342602
 30
0.0
 11
6731.819244
 21
1062.901696
 31
0.0
  0
LINE
  5
3C2
100
AcDbEntity
  8
AM_4
100
AcDbLine
 10
6733.642955
 20
1062.55559
 30
0.0
 11
6733.776073
 21
1062.941631
 31
0.0
  0
LINE
  5
3C3
100
AcDbEntity
  8
AM_4
100
AcDbLine
 10
6733.496526
 20
1062.182861
 30
0.0
 11
6733.642955
 21
1062.55559
 31
0.0
  0
LINE
  5
3C4
100
AcDbEntity
  8
AM_4
100
AcDbLine
 10
6733.336785
 20
1061.823443
 30
0.0
 11
6733.496526
 21
1062.182861
 31
0.0
  0
LINE
  5
3C5
100
AcDbEntity
  8
AM_4
100
AcDbLine
 10
6733.15042
 20
1061.477337
 30
0.0
 11
6733.336785
 21
1061.823443
 31
0.0
  0
LINE
  5
3C6
100
AcDbEntity
  8
AM_4
100
AcDbLine
 10
6732.950743
 20
1061.131231
 30
0.0
 11
6733.15042
 21
1061.477337
 31
0.0
  0
LINE
  5
3C7
100
AcDbEntity
  8
AM_4
100
AcDbLine
 10
6732.737755
 20
1060.798437
 30
0.0
 11
6732.950743
 21
1061.131231
 31
0.0
  0
LINE
  5
3C8
100
AcDbEntity
  8
AM_4
100
AcDbLine
 10
6732.511455
 20
1060.478955
 30
0.0
 11
6732.737755
 21
1060.798437
 31
0.0
  0
LINE
  5
3C9
100
AcDbEntity
  8
AM_4
100
AcDbLine
 10
6732.005608
 20
1059.866614
 30
0.0
 11
6732.511455
 21
1060.478955
 31
0.0
  0
LINE
  5
3CA
100
AcDbEntity
  8
AM_4
100
AcDbLine
 10
6731.739373
 20
1059.587067
 30
0.0
 11
6732.005608
 21
1059.866614
 31
0.0
  0
LINE
  5
3CB
100
AcDbEntity
  8
AM_4
100
AcDbLine
 10
6731.153656
 20
1059.054596
 30
0.0
 11
6731.739373
 21
1059.587067
 31
0.0
  0
LINE
  5
3CC
100
AcDbEntity
  8
AM_4
100
AcDbLine
 10
6730.834173
 20
1058.814985
 30
0.0
 11
6731.153656
 21
1059.054596
 31
0.0
  0
LINE
  5
3CD
100
AcDbEntity
  8
AM_4
100
AcDbLine
 10
6730.514691
 20
1058.588685
 30
0.0
 11
6730.834173
 21
1058.814985
 31
0.0
  0
LINE
  5
3CE
100
AcDbEntity
  8
AM_4
100
AcDbLine
 10
6730.168585
 20
1058.375697
 30
0.0
 11
6730.514691
 21
1058.588685
 31
0.0
  0
LINE
  5
3CF
100
AcDbEntity
  8
AM_4
100
AcDbLine
 10
6729.822479
 20
1058.17602
 30
0.0
 11
6730.168585
 21
1058.375697
 31
0.0
  0
LINE
  5
3D0
100
AcDbEntity
  8
AM_4
100
AcDbLine
 10
6729.476373
 20
1058.002967
 30
0.0
 11
6729.822479
 21
1058.17602
 31
0.0
  0
LINE
  5
3D1
100
AcDbEntity
  8
AM_4
100
AcDbLine
 10
6729.103644
 20
1057.829914
 30
0.0
 11
6729.476373
 21
1058.002967
 31
0.0
  0
LINE
  5
3D2
100
AcDbEntity
  8
AM_4
100
AcDbLine
 10
6728.730915
 20
1057.696797
 30
0.0
 11
6729.103644
 21
1057.829914
 31
0.0
  0
LINE
  5
3D3
100
AcDbEntity
  8
AM_4
100
AcDbLine
 10
6728.344874
 20
1057.563679
 30
0.0
 11
6728.730915
 21
1057.696797
 31
0.0
  0
LINE
  5
3D4
100
AcDbEntity
  8
AM_4
100
AcDbLine
 10
6727.945521
 20
1057.443873
 30
0.0
 11
6728.344874
 21
1057.563679
 31
0.0
  0
LINE
  5
3D5
100
AcDbEntity
  8
AM_4
100
AcDbLine
 10
6727.146815
 20
1057.284132
 30
0.0
 11
6727.945521
 21
1057.443873
 31
0.0
  0
LINE
  5
3D6
100
AcDbEntity
  8
AM_4
100
AcDbLine
 10
6726.294862
 20
1057.204261
 30
0.0
 11
6727.146815
 21
1057.284132
 31
0.0
  0
LINE
  5
3D7
100
AcDbEntity
  8
AM_4
100
AcDbLine
 10
6725.882198
 20
1057.19095
 30
0.0
 11
6726.294862
 21
1057.204261
 31
0.0
  0
LINE
  5
3D8
100
AcDbEntity
  8
AM_4
100
AcDbLine
 10
6732.454656
 20
1129.513755
 30
0.0
 11
6732.454656
 21
1065.364372
 31
0.0
  0
LINE
  5
3D9
100
AcDbEntity
  8
AM_4
100
AcDbLine
 10
6734.148802
 20
1129.513755
 30
0.0
 11
6734.148802
 21
1065.364372
 31
0.0
  0
LINE
  5
3DA
100
AcDbEntity
  8
AM_4
100
AcDbLine
 10
6733.23029
 20
1129.513755
 30
0.0
 11
6733.23029
 21
1065.364372
 31
0.0
  0
LINE
  5
3DB
100
AcDbEntity
  8
AM_4
100
AcDbLine
 10
6732.311779
 20
1065.04489
 30
0.0
 11
6732.311779
 21
1129.833237
 31
0.0
  0
LINE
  5
3DC
100
AcDbEntity
  8
AM_4
100
AcDbLine
 10
6733.23029
 20
1065.364372
 30
0.0
 11
6733.137108
 21
1063.886766
 31
0.0
  0
LINE
  5
3DD
100
AcDbEntity
  8
AM_4
100
AcDbLine
 10
6732.112102
 20
1063.780272
 30
0.0
 11
6732.032232
 21
1063.487413
 31
0.0
  0
LINE
  5
3DE
100
AcDbEntity
  8
AM_4
100
AcDbLine
 10
6732.191973
 20
1064.086443
 30
0.0
 11
6732.112102
 21
1063.780272
 31
0.0
  0
LINE
  5
3DF
100
AcDbEntity
  8
AM_4
100
AcDbLine
 10
6732.24522
 20
1064.405925
 30
0.0
 11
6732.191973
 21
1064.086443
 31
0.0
  0
LINE
  5
3E0
100
AcDbEntity
  8
AM_4
100
AcDbLine
 10
6732.285155
 20
1064.725407
 30
0.0
 11
6732.24522
 21
1064.405925
 31
0.0
  0
LINE
  5
3E1
100
AcDbEntity
  8
AM_4
100
AcDbLine
 10
6732.311779
 20
1065.04489
 30
0.0
 11
6732.285155
 21
1064.725407
 31
0.0
  0
LINE
  5
3E2
100
AcDbEntity
  8
AM_4
100
AcDbLine
 10
6734.148802
 20
1065.364372
 30
0.0
 11
6732.311779
 21
1065.364372
 31
0.0
  0
LINE
  5
3E3
100
AcDbEntity
  8
AM_4
100
AcDbLine
 10
6734.13549
 20
1064.951707
 30
0.0
 11
6734.148802
 21
1065.364372
 31
0.0
  0
LINE
  5
3E4
100
AcDbEntity
  8
AM_4
100
AcDbLine
 10
6734.05562
 20
1064.126378
 30
0.0
 11
6734.13549
 21
1064.951707
 31
0.0
  0
LINE
  5
3E5
100
AcDbEntity
  8
AM_4
100
AcDbLine
 10
6733.975749
 20
1063.727025
 30
0.0
 11
6734.05562
 21
1064.126378
 31
0.0
  0
LINE
  5
3E6
100
AcDbEntity
  8
AM_4
100
AcDbLine
 10
6733.882567
 20
1063.327672
 30
0.0
 11
6733.975749
 21
1063.727025
 31
0.0
  0
LINE
  5
3E7
100
AcDbEntity
  8
AM_4
100
AcDbLine
 10
6734.148802
 20
1065.364372
 30
0.0
 11
6734.148802
 21
1065.364372
 31
0.0
  0
ARC
  5
3E8
100
AcDbEntity
  8
AM_4
100
AcDbCircle
 10
6725.882198
 20
1129.513755
 30
0.0
 40
6.572459
100
AcDbArc
 50
0.0
 51
90.0
  0
ARC
  5
3E9
100
AcDbEntity
  8
AM_4
100
AcDbCircle
 10
6725.882198
 20
1129.513755
 30
0.0
 40
8.266604
100
AcDbArc
 50
0.0
 51
90.0
  0
ARC
  5
3EA
100
AcDbEntity
  8
AM_4
100
AcDbCircle
 10
6725.882198
 20
1129.513755
 30
0.0
 40
6.429581
100
AcDbArc
 50
0.0
 51
90.0
  0
LINE
  5
3EB
100
AcDbEntity
  8
AM_4
100
AcDbLine
 10
6733.137108
 20
1130.991361
 30
0.0
 11
6733.23029
 21
1129.513755
 31
0.0
  0
LINE
  5
3EC
100
AcDbEntity
  8
AM_4
100
AcDbLine
 10
6732.671196
 20
1132.389096
 30
0.0
 11
6733.137108
 21
1130.991361
 31
0.0
  0
LINE
  5
3ED
100
AcDbEntity
  8
AM_4
100
AcDbLine
 10
6732.01892
 20
1133.600466
 30
0.0
 11
6732.671196
 21
1132.389096
 31
0.0
  0
LINE
  5
3EE
100
AcDbEntity
  8
AM_4
100
AcDbLine
 10
6731.087097
 20
1134.718654
 30
0.0
 11
6732.01892
 21
1133.600466
 31
0.0
  0
LINE
  5
3EF
100
AcDbEntity
  8
AM_4
100
AcDbLine
 10
6729.968909
 20
1135.557295
 30
0.0
 11
6731.087097
 21
1134.718654
 31
0.0
  0
LINE
  5
3F0
100
AcDbEntity
  8
AM_4
100
AcDbLine
 10
6728.757538
 20
1136.302754
 30
0.0
 11
6729.968909
 21
1135.557295
 31
0.0
  0
LINE
  5
3F1
100
AcDbEntity
  8
AM_4
100
AcDbLine
 10
6727.359803
 20
1136.675483
 30
0.0
 11
6728.757538
 21
1136.302754
 31
0.0
  0
LINE
  5
3F2
100
AcDbEntity
  8
AM_4
100
AcDbLine
 10
6725.882198
 20
1136.861848
 30
0.0
 11
6727.359803
 21
1136.675483
 31
0.0
  0
LINE
  5
3F3
100
AcDbEntity
  8
AM_4
100
AcDbLine
 10
6725.882198
 20
1137.780359
 30
0.0
 11
6725.882198
 21
1137.780359
 31
0.0
  0
LINE
  5
3F4
100
AcDbEntity
  8
AM_4
100
AcDbLine
 10
6725.882198
 20
1135.943336
 30
0.0
 11
6725.882198
 21
1137.780359
 31
0.0
  0
LINE
  5
3F5
100
AcDbEntity
  8
AM_4
100
AcDbLine
 10
6734.148802
 20
1129.513755
 30
0.0
 11
6734.148802
 21
1129.513755
 31
0.0
  0
LINE
  5
3F6
100
AcDbEntity
  8
AM_4
100
AcDbLine
 10
6732.311779
 20
1129.513755
 30
0.0
 11
6734.148802
 21
1129.513755
 31
0.0
  0
LINE
  5
3F7
100
AcDbEntity
  8
AM_4
100
AcDbLine
 10
6732.285155
 20
1130.166031
 30
0.0
 11
6732.311779
 21
1129.833237
 31
0.0
  0
LINE
  5
3F8
100
AcDbEntity
  8
AM_4
100
AcDbLine
 10
6732.24522
 20
1130.472202
 30
0.0
 11
6732.285155
 21
1130.166031
 31
0.0
  0
LINE
  5
3F9
100
AcDbEntity
  8
AM_4
100
AcDbLine
 10
6732.191973
 20
1130.791684
 30
0.0
 11
6732.24522
 21
1130.472202
 31
0.0
  0
LINE
  5
3FA
100
AcDbEntity
  8
AM_4
100
AcDbLine
 10
6732.112102
 20
1131.097855
 30
0.0
 11
6732.191973
 21
1130.791684
 31
0.0
  0
LINE
  5
3FB
100
AcDbEntity
  8
AM_4
100
AcDbLine
 10
6732.032232
 20
1131.404025
 30
0.0
 11
6732.112102
 21
1131.097855
 31
0.0
  0
LINE
  5
3FC
100
AcDbEntity
  8
AM_4
100
AcDbLine
 10
6731.819244
 20
1131.989743
 30
0.0
 11
6732.032232
 21
1131.404025
 31
0.0
  0
LINE
  5
3FD
100
AcDbEntity
  8
AM_4
100
AcDbLine
 10
6731.686126
 20
1132.282602
 30
0.0
 11
6731.819244
 21
1131.989743
 31
0.0
  0
LINE
  5
3FE
100
AcDbEntity
  8
AM_4
100
AcDbLine
 10
6731.539697
 20
1132.548837
 30
0.0
 11
6731.686126
 21
1132.282602
 31
0.0
  0
LINE
  5
3FF
100
AcDbEntity
  8
AM_4
100
AcDbLine
 10
6731.393267
 20
1132.828384
 30
0.0
 11
6731.539697
 21
1132.548837
 31
0.0
  0
LINE
  5
400
100
AcDbEntity
  8
AM_4
100
AcDbLine
 10
6731.047161
 20
1133.334231
 30
0.0
 11
6731.393267
 21
1132.828384
 31
0.0
  0
LINE
  5
401
100
AcDbEntity
  8
AM_4
100
AcDbLine
 10
6730.860797
 20
1133.587154
 30
0.0
 11
6731.047161
 21
1133.334231
 31
0.0
  0
LINE
  5
402
100
AcDbEntity
  8
AM_4
100
AcDbLine
 10
6730.647809
 20
1133.813454
 30
0.0
 11
6730.860797
 21
1133.587154
 31
0.0
  0
LINE
  5
403
100
AcDbEntity
  8
AM_4
100
AcDbLine
 10
6730.448132
 20
1134.039754
 30
0.0
 11
6730.647809
 21
1133.813454
 31
0.0
  0
LINE
  5
404
100
AcDbEntity
  8
AM_4
100
AcDbLine
 10
6730.221832
 20
1134.252742
 30
0.0
 11
6730.448132
 21
1134.039754
 31
0.0
  0
LINE
  5
405
100
AcDbEntity
  8
AM_4
100
AcDbLine
 10
6729.98222
 20
1134.465731
 30
0.0
 11
6730.221832
 21
1134.252742
 31
0.0
  0
LINE
  5
406
100
AcDbEntity
  8
AM_4
100
AcDbLine
 10
6729.742609
 20
1134.652095
 30
0.0
 11
6729.98222
 21
1134.465731
 31
0.0
  0
LINE
  5
407
100
AcDbEntity
  8
AM_4
100
AcDbLine
 10
6729.489685
 20
1134.83846
 30
0.0
 11
6729.742609
 21
1134.652095
 31
0.0
  0
LINE
  5
408
100
AcDbEntity
  8
AM_4
100
AcDbLine
 10
6728.957215
 20
1135.157942
 30
0.0
 11
6729.489685
 21
1134.83846
 31
0.0
  0
LINE
  5
409
100
AcDbEntity
  8
AM_4
100
AcDbLine
 10
6728.677668
 20
1135.304372
 30
0.0
 11
6728.957215
 21
1135.157942
 31
0.0
  0
LINE
  5
40A
100
AcDbEntity
  8
AM_4
100
AcDbLine
 10
6728.398121
 20
1135.437489
 30
0.0
 11
6728.677668
 21
1135.304372
 31
0.0
  0
LINE
  5
40B
100
AcDbEntity
  8
AM_4
100
AcDbLine
 10
6728.105262
 20
1135.543983
 30
0.0
 11
6728.398121
 21
1135.437489
 31
0.0
  0
LINE
  5
40C
100
AcDbEntity
  8
AM_4
100
AcDbLine
 10
6727.799091
 20
1135.650477
 30
0.0
 11
6728.105262
 21
1135.543983
 31
0.0
  0
LINE
  5
40D
100
AcDbEntity
  8
AM_4
100
AcDbLine
 10
6727.492921
 20
1135.74366
 30
0.0
 11
6727.799091
 21
1135.650477
 31
0.0
  0
LINE
  5
40E
100
AcDbEntity
  8
AM_4
100
AcDbLine
 10
6727.18675
 20
1135.810219
 30
0.0
 11
6727.492921
 21
1135.74366
 31
0.0
  0
LINE
  5
40F
100
AcDbEntity
  8
AM_4
100
AcDbLine
 10
6726.547786
 20
1135.916713
 30
0.0
 11
6727.18675
 21
1135.810219
 31
0.0
  0
LINE
  5
410
100
AcDbEntity
  8
AM_4
100
AcDbLine
 10
6726.214992
 20
1135.943336
 30
0.0
 11
6726.547786
 21
1135.916713
 31
0.0
  0
LINE
  5
411
100
AcDbEntity
  8
AM_4
100
AcDbLine
 10
6726.308174
 20
1137.767048
 30
0.0
 11
6725.882198
 21
1137.780359
 31
0.0
  0
LINE
  5
412
100
AcDbEntity
  8
AM_4
100
AcDbLine
 10
6726.720839
 20
1137.727112
 30
0.0
 11
6726.308174
 21
1137.767048
 31
0.0
  0
LINE
  5
413
100
AcDbEntity
  8
AM_4
100
AcDbLine
 10
6727.146815
 20
1137.673865
 30
0.0
 11
6726.720839
 21
1137.727112
 31
0.0
  0
LINE
  5
414
100
AcDbEntity
  8
AM_4
100
AcDbLine
 10
6727.546168
 20
1137.607307
 30
0.0
 11
6727.146815
 21
1137.673865
 31
0.0
  0
LINE
  5
415
100
AcDbEntity
  8
AM_4
100
AcDbLine
 10
6727.958833
 20
1137.514124
 30
0.0
 11
6727.546168
 21
1137.607307
 31
0.0
  0
LINE
  5
416
100
AcDbEntity
  8
AM_4
100
AcDbLine
 10
6728.344874
 20
1137.394318
 30
0.0
 11
6727.958833
 21
1137.514124
 31
0.0
  0
LINE
  5
417
100
AcDbEntity
  8
AM_4
100
AcDbLine
 10
6728.730915
 20
1137.261201
 30
0.0
 11
6728.344874
 21
1137.394318
 31
0.0
  0
LINE
  5
418
100
AcDbEntity
  8
AM_4
100
AcDbLine
 10
6729.116956
 20
1137.114771
 30
0.0
 11
6728.730915
 21
1137.261201
 31
0.0
  0
LINE
  5
419
100
AcDbEntity
  8
AM_4
100
AcDbLine
 10
6729.476373
 20
1136.95503
 30
0.0
 11
6729.116956
 21
1137.114771
 31
0.0
  0
LINE
  5
41A
100
AcDbEntity
  8
AM_4
100
AcDbLine
 10
6729.835791
 20
1136.768666
 30
0.0
 11
6729.476373
 21
1136.95503
 31
0.0
  0
LINE
  5
41B
100
AcDbEntity
  8
AM_4
100
AcDbLine
 10
6730.181897
 20
1136.568989
 30
0.0
 11
6729.835791
 21
1136.768666
 31
0.0
  0
LINE
  5
41C
100
AcDbEntity
  8
AM_4
100
AcDbLine
 10
6730.181897
 20
1136.568989
 30
0.0
 11
6730.847485
 21
1136.116389
 31
0.0
  0
LINE
  5
41D
100
AcDbEntity
  8
AM_4
100
AcDbLine
 10
6731.153656
 20
1135.863466
 30
0.0
 11
6730.847485
 21
1136.116389
 31
0.0
  0
LINE
  5
41E
100
AcDbEntity
  8
AM_4
100
AcDbLine
 10
6731.459826
 20
1135.59723
 30
0.0
 11
6731.153656
 21
1135.863466
 31
0.0
  0
LINE
  5
41F
100
AcDbEntity
  8
AM_4
100
AcDbLine
 10
6731.739373
 20
1135.330995
 30
0.0
 11
6731.459826
 21
1135.59723
 31
0.0
  0
LINE
  5
420
100
AcDbEntity
  8
AM_4
100
AcDbLine
 10
6731.739373
 20
1135.330995
 30
0.0
 11
6732.271844
 21
1134.745278
 31
0.0
  0
LINE
  5
421
100
AcDbEntity
  8
AM_4
100
AcDbLine
 10
6732.511455
 20
1134.425795
 30
0.0
 11
6732.271844
 21
1134.745278
 31
0.0
  0
LINE
  5
422
100
AcDbEntity
  8
AM_4
100
AcDbLine
 10
6732.737755
 20
1134.106313
 30
0.0
 11
6732.511455
 21
1134.425795
 31
0.0
  0
LINE
  5
423
100
AcDbEntity
  8
AM_4
100
AcDbLine
 10
6732.964055
 20
1133.760207
 30
0.0
 11
6732.737755
 21
1134.106313
 31
0.0
  0
LINE
  5
424
100
AcDbEntity
  8
AM_4
100
AcDbLine
 10
6732.964055
 20
1133.760207
 30
0.0
 11
6733.336785
 21
1133.067996
 31
0.0
  0
LINE
  5
425
100
AcDbEntity
  8
AM_4
100
AcDbLine
 10
6733.496526
 20
1132.695266
 30
0.0
 11
6733.336785
 21
1133.067996
 31
0.0
  0
LINE
  5
426
100
AcDbEntity
  8
AM_4
100
AcDbLine
 10
6733.642955
 20
1132.322537
 30
0.0
 11
6733.496526
 21
1132.695266
 31
0.0
  0
LINE
  5
427
100
AcDbEntity
  8
AM_4
100
AcDbLine
 10
6733.776073
 20
1131.936496
 30
0.0
 11
6733.642955
 21
1132.322537
 31
0.0
  0
LINE
  5
428
100
AcDbEntity
  8
AM_4
100
AcDbLine
 10
6733.882567
 20
1131.550455
 30
0.0
 11
6733.776073
 21
1131.936496
 31
0.0
  0
LINE
  5
429
100
AcDbEntity
  8
AM_4
100
AcDbLine
 10
6733.975749
 20
1131.151102
 30
0.0
 11
6733.882567
 21
1131.550455
 31
0.0
  0
LINE
  5
42A
100
AcDbEntity
  8
AM_4
100
AcDbLine
 10
6734.05562
 20
1130.751749
 30
0.0
 11
6733.975749
 21
1131.151102
 31
0.0
  0
LINE
  5
42B
100
AcDbEntity
  8
AM_4
100
AcDbLine
 10
6734.05562
 20
1130.751749
 30
0.0
 11
6734.13549
 21
1129.92642
 31
0.0
  0
LINE
  5
42C
100
AcDbEntity
  8
AM_4
100
AcDbLine
 10
6734.148802
 20
1129.513755
 30
0.0
 11
6734.13549
 21
1129.92642
 31
0.0
  0
LINE
  5
42D
100
AcDbEntity
  8
AM_0
100
AcDbLine
 10
5577.903258
 20
2721.749952
 30
0.0
 11
5556.603258
 21
2721.749952
 31
0.0
  0
LINE
  5
42E
100
AcDbEntity
  8
AM_0
100
AcDbLine
 10
5556.603258
 20
2694.749952
 30
0.0
 11
5577.903258
 21
2708.749952
 31
0.0
  0
ARC
  5
42F
100
AcDbEntity
  8
AM_0
100
AcDbCircle
 10
5657.003258
 20
2629.452956
 30
0.0
 40
100.0
100
AcDbArc
 50
117.32439
 51
180.0
1001
GENIUS_GENODEF_13
1002
{
1000
HIER
1070
     0
1002
}
1002
{
1000
MANEDIT
1070
     0
1002
}
1002
{
1000
NOSEL
1070
     0
1002
}
1002
{
1000
BEHIND
1070
     0
1002
}
1002
{
1000
REACTOR
1002
}
1001
GENIUS_GENOBJ-N-FIL_13
1002
{
1000
OWNER
1000
GEN
1002
}
  0
ARC
  5
430
100
AcDbEntity
  8
AM_0
100
AcDbCircle
 10
5657.003258
 20
2629.452956
 30
0.0
 40
97.0
100
AcDbArc
 50
117.32439
 51
180.0
1001
GENIUS_GENODEF_13
1002
{
1000
HIER
1070
     0
1002
}
1002
{
1000
MANEDIT
1070
     0
1002
}
1002
{
1000
NOSEL
1070
     0
1002
}
1002
{
1000
BEHIND
1070
     0
1002
}
1002
{
1000
REACTOR
1002
}
1001
GENIUS_GENOBJ-N-FIL_13
1002
{
1000
OWNER
1000
GEN
1002
}
  0
ARC
  5
431
100
AcDbEntity
  8
AM_0
100
AcDbCircle
 10
5822.253258
 20
2309.621067
 30
0.0
 40
466.0
100
AcDbArc
 50
91.721591
 51
124.871159
  0
ARC
  5
432
100
AcDbEntity
  8
AM_0
100
AcDbCircle
 10
5822.253258
 20
2309.621067
 30
0.0
 40
467.75
100
AcDbArc
 50
91.715149
 51
124.871159
  0
HATCH
  5
433
100
AcDbEntity
  8
AM_8
100
AcDbHatch
 10
0.0
 20
0.0
 30
0.0
210
0.0
220
0.0
230
1.0
  2
ANSI31
 70
     0
 71
     0
 91
        2
 92
        7
 72
     1
 73
     1
 93
       16
 10
5507.003257916082
 20
2598.415868358475
 42
-0.2452943637334195
 10
5555.825701097901
 20
2691.946003006153
 42
-0.1456594919855541
 10
5808.253257916082
 20
2775.410718735639
 42
0.0
 10
5808.253257916082
 20
2777.161506066767
 42
0.1456882012066041
 10
5554.825168427447
 20
2693.381772616973
 42
0.24529436373342
 10
5505.253257916082
 20
2598.415868358475
 42
0.0
 10
5505.253257916082
 20
2415.160153935856
 42
0.1989123673795794
 10
5506.058714267819
 20
2413.215610287594
 42
0.0
 10
5506.638881523836
 20
2412.635443031576
 42
-0.1808294574597863
 10
5506.929338792909
 20
2411.998092724134
 42
0.0
 10
5507.602026495571
 20
2402.378210393372
 42
0.4641530866877555
 10
5509.244592367512
 20
2403.975701349946
 42
0.0
 10
5508.675075880865
 20
2412.120166553187
 42
0.1808294574599677
 10
5507.876318390913
 20
2413.872879898654
 42
0.0
 10
5507.296151134895
 20
2414.45304715467
 42
-0.1989123673799258
 10
5507.003257916082
 20
2415.160153935858
 42
0.0
 97
        0
 92
        7
 72
     1
 73
     1
 93
       16
 10
6139.253257916083
 20
2598.415868358474
 42
0.2452943637334241
 10
6089.681347404718
 20
2693.381772616973
 42
0.1456882012066041
 10
5836.253257916083
 20
2777.161506066767
 42
0.0
 10
5836.253257916083
 20
2775.410718735639
 42
-0.145659491985554
 10
6088.680814734265
 20
2691.946003006153
 42
-0.2452943637334195
 10
6137.503257916082
 20
2598.415868358475
 42
0.0
 10
6137.503257916082
 20
2415.160153935858
 42
-0.1989123673799461
 10
6137.210364697269
 20
2414.45304715467
 42
0.0
 10
6136.630197441252
 20
2413.872879898654
 42
0.180829457460047
 10
6135.8314399513
 20
2412.120166553187
 42
0.0
 10
6135.261923464653
 20
2403.975701349946
 42
0.4641530866877555
 10
6136.904489336594
 20
2402.378210393372
 42
0.0
 10
6137.577177039256
 20
2411.998092724133
 42
-0.1808294574599004
 10
6137.867634308329
 20
2412.635443031576
 42
0.0
 10
6138.447801564347
 20
2413.215610287595
 42
0.1989123673794578
 10
6139.253257916083
 20
2415.160153935856
 42
0.0
 97
        0
 75
     0
 76
     1
 52
0.0
 41
1.0
 77
     0
 78
     1
 53
45.0
 43
11035.789173
 44
129.379303
 45
-2.245064030267287
 46
2.245064030267288
 79
     0
 47
0.569447
 98
        2
 10
5506.321278
 20
2560.402623
 10
6138.666775
 20
2539.902524
  0
ARC
  5
434
100
AcDbEntity
  8
AM_0
100
AcDbCircle
 10
4903.352428
 20
2309.621067
 30
0.0
 40
467.75
100
AcDbArc
 50
55.128841
 51
88.284851
  0
LWPOLYLINE
  5
435
100
AcDbEntity
  8
AM_6
100
AcDbPolyline
 90
        8
 70
     1
 43
2.0
 10
4828.352428
 20
2364.021067
 10
4978.352428
 20
2364.021067
 42
-0.414214
 10
4983.352428
 20
2359.021067
 10
4983.352428
 20
2304.021067
 42
-0.414214
 10
4978.352428
 20
2299.021067
 10
4828.352428
 20
2299.021067
 42
-0.414214
 10
4823.352428
 20
2304.021067
 10
4823.352428
 20
2359.021067
 42
-0.414214
  0
INSERT
  5
436
100
AcDbEntity
  8
AM_6
100
AcDbBlockReference
  2
LOGO
 10
4817.488066
 20
2299.403218
 30
0.0
 41
6.48
 42
6.48
 43
6.48
  0
LINE
  5
452
100
AcDbEntity
  8
AM_0
100
AcDbLine
 10
4878.352428
 20
2112.253595
 30
0.0
 11
4880.852428
 21
2112.253595
 31
0.0
  0
LINE
  5
453
100
AcDbEntity
  8
AM_0
100
AcDbLine
 10
4925.852428
 20
2112.253595
 30
0.0
 11
4928.352428
 21
2112.253595
 31
0.0
  0
TEXT
  5
454
100
AcDbEntity
  8
0
 62
     2
100
AcDbText
 10
4859.399266
 20
2521.455727
 30
0.0
 40
3.5
  1
Typ/Type
 41
1.602146
 72
     5
 11
4891.081704
 21
2521.455727
 31
0.0
100
AcDbText
  0
TEXT
  5
455
100
AcDbEntity
  8
0
 62
     3
100
AcDbText
 10
4858.806577
 20
2534.094702
 30
0.0
 40
1.863063
  1
Gersteinstraße 19  D-59227 Ahlen/Westf.
 41
0.707787
  7
ISO8
 72
     5
 11
4891.594158
 21
2534.094702
 31
0.0
100
AcDbText
  0
TEXT
  5
457
100
AcDbEntity
  8
0
 62
     3
100
AcDbText
 10
4858.806578
 20
2537.30683
 30
0.0
 40
1.863063
  1
Winkelmann + Pannhoff GmbH + Co.Kg
 41
0.796639
  7
ISO8
 72
     5
 11
4891.59416
 21
2537.30683
 31
0.0
100
AcDbText
  0
TEXT
  5
458
100
AcDbEntity
  8
0
 62
     3
100
AcDbText
 10
4859.535782
 20
2465.85292
 30
0.0
 40
3.5
  1
Bauartzulassung/Tuv type test code
 41
0.709812
 72
     5
 11
4914.334161
 21
2465.85292
 31
0.0
100
AcDbText
  0
TEXT
  5
459
100
AcDbEntity
  8
0
 62
     3
100
AcDbText
 10
4859.080279
 20
2472.363616
 30
0.0
 40
2.5
  1
(werksseitig,bauseits/factory,site)
 41
0.928142
 72
     5
 11
4907.48778
 21
2472.363616
 31
0.0
100
AcDbText
1001
GENIUS_GENTRA_14
1002
{
1070
     1
1000
//
1000
(werksseitig,bauseits/factory,site)
1000
DEU
1070
     0
1040
0.762895
1070
     0
1002
}
  0
TEXT
  5
45B
100
AcDbEntity
  8
0
 62
     3
100
AcDbText
 10
4859.080279
 20
2476.13221
 30
0.0
 40
2.5
  1
Vordruck/Precharge pressure
 41
1.078418
 72
     5
 11
4907.48778
 21
2476.13221
 31
0.0
100
AcDbText
  0
TEXT
  5
45C
100
AcDbEntity
  8
0
 62
     3
100
AcDbText
 10
4859.352231
 20
2481.63171
 30
0.0
 40
3.5
  1
zul.Betr.überdruck/Max.working pressure
 41
0.628728
 72
     5
 11
4913.606706
 21
2481.63171
 31
0.0
100
AcDbText
  0
TEXT
  5
45D
100
AcDbEntity
  8
0
 62
     3
100
AcDbText
 10
4859.352231
 20
2489.426578
 30
0.0
 40
3.5
  1
zul.Temperatur/Max.temperature
 41
0.782908
 72
     5
 11
4913.470729
 21
2489.426578
 31
0.0
100
AcDbText
  0
LINE
  5
45E
100
AcDbEntity
  8
0
100
AcDbLine
 10
4945.852428
 20
2454.021067
 30
0.0
 11
4860.852428
 21
2454.021067
 31
0.0
  0
LINE
  5
45F
100
AcDbEntity
  8
0
100
AcDbLine
 10
4860.852428
 20
2549.021067
 30
0.0
 11
4945.852428
 21
2549.021067
 31
0.0
  0
LINE
  5
460
100
AcDbEntity
  8
0
100
AcDbLine
 10
4855.852428
 20
2459.021067
 30
0.0
 11
4855.852428
 21
2544.021067
 31
0.0
  0
ARC
  5
461
100
AcDbEntity
  8
0
100
AcDbCircle
 10
4860.852428
 20
2459.021067
 30
0.0
 40
5.0
100
AcDbArc
 50
180.0
 51
270.0
  0
POINT
  5
462
100
AcDbEntity
  8
DEFPOINTS
  6
BYBLOCK
 62
     0
100
AcDbPoint
 10
4856.408415
 20
2456.729617
 30
0.0
  0
TEXT
  5
463
100
AcDbEntity
  8
0
 62
     3
100
AcDbText
 10
4859.216255
 20
2497.221447
 30
0.0
 40
3.5
  1
Fabr.Nr./Serial no.
 41
0.640941
 72
     5
 11
4883.555982
 21
2497.221447
 31
0.0
100
AcDbText
  0
LINE
  5
464
100
AcDbEntity
  8
0
 62
     2
100
AcDbLine
 10
4882.211624
 20
2540.638283
 30
0.0
 11
4882.211624
 21
2544.860575
 31
0.0
  0
ARC
  5
465
100
AcDbEntity
  8
0
100
AcDbCircle
 10
4860.852428
 20
2544.021067
 30
0.0
 40
5.0
100
AcDbArc
 50
90.0
 51
180.0
  0
LINE
  5
466
100
AcDbEntity
  8
0
 62
     2
100
AcDbLine
 10
4867.741691
 20
2544.860575
 30
0.0
 11
4867.741691
 21
2540.638283
 31
0.0
  0
TEXT
  5
467
100
AcDbEntity
  8
0
 62
     3
100
AcDbText
 10
4859.352231
 20
2505.696224
 30
0.0
 40
3.5
  1
Inhalt/Volume
 41
0.824098
 72
     5
 11
4883.148053
 21
2505.696224
 31
0.0
100
AcDbText
  0
TEXT
  5
468
100
AcDbEntity
  8
0
 62
     3
100
AcDbText
 10
4859.352231
 20
2513.21913
 30
0.0
 40
3.5
  1
Baujahr/Year
 41
0.824676
 72
     5
 11
4882.876101
 21
2513.21913
 31
0.0
100
AcDbText
  0
LINE
  5
469
100
AcDbEntity
  8
0
 62
     2
100
AcDbLine
 10
4867.741691
 20
2540.638283
 30
0.0
 11
4882.211624
 21
2540.638283
 31
0.0
  0
LINE
  5
46A
100
AcDbEntity
  8
0
 62
     2
100
AcDbLine
 10
4882.211624
 20
2544.860575
 30
0.0
 11
4867.741691
 21
2544.860575
 31
0.0
  0
INSERT
  5
46B
100
AcDbEntity
  8
AM_4
100
AcDbBlockReference
  2
REFLEX-LOGO
 10
4869.479377
 20
2540.863771
 30
0.0
 41
0.432319
 42
0.432319
 43
0.432319
  0
LINE
  5
46C
100
AcDbEntity
  8
0
100
AcDbLine
 10
4950.852428
 20
2544.021067
 30
0.0
 11
4950.852428
 21
2459.021067
 31
0.0
  0
LINE
  5
46D
100
AcDbEntity
  8
0
 62
     2
100
AcDbLine
 10
4941.027448
 20
2510.611855
 30
0.0
 11
4941.027448
 21
2503.611855
 31
0.0
  0
LINE
  5
46E
100
AcDbEntity
  8
0
 62
     2
100
AcDbLine
 10
4916.027448
 20
2503.611855
 30
0.0
 11
4916.027448
 21
2510.611855
 31
0.0
  0
TEXT
  5
46F
100
AcDbEntity
  8
0
 62
     3
100
AcDbText
 10
4942.841573
 20
2473.135316
 30
0.0
 40
3.5
  1
bar
 41
0.903007
 72
     5
 11
4948.688546
 21
2473.135316
 31
0.0
100
AcDbText
  0
TEXT
  5
470
100
AcDbEntity
  8
0
 62
     3
100
AcDbText
 10
4942.841573
 20
2480.930185
 30
0.0
 40
3.5
  1
bar
 41
0.903007
 72
     5
 11
4948.688546
 21
2480.930185
 31
0.0
100
AcDbText
  0
LINE
  5
471
100
AcDbEntity
  8
0
 62
     2
100
AcDbLine
 10
4941.027448
 20
2494.611855
 30
0.0
 11
4941.027448
 21
2487.611855
 31
0.0
  0
LINE
  5
472
100
AcDbEntity
  8
0
 62
     2
100
AcDbLine
 10
4941.027448
 20
2478.611855
 30
0.0
 11
4941.027448
 21
2471.611855
 31
0.0
  0
LINE
  5
473
100
AcDbEntity
  8
0
 62
     2
100
AcDbLine
 10
4940.927448
 20
2470.611855
 30
0.0
 11
4940.927448
 21
2463.611855
 31
0.0
  0
LINE
  5
474
100
AcDbEntity
  8
0
 62
     2
100
AcDbLine
 10
4941.027448
 20
2486.611855
 30
0.0
 11
4941.027448
 21
2479.611855
 31
0.0
  0
TEXT
  5
475
100
AcDbEntity
  8
0
 62
     3
100
AcDbText
 10
4936.944414
 20
2481.233996
 30
0.0
 40
3.5
  1
6
100
AcDbText
  0
TEXT
  5
476
100
AcDbEntity
  8
0
 62
     3
100
AcDbText
 10
4931.954363
 20
2489.371671
 30
0.0
 40
3.5
  1
393
100
AcDbText
  0
LINE
  5
477
100
AcDbEntity
  8
0
 62
     2
100
AcDbLine
 10
4941.027448
 20
2502.611855
 30
0.0
 11
4941.027448
 21
2495.611855
 31
0.0
  0
LINE
  5
478
100
AcDbEntity
  8
0
 62
     2
100
AcDbLine
 10
4928.527448
 20
2478.611855
 30
0.0
 11
4916.027448
 21
2478.611855
 31
0.0
  0
LINE
  5
479
100
AcDbEntity
  8
0
 62
     2
100
AcDbLine
 10
4928.527448
 20
2471.611855
 30
0.0
 11
4916.027448
 21
2471.611855
 31
0.0
  0
LINE
  5
47A
100
AcDbEntity
  8
0
 62
     2
100
AcDbLine
 10
4916.027448
 20
2487.611855
 30
0.0
 11
4916.027448
 21
2494.611855
 31
0.0
  0
LINE
  5
47B
100
AcDbEntity
  8
0
 62
     2
100
AcDbLine
 10
4916.027448
 20
2471.611855
 30
0.0
 11
4916.027448
 21
2478.611855
 31
0.0
  0
LINE
  5
47C
100
AcDbEntity
  8
0
 62
     2
100
AcDbLine
 10
4915.927448
 20
2463.611855
 30
0.0
 11
4915.927448
 21
2470.611855
 31
0.0
  0
LINE
  5
47D
100
AcDbEntity
  8
0
 62
     2
100
AcDbLine
 10
4916.027448
 20
2479.611855
 30
0.0
 11
4916.027448
 21
2486.611855
 31
0.0
  0
LINE
  5
47E
100
AcDbEntity
  8
0
 62
     2
100
AcDbLine
 10
4916.027448
 20
2495.611855
 30
0.0
 11
4916.027448
 21
2502.611855
 31
0.0
  0
LINE
  5
47F
100
AcDbEntity
  8
0
 62
     2
100
AcDbLine
 10
4928.527448
 20
2478.611855
 30
0.0
 11
4928.527448
 21
2471.611855
 31
0.0
  0
LINE
  5
480
100
AcDbEntity
  8
0
 62
     2
100
AcDbLine
 10
4929.527448
 20
2478.611855
 30
0.0
 11
4929.527448
 21
2471.611855
 31
0.0
  0
LINE
  5
481
100
AcDbEntity
  8
0
 62
     2
100
AcDbLine
 10
4940.927448
 20
2463.611855
 30
0.0
 11
4915.927448
 21
2463.611855
 31
0.0
  0
LINE
  5
482
100
AcDbEntity
  8
0
 62
     2
100
AcDbLine
 10
4940.927448
 20
2470.611855
 30
0.0
 11
4915.927448
 21
2470.611855
 31
0.0
  0
LINE
  5
483
100
AcDbEntity
  8
0
 62
     2
100
AcDbLine
 10
4941.027448
 20
2479.611855
 30
0.0
 11
4916.027448
 21
2479.611855
 31
0.0
  0
LINE
  5
484
100
AcDbEntity
  8
0
 62
     2
100
AcDbLine
 10
4941.027448
 20
2494.611855
 30
0.0
 11
4916.027448
 21
2494.611855
 31
0.0
  0
LINE
  5
485
100
AcDbEntity
  8
0
 62
     2
100
AcDbLine
 10
4941.027448
 20
2495.611855
 30
0.0
 11
4916.027448
 21
2495.611855
 31
0.0
  0
LINE
  5
486
100
AcDbEntity
  8
0
 62
     2
100
AcDbLine
 10
4941.027448
 20
2502.611855
 30
0.0
 11
4916.027448
 21
2502.611855
 31
0.0
  0
LINE
  5
487
100
AcDbEntity
  8
0
 62
     2
100
AcDbLine
 10
4941.027448
 20
2503.611855
 30
0.0
 11
4916.027448
 21
2503.611855
 31
0.0
  0
LINE
  5
488
100
AcDbEntity
  8
0
 62
     2
100
AcDbLine
 10
4941.027448
 20
2487.611855
 30
0.0
 11
4916.027448
 21
2487.611855
 31
0.0
  0
LINE
  5
489
100
AcDbEntity
  8
0
 62
     2
100
AcDbLine
 10
4941.027448
 20
2486.611855
 30
0.0
 11
4916.027448
 21
2486.611855
 31
0.0
  0
TEXT
  5
48A
100
AcDbEntity
  8
0
 62
     3
100
AcDbText
 10
4917.953051
 20
2465.591472
 30
0.0
 40
3.5
  1
86/NHA 38
100
AcDbText
  0
LINE
  5
48B
100
AcDbEntity
  8
0
 62
     2
100
AcDbLine
 10
4941.027448
 20
2471.611855
 30
0.0
 11
4929.527448
 21
2471.611855
 31
0.0
  0
LINE
  5
48C
100
AcDbEntity
  8
0
 62
     2
100
AcDbLine
 10
4941.027448
 20
2478.611855
 30
0.0
 11
4929.527448
 21
2478.611855
 31
0.0
  0
ARC
  5
48D
100
AcDbEntity
  8
0
100
AcDbCircle
 10
4945.852428
 20
2459.021067
 30
0.0
 40
5.0
100
AcDbArc
 50
270.0
 51
0.0
  0
TEXT
  5
48E
100
AcDbEntity
  8
0
 62
     3
100
AcDbText
 10
4943.626546
 20
2488.60227
 30
0.0
 40
3.5
  1
K
 41
1.245583
 72
     5
 11
4946.482045
 21
2488.60227
 31
0.0
100
AcDbText
  0
TEXT
  5
48F
100
AcDbEntity
  8
0
 62
     3
100
AcDbText
 10
4942.841573
 20
2504.961036
 30
0.0
 40
3.5
  1
ltr.
 41
0.954608
 72
     5
 11
4948.688546
 21
2504.961036
 31
0.0
100
AcDbText
  0
ARC
  5
490
100
AcDbEntity
  8
0
 62
     2
100
AcDbCircle
 10
4945.450565
 20
2540.016591
 30
0.0
 40
2.099998
100
AcDbArc
 50
90.0
 51
270.0
  0
ARC
  5
491
100
AcDbEntity
  8
0
 62
     2
100
AcDbCircle
 10
4945.450565
 20
2540.016591
 30
0.0
 40
2.015998
100
AcDbArc
 50
90.0
 51
270.0
  0
ARC
  5
492
100
AcDbEntity
  8
0
 62
     2
100
AcDbCircle
 10
4945.450565
 20
2540.016591
 30
0.0
 40
1.931998
100
AcDbArc
 50
90.0
 51
270.0
  0
ARC
  5
493
100
AcDbEntity
  8
0
 62
     2
100
AcDbCircle
 10
4945.450565
 20
2540.016591
 30
0.0
 40
1.847998
100
AcDbArc
 50
90.0
 51
270.0
  0
MTEXT
  5
494
100
AcDbEntity
  8
0
 62
     2
100
AcDbMText
 10
4895.563864
 20
2536.189968
 30
0.0
 40
2.7
 41
61.74
 71
     1
 72
     5
  1
\fArial Black|b0|i0|c0|p34;Druckausdehnungsgefäß
1001
ACAD
1000
MTEXTBEGIN
1070
    73
1070
     1
1070
    44
1040
1.0
1070
    74
1070
     0
1000
MTEXTEND
  0
LINE
  5
495
100
AcDbEntity
  8
0
 62
     2
100
AcDbLine
 10
4941.027448
 20
2526.722142
 30
0.0
 11
4941.027448
 21
2519.722142
 31
0.0
  0
TEXT
  5
496
100
AcDbEntity
  8
0
 62
     3
100
AcDbText
 10
4931.347064
 20
2505.395286
 30
0.0
 40
3.5
  1
200
100
AcDbText
  0
LINE
  5
497
100
AcDbEntity
  8
0
 62
     2
100
AcDbLine
 10
4941.027448
 20
2518.611855
 30
0.0
 11
4941.027448
 21
2511.611855
 31
0.0
  0
ARC
  5
498
100
AcDbEntity
  8
0
 62
     2
100
AcDbCircle
 10
4941.278787
 20
2540.016591
 30
0.0
 40
1.679998
100
AcDbArc
 50
90.0
 51
270.0
  0
ARC
  5
499
100
AcDbEntity
  8
0
 62
     2
100
AcDbCircle
 10
4941.278787
 20
2540.016591
 30
0.0
 40
1.595998
100
AcDbArc
 50
90.0
 51
270.0
  0
ARC
  5
49A
100
AcDbEntity
  8
0
 62
     2
100
AcDbCircle
 10
4941.278787
 20
2540.016591
 30
0.0
 40
2.099998
100
AcDbArc
 50
90.0
 51
270.0
  0
ARC
  5
49B
100
AcDbEntity
  8
0
 62
     2
100
AcDbCircle
 10
4941.278787
 20
2540.016591
 30
0.0
 40
2.015998
100
AcDbArc
 50
90.0
 51
270.0
  0
ARC
  5
49C
100
AcDbEntity
  8
0
 62
     2
100
AcDbCircle
 10
4941.278787
 20
2540.016591
 30
0.0
 40
1.931998
100
AcDbArc
 50
90.0
 51
270.0
  0
ARC
  5
49D
100
AcDbEntity
  8
0
 62
     2
100
AcDbCircle
 10
4941.278787
 20
2540.016591
 30
0.0
 40
1.847998
100
AcDbArc
 50
90.0
 51
270.0
  0
ARC
  5
49E
100
AcDbEntity
  8
0
 62
     2
100
AcDbCircle
 10
4941.278787
 20
2540.016591
 30
0.0
 40
1.763998
100
AcDbArc
 50
90.0
 51
270.0
  0
LINE
  5
49F
100
AcDbEntity
  8
0
 62
     2
100
AcDbLine
 10
4941.278787
 20
2538.420592
 30
0.0
 11
4941.278787
 21
2537.916593
 31
0.0
  0
LINE
  5
4A0
100
AcDbEntity
  8
0
 62
     2
100
AcDbLine
 10
4941.278787
 20
2542.116589
 30
0.0
 11
4941.278787
 21
2541.612589
 31
0.0
  0
LINE
  5
4A1
100
AcDbEntity
  8
0
 62
     2
100
AcDbLine
 10
4893.027448
 20
2519.722142
 30
0.0
 11
4893.027448
 21
2526.722142
 31
0.0
  0
LINE
  5
4A2
100
AcDbEntity
  8
0
 62
     2
100
AcDbLine
 10
4916.027448
 20
2511.611855
 30
0.0
 11
4916.027448
 21
2518.611855
 31
0.0
  0
MTEXT
  5
4A3
100
AcDbEntity
  8
0
 62
     2
100
AcDbMText
 10
4895.490279
 20
2541.013673
 30
0.0
 40
3.0
 41
61.74
 71
     1
 72
     5
  1
\fArial Black|b0|i0|c0|p34;Membran-
1001
ACAD
1000
MTEXTBEGIN
1070
    73
1070
     1
1070
    44
1040
1.0
1070
    74
1070
     0
1000
MTEXTEND
  0
TEXT
  5
4A4
100
AcDbEntity
  8
0
 62
     3
100
AcDbText
 10
4914.81441
 20
2520.932473
 30
0.0
 40
3.5
  1
Reflexomat
100
AcDbText
  0
LINE
  5
4A5
100
AcDbEntity
  8
0
 62
     2
100
AcDbLine
 10
4941.027448
 20
2519.722142
 30
0.0
 11
4893.027448
 21
2519.722142
 31
0.0
  0
LINE
  5
4A6
100
AcDbEntity
  8
0
 62
     2
100
AcDbLine
 10
4941.027448
 20
2518.611855
 30
0.0
 11
4916.027448
 21
2518.611855
 31
0.0
  0
LINE
  5
4A7
100
AcDbEntity
  8
0
 62
     2
100
AcDbLine
 10
4941.027448
 20
2510.611855
 30
0.0
 11
4916.027448
 21
2510.611855
 31
0.0
  0
LINE
  5
4A8
100
AcDbEntity
  8
0
 62
     2
100
AcDbLine
 10
4941.027448
 20
2511.611855
 30
0.0
 11
4916.027448
 21
2511.611855
 31
0.0
  0
TEXT
  5
4A9
100
AcDbEntity
  8
0
 62
     3
100
AcDbText
 10
4928.998804
 20
2513.395286
 30
0.0
 40
3.5
  1
2001
100
AcDbText
  0
LINE
  5
4AA
100
AcDbEntity
  8
0
 62
     2
100
AcDbLine
 10
4893.027448
 20
2526.722142
 30
0.0
 11
4941.027448
 21
2526.722142
 31
0.0
  0
ARC
  5
4AB
100
AcDbEntity
  8
0
100
AcDbCircle
 10
4945.852428
 20
2544.021067
 30
0.0
 40
5.0
100
AcDbArc
 50
0.0
 51
90.0
  0
ARC
  5
4AC
100
AcDbEntity
  8
0
 62
     2
100
AcDbCircle
 10
4945.450565
 20
2540.016591
 30
0.0
 40
1.679998
100
AcDbArc
 50
90.0
 51
270.0
  0
ARC
  5
4AD
100
AcDbEntity
  8
0
 62
     2
100
AcDbCircle
 10
4945.450565
 20
2540.016591
 30
0.0
 40
1.763998
100
AcDbArc
 50
90.0
 51
270.0
  0
LINE
  5
4AE
100
AcDbEntity
  8
0
 62
     2
100
AcDbLine
 10
4943.770566
 20
2540.016591
 30
0.0
 11
4945.450565
 21
2540.016591
 31
0.0
  0
LINE
  5
4AF
100
AcDbEntity
  8
0
 62
     2
100
AcDbLine
 10
4943.772668
 20
2540.100591
 30
0.0
 11
4945.450565
 21
2540.100591
 31
0.0
  0
LINE
  5
4B0
100
AcDbEntity
  8
0
 62
     2
100
AcDbLine
 10
4943.778988
 20
2540.18459
 30
0.0
 11
4945.450565
 21
2540.18459
 31
0.0
  0
LINE
  5
4B1
100
AcDbEntity
  8
0
 62
     2
100
AcDbLine
 10
4943.772668
 20
2539.932591
 30
0.0
 11
4945.450565
 21
2539.932591
 31
0.0
  0
LINE
  5
4B2
100
AcDbEntity
  8
0
 62
     2
100
AcDbLine
 10
4943.778988
 20
2539.848591
 30
0.0
 11
4945.450565
 21
2539.848591
 31
0.0
  0
LINE
  5
4B3
100
AcDbEntity
  8
0
 62
     2
100
AcDbLine
 10
4943.789574
 20
2539.764591
 30
0.0
 11
4945.450565
 21
2539.764591
 31
0.0
  0
LINE
  5
4B4
100
AcDbEntity
  8
0
 62
     2
100
AcDbLine
 10
4945.450565
 20
2538.336592
 30
0.0
 11
4945.450565
 21
2537.916593
 31
0.0
  0
LINE
  5
4B5
100
AcDbEntity
  8
0
 62
     2
100
AcDbLine
 10
4945.450565
 20
2540.18459
 30
0.0
 11
4945.450565
 21
2539.764591
 31
0.0
  0
LINE
  5
4B6
100
AcDbEntity
  8
0
 62
     2
100
AcDbLine
 10
4945.450565
 20
2542.116589
 30
0.0
 11
4945.450565
 21
2541.696589
 31
0.0
  0
LINE
  5
4B7
100
AcDbEntity
  8
AM_0
100
AcDbLine
 10
5560.003258
 20
2182.733935
 30
0.0
 11
5560.003258
 21
2629.452956
 31
0.0
  0
LINE
  5
4B8
100
AcDbEntity
  8
AM_0
100
AcDbLine
 10
5557.003258
 20
2182.733935
 30
0.0
 11
5557.003258
 21
2629.452956
 31
0.0
  0
LINE
  5
4B9
100
AcDbEntity
  8
AM_0
100
AcDbLine
 10
5507.003258
 20
2415.160154
 30
0.0
 11
5507.003258
 21
2598.415868
 31
0.0
  0
LINE
  5
4BA
100
AcDbEntity
  8
AM_0
100
AcDbLine
 10
5505.253258
 20
2415.160154
 30
0.0
 11
5505.253258
 21
2598.415868
 31
0.0
  0
LINE
  5
4BB
100
AcDbEntity
  8
AM_0
100
AcDbLine
 10
5220.352428
 20
2415.160154
 30
0.0
 11
5220.352428
 21
2598.415868
 31
0.0
  0
LINE
  5
4BC
100
AcDbEntity
  8
AM_0
100
AcDbLine
 10
5220.352428
 20
2410.941
 30
0.0
 11
5220.352428
 21
2214.896198
 31
0.0
  0
ARC
  5
4BD
100
AcDbEntity
  8
AM_0
100
AcDbCircle
 10
5104.602428
 20
2214.896198
 30
0.0
 40
115.75
100
AcDbArc
 50
304.871159
 51
0.0
1001
GENIUS_GENODEF_13
1002
{
1000
HIER
1070
     0
1002
}
1002
{
1000
MANEDIT
1070
     0
1002
}
1002
{
1000
NOSEL
1070
     0
1002
}
1002
{
1000
BEHIND
1070
     0
1002
}
1002
{
1000
REACTOR
1002
}
1001
GENIUS_GENOBJ-N-FIL_13
1002
{
1000
OWNER
1000
GEN
1002
}
  0
ARC
  5
4BE
100
AcDbEntity
  8
AM_0
100
AcDbCircle
 10
5217.602428
 20
2415.160154
 30
0.0
 40
2.75
100
AcDbArc
 50
315.0
 51
0.0
1001
GENIUS_GENODEF_13
1002
{
1000
HIER
1070
     0
1002
}
1002
{
1000
MANEDIT
1070
     0
1002
}
1002
{
1000
NOSEL
1070
     0
1002
}
1002
{
1000
BEHIND
1070
     0
1002
}
1002
{
1000
REACTOR
1002
}
1001
GENIUS_GENOBJ-N-FIL_13
1002
{
1000
OWNER
1000
GEN
1002
}
  0
LINE
  5
4BF
100
AcDbEntity
  8
AM_0
100
AcDbLine
 10
5219.546972
 20
2413.21561
 30
0.0
 11
5218.966805
 21
2412.635443
 31
0.0
  0
ARC
  5
4C0
100
AcDbEntity
  8
AM_0
100
AcDbCircle
 10
5219.673911
 20
2411.928336
 30
0.0
 40
1.0
100
AcDbArc
 50
135.0
 51
176.0
1001
GENIUS_GENODEF_13
1002
{
1000
HIER
1070
     0
1002
}
1002
{
1000
MANEDIT
1070
     0
1002
}
1002
{
1000
NOSEL
1070
     0
1002
}
1002
{
1000
BEHIND
1070
     0
1002
}
1002
{
1000
REACTOR
1002
}
1001
GENIUS_GENOBJ-N-FIL_13
1002
{
1000
OWNER
1000
GEN
1002
}
  0
LINE
  5
4C1
100
AcDbEntity
  8
AM_0
100
AcDbLine
 10
5218.602428
 20
2410.941
 30
0.0
 11
5218.676347
 21
2411.998093
 31
0.0
  0
LINE
  5
4C2
100
AcDbEntity
  8
AM_0
100
AcDbLine
 10
5507.003258
 20
2410.941
 30
0.0
 11
5507.003258
 21
2214.896198
 31
0.0
  0
LINE
  5
4C3
100
AcDbEntity
  8
AM_0
100
AcDbLine
 10
5505.253258
 20
2410.941
 30
0.0
 11
5505.253258
 21
2214.896198
 31
0.0
  0
ARC
  5
4C4
100
AcDbEntity
  8
AM_0
100
AcDbCircle
 10
5621.003258
 20
2214.896198
 30
0.0
 40
115.75
100
AcDbArc
 50
180.0
 51
235.128841
1001
GENIUS_GENODEF_13
1002
{
1000
HIER
1070
     0
1002
}
1002
{
1000
MANEDIT
1070
     0
1002
}
1002
{
1000
NOSEL
1070
     0
1002
}
1002
{
1000
BEHIND
1070
     0
1002
}
1002
{
1000
REACTOR
1002
}
1001
GENIUS_GENOBJ-N-FIL_13
1002
{
1000
OWNER
1000
GEN
1002
}
  0
ARC
  5
4C5
100
AcDbEntity
  8
AM_0
100
AcDbCircle
 10
5621.003258
 20
2214.896198
 30
0.0
 40
114.0
100
AcDbArc
 50
180.0
 51
235.128841
1001
GENIUS_GENODEF_13
1002
{
1000
HIER
1070
     0
1002
}
1002
{
1000
MANEDIT
1070
     0
1002
}
1002
{
1000
NOSEL
1070
     0
1002
}
1002
{
1000
BEHIND
1070
     0
1002
}
1002
{
1000
REACTOR
1002
}
1001
GENIUS_GENOBJ-N-FIL_13
1002
{
1000
OWNER
1000
GEN
1002
}
  0
LINE
  5
4C6
100
AcDbEntity
  8
AM_4
100
AcDbLine
 10
5557.003258
 20
2413.145845
 30
0.0
 11
5511.467681
 21
2413.145845
 31
0.0
  0
LINE
  5
4C7
100
AcDbEntity
  8
AM_4
100
AcDbLine
 10
5557.003258
 20
2414.74594
 30
0.0
 11
5510.171736
 21
2414.74594
 31
0.0
  0
LINE
  5
4C8
100
AcDbEntity
  8
AM_0
100
AcDbLine
 10
5557.003258
 20
2402.371067
 30
0.0
 11
5507.602526
 21
2402.371067
 31
0.0
  0
LINE
  5
4C9
100
AcDbEntity
  8
AM_0
100
AcDbLine
 10
5507.003258
 20
2410.941
 30
0.0
 11
5505.253258
 21
2410.941
 31
0.0
  0
ARC
  5
4CA
100
AcDbEntity
  8
AM_0
100
AcDbCircle
 10
5508.003258
 20
2415.160154
 30
0.0
 40
1.0
100
AcDbArc
 50
180.0
 51
225.0
1001
GENIUS_GENODEF_13
1002
{
1000
HIER
1070
     0
1002
}
1002
{
1000
MANEDIT
1070
     0
1002
}
1002
{
1000
NOSEL
1070
     0
1002
}
1002
{
1000
BEHIND
1070
     0
1002
}
1002
{
1000
REACTOR
1002
}
1001
GENIUS_GENOBJ-N-FIL_13
1002
{
1000
OWNER
1000
GEN
1002
}
  0
LINE
  5
4CB
100
AcDbEntity
  8
AM_0
100
AcDbLine
 10
5507.296151
 20
2414.453047
 30
0.0
 11
5507.876318
 21
2413.87288
 31
0.0
  0
ARC
  5
4CC
100
AcDbEntity
  8
AM_0
100
AcDbCircle
 10
5505.931775
 20
2411.928336
 30
0.0
 40
2.75
100
AcDbArc
 50
4.0
 51
45.0
1001
GENIUS_GENODEF_13
1002
{
1000
HIER
1070
     0
1002
}
1002
{
1000
MANEDIT
1070
     0
1002
}
1002
{
1000
NOSEL
1070
     0
1002
}
1002
{
1000
BEHIND
1070
     0
1002
}
1002
{
1000
REACTOR
1002
}
1001
GENIUS_GENOBJ-N-FIL_13
1002
{
1000
OWNER
1000
GEN
1002
}
  0
LINE
  5
4CD
100
AcDbEntity
  8
AM_0
100
AcDbLine
 10
5509.244592
 20
2403.975701
 30
0.0
 11
5508.675076
 21
2412.120167
 31
0.0
  0
ARC
  5
4CE
100
AcDbEntity
  8
AM_0
100
AcDbCircle
 10
5507.748246
 20
2403.871067
 30
0.0
 40
1.5
100
AcDbArc
 50
270.0
 51
4.0
1001
GENIUS_GENODEF_13
1002
{
1000
HIER
1070
     0
1002
}
1002
{
1000
MANEDIT
1070
     0
1002
}
1002
{
1000
NOSEL
1070
     0
1002
}
1002
{
1000
BEHIND
1070
     0
1002
}
1002
{
1000
REACTOR
1002
}
1001
GENIUS_GENOBJ-N-FIL_13
1002
{
1000
OWNER
1000
GEN
1002
}
  0
LINE
  5
4CF
100
AcDbEntity
  8
AM_0
100
AcDbLine
 10
5507.602526
 20
2402.371067
 30
0.0
 11
5506.929339
 21
2411.998093
 31
0.0
  0
ARC
  5
4D0
100
AcDbEntity
  8
AM_0
100
AcDbCircle
 10
5505.931775
 20
2411.928336
 30
0.0
 40
1.0
100
AcDbArc
 50
4.0
 51
45.0
1001
GENIUS_GENODEF_13
1002
{
1000
HIER
1070
     0
1002
}
1002
{
1000
MANEDIT
1070
     0
1002
}
1002
{
1000
NOSEL
1070
     0
1002
}
1002
{
1000
BEHIND
1070
     0
1002
}
1002
{
1000
REACTOR
1002
}
1001
GENIUS_GENOBJ-N-FIL_13
1002
{
1000
OWNER
1000
GEN
1002
}
  0
LINE
  5
4D1
100
AcDbEntity
  8
AM_0
100
AcDbLine
 10
5506.058714
 20
2413.21561
 30
0.0
 11
5506.638882
 21
2412.635443
 31
0.0
  0
ARC
  5
4D2
100
AcDbEntity
  8
AM_0
100
AcDbCircle
 10
5508.003258
 20
2415.160154
 30
0.0
 40
2.75
100
AcDbArc
 50
180.0
 51
225.0
1001
GENIUS_GENODEF_13
1002
{
1000
HIER
1070
     0
1002
}
1002
{
1000
MANEDIT
1070
     0
1002
}
1002
{
1000
NOSEL
1070
     0
1002
}
1002
{
1000
BEHIND
1070
     0
1002
}
1002
{
1000
REACTOR
1002
}
1001
GENIUS_GENOBJ-N-FIL_13
1002
{
1000
OWNER
1000
GEN
1002
}
  0
ARC
  5
4D3
100
AcDbEntity
  8
AM_0
100
AcDbCircle
 10
5104.602428
 20
2598.415868
 30
0.0
 40
115.75
100
AcDbArc
 50
0.0
 51
55.128841
1001
GENIUS_GENODEF_13
1002
{
1000
HIER
1070
     0
1002
}
1002
{
1000
MANEDIT
1070
     0
1002
}
1002
{
1000
NOSEL
1070
     0
1002
}
1002
{
1000
BEHIND
1070
     0
1002
}
1002
{
1000
REACTOR
1002
}
1001
GENIUS_GENOBJ-N-FIL_13
1002
{
1000
OWNER
1000
GEN
1002
}
  0
ARC
  5
4D4
100
AcDbEntity
  8
AM_0
100
AcDbCircle
 10
5621.003258
 20
2598.415868
 30
0.0
 40
115.75
100
AcDbArc
 50
124.871159
 51
180.0
1001
GENIUS_GENODEF_13
1002
{
1000
HIER
1070
     0
1002
}
1002
{
1000
MANEDIT
1070
     0
1002
}
1002
{
1000
NOSEL
1070
     0
1002
}
1002
{
1000
BEHIND
1070
     0
1002
}
1002
{
1000
REACTOR
1002
}
1001
GENIUS_GENOBJ-N-FIL_13
1002
{
1000
OWNER
1000
GEN
1002
}
  0
ARC
  5
4D5
100
AcDbEntity
  8
AM_0
100
AcDbCircle
 10
5621.003258
 20
2598.415868
 30
0.0
 40
114.0
100
AcDbArc
 50
124.871159
 51
180.0
1001
GENIUS_GENODEF_13
1002
{
1000
HIER
1070
     0
1002
}
1002
{
1000
MANEDIT
1070
     0
1002
}
1002
{
1000
NOSEL
1070
     0
1002
}
1002
{
1000
BEHIND
1070
     0
1002
}
1002
{
1000
REACTOR
1002
}
1001
GENIUS_GENOBJ-N-FIL_13
1002
{
1000
OWNER
1000
GEN
1002
}
  0
LINE
  5
4D6
100
AcDbEntity
  8
AM_7
100
AcDbLine
 10
5567.253258
 20
2725.208381
 30
0.0
 11
5567.253258
 21
2698.708193
 31
0.0
  0
LINE
  5
4D7
100
AcDbEntity
  8
AM_0
100
AcDbLine
 10
5556.603258
 20
2721.749952
 30
0.0
 11
5556.603258
 21
2694.749952
 31
0.0
  0
LINE
  5
4D8
100
AcDbEntity
  8
AM_0
100
AcDbLine
 10
4889.352428
 20
2777.161506
 30
0.0
 11
4917.352428
 21
2777.161506
 31
0.0
  0
LINE
  5
4D9
100
AcDbEntity
  8
AM_0
100
AcDbLine
 10
4917.212428
 20
2778.235378
 30
0.0
 11
4917.212428
 21
2790.887635
 31
0.0
  0
LINE
  5
4DA
100
AcDbEntity
  8
AM_0
100
AcDbLine
 10
4917.212428
 20
2778.235378
 30
0.0
 11
4915.352428
 21
2777.161506
 31
0.0
  0
LINE
  5
4DB
100
AcDbEntity
  8
AM_0
100
AcDbLine
 10
4917.212428
 20
2790.887635
 30
0.0
 11
4915.352428
 21
2791.961506
 31
0.0
  0
LINE
  5
4DC
100
AcDbEntity
  8
AM_0
100
AcDbLine
 10
4896.422428
 20
2778.235378
 30
0.0
 11
4896.422428
 21
2790.887635
 31
0.0
  0
LINE
  5
4DD
100
AcDbEntity
  8
AM_0
100
AcDbLine
 10
4889.492428
 20
2778.235378
 30
0.0
 11
4889.492428
 21
2790.887635
 31
0.0
  0
LINE
  5
4DE
100
AcDbEntity
  8
AM_0
100
AcDbLine
 10
4889.492428
 20
2778.235378
 30
0.0
 11
4891.352428
 21
2777.161506
 31
0.0
  0
LINE
  5
4DF
100
AcDbEntity
  8
AM_0
100
AcDbLine
 10
4910.282428
 20
2778.235378
 30
0.0
 11
4910.282428
 21
2790.887635
 31
0.0
  0
LINE
  5
4E0
100
AcDbEntity
  8
AM_0
100
AcDbLine
 10
4889.492428
 20
2790.887635
 30
0.0
 11
4891.352428
 21
2791.961506
 31
0.0
  0
ARC
  5
4E1
100
AcDbEntity
  8
AM_0
100
AcDbCircle
 10
4892.957428
 20
2783.288601
 30
0.0
 40
6.127095
100
AcDbArc
 50
244.438469
 51
304.438469
  0
ARC
  5
4E2
100
AcDbEntity
  8
AM_0
100
AcDbCircle
 10
4903.352428
 20
2800.059078
 30
0.0
 40
22.897572
100
AcDbArc
 50
252.383031
 51
287.616969
  0
ARC
  5
4E3
100
AcDbEntity
  8
AM_0
100
AcDbCircle
 10
4903.352428
 20
2769.063934
 30
0.0
 40
22.897572
100
AcDbArc
 50
72.383031
 51
107.616969
  0
ARC
  5
4E4
100
AcDbEntity
  8
AM_0
100
AcDbCircle
 10
4892.957428
 20
2785.834411
 30
0.0
 40
6.127095
100
AcDbArc
 50
55.561531
 51
115.561531
  0
LINE
  5
4E5
100
AcDbEntity
  8
AM_0
100
AcDbLine
 10
4915.352428
 20
2791.961506
 30
0.0
 11
4891.352428
 21
2791.961506
 31
0.0
  0
ARC
  5
4E6
100
AcDbEntity
  8
AM_0
100
AcDbCircle
 10
4913.747428
 20
2783.288601
 30
0.0
 40
6.127095
100
AcDbArc
 50
235.561531
 51
295.561531
  0
ARC
  5
4E7
100
AcDbEntity
  8
AM_0
100
AcDbCircle
 10
4913.747428
 20
2785.834411
 30
0.0
 40
6.127095
100
AcDbArc
 50
64.438469
 51
124.438469
  0
LINE
  5
4E8
100
AcDbEntity
  8
AM_0
100
AcDbLine
 10
4895.332009
 20
2810.686261
 30
0.0
 11
4911.332009
 21
2810.686261
 31
0.0
  0
LINE
  5
4E9
100
AcDbEntity
  8
AM_0
100
AcDbLine
 10
4895.332009
 20
2810.686261
 30
0.0
 11
4896.332009
 21
2811.686261
 31
0.0
  0
LINE
  5
4EA
100
AcDbEntity
  8
AM_0
100
AcDbLine
 10
4896.332009
 20
2811.686261
 30
0.0
 11
4910.332009
 21
2811.686261
 31
0.0
  0
LINE
  5
4EB
100
AcDbEntity
  8
AM_0
100
AcDbLine
 10
4911.332009
 20
2810.686261
 30
0.0
 11
4910.332009
 21
2811.686261
 31
0.0
  0
LINE
  5
4EC
100
AcDbEntity
  8
AM_4
100
AcDbLine
 10
4896.332009
 20
2811.686261
 30
0.0
 11
4896.332009
 21
2791.961506
 31
0.0
  0
LINE
  5
4ED
100
AcDbEntity
  8
AM_0
100
AcDbLine
 10
4895.332009
 20
2791.961506
 30
0.0
 11
4895.332009
 21
2810.686261
 31
0.0
  0
LINE
  5
4EE
100
AcDbEntity
  8
AM_4
100
AcDbLine
 10
4910.332009
 20
2811.686261
 30
0.0
 11
4910.332009
 21
2791.961506
 31
0.0
  0
LINE
  5
4EF
100
AcDbEntity
  8
AM_0
100
AcDbLine
 10
4911.332009
 20
2791.961506
 30
0.0
 11
4911.332009
 21
2810.686261
 31
0.0
  0
LINE
  5
4F0
100
AcDbEntity
  8
AM_0
100
AcDbLine
 10
4983.352428
 20
2770.47903
 30
0.0
 11
4986.352428
 21
2770.47903
 31
0.0
  0
ARC
  5
4F1
100
AcDbEntity
  8
AM_0
100
AcDbCircle
 10
5822.253258
 20
2309.621067
 30
0.0
 40
457.0
100
AcDbArc
 50
91.379244
 51
117.32439
  0
ARC
  5
4F2
100
AcDbEntity
  8
AM_0
100
AcDbCircle
 10
5822.253258
 20
2309.621067
 30
0.0
 40
460.0
100
AcDbArc
 50
90.999042
 51
117.32439
  0
ARC
  5
4F3
100
AcDbEntity
  8
AM_0
100
AcDbCircle
 10
5822.253258
 20
2309.621067
 30
0.0
 40
457.0
100
AcDbArc
 50
62.67561
 51
88.620756
  0
ARC
  5
4F4
100
AcDbEntity
  8
AM_0
100
AcDbCircle
 10
5822.253258
 20
2309.621067
 30
0.0
 40
460.0
100
AcDbArc
 50
62.67561
 51
89.006045
  0
ARC
  5
4F5
100
AcDbEntity
  8
AM_0
100
AcDbCircle
 10
5822.253258
 20
2309.621067
 30
0.0
 40
466.0
100
AcDbArc
 50
55.128841
 51
88.278409
  0
ARC
  5
4F6
100
AcDbEntity
  8
AM_0
100
AcDbCircle
 10
5822.253258
 20
2309.621067
 30
0.0
 40
467.75
100
AcDbArc
 50
55.128841
 51
88.284851
  0
LINE
  5
4F7
100
AcDbEntity
  8
AM_0
100
AcDbLine
 10
5577.903258
 20
2708.749952
 30
0.0
 11
5577.903258
 21
2721.749952
 31
0.0
  0
LINE
  5
4F8
100
AcDbEntity
  8
AM_0
100
AcDbLine
 10
6084.503258
 20
2182.733935
 30
0.0
 11
6084.503258
 21
2629.452956
 31
0.0
  0
LINE
  5
4F9
100
AcDbEntity
  8
AM_0
100
AcDbLine
 10
6087.503258
 20
2182.733935
 30
0.0
 11
6087.503258
 21
2629.452956
 31
0.0
  0
LINE
  5
4FA
100
AcDbEntity
  8
AM_0
100
AcDbLine
 10
6139.253258
 20
2415.160154
 30
0.0
 11
6139.253258
 21
2598.415868
 31
0.0
  0
LINE
  5
4FB
100
AcDbEntity
  8
AM_0
100
AcDbLine
 10
6137.503258
 20
2415.160154
 30
0.0
 11
6137.503258
 21
2598.415868
 31
0.0
  0
LINE
  5
4FC
100
AcDbEntity
  8
AM_0
100
AcDbLine
 10
6139.253258
 20
2410.941
 30
0.0
 11
6139.253258
 21
2214.896198
 31
0.0
  0
LINE
  5
4FD
100
AcDbEntity
  8
AM_0
100
AcDbLine
 10
6137.503258
 20
2410.941
 30
0.0
 11
6137.503258
 21
2214.896198
 31
0.0
  0
ARC
  5
4FE
100
AcDbEntity
  8
AM_0
100
AcDbCircle
 10
6023.503258
 20
2214.896198
 30
0.0
 40
114.0
100
AcDbArc
 50
304.871159
 51
0.0
1001
GENIUS_GENODEF_13
1002
{
1000
HIER
1070
     0
1002
}
1002
{
1000
MANEDIT
1070
     0
1002
}
1002
{
1000
NOSEL
1070
     0
1002
}
1002
{
1000
BEHIND
1070
     0
1002
}
1002
{
1000
REACTOR
1002
}
1001
GENIUS_GENOBJ-N-FIL_13
1002
{
1000
OWNER
1000
GEN
1002
}
  0
ARC
  5
4FF
100
AcDbEntity
  8
AM_0
100
AcDbCircle
 10
6023.503258
 20
2214.896198
 30
0.0
 40
115.75
100
AcDbArc
 50
304.871159
 51
0.0
1001
GENIUS_GENODEF_13
1002
{
1000
HIER
1070
     0
1002
}
1002
{
1000
MANEDIT
1070
     0
1002
}
1002
{
1000
NOSEL
1070
     0
1002
}
1002
{
1000
BEHIND
1070
     0
1002
}
1002
{
1000
REACTOR
1002
}
1001
GENIUS_GENOBJ-N-FIL_13
1002
{
1000
OWNER
1000
GEN
1002
}
  0
ARC
  5
500
100
AcDbEntity
  8
AM_0
100
AcDbCircle
 10
6082.553258
 20
2110.053595
 30
0.0
 40
2.2
100
AcDbArc
 50
0.0
 51
131.837966
  0
LINE
  5
501
100
AcDbEntity
  8
AM_0
100
AcDbLine
 10
6139.253258
 20
2410.941
 30
0.0
 11
6137.503258
 21
2410.941
 31
0.0
  0
ARC
  5
502
100
AcDbEntity
  8
AM_0
100
AcDbCircle
 10
6136.503258
 20
2415.160154
 30
0.0
 40
2.75
100
AcDbArc
 50
315.0
 51
0.0
1001
GENIUS_GENODEF_13
1002
{
1000
HIER
1070
     0
1002
}
1002
{
1000
MANEDIT
1070
     0
1002
}
1002
{
1000
NOSEL
1070
     0
1002
}
1002
{
1000
BEHIND
1070
     0
1002
}
1002
{
1000
REACTOR
1002
}
1001
GENIUS_GENOBJ-N-FIL_13
1002
{
1000
OWNER
1000
GEN
1002
}
  0
LINE
  5
503
100
AcDbEntity
  8
AM_0
100
AcDbLine
 10
6138.447802
 20
2413.21561
 30
0.0
 11
6137.867634
 21
2412.635443
 31
0.0
  0
ARC
  5
504
100
AcDbEntity
  8
AM_0
100
AcDbCircle
 10
6138.574741
 20
2411.928336
 30
0.0
 40
1.0
100
AcDbArc
 50
135.0
 51
176.0
1001
GENIUS_GENODEF_13
1002
{
1000
HIER
1070
     0
1002
}
1002
{
1000
MANEDIT
1070
     0
1002
}
1002
{
1000
NOSEL
1070
     0
1002
}
1002
{
1000
BEHIND
1070
     0
1002
}
1002
{
1000
REACTOR
1002
}
1001
GENIUS_GENOBJ-N-FIL_13
1002
{
1000
OWNER
1000
GEN
1002
}
  0
LINE
  5
505
100
AcDbEntity
  8
AM_0
100
AcDbLine
 10
6136.90399
 20
2402.371067
 30
0.0
 11
6137.577177
 21
2411.998093
 31
0.0
  0
ARC
  5
506
100
AcDbEntity
  8
AM_0
100
AcDbCircle
 10
6136.75827
 20
2403.871067
 30
0.0
 40
1.5
100
AcDbArc
 50
176.0
 51
270.0
1001
GENIUS_GENODEF_13
1002
{
1000
HIER
1070
     0
1002
}
1002
{
1000
MANEDIT
1070
     0
1002
}
1002
{
1000
NOSEL
1070
     0
1002
}
1002
{
1000
BEHIND
1070
     0
1002
}
1002
{
1000
REACTOR
1002
}
1001
GENIUS_GENOBJ-N-FIL_13
1002
{
1000
OWNER
1000
GEN
1002
}
  0
LINE
  5
507
100
AcDbEntity
  8
AM_0
100
AcDbLine
 10
6135.261923
 20
2403.975701
 30
0.0
 11
6135.83144
 21
2412.120167
 31
0.0
  0
ARC
  5
508
100
AcDbEntity
  8
AM_0
100
AcDbCircle
 10
6138.574741
 20
2411.928336
 30
0.0
 40
2.75
100
AcDbArc
 50
135.0
 51
176.0
1001
GENIUS_GENODEF_13
1002
{
1000
HIER
1070
     0
1002
}
1002
{
1000
MANEDIT
1070
     0
1002
}
1002
{
1000
NOSEL
1070
     0
1002
}
1002
{
1000
BEHIND
1070
     0
1002
}
1002
{
1000
REACTOR
1002
}
1001
GENIUS_GENOBJ-N-FIL_13
1002
{
1000
OWNER
1000
GEN
1002
}
  0
LINE
  5
509
100
AcDbEntity
  8
AM_0
100
AcDbLine
 10
6137.210365
 20
2414.453047
 30
0.0
 11
6136.630197
 21
2413.87288
 31
0.0
  0
ARC
  5
50A
100
AcDbEntity
  8
AM_0
100
AcDbCircle
 10
6136.503258
 20
2415.160154
 30
0.0
 40
1.0
100
AcDbArc
 50
315.0
 51
0.0
1001
GENIUS_GENODEF_13
1002
{
1000
HIER
1070
     0
1002
}
1002
{
1000
MANEDIT
1070
     0
1002
}
1002
{
1000
NOSEL
1070
     0
1002
}
1002
{
1000
BEHIND
1070
     0
1002
}
1002
{
1000
REACTOR
1002
}
1001
GENIUS_GENOBJ-N-FIL_13
1002
{
1000
OWNER
1000
GEN
1002
}
  0
LINE
  5
50B
100
AcDbEntity
  8
AM_0
100
AcDbLine
 10
6136.90399
 20
2402.371067
 30
0.0
 11
6087.503258
 21
2402.371067
 31
0.0
  0
LINE
  5
50C
100
AcDbEntity
  8
AM_4
100
AcDbLine
 10
6135.326757
 20
2414.74594
 30
0.0
 11
6087.503258
 21
2414.74594
 31
0.0
  0
LINE
  5
50D
100
AcDbEntity
  8
AM_4
100
AcDbLine
 10
6133.789656
 20
2413.145845
 30
0.0
 11
6087.503258
 21
2413.145845
 31
0.0
  0
ARC
  5
50E
100
AcDbEntity
  8
AM_0
100
AcDbCircle
 10
6023.503258
 20
2598.415868
 30
0.0
 40
114.0
100
AcDbArc
 50
0.0
 51
55.128841
1001
GENIUS_GENODEF_13
1002
{
1000
HIER
1070
     0
1002
}
1002
{
1000
MANEDIT
1070
     0
1002
}
1002
{
1000
NOSEL
1070
     0
1002
}
1002
{
1000
BEHIND
1070
     0
1002
}
1002
{
1000
REACTOR
1002
}
1001
GENIUS_GENOBJ-N-FIL_13
1002
{
1000
OWNER
1000
GEN
1002
}
  0
ARC
  5
50F
100
AcDbEntity
  8
AM_0
100
AcDbCircle
 10
6023.503258
 20
2598.415868
 30
0.0
 40
115.75
100
AcDbArc
 50
0.0
 51
55.128841
1001
GENIUS_GENODEF_13
1002
{
1000
HIER
1070
     0
1002
}
1002
{
1000
MANEDIT
1070
     0
1002
}
1002
{
1000
NOSEL
1070
     0
1002
}
1002
{
1000
BEHIND
1070
     0
1002
}
1002
{
1000
REACTOR
1002
}
1001
GENIUS_GENOBJ-N-FIL_13
1002
{
1000
OWNER
1000
GEN
1002
}
  0
ARC
  5
510
100
AcDbEntity
  8
AM_0
100
AcDbCircle
 10
5987.503258
 20
2629.452956
 30
0.0
 40
100.0
100
AcDbArc
 50
0.0
 51
62.67561
1001
GENIUS_GENODEF_13
1002
{
1000
HIER
1070
     0
1002
}
1002
{
1000
MANEDIT
1070
     0
1002
}
1002
{
1000
NOSEL
1070
     0
1002
}
1002
{
1000
BEHIND
1070
     0
1002
}
1002
{
1000
REACTOR
1002
}
1001
GENIUS_GENOBJ-N-FIL_13
1002
{
1000
OWNER
1000
GEN
1002
}
  0
ARC
  5
511
100
AcDbEntity
  8
AM_0
100
AcDbCircle
 10
5987.503258
 20
2629.452956
 30
0.0
 40
97.0
100
AcDbArc
 50
0.0
 51
62.67561
1001
GENIUS_GENODEF_13
1002
{
1000
HIER
1070
     0
1002
}
1002
{
1000
MANEDIT
1070
     0
1002
}
1002
{
1000
NOSEL
1070
     0
1002
}
1002
{
1000
BEHIND
1070
     0
1002
}
1002
{
1000
REACTOR
1002
}
1001
GENIUS_GENOBJ-N-FIL_13
1002
{
1000
OWNER
1000
GEN
1002
}
  0
ARC
  5
512
100
AcDbEntity
  8
AM_0
100
AcDbCircle
 10
5822.253258
 20
2366.639941
 30
0.0
 40
400.0
100
AcDbArc
 50
91.143067
 51
96.258973
  0
ARC
  5
513
100
AcDbEntity
  8
AM_0
100
AcDbCircle
 10
5822.253258
 20
2366.639941
 30
0.0
 40
396.0
100
AcDbArc
 50
91.154614
 51
96.290632
  0
ARC
  5
514
100
AcDbEntity
  8
AM_0
100
AcDbCircle
 10
5778.753258
 20
2763.261612
 30
0.0
 40
1.0
100
AcDbArc
 50
96.258973
 51
180.0
  0
ARC
  5
515
100
AcDbEntity
  8
AM_0
100
AcDbCircle
 10
5778.753258
 20
2761.249558
 30
0.0
 40
1.0
100
AcDbArc
 50
180.0
 51
276.290632
  0
LINE
  5
516
100
AcDbEntity
  8
AM_0
100
AcDbLine
 10
5777.753258
 20
2763.261612
 30
0.0
 11
5777.753258
 21
2761.249558
 31
0.0
  0
ARC
  5
517
100
AcDbEntity
  8
AM_0
100
AcDbCircle
 10
5822.253258
 20
2366.639941
 30
0.0
 40
396.0
100
AcDbArc
 50
83.709368
 51
88.845386
  0
ARC
  5
518
100
AcDbEntity
  8
AM_0
100
AcDbCircle
 10
5822.253258
 20
2366.639941
 30
0.0
 40
400.0
100
AcDbArc
 50
83.741027
 51
88.856933
  0
LINE
  5
519
100
AcDbEntity
  8
AM_0
 62
     0
100
AcDbLine
 10
5830.813752
 20
2762.547402
 30
0.0
 11
5830.503258
 21
2762.857897
 31
0.0
  0
LINE
  5
51A
100
AcDbEntity
  8
AM_0
100
AcDbLine
 10
5836.253258
 20
2775.410719
 30
0.0
 11
5830.232839
 21
2775.410719
 31
0.0
  0
LINE
  5
51B
100
AcDbEntity
  8
AM_0
100
AcDbLine
 10
5811.253258
 20
2766.488662
 30
0.0
 11
5811.253258
 21
2769.489526
 31
0.0
  0
LINE
  5
51C
100
AcDbEntity
  8
AM_0
100
AcDbLine
 10
5833.253258
 20
2766.488662
 30
0.0
 11
5833.253258
 21
2769.489526
 31
0.0
  0
LINE
  5
51D
100
AcDbEntity
  8
AM_0
100
AcDbLine
 10
5808.253258
 20
2775.410719
 30
0.0
 11
5814.232839
 21
2775.410719
 31
0.0
  0
LINE
  5
51E
100
AcDbEntity
  8
AM_0
100
AcDbLine
 10
5808.253258
 20
2777.161506
 30
0.0
 11
5836.253258
 21
2777.161506
 31
0.0
  0
LINE
  5
51F
100
AcDbEntity
  8
AM_0
100
AcDbLine
 10
5836.253258
 20
2775.410719
 30
0.0
 11
5836.253258
 21
2777.161506
 31
0.0
  0
LINE
  5
520
100
AcDbEntity
  8
AM_0
100
AcDbLine
 10
5808.253258
 20
2775.410719
 30
0.0
 11
5808.253258
 21
2777.161506
 31
0.0
  0
LINE
  5
521
100
AcDbEntity
  8
AM_0
100
AcDbLine
 10
5814.232839
 20
2810.686261
 30
0.0
 11
5830.232839
 21
2810.686261
 31
0.0
  0
LINE
  5
522
100
AcDbEntity
  8
AM_0
100
AcDbLine
 10
5830.232839
 20
2761.686261
 30
0.0
 11
5814.232839
 21
2761.686261
 31
0.0
  0
LINE
  5
523
100
AcDbEntity
  8
AM_0
100
AcDbLine
 10
5814.232839
 20
2810.686261
 30
0.0
 11
5815.232839
 21
2811.686261
 31
0.0
  0
LINE
  5
524
100
AcDbEntity
  8
AM_0
100
AcDbLine
 10
5815.232839
 20
2811.686261
 30
0.0
 11
5829.232839
 21
2811.686261
 31
0.0
  0
LINE
  5
525
100
AcDbEntity
  8
AM_0
100
AcDbLine
 10
5830.232839
 20
2810.686261
 30
0.0
 11
5829.232839
 21
2811.686261
 31
0.0
  0
LINE
  5
526
100
AcDbEntity
  8
AM_0
100
AcDbLine
 10
5814.003258
 20
2762.553994
 30
0.0
 11
5814.003258
 21
2766.554854
 31
0.0
  0
LINE
  5
527
100
AcDbEntity
  8
AM_0
100
AcDbLine
 10
5830.503258
 20
2762.553994
 30
0.0
 11
5830.503258
 21
2766.554854
 31
0.0
  0
LINE
  5
528
100
AcDbEntity
  8
AM_4
100
AcDbLine
 10
5815.232839
 20
2777.161506
 30
0.0
 11
5815.232839
 21
2761.686261
 31
0.0
  0
LINE
  5
529
100
AcDbEntity
  8
AM_0
100
AcDbLine
 10
5814.232839
 20
2761.686261
 30
0.0
 11
5814.232839
 21
2777.161506
 31
0.0
  0
LINE
  5
52A
100
AcDbEntity
  8
AM_4
100
AcDbLine
 10
5829.232839
 20
2777.161506
 30
0.0
 11
5829.232839
 21
2761.686261
 31
0.0
  0
LINE
  5
52B
100
AcDbEntity
  8
AM_0
100
AcDbLine
 10
5830.232839
 20
2761.686261
 30
0.0
 11
5830.232839
 21
2777.161506
 31
0.0
  0
LINE
  5
52C
100
AcDbEntity
  8
AM_4
100
AcDbLine
 10
5815.232839
 20
2811.686261
 30
0.0
 11
5815.232839
 21
2791.961506
 31
0.0
  0
LINE
  5
52D
100
AcDbEntity
  8
AM_0
100
AcDbLine
 10
5814.232839
 20
2791.961506
 30
0.0
 11
5814.232839
 21
2810.686261
 31
0.0
  0
LINE
  5
52E
100
AcDbEntity
  8
AM_4
100
AcDbLine
 10
5829.232839
 20
2811.686261
 30
0.0
 11
5829.232839
 21
2791.961506
 31
0.0
  0
LINE
  5
52F
100
AcDbEntity
  8
AM_0
100
AcDbLine
 10
5830.232839
 20
2791.961506
 30
0.0
 11
5830.232839
 21
2810.686261
 31
0.0
  0
LINE
  5
530
100
AcDbEntity
  8
AM_0
100
AcDbLine
 10
5836.113258
 20
2778.235378
 30
0.0
 11
5836.113258
 21
2790.887635
 31
0.0
  0
LINE
  5
531
100
AcDbEntity
  8
AM_0
100
AcDbLine
 10
5836.113258
 20
2778.235378
 30
0.0
 11
5834.253258
 21
2777.161506
 31
0.0
  0
LINE
  5
532
100
AcDbEntity
  8
AM_0
100
AcDbLine
 10
5836.113258
 20
2790.887635
 30
0.0
 11
5834.253258
 21
2791.961506
 31
0.0
  0
LINE
  5
533
100
AcDbEntity
  8
AM_0
100
AcDbLine
 10
5815.323258
 20
2778.235378
 30
0.0
 11
5815.323258
 21
2790.887635
 31
0.0
  0
LINE
  5
534
100
AcDbEntity
  8
AM_0
100
AcDbLine
 10
5808.393258
 20
2778.235378
 30
0.0
 11
5808.393258
 21
2790.887635
 31
0.0
  0
LINE
  5
535
100
AcDbEntity
  8
AM_0
100
AcDbLine
 10
5808.393258
 20
2778.235378
 30
0.0
 11
5810.253258
 21
2777.161506
 31
0.0
  0
LINE
  5
536
100
AcDbEntity
  8
AM_0
100
AcDbLine
 10
5829.183258
 20
2778.235378
 30
0.0
 11
5829.183258
 21
2790.887635
 31
0.0
  0
LINE
  5
537
100
AcDbEntity
  8
AM_0
100
AcDbLine
 10
5808.393258
 20
2790.887635
 30
0.0
 11
5810.253258
 21
2791.961506
 31
0.0
  0
ARC
  5
538
100
AcDbEntity
  8
AM_0
100
AcDbCircle
 10
5811.858258
 20
2783.288601
 30
0.0
 40
6.127095
100
AcDbArc
 50
244.438469
 51
304.438469
  0
ARC
  5
539
100
AcDbEntity
  8
AM_0
100
AcDbCircle
 10
5822.253258
 20
2800.059078
 30
0.0
 40
22.897572
100
AcDbArc
 50
252.383031
 51
287.616969
  0
ARC
  5
53A
100
AcDbEntity
  8
AM_0
100
AcDbCircle
 10
5822.253258
 20
2769.063934
 30
0.0
 40
22.897572
100
AcDbArc
 50
72.383031
 51
107.616969
  0
ARC
  5
53B
100
AcDbEntity
  8
AM_0
100
AcDbCircle
 10
5811.858258
 20
2785.834411
 30
0.0
 40
6.127095
100
AcDbArc
 50
55.561531
 51
115.561531
  0
LINE
  5
53C
100
AcDbEntity
  8
AM_0
100
AcDbLine
 10
5834.253258
 20
2791.961506
 30
0.0
 11
5810.253258
 21
2791.961506
 31
0.0
  0
ARC
  5
53D
100
AcDbEntity
  8
AM_0
100
AcDbCircle
 10
5832.648258
 20
2783.288601
 30
0.0
 40
6.127095
100
AcDbArc
 50
235.561531
 51
295.561531
  0
ARC
  5
53E
100
AcDbEntity
  8
AM_0
100
AcDbCircle
 10
5832.648258
 20
2785.834411
 30
0.0
 40
6.127095
100
AcDbArc
 50
64.438469
 51
124.438469
  0
ARC
  5
53F
100
AcDbEntity
  8
AM_0
100
AcDbCircle
 10
5865.753258
 20
2761.249558
 30
0.0
 40
1.0
100
AcDbArc
 50
263.709368
 51
0.0
  0
ARC
  5
540
100
AcDbEntity
  8
AM_0
100
AcDbCircle
 10
5865.753258
 20
2763.261612
 30
0.0
 40
1.0
100
AcDbArc
 50
0.0
 51
83.741027
  0
LINE
  5
541
100
AcDbEntity
  8
AM_0
100
AcDbLine
 10
5866.753258
 20
2763.261612
 30
0.0
 11
5866.753258
 21
2761.249558
 31
0.0
  0
LINE
  5
542
100
AcDbEntity
  8
AM_0
100
AcDbLine
 10
4883.352428
 20
1845.249859
 30
0.0
 11
4923.352428
 21
1845.249859
 31
0.0
  0
LINE
  5
543
100
AcDbEntity
  8
AM_0
100
AcDbLine
 10
6049.753258
 20
1845.249859
 30
0.0
 11
6084.753258
 21
1845.249859
 31
0.0
  0
LINE
  5
544
100
AcDbEntity
  8
AM_0
100
AcDbLine
 10
6049.753258
 20
1847.749859
 30
0.0
 11
6084.753258
 21
1847.749859
 31
0.0
  0
ARC
  5
545
100
AcDbEntity
  8
AM_0
100
AcDbCircle
 10
6049.753258
 20
1850.249859
 30
0.0
 40
2.5
100
AcDbArc
 50
180.0
 51
270.0
1001
GENIUS_GENOBJ-N-FIL_13
1002
{
1000
OWNER
1000
GEN
1002
}
1001
GENIUS_GENODEF_13
1002
{
1000
HIER
1070
     0
1002
}
1002
{
1000
MANEDIT
1070
     0
1002
}
1002
{
1000
NOSEL
1070
     0
1002
}
1002
{
1000
BEHIND
1070
     0
1002
}
1002
{
1000
OTHER
1070
     0
1002
}
1002
{
1000
REACTOR
1002
}
  0
ARC
  5
546
100
AcDbEntity
  8
AM_0
100
AcDbCircle
 10
6049.753258
 20
1850.249859
 30
0.0
 40
5.0
100
AcDbArc
 50
180.0
 51
270.0
1001
GENIUS_GENODEF_13
1002
{
1000
HIER
1070
     0
1002
}
1002
{
1000
MANEDIT
1070
     0
1002
}
1002
{
1000
NOSEL
1070
     0
1002
}
1002
{
1000
BEHIND
1070
     0
1002
}
1002
{
1000
OTHER
1070
     0
1002
}
1002
{
1000
REACTOR
1002
}
1001
GENIUS_GENOBJ-N-FIL_13
1002
{
1000
OWNER
1000
GEN
1002
}
  0
HATCH
  5
547
100
AcDbEntity
  8
AM_8
100
AcDbHatch
 10
0.0
 20
0.0
 30
0.0
210
0.0
220
0.0
230
1.0
  2
_U
 70
     0
 71
     0
 91
        1
 92
        1
 93
        8
 72
     1
 10
6049.753258
 20
1845.249859
 11
6084.753258
 21
1845.249859
 72
     1
 10
6084.753258
 20
1845.249859
 11
6084.753258
 21
1847.749859
 72
     1
 10
6084.753258
 20
1847.749859
 11
6049.753258
 21
1847.749859
 72
     2
 10
6049.753258
 20
1850.249859
 40
2.5
 50
90.0
 51
180.0
 73
     0
 72
     1
 10
6047.253258
 20
1850.249859
 11
6047.253258
 21
2093.307099
 72
     2
 10
5810.746586
 20
2649.077371
 40
604.0
 50
66.947941
 51
67.205427
 73
     0
 72
     1
 10
6044.753258
 20
2092.249859
 11
6044.753258
 21
1850.249859
 72
     2
 10
6049.753258
 20
1850.249859
 40
5.0
 50
180.0
 51
270.0
 73
     1
 97
        0
 75
     0
 76
     0
 52
135.0
 41
5.0
 77
     0
 78
     1
 53
135.0
 43
7364.946617
 44
2964.024488
 45
-3.535533905932737
 46
-3.535533905932737
 79
     0
 98
        1
 10
0.0
 20
0.0
1001
GENIUS_GENOBJ-N-HTC_13
1002
{
1000
OWNER
1000
GEN
1002
}
1001
GENIUS_GENODEF_13
1002
{
1000
HIER
1070
     0
1002
}
1002
{
1000
MANEDIT
1070
     0
1002
}
1002
{
1000
NOSEL
1070
     0
1002
}
1002
{
1000
BEHIND
1070
     0
1002
}
1002
{
1000
OTHER
1070
     0
1002
}
1002
{
1000
REACTOR
1002
}
1001
GENIUS_GENHATCH_13
1002
{
1000
DATA
1040
135.0
1042
1.0
1000
_U
1070
     0
1011
6045.633897
1021
1907.263269
1031
0.0
1002
}
1002
{
1000
UCS
1010
0.0
1020
0.0
1030
0.0
1010
1.0
1020
0.0
1030
0.0
1010
0.0
1020
1.0
1030
0.0
1002
}
  0
HATCH
  5
548
100
AcDbEntity
  8
AM_8
100
AcDbHatch
 10
0.0
 20
0.0
 30
0.0
210
0.0
220
0.0
230
1.0
  2
_U
 70
     0
 71
     0
 91
        1
 92
        1
 93
        6
 72
     2
 10
5822.253258
 20
2366.639941
 40
400.0
 50
91.181809
 51
96.258973
 73
     1
 72
     2
 10
5778.753258
 20
2763.261612
 40
1.0
 50
96.258973
 51
180.0
 73
     1
 72
     1
 10
5777.753258
 20
2763.261612
 11
5777.753258
 21
2761.249558
 72
     2
 10
5778.753258
 20
2761.249558
 40
1.0
 50
180.0
 51
276.290632
 73
     1
 72
     2
 10
5822.253258
 20
2366.639941
 40
396.0
 50
263.709368
 51
268.806252
 73
     0
 72
     1
 10
5814.003258
 20
2762.553994
 11
5814.003258
 21
2766.554854
 97
        0
 75
     0
 76
     0
 52
135.0
 41
5.0
 77
     0
 78
     1
 53
135.0
 43
0.0
 44
0.0
 45
-3.535533905932737
 46
-3.535533905932737
 79
     0
 98
        1
 10
0.0
 20
0.0
1001
GENIUS_GENOBJ-N-HTC_13
1002
{
1000
OWNER
1000
GEN
1002
}
1001
GENIUS_GENODEF_13
1002
{
1000
HIER
1070
     0
1002
}
1002
{
1000
MANEDIT
1070
     0
1002
}
1002
{
1000
NOSEL
1070
     0
1002
}
1002
{
1000
BEHIND
1070
     0
1002
}
1002
{
1000
OTHER
1070
     0
1002
}
1002
{
1000
REACTOR
1002
}
1001
GENIUS_GENHATCH_13
1002
{
1000
DATA
1040
135.0
1042
1.0
1000
_U
1070
     0
1011
5802.213306
1021
2764.0637
1031
0.0
1002
}
1002
{
1000
UCS
1010
0.0
1020
0.0
1030
0.0
1010
1.0
1020
0.0
1030
0.0
1010
0.0
1020
1.0
1030
0.0
1002
}
  0
HATCH
  5
549
100
AcDbEntity
  8
AM_8
100
AcDbHatch
 10
0.0
 20
0.0
 30
0.0
210
0.0
220
0.0
230
1.0
  2
_U
 70
     0
 71
     0
 91
        1
 92
        1
 93
        7
 72
     1
 10
5830.503258
 20
2762.857897
 11
5830.813752
 21
2762.547402
 72
     2
 10
5822.253258
 20
2366.639941
 40
396.0
 50
271.238683
 51
276.290632
 73
     0
 72
     2
 10
5865.753258
 20
2761.249558
 40
1.0
 50
263.709368
 51
360.0
 73
     1
 72
     1
 10
5866.753258
 20
2761.249558
 11
5866.753258
 21
2763.261612
 72
     2
 10
5865.753258
 20
2763.261612
 40
1.0
 50
0.0
 51
83.741027
 73
     1
 72
     2
 10
5822.253258
 20
2366.639941
 40
400.0
 50
83.741027
 51
88.818191
 73
     1
 72
     1
 10
5830.503258
 20
2766.554854
 11
5830.503258
 21
2762.857897
 97
        0
 75
     0
 76
     0
 52
135.0
 41
5.0
 77
     0
 78
     1
 53
135.0
 43
0.0
 44
0.0
 45
-3.535533905932737
 46
-3.535533905932737
 79
     0
 98
        1
 10
0.0
 20
0.0
1001
GENIUS_GENODEF_13
1002
{
1000
HIER
1070
     0
1002
}
1002
{
1000
MANEDIT
1070
     0
1002
}
1002
{
1000
NOSEL
1070
     0
1002
}
1002
{
1000
BEHIND
1070
     0
1002
}
1002
{
1000
OTHER
1070
     0
1002
}
1002
{
1000
REACTOR
1002
}
1001
GENIUS_GENOBJ-N-HTC_13
1002
{
1000
OWNER
1000
GEN
1002
}
1001
GENIUS_GENHATCH_13
1002
{
1000
DATA
1040
135.0
1042
1.0
1000
_U
1070
     0
1011
5844.538488
1021
2764.184219
1031
0.0
1002
}
1002
{
1000
UCS
1010
0.0
1020
0.0
1030
0.0
1010
1.0
1020
0.0
1030
0.0
1010
0.0
1020
1.0
1030
0.0
1002
}
  0
INSERT
  5
54A
100
AcDbEntity
  8
AM_0N
100
AcDbBlockReference
  2
*U12
 10
0.0
 20
0.0
 30
0.0
  0
INSERT
  5
551
100
AcDbEntity
  8
AM_0N
100
AcDbBlockReference
  2
*U13
 10
0.0
 20
0.0
 30
0.0
  0
LINE
  5
552
100
AcDbEntity
  8
AM_0
100
AcDbLine
 10
4883.352428
 20
1847.749859
 30
0.0
 11
4923.352428
 21
1847.749859
 31
0.0
  0
ARC
  5
553
100
AcDbEntity
  8
AM_0
100
AcDbCircle
 10
4883.352428
 20
1850.249859
 30
0.0
 40
5.0
100
AcDbArc
 50
180.0
 51
270.0
1001
GENIUS_GENOBJ-N-FIL_13
1002
{
1000
OWNER
1000
GEN
1002
}
1001
GENIUS_GENODEF_13
1002
{
1000
HIER
1070
     0
1002
}
1002
{
1000
MANEDIT
1070
     0
1002
}
1002
{
1000
NOSEL
1070
     0
1002
}
1002
{
1000
BEHIND
1070
     0
1002
}
1002
{
1000
OTHER
1070
     0
1002
}
1002
{
1000
REACTOR
1002
}
  0
ARC
  5
554
100
AcDbEntity
  8
AM_0
100
AcDbCircle
 10
4923.352428
 20
1850.249859
 30
0.0
 40
5.0
100
AcDbArc
 50
270.0
 51
0.0
1001
GENIUS_GENODEF_13
1002
{
1000
HIER
1070
     0
1002
}
1002
{
1000
MANEDIT
1070
     0
1002
}
1002
{
1000
NOSEL
1070
     0
1002
}
1002
{
1000
BEHIND
1070
     0
1002
}
1002
{
1000
OTHER
1070
     0
1002
}
1002
{
1000
REACTOR
1002
}
1001
GENIUS_GENOBJ-N-FIL_13
1002
{
1000
OWNER
1000
GEN
1002
}
  0
ARC
  5
555
100
AcDbEntity
  8
AM_0
100
AcDbCircle
 10
4883.352428
 20
1850.249859
 30
0.0
 40
2.5
100
AcDbArc
 50
180.0
 51
270.0
1001
GENIUS_GENODEF_13
1002
{
1000
HIER
1070
     0
1002
}
1002
{
1000
MANEDIT
1070
     0
1002
}
1002
{
1000
NOSEL
1070
     0
1002
}
1002
{
1000
BEHIND
1070
     0
1002
}
1002
{
1000
OTHER
1070
     0
1002
}
1002
{
1000
REACTOR
1002
}
1001
GENIUS_GENOBJ-N-FIL_13
1002
{
1000
OWNER
1000
GEN
1002
}
  0
ARC
  5
556
100
AcDbEntity
  8
AM_0
100
AcDbCircle
 10
4923.352428
 20
1850.249859
 30
0.0
 40
2.5
100
AcDbArc
 50
270.0
 51
0.0
1001
GENIUS_GENOBJ-N-FIL_13
1002
{
1000
OWNER
1000
GEN
1002
}
1001
GENIUS_GENODEF_13
1002
{
1000
HIER
1070
     0
1002
}
1002
{
1000
MANEDIT
1070
     0
1002
}
1002
{
1000
NOSEL
1070
     0
1002
}
1002
{
1000
BEHIND
1070
     0
1002
}
1002
{
1000
OTHER
1070
     0
1002
}
1002
{
1000
REACTOR
1002
}
  0
DIMENSION
  5
557
100
AcDbEntity
  8
AM_5
100
AcDbDimension
  2
*D10
 10
5838.103258
 20
1957.468297
 30
0.0
 11
5907.491583
 21
1968.494947
 31
0.0
 70
     1
  1
G1 ISO228
  3
AM_DIN
100
AcDbAlignedDimension
 13
5806.403258
 23
2002.441
 33
0.0
 14
5838.103258
 24
2002.441
 34
0.0
1001
GENIUS_GENDTOL_13
1000

1000
h7
1000

1040
0.0
1000
G1 ISO228
1001
ACAD
1000
DSTYLE
1002
{
1070
    40
1040
5.0
1002
}
  0
LINE
  5
566
100
AcDbEntity
  8
AM_7
  6
AM_DIN_G_W050
100
AcDbLine
 10
4747.840574
 20
1561.393798
 30
0.0
 11
4790.8606
 21
1583.788606
 31
0.0
1001
GENIUS_GENODEF_13
1002
{
1000
HIER
1070
     0
1002
}
1002
{
1000
MANEDIT
1070
     0
1002
}
1002
{
1000
NOSEL
1070
     0
1002
}
1002
{
1000
BEHIND
1070
     0
1002
}
1002
{
1000
REACTOR
1002
}
1001
GENIUS_GENOBJ-N-CEN_13
1002
{
1000
OWNER
1000
GEN
1002
}
  0
ELLIPSE
  5
567
100
AcDbEntity
  8
AM_0
100
AcDbEllipse
 10
4774.062817
 20
1563.539093
 30
0.0
 11
-8.204850206897106
 21
-4.27117467242683
 31
0.0
210
0.0
220
0.0
230
1.0
 40
0.732891
 41
0.0
 42
3.141592653589793
  0
LINE
  5
568
100
AcDbEntity
  8
AM_0
100
AcDbLine
 10
4782.267667
 20
1567.810268
 30
0.0
 11
4777.555437
 21
1576.862376
 31
0.0
  0
LINE
  5
569
100
AcDbEntity
  8
AM_7
  6
AM_DIN_G_W050
100
AcDbLine
 10
4784.119353
 20
1544.220666
 30
0.0
 11
4759.29405
 21
1591.909629
 31
0.0
1001
GENIUS_GENODEF_13
1002
{
1000
HIER
1070
     0
1002
}
1002
{
1000
MANEDIT
1070
     0
1002
}
1002
{
1000
NOSEL
1070
     0
1002
}
1002
{
1000
BEHIND
1070
     0
1002
}
1002
{
1000
REACTOR
1002
}
1001
GENIUS_GENOBJ-N-CEN_13
1002
{
1000
OWNER
1000
GEN
1002
}
  0
ELLIPSE
  5
56A
100
AcDbEntity
  8
AM_0
100
AcDbEllipse
 10
4769.350587
 20
1572.591202
 30
0.0
 11
-5.078137019944445
 21
-2.643510810772292
 31
0.0
210
0.0
220
0.0
230
0.9999999999999996
 40
0.732891
 41
0.0
 42
6.283185307179586
  0
ELLIPSE
  5
56B
100
AcDbEntity
  8
AM_0
100
AcDbEllipse
 10
4769.350587
 20
1572.591202
 30
0.0
 11
-5.836531282311657
 21
-3.038305875088484
 31
0.0
210
0.0
220
0.0
230
0.9999999999999998
 40
0.732891
 41
0.0
 42
6.283185307179586
  0
ELLIPSE
  5
56C
100
AcDbEntity
  8
AM_0
100
AcDbEllipse
 10
4769.350587
 20
1572.591202
 30
0.0
 11
-8.204850206897106
 21
-4.27117467242683
 31
0.0
210
0.0
220
0.0
230
1.0
 40
0.732891
 41
0.0
 42
6.283185307179586
  0
LINE
  5
56D
100
AcDbEntity
  8
AM_0
100
AcDbLine
 10
4761.145737
 20
1568.320027
 30
0.0
 11
4765.857966
 21
1559.267919
 31
0.0
  0
LINE
  5
56E
100
AcDbEntity
  8
AM_7
  6
AM_DIN_G_W050
100
AcDbLine
 10
4847.463228
 20
1567.275951
 30
0.0
 11
4835.826639
 21
1619.765213
 31
0.0
1001
GENIUS_GENODEF_13
1002
{
1000
HIER
1070
     0
1002
}
1002
{
1000
MANEDIT
1070
     0
1002
}
1002
{
1000
NOSEL
1070
     0
1002
}
1002
{
1000
BEHIND
1070
     0
1002
}
1002
{
1000
REACTOR
1002
}
1001
GENIUS_GENOBJ-N-CEN_13
1002
{
1000
OWNER
1000
GEN
1002
}
  0
LINE
  5
56F
100
AcDbEntity
  8
AM_7
  6
AM_DIN_G_W050
100
AcDbLine
 10
4816.865352
 20
1593.253561
 30
0.0
 11
4864.215709
 21
1603.750883
 31
0.0
1001
GENIUS_GENODEF_13
1002
{
1000
HIER
1070
     0
1002
}
1002
{
1000
MANEDIT
1070
     0
1002
}
1002
{
1000
NOSEL
1070
     0
1002
}
1002
{
1000
BEHIND
1070
     0
1002
}
1002
{
1000
REACTOR
1002
}
1001
GENIUS_GENOBJ-N-CEN_13
1002
{
1000
OWNER
1000
GEN
1002
}
  0
ELLIPSE
  5
570
100
AcDbEntity
  8
AM_0
100
AcDbEllipse
 10
4840.54053
 20
1598.502222
 30
0.0
 11
-5.58929464076104
 21
-1.239116789798343
 31
0.0
210
0.0
220
0.0
230
0.9999999999999998
 40
0.732891
 41
0.0
 42
6.283185307179586
  0
ELLIPSE
  5
571
100
AcDbEntity
  8
AM_0
100
AcDbEllipse
 10
4840.54053
 20
1598.502222
 30
0.0
 11
-6.424027726848456
 21
-1.424172659715815
 31
0.0
210
0.0
220
0.0
230
1.0
 40
0.732891
 41
0.0
 42
6.283185307179586
  0
ELLIPSE
  5
572
100
AcDbEntity
  8
AM_0
100
AcDbEllipse
 10
4840.54053
 20
1598.502222
 30
0.0
 11
-9.030738065858416
 21
-2.002066428931813
 31
0.0
210
0.0
220
0.0
230
1.0
 40
0.732891
 41
0.0
 42
6.283185307179586
  0
ELLIPSE
  5
573
100
AcDbEntity
  8
AM_0
100
AcDbEllipse
 10
4842.749336
 20
1588.538942
 30
0.0
 11
-9.030738065858416
 21
-2.002066428931813
 31
0.0
210
0.0
220
0.0
230
1.0
 40
0.732891
 41
0.0
 42
3.141592653589793
  0
LINE
  5
574
100
AcDbEntity
  8
AM_0
100
AcDbLine
 10
4831.509792
 20
1596.500156
 30
0.0
 11
4833.718598
 21
1586.536876
 31
0.0
  0
LINE
  5
575
100
AcDbEntity
  8
AM_0
100
AcDbLine
 10
4851.780074
 20
1590.541008
 30
0.0
 11
4849.571268
 21
1600.504288
 31
0.0
  0
ARC
  5
576
100
AcDbEntity
  8
AM_7
  6
AM_DIN_G_W050
100
AcDbCircle
 10
4903.352428
 20
1315.17606
 30
0.0
 40
280.0
100
AcDbArc
 50
97.537913
 51
122.462087
  0
LINE
  5
577
100
AcDbEntity
  8
AM_0
100
AcDbLine
 10
5549.032504
 20
2689.541252
 30
0.0
 11
5538.82732
 21
2700.534624
 31
0.0
  0
LINE
  5
578
100
AcDbEntity
  8
AM_0
100
AcDbLine
 10
5535.474012
 20
2676.954859
 30
0.0
 11
5549.032504
 21
2689.541252
 31
0.0
1001
GENIUS_GENOREF_13
1005
5BA
  0
LINE
  5
579
100
AcDbEntity
  8
AM_0
100
AcDbLine
 10
5525.268828
 20
2687.948231
 30
0.0
 11
5535.474012
 21
2676.954859
 31
0.0
  0
LINE
  5
57A
100
AcDbEntity
  8
AM_0
100
AcDbLine
 10
5538.82732
 20
2700.534624
 30
0.0
 11
5525.268828
 21
2687.948231
 31
0.0
  0
LINE
  5
57B
100
AcDbEntity
  8
AM_7
  6
AM_DIN_G_W050
100
AcDbLine
 10
5530.687383
 20
2695.707211
 30
0.0
 11
5544.294295
 21
2681.049381
 31
0.0
  0
POINT
  5
5AF
100
AcDbEntity
  8
0
 60
     1
100
AcDbPoint
 10
-4434.896597
 20
2022.957053
 30
0.0
 50
156.702188
1001
GENIUS_GENOBJ-NBEHI-BHB_13
1002
{
1000
OWNER
1000
GENBEHI
1002
}
1001
GENIUS_GENOENT_13
1002
{
1000
MYREF
1005
5AF
1002
}
1002
{
1000
GRP
1005
0
1002
}
1001
GENIUS_GENOLIS_13
1002
{
1000
ENT
1005
109
1002
}
1001
GENIUS_GENODEF_13
1002
{
1000
HIER
1070
     1
1002
}
1002
{
1000
MANEDIT
1070
     1
1002
}
1002
{
1000
NOSEL
1070
     1
1002
}
1002
{
1000
BEHIND
1070
     0
1002
}
1002
{
1000
REACTOR
1002
}
1002
{
1000
OTHER
1070
     1
1002
}
1001
GENIUS_GENBH_13
1002
{
1000
FGO
1005
0
1002
}
  0
POINT
  5
5B4
100
AcDbEntity
  8
0
 60
     1
100
AcDbPoint
 10
3801.524711
 20
-1298.231948
 30
0.0
1001
GENIUS_GENOENT_13
1002
{
1000
MYREF
1005
5B4
1002
}
1002
{
1000
GRP
1005
0
1002
}
1001
GENIUS_GENOBJ-NBEHI-BHF_13
1002
{
1000
OWNER
1000
genbehi
1002
}
1001
GENIUS_GENOLIS_13
1002
{
1000
ENT
1005
551
1002
}
1001
GENIUS_GENODEF_13
1002
{
1000
HIER
1070
     1
1002
}
1002
{
1000
MANEDIT
1070
     0
1002
}
1002
{
1000
NOSEL
1070
     1
1002
}
1002
{
1000
BEHIND
1070
     0
1002
}
1002
{
1000
OTHER
1070
     0
1002
}
1002
{
1000
REACTOR
1002
}
1001
GENIUS_GENBH_13
1002
{
1000
OIUMAP
1000
OIU
1002
}
1002
{
1000
FLAGS
1070
    32
1002
}
1002
{
1000
BGO
1005
5B8
1002
}
  0
POINT
  5
5B6
100
AcDbEntity
  8
0
 60
     1
100
AcDbPoint
 10
3801.524711
 20
-1298.231948
 30
0.0
1001
GENIUS_GENOBJ-F-SCPASSM_13
1002
{
1000
OWNER
1000
GEF
1002
}
1001
GENIUS_GENOLIS_13
1002
{
1000
ENT
1005
54A
1005
551
1005
5BB
1002
}
1001
GENIUS_GENOENT_13
1002
{
1000
MYREF
1005
5B6
1002
}
1002
{
1000
GRP
1005
0
1002
}
1001
GENIUS_GENODEF_13
1002
{
1000
HIER
1070
   200
1002
}
1002
{
1000
MANEDIT
1070
     0
1002
}
1002
{
1000
NOSEL
1070
     0
1002
}
1002
{
1000
BEHIND
1070
     0
1002
}
1002
{
1000
OTHER
1070
     0
1002
}
1002
{
1000
REACTOR
1002
}
  0
POINT
  5
5B8
100
AcDbEntity
  8
0
 60
     1
100
AcDbPoint
 10
3801.524711
 20
-1298.231948
 30
0.0
1001
GENIUS_GENODEF_13
1002
{
1000
HIER
1070
     1
1002
}
1002
{
1000
MANEDIT
1070
     0
1002
}
1002
{
1000
NOSEL
1070
     1
1002
}
1002
{
1000
BEHIND
1070
     0
1002
}
1002
{
1000
OTHER
1070
     1
1002
}
1002
{
1000
REACTOR
1002
}
1001
GENIUS_GENOENT_13
1002
{
1000
MYREF
1005
5B8
1002
}
1002
{
1000
GRP
1005
0
1002
}
1001
GENIUS_GENOLIS_13
1002
{
1000
ENT
1005
54A
1002
}
1001
GENIUS_GENOBJ-NBEHI-BHB_13
1002
{
1000
OWNER
1000
genbehi
1002
}
1001
GENIUS_GENBH_13
1002
{
1000
FGO
1005
5B4
1002
}
  0
POINT
  5
5B9
100
AcDbEntity
  8
0
 60
     1
100
AcDbPoint
 10
3801.524711
 20
-1298.231948
 30
0.0
1001
GENIUS_GENOENT_13
1002
{
1000
MYREF
1005
5B9
1002
}
1002
{
1000
GRP
1005
0
1002
}
1001
GENIUS_GENOBJ-NBEHI-BHF_13
1002
{
1000
OWNER
1000
genbehi
1002
}
1001
GENIUS_GENODEF_13
1002
{
1000
HIER
1070
     1
1002
}
1002
{
1000
MANEDIT
1070
     0
1002
}
1002
{
1000
NOSEL
1070
     1
1002
}
1002
{
1000
BEHIND
1070
     0
1002
}
1002
{
1000
OTHER
1070
     0
1002
}
1002
{
1000
REACTOR
1002
}
1001
GENIUS_GENOLIS_13
1002
{
1000
ENT
1005
54A
1002
}
1001
GENIUS_GENBH_13
1002
{
1000
OIUMAP
1000
OIU
1002
}
1002
{
1000
FLAGS
1070
    32
1002
}
1002
{
1000
BGO
1005
0
1002
}
  0
POINT
  5
5BA
100
AcDbEntity
  8
0
 60
     1
100
AcDbPoint
 10
14334.582203
 20
2807.300586
 30
0.0
 50
137.129347
1001
GENIUS_GENOBJ-NBEHI-BHB_13
1002
{
1000
OWNER
1000
GENBEHI
1002
}
1001
GENIUS_GENOENT_13
1002
{
1000
MYREF
1005
5BA
1002
}
1002
{
1000
GRP
1005
0
1002
}
1001
GENIUS_GENOLIS_13
1002
{
1000
ENT
1005
578
1002
}
1001
GENIUS_GENODEF_13
1002
{
1000
HIER
1070
     1
1002
}
1002
{
1000
MANEDIT
1070
     1
1002
}
1002
{
1000
NOSEL
1070
     1
1002
}
1002
{
1000
BEHIND
1070
     0
1002
}
1002
{
1000
REACTOR
1002
}
1002
{
1000
OTHER
1070
     1
1002
}
1001
GENIUS_GENBH_13
1002
{
1000
FGO
1005
0
1002
}
  0
INSERT
  5
5BB
100
AcDbEntity
  8
AM_0N
100
AcDbBlockReference
  2
*U14
 10
0.0
 20
0.0
 30
0.0
  0
ENDSEC
  0
SECTION
  2
OBJECTS
  0
DICTIONARY
  5
9
102
{ACAD_XDICTIONARY
360
634
102
}
100
AcDbDictionary
  3
ACAD_GROUP
350
22
  3
ACAD_LAYOUT
350
D
  3
ACAD_MLINESTYLE
350
23
  3
ACAD_PLOTSETTINGS
350
24
  3
ACAD_PLOTSTYLENAME
350
8
  3
ACDBHEADERROUNDTRIPXREC
350
612
  3
ACDBVARIABLEDICTIONARY
350
5C2
  3
ACGREF_MASTER
350
5BC
  3
ACGREFACAD_MASTER
350
5DC
  3
ACMDICTIONARY
350
58C
  3
AMG
350
57D
  3
AMGSNAPSETTINGS
350
5E2
  3
AMI_MASTER
350
5DD
  3
DWGPROPS
350
5E0
  0
DICTIONARY
  5
610
100
AcDbDictionary
280
     1
  3
ACAD_XREC_ROUNDTRIP
360
611
  0
DICTIONARY
  5
602
100
AcDbDictionary
280
     1
  3
ACAD_XREC_ROUNDTRIP
360
603
  0
DICTIONARY
  5
604
100
AcDbDictionary
280
     1
  3
ACAD_XREC_ROUNDTRIP
360
605
  0
DICTIONARY
  5
606
100
AcDbDictionary
280
     1
  3
ACAD_XREC_ROUNDTRIP
360
607
  0
DICTIONARY
  5
608
100
AcDbDictionary
280
     1
  3
ACAD_XREC_ROUNDTRIP
360
609
  0
DICTIONARY
  5
60A
100
AcDbDictionary
280
     1
  3
ACAD_XREC_ROUNDTRIP
360
60B
  0
DICTIONARY
  5
60C
100
AcDbDictionary
280
     1
  3
ACAD_XREC_ROUNDTRIP
360
60D
  0
DICTIONARY
  5
60E
100
AcDbDictionary
280
     1
  3
ACAD_XREC_ROUNDTRIP
360
60F
  0
DICTIONARY
  5
63D
100
AcDbDictionary
280
     1
  3
ACAD_XREC_ROUNDTRIP
360
63E
  0
DICTIONARY
  5
641
100
AcDbDictionary
280
     1
  3
ACAD_XREC_ROUNDTRIP
360
642
  0
DICTIONARY
  5
655
100
AcDbDictionary
280
     1
  3
ACAD_XREC_ROUNDTRIP
360
656
  0
DICTIONARY
  5
63F
100
AcDbDictionary
280
     1
  3
ACAD_XREC_ROUNDTRIP
360
640
  0
DICTIONARY
  5
653
100
AcDbDictionary
280
     1
  3
ACAD_XREC_ROUNDTRIP
360
654
  0
DICTIONARY
  5
659
100
AcDbDictionary
280
     1
  3
ACAD_XREC_ROUNDTRIP
360
65A
  0
DICTIONARY
  5
643
100
AcDbDictionary
280
     1
  3
ACAD_XREC_ROUNDTRIP
360
644
  0
DICTIONARY
  5
657
100
AcDbDictionary
280
     1
  3
ACAD_XREC_ROUNDTRIP
360
658
  0
DICTIONARY
  5
667
100
AcDbDictionary
280
     1
  3
ACAD_XREC_ROUNDTRIP
360
668
  0
DICTIONARY
  5
66F
100
AcDbDictionary
280
     1
  3
ACAD_XREC_ROUNDTRIP
360
670
  0
DICTIONARY
  5
66B
100
AcDbDictionary
280
     1
  3
ACAD_XREC_ROUNDTRIP
360
66C
  0
DICTIONARY
  5
66D
100
AcDbDictionary
280
     1
  3
ACAD_XREC_ROUNDTRIP
360
66E
  0
DICTIONARY
  5
669
100
AcDbDictionary
280
     1
  3
ACAD_XREC_ROUNDTRIP
360
66A
  0
DICTIONARY
  5
68D
100
AcDbDictionary
280
     1
  3
ACAD_XREC_ROUNDTRIP
360
68E
  0
DICTIONARY
  5
639
100
AcDbDictionary
280
     1
  3
ACAD_XREC_ROUNDTRIP
360
63A
  0
DICTIONARY
  5
67C
100
AcDbDictionary
280
     1
  3
ACAD_XREC_ROUNDTRIP
360
67D
  0
DICTIONARY
  5
67E
100
AcDbDictionary
280
     1
  3
ACAD_XREC_ROUNDTRIP
360
67F
  0
DICTIONARY
  5
680
100
AcDbDictionary
280
     1
  3
ACAD_XREC_ROUNDTRIP
360
681
  0
DICTIONARY
  5
682
100
AcDbDictionary
280
     1
  3
ACAD_XREC_ROUNDTRIP
360
683
  0
DICTIONARY
  5
684
100
AcDbDictionary
280
     1
  3
ACAD_XREC_ROUNDTRIP
360
685
  0
DICTIONARY
  5
686
100
AcDbDictionary
280
     1
  3
ACAD_XREC_ROUNDTRIP
360
687
  0
DICTIONARY
  5
3
100
AcDbDictionary
280
     1
  3
ACAD_INDEX
360
5E9
  3
ACAD_LAYOUTSELFREF
360
633
  3
ACAD_SORTENTS
360
4
  3
ACAD_XREC_ROUNDTRIP
360
5FF
  0
DICTIONARY
  5
600
100
AcDbDictionary
280
     1
  3
ACAD_LAYOUTSELFREF
360
638
  3
ACAD_XREC_ROUNDTRIP
360
601
  0
DICTIONARY
  5
634
100
AcDbDictionary
280
     1
  3
ACAD_XREC_ROUNDTRIP
360
635
  0
DICTIONARY
  5
22
102
{ACAD_REACTORS
330
9
102
}
100
AcDbDictionary
  0
DICTIONARY
  5
D
102
{ACAD_XDICTIONARY
360
636
102
}
102
{ACAD_REACTORS
330
9
102
}
100
AcDbDictionary
  3
LAYOUT1
350
11
  3
MODEL
350
C
  0
DICTIONARY
  5
23
102
{ACAD_XDICTIONARY
360
63B
102
}
102
{ACAD_REACTORS
330
9
102
}
100
AcDbDictionary
  3
STANDARD
350
26
  0
DICTIONARY
  5
24
102
{ACAD_REACTORS
330
9
102
}
100
AcDbDictionary
  0
ACAD_PROXY_OBJECT
  5
8
102
{ACAD_REACTORS
330
9
102
}
100
AcDbProxyObject
 90
      499
 91
      500
 93
       86
310
405010041939BDC9B585B0
350
7
340
7
 94
        0
  0
DICTIONARY
  5
612
102
{ACAD_REACTORS
330
9
102
}
100
AcDbDictionary
  3
CEPSNTYPE
350
61C
  3
DIMSTYLEDATA
350
620
  3
FINGERPRINTGUID
350
61D
  3
HYPERLINKBASE
350
615
  3
INSUNITS
350
61B
  3
LAYOUTDICT
350
617
  3
LWETCUNION
350
61A
  3
PLOTSETDICT
350
618
  3
PLOTSTYLNAMDICT
350
619
  3
PSVPSCALE
350
61F
  3
PUCSBASE
350
623
  3
PUCSORGBACK
350
629
  3
PUCSORGBOTTOM
350
625
  3
PUCSORGFRONT
350
628
  3
PUCSORGLEFT
350
626
  3
PUCSORGRIGHT
350
627
  3
PUCSORGTOP
350
624
  3
PUCSORTHOREF
350
621
  3
PUCSORTHOVIEW
350
622
  3
STYLESHEET
350
616
  3
TSTACKALIGN
350
613
  3
TSTACKSIZE
350
614
  3
UCSBASE
350
62C
  3
UCSORGBACK
350
632
  3
UCSORGBOTTOM
350
62E
  3
UCSORGFRONT
350
631
  3
UCSORGLEFT
350
62F
  3
UCSORGRIGHT
350
630
  3
UCSORGTOP
350
62D
  3
UCSORTHOREF
350
62A
  3
UCSORTHOVIEW
350
62B
  3
VERSIONGUID
350
61E
  0
DICTIONARY
  5
5C2
102
{ACAD_REACTORS
330
9
102
}
100
AcDbDictionary
  3
DIMASSOC
350
5C4
  3
HIDETEXT
350
5C3
  3
INDEXCTL
350
5FA
  0
ACAD_PROXY_OBJECT
  5
5BC
102
{ACAD_REACTORS
330
9
102
}
100
AcDbProxyObject
 90
      499
 91
      517
 93
       34
310
04000042BF
 94
        0
  0
ACAD_PROXY_OBJECT
  5
5DC
102
{ACAD_REACTORS
330
9
102
}
100
AcDbProxyObject
 90
      499
 91
      520
 93
      114
310
04000041C000000000000000000000
 94
        0
  0
DICTIONARY
  5
58C
102
{ACAD_XDICTIONARY
360
67A
102
}
102
{ACAD_REACTORS
330
9
102
}
100
AcDbDictionary
  3
ACMSTDDICTIONARY
350
58D
  0
DICTIONARY
  5
57D
102
{ACAD_XDICTIONARY
360
676
102
}
102
{ACAD_REACTORS
330
9
102
}
100
AcDbDictionary
  3
ACMGSETTINGS
350
584
  0
DICTIONARY
  5
5E2
102
{ACAD_XDICTIONARY
360
68B
102
}
102
{ACAD_REACTORS
330
9
102
}
100
AcDbDictionary
  0
ACAD_PROXY_OBJECT
  5
5DD
102
{ACAD_REACTORS
330
9
102
}
100
AcDbProxyObject
 90
      499
 91
      521
 93
       34
310
0500004280
 94
        0
  0
XRECORD
  5
5E0
102
{ACAD_REACTORS
330
9
102
}
100
AcDbXrecord
  1
DWGPROPS COOKIE
  2

  3

  4

  6

  7

  8

  9

300
AmdtFileType=84
301
=
302
=
303
=
304
=
305
=
306
=
307
=
308
=
309
=
 40
0.874692
 41
2452896.394699
 42
2452900.672541
  1

 90
        1
  0
XRECORD
  5
611
102
{ACAD_REACTORS
330
610
102
}
100
AcDbXrecord
102
EXTNAMES
  1
*ACTIVE
  2
*Active
102
UCS
 74
     0
 71
     0
 10
0.0
 20
0.0
 30
0.0
 10
1.0
 20
0.0
 30
0.0
 10
0.0
 20
1.0
 30
0.0
146
0.0
 79
     0
102
VIEW
281
     0
  0
XRECORD
  5
603
102
{ACAD_REACTORS
330
602
102
}
100
AcDbXrecord
102
EXTNAMES
  1
BYBLOCK
  2
ByBlock
  0
XRECORD
  5
605
102
{ACAD_REACTORS
330
604
102
}
100
AcDbXrecord
102
EXTNAMES
  1
BYLAYER
  2
ByLayer
  0
XRECORD
  5
607
102
{ACAD_REACTORS
330
606
102
}
100
AcDbXrecord
102
EXTNAMES
  1
CONTINUOUS
  2
Continuous
  0
XRECORD
  5
609
102
{ACAD_REACTORS
330
608
102
}
100
AcDbXrecord
102
EXTNAMES
  1
AMCONSTR
  2
Amconstr
  0
XRECORD
  5
60B
102
{ACAD_REACTORS
330
60A
102
}
100
AcDbXrecord
102
EXTNAMES
  1
AMZIGZAG
  2
Amzigzag
  0
XRECORD
  5
60D
102
{ACAD_REACTORS
330
60C
102
}
100
AcDbXrecord
102
EXTNAMES
  1
AM_DIN_G_W050X2
  2
AM_DIN_G_W050x2
  0
XRECORD
  5
60F
102
{ACAD_REACTORS
330
60E
102
}
100
AcDbXrecord
102
EXTNAMES
  1
AM_DIN_F_W050X2
  2
AM_DIN_F_W050x2
  0
XRECORD
  5
63E
102
{ACAD_REACTORS
330
63D
102
}
100
AcDbXrecord
102
LINEWEIGHT
280
    11
  0
XRECORD
  5
642
102
{ACAD_REACTORS
330
641
102
}
100
AcDbXrecord
102
PLOTBIT
280
     0
  0
XRECORD
  5
656
102
{ACAD_REACTORS
330
655
102
}
100
AcDbXrecord
102
LINEWEIGHT
280
     9
  0
XRECORD
  5
640
102
{ACAD_REACTORS
330
63F
102
}
100
AcDbXrecord
102
LINEWEIGHT
280
     7
  0
XRECORD
  5
654
102
{ACAD_REACTORS
330
653
102
}
100
AcDbXrecord
102
LINEWEIGHT
280
     7
  0
XRECORD
  5
65A
102
{ACAD_REACTORS
330
659
102
}
100
AcDbXrecord
102
LINEWEIGHT
280
     7
  0
XRECORD
  5
644
102
{ACAD_REACTORS
330
643
102
}
100
AcDbXrecord
102
LINEWEIGHT
280
     7
  0
XRECORD
  5
658
102
{ACAD_REACTORS
330
657
102
}
100
AcDbXrecord
102
LINEWEIGHT
280
     7
  0
XRECORD
  5
668
102
{ACAD_REACTORS
330
667
102
}
100
AcDbXrecord
102
LINEWEIGHT
280
    11
  0
XRECORD
  5
670
102
{ACAD_REACTORS
330
66F
102
}
100
AcDbXrecord
102
LINEWEIGHT
280
     0
  0
XRECORD
  5
66C
102
{ACAD_REACTORS
330
66B
102
}
100
AcDbXrecord
102
LINEWEIGHT
280
     0
  0
XRECORD
  5
66E
102
{ACAD_REACTORS
330
66D
102
}
100
AcDbXrecord
102
LINEWEIGHT
280
     7
  0
XRECORD
  5
66A
102
{ACAD_REACTORS
330
669
102
}
100
AcDbXrecord
102
LINEWEIGHT
280
     7
  0
XRECORD
  5
68E
102
{ACAD_REACTORS
330
68D
102
}
100
AcDbXrecord
102
UCS
 72
     0
 10
0.0
 20
0.0
 30
0.0
 10
1.0
 20
0.0
 30
0.0
 10
0.0
 20
1.0
 30
0.0
146
0.0
 79
     0
102
VIEW
281
     0
  0
XRECORD
  5
63A
102
{ACAD_REACTORS
330
639
102
}
100
AcDbXrecord
102
ACADR14ROUNDTRIP
1000
DSTYLE
1002
{
1070
    79
 70
     2
1070
   371
 70
    -1
1070
   372
 70
    -1
1002
}
  0
XRECORD
  5
67D
102
{ACAD_REACTORS
330
67C
102
}
100
AcDbXrecord
102
ACADR14ROUNDTRIP
1000
DSTYLE
1002
{
1070
    79
 70
     2
1070
   289
 70
     0
1070
   371
 70
    -1
1070
   372
 70
    -1
1002
}
  0
XRECORD
  5
67F
102
{ACAD_REACTORS
330
67E
102
}
100
AcDbXrecord
102
ACADR14ROUNDTRIP
1000
DSTYLE
1002
{
1070
    79
 70
     2
1070
   279
 70
     1
1070
   289
 70
     0
1070
   371
 70
    -1
1070
   372
 70
    -1
1002
}
  0
XRECORD
  5
681
102
{ACAD_REACTORS
330
680
102
}
100
AcDbXrecord
102
ACADR14ROUNDTRIP
1000
DSTYLE
1002
{
1070
    79
 70
     2
1070
   371
 70
    -1
1070
   372
 70
    -1
1002
}
  0
XRECORD
  5
683
102
{ACAD_REACTORS
330
682
102
}
100
AcDbXrecord
102
ACADR14ROUNDTRIP
1000
DSTYLE
1002
{
1070
    79
 70
     2
1070
   371
 70
    -1
1070
   372
 70
    -1
1002
}
  0
XRECORD
  5
685
102
{ACAD_REACTORS
330
684
102
}
100
AcDbXrecord
102
ACADR14ROUNDTRIP
1000
DSTYLE
1002
{
1070
    79
 70
     2
1070
   371
 70
    -1
1070
   372
 70
    -1
1002
}
  0
XRECORD
  5
687
102
{ACAD_REACTORS
330
686
102
}
100
AcDbXrecord
102
ACADR14ROUNDTRIP
1000
DSTYLE
1002
{
1070
    79
 70
     2
1070
   343
340
5A8
1070
   371
 70
    -1
1070
   372
 70
    -1
1002
}
  0
DICTIONARY
  5
5E9
102
{ACAD_REACTORS
330
3
102
}
100
AcDbDictionary
  3
*A1
350
5EA
  0
XRECORD
  5
633
102
{ACAD_REACTORS
330
3
102
}
100
AcDbXrecord
340
2
  0
SORTENTSTABLE
  5
4
102
{ACAD_REACTORS
330
3
102
}
100
AcDbSortentsTable
330
2
  0
XRECORD
  5
5FF
102
{ACAD_REACTORS
330
3
102
}
100
AcDbXrecord
102
EXTNAMES
  1
*MODEL_SPACE
  2
*Model_Space
  0
XRECORD
  5
638
102
{ACAD_REACTORS
330
600
102
}
100
AcDbXrecord
340
E
  0
XRECORD
  5
601
102
{ACAD_REACTORS
330
600
102
}
100
AcDbXrecord
102
EXTNAMES
  1
*PAPER_SPACE
  2
*Paper_Space
  0
XRECORD
  5
635
102
{ACAD_REACTORS
330
634
102
}
100
AcDbXrecord
102
EXTNAMES
  1
ACDBVARIABLEDICTIONARY
  2
AcDbVariableDictionary
  1
ACMDICTIONARY
  2
AcmDictionary
  1
ACMESYSVARMANAGER
  2
AcmeSysVarManager
  1
ACMSYSTEMVARIABLEMANAGER
  2
AcmSystemVariableManager
  0
DICTIONARY
  5
636
100
AcDbDictionary
280
     1
  3
ACAD_XREC_ROUNDTRIP
360
637
  0
ACAD_PROXY_OBJECT
  5
11
102
{ACAD_REACTORS
330
D
102
}
100
AcDbProxyObject
 90
      499
 91
      502
 93
     1580
310
90B6E6F6E655F6465766963652C0E80000006066661940000000181999865000000000068661940000000001A1986500000000C0CCFC6A4000000018199D9C5011C4C65747465725F28382E35305F785F31312E30305F496E6368657329A40501416AA591069074C61796F75743140501A8000000000000000000000000000
310
00000000000000101E900000000000241C902A6A6A10232D5E076BC5510408CB5781DAF154410232D5E076BC5510408CB5781DAF15C410232D5E076BC5710408CB5781DAF15C40
330
E
330
0
340
0
340
0
 94
        0
  0
ACAD_PROXY_OBJECT
  5
C
102
{ACAD_REACTORS
330
D
102
}
100
AcDbProxyObject
 90
      499
 91
      502
 93
     1684
310
9075044462E7063332D0B80000002033931C40000000380B24C71000000000034931C40000000000C24C71000000006080406A40000000280AE41C901024134800DB4A5A1D0B0040405014106778C568EC25AD401A2139E6DF39A0D0033BC6234F6FCB94006F87E49A7C06950108414D5F5649455736490C69165C5F724404
310
359D85B9E97D9995A5B8B98DD18A32D98CA6C5DAEE0FC6778C568EC25ADC01A2139E6DF39A0F01054D6F64656C901A800000000000000000000000000000000000000000000A1000000000000008902A6A6AAAA0
330
2
330
0
340
0
340
0
 94
        0
  0
DICTIONARY
  5
63B
100
AcDbDictionary
280
     1
  3
ACAD_XREC_ROUNDTRIP
360
63C
  0
MLINESTYLE
  5
26
102
{ACAD_REACTORS
330
23
102
}
100
AcDbMlineStyle
  2
STANDARD
 70
     0
  3

 62
   256
 51
90.0
 52
90.0
 71
     2
 49
0.5
 62
   256
  6
BYLAYER
 49
-0.5
 62
   256
  6
BYLAYER
  0
ACAD_PROXY_OBJECT
  5
7
102
{ACAD_REACTORS
330
8
102
}
100
AcDbProxyObject
 90
      499
 91
      501
 93
        0
 94
        0
  0
XRECORD
  5
61C
102
{ACAD_REACTORS
330
612
102
}
100
AcDbXrecord
 90
        0
  0
XRECORD
  5
620
102
{ACAD_REACTORS
330
612
102
}
100
AcDbXrecord
1000
DSTYLE
1002
{
1070
    79
 70
     2
1070
   371
 70
    -1
1070
   372
 70
    -1
1002
}
  0
XRECORD
  5
61D
102
{ACAD_REACTORS
330
612
102
}
100
AcDbXrecord
  1
{3784B30D-4D27-11D4-B99F-00C04F7995CB}
  0
XRECORD
  5
615
102
{ACAD_REACTORS
330
612
102
}
100
AcDbXrecord
  1

  0
XRECORD
  5
61B
102
{ACAD_REACTORS
330
612
102
}
100
AcDbXrecord
 90
        4
  0
XRECORD
  5
617
102
{ACAD_REACTORS
330
612
102
}
100
AcDbXrecord
340
D
  0
XRECORD
  5
61A
102
{ACAD_REACTORS
330
612
102
}
100
AcDbXrecord
 90
    10781
  0
XRECORD
  5
618
102
{ACAD_REACTORS
330
612
102
}
100
AcDbXrecord
340
24
  0
XRECORD
  5
619
102
{ACAD_REACTORS
330
612
102
}
100
AcDbXrecord
340
8
  0
XRECORD
  5
61F
102
{ACAD_REACTORS
330
612
102
}
100
AcDbXrecord
 40
0.0
  0
XRECORD
  5
623
102
{ACAD_REACTORS
330
612
102
}
100
AcDbXrecord
340
0
  0
XRECORD
  5
629
102
{ACAD_REACTORS
330
612
102
}
100
AcDbXrecord
 10
0.0
 20
0.0
 30
0.0
  0
XRECORD
  5
625
102
{ACAD_REACTORS
330
612
102
}
100
AcDbXrecord
 10
0.0
 20
0.0
 30
0.0
  0
XRECORD
  5
628
102
{ACAD_REACTORS
330
612
102
}
100
AcDbXrecord
 10
0.0
 20
0.0
 30
0.0
  0
XRECORD
  5
626
102
{ACAD_REACTORS
330
612
102
}
100
AcDbXrecord
 10
0.0
 20
0.0
 30
0.0
  0
XRECORD
  5
627
102
{ACAD_REACTORS
330
612
102
}
100
AcDbXrecord
 10
0.0
 20
0.0
 30
0.0
  0
XRECORD
  5
624
102
{ACAD_REACTORS
330
612
102
}
100
AcDbXrecord
 10
0.0
 20
0.0
 30
0.0
  0
XRECORD
  5
621
102
{ACAD_REACTORS
330
612
102
}
100
AcDbXrecord
340
0
  0
XRECORD
  5
622
102
{ACAD_REACTORS
330
612
102
}
100
AcDbXrecord
 70
     0
  0
XRECORD
  5
616
102
{ACAD_REACTORS
330
612
102
}
100
AcDbXrecord
  1
ganz_fein.ctb
  0
XRECORD
  5
613
102
{ACAD_REACTORS
330
612
102
}
100
AcDbXrecord
 90
        1
  0
XRECORD
  5
614
102
{ACAD_REACTORS
330
612
102
}
100
AcDbXrecord
 90
       70
  0
XRECORD
  5
62C
102
{ACAD_REACTORS
330
612
102
}
100
AcDbXrecord
340
0
  0
XRECORD
  5
632
102
{ACAD_REACTORS
330
612
102
}
100
AcDbXrecord
 10
0.0
 20
0.0
 30
0.0
  0
XRECORD
  5
62E
102
{ACAD_REACTORS
330
612
102
}
100
AcDbXrecord
 10
0.0
 20
0.0
 30
0.0
  0
XRECORD
  5
631
102
{ACAD_REACTORS
330
612
102
}
100
AcDbXrecord
 10
0.0
 20
0.0
 30
0.0
  0
XRECORD
  5
62F
102
{ACAD_REACTORS
330
612
102
}
100
AcDbXrecord
 10
0.0
 20
0.0
 30
0.0
  0
XRECORD
  5
630
102
{ACAD_REACTORS
330
612
102
}
100
AcDbXrecord
 10
0.0
 20
0.0
 30
0.0
  0
XRECORD
  5
62D
102
{ACAD_REACTORS
330
612
102
}
100
AcDbXrecord
 10
0.0
 20
0.0
 30
0.0
  0
XRECORD
  5
62A
102
{ACAD_REACTORS
330
612
102
}
100
AcDbXrecord
340
0
  0
XRECORD
  5
62B
102
{ACAD_REACTORS
330
612
102
}
100
AcDbXrecord
 70
     0
  0
XRECORD
  5
61E
102
{ACAD_REACTORS
330
612
102
}
100
AcDbXrecord
  1
{B94B325F-5776-4032-A80D-623E007332B9}
  0
DICTIONARYVAR
  5
5C4
102
{ACAD_REACTORS
330
5C2
102
}
100
DictionaryVariables
280
     0
  1
1
  0
DICTIONARYVAR
  5
5C3
102
{ACAD_REACTORS
330
5C2
102
}
100
DictionaryVariables
280
     0
  1
1
  0
DICTIONARYVAR
  5
5FA
102
{ACAD_REACTORS
330
5C2
102
}
100
DictionaryVariables
280
     0
  1
1
  0
DICTIONARY
  5
67A
100
AcDbDictionary
280
     1
  3
ACAD_XREC_ROUNDTRIP
360
67B
  0
DICTIONARY
  5
58D
102
{ACAD_REACTORS
330
58C
102
}
100
AcDbDictionary
  0
DICTIONARY
  5
676
100
AcDbDictionary
280
     1
  3
ACAD_XREC_ROUNDTRIP
360
677
  0
DICTIONARY
  5
584
102
{ACAD_XDICTIONARY
360
678
102
}
102
{ACAD_REACTORS
330
57D
102
}
100
AcDbDictionary
  3
DWGSETTINGS
350
585
  0
DICTIONARY
  5
68B
100
AcDbDictionary
280
     1
  3
ACAD_XREC_ROUNDTRIP
360
68C
  0
LAYER_INDEX
  5
5EA
102
{ACAD_REACTORS
330
5E9
102
}
100
AcDbIndex
 40
2452900.689457997
100
AcDbLayerIndex
  8
0
360
5EB
 90
   104
  8
AM_0
360
5EC
 90
   392
  8
DEFPOINTS
360
5ED
 90
     1
  8
AM_6
360
5EE
 90
     4
  8
AM_5
360
5EF
 90
     8
  8
AM_8
360
5F0
 90
    10
  8
AM_4
360
5F1
 90
   596
  8
AM_7
360
5F2
 90
    33
  8
AM_3
360
5F3
 90
    67
  8
AM_0N
360
5F4
 90
     3
  8
AM_9
360
5F5
 90
     0
  8
AM_9N
360
5F6
 90
     0
  8
AM_4N
360
5F7
 90
     0
  8
AM_7N
360
5F8
 90
     0
  0
XRECORD
  5
637
102
{ACAD_REACTORS
330
636
102
}
100
AcDbXrecord
102
EXTNAMES
  1
LAYOUT1
  2
Layout1
  1
MODEL
  2
Model
  0
XRECORD
  5
63C
102
{ACAD_REACTORS
330
63B
102
}
100
AcDbXrecord
102
EXTNAMES
  1
STANDARD
  2
Standard
  0
XRECORD
  5
67B
102
{ACAD_REACTORS
330
67A
102
}
100
AcDbXrecord
102
EXTNAMES
  1
ACMBOMDATA
  2
AcmBOMDATA
  1
ACMSTDDICTIONARY
  2
AcmStdDictionary
  0
XRECORD
  5
677
102
{ACAD_REACTORS
330
676
102
}
100
AcDbXrecord
102
EXTNAMES
  1
ACMGSETTINGS
  2
AcMgSettings
  0
DICTIONARY
  5
678
100
AcDbDictionary
280
     1
  3
ACAD_XREC_ROUNDTRIP
360
679
  0
XRECORD
  5
585
102
{ACAD_REACTORS
330
584
102
}
100
AcDbXrecord
  1
VERSION
140
15.0
  1
PRODUCT
  2
AutoCAD Mechanical 2000
  0
XRECORD
  5
68C
102
{ACAD_REACTORS
330
68B
102
}
100
AcDbXrecord
102
EXTNAMES
  1
HATCH__1_
  2
HATCH (1)
  1
HATCH__2_
  2
HATCH (2)
  1
SIMPLE_WELD
  2
SIMPLE WELD
  0
IDBUFFER
  5
5EB
100
AcDbIdBuffer
330
485
330
486
330
487
330
488
330
489
330
48A
330
48B
330
48C
330
48D
330
48E
330
48F
330
490
330
491
330
492
330
493
330
494
330
495
330
496
330
497
330
498
330
499
330
49A
330
49B
330
49C
330
49D
330
49E
330
49F
330
4A0
330
4A1
330
4A2
330
4A3
330
4A4
330
4A5
330
4A6
330
4A7
330
4A8
330
4A9
330
4AA
330
4AB
330
4AC
330
4AD
330
4AE
330
4AF
330
4B0
330
4B1
330
4B2
330
4B3
330
4B4
330
4B5
330
4B6
330
5AF
330
5B4
330
5B6
330
5B8
330
5B9
330
5BA
330
157
330
158
330
159
330
454
330
455
330
457
330
458
330
459
330
45B
330
45C
330
45D
330
45E
330
45F
330
460
330
461
330
463
330
464
330
465
330
466
330
467
330
468
330
469
330
46A
330
46C
330
46D
330
46E
330
46F
330
470
330
471
330
472
330
473
330
474
330
475
330
476
330
477
330
478
330
479
330
47A
330
47B
330
47C
330
47D
330
47E
330
47F
330
480
330
481
330
482
330
483
330
484
  0
IDBUFFER
  5
5EC
100
AcDbIdBuffer
330
4B9
330
4BA
330
4BB
330
4BC
330
4BD
330
4BE
330
4BF
330
4C0
330
4C1
330
4C2
330
4C3
330
4C4
330
4C5
330
4C8
330
4C9
330
4CA
330
4CB
330
4CC
330
4CD
330
4CE
330
4CF
330
4D0
330
4D1
330
4D2
330
4D3
330
4D4
330
4D5
330
4D7
330
4D8
330
4D9
330
4DA
330
4DB
330
4DC
330
4DD
330
4DE
330
4DF
330
4E0
330
4E1
330
4E2
330
4E3
330
4E4
330
4E5
330
4E6
330
4E7
330
4E8
330
4E9
330
4EA
330
4EB
330
4ED
330
4EF
330
4F0
330
4F1
330
4F2
330
4F3
330
4F4
330
4F5
330
4F6
330
4F7
330
4F8
330
4F9
330
4FA
330
4FB
330
4FC
330
4FD
330
4FE
330
4FF
330
500
330
501
330
502
330
503
330
504
330
505
330
506
330
507
330
508
330
509
330
50A
330
50B
330
50E
330
50F
330
510
330
511
330
512
330
513
330
514
330
515
330
516
330
517
330
518
330
519
330
51A
330
51B
330
51C
330
51D
330
51E
330
51F
330
520
330
521
330
522
330
523
330
524
330
525
330
526
330
527
330
529
330
52B
330
52D
330
52F
330
530
330
531
330
532
330
533
330
534
330
535
330
536
330
537
330
538
330
539
330
53A
330
53B
330
53C
330
53D
330
53E
330
53F
330
540
330
541
330
542
330
543
330
544
330
545
330
546
330
552
330
553
330
554
330
555
330
556
330
567
330
568
330
56A
330
56B
330
56C
330
56D
330
570
330
571
330
572
330
573
330
574
330
575
330
577
330
578
330
579
330
57A
330
27
330
28
330
39
330
4E
330
5C
330
5F
330
60
330
61
330
62
330
63
330
64
330
65
330
66
330
68
330
69
330
6A
330
6B
330
6C
330
6F
330
70
330
71
330
72
330
74
330
75
330
76
330
77
330
78
330
79
330
7B
330
7C
330
7D
330
7E
330
80
330
9C
330
9D
330
F6
330
F8
330
F9
330
FB
330
FD
330
FE
330
FF
330
100
330
101
330
102
330
103
330
105
330
106
330
107
330
109
330
10B
330
10C
330
10D
330
10F
330
110
330
111
330
112
330
113
330
114
330
115
330
116
330
117
330
118
330
119
330
11A
330
11B
330
11C
330
11D
330
11E
330
11F
330
120
330
121
330
122
330
123
330
124
330
125
330
126
330
127
330
128
330
12B
330
12C
330
12E
330
12F
330
130
330
131
330
132
330
134
330
135
330
136
330
137
330
138
330
139
330
13A
330
13B
330
13C
330
13E
330
13F
330
140
330
141
330
142
330
143
330
144
330
145
330
146
330
147
330
148
330
149
330
14A
330
14B
330
14C
330
14D
330
14E
330
14F
330
150
330
151
330
153
330
154
330
156
330
15A
330
15B
330
175
330
176
330
178
330
179
330
17A
330
17B
330
17C
330
17D
330
17E
330
17F
330
180
330
182
330
183
330
185
330
186
330
187
330
188
330
189
330
18A
330
18B
330
18C
330
18D
330
18E
330
18F
330
190
330
191
330
192
330
193
330
194
330
195
330
196
330
197
330
198
330
199
330
19A
330
19B
330
19C
330
19D
330
19E
330
19F
330
1A2
330
1A3
330
1A4
330
1A7
330
1A8
330
1A9
330
1AA
330
1AB
330
1AC
330
1AD
330
1AE
330
1AF
330
1B0
330
1B1
330
1B2
330
1B3
330
1B4
330
1B5
330
1BA
330
1BB
330
1BC
330
1BD
330
1C1
330
1C2
330
1C4
330
1C5
330
1C6
330
1C7
330
1C8
330
1C9
330
1CA
330
1CB
330
1CC
330
1CD
330
1CE
330
1D0
330
1D1
330
1D2
330
1D3
330
1D4
330
1D5
330
1D6
330
1D7
330
1D8
330
1D9
330
1DA
330
1DB
330
1DC
330
1DD
330
1DE
330
1DF
330
1E0
330
1E1
330
1E2
330
1E3
330
1E4
330
1E5
330
1E6
330
1E7
330
1E8
330
1E9
330
1EC
330
1ED
330
1F0
330
1F1
330
1F2
330
1F3
330
1F4
330
1F6
330
42D
330
42E
330
42F
330
430
330
431
330
432
330
434
330
452
330
453
330
4B7
330
4B8
  0
IDBUFFER
  5
5ED
100
AcDbIdBuffer
330
462
  0
IDBUFFER
  5
5EE
100
AcDbIdBuffer
330
9E
330
201
330
435
330
436
  0
IDBUFFER
  5
5EF
100
AcDbIdBuffer
330
29
330
3F
330
4F
330
81
330
8E
330
15C
330
167
330
557
  0
IDBUFFER
  5
5F0
100
AcDbIdBuffer
330
6D
330
73
330
174
330
177
330
1B6
330
1B9
330
433
330
547
330
548
330
549
  0
IDBUFFER
  5
5F1
100
AcDbIdBuffer
330
3D4
330
3D5
330
3D6
330
3D7
330
3D8
330
3D9
330
3DA
330
3DB
330
3DC
330
3DD
330
3DE
330
3DF
330
3E0
330
3E1
330
3E2
330
3E3
330
3E4
330
3E5
330
3E6
330
3E7
330
3E8
330
3E9
330
3EA
330
3EB
330
3EC
330
3ED
330
3EE
330
3EF
330
3F0
330
3F1
330
3F2
330
3F3
330
3F4
330
3F5
330
3F6
330
3F7
330
3F8
330
3F9
330
3FA
330
3FB
330
3FC
330
3FD
330
3FE
330
3FF
330
400
330
401
330
402
330
403
330
404
330
405
330
406
330
407
330
408
330
409
330
40A
330
40B
330
40C
330
40D
330
40E
330
40F
330
410
330
411
330
412
330
413
330
414
330
415
330
416
330
417
330
418
330
419
330
41A
330
41B
330
41C
330
41D
330
41E
330
41F
330
420
330
421
330
422
330
423
330
424
330
425
330
426
330
427
330
428
330
429
330
42A
330
42B
330
42C
330
46B
330
4C6
330
4C7
330
4EC
330
4EE
330
50C
330
50D
330
528
330
52A
330
52C
330
52E
330
B1
330
B5
330
BC
330
F7
330
FC
330
129
330
12A
330
12D
330
152
330
155
330
1A0
330
1A1
330
1A5
330
1A6
330
1C0
330
1C3
330
1EA
330
1EB
330
1EE
330
1EF
330
1F7
330
1F8
330
1F9
330
1FA
330
1FB
330
1FC
330
1FD
330
1FE
330
1FF
330
200
330
202
330
203
330
204
330
205
330
206
330
207
330
208
330
209
330
20A
330
20B
330
20C
330
20D
330
20E
330
20F
330
210
330
211
330
212
330
213
330
214
330
215
330
216
330
217
330
218
330
219
330
21A
330
21B
330
21C
330
21D
330
21E
330
21F
330
220
330
221
330
222
330
223
330
224
330
225
330
226
330
227
330
228
330
229
330
22A
330
22B
330
22C
330
22D
330
22E
330
22F
330
230
330
231
330
232
330
233
330
234
330
235
330
236
330
237
330
238
330
239
330
23A
330
23B
330
23C
330
23D
330
23E
330
23F
330
240
330
241
330
242
330
243
330
244
330
245
330
246
330
247
330
248
330
249
330
24A
330
24B
330
24C
330
24D
330
24E
330
24F
330
250
330
251
330
252
330
253
330
254
330
255
330
256
330
257
330
258
330
259
330
25A
330
25B
330
25C
330
25D
330
25E
330
25F
330
260
330
261
330
262
330
263
330
264
330
265
330
266
330
267
330
268
330
269
330
26A
330
26B
330
26C
330
26D
330
26E
330
26F
330
270
330
271
330
272
330
273
330
274
330
275
330
276
330
277
330
278
330
279
330
27A
330
27B
330
27C
330
27D
330
27E
330
27F
330
280
330
281
330
282
330
283
330
284
330
285
330
286
330
287
330
288
330
289
330
28A
330
28B
330
28C
330
28D
330
28E
330
28F
330
290
330
291
330
292
330
293
330
294
330
295
330
296
330
297
330
298
330
299
330
29A
330
29B
330
29C
330
29D
330
29E
330
29F
330
2A0
330
2A1
330
2A2
330
2A3
330
2A4
330
2A5
330
2A6
330
2A7
330
2A8
330
2A9
330
2AA
330
2AB
330
2AC
330
2AD
330
2AE
330
2AF
330
2B0
330
2B1
330
2B2
330
2B3
330
2B4
330
2B5
330
2B6
330
2B7
330
2B8
330
2B9
330
2BA
330
2BB
330
2BC
330
2BD
330
2BE
330
2BF
330
2C0
330
2C1
330
2C2
330
2C3
330
2C4
330
2C5
330
2C6
330
2C7
330
2C8
330
2C9
330
2CA
330
2CB
330
2CC
330
2CD
330
2CE
330
2CF
330
2D0
330
2D1
330
2D2
330
2D3
330
2D4
330
2D5
330
2D6
330
2D7
330
2D8
330
2D9
330
2DA
330
2DB
330
2DC
330
2DD
330
2DE
330
2DF
330
2E0
330
2E1
330
2E2
330
2E3
330
2E4
330
2E5
330
2E6
330
2E7
330
2E8
330
2E9
330
2EA
330
2EB
330
2EC
330
2ED
330
2EE
330
2EF
330
2F0
330
2F1
330
2F2
330
2F3
330
2F4
330
2F5
330
2F6
330
2F7
330
2F8
330
2F9
330
2FA
330
2FB
330
2FC
330
2FD
330
2FE
330
2FF
330
300
330
301
330
302
330
303
330
304
330
305
330
306
330
307
330
308
330
309
330
30A
330
30B
330
30C
330
30D
330
30E
330
30F
330
310
330
311
330
312
330
313
330
314
330
315
330
316
330
317
330
318
330
319
330
31A
330
31B
330
31C
330
31D
330
31E
330
31F
330
320
330
321
330
322
330
323
330
324
330
325
330
326
330
327
330
328
330
329
330
32A
330
32B
330
32C
330
32D
330
32E
330
32F
330
330
330
331
330
332
330
333
330
334
330
335
330
336
330
337
330
338
330
339
330
33A
330
33B
330
33C
330
33D
330
33E
330
33F
330
340
330
341
330
342
330
343
330
344
330
345
330
346
330
347
330
348
330
349
330
34A
330
34B
330
34C
330
34D
330
34E
330
34F
330
350
330
351
330
352
330
353
330
354
330
355
330
356
330
357
330
358
330
359
330
35A
330
35B
330
35C
330
35D
330
35E
330
35F
330
360
330
361
330
362
330
363
330
364
330
365
330
366
330
367
330
368
330
369
330
36A
330
36B
330
36C
330
36D
330
36E
330
36F
330
370
330
371
330
372
330
373
330
374
330
375
330
376
330
377
330
378
330
379
330
37A
330
37B
330
37C
330
37D
330
37E
330
37F
330
380
330
381
330
382
330
383
330
384
330
385
330
386
330
387
330
388
330
389
330
38A
330
38B
330
38C
330
38D
330
38E
330
38F
330
390
330
391
330
392
330
393
330
394
330
395
330
396
330
397
330
398
330
399
330
39A
330
39B
330
39C
330
39D
330
39E
330
39F
330
3A0
330
3A1
330
3A2
330
3A3
330
3A4
330
3A5
330
3A6
330
3A7
330
3A8
330
3A9
330
3AA
330
3AB
330
3AC
330
3AD
330
3AE
330
3AF
330
3B0
330
3B1
330
3B2
330
3B3
330
3B4
330
3B5
330
3B6
330
3B7
330
3B8
330
3B9
330
3BA
330
3BB
330
3BC
330
3BD
330
3BE
330
3BF
330
3C0
330
3C1
330
3C2
330
3C3
330
3C4
330
3C5
330
3C6
330
3C7
330
3C8
330
3C9
330
3CA
330
3CB
330
3CC
330
3CD
330
3CE
330
3CF
330
3D0
330
3D1
330
3D2
330
3D3
  0
IDBUFFER
  5
5F2
100
AcDbIdBuffer
330
FA
330
104
330
108
330
10E
330
133
330
13D
330
181
330
184
330
1CF
330
1F5
330
4D6
330
566
330
569
330
56E
330
56F
330
576
330
57B
330
3A
330
7A
330
7F
330
A8
330
A9
330
AD
330
C3
330
C4
330
C6
330
CE
330
DA
330
DD
330
E1
330
E3
330
E5
330
EB
  0
IDBUFFER
  5
5F3
100
AcDbIdBuffer
330
DF
330
E0
330
E2
330
E4
330
E6
330
E7
330
E8
330
E9
330
EA
330
EC
330
ED
330
EE
330
EF
330
F0
330
F1
330
F2
330
F3
330
F4
330
F5
330
A0
330
A3
330
A4
330
A5
330
A6
330
A7
330
AA
330
AB
330
AC
330
AE
330
AF
330
B0
330
B3
330
B4
330
B6
330
B7
330
B8
330
B9
330
BA
330
BB
330
BD
330
BE
330
BF
330
C0
330
C1
330
C2
330
C5
330
C7
330
C8
330
C9
330
CA
330
CB
330
CC
330
CD
330
CF
330
D0
330
D1
330
D2
330
D3
330
D4
330
D5
330
D6
330
D7
330
D8
330
D9
330
DB
330
DC
330
DE
  0
IDBUFFER
  5
5F4
100
AcDbIdBuffer
330
54A
330
551
330
5BB
  0
IDBUFFER
  5
5F5
100
AcDbIdBuffer
  0
IDBUFFER
  5
5F6
100
AcDbIdBuffer
  0
IDBUFFER
  5
5F7
100
AcDbIdBuffer
  0
IDBUFFER
  5
5F8
100
AcDbIdBuffer
  0
XRECORD
  5
679
102
{ACAD_REACTORS
330
678
102
}
100
AcDbXrecord
102
EXTNAMES
  1
SHAFT
  2
Shaft
  0
ENDSEC
  0
EOF
