  0
SECTION
  2
HEADER
  9
$ACADVER
  1
AC1015
  9
$ACADMAINTVER
 70
    20
  9
$DWGCODEPAGE
  3
ANSI_1252
  9
$INSBASE
 10
0.0
 20
0.0
 30
0.0
  9
$EXTMIN
 10
56.13170993624476
 20
460.5375882856058
 30
-0.0000000000112498
  9
$EXTMAX
 10
530.2772417208057
 20
812.1396511819533
 30
0.0000000000002956
  9
$LIMMIN
 10
-182.9864404497793
 20
-2.624778689794775
  9
$LIMMAX
 10
626.9601670480072
 20
442.6145195992734
  9
$ORTHOMODE
 70
     1
  9
$REGENMODE
 70
     1
  9
$FILLMODE
 70
     1
  9
$QTEXTMODE
 70
     0
  9
$MIRRTEXT
 70
     0
  9
$LTSCALE
 40
1.0
  9
$ATTMODE
 70
     1
  9
$TEXTSIZE
 40
50.0
  9
$TRACEWID
 40
1.0
  9
$TEXTSTYLE
  7
STANDARD
  9
$CLAYER
  8
AM_4
  9
$CELTYPE
  6
ByLayer
  9
$CECOLOR
 62
   256
  9
$CELTSCALE
 40
1.0
  9
$DISPSILH
 70
     0
  9
$DIMSCALE
 40
1.0
  9
$DIMASZ
 40
2.5
  9
$DIMEXO
 40
0.0
  9
$DIMDLI
 40
10.0
  9
$DIMRND
 40
0.0
  9
$DIMDLE
 40
0.0
  9
$DIMEXE
 40
1.0
  9
$DIMTP
 40
5.0
  9
$DIMTM
 40
5.0
  9
$DIMTXT
 40
3.0
  9
$DIMCEN
 40
0.0
  9
$DIMTSZ
 40
0.0
  9
$DIMTOL
 70
     0
  9
$DIMLIM
 70
     0
  9
$DIMTIH
 70
     0
  9
$DIMTOH
 70
     0
  9
$DIMSE1
 70
     0
  9
$DIMSE2
 70
     0
  9
$DIMTAD
 70
     1
  9
$DIMZIN
 70
     8
  9
$DIMBLK
  1

  9
$DIMASO
 70
     1
  9
$DIMSHO
 70
     1
  9
$DIMPOST
  1

  9
$DIMAPOST
  1
"
  9
$DIMALT
 70
     0
  9
$DIMALTD
 70
     2
  9
$DIMALTF
 40
0.0393701
  9
$DIMLFAC
 40
1.0
  9
$DIMTOFL
 70
     1
  9
$DIMTVP
 40
0.0
  9
$DIMTIX
 70
     0
  9
$DIMSOXD
 70
     0
  9
$DIMSAH
 70
     0
  9
$DIMBLK1
  1

  9
$DIMBLK2
  1

  9
$DIMSTYLE
  2
AM_DIN
  9
$DIMCLRD
 70
   256
  9
$DIMCLRE
 70
   256
  9
$DIMCLRT
 70
     2
  9
$DIMTFAC
 40
0.71
  9
$DIMGAP
 40
0.7
  9
$DIMJUST
 70
     0
  9
$DIMSD1
 70
     0
  9
$DIMSD2
 70
     0
  9
$DIMTOLJ
 70
     0
  9
$DIMTZIN
 70
     8
  9
$DIMALTZ
 70
     0
  9
$DIMALTTZ
 70
     0
  9
$DIMUPT
 70
     0
  9
$DIMDEC
 70
     0
  9
$DIMTDEC
 70
     2
  9
$DIMALTU
 70
     2
  9
$DIMALTTD
 70
     2
  9
$DIMTXSTY
  7
STANDARD
  9
$DIMAUNIT
 70
     0
  9
$DIMADEC
 70
     0
  9
$DIMALTRND
 40
0.0
  9
$DIMAZIN
 70
     2
  9
$DIMDSEP
 70
    46
  9
$DIMATFIT
 70
     3
  9
$DIMFRAC
 70
     0
  9
$DIMLDRBLK
  1

  9
$DIMLUNIT
 70
     2
  9
$DIMLWD
 70
    -1
  9
$DIMLWE
 70
    -1
  9
$DIMTMOVE
 70
     0
  9
$LUNITS
 70
     2
  9
$LUPREC
 70
     2
  9
$SKETCHINC
 40
1.0
  9
$FILLETRAD
 40
2.0
  9
$AUNITS
 70
     0
  9
$AUPREC
 70
     0
  9
$MENU
  1
.
  9
$ELEVATION
 40
0.0
  9
$PELEVATION
 40
0.0
  9
$THICKNESS
 40
0.0
  9
$LIMCHECK
 70
     0
  9
$CHAMFERA
 40
2.5
  9
$CHAMFERB
 40
2.5
  9
$CHAMFERC
 40
20.0
  9
$CHAMFERD
 40
0.0
  9
$SKPOLY
 70
     0
  9
$TDCREATE
 40
2452908.547844861
  9
$TDUCREATE
 40
2452908.506178195
  9
$TDUPDATE
 40
2454175.368368958
  9
$TDUUPDATE
 40
2454175.326702292
  9
$TDINDWG
 40
3.5492602315
  9
$TDUSRTIMER
 40
3.5492598727
  9
$USRTIMER
 70
     1
  9
$ANGBASE
 50
0.0
  9
$ANGDIR
 70
     0
  9
$PDMODE
 70
     0
  9
$PDSIZE
 40
0.0
  9
$PLINEWID
 40
0.0
  9
$SPLFRAME
 70
     0
  9
$SPLINETYPE
 70
     6
  9
$SPLINESEGS
 70
     8
  9
$HANDSEED
  5
A24
  9
$SURFTAB1
 70
     6
  9
$SURFTAB2
 70
     6
  9
$SURFTYPE
 70
     6
  9
$SURFU
 70
     6
  9
$SURFV
 70
     6
  9
$UCSBASE
  2

  9
$UCSNAME
  2

  9
$UCSORG
 10
0.0
 20
0.0
 30
0.0
  9
$UCSXDIR
 10
1.0
 20
0.0
 30
0.0
  9
$UCSYDIR
 10
0.0
 20
1.0
 30
0.0
  9
$UCSORTHOREF
  2

  9
$UCSORTHOVIEW
 70
     0
  9
$UCSORGTOP
 10
0.0
 20
0.0
 30
0.0
  9
$UCSORGBOTTOM
 10
0.0
 20
0.0
 30
0.0
  9
$UCSORGLEFT
 10
0.0
 20
0.0
 30
0.0
  9
$UCSORGRIGHT
 10
0.0
 20
0.0
 30
0.0
  9
$UCSORGFRONT
 10
0.0
 20
0.0
 30
0.0
  9
$UCSORGBACK
 10
0.0
 20
0.0
 30
0.0
  9
$PUCSBASE
  2

  9
$PUCSNAME
  2

  9
$PUCSORG
 10
0.0
 20
0.0
 30
0.0
  9
$PUCSXDIR
 10
1.0
 20
0.0
 30
0.0
  9
$PUCSYDIR
 10
0.0
 20
1.0
 30
0.0
  9
$PUCSORTHOREF
  2

  9
$PUCSORTHOVIEW
 70
     0
  9
$PUCSORGTOP
 10
0.0
 20
0.0
 30
0.0
  9
$PUCSORGBOTTOM
 10
0.0
 20
0.0
 30
0.0
  9
$PUCSORGLEFT
 10
0.0
 20
0.0
 30
0.0
  9
$PUCSORGRIGHT
 10
0.0
 20
0.0
 30
0.0
  9
$PUCSORGFRONT
 10
0.0
 20
0.0
 30
0.0
  9
$PUCSORGBACK
 10
0.0
 20
0.0
 30
0.0
  9
$USERI1
 70
     0
  9
$USERI2
 70
     0
  9
$USERI3
 70
     0
  9
$USERI4
 70
     0
  9
$USERI5
 70
     0
  9
$USERR1
 40
0.0
  9
$USERR2
 40
0.0
  9
$USERR3
 40
0.0
  9
$USERR4
 40
0.0
  9
$USERR5
 40
0.0
  9
$WORLDVIEW
 70
     1
  9
$SHADEDGE
 70
     3
  9
$SHADEDIF
 70
    70
  9
$TILEMODE
 70
     1
  9
$MAXACTVP
 70
    64
  9
$PINSBASE
 10
0.0
 20
0.0
 30
0.0
  9
$PLIMCHECK
 70
     0
  9
$PEXTMIN
 10
1.000000000000000E+20
 20
1.000000000000000E+20
 30
1.000000000000000E+20
  9
$PEXTMAX
 10
-1.000000000000000E+20
 20
-1.000000000000000E+20
 30
-1.000000000000000E+20
  9
$PLIMMIN
 10
0.0
 20
0.0
  9
$PLIMMAX
 10
420.0
 20
297.0
  9
$UNITMODE
 70
     0
  9
$VISRETAIN
 70
     1
  9
$PLINEGEN
 70
     0
  9
$PSLTSCALE
 70
     1
  9
$TREEDEPTH
 70
  3020
  9
$CMLSTYLE
  2
Standard
  9
$CMLJUST
 70
     0
  9
$CMLSCALE
 40
20.0
  9
$PROXYGRAPHICS
 70
     1
  9
$MEASUREMENT
 70
     1
  9
$CELWEIGHT
370
    -1
  9
$ENDCAPS
280
     0
  9
$JOINSTYLE
280
     0
  9
$LWDISPLAY
290
     0
  9
$INSUNITS
 70
     4
  9
$HYPERLINKBASE
  1

  9
$STYLESHEET
  1
ganz_fein_1.ctb
  9
$XEDIT
290
     1
  9
$CEPSNTYPE
380
     0
  9
$PSTYLEMODE
290
     1
  9
$FINGERPRINTGUID
  2
{83AF6503-29F1-4AD5-97F6-8D05887D4836}
  9
$VERSIONGUID
  2
{65622487-21CC-42ED-87A8-468495E6234E}
  9
$EXTNAMES
290
     1
  9
$PSVPSCALE
 40
0.0
  9
$OLESTARTUP
290
     0
  0
ENDSEC
  0
SECTION
  2
CLASSES
  0
CLASS
  1
ACDBDICTIONARYWDFLT
  2
AcDbDictionaryWithDefault
  3
ObjectDBX Classes
 90
        0
280
     0
281
     0
  0
CLASS
  1
ACDBPLACEHOLDER
  2
AcDbPlaceHolder
  3
ObjectDBX Classes
 90
        0
280
     0
281
     0
  0
CLASS
  1
LAYOUT
  2
AcDbLayout
  3
ObjectDBX Classes
 90
        0
280
     0
281
     0
  0
CLASS
  1
AMGSETTINGSOBJ
  2
AmgSettingsObj
  3
"AcadM|Product Description: AutoCAD Mechanical|Company: Autodesk"
 90
        0
280
     0
281
     0
  0
CLASS
  1
ACME_DOCUMENT
  2
AcMeDbDoc
  3
AcMeServices
 90
        0
280
     0
281
     0
  0
CLASS
  1
ACMESCOPE
  2
AcMeScope
  3
AcMeServices
 90
        0
280
     0
281
     0
  0
CLASS
  1
ACMECOMMANDHISTORY
  2
AcMeCommandHistory
  3
AcMeServices
 90
        0
280
     0
281
     0
  0
CLASS
  1
DICTIONARYVAR
  2
AcDbDictionaryVar
  3
ObjectDBX Classes
 90
        0
280
     0
281
     0
  0
CLASS
  1
ACIMSYSVARMAN
  2
AcImSysVarManager
  3
AcMeServices
 90
        0
280
     0
281
     0
  0
CLASS
  1
ACIMREALSYSVAR
  2
AcImRealSysVar
  3
AcMeServices
 90
        0
280
     0
281
     0
  0
CLASS
  1
ACIMINTSYSVAR
  2
AcImIntSysVar
  3
AcMeServices
 90
        0
280
     0
281
     0
  0
CLASS
  1
ACMEDRAWINGMAN
  2
AcMeDrawingMan
  3
AcMeServices
 90
        0
280
     0
281
     0
  0
CLASS
  1
ACMEVIEW
  2
AcMeView
  3
AcMeServices
 90
        0
280
     0
281
     0
  0
CLASS
  1
ACDBENTITYCACHE
  2
AcMeEntityCache
  3
AcMeServices
 90
        0
280
     0
281
     0
  0
CLASS
  1
GSMANAGER
  2
AcMeGSManager
  3
AcMeServices
 90
        0
280
     0
281
     0
  0
CLASS
  1
AMDTINTERNALREACTOR
  2
AmdtInternalReactor
  3
AcMeServices
 90
        0
280
     0
281
     0
  0
CLASS
  1
ACMESTATEMGR
  2
AcMeStateMgr
  3
AcMeServices
 90
        0
280
     0
281
     0
  0
CLASS
  1
ACGREFMASTER
  2
AcGrefMaster
  3
AcAttribServices
 90
        0
280
     0
281
     0
  0
CLASS
  1
ACME_DATABASE
  2
AcMeDbDatabase
  3
AcMeServices
 90
        0
280
     0
281
     0
  0
CLASS
  1
ACRFINSADJUSTERMGR
  2
AcRfInsAdjusterMgr
  3
AcMeServices
 90
        0
280
     0
281
     0
  0
CLASS
  1
ACGREFACADMASTER
  2
AcGrefacadMaster
  3
AcGrefServices
 90
        0
280
     0
281
     0
  0
CLASS
  1
AMIMASTER
  2
AmiMaster
  3
AmiServices
 90
        0
280
     0
281
     0
  0
CLASS
  1
ACIMSTRSYSVAR
  2
AcImStrSysVar
  3
AcMeServices
 90
        0
280
     0
281
     0
  0
CLASS
  1
ACMSTANDARDDIN
  2
AcmStandardDIN
  3
"Amdt_StdImp|Product Description: AutoCAD Mechanical|Company: Autodesk"
 90
        0
280
     0
281
     0
  0
CLASS
  1
AMGOBJPROPCFG
  2
AmgObjPropCfg
  3
"AmgLay|Product Description: AutoCAD Mechanical|Company: Autodesk"
 90
        1
280
     0
281
     0
  0
CLASS
  1
AMDTEDGESTANDARDDIN
  2
AmdtEdgeStdDIN
  3
"Amdt_StdImp|Product Description: AutoCAD Mechanical|Company: Autodesk"
 90
        0
280
     0
281
     0
  0
CLASS
  1
ACMSURFSTANDARDDIN
  2
AcmSurfTextStdDIN
  3
"Amdt_StdImp|Product Description: AutoCAD Mechanical|Company: Autodesk"
 90
        0
280
     0
281
     0
  0
CLASS
  1
ACMFCFSTANDARDDIN
  2
AcmFCFStdDIN
  3
"Amdt_StdImp|Product Description: AutoCAD Mechanical|Company: Autodesk"
 90
        0
280
     0
281
     0
  0
CLASS
  1
ACMWELDSTANDARDDIN
  2
AcmWeldingStdDIN
  3
"Amdt_StdImp|Product Description: AutoCAD Mechanical|Company: Autodesk"
 90
        0
280
     0
281
     0
  0
CLASS
  1
ACMIDSTANDARDDIN
  2
AcmIdStdDIN
  3
"Amdt_StdImp|Product Description: AutoCAD Mechanical|Company: Autodesk"
 90
        0
280
     0
281
     0
  0
CLASS
  1
ACMDATUMSTANDARDDIN
  2
AcmDatumStdDIN
  3
"Amdt_StdImp|Product Description: AutoCAD Mechanical|Company: Autodesk"
 90
        0
280
     0
281
     0
  0
CLASS
  1
ACMBOMSTANDARDDIN
  2
AcmBOMStdDIN
  3
"Amdt_StdImp|Product Description: AutoCAD Mechanical|Company: Autodesk"
 90
        0
280
     0
281
     0
  0
CLASS
  1
ACMDETAILSTANDARDDIN
  2
AmdtDetailSymStdDIN
  3
"Amdt_StdImp|Product Description: AutoCAD Mechanical|Company: Autodesk"
 90
        0
280
     0
281
     0
  0
CLASS
  1
ACMSECTIONSTANDARDDIN
  2
AmdtSectionSymStdDIN
  3
"Amdt_StdImp|Product Description: AutoCAD Mechanical|Company: Autodesk"
 90
        0
280
     0
281
     0
  0
CLASS
  1
ACMCENTERLINESTANDARDDIN
  2
AmdtCenterLineStdDIN
  3
"Amdt_StdImp|Product Description: AutoCAD Mechanical|Company: Autodesk"
 90
        0
280
     0
281
     0
  0
CLASS
  1
ACMTHREADLINESTANDARDDIN
  2
AmdtThreadLineStdDIN
  3
"Amdt_StdImp|Product Description: AutoCAD Mechanical|Company: Autodesk"
 90
        0
280
     0
281
     0
  0
CLASS
  1
ACAMGLAYSTD
  2
AcAmgLayStd
  3
"AmgLay|Product Description: AutoCAD Mechanical|Company: Autodesk"
 90
        0
280
     0
281
     0
  0
CLASS
  1
ACAMGDIMSTD
  2
AcAmgDimStd
  3
"AmgDim|Product Description: AutoCAD Mechanical|Company: Autodesk"
 90
        0
280
     0
281
     0
  0
CLASS
  1
ACAMGTITLESTD
  2
AcAmgTitleStd
  3
"AmgTitle|Product Description: AutoCAD Mechanical|Company: Autodesk"
 90
        0
280
     0
281
     0
  0
CLASS
  1
ACMDATADICTIONARY
  2
AcmDataDictionary
  3
"AcmSymBB|Product Description: AutoCAD Mechanical|Company: Autodesk"
 90
        0
280
     0
281
     0
  0
CLASS
  1
ACMDATAENTRYBLOCK
  2
AcmDataEntryBlock
  3
"AcmSymBB|Product Description: AutoCAD Mechanical|Company: Autodesk"
 90
    32768
280
     0
281
     0
  0
CLASS
  1
LAYER_INDEX
  2
AcDbLayerIndex
  3
ObjectDBX Classes
 90
    32768
280
     0
281
     0
  0
CLASS
  1
IDBUFFER
  2
AcDbIdBuffer
  3
ObjectDBX Classes
 90
    32768
280
     0
281
     0
  0
CLASS
  1
AM_DRAWING_MGR
  2
AcDmDwgMgr
  3
AcMechDwgViewMgmt
 90
        0
280
     0
281
     0
  0
CLASS
  1
AM_DWG_DOCUMENT
  2
AcDmDwgDocument
  3
AcMechDwgViewMgmt
 90
        0
280
     0
281
     0
  0
CLASS
  1
AM_DWG_SHEET
  2
AcDmSheet
  3
AcMechDwgViewMgmt
 90
        0
280
     0
281
     0
  0
CLASS
  1
AM_VIEWDIMPARMAP
  2
AcDmViewDimParMap
  3
AcMechDwgViewMgmt
 90
        0
280
     0
281
     0
  0
CLASS
  1
AM_DWGMGR_NAME
  2
AcDmDwgMgrName
  3
AcMechDwgViewMgmt
 90
        0
280
     0
281
     0
  0
CLASS
  1
AMDTMENUSTATEMGR
  2
AmdtMenuStateMgr
  3
McadcomServices
 90
        0
280
     0
281
     0
  0
CLASS
  1
AMDTMCOMMENUSTATE
  2
AmdtMcomMenuState
  3
McadcomServices
 90
        0
280
     0
281
     0
  0
CLASS
  1
ASAPP
  2
AcAsAppObject
  3
AutoSurfServices
 90
    32768
280
     1
281
     0
  0
CLASS
  1
IM_STATIC_MAN
  2
AcImStaticVarManager
  3
AcMeServices
 90
    32768
280
     0
281
     0
  0
CLASS
  1
ACIMDBLSTATICVAR
  2
AcImDblStaticVar
  3
AcMeServices
 90
    32768
280
     0
281
     0
  0
CLASS
  1
ACIMSTRSTATICVAR
  2
AcImStrStaticVar
  3
AcMeServices
 90
    32768
280
     0
281
     0
  0
CLASS
  1
ACIMINTSTATICVAR
  2
AcImIntStaticVar
  3
AcMeServices
 90
    32768
280
     0
281
     0
  0
CLASS
  1
ACASGREFMASTER
  2
AcAsGrefMaster
  3
AutoSurfResolverServices
 90
    32768
280
     1
281
     0
  0
CLASS
  1
ACADGREFMODULE
  2
AcAdGrefModule
  3
AdGrefServices
 90
    32768
280
     1
281
     0
  0
CLASS
  1
AMDTMAPISURFMOUDULE
  2
AmdtMApiSurfModule
  3
MApiSurfServices
 90
    32768
280
     1
281
     0
  0
CLASS
  1
MAPIAMMOUDLE
  2
MApiAmModule
  3
MApiAmServices
 90
        0
280
     0
281
     0
  0
CLASS
  1
AMDTADMENUSTATE
  2
AmdtAdMenuState
  3
DesignerServices
 90
        0
280
     0
281
     0
  0
CLASS
  1
ADAPPL
  2
AcAdAppl
  3
DesignerServices
 90
        0
280
     0
281
     0
  0
CLASS
  1
DEPMGR
  2
AcAdDepMgr
  3
DesignerServices
 90
        0
280
     0
281
     0
  0
CLASS
  1
PARAMMGR
  2
AcAdParamMgr
  3
DesignerServices
 90
        0
280
     0
281
     0
  0
CLASS
  1
PARAMSCOPE
  2
AcAdParamScope
  3
DesignerServices
 90
        0
280
     0
281
     0
  0
CLASS
  1
NAMEDAPPL
  2
AcAdNamedAppl
  3
DesignerServices
 90
        0
280
     0
281
     0
  0
CLASS
  1
ADHNTMPLT
  2
AdHoleNoteTemplateMgr
  3
DesignerServices
 90
    32768
280
     0
281
     0
  0
CLASS
  1
AM_HNTEMPLATE_MGR_NAME
  2
AdHoleNoteTemplateMgrName
  3
DesignerServices
 90
    32768
280
     0
281
     0
  0
CLASS
  1
AMDTDMMENUSTATE
  2
AmdtDmMenuState
  3
AcMechDwgViewMgmt
 90
        0
280
     0
281
     0
  0
CLASS
  1
MAPIADMODULE
  2
MApiAdModule
  3
MApiAdServices
 90
    32768
280
     1
281
     0
  0
CLASS
  1
AMDTAMMENUSTATE
  2
AmdtAmMenuState
  3
DesignerAssemblies
 90
        0
280
     0
281
     0
  0
CLASS
  1
ACAMPROJECT
  2
AcAmProject
  3
DesignerAssemblies
 90
        0
280
     0
281
     0
  0
CLASS
  1
ACAMGRCOMPDEF
  2
AcAmGrCompDef
  3
DesignerAssemblies
 90
        0
280
     0
281
     0
  0
CLASS
  1
ACCMCONTEXT
  2
AcCmContext
  3
DesignerAssemblies
 90
        0
280
     0
281
     0
  0
CLASS
  1
ACAMCOMPDEF
  2
AcAmCompDef
  3
DesignerAssemblies
 90
        0
280
     0
281
     0
  0
CLASS
  1
ACAMCOMPDEFMGR
  2
AcAmCompDefMgr
  3
DesignerAssemblies
 90
        0
280
     0
281
     0
  0
CLASS
  1
AMCONTEXTMGR
  2
AcAmContextMgr
  3
DesignerAssemblies
 90
        0
280
     0
281
     0
  0
CLASS
  1
ACAMCONTEXTMODELER
  2
AcAmContextModeler
  3
DesignerAssemblies
 90
        0
280
     0
281
     0
  0
CLASS
  1
CATALOGSTATE
  2
AcAmCatalogState
  3
DesignerAssemblies
 90
        0
280
     0
281
     0
  0
CLASS
  1
ACAMGRCOMPDEFSET
  2
AcAmGrCompDefSet
  3
DesignerAssemblies
 90
        0
280
     0
281
     0
  0
CLASS
  1
AMDTBROWSERDBTAB
  2
AmdtBrowserDbTab
  3
McadcomServices
 90
        0
280
     0
281
     0
  0
CLASS
  1
CBROWSERAPPOBJECT
  2
CBrowserAppObject
  3
McadcomServices
 90
        0
280
     0
281
     0
  0
CLASS
  1
DM_PLACEHOLDER
  2
AcDmSelsetPlaceholder
  3
AcMechDwgViewMgmt
 90
        0
280
     0
281
     0
  0
CLASS
  1
ACAMGFILTERDAT
  2
AcAmgFilterDat
  3
"AcadM|Product Description: AutoCAD Mechanical|Company: Autodesk"
 90
    32768
280
     0
281
     0
  0
CLASS
  1
AMDTFORMULAUPDATEDISPATCHER
  2
AmdtFormulaUpdateDispatcher
  3
AcMeServices
 90
    32768
280
     0
281
     0
  0
CLASS
  1
ACMNOTESTANDARDDIN
  2
AmdtNoteStdDIN
  3
"Amdt_StdImp|Product Description: AutoCAD Mechanical|Company: Autodesk"
 90
        0
280
     0
281
     0
  0
CLASS
  1
ACAMGHOLECHARTSTDDIN
  2
AcAmgHoleChartStdDIN
  3
ACMSYMBB_MODULE_NAME
 90
        0
280
     0
281
     0
  0
CLASS
  1
AMDTNOTE
  2
AmdtNote
  3
"AcmSymBB|Product Description: AutoCAD Mechanical|Company: Autodesk"
 90
    35839
280
     0
281
     1
  0
CLASS
  1
ACMPARTREF
  2
AcmPartRef
  3
"AcmSymBB|Product Description: AutoCAD Mechanical|Company: Autodesk"
 90
    35839
280
     0
281
     1
  0
CLASS
  1
ACDBLINERES
  2
AcDbLineRes
  3
AcGrefServices
 90
    32768
280
     0
281
     0
  0
CLASS
  1
ACRFINSADJ
  2
AcRfInsAdjuster
  3
AcMeServices
 90
    32768
280
     0
281
     0
  0
CLASS
  1
ACMDATAENTRYPART
  2
AcmDataEntryPart
  3
"AcmSymBB|Product Description: AutoCAD Mechanical|Company: Autodesk"
 90
    32768
280
     0
281
     0
  0
CLASS
  1
ACMPICKOBJ
  2
AcmPickEnt
  3
"AcmSymBB|Product Description: AutoCAD Mechanical|Company: Autodesk"
 90
    32768
280
     0
281
     1
  0
CLASS
  1
ACMDATAENTRY
  2
AcmDataEntry
  3
"AcmSymBB|Product Description: AutoCAD Mechanical|Company: Autodesk"
 90
    32768
280
     0
281
     0
  0
CLASS
  1
ACMBOM
  2
AcmBom
  3
"AcmSymBB|Product Description: AutoCAD Mechanical|Company: Autodesk"
 90
    32768
280
     0
281
     0
  0
CLASS
  1
ACMBOMROW
  2
AcmBomRow
  3
"AcmSymBB|Product Description: AutoCAD Mechanical|Company: Autodesk"
 90
    32768
280
     0
281
     0
  0
CLASS
  1
ACMPARTLIST
  2
AcmPartList
  3
"AcmSymBB|Product Description: AutoCAD Mechanical|Company: Autodesk"
 90
    35839
280
     0
281
     1
  0
CLASS
  1
ACDBCIRCARCRES
  2
AcDbCircArcRes
  3
AcGrefServices
 90
    32768
280
     0
281
     0
  0
CLASS
  1
ACMBALLOON
  2
AcmBalloon
  3
"AcmSymBB|Product Description: AutoCAD Mechanical|Company: Autodesk"
 90
    35839
280
     0
281
     1
  0
CLASS
  1
ACMSTANDARDISO
  2
AcmStandardISO
  3
"Amdt_StdImp|Product Description: AutoCAD Mechanical|Company: Autodesk"
 90
        0
280
     0
281
     0
  0
CLASS
  1
AMDTEDGESTANDARDISO
  2
AmdtEdgeStdISO
  3
"Amdt_StdImp|Product Description: AutoCAD Mechanical|Company: Autodesk"
 90
        0
280
     0
281
     0
  0
CLASS
  1
ACMSURFSTANDARDISO
  2
AcmSurfTextStdISO
  3
"Amdt_StdImp|Product Description: AutoCAD Mechanical|Company: Autodesk"
 90
        0
280
     0
281
     0
  0
CLASS
  1
ACMFCFSTANDARDISO
  2
AcmFCFStdISO
  3
"Amdt_StdImp|Product Description: AutoCAD Mechanical|Company: Autodesk"
 90
        0
280
     0
281
     0
  0
CLASS
  1
ACMWELDSTANDARDISO
  2
AcmWeldingStdISO
  3
"Amdt_StdImp|Product Description: AutoCAD Mechanical|Company: Autodesk"
 90
        0
280
     0
281
     0
  0
CLASS
  1
ACMIDSTANDARDISO
  2
AcmIdStdISO
  3
"Amdt_StdImp|Product Description: AutoCAD Mechanical|Company: Autodesk"
 90
        0
280
     0
281
     0
  0
CLASS
  1
ACMDATUMSTANDARDISO
  2
AcmDatumStdISO
  3
"Amdt_StdImp|Product Description: AutoCAD Mechanical|Company: Autodesk"
 90
        0
280
     0
281
     0
  0
CLASS
  1
ACMBOMSTANDARDISO
  2
AcmBOMStdISO
  3
"Amdt_StdImp|Product Description: AutoCAD Mechanical|Company: Autodesk"
 90
        0
280
     0
281
     0
  0
CLASS
  1
ACMDETAILSTANDARDISO
  2
AmdtDetailSymStdISO
  3
"Amdt_StdImp|Product Description: AutoCAD Mechanical|Company: Autodesk"
 90
        0
280
     0
281
     0
  0
CLASS
  1
ACMSECTIONSTANDARDISO
  2
AmdtSectionSymStdISO
  3
"Amdt_StdImp|Product Description: AutoCAD Mechanical|Company: Autodesk"
 90
        0
280
     0
281
     0
  0
CLASS
  1
ACMCENTERLINESTANDARDISO
  2
AmdtCenterLineStdISO
  3
"Amdt_StdImp|Product Description: AutoCAD Mechanical|Company: Autodesk"
 90
        0
280
     0
281
     0
  0
CLASS
  1
ACMNOTESTANDARDISO
  2
AmdtNoteStdISO
  3
"Amdt_StdImp|Product Description: AutoCAD Mechanical|Company: Autodesk"
 90
        0
280
     0
281
     0
  0
CLASS
  1
ACAMGHOLECHARTSTDISO
  2
AcAmgHoleChartStdISO
  3
ACMSYMBB_MODULE_NAME
 90
        0
280
     0
281
     0
  0
CLASS
  1
ACDBOPPOLYLINERES
  2
AcDbOpPolylineRes
  3
AcGrefServices
 90
    32768
280
     0
281
     0
  0
CLASS
  1
ACMSURFSYM
  2
AcmSurfaceTexture
  3
"AcmSymBB|Product Description: AutoCAD Mechanical|Company: Autodesk"
 90
    35839
280
     0
281
     1
  0
CLASS
  1
ACMWELDSYM
  2
AcmWelding
  3
"AcmSymBB|Product Description: AutoCAD Mechanical|Company: Autodesk"
 90
    35839
280
     0
281
     1
  0
CLASS
  1
STDPART2D
  2
AmgStdPart
  3
"g3vace|Class: AmgStdPart|Product Description: AutoCAD Mechanical|Company: Autodesk"
 90
    35839
280
     0
281
     1
  0
CLASS
  1
ACDBSTDPARTRES_LINE
  2
AcDbStdPartRes_Line
  3
"g3vace|Class: AcDbStdPartRes_Line|Product Description: AutoCAD Mechanical|Company: Autodesk"
 90
    32768
280
     0
281
     0
  0
CLASS
  1
ACDBSTDPARTRES_ARC
  2
AcDbStdPartRes_Arc
  3
"g3vace|Class: AcDbStdPartRes_Arc|Product Description: AutoCAD Mechanical|Company: Autodesk"
 90
    32768
280
     0
281
     0
  0
CLASS
  1
ACDBDIMENSIONRES
  2
AcDbDimensionRes
  3
L"AcDbDimensionRes|Product Description: AutoCAD Mechanical 2000|Company: Autodesk"
 90
    32768
280
     0
281
     0
  0
CLASS
  1
ACDBPOLYLINERES
  2
AcDbPolylineRes
  3
AcGrefServices
 90
    32768
280
     0
281
     0
  0
CLASS
  1
ACDBELLIPSERES
  2
AcDbEllipseRes
  3
AcGrefServices
 90
    32768
280
     0
281
     0
  0
CLASS
  1
ACMDIMBREAKPERSREACTOR
  2
AcmDimBreakPersReactor
  3
amgDimApp().moduleName()
 90
    35839
280
     0
281
     0
  0
CLASS
  1
AMDTACMWBLOCKBOMENTITY
  2
AmdtAcmWblockBomEntity
  3
"AcmSymBB|Product Description: AutoCAD Mechanical|Company: Autodesk"
 90
     3071
280
     0
281
     1
  0
CLASS
  1
ACMSTANDARDANSI
  2
AcmStandardANSI
  3
"Amdt_StdImp|Product Description: AutoCAD Mechanical|Company: Autodesk"
 90
    32768
280
     0
281
     0
  0
CLASS
  1
ACMSURFSTANDARDANSI
  2
AcmSurfTextStdANSI
  3
"Amdt_StdImp|Product Description: AutoCAD Mechanical|Company: Autodesk"
 90
    32768
280
     0
281
     0
  0
CLASS
  1
ACMFCFSTANDARDANSI
  2
AcmFCFStdANSI
  3
"Amdt_StdImp|Product Description: AutoCAD Mechanical|Company: Autodesk"
 90
    32768
280
     0
281
     0
  0
CLASS
  1
ACMWELDSTANDARDANSI
  2
AcmWeldingStdANSI
  3
"Amdt_StdImp|Product Description: AutoCAD Mechanical|Company: Autodesk"
 90
    32768
280
     0
281
     0
  0
CLASS
  1
ACMIDSTANDARDANSI
  2
AcmIdStdANSI
  3
"Amdt_StdImp|Product Description: AutoCAD Mechanical|Company: Autodesk"
 90
    32768
280
     0
281
     0
  0
CLASS
  1
ACMDATUMSTANDARDANSI
  2
AcmDatumStdANSI
  3
"Amdt_StdImp|Product Description: AutoCAD Mechanical|Company: Autodesk"
 90
    32768
280
     0
281
     0
  0
CLASS
  1
ACMBOMSTANDARDANSI
  2
AcmBOMStdANSI
  3
"Amdt_StdImp|Product Description: AutoCAD Mechanical|Company: Autodesk"
 90
    32768
280
     0
281
     0
  0
CLASS
  1
ACMDETAILSTANDARDANSI
  2
AmdtDetailSymStdANSI
  3
"Amdt_StdImp|Product Description: AutoCAD Mechanical|Company: Autodesk"
 90
    32768
280
     0
281
     0
  0
CLASS
  1
ACMSECTIONSTANDARDANSI
  2
AmdtSectionSymStdANSI
  3
"Amdt_StdImp|Product Description: AutoCAD Mechanical|Company: Autodesk"
 90
    32768
280
     0
281
     0
  0
CLASS
  1
ACMCENTERLINESTANDARDANSI
  2
AmdtCenterLineStdANSI
  3
"Amdt_StdImp|Product Description: AutoCAD Mechanical|Company: Autodesk"
 90
    32768
280
     0
281
     0
  0
CLASS
  1
ACMNOTESTANDARDANSI
  2
AmdtNoteStdANSI
  3
"Amdt_StdImp|Product Description: AutoCAD Mechanical|Company: Autodesk"
 90
    32768
280
     0
281
     0
  0
CLASS
  1
ACAMGHOLECHARTSTDANSI
  2
AcAmgHoleChartStdANSI
  3
ACMSYMBB_MODULE_NAME
 90
    32768
280
     0
281
     0
  0
CLASS
  1
ACMTHREADLINESTANDARDISO
  2
AmdtThreadLineStdISO
  3
"Amdt_StdImp|Product Description: AutoCAD Mechanical|Company: Autodesk"
 90
        0
280
     0
281
     0
  0
CLASS
  1
ACMTHREADLINESTANDARDANSI
  2
AmdtThreadLineStdANSI
  3
"Amdt_StdImp|Product Description: AutoCAD Mechanical|Company: Autodesk"
 90
    32768
280
     0
281
     0
  0
CLASS
  1
TABLESTYLE
  2
AcDbTableStyle
  3
ObjectDBX Classes
 90
     4095
280
     0
281
     0
  0
CLASS
  1
SORTENTSTABLE
  2
AcDbSortentsTable
  3
ObjectDBX Classes
 90
        0
280
     0
281
     0
  0
CLASS
  1
ACRFATTGENMGR
  2
AcRfAttGeneralMgr
  3
AcAttribServices
 90
    32768
280
     0
281
     0
  0
CLASS
  1
MATERIAL
  2
AcDbMaterial
  3
ObjectDBX Classes
 90
     1024
280
     0
281
     0
  0
CLASS
  1
VISUALSTYLE
  2
AcDbVisualStyle
  3
ObjectDBX Classes
 90
     4095
280
     0
281
     0
  0
CLASS
  1
AMDTNOTETEMPLATEDB
  2
AmdtNoteTemplateDB
  3
AMDT_STDIMP_MODULE_NAME
 90
        0
280
     0
281
     0
  0
CLASS
  1
ACMTAPERSTANDARDDIN
  2
AcmTaperStdDIN
  3
"Amdt_StdImp|Product Description: AutoCAD Mechanical|Company: Autodesk"
 90
        0
280
     0
281
     0
  0
CLASS
  1
ACMTAPERSTANDARDISO
  2
AcmTaperStdISO
  3
"Amdt_StdImp|Product Description: AutoCAD Mechanical|Company: Autodesk"
 90
        0
280
     0
281
     0
  0
CLASS
  1
CAMSSTRUCTBTNSTATE
  2
StructBtnState
  3
L"DesignerAssemblies"
 90
        0
280
     0
281
     0
  0
ENDSEC
  0
SECTION
  2
TABLES
  0
TABLE
  2
VPORT
  5
1C
330
0
100
AcDbSymbolTable
 70
     1
  0
VPORT
  5
8E3
330
1C
100
AcDbSymbolTableRecord
100
AcDbViewportTableRecord
  2
*Active
 70
     0
 10
0.0
 20
0.0
 11
1.0
 21
1.0
 12
13.39921267063057
 22
419.2374639727553
 13
-5403.981393923409
 23
2760.242742226442
 14
2.5
 24
2.5
 15
10.0
 25
10.0
 16
0.0
 26
0.0
 36
1.0
 17
279.8052631578947
 27
217.1011557610242
 37
0.0
 40
353.7724460006459
 41
1.599382080329557
 42
50.0
 43
0.0
 44
0.0
 50
0.0
 51
0.0
 71
     0
 72
  3000
 73
     1
 74
     2
 75
     0
 76
     0
 77
     0
 78
     0
281
     0
 65
     0
110
0.0
120
0.0
130
0.0
111
1.0
121
0.0
131
0.0
112
0.0
122
1.0
132
0.0
 79
     0
146
0.0
  0
ENDTAB
  0
TABLE
  2
LTYPE
  5
17
330
0
100
AcDbSymbolTable
 70
    17
  0
LTYPE
  5
18
330
17
100
AcDbSymbolTableRecord
100
AcDbLinetypeTableRecord
  2
ByBlock
 70
     0
  3

 72
    65
 73
     0
 40
0.0
  0
LTYPE
  5
19
330
17
100
AcDbSymbolTableRecord
100
AcDbLinetypeTableRecord
  2
ByLayer
 70
     0
  3

 72
    65
 73
     0
 40
0.0
  0
LTYPE
  5
A
330
17
100
AcDbSymbolTableRecord
100
AcDbLinetypeTableRecord
  2
Continuous
 70
     0
  3
Solid line
 72
    65
 73
     0
 40
0.0
  0
LTYPE
  5
394
330
17
100
AcDbSymbolTableRecord
100
AcDbLinetypeTableRecord
  2
Amconstr
 70
     0
  3
_______________________
 72
    65
 73
     2
 40
9999.0
 49
9999.0
 74
     0
 49
0.0
 74
     0
  0
LTYPE
  5
397
330
17
100
AcDbSymbolTableRecord
100
AcDbLinetypeTableRecord
  2
Amzigzag
 70
     0
  3
/\/-/\/-/\/-/\/-/\/-/\/
 72
    65
 73
     2
 40
11.0001
 49
0.0001
 74
     4
 75
   135
340
398
 46
0.04
 50
0.0
 44
0.0
 45
0.0
 49
-11.0
 74
     0
  0
LTYPE
  5
392
330
17
100
AcDbSymbolTableRecord
100
AcDbLinetypeTableRecord
  2
AM_DIN_F_W050
 70
     0
  3
__ __ __ __ __ __ __ __ __ __ __ __ __ __ __
 72
    65
 73
     2
 40
6.25
 49
4.75
 74
     0
 49
-1.5
 74
     0
  0
LTYPE
  5
D7
330
17
100
AcDbSymbolTableRecord
100
AcDbLinetypeTableRecord
  2
AM_DIN_G_W050
 70
     0
  3
____ . ____ . ____ . ____ . ____ . ____ . ____
 72
    65
 73
     4
 40
13.75
 49
9.75
 74
     0
 49
-1.5
 74
     0
 49
1.0
 74
     0
 49
-1.5
 74
     0
  0
LTYPE
  5
393
330
17
100
AcDbSymbolTableRecord
100
AcDbLinetypeTableRecord
  2
AM_DIN_K_W050
 70
     0
  3
_____ . . _____ . . _____ . . ____ .. ____
 72
    65
 73
     6
 40
16.25
 49
9.75
 74
     0
 49
-1.5
 74
     0
 49
1.0
 74
     0
 49
-1.5
 74
     0
 49
1.0
 74
     0
 49
-1.5
 74
     0
  0
LTYPE
  5
395
330
17
100
AcDbSymbolTableRecord
100
AcDbLinetypeTableRecord
  2
AM_DIN_G_W050x2
 70
     0
  3
__ . __ . __ . __ . __ . __
 72
    65
 73
     4
 40
6.875
 49
4.75
 74
     0
 49
-0.875
 74
     0
 49
0.375
 74
     0
 49
-0.875
 74
     0
  0
LTYPE
  5
396
330
17
100
AcDbSymbolTableRecord
100
AcDbLinetypeTableRecord
  2
AM_DIN_F_W050x2
 70
     0
  3
 _ _ _ _ _ _ _ _ _ _ _ _
 72
    65
 73
     2
 40
3.125
 49
2.25
 74
     0
 49
-0.875
 74
     0
  0
LTYPE
  5
3AB
330
17
100
AcDbSymbolTableRecord
100
AcDbLinetypeTableRecord
  2
ACDINWELD
 70
     0
  3
_ _ _ _ _
 72
    65
 73
     2
 40
2.0
 49
2.0
 74
     0
 49
-1.0
 74
     0
  0
LTYPE
  5
3AE
330
17
100
AcDbSymbolTableRecord
100
AcDbLinetypeTableRecord
  2
ACDINTGB
 70
     0
  3
__ . . __ . .
 72
    65
 73
     6
 40
9.0
 49
4.0
 74
     0
 49
-1.0
 74
     0
 49
1.0
 74
     0
 49
-1.0
 74
     0
 49
1.0
 74
     0
 49
-1.0
 74
     0
  0
LTYPE
  5
3AF
330
17
100
AcDbSymbolTableRecord
100
AcDbLinetypeTableRecord
  2
ACDINTGL
 70
     0
  3
_ _ _ _ _
 72
    65
 73
     2
 40
3.0
 49
2.0
 74
     0
 49
-1.0
 74
     0
  0
LTYPE
  5
3B3
330
17
100
AcDbSymbolTableRecord
100
AcDbLinetypeTableRecord
  2
CENTER
 70
     0
  3
__ . __
 72
    65
 73
     4
 40
7.0
 49
4.0
 74
     0
 49
-1.0
 74
     0
 49
1.0
 74
     0
 49
-1.0
 74
     0
  0
LTYPE
  5
3EC
330
17
100
AcDbSymbolTableRecord
100
AcDbLinetypeTableRecord
  2
HIDDEN
 70
     0
  3
Verdeckt
 72
    65
 73
     2
 40
9.525
 49
6.349999999999998
 74
     0
 49
-3.174999999999998
 74
     0
  0
LTYPE
  5
3ED
330
17
100
AcDbSymbolTableRecord
100
AcDbLinetypeTableRecord
  2
PHANTOM2
 70
     0
  3
Phantom (.5x) ___ _ _ ___ _ _ ___ _ _ ___ _ _
 72
    65
 73
     6
 40
31.75
 49
15.875
 74
     0
 49
-3.174999999999998
 74
     0
 49
3.174999999999998
 74
     0
 49
-3.174999999999998
 74
     0
 49
3.174999999999998
 74
     0
 49
-3.174999999999998
 74
     0
  0
LTYPE
  5
9AA
330
17
100
AcDbSymbolTableRecord
100
AcDbLinetypeTableRecord
  2
ACISOWELD
 70
     0
  3
_ _ _ _ _
 72
    65
 73
     2
 40
2.0
 49
2.0
 74
     0
 49
-1.0
 74
     0
  0
LTYPE
  5
9AD
330
17
100
AcDbSymbolTableRecord
100
AcDbLinetypeTableRecord
  2
ACISOTGB
 70
     0
  3
__ . . __ . .
 72
    65
 73
     6
 40
9.0
 49
4.0
 74
     0
 49
-1.0
 74
     0
 49
1.0
 74
     0
 49
-1.0
 74
     0
 49
1.0
 74
     0
 49
-1.0
 74
     0
  0
LTYPE
  5
9AE
330
17
100
AcDbSymbolTableRecord
100
AcDbLinetypeTableRecord
  2
ACISOTGL
 70
     0
  3
_ _ _ _ _
 72
    65
 73
     2
 40
3.0
 49
2.0
 74
     0
 49
-1.0
 74
     0
  0
ENDTAB
  0
TABLE
  2
LAYER
  5
13
330
0
100
AcDbSymbolTable
 70
     8
  0
LAYER
  5
6
330
13
100
AcDbSymbolTableRecord
100
AcDbLayerTableRecord
  2
0
 70
     0
 62
     7
  6
Continuous
370
    -3
390
7
  0
LAYER
  5
2A
330
13
100
AcDbSymbolTableRecord
100
AcDbLayerTableRecord
  2
AM_0
 70
     0
 62
     7
  6
Continuous
370
    50
390
7
  0
LAYER
  5
AE
330
13
100
AcDbSymbolTableRecord
100
AcDbLayerTableRecord
  2
AM_5
 70
     0
 62
     3
  6
Continuous
370
    25
390
7
  0
LAYER
  5
B9
330
13
100
AcDbSymbolTableRecord
100
AcDbLayerTableRecord
  2
DEFPOINTS
 70
     0
 62
     7
  6
Continuous
290
     0
370
    -3
390
7
  0
LAYER
  5
D6
330
13
100
AcDbSymbolTableRecord
100
AcDbLayerTableRecord
  2
AM_7
 70
     0
 62
     4
  6
AM_DIN_G_W050
370
    -3
390
7
  0
LAYER
  5
A4
330
13
100
AcDbSymbolTableRecord
100
AcDbLayerTableRecord
  2
AM_4
 70
     0
 62
     3
  6
Continuous
370
    25
390
7
  0
LAYER
  5
14A
330
13
100
AcDbSymbolTableRecord
100
AcDbLayerTableRecord
  2
AM_6
 70
     0
 62
     2
  6
Continuous
370
    35
390
7
  0
LAYER
  5
4D7
330
13
100
AcDbSymbolTableRecord
100
AcDbLayerTableRecord
  2
AM_8
 70
     0
 62
     1
  6
Continuous
370
    25
390
7
  0
ENDTAB
  0
TABLE
  2
STYLE
  5
14
330
0
100
AcDbSymbolTable
 70
     8
  0
STYLE
  5
15
330
14
100
AcDbSymbolTableRecord
100
AcDbTextStyleTableRecord
  2
STANDARD
 70
     0
 40
0.0
 41
1.0
 50
0.0
 71
     0
 42
50.0
  3
ISOCP.SHX
  4

  0
STYLE
  5
398
330
14
100
AcDbSymbolTableRecord
100
AcDbTextStyleTableRecord
  2

 70
     1
 40
0.0
 41
1.0
 50
0.0
 71
     0
 42
2.5
  3
ltypeshp.shx
  4

  0
STYLE
  5
3A5
330
14
100
AcDbSymbolTableRecord
100
AcDbTextStyleTableRecord
  2
ACDINTS
 70
     0
 40
1.0
 41
1.0
 50
0.0
 71
     0
 42
2.5
  3
isocp.shx
  4

  0
STYLE
  5
3A9
330
14
100
AcDbSymbolTableRecord
100
AcDbTextStyleTableRecord
  2
ACDINGDT
 70
     0
 40
0.0
 41
1.0
 50
0.0
 71
     0
 42
2.5
  3
amgdt.shx
  4

  0
STYLE
  5
9A4
330
14
100
AcDbSymbolTableRecord
100
AcDbTextStyleTableRecord
  2
ACISOTS
 70
     0
 40
1.0
 41
1.0
 50
0.0
 71
     0
 42
2.5
  3
isocp.shx
  4

  0
STYLE
  5
9A8
330
14
100
AcDbSymbolTableRecord
100
AcDbTextStyleTableRecord
  2
ACISOGDT
 70
     0
 40
0.0
 41
1.0
 50
0.0
 71
     0
 42
2.5
  3
amgdt.shx
  4

  0
ENDTAB
  0
TABLE
  2
VIEW
  5
1A
330
0
100
AcDbSymbolTable
 70
     1
  0
VIEW
  5
E
330
1A
100
AcDbSymbolTableRecord
100
AcDbViewTableRecord
  2
AM_VIEW6
 70
     0
 40
445.2348449999998
 10
-57.81839965789473
 20
2.893714738975816
 41
848.9782729999998
 11
0.0
 21
0.0
 31
1.0
 12
279.8052631578947
 22
217.1011557610242
 32
0.0
 42
50.0
 43
0.0
 44
0.0
 50
0.0
 71
     0
281
     0
 72
     0
  0
ENDTAB
  0
TABLE
  2
UCS
  5
1B
330
0
100
AcDbSymbolTable
 70
     0
  0
ENDTAB
  0
TABLE
  2
APPID
  5
1E
330
0
100
AcDbSymbolTable
 70
    71
  0
APPID
  5
1F
330
1E
100
AcDbSymbolTableRecord
100
AcDbRegAppTableRecord
  2
ACAD
 70
     0
  0
APPID
  5
37
330
1E
100
AcDbSymbolTableRecord
100
AcDbRegAppTableRecord
  2
GENIUS_GENODEF_13
 70
     0
  0
APPID
  5
38
330
1E
100
AcDbSymbolTableRecord
100
AcDbRegAppTableRecord
  2
GENIUS_GENOBJ-N-FIL_13
 70
     0
  0
APPID
  5
7C
330
1E
100
AcDbSymbolTableRecord
100
AcDbRegAppTableRecord
  2
GENIUS_GENREC_14
 70
     0
  0
APPID
  5
7D
330
1E
100
AcDbSymbolTableRecord
100
AcDbRegAppTableRecord
  2
GENIUS_GENOBJ-N-REC_13
 70
     0
  0
APPID
  5
D8
330
1E
100
AcDbSymbolTableRecord
100
AcDbRegAppTableRecord
  2
GENIUS_GENOBJ-N-CEN_13
 70
     0
  0
APPID
  5
3FF
330
1E
100
AcDbSymbolTableRecord
100
AcDbRegAppTableRecord
  2
MCAD_NO_VIS
 70
     0
  0
APPID
  5
400
330
1E
100
AcDbSymbolTableRecord
100
AcDbRegAppTableRecord
  2
ACAD_TEMP_GRAPHIC
 70
     0
  0
APPID
  5
409
330
1E
100
AcDbSymbolTableRecord
100
AcDbRegAppTableRecord
  2
AD_DRAW
 70
     0
  0
APPID
  5
40C
330
1E
100
AcDbSymbolTableRecord
100
AcDbRegAppTableRecord
  2
ACATTRIBSERVICES
 70
     0
  0
APPID
  5
424
330
1E
100
AcDbSymbolTableRecord
100
AcDbRegAppTableRecord
  2
DESIGNERASSEMBLIES
 70
     0
  0
APPID
  5
42B
330
1E
100
AcDbSymbolTableRecord
100
AcDbRegAppTableRecord
  2
ACADM_DIM_EDIT
 70
     0
  0
APPID
  5
42C
330
1E
100
AcDbSymbolTableRecord
100
AcDbRegAppTableRecord
  2
AMDT_DM_ADJ
 70
     0
  0
APPID
  5
4DB
330
1E
100
AcDbSymbolTableRecord
100
AcDbRegAppTableRecord
  2
GENIUS_GENDTOL_13
 70
     0
  0
APPID
  5
4DC
330
1E
100
AcDbSymbolTableRecord
100
AcDbRegAppTableRecord
  2
GENIUS_GENOBJ-N-HTC_13
 70
     0
  0
APPID
  5
4DD
330
1E
100
AcDbSymbolTableRecord
100
AcDbRegAppTableRecord
  2
GENIUS_GENHATCH_13
 70
     0
  0
APPID
  5
904
330
1E
100
AcDbSymbolTableRecord
100
AcDbRegAppTableRecord
  2
GENIUS_GENDIM_13
 70
     0
  0
APPID
  5
905
330
1E
100
AcDbSymbolTableRecord
100
AcDbRegAppTableRecord
  2
GENIUS_GE3DTOL_13
 70
     0
  0
APPID
  5
906
330
1E
100
AcDbSymbolTableRecord
100
AcDbRegAppTableRecord
  2
ASURF_PCURVE_APPNAME
 70
     0
  0
APPID
  5
907
330
1E
100
AcDbSymbolTableRecord
100
AcDbRegAppTableRecord
  2
AMG_3D2D_5.0
 70
     0
  0
APPID
  5
908
330
1E
100
AcDbSymbolTableRecord
100
AcDbRegAppTableRecord
  2
GENIUS_GENCFG_13
 70
     0
  0
APPID
  5
909
330
1E
100
AcDbSymbolTableRecord
100
AcDbRegAppTableRecord
  2
GENIUS_GEVCFG0_13
 70
     0
  0
APPID
  5
90A
330
1E
100
AcDbSymbolTableRecord
100
AcDbRegAppTableRecord
  2
GENIUS_GENCFG0_13
 70
     0
  0
APPID
  5
90B
330
1E
100
AcDbSymbolTableRecord
100
AcDbRegAppTableRecord
  2
GENIUS_GENCFG1_13
 70
     0
  0
APPID
  5
90C
330
1E
100
AcDbSymbolTableRecord
100
AcDbRegAppTableRecord
  2
GENIUS_GENCFG2_13
 70
     0
  0
APPID
  5
90D
330
1E
100
AcDbSymbolTableRecord
100
AcDbRegAppTableRecord
  2
GENIUS_GENCFG3_13
 70
     0
  0
APPID
  5
90E
330
1E
100
AcDbSymbolTableRecord
100
AcDbRegAppTableRecord
  2
GENIUS_GENCFG4_13
 70
     0
  0
APPID
  5
90F
330
1E
100
AcDbSymbolTableRecord
100
AcDbRegAppTableRecord
  2
GENIUS_GEFCFG0_13
 70
     0
  0
APPID
  5
910
330
1E
100
AcDbSymbolTableRecord
100
AcDbRegAppTableRecord
  2
GENIUS_GENBLKED_14
 70
     0
  0
APPID
  5
911
330
1E
100
AcDbSymbolTableRecord
100
AcDbRegAppTableRecord
  2
GENIUS_GENBLLY_14
 70
     0
  0
APPID
  5
912
330
1E
100
AcDbSymbolTableRecord
100
AcDbRegAppTableRecord
  2
GENIUS_GENTRA_14
 70
     0
  0
APPID
  5
913
330
1E
100
AcDbSymbolTableRecord
100
AcDbRegAppTableRecord
  2
GENIUS_GENOBJ-N-TIT_13
 70
     0
  0
APPID
  5
914
330
1E
100
AcDbSymbolTableRecord
100
AcDbRegAppTableRecord
  2
GENIUS_GENTITLE_13
 70
     0
  0
APPID
  5
915
330
1E
100
AcDbSymbolTableRecord
100
AcDbRegAppTableRecord
  2
GENIUS_GENOENT_13
 70
     0
  0
APPID
  5
916
330
1E
100
AcDbSymbolTableRecord
100
AcDbRegAppTableRecord
  2
GENIUS_GENOREF_13
 70
     0
  0
APPID
  5
917
330
1E
100
AcDbSymbolTableRecord
100
AcDbRegAppTableRecord
  2
GENIUS_GENOLIS_13
 70
     0
  0
APPID
  5
918
330
1E
100
AcDbSymbolTableRecord
100
AcDbRegAppTableRecord
  2
GENIUS_GENZVEED_13
 70
     0
  0
APPID
  5
919
330
1E
100
AcDbSymbolTableRecord
100
AcDbRegAppTableRecord
  2
GENIUS_GENOBJ-N-SDF_13
 70
     0
  0
APPID
  5
91A
330
1E
100
AcDbSymbolTableRecord
100
AcDbRegAppTableRecord
  2
GENIUS_GENSCREG_13
 70
     0
  0
APPID
  5
91B
330
1E
100
AcDbSymbolTableRecord
100
AcDbRegAppTableRecord
  2
GENIUS_GENSCREG_15
 70
     0
  0
APPID
  5
91C
330
1E
100
AcDbSymbolTableRecord
100
AcDbRegAppTableRecord
  2
DCO15
 70
     0
  0
APPID
  5
91D
330
1E
100
AcDbSymbolTableRecord
100
AcDbRegAppTableRecord
  2
GENIUS_GENBH_13
 70
     0
  0
APPID
  5
91E
330
1E
100
AcDbSymbolTableRecord
100
AcDbRegAppTableRecord
  2
GENIUS_GENOBJ-NBEHI-BHB_13
 70
     0
  0
APPID
  5
91F
330
1E
100
AcDbSymbolTableRecord
100
AcDbRegAppTableRecord
  2
GENIUS_GENHINW_13
 70
     0
  0
APPID
  5
920
330
1E
100
AcDbSymbolTableRecord
100
AcDbRegAppTableRecord
  2
GENIUS_FIRSTVISTXT_14
 70
     0
  0
APPID
  5
921
330
1E
100
AcDbSymbolTableRecord
100
AcDbRegAppTableRecord
  2
GENIUS_GENOBJ-N-LEADER_13
 70
     0
  0
APPID
  5
922
330
1E
100
AcDbSymbolTableRecord
100
AcDbRegAppTableRecord
  2
GENIUS_SECONDVISTXT_14
 70
     0
  0
APPID
  5
923
330
1E
100
AcDbSymbolTableRecord
100
AcDbRegAppTableRecord
  2
GENIUS_GENOBJ-N-HINW_13
 70
     0
  0
APPID
  5
924
330
1E
100
AcDbSymbolTableRecord
100
AcDbRegAppTableRecord
  2
GENIUS_GEFWELD_13
 70
     0
  0
APPID
  5
925
330
1E
100
AcDbSymbolTableRecord
100
AcDbRegAppTableRecord
  2
GENIUS_GENOBJ-F-WEL_13
 70
     0
  0
APPID
  5
926
330
1E
100
AcDbSymbolTableRecord
100
AcDbRegAppTableRecord
  2
GENIUS_GENOBJ-NBEHI-BHF_13
 70
     0
  0
APPID
  5
927
330
1E
100
AcDbSymbolTableRecord
100
AcDbRegAppTableRecord
  2
GENIUS_GENOBJ-F-SCPASSM_13
 70
     0
  0
APPID
  5
928
330
1E
100
AcDbSymbolTableRecord
100
AcDbRegAppTableRecord
  2
GENIUS_GENIUS_GENBHEDTMP_13
 70
     0
  0
APPID
  5
929
330
1E
100
AcDbSymbolTableRecord
100
AcDbRegAppTableRecord
  2
GEVID1032351709
 70
     0
  0
APPID
  5
92A
330
1E
100
AcDbSymbolTableRecord
100
AcDbRegAppTableRecord
  2
GEVDC
 70
     0
  0
APPID
  5
92B
330
1E
100
AcDbSymbolTableRecord
100
AcDbRegAppTableRecord
  2
GENIUS_GENDIMSH_14
 70
     0
  0
APPID
  5
92C
330
1E
100
AcDbSymbolTableRecord
100
AcDbRegAppTableRecord
  2
GEVID980252217
 70
     0
  0
APPID
  5
92D
330
1E
100
AcDbSymbolTableRecord
100
AcDbRegAppTableRecord
  2
GEVPT
 70
     0
  0
APPID
  5
92E
330
1E
100
AcDbSymbolTableRecord
100
AcDbRegAppTableRecord
  2
GEVIT
 70
     0
  0
APPID
  5
92F
330
1E
100
AcDbSymbolTableRecord
100
AcDbRegAppTableRecord
  2
VCC
 70
     0
  0
APPID
  5
930
330
1E
100
AcDbSymbolTableRecord
100
AcDbRegAppTableRecord
  2
GENIUS_GENOBJ-F-PART_13
 70
     0
  0
APPID
  5
931
330
1E
100
AcDbSymbolTableRecord
100
AcDbRegAppTableRecord
  2
GENIUS_GEFSTDP_13
 70
     0
  0
APPID
  5
932
330
1E
100
AcDbSymbolTableRecord
100
AcDbRegAppTableRecord
  2
GENIUS_GEFPARTINS_13
 70
     0
  0
APPID
  5
933
330
1E
100
AcDbSymbolTableRecord
100
AcDbRegAppTableRecord
  2
GEVID980252219
 70
     0
  0
APPID
  5
934
330
1E
100
AcDbSymbolTableRecord
100
AcDbRegAppTableRecord
  2
GENBH
 70
     0
  0
APPID
  5
935
330
1E
100
AcDbSymbolTableRecord
100
AcDbRegAppTableRecord
  2
GENIUS_GENOBJ-F-WELS_13
 70
     0
  0
APPID
  5
936
330
1E
100
AcDbSymbolTableRecord
100
AcDbRegAppTableRecord
  2
GENIUS_GENOBJ-N-CRS_13
 70
     0
  0
APPID
  5
937
330
1E
100
AcDbSymbolTableRecord
100
AcDbRegAppTableRecord
  2
GEVID1036052968
 70
     0
  0
APPID
  5
938
330
1E
100
AcDbSymbolTableRecord
100
AcDbRegAppTableRecord
  2
GEVID1036052969
 70
     0
  0
APPID
  5
939
330
1E
100
AcDbSymbolTableRecord
100
AcDbRegAppTableRecord
  2
GEVID1036052971
 70
     0
  0
APPID
  5
93A
330
1E
100
AcDbSymbolTableRecord
100
AcDbRegAppTableRecord
  2
GENIUS_GENOBJ-N-DIM_13
 70
     0
  0
ENDTAB
  0
TABLE
  2
DIMSTYLE
  5
20
330
0
100
AcDbSymbolTable
 70
    17
100
AcDbDimStyleTable
 71
     1
340
21
  0
DIMSTYLE
105
21
102
{ACAD_REACTORS
330
68E
330
690
330
691
330
76B
102
}
330
20
100
AcDbSymbolTableRecord
100
AcDbDimStyleTableRecord
  2
AM_DIN
 70
     0
  4
"
 41
2.5
 42
0.0
 43
10.0
 44
1.0
 47
0.1
 48
0.1
 73
     0
 74
     0
 77
     1
 78
     8
 79
     2
140
3.0
141
0.0
143
0.0393701
146
0.71
147
0.7
172
     1
176
   256
177
   256
178
     2
271
     2
272
     2
283
     0
284
     8
340
15
371
    -1
372
    -1
  0
DIMSTYLE
105
3B9
330
20
100
AcDbSymbolTableRecord
100
AcDbDimStyleTableRecord
  2
AM_DIN$3
 70
     0
  4
"
 41
2.5
 42
1.0
 43
10.0
 44
1.0
 47
0.1
 48
0.1
 73
     0
 77
     1
 78
     8
 79
     2
140
3.5
141
0.0
143
0.0393701
146
0.71
147
1.5
176
   256
177
   256
178
     2
271
     2
272
     3
274
     4
283
     0
284
     8
288
     1
289
     0
340
15
371
    -1
372
    -1
  0
DIMSTYLE
105
3BA
330
20
100
AcDbSymbolTableRecord
100
AcDbDimStyleTableRecord
  2
AM_DIN$4
 70
     0
  4
"
 41
2.5
 42
1.0
 43
10.0
 44
1.0
 47
0.1
 48
0.1
 73
     0
 77
     1
 78
     8
 79
     2
140
3.5
141
0.0
143
0.0393701
146
0.71
147
1.5
176
   256
177
   256
178
     2
271
     2
272
     3
279
     1
283
     0
284
     8
288
     1
289
     0
340
15
371
    -1
372
    -1
  0
DIMSTYLE
105
3BB
330
20
100
AcDbSymbolTableRecord
100
AcDbDimStyleTableRecord
  2
AM_DIN$6
 70
     0
  4
"
 41
2.5
 42
1.0
 43
10.0
 44
1.0
 47
0.1
 48
0.1
 73
     0
 74
     0
 78
     8
 79
     2
140
3.5
141
0.0
143
0.0393701
146
0.71
147
1.5
172
     1
176
   256
177
   256
178
     2
271
     2
272
     3
283
     0
284
     8
340
15
371
    -1
372
    -1
  0
DIMSTYLE
105
3BC
330
20
100
AcDbSymbolTableRecord
100
AcDbDimStyleTableRecord
  2
AM_DIN$7
 70
     0
  4
"
 41
2.5
 42
1.0
 43
10.0
 44
1.0
 47
0.1
 48
0.1
 73
     0
 74
     0
 77
     1
 78
     8
 79
     2
140
5.0
141
0.0
143
0.0393701
146
0.71
147
1.5
172
     1
176
   256
177
   256
178
     2
271
     2
272
     3
274
     4
283
     0
284
     8
340
15
371
    -1
372
    -1
  0
DIMSTYLE
105
3BD
330
20
100
AcDbSymbolTableRecord
100
AcDbDimStyleTableRecord
  2
AM_DIN$SF
 70
     0
  4
"
 41
2.5
 42
1.0
 43
10.0
 44
1.0
 47
0.1
 48
0.1
 73
     0
 74
     0
 75
     1
 76
     1
 77
     1
 78
     8
 79
     2
140
3.5
141
0.0
143
0.0393701
146
0.71
147
1.5
172
     1
176
   256
177
   256
178
     2
271
     2
272
     3
274
     4
283
     0
284
     8
340
15
371
    -1
372
    -1
  0
DIMSTYLE
105
3BE
330
20
100
AcDbSymbolTableRecord
100
AcDbDimStyleTableRecord
  2
AM_DIN$SH
 70
     0
  4
"
 41
2.5
 42
1.0
 43
10.0
 44
1.0
 47
0.1
 48
0.1
 73
     0
 74
     0
 75
     1
 76
     1
 77
     1
 78
     8
 79
     2
140
3.5
141
0.0
143
0.0393701
144
2.0
146
0.71
147
1.5
172
     1
173
     1
176
   256
177
   256
178
     2
271
     2
272
     3
274
     4
283
     0
284
     8
340
15
343
3BF
371
    -1
372
    -1
  0
DIMSTYLE
105
9B6
330
20
100
AcDbSymbolTableRecord
100
AcDbDimStyleTableRecord
  2
AM_ISO
 70
     0
  4
"
 41
2.5
 42
1.0
 43
10.0
 44
1.0
 47
0.1
 48
0.1
 73
     0
 74
     0
 77
     1
 78
     8
 79
     2
140
3.5
141
0.0
143
0.0393701
146
0.71
147
1.5
172
     1
176
   256
177
   256
178
     2
271
     2
272
     3
274
     4
283
     0
284
     8
340
15
371
    -1
372
    -1
  0
DIMSTYLE
105
9B7
330
20
100
AcDbSymbolTableRecord
100
AcDbDimStyleTableRecord
  2
AM_ISO$3
 70
     0
  4
"
 41
2.5
 42
1.0
 43
10.0
 44
1.0
 47
0.1
 48
0.1
 73
     0
 77
     1
 78
     8
 79
     2
140
3.5
141
0.0
143
0.0393701
146
0.71
147
1.5
176
   256
177
   256
178
     2
271
     2
272
     3
274
     4
283
     0
284
     8
288
     1
289
     0
340
15
371
    -1
372
    -1
  0
DIMSTYLE
105
9B8
330
20
100
AcDbSymbolTableRecord
100
AcDbDimStyleTableRecord
  2
AM_ISO$4
 70
     0
  4
"
 41
2.5
 42
1.0
 43
10.0
 44
1.0
 47
0.1
 48
0.1
 73
     0
 77
     1
 78
     8
 79
     2
140
3.5
141
0.0
143
0.0393701
146
0.71
147
1.5
176
   256
177
   256
178
     2
271
     2
272
     3
274
     4
283
     0
284
     8
288
     1
289
     0
340
15
371
    -1
372
    -1
  0
DIMSTYLE
105
9B9
330
20
100
AcDbSymbolTableRecord
100
AcDbDimStyleTableRecord
  2
AM_ISO$6
 70
     0
  4
"
 41
2.5
 42
1.0
 43
10.0
 44
1.0
 47
0.1
 48
0.1
 73
     0
 74
     0
 78
     8
 79
     2
140
3.5
141
0.0
143
0.0393701
146
0.71
147
1.5
172
     1
176
   256
177
   256
178
     2
271
     2
272
     3
274
     4
283
     0
284
     8
340
15
371
    -1
372
    -1
  0
DIMSTYLE
105
9BA
330
20
100
AcDbSymbolTableRecord
100
AcDbDimStyleTableRecord
  2
AM_ISO$7
 70
     0
  4
"
 41
2.5
 42
1.0
 43
10.0
 44
1.0
 47
0.1
 48
0.1
 73
     0
 74
     0
 77
     1
 78
     8
 79
     2
140
5.0
141
0.0
143
0.0393701
146
0.71
147
1.5
172
     1
176
   256
177
   256
178
     2
271
     2
272
     3
274
     4
283
     0
284
     8
340
15
371
    -1
372
    -1
  0
DIMSTYLE
105
9BB
330
20
100
AcDbSymbolTableRecord
100
AcDbDimStyleTableRecord
  2
AM_ISO$SF
 70
     0
  4
"
 41
2.5
 42
1.0
 43
10.0
 44
1.0
 47
0.1
 48
0.1
 73
     0
 74
     0
 75
     1
 76
     1
 77
     1
 78
     8
 79
     2
140
3.5
141
0.0
143
0.0393701
146
0.71
147
1.5
172
     1
176
   256
177
   256
178
     2
271
     2
272
     3
274
     4
283
     0
284
     8
340
15
371
    -1
372
    -1
  0
DIMSTYLE
105
9BC
330
20
100
AcDbSymbolTableRecord
100
AcDbDimStyleTableRecord
  2
AM_ISO$SH
 70
     0
  4
"
 41
2.5
 42
1.0
 43
10.0
 44
1.0
 47
0.1
 48
0.1
 73
     0
 74
     0
 75
     1
 76
     1
 77
     1
 78
     8
 79
     2
140
3.5
141
0.0
143
0.0393701
144
2.0
146
0.71
147
1.5
172
     1
173
     1
176
   256
177
   256
178
     2
271
     2
272
     3
274
     4
283
     0
284
     8
340
15
343
3BF
371
    -1
372
    -1
  0
ENDTAB
  0
TABLE
  2
BLOCK_RECORD
  5
1
330
0
100
AcDbSymbolTable
 70
    10
  0
BLOCK_RECORD
  5
2
102
{ACAD_XDICTIONARY
360
3
102
}
330
1
100
AcDbSymbolTableRecord
100
AcDbBlockTableRecord
  2
*Model_Space
340
C
  0
BLOCK_RECORD
  5
F
330
1
100
AcDbSymbolTableRecord
100
AcDbBlockTableRecord
  2
*Paper_Space
340
12
  0
BLOCK_RECORD
  5
3BF
330
1
100
AcDbSymbolTableRecord
100
AcDbBlockTableRecord
  2
GENAXEH
340
0
  0
BLOCK_RECORD
  5
461
330
1
100
AcDbSymbolTableRecord
100
AcDbBlockTableRecord
  2
*X1
340
0
  0
BLOCK_RECORD
  5
471
330
1
100
AcDbSymbolTableRecord
100
AcDbBlockTableRecord
  2
*X2
340
0
  0
BLOCK_RECORD
  5
83D
330
1
100
AcDbSymbolTableRecord
100
AcDbBlockTableRecord
  2
*D3
340
0
  0
BLOCK_RECORD
  5
849
330
1
100
AcDbSymbolTableRecord
100
AcDbBlockTableRecord
  2
*D4
340
0
  0
BLOCK_RECORD
  5
855
330
1
100
AcDbSymbolTableRecord
100
AcDbBlockTableRecord
  2
*D5
340
0
  0
BLOCK_RECORD
  5
861
330
1
100
AcDbSymbolTableRecord
100
AcDbBlockTableRecord
  2
*D6
340
0
  0
ENDTAB
  0
ENDSEC
  0
SECTION
  2
BLOCKS
  0
BLOCK
  5
5
330
2
100
AcDbEntity
  8
0
100
AcDbBlockBegin
  2
*Model_Space
 70
     0
 10
0.0
 20
0.0
 30
0.0
  3
*Model_Space
  1

  0
ENDBLK
  5
B
330
2
100
AcDbEntity
  8
0
100
AcDbBlockEnd
  0
BLOCK
  5
10
330
F
100
AcDbEntity
 67
     1
  8
0
100
AcDbBlockBegin
  2
*Paper_Space
 70
     0
 10
0.0
 20
0.0
 30
0.0
  3
*Paper_Space
  1

  0
ENDBLK
  5
11
330
F
100
AcDbEntity
 67
     1
  8
0
100
AcDbBlockEnd
  0
BLOCK
  5
998
330
3BF
100
AcDbEntity
  8
0
100
AcDbBlockBegin
  2
GENAXEH
 70
     0
 10
0.0
 20
0.0
 30
0.0
  3
GENAXEH
  1

  0
LINE
  5
999
330
3BF
100
AcDbEntity
  8
0
100
AcDbLine
 10
-1.0
 20
0.0
 30
0.0
 11
1.0
 21
0.0
 31
0.0
  0
ENDBLK
  5
99A
330
3BF
100
AcDbEntity
  8
0
100
AcDbBlockEnd
  0
BLOCK
  5
462
330
461
100
AcDbEntity
  8
0
100
AcDbBlockBegin
  2
*X1
 70
     1
 10
0.0
 20
0.0
 30
0.0
  3
*X1
  1

  0
LINE
  5
463
330
461
100
AcDbEntity
  8
0
 62
     0
100
AcDbLine
 10
108.8718853648483
 20
202.2099804814725
 30
0.0
 11
110.8718853648483
 21
204.2099804814725
 31
0.0
  0
LINE
  5
464
330
461
100
AcDbEntity
  8
0
 62
     0
100
AcDbLine
 10
106.0434582401021
 20
202.2099804814725
 30
0.0
 11
108.0434582401021
 21
204.2099804814725
 31
0.0
  0
LINE
  5
465
330
461
100
AcDbEntity
  8
0
 62
     0
100
AcDbLine
 10
103.2150311153559
 20
202.2099804814725
 30
0.0
 11
105.2150311153559
 21
204.2099804814725
 31
0.0
  0
LINE
  5
466
330
461
100
AcDbEntity
  8
0
 62
     0
100
AcDbLine
 10
100.3866039906097
 20
202.2099804814725
 30
0.0
 11
102.3866039906097
 21
204.2099804814725
 31
0.0
  0
LINE
  5
467
330
461
100
AcDbEntity
  8
0
 62
     0
100
AcDbLine
 10
97.55817686586356
 20
202.2099804814725
 30
0.0
 11
99.55817686586351
 21
204.2099804814725
 31
0.0
  0
LINE
  5
468
330
461
100
AcDbEntity
  8
0
 62
     0
100
AcDbLine
 10
94.72974974111734
 20
202.2099804814725
 30
0.0
 11
96.72974974111731
 21
204.2099804814725
 31
0.0
  0
LINE
  5
469
330
461
100
AcDbEntity
  8
0
 62
     0
100
AcDbLine
 10
91.90132261637115
 20
202.2099804814725
 30
0.0
 11
93.90132261637116
 21
204.2099804814725
 31
0.0
  0
LINE
  5
46A
330
461
100
AcDbEntity
  8
0
 62
     0
100
AcDbLine
 10
111.7003124895945
 20
202.2099804814725
 30
0.0
 11
113.7003124895945
 21
204.2099804814725
 31
0.0
  0
LINE
  5
46B
330
461
100
AcDbEntity
  8
0
 62
     0
100
AcDbLine
 10
114.5287396143406
 20
202.2099804814725
 30
0.0
 11
116.5287396143406
 21
204.2099804814725
 31
0.0
  0
LINE
  5
46C
330
461
100
AcDbEntity
  8
0
 62
     0
100
AcDbLine
 10
117.3571667390868
 20
202.2099804814725
 30
0.0
 11
119.3571667390868
 21
204.2099804814725
 31
0.0
  0
LINE
  5
46D
330
461
100
AcDbEntity
  8
0
 62
     0
100
AcDbLine
 10
120.185593863833
 20
202.2099804814725
 30
0.0
 11
122.185593863833
 21
204.2099804814725
 31
0.0
  0
LINE
  5
46E
330
461
100
AcDbEntity
  8
0
 62
     0
100
AcDbLine
 10
123.0140209885792
 20
202.2099804814725
 30
0.0
 11
125.0140209885792
 21
204.2099804814725
 31
0.0
  0
LINE
  5
46F
330
461
100
AcDbEntity
  8
0
 62
     0
100
AcDbLine
 10
125.8424481133254
 20
202.2099804814725
 30
0.0
 11
127.0558006518747
 21
203.4233330200218
 31
0.0
  0
ENDBLK
  5
470
330
461
100
AcDbEntity
  8
0
100
AcDbBlockEnd
  0
BLOCK
  5
472
330
471
100
AcDbEntity
  8
0
100
AcDbBlockBegin
  2
*X2
 70
     1
 10
0.0
 20
0.0
 30
0.0
  3
*X2
  1

  0
LINE
  5
473
330
471
100
AcDbEntity
  8
0
 62
     0
100
AcDbLine
 10
109.887729487564
 20
177.7699804814725
 30
0.0
 11
111.887729487564
 21
179.7699804814725
 31
0.0
  0
LINE
  5
474
330
471
100
AcDbEntity
  8
0
 62
     0
100
AcDbLine
 10
107.0593023628178
 20
177.7699804814725
 30
0.0
 11
109.0593023628178
 21
179.7699804814725
 31
0.0
  0
LINE
  5
475
330
471
100
AcDbEntity
  8
0
 62
     0
100
AcDbLine
 10
104.2308752380716
 20
177.7699804814725
 30
0.0
 11
106.2308752380716
 21
179.7699804814725
 31
0.0
  0
LINE
  5
476
330
471
100
AcDbEntity
  8
0
 62
     0
100
AcDbLine
 10
101.4024481133254
 20
177.7699804814725
 30
0.0
 11
103.4024481133254
 21
179.7699804814725
 31
0.0
  0
LINE
  5
477
330
471
100
AcDbEntity
  8
0
 62
     0
100
AcDbLine
 10
98.57402098857924
 20
177.7699804814725
 30
0.0
 11
99.80373911148285
 21
178.9996986043761
 31
0.0
  0
LINE
  5
478
330
471
100
AcDbEntity
  8
0
 62
     0
100
AcDbLine
 10
100.0016803725751
 20
179.1976398654684
 30
0.0
 11
100.5740209885792
 21
179.7699804814725
 31
0.0
  0
LINE
  5
479
330
471
100
AcDbEntity
  8
0
 62
     0
100
AcDbLine
 10
95.74559386383306
 20
177.7699804814725
 30
0.0
 11
97.74559386383305
 21
179.7699804814725
 31
0.0
  0
LINE
  5
47A
330
471
100
AcDbEntity
  8
0
 62
     0
100
AcDbLine
 10
92.91716673908686
 20
177.7699804814725
 30
0.0
 11
94.91716673908683
 21
179.7699804814725
 31
0.0
  0
LINE
  5
47B
330
471
100
AcDbEntity
  8
0
 62
     0
100
AcDbLine
 10
90.08873961434067
 20
177.7699804814725
 30
0.0
 11
92.08873961434068
 21
179.7699804814725
 31
0.0
  0
LINE
  5
47C
330
471
100
AcDbEntity
  8
0
 62
     0
100
AcDbLine
 10
112.7161566123102
 20
177.7699804814725
 30
0.0
 11
114.7161566123102
 21
179.7699804814725
 31
0.0
  0
LINE
  5
47D
330
471
100
AcDbEntity
  8
0
 62
     0
100
AcDbLine
 10
115.5445837370564
 20
177.7699804814725
 30
0.0
 11
117.5445837370563
 21
179.7699804814725
 31
0.0
  0
LINE
  5
47E
330
471
100
AcDbEntity
  8
0
 62
     0
100
AcDbLine
 10
118.3730108618026
 20
177.7699804814725
 30
0.0
 11
120.3730108618025
 21
179.7699804814725
 31
0.0
  0
LINE
  5
47F
330
471
100
AcDbEntity
  8
0
 62
     0
100
AcDbLine
 10
121.2014379865487
 20
177.7699804814725
 30
0.0
 11
123.2014379865487
 21
179.7699804814725
 31
0.0
  0
LINE
  5
480
330
471
100
AcDbEntity
  8
0
 62
     0
100
AcDbLine
 10
124.0298651112949
 20
177.7699804814725
 30
0.0
 11
126.0298651112949
 21
179.7699804814725
 31
0.0
  0
ENDBLK
  5
481
330
471
100
AcDbEntity
  8
0
100
AcDbBlockEnd
  0
BLOCK
  5
847
330
83D
100
AcDbEntity
  8
0
100
AcDbBlockBegin
  2
*D3
 70
     1
 10
0.0
 20
0.0
 30
0.0
  3
*D3
  1

  0
LINE
  5
8AE
330
83D
100
AcDbEntity
  8
AM_5
100
AcDbLine
 10
88.27842751820559
 20
694.8245197321774
 30
0.0
 11
88.27842751820559
 21
695.8245197321772
 31
0.0
  0
LINE
  5
8AF
330
83D
100
AcDbEntity
  8
AM_5
100
AcDbLine
 10
294.2784275182061
 20
694.8245197321774
 30
0.0
 11
294.2784275182061
 21
695.8245197321772
 31
0.0
  0
LINE
  5
8B0
330
83D
100
AcDbEntity
  8
AM_5
100
AcDbLine
 10
90.77842751820559
 20
694.8245197321774
 30
0.0
 11
291.7784275182061
 21
694.8245197321774
 31
0.0
  0
SOLID
  5
8B1
330
83D
100
AcDbEntity
  8
AM_5
100
AcDbTrace
 10
90.77842751820559
 20
695.2411863988438
 30
0.0
 11
90.77842751820559
 21
694.4078530655107
 31
0.0
 12
88.27842751820559
 22
694.8245197321774
 32
0.0
 13
88.27842751820559
 23
694.8245197321774
 33
0.0
  0
SOLID
  5
8B2
330
83D
100
AcDbEntity
  8
AM_5
100
AcDbTrace
 10
291.7784275182061
 20
695.2411863988438
 30
0.0
 11
291.7784275182061
 21
694.4078530655107
 31
0.0
 12
294.2784275182061
 22
694.8245197321774
 32
0.0
 13
294.2784275182061
 23
694.8245197321774
 33
0.0
  0
MTEXT
  5
8B3
330
83D
100
AcDbEntity
  8
AM_5
 62
     2
100
AcDbMText
 10
136.1744056669989
 20
697.2748642203661
 30
0.0
 40
3.5
 41
0.0
 71
     5
 72
     1
  1
%%c206
 73
     1
 44
1.0
1001
ACAD
1000
MTEXTBEGIN
1070
    73
1070
     1
1070
    44
1040
1.0
1070
    74
1070
     0
1000
MTEXTEND
  0
POINT
  5
8B4
330
83D
100
AcDbEntity
  8
DEFPOINTS
 62
     0
100
AcDbPoint
 10
88.27842751820559
 20
694.8245197321774
 30
0.0
  0
POINT
  5
8B5
330
83D
100
AcDbEntity
  8
DEFPOINTS
 62
     0
100
AcDbPoint
 10
294.2784275182061
 20
694.8245197321774
 30
0.0
  0
POINT
  5
8B6
330
83D
100
AcDbEntity
  8
DEFPOINTS
 62
     0
100
AcDbPoint
 10
294.2784275182061
 20
694.8245197321774
 30
0.0
  0
ENDBLK
  5
848
330
83D
100
AcDbEntity
  8
0
100
AcDbBlockEnd
  0
BLOCK
  5
853
330
849
100
AcDbEntity
  8
0
100
AcDbBlockBegin
  2
*D4
 70
     1
 10
0.0
 20
0.0
 30
0.0
  3
*D4
  1

  0
LINE
  5
8B7
330
849
100
AcDbEntity
  8
AM_5
100
AcDbLine
 10
188.0364539630958
 20
781.8566146836648
 30
0.0
 11
72.39529676525075
 21
781.8566146836648
 31
0.0
  0
LINE
  5
8B8
330
849
100
AcDbEntity
  8
AM_5
100
AcDbLine
 10
148.743173896549
 20
507.9297103472493
 30
0.0
 11
72.39529676525068
 21
507.9297103472493
 31
0.0
  0
LINE
  5
8B9
330
849
100
AcDbEntity
  8
AM_5
100
AcDbLine
 10
73.39529676525073
 20
779.3566146836647
 30
0.0
 11
73.39529676525067
 21
510.4297103472492
 31
0.0
  0
SOLID
  5
8BA
330
849
100
AcDbEntity
  8
AM_5
100
AcDbTrace
 10
72.97863009858406
 20
779.3566146836647
 30
0.0
 11
73.81196343191742
 21
779.3566146836647
 31
0.0
 12
73.39529676525073
 22
781.8566146836648
 32
0.0
 13
73.39529676525073
 23
781.8566146836648
 33
0.0
  0
SOLID
  5
8BB
330
849
100
AcDbEntity
  8
AM_5
100
AcDbTrace
 10
72.97863009858402
 20
510.4297103472492
 30
0.0
 11
73.81196343191736
 21
510.4297103472492
 31
0.0
 12
73.39529676525067
 22
507.9297103472493
 32
0.0
 13
73.39529676525067
 23
507.9297103472493
 33
0.0
  0
MTEXT
  5
8BC
330
849
100
AcDbEntity
  8
AM_5
 62
     2
100
AcDbMText
 10
70.94495227706166
 20
644.8931625154571
 30
0.0
 40
3.5
 41
0.0
 71
     5
 72
     1
  1
274 {}{\C2;%%p3}
 11
0.0000000000000001
 21
1.0
 31
0.0
 73
     1
 44
1.0
1001
ACAD
1000
MTEXTBEGIN
1070
    73
1070
     1
1070
    44
1040
1.0
1070
    74
1070
     0
1000
MTEXTEND
  0
POINT
  5
8BD
330
849
100
AcDbEntity
  8
DEFPOINTS
 62
     0
100
AcDbPoint
 10
188.0364539630958
 20
781.8566146836648
 30
0.0
  0
POINT
  5
8BE
330
849
100
AcDbEntity
  8
DEFPOINTS
 62
     0
100
AcDbPoint
 10
148.743173896549
 20
507.9297103472493
 30
0.0
  0
POINT
  5
8BF
330
849
100
AcDbEntity
  8
DEFPOINTS
 62
     0
100
AcDbPoint
 10
73.39529676525067
 20
507.9297103472493
 30
0.0
  0
ENDBLK
  5
854
330
849
100
AcDbEntity
  8
0
100
AcDbBlockEnd
  0
BLOCK
  5
85F
330
855
100
AcDbEntity
  8
0
100
AcDbBlockBegin
  2
*D5
 70
     1
 10
0.0
 20
0.0
 30
0.0
  3
*D5
  1

  0
LINE
  5
8C0
330
855
100
AcDbEntity
  8
AM_5
100
AcDbLine
 10
180.0584275182058
 20
483.2795032037909
 30
0.0
 11
59.28059077598237
 21
483.279503203791
 31
0.0
  0
LINE
  5
8C1
330
855
100
AcDbEntity
  8
AM_5
100
AcDbLine
 10
187.9075882859355
 20
808.6131979219524
 30
0.0
 11
59.28059077598244
 21
808.6131979219524
 31
0.0
  0
LINE
  5
8C2
330
855
100
AcDbEntity
  8
AM_5
100
AcDbLine
 10
60.28059077598236
 20
485.7795032037909
 30
0.0
 11
60.28059077598243
 21
806.1131979219524
 31
0.0
  0
SOLID
  5
8C3
330
855
100
AcDbEntity
  8
AM_5
100
AcDbTrace
 10
59.8639241093157
 20
485.7795032037909
 30
0.0
 11
60.69725744264903
 21
485.7795032037909
 31
0.0
 12
60.28059077598236
 22
483.279503203791
 32
0.0
 13
60.28059077598236
 23
483.279503203791
 33
0.0
  0
SOLID
  5
8C4
330
855
100
AcDbEntity
  8
AM_5
100
AcDbTrace
 10
59.86392410931578
 20
806.1131979219524
 30
0.0
 11
60.6972574426491
 21
806.1131979219524
 31
0.0
 12
60.28059077598243
 22
808.6131979219524
 32
0.0
 13
60.28059077598243
 23
808.6131979219524
 33
0.0
  0
MTEXT
  5
8C5
330
855
100
AcDbEntity
  8
AM_5
 62
     2
100
AcDbMText
 10
57.83024628779332
 20
645.9463505628717
 30
0.0
 40
3.5
 41
0.0
 71
     5
 72
     1
  1
325 {}{\C2;%%p5}
 11
0.0000000000000001
 21
1.0
 31
0.0
 73
     1
 44
1.0
1001
ACAD
1000
MTEXTBEGIN
1070
    73
1070
     1
1070
    44
1040
1.0
1070
    74
1070
     0
1000
MTEXTEND
  0
POINT
  5
8C6
330
855
100
AcDbEntity
  8
DEFPOINTS
 62
     0
100
AcDbPoint
 10
180.0584275182058
 20
483.2795032037909
 30
0.0
  0
POINT
  5
8C7
330
855
100
AcDbEntity
  8
DEFPOINTS
 62
     0
100
AcDbPoint
 10
187.9075882859355
 20
808.6131979219524
 30
0.0
  0
POINT
  5
8C8
330
855
100
AcDbEntity
  8
DEFPOINTS
 62
     0
100
AcDbPoint
 10
60.28059077598243
 20
808.6131979219524
 30
0.0
  0
ENDBLK
  5
860
330
855
100
AcDbEntity
  8
0
100
AcDbBlockEnd
  0
BLOCK
  5
86C
330
861
100
AcDbEntity
  8
0
100
AcDbBlockBegin
  2
*D6
 70
     1
 10
0.0
 20
0.0
 30
0.0
  3
*D6
  1

  0
LINE
  5
8C9
330
861
100
AcDbEntity
  8
AM_5
100
AcDbLine
 10
178.0584275182058
 20
484.8140891248497
 30
0.0
 11
178.0584275182058
 21
473.3154576886437
 31
0.0
  0
LINE
  5
8CA
330
861
100
AcDbEntity
  8
AM_5
100
AcDbLine
 10
204.4984275182054
 20
484.8140891248497
 30
0.0
 11
204.4984275182054
 21
473.3154576886437
 31
0.0
  0
LINE
  5
8CB
330
861
100
AcDbEntity
  8
AM_5
100
AcDbLine
 10
180.5584275182058
 20
474.3154576886437
 30
0.0
 11
201.9984275182054
 21
474.3154576886437
 31
0.0
  0
LINE
  5
8CC
330
861
100
AcDbEntity
  8
AM_5
100
AcDbLine
 10
204.4984275182054
 20
474.3154576886437
 30
0.0
 11
237.0984275182054
 21
474.3154576886437
 31
0.0
  0
SOLID
  5
8CD
330
861
100
AcDbEntity
  8
AM_5
100
AcDbTrace
 10
180.5584275182058
 20
474.7321243553103
 30
0.0
 11
180.5584275182058
 21
473.8987910219769
 31
0.0
 12
178.0584275182058
 22
474.3154576886437
 32
0.0
 13
178.0584275182058
 23
474.3154576886437
 33
0.0
  0
SOLID
  5
8CE
330
861
100
AcDbEntity
  8
AM_5
100
AcDbTrace
 10
201.9984275182054
 20
474.7321243553103
 30
0.0
 11
201.9984275182054
 21
473.8987910219769
 31
0.0
 12
204.4984275182054
 22
474.3154576886437
 32
0.0
 13
204.4984275182054
 23
474.3154576886437
 33
0.0
  0
MTEXT
  5
8CF
330
861
100
AcDbEntity
  8
AM_5
 62
     2
100
AcDbMText
 10
222.0484275182054
 20
476.7716761221818
 30
0.0
 40
3.5
 41
0.0
 71
     5
 72
     1
  1
ISO 228-G 3/4
 73
     1
 44
1.0
1001
ACAD
1000
MTEXTBEGIN
1070
    73
1070
     1
1070
    44
1040
1.0
1070
    74
1070
     0
1000
MTEXTEND
  0
POINT
  5
8D0
330
861
100
AcDbEntity
  8
DEFPOINTS
 62
     0
100
AcDbPoint
 10
178.0584275182058
 20
484.8140891248497
 30
0.0
  0
POINT
  5
8D1
330
861
100
AcDbEntity
  8
DEFPOINTS
 62
     0
100
AcDbPoint
 10
204.4984275182054
 20
484.8140891248497
 30
0.0
  0
POINT
  5
8D2
330
861
100
AcDbEntity
  8
DEFPOINTS
 62
     0
100
AcDbPoint
 10
204.4984275182054
 20
474.3154576886437
 30
0.0
  0
ENDBLK
  5
86D
330
861
100
AcDbEntity
  8
0
100
AcDbBlockEnd
  0
ENDSEC
  0
SECTION
  2
ENTITIES
  0
LINE
  5
DA
330
2
100
AcDbEntity
  8
AM_7
100
AcDbLine
 10
412.7854926660942
 20
693.6943670313906
 30
0.0
 11
412.7854926660942
 21
596.1943670313906
 31
0.0
  0
LINE
  5
DB
330
2
100
AcDbEntity
  8
AM_7
100
AcDbLine
 10
461.5354926660942
 20
644.9443670313906
 30
0.0
 11
364.0354926660943
 21
644.9443670313906
 31
0.0
  0
TEXT
  5
DC
330
2
100
AcDbEntity
  8
AM_0
100
AcDbText
 10
433.3931316748152
 20
692.1897663780807
 30
0.0
 40
6.0
  1
Ansicht Y
100
AcDbText
  0
ARC
  5
DD
330
2
100
AcDbEntity
  8
AM_0
100
AcDbCircle
 10
421.8482354988569
 20
651.1786827394067
 30
0.0
 40
0.5
100
AcDbArc
 50
134.9999999999816
 51
214.5243183036213
1001
GENIUS_GENODEF_13
1002
{
1000
HIER
1070
     0
1002
}
1002
{
1000
MANEDIT
1070
     0
1002
}
1002
{
1000
NOSEL
1070
     0
1002
}
1002
{
1000
BEHIND
1070
     0
1002
}
1002
{
1000
REACTOR
1002
}
1001
GENIUS_GENOBJ-N-FIL_13
1002
{
1000
OWNER
1000
GEN
1002
}
  0
ARC
  5
DE
330
2
100
AcDbEntity
  8
AM_0
100
AcDbCircle
 10
421.5225434072348
 20
652.2672042101581
 30
0.0
 40
0.5
100
AcDbArc
 50
314.9999999999816
 51
39.96758650449111
1001
GENIUS_GENODEF_13
1002
{
1000
HIER
1070
     0
1002
}
1002
{
1000
MANEDIT
1070
     0
1002
}
1002
{
1000
NOSEL
1070
     0
1002
}
1002
{
1000
BEHIND
1070
     0
1002
}
1002
{
1000
REACTOR
1002
}
1001
GENIUS_GENOBJ-N-FIL_13
1002
{
1000
OWNER
1000
GEN
1002
}
  0
LINE
  5
DF
330
2
100
AcDbEntity
  8
AM_0
100
AcDbLine
 10
421.1946220662244
 20
651.2321760879606
 30
0.0
 11
421.8760967978282
 21
651.9136508195648
 31
0.0
  0
ARC
  5
E0
330
2
100
AcDbEntity
  8
AM_0
100
AcDbCircle
 10
412.7854926660942
 20
644.9443670313906
 30
0.0
 40
9.9
100
AcDbArc
 50
37.23178237611068
 51
51.73972325596603
  0
ARC
  5
E1
330
2
100
AcDbEntity
  8
AM_0
100
AcDbCircle
 10
412.7854926660942
 20
644.9443670313906
 30
0.0
 40
10.05
100
AcDbArc
 50
37.34842550162968
 51
51.63867430242146
  0
LINE
  5
E2
330
2
100
AcDbEntity
  8
AM_0
100
AcDbLine
 10
419.6722217058946
 20
653.4742097584613
 30
0.0
 11
421.4399886588611
 21
651.7064428054952
 31
0.0
  0
ARC
  5
E3
330
2
100
AcDbEntity
  8
AM_0
100
AcDbCircle
 10
412.7854926660942
 20
644.9443670313906
 30
0.0
 40
10.05
100
AcDbArc
 50
82.89860346108119
 51
97.18829522215731
  0
ARC
  5
E4
330
2
100
AcDbEntity
  8
AM_0
100
AcDbCircle
 10
412.7854926660942
 20
644.9443670313906
 30
0.0
 40
9.9
100
AcDbArc
 50
82.79043939252966
 51
97.29779710635805
  0
LINE
  5
E5
330
2
100
AcDbEntity
  8
AM_0
100
AcDbLine
 10
411.5279305893258
 20
655.8121516889261
 30
0.0
 11
414.0279305893258
 21
655.8121516889261
 31
0.0
  0
LINE
  5
E6
330
2
100
AcDbEntity
  8
AM_0
100
AcDbLine
 10
403.6948885343603
 20
651.9136508195648
 30
0.0
 11
404.3763632659651
 21
651.2321760879606
 31
0.0
  0
ARC
  5
E7
330
2
100
AcDbEntity
  8
AM_0
100
AcDbCircle
 10
403.7227498333318
 20
651.1786827394067
 30
0.0
 40
0.5
100
AcDbArc
 50
325.4756816963787
 51
45.00000000001842
1001
GENIUS_GENODEF_13
1002
{
1000
HIER
1070
     0
1002
}
1002
{
1000
MANEDIT
1070
     0
1002
}
1002
{
1000
NOSEL
1070
     0
1002
}
1002
{
1000
BEHIND
1070
     0
1002
}
1002
{
1000
REACTOR
1002
}
1001
GENIUS_GENOBJ-N-FIL_13
1002
{
1000
OWNER
1000
GEN
1002
}
  0
ARC
  5
E8
330
2
100
AcDbEntity
  8
AM_0
100
AcDbCircle
 10
404.0484419249546
 20
652.2672042101581
 30
0.0
 40
0.5
100
AcDbArc
 50
140.0324134955089
 51
225.0000000000184
1001
GENIUS_GENODEF_13
1002
{
1000
HIER
1070
     0
1002
}
1002
{
1000
MANEDIT
1070
     0
1002
}
1002
{
1000
NOSEL
1070
     0
1002
}
1002
{
1000
BEHIND
1070
     0
1002
}
1002
{
1000
REACTOR
1002
}
1001
GENIUS_GENOBJ-N-FIL_13
1002
{
1000
OWNER
1000
GEN
1002
}
  0
ARC
  5
E9
330
2
100
AcDbEntity
  8
AM_0
100
AcDbCircle
 10
412.7854926660942
 20
644.9443670313906
 30
0.0
 40
9.9
100
AcDbArc
 50
128.3225967221485
 51
142.83068882227
  0
ARC
  5
EA
330
2
100
AcDbEntity
  8
AM_0
100
AcDbCircle
 10
412.7854926660942
 20
644.9443670313906
 30
0.0
 40
10.05
100
AcDbArc
 50
128.4227029481157
 51
142.7130961940401
  0
LINE
  5
EB
330
2
100
AcDbEntity
  8
AM_0
100
AcDbLine
 10
404.1158725197906
 20
651.7064428054952
 30
0.0
 11
405.8836394727571
 21
653.4742097584613
 31
0.0
  0
ARC
  5
EC
330
2
100
AcDbEntity
  8
AM_0
100
AcDbCircle
 10
412.7854926660942
 20
644.9443670313906
 30
0.0
 40
11.89999999999999
100
AcDbArc
 50
39.96758650449111
 51
140.0324134955089
  0
ARC
  5
ED
330
2
100
AcDbEntity
  8
AM_0
100
AcDbCircle
 10
412.7854926660942
 20
644.9443670313906
 30
0.0
 40
10.05
100
AcDbArc
 50
352.094833338462
 51
6.385783707882474
  0
ARC
  5
EE
330
2
100
AcDbEntity
  8
AM_0
100
AcDbCircle
 10
412.7854926660942
 20
644.9443670313906
 30
0.0
 40
9.9
100
AcDbArc
 50
351.974274537491
 51
6.482949894126956
  0
LINE
  5
EF
330
2
100
AcDbEntity
  8
AM_0
100
AcDbLine
 10
423.7779305893258
 20
646.0621516889261
 30
0.0
 11
423.7779305893258
 21
643.5621516889263
 31
0.0
  0
ARC
  5
F0
330
2
100
AcDbEntity
  8
AM_0
100
AcDbCircle
 10
412.7854926660942
 20
644.9443670313906
 30
0.0
 40
11.89999999999999
100
AcDbArc
 50
354.9675865044938
 51
5.032413495506061
  0
ARC
  5
F1
330
2
100
AcDbEntity
  8
AM_0
100
AcDbCircle
 10
424.1415483193573
 20
643.9443670313906
 30
0.0
 40
0.5
100
AcDbArc
 50
270.0
 51
354.9675865044938
1001
GENIUS_GENODEF_13
1002
{
1000
HIER
1070
     0
1002
}
1002
{
1000
MANEDIT
1070
     0
1002
}
1002
{
1000
NOSEL
1070
     0
1002
}
1002
{
1000
BEHIND
1070
     0
1002
}
1002
{
1000
REACTOR
1002
}
1001
GENIUS_GENOBJ-N-FIL_13
1002
{
1000
OWNER
1000
GEN
1002
}
  0
LINE
  5
F2
330
2
100
AcDbEntity
  8
AM_0
100
AcDbLine
 10
423.1777975115077
 20
643.444367031391
 30
0.0
 11
424.1415483193573
 21
643.4443670313905
 31
0.0
  0
ARC
  5
F3
330
2
100
AcDbEntity
  8
AM_0
100
AcDbCircle
 10
423.6021464924864
 20
642.9443670313905
 30
0.0
 40
0.5
100
AcDbArc
 50
90.0
 51
169.5243183036205
1001
GENIUS_GENODEF_13
1002
{
1000
HIER
1070
     0
1002
}
1002
{
1000
MANEDIT
1070
     0
1002
}
1002
{
1000
NOSEL
1070
     0
1002
}
1002
{
1000
BEHIND
1070
     0
1002
}
1002
{
1000
REACTOR
1002
}
1001
GENIUS_GENOBJ-N-FIL_13
1002
{
1000
OWNER
1000
GEN
1002
}
  0
ARC
  5
F4
330
2
100
AcDbEntity
  8
AM_0
100
AcDbCircle
 10
424.1415483193573
 20
645.9443670313905
 30
0.0
 40
0.5
100
AcDbArc
 50
5.032413495506061
 51
90.0
1001
GENIUS_GENODEF_13
1002
{
1000
HIER
1070
     0
1002
}
1002
{
1000
MANEDIT
1070
     0
1002
}
1002
{
1000
NOSEL
1070
     0
1002
}
1002
{
1000
BEHIND
1070
     0
1002
}
1002
{
1000
REACTOR
1002
}
1001
GENIUS_GENOBJ-N-FIL_13
1002
{
1000
OWNER
1000
GEN
1002
}
  0
LINE
  5
F5
330
2
100
AcDbEntity
  8
AM_0
100
AcDbLine
 10
423.1777975115077
 20
646.444367031391
 30
0.0
 11
424.1415483193573
 21
646.4443670313905
 31
0.0
  0
ARC
  5
F6
330
2
100
AcDbEntity
  8
AM_0
100
AcDbCircle
 10
423.6021464924864
 20
646.9443670313905
 30
0.0
 40
0.5
100
AcDbArc
 50
190.4756816963794
 51
270.0
1001
GENIUS_GENODEF_13
1002
{
1000
HIER
1070
     0
1002
}
1002
{
1000
MANEDIT
1070
     0
1002
}
1002
{
1000
NOSEL
1070
     0
1002
}
1002
{
1000
BEHIND
1070
     0
1002
}
1002
{
1000
REACTOR
1002
}
1001
GENIUS_GENOBJ-N-FIL_13
1002
{
1000
OWNER
1000
GEN
1002
}
  0
LINE
  5
F7
330
2
100
AcDbEntity
  8
AM_0
100
AcDbLine
 10
415.7956975422925
 20
643.5621516889263
 30
0.0
 11
423.7487029964245
 21
643.5621516889263
 31
0.0
  0
LINE
  5
F8
330
2
100
AcDbEntity
  8
AM_0
100
AcDbLine
 10
415.7956975422925
 20
646.0621516889261
 30
0.0
 11
423.7788114306616
 21
646.0621516889261
 31
0.0
  0
ARC
  5
F9
330
2
100
AcDbEntity
  8
AM_0
100
AcDbCircle
 10
421.8482354988569
 20
638.7100513233748
 30
0.0
 40
0.5
100
AcDbArc
 50
145.4756816963787
 51
225.0000000000184
1001
GENIUS_GENODEF_13
1002
{
1000
HIER
1070
     0
1002
}
1002
{
1000
MANEDIT
1070
     0
1002
}
1002
{
1000
NOSEL
1070
     0
1002
}
1002
{
1000
BEHIND
1070
     0
1002
}
1002
{
1000
REACTOR
1002
}
1001
GENIUS_GENOBJ-N-FIL_13
1002
{
1000
OWNER
1000
GEN
1002
}
  0
ARC
  5
FA
330
2
100
AcDbEntity
  8
AM_0
100
AcDbCircle
 10
421.5225434072348
 20
637.6215298526232
 30
0.0
 40
0.5
100
AcDbArc
 50
320.0324134955089
 51
45.00000000001842
1001
GENIUS_GENODEF_13
1002
{
1000
HIER
1070
     0
1002
}
1002
{
1000
MANEDIT
1070
     0
1002
}
1002
{
1000
NOSEL
1070
     0
1002
}
1002
{
1000
BEHIND
1070
     0
1002
}
1002
{
1000
REACTOR
1002
}
1001
GENIUS_GENOBJ-N-FIL_13
1002
{
1000
OWNER
1000
GEN
1002
}
  0
LINE
  5
FB
330
2
100
AcDbEntity
  8
AM_0
100
AcDbLine
 10
421.1946220662244
 20
638.656557974821
 30
0.0
 11
421.8760967978282
 21
637.9750832432166
 31
0.0
  0
ARC
  5
FC
330
2
100
AcDbEntity
  8
AM_0
100
AcDbCircle
 10
412.7854926660942
 20
644.9443670313906
 30
0.0
 40
9.9
100
AcDbArc
 50
307.1693111777298
 51
321.6774032778515
  0
ARC
  5
FD
330
2
100
AcDbEntity
  8
AM_0
100
AcDbCircle
 10
412.7854926660942
 20
644.9443670313906
 30
0.0
 40
10.05
100
AcDbArc
 50
307.2869038059599
 51
321.5772970518843
  0
LINE
  5
FE
330
2
100
AcDbEntity
  8
AM_0
100
AcDbLine
 10
421.4399886588611
 20
637.9178605723573
 30
0.0
 11
419.6722217058946
 21
636.1500936193907
 31
0.0
  0
LINE
  5
FF
330
2
100
AcDbEntity
  8
AM_0
100
AcDbLine
 10
415.7956975422925
 20
643.5621516889263
 30
0.0
 11
421.3705016859089
 21
637.9873475453097
 31
0.0
  0
ARC
  5
100
330
2
100
AcDbEntity
  8
AM_0
100
AcDbCircle
 10
412.7854926660942
 20
644.9443670313906
 30
0.0
 40
10.5
100
AcDbArc
 50
323.2132107017195
 51
351.7867892982498
  0
LINE
  5
101
330
2
100
AcDbEntity
  8
AM_0
100
AcDbLine
 10
414.0279305893258
 20
641.7943847359598
 30
0.0
 11
414.0279305893258
 21
633.9644377052557
 31
0.0
  0
LINE
  5
102
330
2
100
AcDbEntity
  8
AM_0
100
AcDbLine
 10
411.5279305893258
 20
641.7943847359598
 30
0.0
 11
411.5279305893258
 21
633.9661596356875
 31
0.0
  0
ARC
  5
103
330
2
100
AcDbEntity
  8
AM_0
100
AcDbCircle
 10
412.7854926660942
 20
644.9443670313906
 30
0.0
 40
10.05
100
AcDbArc
 50
262.8117047778427
 51
277.1013965389188
  0
ARC
  5
104
330
2
100
AcDbEntity
  8
AM_0
100
AcDbCircle
 10
412.7854926660942
 20
644.9443670313906
 30
0.0
 40
9.9
100
AcDbArc
 50
262.702202893642
 51
277.2095606074703
  0
LINE
  5
105
330
2
100
AcDbEntity
  8
AM_0
100
AcDbLine
 10
414.0279305893258
 20
633.8121516889263
 30
0.0
 11
411.5279305893258
 21
633.8121516889263
 31
0.0
  0
ARC
  5
106
330
2
100
AcDbEntity
  8
AM_0
100
AcDbCircle
 10
412.7854926660942
 20
644.9443670313906
 30
0.0
 40
10.05
100
AcDbArc
 50
218.3613256975785
 51
232.6515744984074
  0
ARC
  5
107
330
2
100
AcDbEntity
  8
AM_0
100
AcDbCircle
 10
412.7854926660942
 20
644.9443670313906
 30
0.0
 40
9.9
100
AcDbArc
 50
218.2602767440131
 51
232.7682176238893
  0
LINE
  5
108
330
2
100
AcDbEntity
  8
AM_0
100
AcDbLine
 10
405.8836394727571
 20
636.1500936193907
 30
0.0
 11
404.1158725197906
 21
637.9178605723573
 31
0.0
  0
LINE
  5
109
330
2
100
AcDbEntity
  8
AM_0
100
AcDbLine
 10
403.6948885343603
 20
637.9750832432166
 30
0.0
 11
404.3763632659651
 21
638.656557974821
 31
0.0
  0
ARC
  5
10A
330
2
100
AcDbEntity
  8
AM_0
100
AcDbCircle
 10
404.0484419249546
 20
637.6215298526232
 30
0.0
 40
0.5
100
AcDbArc
 50
134.9999999999816
 51
219.9675865044911
1001
GENIUS_GENODEF_13
1002
{
1000
HIER
1070
     0
1002
}
1002
{
1000
MANEDIT
1070
     0
1002
}
1002
{
1000
NOSEL
1070
     0
1002
}
1002
{
1000
BEHIND
1070
     0
1002
}
1002
{
1000
REACTOR
1002
}
1001
GENIUS_GENOBJ-N-FIL_13
1002
{
1000
OWNER
1000
GEN
1002
}
  0
ARC
  5
10B
330
2
100
AcDbEntity
  8
AM_0
100
AcDbCircle
 10
403.7227498333318
 20
638.7100513233748
 30
0.0
 40
0.5
100
AcDbArc
 50
314.9999999999816
 51
34.52431830362133
1001
GENIUS_GENODEF_13
1002
{
1000
HIER
1070
     0
1002
}
1002
{
1000
MANEDIT
1070
     0
1002
}
1002
{
1000
NOSEL
1070
     0
1002
}
1002
{
1000
BEHIND
1070
     0
1002
}
1002
{
1000
REACTOR
1002
}
1001
GENIUS_GENOBJ-N-FIL_13
1002
{
1000
OWNER
1000
GEN
1002
}
  0
LINE
  5
10C
330
2
100
AcDbEntity
  8
AM_0
100
AcDbLine
 10
411.5279305893258
 20
641.7943847359598
 30
0.0
 11
405.9756769613244
 21
636.2421311079586
 31
0.0
  0
LINE
  5
10D
330
2
100
AcDbEntity
  8
AM_0
100
AcDbLine
 10
409.7601636363591
 20
643.5621516889263
 30
0.0
 11
404.1937173987166
 21
637.9957054512831
 31
0.0
  0
CIRCLE
  5
10E
330
2
100
AcDbEntity
  8
AM_0
100
AcDbCircle
 10
412.7854926660942
 20
644.9443670313906
 30
0.0
 40
3.25
  0
LINE
  5
10F
330
2
100
AcDbEntity
  8
AM_0
100
AcDbLine
 10
414.0279305893258
 20
641.7943847359598
 30
0.0
 11
419.5868200033422
 21
636.2354953219435
 31
0.0
  0
ARC
  5
110
330
2
100
AcDbEntity
  8
AM_0
100
AcDbCircle
 10
412.7854926660942
 20
644.9443670313906
 30
0.0
 40
11.89999999999999
100
AcDbArc
 50
219.9675865044911
 51
320.0324134955089
  0
ARC
  5
111
330
2
100
AcDbEntity
  8
AM_0
100
AcDbCircle
 10
412.7854926660942
 20
644.9443670313906
 30
0.0
 40
11.89999999999999
100
AcDbArc
 50
174.9675865044939
 51
185.032413495506
  0
LINE
  5
112
330
2
100
AcDbEntity
  8
AM_0
100
AcDbLine
 10
401.7779305893259
 20
643.5621516889263
 30
0.0
 11
401.7779305893259
 21
646.0621516889261
 31
0.0
  0
ARC
  5
113
330
2
100
AcDbEntity
  8
AM_0
100
AcDbCircle
 10
412.7854926660942
 20
644.9443670313906
 30
0.0
 40
10.05
100
AcDbArc
 50
173.6142162921175
 51
187.9051666615381
  0
ARC
  5
114
330
2
100
AcDbEntity
  8
AM_0
100
AcDbCircle
 10
412.7854926660942
 20
644.9443670313906
 30
0.0
 40
9.9
100
AcDbArc
 50
173.517050105873
 51
188.0257254625082
  0
ARC
  5
115
330
2
100
AcDbEntity
  8
AM_0
100
AcDbCircle
 10
401.9688388397021
 20
642.9443670313905
 30
0.0
 40
0.5
100
AcDbArc
 50
10.47568169637944
 51
90.0
1001
GENIUS_GENODEF_13
1002
{
1000
HIER
1070
     0
1002
}
1002
{
1000
MANEDIT
1070
     0
1002
}
1002
{
1000
NOSEL
1070
     0
1002
}
1002
{
1000
BEHIND
1070
     0
1002
}
1002
{
1000
REACTOR
1002
}
1001
GENIUS_GENOBJ-N-FIL_13
1002
{
1000
OWNER
1000
GEN
1002
}
  0
LINE
  5
116
330
2
100
AcDbEntity
  8
AM_0
100
AcDbLine
 10
401.4294370128313
 20
643.4443670313905
 30
0.0
 11
402.3931878206816
 21
643.444367031391
 31
0.0
  0
ARC
  5
117
330
2
100
AcDbEntity
  8
AM_0
100
AcDbCircle
 10
401.4294370128313
 20
643.9443670313906
 30
0.0
 40
0.5
100
AcDbArc
 50
185.032413495506
 51
270.0
1001
GENIUS_GENODEF_13
1002
{
1000
HIER
1070
     0
1002
}
1002
{
1000
MANEDIT
1070
     0
1002
}
1002
{
1000
NOSEL
1070
     0
1002
}
1002
{
1000
BEHIND
1070
     0
1002
}
1002
{
1000
REACTOR
1002
}
1001
GENIUS_GENOBJ-N-FIL_13
1002
{
1000
OWNER
1000
GEN
1002
}
  0
ARC
  5
118
330
2
100
AcDbEntity
  8
AM_0
100
AcDbCircle
 10
401.9688388397021
 20
646.9443670313905
 30
0.0
 40
0.5
100
AcDbArc
 50
270.0
 51
349.5243183036205
1001
GENIUS_GENODEF_13
1002
{
1000
HIER
1070
     0
1002
}
1002
{
1000
MANEDIT
1070
     0
1002
}
1002
{
1000
NOSEL
1070
     0
1002
}
1002
{
1000
BEHIND
1070
     0
1002
}
1002
{
1000
REACTOR
1002
}
1001
GENIUS_GENOBJ-N-FIL_13
1002
{
1000
OWNER
1000
GEN
1002
}
  0
LINE
  5
119
330
2
100
AcDbEntity
  8
AM_0
100
AcDbLine
 10
401.4294370128313
 20
646.4443670313905
 30
0.0
 11
402.3931878206816
 21
646.444367031391
 31
0.0
  0
ARC
  5
11A
330
2
100
AcDbEntity
  8
AM_0
100
AcDbCircle
 10
401.4294370128313
 20
645.9443670313905
 30
0.0
 40
0.5
100
AcDbArc
 50
90.0
 51
174.9675865044939
1001
GENIUS_GENODEF_13
1002
{
1000
HIER
1070
     0
1002
}
1002
{
1000
MANEDIT
1070
     0
1002
}
1002
{
1000
NOSEL
1070
     0
1002
}
1002
{
1000
BEHIND
1070
     0
1002
}
1002
{
1000
REACTOR
1002
}
1001
GENIUS_GENOBJ-N-FIL_13
1002
{
1000
OWNER
1000
GEN
1002
}
  0
ARC
  5
11B
330
2
100
AcDbEntity
  8
AM_0
100
AcDbCircle
 10
412.7854926660942
 20
644.9443670313906
 30
0.0
 40
10.5
100
AcDbArc
 50
188.2132107017501
 51
216.7867892982805
  0
LINE
  5
11C
330
2
100
AcDbEntity
  8
AM_0
100
AcDbLine
 10
409.7601636363591
 20
643.5621516889263
 30
0.0
 11
401.8222823357641
 21
643.5621516889263
 31
0.0
  0
LINE
  5
11D
330
2
100
AcDbEntity
  8
AM_0
100
AcDbLine
 10
409.7601636363591
 20
646.0621516889261
 30
0.0
 11
401.7921739015276
 21
646.0621516889261
 31
0.0
  0
CIRCLE
  5
11E
330
2
100
AcDbEntity
  8
AM_0
100
AcDbCircle
 10
412.7854926660942
 20
644.9443670313906
 30
0.0
 40
30.5
  0
CIRCLE
  5
11F
330
2
100
AcDbEntity
  8
AM_0
100
AcDbCircle
 10
412.7854926660942
 20
644.9443670313906
 30
0.0
 40
11.05
  0
CIRCLE
  5
120
330
2
100
AcDbEntity
  8
AM_0
100
AcDbCircle
 10
412.7854926660942
 20
644.9443670313906
 30
0.0
 40
11.06378007031087
  0
CIRCLE
  5
121
330
2
100
AcDbEntity
  8
AM_0
100
AcDbCircle
 10
412.7854926660942
 20
644.9443670313906
 30
0.0
 40
11.2183595565167
  0
CIRCLE
  5
122
330
2
100
AcDbEntity
  8
AM_0
100
AcDbCircle
 10
412.7854926660942
 20
644.9443670313906
 30
0.0
 40
13.22
  0
ARC
  5
123
330
2
100
AcDbEntity
  8
AM_4
100
AcDbCircle
 10
412.7854926660942
 20
644.9443670313906
 30
0.0
 40
12.22868355035245
100
AcDbArc
 50
117.6001690583654
 51
108.1824097904022
  0
ARC
  5
124
330
2
100
AcDbEntity
  8
AM_0
100
AcDbCircle
 10
412.7854926660942
 20
644.9443670313906
 30
0.0
 40
10.5
100
AcDbArc
 50
143.2132107017195
 51
171.7867892982497
  0
LINE
  5
125
330
2
100
AcDbEntity
  8
AM_0
100
AcDbLine
 10
414.0279305893258
 20
647.947506722933
 30
0.0
 11
414.0279305893258
 21
655.9242963575253
 31
0.0
  0
LINE
  5
126
330
2
100
AcDbEntity
  8
AM_0
100
AcDbLine
 10
411.5279305893258
 20
647.941204968796
 30
0.0
 11
411.5279305893258
 21
655.9225744270941
 31
0.0
  0
LINE
  5
127
330
2
100
AcDbEntity
  8
AM_0
100
AcDbLine
 10
411.4503800555799
 20
647.9074691756383
 30
0.0
 11
405.8284731800135
 21
653.5293760512047
 31
0.0
  0
LINE
  5
128
330
2
100
AcDbEntity
  8
AM_0
100
AcDbLine
 10
409.7601636363591
 20
646.0621516889261
 30
0.0
 11
404.0766209566477
 21
651.7456943686381
 31
0.0
  0
LINE
  5
129
330
2
100
AcDbEntity
  8
AM_0
100
AcDbLine
 10
414.1101637583218
 20
647.9121518108882
 30
0.0
 11
419.7341542462021
 21
653.5361422987691
 31
0.0
  0
LINE
  5
12A
330
2
100
AcDbEntity
  8
AM_0
100
AcDbLine
 10
415.7956975422925
 20
646.0621516889261
 30
0.0
 11
421.4877285895267
 21
651.7541827361607
 31
0.0
  0
ARC
  5
12B
330
2
100
AcDbEntity
  8
AM_0
100
AcDbCircle
 10
412.7854926660942
 20
644.9443670313906
 30
0.0
 40
10.5
100
AcDbArc
 50
8.21321070175024
 51
36.78678929828052
  0
CIRCLE
  5
12C
330
2
100
AcDbEntity
  8
AM_0
100
AcDbCircle
 10
412.7854926660942
 20
644.9443670313906
 30
0.0
 40
43.74999999999992
  0
CIRCLE
  5
12D
330
2
100
AcDbEntity
  8
AM_4
100
AcDbCircle
 10
412.7854926660942
 20
644.9443670313906
 30
0.0
 40
37.26794919243094
  0
CIRCLE
  5
12E
330
2
100
AcDbEntity
  8
AM_4
100
AcDbCircle
 10
412.7854926660942
 20
644.9443670313906
 30
0.0
 40
39.73205080756871
  0
TEXT
  5
149
330
2
100
AcDbEntity
  8
AM_6
100
AcDbText
 10
449.8699004609157
 20
478.6653221469213
 30
0.0
 40
6.0
  1
D- 59227 Ahlen
 72
     1
 11
477.5891145125215
 21
478.6653221469213
 31
0.0
100
AcDbText
  0
TEXT
  5
14B
330
2
100
AcDbEntity
  8
AM_6
100
AcDbText
 10
423.8970675125216
 20
487.0831111469214
 30
0.0
 40
6.0
  1
Reflex Winkelmann GmbH+Co.KG
 41
0.95
 72
     1
 11
477.4913175125216
 21
487.0831111469214
 31
0.0
100
AcDbText
  0
TEXT
  5
14C
330
2
100
AcDbEntity
  8
0
100
AcDbText
 10
320.5084615125212
 20
471.9114209508691
 30
0.0
 40
10.0
  1
10 bar - 120°C
 72
     1
 11
362.0084615125212
 21
468.9114209508691
 31
0.0
100
AcDbText
 73
     1
  0
TEXT
  5
14D
330
2
100
AcDbEntity
  8
0
100
AcDbText
 10
288.8281314266312
 20
509.9114209508691
 30
0.0
 40
10.0
  1
Druckausdehnungsgefäß
 72
     1
 11
362.0084615125212
 21
506.9114209508691
 31
0.0
100
AcDbText
 73
     1
  0
TEXT
  5
14E
330
2
100
AcDbEntity
  8
0
100
AcDbText
 10
317.0084615125211
 20
490.9114209508692
 30
0.0
 40
10.0
  1
Typ reflex S 8l
 72
     1
 11
362.0084615125212
 21
487.9114209508692
 31
0.0
100
AcDbText
 73
     1
  0
HATCH
  5
14F
330
2
100
AcDbEntity
  8
AM_4
100
AcDbHatch
 10
0.0
 20
0.0
 30
0.0
210
0.0
220
0.0
230
1.0
  2
SOLID
 70
     1
 71
     0
 91
        2
 92
        7
 72
     0
 73
     1
 93
        4
 10
504.081351938387
 20
514.7849672241656
 10
503.8772382476117
 20
514.7849672241656
 10
503.8772382476117
 20
500.5295487336407
 10
504.081351938387
 20
500.5295487336407
 97
        0
 92
        7
 72
     0
 73
     1
 93
       42
 10
503.9571088222636
 20
499.911291322452
 10
504.0606447523663
 20
500.2011919267411
 10
504.081351938387
 20
500.5295487336407
 10
503.8772382476117
 20
500.5295487336407
 10
503.8772382476117
 20
500.4585526672834
 10
503.8713219087496
 20
500.3875566009257
 10
503.8624474004556
 20
500.3165605345775
 10
503.8506147227288
 20
500.2455644682138
 10
503.8328657061351
 20
500.1775265712781
 10
503.8151166895499
 20
500.1124468437971
 10
503.7914513340971
 20
500.047367116302
 10
503.7677859786476
 20
499.9822873888103
 10
503.7382042843293
 20
499.9201658307463
 10
503.7086225900146
 20
499.8580442726842
 10
503.6731245568371
 20
499.8018390534822
 10
503.6376265236589
 20
499.7426756648551
 10
503.5962121516171
 20
499.6894286150843
 10
503.5547977795759
 20
499.6332233958873
 10
503.5104252381044
 20
499.5829345155542
 10
503.4630945271954
 20
499.5356038046472
 10
503.4128056468651
 20
499.4882730937439
 10
503.362516766527
 20
499.44390055227
 10
503.3063115473269
 20
499.4024861802292
 10
503.2501063281272
 20
499.3610718081868
 10
503.1939011089238
 20
499.3255737750081
 10
503.1347377202993
 20
499.2900757418308
 10
503.0726161622371
 20
499.260494047514
 10
503.0075364347427
 20
499.2309123532012
 10
502.9424567072497
 20
499.2072469977484
 10
502.8773769797566
 20
499.1835816422963
 10
502.8093390828288
 20
499.1658326257065
 10
502.7383430164745
 20
499.1510417785494
 10
502.667346950117
 20
499.136250931392
 10
502.5963508837612
 20
499.1273764230974
 10
502.5223966479734
 20
499.1214600842339
 10
502.4484424121849
 20
499.1214600842339
 10
502.4484424121849
 20
498.9173463934588
 10
502.7767992190844
 20
498.9380535794796
 10
503.087407009395
 20
499.0415895095832
 10
503.3566004276629
 20
499.1865398117282
 10
503.6050866599125
 20
499.3936116719354
 10
503.8121585201178
 20
499.6213907181621
 97
        0
 75
     0
 76
     1
 47
0.013813
 98
        2
 10
504.0190061946373
 20
511.323810138664
 10
503.7849081946371
 20
499.8313291386641
  0
LINE
  5
150
330
2
100
AcDbEntity
  8
AM_4
100
AcDbLine
 10
503.8772381946372
 20
500.458553138664
 30
0.0
 11
503.8772381946372
 21
514.855963138664
 31
0.0
  0
LINE
  5
151
330
2
100
AcDbEntity
  8
AM_4
100
AcDbLine
 10
504.0813521946372
 20
514.7849671386641
 30
0.0
 11
504.0813521946372
 21
500.529549138664
 31
0.0
  0
LINE
  5
152
330
2
100
AcDbEntity
  8
AM_4
100
AcDbLine
 10
504.2854651946371
 20
514.7849671386641
 30
0.0
 11
504.2854651946371
 21
500.529549138664
 31
0.0
  0
LINE
  5
153
330
2
100
AcDbEntity
  8
AM_4
100
AcDbLine
 10
503.9089891946372
 20
514.7849671386641
 30
0.0
 11
503.9089891946372
 21
500.529549138664
 31
0.0
  0
LINE
  5
154
330
2
100
AcDbEntity
  8
AM_4
100
AcDbLine
 10
456.8778421946372
 20
500.529549138664
 30
0.0
 11
456.8778421946372
 21
514.7849671386641
 31
0.0
  0
LINE
  5
155
330
2
100
AcDbEntity
  8
AM_4
100
AcDbLine
 10
457.2860701946372
 20
500.458553138664
 30
0.0
 11
457.2860701946372
 21
514.855963138664
 31
0.0
  0
LINE
  5
156
330
2
100
AcDbEntity
  8
AM_4
100
AcDbLine
 10
457.0819561946372
 20
500.529549138664
 30
0.0
 11
457.0819561946372
 21
514.7849671386641
 31
0.0
  0
LINE
  5
157
330
2
100
AcDbEntity
  8
AM_4
100
AcDbLine
 10
457.2543191946373
 20
500.529549138664
 30
0.0
 11
457.2543191946373
 21
514.7849671386641
 31
0.0
  0
HATCH
  5
158
330
2
100
AcDbEntity
  8
AM_4
100
AcDbHatch
 10
0.0
 20
0.0
 30
0.0
210
0.0
220
0.0
230
1.0
  2
SOLID
 70
     1
 71
     0
 91
        3
 92
        7
 72
     0
 73
     1
 93
        4
 10
502.4484424121849
 20
516.621990441143
 10
458.7148655365019
 20
516.621990441143
 10
458.7148655365019
 20
516.4178767503678
 10
502.4484424121849
 20
516.4178767503678
 97
        0
 92
        7
 72
     0
 73
     1
 93
        4
 10
457.0819560102989
 20
514.7849672241656
 10
456.8778423195238
 20
514.7849672241656
 10
456.8778423195238
 20
500.5295487336407
 10
457.0819560102989
 20
500.5295487336407
 97
        0
 92
        7
 72
     0
 73
     1
 93
       42
 10
457.4606016975323
 20
515.459429854552
 10
457.4960997307124
 20
515.5185932431837
 10
457.5315977638908
 20
515.5777566318143
 10
457.5730121359361
 20
515.6339618510193
 10
457.6144265079744
 20
515.6872089007837
 10
457.6617572188773
 20
515.7404559505464
 10
457.709087929783
 20
515.7907448308841
 10
457.7593768101193
 20
515.8380755417875
 10
457.8126238598867
 20
515.8824480832618
 10
457.8658709096536
 20
515.9268206247345
 10
457.9220761288532
 20
515.9682349967761
 10
457.9812395174832
 20
516.0037330299542
 10
458.0404029061122
 20
516.0392310631326
 10
458.102524464176
 20
516.0717709268793
 10
458.1646460222378
 20
516.1013526211948
 10
458.2297257497311
 20
516.1250179766468
 10
458.2948054772264
 20
516.1486833320991
 10
458.3628433741496
 20
516.1693905181192
 10
458.4308812710752
 20
516.1841813652764
 10
458.5018773374321
 20
516.1989722124351
 10
458.5728734037888
 20
516.2078467207295
 10
458.6438694701448
 20
516.2137630595927
 10
458.7148655365019
 20
516.2137630595927
 10
458.7148655365019
 20
516.4178767503678
 10
458.3865087296024
 20
516.3764623783264
 10
458.0966081253118
 20
516.2936336342434
 10
457.8067075210236
 20
516.1279761460781
 10
457.5789284747956
 20
515.9416114718914
 10
457.3718566145889
 20
515.6931252396434
 10
457.2269063124445
 20
515.4239318213751
 10
457.1233703823399
 20
515.1133240310639
 10
457.0819560102989
 20
514.7849672241656
 10
457.2860697010748
 20
514.7849672241654
 10
457.2860697010748
 20
514.8559632905232
 10
457.2919860399381
 20
514.9269593568792
 10
457.3008605482323
 20
514.9979554232348
 10
457.315651395386
 20
515.0689514895997
 10
457.3304422425479
 20
515.1369893865173
 10
457.3511494285723
 20
515.2020691140178
 10
457.3718566145889
 20
515.2701070109356
 10
457.3984801394746
 20
515.3351867384292
 10
457.4280618337892
 20
515.3973082964895
 97
        0
 75
     0
 76
     1
 47
0.005631
 98
        3
 10
460.9719831946372
 20
516.4895881386639
 10
456.9528721946372
 20
514.4330981386641
 10
457.2922161946372
 20
515.397739138664
  0
HATCH
  5
159
330
2
100
AcDbEntity
  8
AM_4
100
AcDbHatch
 10
0.0
 20
0.0
 30
0.0
210
0.0
220
0.0
230
1.0
  2
SOLID
 70
     1
 71
     0
 91
       13
 92
        7
 72
     0
 73
     1
 93
        4
 10
457.2860697010741
 20
514.7849672241656
 10
457.0819560102989
 20
514.7849672241656
 10
457.0819560102989
 20
500.5295487336407
 10
457.2860697010748
 20
500.5295487336407
 97
        0
 92
        7
 72
     0
 73
     1
 93
        4
 10
502.4484424121838
 20
499.1214600842339
 10
458.7148655365019
 20
499.1214600842339
 10
458.7148655365019
 20
498.9173463934588
 10
502.4484424121849
 20
498.9173463934588
 97
        0
 92
        7
 72
     0
 73
     1
 93
        4
 10
502.4484424121849
 20
516.4178767503678
 10
458.7148655365019
 20
516.4178767503678
 10
458.7148655365019
 20
516.2137630595927
 10
502.4484424121849
 20
516.2137630595927
 97
        0
 92
        7
 72
     0
 73
     1
 93
        4
 10
504.2854656291623
 20
514.7849672241656
 10
504.081351938387
 20
514.7849672241656
 10
504.081351938387
 20
500.5295487336407
 10
504.2854656291623
 20
500.5295487336407
 97
        0
 92
        7
 72
     0
 73
     1
 93
       42
 10
458.096608125313
 20
516.2936336342437
 10
458.3865087296024
 20
516.3764623783264
 10
458.7148655365019
 20
516.4178767503678
 10
458.7148655365019
 20
516.621990441143
 10
458.6231622841241
 20
516.6190322717118
 10
458.5314590317486
 20
516.6101577634171
 10
458.4397557793695
 20
516.5983250856908
 10
458.3480525269927
 20
516.5835342385332
 10
458.2593074440469
 20
516.5628270525129
 10
458.1735205305323
 20
516.5362035276293
 10
458.0877336170155
 20
516.506621833313
 10
458.0049048729343
 20
516.4740819695667
 10
457.9250342982838
 20
516.4385839363876
 10
457.8451637236331
 20
516.3971695643478
 10
457.7682513184121
 20
516.3527970228749
 10
457.694297082635
 20
516.3025081425381
 10
457.623301016267
 20
516.2522192622033
 10
457.5523049499153
 20
516.196014043002
 10
457.4842670529873
 20
516.1398088238046
 10
457.4221454949237
 20
516.0776872657415
 10
457.3600239368627
 20
516.0126075382467
 10
457.3038187176654
 20
515.9475278107565
 10
457.2476134984644
 20
515.8765317444004
 10
457.1973246181284
 20
515.8055356780391
 10
457.1470357377915
 20
515.7315814422523
 10
457.1026631963192
 20
515.6546690370314
 10
457.0612488242784
 20
515.5747984623832
 10
457.0257507911008
 20
515.4949278877353
 10
456.9932109273532
 20
515.4120991436521
 10
456.9636292330359
 20
515.3263122301316
 10
456.9370057081538
 20
515.2405253166186
 10
456.9162985221343
 20
515.1517802336752
 10
456.9015076749766
 20
515.0600769812963
 10
456.8896749972501
 20
514.9683737289178
 10
456.8808004889558
 20
514.8766704765433
 10
456.8778423195238
 20
514.7849672241656
 10
457.0819560102989
 20
514.7849672241656
 10
457.1233703823399
 20
515.1133240310644
 10
457.2269063124426
 20
515.4239318213743
 10
457.3718566145889
 20
515.6931252396447
 10
457.5789284747965
 20
515.9416114718919
 10
457.8067075210223
 20
516.1279761460787
 97
        0
 92
        7
 72
     0
 73
     1
 93
       42
 10
458.1646460222382
 20
516.1013526211948
 10
458.2297257497311
 20
516.1250179766468
 10
458.2948054772264
 20
516.1486833320991
 10
458.3628433741496
 20
516.1693905181192
 10
458.4308812710752
 20
516.1841813652764
 10
458.5018773374321
 20
516.1989722124351
 10
458.5728734037888
 20
516.2078467207295
 10
458.6438694701448
 20
516.2137630595927
 10
458.7148655365019
 20
516.2137630595927
 10
458.7148655365019
 20
516.4178767503678
 10
458.3865087296024
 20
516.3764623783264
 10
458.0966081253118
 20
516.2936336342434
 10
457.8067075210236
 20
516.1279761460781
 10
457.5789284747956
 20
515.9416114718914
 10
457.3718566145889
 20
515.6931252396434
 10
457.2269063124445
 20
515.4239318213751
 10
457.1233703823399
 20
515.1133240310639
 10
457.0819560102989
 20
514.7849672241656
 10
457.2860697010748
 20
514.7849672241654
 10
457.2860697010748
 20
514.8559632905232
 10
457.2919860399381
 20
514.9269593568792
 10
457.3008605482323
 20
514.9979554232348
 10
457.315651395386
 20
515.0689514895997
 10
457.3304422425479
 20
515.1369893865173
 10
457.3511494285723
 20
515.2020691140178
 10
457.3718566145889
 20
515.2701070109356
 10
457.3984801394746
 20
515.3351867384292
 10
457.4280618337892
 20
515.3973082964895
 10
457.460601697533
 20
515.4594298545525
 10
457.4960997307124
 20
515.5185932431837
 10
457.5315977638908
 20
515.5777566318143
 10
457.5730121359361
 20
515.6339618510193
 10
457.6144265079744
 20
515.6872089007837
 10
457.6617572188773
 20
515.7404559505464
 10
457.709087929783
 20
515.7907448308841
 10
457.7593768101193
 20
515.8380755417875
 10
457.8126238598867
 20
515.8824480832618
 10
457.8658709096536
 20
515.9268206247345
 10
457.9220761288532
 20
515.9682349967761
 10
457.9812395174832
 20
516.0037330299542
 10
458.0404029061122
 20
516.0392310631326
 10
458.102524464176
 20
516.0717709268793
 97
        0
 92
        7
 72
     0
 73
     1
 93
        4
 10
502.4484424121849
 20
498.9173463934588
 10
458.7148655365019
 20
498.9173463934588
 10
458.7148655365019
 20
498.7132327026838
 10
502.4484424121849
 20
498.7132327026838
 97
        0
 92
       22
 72
     0
 73
     1
 93
       42
 10
503.8121585201184
 20
499.6213907181618
 10
503.9571088222628
 20
499.9112913224514
 10
504.0606447523663
 20
500.2011919267413
 10
504.081351938387
 20
500.5295487336407
 10
503.8772382476117
 20
500.5295487336407
 10
503.8772382476117
 20
500.4585526672832
 10
503.8713219087486
 20
500.3875566009257
 10
503.862447400455
 20
500.3165605345692
 10
503.8506147227288
 20
500.2455644682141
 10
503.8328657061351
 20
500.1775265712731
 10
503.8151166895499
 20
500.1124468437956
 10
503.7914513340971
 20
500.047367116302
 10
503.7677859786476
 20
499.9822873888103
 10
503.7382042843293
 20
499.9201658307463
 10
503.7086225900146
 20
499.8580442726842
 10
503.6731245568371
 20
499.8018390534822
 10
503.6376265236589
 20
499.7426756648551
 10
503.5962121516171
 20
499.6894286150843
 10
503.5547977795759
 20
499.6332233958873
 10
503.5104252381044
 20
499.5829345155542
 10
503.4630945271954
 20
499.5356038046472
 10
503.4128056468651
 20
499.4882730937439
 10
503.362516766527
 20
499.44390055227
 10
503.3063115473269
 20
499.4024861802292
 10
503.2501063281272
 20
499.3610718081868
 10
503.1939011089238
 20
499.3255737750081
 10
503.1347377202993
 20
499.2900757418308
 10
503.0726161622371
 20
499.260494047514
 10
503.0075364347427
 20
499.2309123532012
 10
502.9424567072497
 20
499.2072469977484
 10
502.8773769797566
 20
499.1835816422963
 10
502.8093390828288
 20
499.1658326257065
 10
502.7383430164745
 20
499.1510417785494
 10
502.667346950117
 20
499.136250931392
 10
502.5963508837612
 20
499.1273764230974
 10
502.5223966479734
 20
499.1214600842339
 10
502.4484424121849
 20
499.1214600842339
 10
502.4484424121849
 20
498.9173463934588
 10
502.7767992190844
 20
498.9380535794796
 10
503.087407009395
 20
499.0415895095832
 10
503.3566004276629
 20
499.1865398117282
 10
503.6050866599125
 20
499.3936116719354
 97
        0
 92
        7
 72
     0
 73
     1
 93
       42
 10
503.865405569886
 20
499.3758626553455
 10
503.9216107890862
 20
499.4439005522713
 10
503.9718996694215
 20
499.5148966186262
 10
504.0192303803258
 20
499.5888508544156
 10
504.0636029217949
 20
499.6657632596308
 10
504.1050172938397
 20
499.7426756648561
 10
504.1405153270193
 20
499.8225462395046
 10
504.1730551907661
 20
499.9053749835884
 10
504.2026368850796
 20
499.9911618971053
 10
504.2263022405307
 20
500.0769488106127
 10
504.2470094265533
 20
500.1656938935649
 10
504.2647584431414
 20
500.2544389765088
 10
504.2736329514363
 20
500.346142228886
 10
504.2825074597311
 20
500.437845481265
 10
504.2854656291623
 20
500.5295487336407
 10
504.081351938387
 20
500.5295487336407
 10
504.0606447523663
 20
500.2011919267416
 10
503.9571088222628
 20
499.9112913224512
 10
503.8121585201178
 20
499.6213907181621
 10
503.6050866599106
 20
499.3936116719338
 10
503.3566004276629
 20
499.1865398117275
 10
503.0874070093936
 20
499.0415895095829
 10
502.7767992190844
 20
498.9380535794796
 10
502.4484424121849
 20
498.9173463934588
 10
502.4484424121849
 20
498.7132327026838
 10
502.5401456645621
 20
498.7161908721151
 10
502.6348070863704
 20
498.7250653804097
 10
502.7294685081803
 20
498.7339398887042
 10
502.8182135911256
 20
498.7516889052933
 10
502.9069586740698
 20
498.7694379218824
 10
502.9957037570181
 20
498.7960614467668
 10
503.0814906705219
 20
498.8256431410811
 10
503.1643194146144
 20
498.8552248353967
 10
503.2471481586934
 20
498.8936810380049
 10
503.3240605639198
 20
498.9321372406177
 10
503.4009729691351
 20
498.97650978209
 10
503.4778853743568
 20
499.0238404929931
 10
503.5488814407106
 20
499.0741293733291
 10
503.6198775070674
 20
499.1273764230971
 10
503.6849572345628
 20
499.1865398117279
 10
503.7500369620556
 20
499.2457032003591
 10
503.8092003506879
 20
499.3078247584207
 97
        0
 92
        7
 72
     0
 73
     1
 93
       42
 10
503.6050866599106
 20
515.9416114718923
 10
503.3566004276635
 20
516.1279761460779
 10
503.0874070093936
 20
516.2936336342437
 10
502.7767992190844
 20
516.3764623783264
 10
502.4484424121838
 20
516.4178767503678
 10
502.4484424121849
 20
516.2137630595927
 10
502.5223966479726
 20
516.2137630595927
 10
502.5963508837618
 20
516.2078467207295
 10
502.667346950117
 20
516.1960140430031
 10
502.7383430164745
 20
516.1841813652773
 10
502.8063809133993
 20
516.1693905181197
 10
502.8744188103244
 20
516.1486833320988
 10
502.9424567072501
 20
516.1250179766466
 10
503.0075364347427
 20
516.1013526211948
 10
503.0696579928061
 20
516.0717709268793
 10
503.1317795508657
 20
516.0392310631331
 10
503.1909429394985
 20
516.0037330299542
 10
503.2501063281288
 20
515.9682349967755
 10
503.3063115473253
 20
515.9268206247351
 10
503.3595585970958
 20
515.8854062526927
 10
503.4128056468597
 20
515.8380755417888
 10
503.4630945271988
 20
515.790744830884
 10
503.5074670686703
 20
515.7404559505502
 10
503.5547977795746
 20
515.6901670702126
 10
503.5962121516178
 20
515.6339618510138
 10
503.6346683542273
 20
515.5777566318143
 10
503.6731245568361
 20
515.5215514126155
 10
503.7056644205826
 20
515.4594298545528
 10
503.7382042843311
 20
515.4002664659214
 10
503.7677859786461
 20
515.3351867384276
 10
503.7914513340971
 20
515.2701070109356
 10
503.8151166895499
 20
515.20502728344
 10
503.8328657061391
 20
515.1369893865169
 10
503.8506147227288
 20
515.0689514895913
 10
503.8624474004524
 20
514.9979554232395
 10
503.8713219087486
 20
514.9299175263133
 10
503.8772382476117
 20
514.8559632905221
 10
503.8772382476117
 20
514.7849672241656
 10
504.081351938387
 20
514.7849672241656
 10
504.0606447523663
 20
515.1133240310659
 10
503.9571088222636
 20
515.4239318213747
 10
503.8121585201184
 20
515.6931252396434
 97
        0
 92
        7
 72
     0
 73
     1
 93
       42
 10
503.6879154039929
 20
516.1368506543741
 10
503.6198775070703
 20
516.1960140430022
 10
503.5518396101438
 20
516.2522192622028
 10
503.4778853743553
 20
516.3025081425383
 10
503.4039311385676
 20
516.3527970228743
 10
503.3270187333477
 20
516.3971695643475
 10
503.2471481586979
 20
516.4385839363876
 10
503.1672775840465
 20
516.4740819695667
 10
503.0814906705312
 20
516.5066218333135
 10
502.9957037570168
 20
516.5362035276289
 10
502.9099168435029
 20
516.5628270525129
 10
502.8182135911253
 20
516.5835342385337
 10
502.7294685081787
 20
516.598325085691
 10
502.6348070863704
 20
516.6101577634171
 10
502.5431038339935
 20
516.6190322717116
 10
502.4484424121849
 20
516.621990441143
 10
502.4484424121849
 20
516.4178767503678
 10
502.7767992190844
 20
516.3764623783264
 10
503.0874070093936
 20
516.2936336342437
 10
503.3566004276635
 20
516.1279761460783
 10
503.6050866599106
 20
515.9416114718923
 10
503.8121585201184
 20
515.6931252396445
 10
503.9571088222636
 20
515.4239318213747
 10
504.0606447523663
 20
515.1133240310646
 10
504.081351938387
 20
514.7849672241656
 10
504.2854656291623
 20
514.7849672241656
 10
504.2825074597311
 20
514.8766704765415
 10
504.2736329514363
 20
514.9683737289199
 10
504.2647584431414
 20
515.0600769812966
 10
504.2470094265516
 20
515.1488220642513
 10
504.2263022405307
 20
515.2375671471901
 10
504.2026368850796
 20
515.3233540607031
 10
504.173055190765
 20
515.4091409742157
 10
504.140515327017
 20
515.4919697182988
 10
504.1050172938397
 20
515.574798462383
 10
504.0636029217989
 20
515.6517108676025
 10
504.0221885497571
 20
515.7286232728218
 10
503.9718996694215
 20
515.8055356780417
 10
503.9216107890824
 20
515.8765317443968
 10
503.8683637393164
 20
515.9475278107549
 10
503.8092003506863
 20
516.0126075382488
 10
503.7500369620556
 20
516.077687265742
 97
        0
 92
       23
 72
     0
 73
     1
 93
       42
 10
457.709087929783
 20
499.5356038046478
 10
457.6587990494473
 20
499.5858926849835
 10
457.6144265079761
 20
499.6361815653184
 10
457.5730121359351
 20
499.689428615088
 10
457.5315977638914
 20
499.7456338342858
 10
457.4931415612798
 20
499.8018390534863
 10
457.4576435281023
 20
499.8610024421158
 10
457.4280618337892
 20
499.9231240001746
 10
457.3984801394728
 20
499.9822873888073
 10
457.3718566145858
 20
500.0473671163049
 10
457.3481912591361
 20
500.1124468437947
 10
457.3304422425464
 20
500.1804847407226
 10
457.3156513953893
 20
500.2485226376457
 10
457.3008605482323
 20
500.3165605345698
 10
457.2919860399365
 20
500.3875566009268
 10
457.2860697010748
 20
500.4585526672848
 10
457.2860697010748
 20
500.5295487336407
 10
457.0819560102989
 20
500.5295487336407
 10
457.1233703823399
 20
500.2011919267403
 10
457.2269063124426
 20
499.9112913224528
 10
457.3718566145889
 20
499.6213907181621
 10
457.5789284747956
 20
499.3936116719353
 10
457.8067075210223
 20
499.1865398117279
 10
458.0966081253118
 20
499.0415895095832
 10
458.3865087296016
 20
498.9380535794796
 10
458.7148655365019
 20
498.9173463934588
 10
458.7148655365019
 20
499.1214600842339
 10
458.6438694701448
 20
499.1214600842339
 10
458.5699152343568
 20
499.1273764230971
 10
458.4989191679997
 20
499.136250931392
 10
458.4308812710743
 20
499.1480836091178
 10
458.3628433741496
 20
499.1658326257071
 10
458.2948054772264
 20
499.1835816422961
 10
458.2297257497311
 20
499.2072469977484
 10
458.1646460222378
 20
499.2309123532009
 10
458.0995662947437
 20
499.2604940475157
 10
458.0404029061118
 20
499.2900757418317
 10
457.9782813480528
 20
499.3255737750091
 10
457.9220761288532
 20
499.3640299776195
 10
457.8629127402217
 20
499.4024861802292
 10
457.8096656904546
 20
499.44390055227
 10
457.7564186406871
 20
499.4882730937432
 97
        0
 92
        7
 72
     0
 73
     1
 93
       42
 10
457.5789284747943
 20
499.3936116719353
 10
457.3718566145889
 20
499.6213907181621
 10
457.2269063124426
 20
499.9112913224528
 10
457.1233703823399
 20
500.2011919267409
 10
457.0819560102989
 20
500.5295487336407
 10
456.8778423195238
 20
500.5295487336407
 10
456.8808004889558
 20
500.437845481264
 10
456.8896749972501
 20
500.3461422288842
 10
456.9015076749761
 20
500.2544389765078
 10
456.9162985221343
 20
500.1656938935624
 10
456.9370057081538
 20
500.076948810615
 10
456.9636292330389
 20
499.9911618971021
 10
456.9932109273521
 20
499.9053749835911
 10
457.0257507910993
 20
499.8225462395073
 10
457.0642069937121
 20
499.7426756648498
 10
457.1056213657501
 20
499.6628050902049
 10
457.1499939072267
 20
499.5888508544119
 10
457.1973246181296
 20
499.5148966186262
 10
457.2476134984644
 20
499.4439005522713
 10
457.3038187176626
 20
499.375862655347
 10
457.3629821062919
 20
499.3078247584207
 10
457.4221454949246
 20
499.2457032003591
 10
457.487225222419
 20
499.1865398117299
 10
457.5552631193444
 20
499.1273764230964
 10
457.6233010162686
 20
499.0741293733299
 10
457.6942970826238
 20
499.0238404929941
 10
457.7712094878403
 20
498.9765097820908
 10
457.8451637236326
 20
498.9321372406169
 10
457.9250342982834
 20
498.8936810380072
 10
458.0078630423659
 20
498.8552248353973
 10
458.0906917864433
 20
498.8256431410834
 10
458.1764786999645
 20
498.7960614467662
 10
458.262265613479
 20
498.7694379218824
 10
458.3510106964246
 20
498.7516889052933
 10
458.4397557793701
 20
498.7339398887042
 10
458.5314590317471
 20
498.7250653804097
 10
458.6231622841241
 20
498.7161908721154
 10
458.7148655365019
 20
498.7132327026838
 10
458.7148655365019
 20
498.9173463934588
 10
458.3865087296016
 20
498.9380535794796
 10
458.096608125313
 20
499.0415895095832
 10
457.8067075210223
 20
499.1865398117279
 97
        0
 75
     0
 76
     1
 47
0.02498
 98
       13
 10
457.1597331946372
 20
509.401271138664
 10
466.3054941946373
 20
498.9645231386639
 10
476.9081091946373
 20
516.2781981386642
 10
504.1835281946372
 20
510.129415138664
 10
457.4724071946372
 20
516.119154138664
 10
457.8016821946372
 20
516.072134138664
 10
486.7781451946371
 20
498.815158138664
 10
503.5713221946372
 20
499.567507138664
 10
503.8065221946372
 20
499.332398138664
 10
503.5713221946372
 20
515.8840461386639
 10
503.6654011946373
 20
516.119154138664
 10
457.6135241946373
 20
499.473463138664
 10
457.5664861946371
 20
499.238354138664
  0
LINE
  5
15A
330
2
100
AcDbEntity
  8
AM_4
100
AcDbLine
 10
458.6438691946372
 20
499.1214601386641
 30
0.0
 11
502.5223961946372
 21
499.1214601386641
 31
0.0
  0
LINE
  5
15B
330
2
100
AcDbEntity
  8
AM_4
100
AcDbLine
 10
458.7148651946372
 20
498.713233138664
 30
0.0
 11
502.4484421946373
 21
498.713233138664
 31
0.0
  0
LINE
  5
15C
330
2
100
AcDbEntity
  8
AM_4
100
AcDbLine
 10
502.4484421946373
 20
498.917346138664
 30
0.0
 11
458.7148651946372
 21
498.917346138664
 31
0.0
  0
LINE
  5
15D
330
2
100
AcDbEntity
  8
AM_4
100
AcDbLine
 10
502.5963511946372
 20
499.1273761386641
 30
0.0
 11
458.7148651946372
 21
499.1214601386641
 31
0.0
  0
LINE
  5
15E
330
2
100
AcDbEntity
  8
AM_4
100
AcDbLine
 10
502.6136581946372
 20
498.7191511386639
 30
0.0
 11
458.7149201946372
 21
498.713233138664
 31
0.0
  0
LINE
  5
15F
330
2
100
AcDbEntity
  8
AM_4
100
AcDbLine
 10
502.5977801946372
 20
499.095626138664
 30
0.0
 11
458.7148701946372
 21
499.089709138664
 31
0.0
  0
ARC
  5
160
330
2
100
AcDbEntity
  8
AM_4
100
AcDbCircle
 10
458.7146721946372
 20
500.553830138664
 30
0.0
 40
1.840596999999999
100
AcDbArc
 50
186.6660749999994
 51
270.0077249999996
  0
ARC
  5
161
330
2
100
AcDbEntity
  8
AM_4
100
AcDbCircle
 10
458.7146721946372
 20
500.553830138664
 30
0.0
 40
1.46412
100
AcDbArc
 50
186.6660749999994
 51
270.0077249999996
  0
LINE
  5
162
330
2
100
AcDbEntity
  8
AM_4
100
AcDbLine
 10
456.9932111946372
 20
499.9053751386639
 30
0.0
 11
457.0257511946373
 21
499.8225461386641
 31
0.0
  0
LINE
  5
163
330
2
100
AcDbEntity
  8
AM_4
100
AcDbLine
 10
457.2860701946372
 20
500.529549138664
 30
0.0
 11
456.8778421946372
 21
500.529549138664
 31
0.0
  0
LINE
  5
164
330
2
100
AcDbEntity
  8
AM_4
100
AcDbLine
 10
456.8778421946372
 20
500.529549138664
 30
0.0
 11
456.8808001946372
 21
500.437845138664
 31
0.0
  0
LINE
  5
165
330
2
100
AcDbEntity
  8
AM_4
100
AcDbLine
 10
456.8808001946372
 20
500.437845138664
 30
0.0
 11
456.8896751946372
 21
500.346142138664
 31
0.0
  0
LINE
  5
166
330
2
100
AcDbEntity
  8
AM_4
100
AcDbLine
 10
456.8896751946372
 20
500.346142138664
 30
0.0
 11
456.9015071946372
 21
500.2544391386641
 31
0.0
  0
LINE
  5
167
330
2
100
AcDbEntity
  8
AM_4
100
AcDbLine
 10
456.9015071946372
 20
500.2544391386641
 30
0.0
 11
456.9162981946372
 21
500.1656941386641
 31
0.0
  0
LINE
  5
168
330
2
100
AcDbEntity
  8
AM_4
100
AcDbLine
 10
456.9162981946372
 20
500.1656941386641
 30
0.0
 11
456.9370061946371
 21
500.076949138664
 31
0.0
  0
LINE
  5
169
330
2
100
AcDbEntity
  8
AM_4
100
AcDbLine
 10
456.9370061946371
 20
500.076949138664
 30
0.0
 11
456.9636291946372
 21
499.991162138664
 31
0.0
  0
LINE
  5
16A
330
2
100
AcDbEntity
  8
AM_4
100
AcDbLine
 10
456.9636291946372
 20
499.991162138664
 30
0.0
 11
456.9932111946372
 21
499.9053751386639
 31
0.0
  0
LINE
  5
16B
330
2
100
AcDbEntity
  8
AM_4
100
AcDbLine
 10
456.8778421946372
 20
500.529549138664
 30
0.0
 11
456.8778421946372
 21
500.529549138664
 31
0.0
  0
ARC
  5
16C
330
2
100
AcDbEntity
  8
AM_4
100
AcDbCircle
 10
458.7146721946372
 20
500.553830138664
 30
0.0
 40
1.43237
100
AcDbArc
 50
186.6660749999994
 51
270.0077249999996
  0
LINE
  5
16D
330
2
100
AcDbEntity
  8
AM_4
100
AcDbLine
 10
457.4221451946372
 20
499.2457031386641
 30
0.0
 11
457.4872251946372
 21
499.1865401386641
 31
0.0
  0
LINE
  5
16E
330
2
100
AcDbEntity
  8
AM_4
100
AcDbLine
 10
457.5789281946372
 20
499.393612138664
 30
0.0
 11
457.3718561946372
 21
499.6213911386639
 31
0.0
  0
LINE
  5
16F
330
2
100
AcDbEntity
  8
AM_4
100
AcDbLine
 10
457.4576431946373
 20
499.861002138664
 30
0.0
 11
457.4280621946372
 21
499.9231241386641
 31
0.0
  0
LINE
  5
170
330
2
100
AcDbEntity
  8
AM_4
100
AcDbLine
 10
457.2476131946372
 20
499.443900138664
 30
0.0
 11
457.3038191946372
 21
499.3758631386641
 31
0.0
  0
LINE
  5
171
330
2
100
AcDbEntity
  8
AM_4
100
AcDbLine
 10
457.3038191946372
 20
499.3758631386641
 30
0.0
 11
457.3629821946371
 21
499.307825138664
 31
0.0
  0
LINE
  5
172
330
2
100
AcDbEntity
  8
AM_4
100
AcDbLine
 10
457.3629821946371
 20
499.307825138664
 30
0.0
 11
457.4221451946372
 21
499.2457031386641
 31
0.0
  0
LINE
  5
173
330
2
100
AcDbEntity
  8
AM_4
100
AcDbLine
 10
457.0257511946373
 20
499.8225461386641
 30
0.0
 11
457.0642071946372
 21
499.742676138664
 31
0.0
  0
LINE
  5
174
330
2
100
AcDbEntity
  8
AM_4
100
AcDbLine
 10
457.3718561946372
 20
499.6213911386639
 30
0.0
 11
457.2269061946371
 21
499.9112911386641
 31
0.0
  0
LINE
  5
175
330
2
100
AcDbEntity
  8
AM_4
100
AcDbLine
 10
457.0642071946372
 20
499.742676138664
 30
0.0
 11
457.1056211946372
 21
499.6628051386641
 31
0.0
  0
LINE
  5
176
330
2
100
AcDbEntity
  8
AM_4
100
AcDbLine
 10
457.1056211946372
 20
499.6628051386641
 30
0.0
 11
457.1499941946371
 21
499.5888511386641
 31
0.0
  0
LINE
  5
177
330
2
100
AcDbEntity
  8
AM_4
100
AcDbLine
 10
457.1499941946371
 20
499.5888511386641
 30
0.0
 11
457.1973241946373
 21
499.5148961386639
 31
0.0
  0
LINE
  5
178
330
2
100
AcDbEntity
  8
AM_4
100
AcDbLine
 10
457.1973241946373
 20
499.5148961386639
 30
0.0
 11
457.2476131946372
 21
499.443900138664
 31
0.0
  0
LINE
  5
179
330
2
100
AcDbEntity
  8
AM_4
100
AcDbLine
 10
457.4280621946372
 20
499.9231241386641
 30
0.0
 11
457.3984801946372
 21
499.9822871386641
 31
0.0
  0
LINE
  5
17A
330
2
100
AcDbEntity
  8
AM_4
100
AcDbLine
 10
457.3984801946372
 20
499.9822871386641
 30
0.0
 11
457.3718561946372
 21
500.047367138664
 31
0.0
  0
LINE
  5
17B
330
2
100
AcDbEntity
  8
AM_4
100
AcDbLine
 10
457.3718561946372
 20
500.047367138664
 30
0.0
 11
457.3481911946371
 21
500.112447138664
 31
0.0
  0
LINE
  5
17C
330
2
100
AcDbEntity
  8
AM_4
100
AcDbLine
 10
457.3481911946371
 20
500.112447138664
 30
0.0
 11
457.3304421946373
 21
500.1804851386641
 31
0.0
  0
LINE
  5
17D
330
2
100
AcDbEntity
  8
AM_4
100
AcDbLine
 10
457.3304421946373
 20
500.1804851386641
 30
0.0
 11
457.3156511946372
 21
500.248522138664
 31
0.0
  0
LINE
  5
17E
330
2
100
AcDbEntity
  8
AM_4
100
AcDbLine
 10
457.3156511946372
 20
500.248522138664
 30
0.0
 11
457.3008601946372
 21
500.3165601386641
 31
0.0
  0
LINE
  5
17F
330
2
100
AcDbEntity
  8
AM_4
100
AcDbLine
 10
457.3008601946372
 20
500.3165601386641
 30
0.0
 11
457.2919861946372
 21
500.3875561386641
 31
0.0
  0
LINE
  5
180
330
2
100
AcDbEntity
  8
AM_4
100
AcDbLine
 10
457.2919861946372
 20
500.3875561386641
 30
0.0
 11
457.2860701946372
 21
500.458553138664
 31
0.0
  0
LINE
  5
181
330
2
100
AcDbEntity
  8
AM_4
100
AcDbLine
 10
457.2269061946371
 20
499.9112911386641
 30
0.0
 11
457.1233701946372
 21
500.2011921386642
 31
0.0
  0
LINE
  5
182
330
2
100
AcDbEntity
  8
AM_4
100
AcDbLine
 10
457.1233701946372
 20
500.2011921386642
 30
0.0
 11
457.0819561946372
 21
500.529549138664
 31
0.0
  0
ARC
  5
183
330
2
100
AcDbEntity
  8
AM_4
100
AcDbCircle
 10
458.2361291946372
 20
500.497901138664
 30
0.0
 40
0.9823199999999999
100
AcDbArc
 50
178.153772999999
 51
186.6660749999994
  0
LINE
  5
184
330
2
100
AcDbEntity
  8
AM_4
100
AcDbLine
 10
457.9220761946372
 20
499.3640301386641
 30
0.0
 11
457.8629131946373
 21
499.402486138664
 31
0.0
  0
LINE
  5
185
330
2
100
AcDbEntity
  8
AM_4
100
AcDbLine
 10
457.4872251946372
 20
499.1865401386641
 30
0.0
 11
457.5552631946372
 21
499.1273761386641
 31
0.0
  0
LINE
  5
186
330
2
100
AcDbEntity
  8
AM_4
100
AcDbLine
 10
457.5552631946372
 20
499.1273761386641
 30
0.0
 11
457.6233011946372
 21
499.074129138664
 31
0.0
  0
LINE
  5
187
330
2
100
AcDbEntity
  8
AM_4
100
AcDbLine
 10
457.6233011946372
 20
499.074129138664
 30
0.0
 11
457.6942971946373
 21
499.023840138664
 31
0.0
  0
LINE
  5
188
330
2
100
AcDbEntity
  8
AM_4
100
AcDbLine
 10
457.6942971946373
 20
499.023840138664
 30
0.0
 11
457.7712091946373
 21
498.976510138664
 31
0.0
  0
LINE
  5
189
330
2
100
AcDbEntity
  8
AM_4
100
AcDbLine
 10
457.7712091946373
 20
498.976510138664
 30
0.0
 11
457.8451641946371
 21
498.932137138664
 31
0.0
  0
LINE
  5
18A
330
2
100
AcDbEntity
  8
AM_4
100
AcDbLine
 10
457.8451641946371
 20
498.932137138664
 30
0.0
 11
457.9250341946373
 21
498.8936811386641
 31
0.0
  0
LINE
  5
18B
330
2
100
AcDbEntity
  8
AM_4
100
AcDbLine
 10
457.9250341946373
 20
498.8936811386641
 30
0.0
 11
458.0078631946371
 21
498.855225138664
 31
0.0
  0
LINE
  5
18C
330
2
100
AcDbEntity
  8
AM_4
100
AcDbLine
 10
458.0078631946371
 20
498.855225138664
 30
0.0
 11
458.0906921946373
 21
498.8256431386639
 31
0.0
  0
LINE
  5
18D
330
2
100
AcDbEntity
  8
AM_4
100
AcDbLine
 10
458.0906921946373
 20
498.8256431386639
 30
0.0
 11
458.1764791946372
 21
498.7960611386641
 31
0.0
  0
LINE
  5
18E
330
2
100
AcDbEntity
  8
AM_4
100
AcDbLine
 10
458.1764791946372
 20
498.7960611386641
 30
0.0
 11
458.2622651946373
 21
498.769438138664
 31
0.0
  0
LINE
  5
18F
330
2
100
AcDbEntity
  8
AM_4
100
AcDbLine
 10
458.2622651946373
 20
498.769438138664
 30
0.0
 11
458.4397561946373
 21
498.733940138664
 31
0.0
  0
LINE
  5
190
330
2
100
AcDbEntity
  8
AM_4
100
AcDbLine
 10
458.4397561946373
 20
498.733940138664
 30
0.0
 11
458.6231621946372
 21
498.7161911386642
 31
0.0
  0
LINE
  5
191
330
2
100
AcDbEntity
  8
AM_4
100
AcDbLine
 10
458.6231621946372
 20
498.7161911386642
 30
0.0
 11
458.7148651946372
 21
498.713233138664
 31
0.0
  0
LINE
  5
192
330
2
100
AcDbEntity
  8
AM_4
100
AcDbLine
 10
458.6438691946372
 20
499.1214601386641
 30
0.0
 11
458.5699151946372
 21
499.1273761386641
 31
0.0
  0
LINE
  5
193
330
2
100
AcDbEntity
  8
AM_4
100
AcDbLine
 10
458.5699151946372
 20
499.1273761386641
 30
0.0
 11
458.4989191946371
 21
499.1362511386641
 31
0.0
  0
LINE
  5
194
330
2
100
AcDbEntity
  8
AM_4
100
AcDbLine
 10
458.4989191946371
 20
499.1362511386641
 30
0.0
 11
458.4308811946372
 21
499.1480831386641
 31
0.0
  0
LINE
  5
195
330
2
100
AcDbEntity
  8
AM_4
100
AcDbLine
 10
458.2948051946372
 20
499.183582138664
 30
0.0
 11
458.4308811946372
 21
499.1480831386641
 31
0.0
  0
LINE
  5
196
330
2
100
AcDbEntity
  8
AM_4
100
AcDbLine
 10
458.1646461946372
 20
499.2309121386639
 30
0.0
 11
458.2948051946372
 21
499.183582138664
 31
0.0
  0
LINE
  5
197
330
2
100
AcDbEntity
  8
AM_4
100
AcDbLine
 10
458.1646461946372
 20
499.2309121386639
 30
0.0
 11
458.0995661946372
 21
499.2604941386639
 31
0.0
  0
LINE
  5
198
330
2
100
AcDbEntity
  8
AM_4
100
AcDbLine
 10
458.0995661946372
 20
499.2604941386639
 30
0.0
 11
458.0404031946372
 21
499.290076138664
 31
0.0
  0
LINE
  5
199
330
2
100
AcDbEntity
  8
AM_4
100
AcDbLine
 10
458.0404031946372
 20
499.290076138664
 30
0.0
 11
457.9782811946372
 21
499.325574138664
 31
0.0
  0
LINE
  5
19A
330
2
100
AcDbEntity
  8
AM_4
100
AcDbLine
 10
457.9782811946372
 20
499.325574138664
 30
0.0
 11
457.9220761946372
 21
499.3640301386641
 31
0.0
  0
LINE
  5
19B
330
2
100
AcDbEntity
  8
AM_4
100
AcDbLine
 10
458.7148651946372
 20
499.1214601386641
 30
0.0
 11
458.7148651946372
 21
498.713233138664
 31
0.0
  0
LINE
  5
19C
330
2
100
AcDbEntity
  8
AM_4
100
AcDbLine
 10
458.7148651946372
 20
498.713233138664
 30
0.0
 11
458.7148651946372
 21
498.713233138664
 31
0.0
  0
LINE
  5
19D
330
2
100
AcDbEntity
  8
AM_4
100
AcDbLine
 10
458.7148651946372
 20
498.917346138664
 30
0.0
 11
458.3865091946373
 21
498.9380531386641
 31
0.0
  0
LINE
  5
19E
330
2
100
AcDbEntity
  8
AM_4
100
AcDbLine
 10
458.3865091946373
 20
498.9380531386641
 30
0.0
 11
458.0966081946372
 21
499.0415891386641
 31
0.0
  0
LINE
  5
19F
330
2
100
AcDbEntity
  8
AM_4
100
AcDbLine
 10
458.0966081946372
 20
499.0415891386641
 30
0.0
 11
457.8067071946372
 21
499.1865401386641
 31
0.0
  0
LINE
  5
1A0
330
2
100
AcDbEntity
  8
AM_4
100
AcDbLine
 10
457.8067071946372
 20
499.1865401386641
 30
0.0
 11
457.5789281946372
 21
499.393612138664
 31
0.0
  0
LINE
  5
1A1
330
2
100
AcDbEntity
  8
AM_4
100
AcDbLine
 10
457.5315981946372
 20
499.745634138664
 30
0.0
 11
457.4931411946372
 21
499.8018391386641
 31
0.0
  0
LINE
  5
1A2
330
2
100
AcDbEntity
  8
AM_4
100
AcDbLine
 10
457.8096651946371
 20
499.443900138664
 30
0.0
 11
457.7564181946372
 21
499.4882731386641
 31
0.0
  0
LINE
  5
1A3
330
2
100
AcDbEntity
  8
AM_4
100
AcDbLine
 10
457.6587991946373
 20
499.5858931386641
 30
0.0
 11
457.7564181946372
 21
499.4882731386641
 31
0.0
  0
LINE
  5
1A4
330
2
100
AcDbEntity
  8
AM_4
100
AcDbLine
 10
457.6587991946373
 20
499.5858931386641
 30
0.0
 11
457.6144261946373
 21
499.636181138664
 31
0.0
  0
LINE
  5
1A5
330
2
100
AcDbEntity
  8
AM_4
100
AcDbLine
 10
457.6144261946373
 20
499.636181138664
 30
0.0
 11
457.5730121946372
 21
499.6894281386641
 31
0.0
  0
LINE
  5
1A6
330
2
100
AcDbEntity
  8
AM_4
100
AcDbLine
 10
457.5730121946372
 20
499.6894281386641
 30
0.0
 11
457.5315981946372
 21
499.745634138664
 31
0.0
  0
LINE
  5
1A7
330
2
100
AcDbEntity
  8
AM_4
100
AcDbLine
 10
457.8629131946373
 20
499.402486138664
 30
0.0
 11
457.8096651946371
 21
499.443900138664
 31
0.0
  0
LINE
  5
1A8
330
2
100
AcDbEntity
  8
AM_4
100
AcDbLine
 10
457.4931411946372
 20
499.8018391386641
 30
0.0
 11
457.4576431946373
 21
499.861002138664
 31
0.0
  0
LINE
  5
1A9
330
2
100
AcDbEntity
  8
AM_4
100
AcDbLine
 10
503.8654051946372
 20
499.3758631386641
 30
0.0
 11
503.9216111946371
 21
499.443900138664
 31
0.0
  0
LINE
  5
1AA
330
2
100
AcDbEntity
  8
AM_4
100
AcDbLine
 10
503.2501061946373
 20
499.3610721386641
 30
0.0
 11
503.3625171946373
 21
499.443900138664
 31
0.0
  0
LINE
  5
1AB
330
2
100
AcDbEntity
  8
AM_4
100
AcDbLine
 10
503.8121581946373
 20
499.6213911386639
 30
0.0
 11
503.6050861946372
 21
499.393612138664
 31
0.0
  0
LINE
  5
1AC
330
2
100
AcDbEntity
  8
AM_4
100
AcDbLine
 10
502.9069581946372
 20
498.769438138664
 30
0.0
 11
502.9957041946373
 21
498.7960611386641
 31
0.0
  0
LINE
  5
1AD
330
2
100
AcDbEntity
  8
AM_4
100
AcDbLine
 10
502.9957041946373
 20
498.7960611386641
 30
0.0
 11
503.0814901946372
 21
498.8256431386639
 31
0.0
  0
LINE
  5
1AE
330
2
100
AcDbEntity
  8
AM_4
100
AcDbLine
 10
503.0814901946372
 20
498.8256431386639
 30
0.0
 11
503.1643191946373
 21
498.855225138664
 31
0.0
  0
LINE
  5
1AF
330
2
100
AcDbEntity
  8
AM_4
100
AcDbLine
 10
503.1643191946373
 20
498.855225138664
 30
0.0
 11
503.2471481946372
 21
498.8936811386641
 31
0.0
  0
LINE
  5
1B0
330
2
100
AcDbEntity
  8
AM_4
100
AcDbLine
 10
503.2471481946372
 20
498.8936811386641
 30
0.0
 11
503.3240601946372
 21
498.932137138664
 31
0.0
  0
LINE
  5
1B1
330
2
100
AcDbEntity
  8
AM_4
100
AcDbLine
 10
503.3240601946372
 20
498.932137138664
 30
0.0
 11
503.4009731946372
 21
498.976510138664
 31
0.0
  0
LINE
  5
1B2
330
2
100
AcDbEntity
  8
AM_4
100
AcDbLine
 10
503.4009731946372
 20
498.976510138664
 30
0.0
 11
503.4778851946372
 21
499.023840138664
 31
0.0
  0
LINE
  5
1B3
330
2
100
AcDbEntity
  8
AM_4
100
AcDbLine
 10
503.4778851946372
 20
499.023840138664
 30
0.0
 11
503.5488811946372
 21
499.074129138664
 31
0.0
  0
LINE
  5
1B4
330
2
100
AcDbEntity
  8
AM_4
100
AcDbLine
 10
503.5488811946372
 20
499.074129138664
 30
0.0
 11
503.6198771946373
 21
499.1273761386641
 31
0.0
  0
LINE
  5
1B5
330
2
100
AcDbEntity
  8
AM_4
100
AcDbLine
 10
503.6198771946373
 20
499.1273761386641
 30
0.0
 11
503.7500371946372
 21
499.2457031386641
 31
0.0
  0
LINE
  5
1B6
330
2
100
AcDbEntity
  8
AM_4
100
AcDbLine
 10
503.7500371946372
 20
499.2457031386641
 30
0.0
 11
503.8092001946372
 21
499.307825138664
 31
0.0
  0
LINE
  5
1B7
330
2
100
AcDbEntity
  8
AM_4
100
AcDbLine
 10
503.8092001946372
 20
499.307825138664
 30
0.0
 11
503.8654051946372
 21
499.3758631386641
 31
0.0
  0
LINE
  5
1B8
330
2
100
AcDbEntity
  8
AM_4
100
AcDbLine
 10
503.2501061946373
 20
499.3610721386641
 30
0.0
 11
503.1939011946373
 21
499.325574138664
 31
0.0
  0
LINE
  5
1B9
330
2
100
AcDbEntity
  8
AM_4
100
AcDbLine
 10
503.1939011946373
 20
499.325574138664
 30
0.0
 11
503.1347381946373
 21
499.290076138664
 31
0.0
  0
LINE
  5
1BA
330
2
100
AcDbEntity
  8
AM_4
100
AcDbLine
 10
503.1347381946373
 20
499.290076138664
 30
0.0
 11
503.0726161946372
 21
499.2604941386639
 31
0.0
  0
LINE
  5
1BB
330
2
100
AcDbEntity
  8
AM_4
100
AcDbLine
 10
503.0726161946372
 20
499.2604941386639
 30
0.0
 11
503.0075361946372
 21
499.2309121386639
 31
0.0
  0
LINE
  5
1BC
330
2
100
AcDbEntity
  8
AM_4
100
AcDbLine
 10
502.8773771946372
 20
499.183582138664
 30
0.0
 11
503.0075361946372
 21
499.2309121386639
 31
0.0
  0
LINE
  5
1BD
330
2
100
AcDbEntity
  8
AM_4
100
AcDbLine
 10
502.8773771946372
 20
499.183582138664
 30
0.0
 11
502.8093391946372
 21
499.1658321386641
 31
0.0
  0
LINE
  5
1BE
330
2
100
AcDbEntity
  8
AM_4
100
AcDbLine
 10
503.6050861946372
 20
499.393612138664
 30
0.0
 11
503.3566001946371
 21
499.1865401386641
 31
0.0
  0
LINE
  5
1BF
330
2
100
AcDbEntity
  8
AM_4
100
AcDbLine
 10
503.3566001946371
 20
499.1865401386641
 30
0.0
 11
503.0874071946372
 21
499.0415891386641
 31
0.0
  0
LINE
  5
1C0
330
2
100
AcDbEntity
  8
AM_4
100
AcDbLine
 10
503.0874071946372
 20
499.0415891386641
 30
0.0
 11
502.7767991946372
 21
498.9380531386641
 31
0.0
  0
LINE
  5
1C1
330
2
100
AcDbEntity
  8
AM_4
100
AcDbLine
 10
504.2854651946371
 20
500.529549138664
 30
0.0
 11
504.2854651946371
 21
500.529549138664
 31
0.0
  0
LINE
  5
1C2
330
2
100
AcDbEntity
  8
AM_4
100
AcDbLine
 10
504.1405151946372
 20
499.8225461386641
 30
0.0
 11
504.1730551946373
 21
499.9053751386639
 31
0.0
  0
LINE
  5
1C3
330
2
100
AcDbEntity
  8
AM_4
100
AcDbLine
 10
504.1730551946373
 20
499.9053751386639
 30
0.0
 11
504.2026371946372
 21
499.991162138664
 31
0.0
  0
LINE
  5
1C4
330
2
100
AcDbEntity
  8
AM_4
100
AcDbLine
 10
504.2026371946372
 20
499.991162138664
 30
0.0
 11
504.2263021946372
 21
500.076949138664
 31
0.0
  0
LINE
  5
1C5
330
2
100
AcDbEntity
  8
AM_4
100
AcDbLine
 10
504.2263021946372
 20
500.076949138664
 30
0.0
 11
504.2470091946372
 21
500.1656941386641
 31
0.0
  0
LINE
  5
1C6
330
2
100
AcDbEntity
  8
AM_4
100
AcDbLine
 10
504.2470091946372
 20
500.1656941386641
 30
0.0
 11
504.2647581946372
 21
500.2544391386641
 31
0.0
  0
LINE
  5
1C7
330
2
100
AcDbEntity
  8
AM_4
100
AcDbLine
 10
504.2647581946372
 20
500.2544391386641
 30
0.0
 11
504.2825071946372
 21
500.437845138664
 31
0.0
  0
LINE
  5
1C8
330
2
100
AcDbEntity
  8
AM_4
100
AcDbLine
 10
504.2825071946372
 20
500.437845138664
 30
0.0
 11
504.2854651946371
 21
500.529549138664
 31
0.0
  0
LINE
  5
1C9
330
2
100
AcDbEntity
  8
AM_4
100
AcDbLine
 10
504.2854651946371
 20
500.529549138664
 30
0.0
 11
503.8772381946372
 21
500.529549138664
 31
0.0
  0
LINE
  5
1CA
330
2
100
AcDbEntity
  8
AM_4
100
AcDbLine
 10
503.8772381946372
 20
500.458553138664
 30
0.0
 11
503.8713221946372
 21
500.3875561386641
 31
0.0
  0
LINE
  5
1CB
330
2
100
AcDbEntity
  8
AM_4
100
AcDbLine
 10
503.8713221946372
 20
500.3875561386641
 30
0.0
 11
503.8624471946373
 21
500.3165601386641
 31
0.0
  0
LINE
  5
1CC
330
2
100
AcDbEntity
  8
AM_4
100
AcDbLine
 10
503.8624471946373
 20
500.3165601386641
 30
0.0
 11
503.8506151946371
 21
500.2455641386641
 31
0.0
  0
LINE
  5
1CD
330
2
100
AcDbEntity
  8
AM_4
100
AcDbLine
 10
503.8506151946371
 20
500.2455641386641
 30
0.0
 11
503.8328661946372
 21
500.1775261386641
 31
0.0
  0
LINE
  5
1CE
330
2
100
AcDbEntity
  8
AM_4
100
AcDbLine
 10
503.8328661946372
 20
500.1775261386641
 30
0.0
 11
503.8151161946371
 21
500.112447138664
 31
0.0
  0
LINE
  5
1CF
330
2
100
AcDbEntity
  8
AM_4
100
AcDbLine
 10
503.7677861946372
 20
499.9822871386641
 30
0.0
 11
503.8151161946371
 21
500.112447138664
 31
0.0
  0
LINE
  5
1D0
330
2
100
AcDbEntity
  8
AM_4
100
AcDbLine
 10
503.7086221946373
 20
499.858044138664
 30
0.0
 11
503.7677861946372
 21
499.9822871386641
 31
0.0
  0
LINE
  5
1D1
330
2
100
AcDbEntity
  8
AM_4
100
AcDbLine
 10
503.7086221946373
 20
499.858044138664
 30
0.0
 11
503.6731241946372
 21
499.8018391386641
 31
0.0
  0
LINE
  5
1D2
330
2
100
AcDbEntity
  8
AM_4
100
AcDbLine
 10
504.0813521946372
 20
500.529549138664
 30
0.0
 11
504.0606451946372
 21
500.2011921386642
 31
0.0
  0
LINE
  5
1D3
330
2
100
AcDbEntity
  8
AM_4
100
AcDbLine
 10
504.0606451946372
 20
500.2011921386642
 30
0.0
 11
503.9571091946371
 21
499.9112911386641
 31
0.0
  0
LINE
  5
1D4
330
2
100
AcDbEntity
  8
AM_4
100
AcDbLine
 10
504.1050171946372
 20
499.742676138664
 30
0.0
 11
504.1405151946372
 21
499.8225461386641
 31
0.0
  0
LINE
  5
1D5
330
2
100
AcDbEntity
  8
AM_4
100
AcDbLine
 10
503.6731241946372
 20
499.8018391386641
 30
0.0
 11
503.6376261946371
 21
499.742676138664
 31
0.0
  0
LINE
  5
1D6
330
2
100
AcDbEntity
  8
AM_4
100
AcDbLine
 10
503.9571091946371
 20
499.9112911386641
 30
0.0
 11
503.8121581946373
 21
499.6213911386639
 31
0.0
  0
LINE
  5
1D7
330
2
100
AcDbEntity
  8
AM_4
100
AcDbLine
 10
503.9216111946371
 20
499.443900138664
 30
0.0
 11
503.9718991946371
 21
499.5148961386639
 31
0.0
  0
LINE
  5
1D8
330
2
100
AcDbEntity
  8
AM_4
100
AcDbLine
 10
503.9718991946371
 20
499.5148961386639
 30
0.0
 11
504.0192301946373
 21
499.5888511386641
 31
0.0
  0
LINE
  5
1D9
330
2
100
AcDbEntity
  8
AM_4
100
AcDbLine
 10
504.0192301946373
 20
499.5888511386641
 30
0.0
 11
504.0636031946371
 21
499.665763138664
 31
0.0
  0
LINE
  5
1DA
330
2
100
AcDbEntity
  8
AM_4
100
AcDbLine
 10
504.0636031946371
 20
499.665763138664
 30
0.0
 11
504.1050171946372
 21
499.742676138664
 31
0.0
  0
LINE
  5
1DB
330
2
100
AcDbEntity
  8
AM_4
100
AcDbLine
 10
503.6376261946371
 20
499.742676138664
 30
0.0
 11
503.5962121946372
 21
499.6894281386641
 31
0.0
  0
LINE
  5
1DC
330
2
100
AcDbEntity
  8
AM_4
100
AcDbLine
 10
503.5962121946372
 20
499.6894281386641
 30
0.0
 11
503.5547981946372
 21
499.6332231386641
 31
0.0
  0
LINE
  5
1DD
330
2
100
AcDbEntity
  8
AM_4
100
AcDbLine
 10
503.5547981946372
 20
499.6332231386641
 30
0.0
 11
503.5104251946371
 21
499.5829341386641
 31
0.0
  0
LINE
  5
1DE
330
2
100
AcDbEntity
  8
AM_4
100
AcDbLine
 10
503.5104251946371
 20
499.5829341386641
 30
0.0
 11
503.4630941946373
 21
499.535604138664
 31
0.0
  0
LINE
  5
1DF
330
2
100
AcDbEntity
  8
AM_4
100
AcDbLine
 10
503.4630941946373
 20
499.535604138664
 30
0.0
 11
503.4128051946372
 21
499.4882731386641
 31
0.0
  0
LINE
  5
1E0
330
2
100
AcDbEntity
  8
AM_4
100
AcDbLine
 10
503.4128051946372
 20
499.4882731386641
 30
0.0
 11
503.3625171946373
 21
499.443900138664
 31
0.0
  0
ARC
  5
1E1
330
2
100
AcDbEntity
  8
AM_4
100
AcDbCircle
 10
502.4693241946372
 20
500.529549138664
 30
0.0
 40
1.816141999999999
100
AcDbArc
 50
274.5582889999987
 51
0.0
  0
LINE
  5
1E2
330
2
100
AcDbEntity
  8
AM_4
100
AcDbLine
 10
502.7294681946373
 20
498.733940138664
 30
0.0
 11
502.9069581946372
 21
498.769438138664
 31
0.0
  0
LINE
  5
1E3
330
2
100
AcDbEntity
  8
AM_4
100
AcDbLine
 10
502.6673471946373
 20
499.1362511386641
 30
0.0
 11
502.8093391946372
 21
499.1658321386641
 31
0.0
  0
LINE
  5
1E4
330
2
100
AcDbEntity
  8
AM_4
100
AcDbLine
 10
502.4484421946373
 20
498.713233138664
 30
0.0
 11
502.5401451946372
 21
498.7161911386642
 31
0.0
  0
LINE
  5
1E5
330
2
100
AcDbEntity
  8
AM_4
100
AcDbLine
 10
502.5963511946372
 20
499.1273761386641
 30
0.0
 11
502.5223961946372
 21
499.1214601386641
 31
0.0
  0
LINE
  5
1E6
330
2
100
AcDbEntity
  8
AM_4
100
AcDbLine
 10
502.4484421946373
 20
498.713233138664
 30
0.0
 11
502.4484421946373
 21
498.713233138664
 31
0.0
  0
LINE
  5
1E7
330
2
100
AcDbEntity
  8
AM_4
100
AcDbLine
 10
502.4484421946373
 20
498.713233138664
 30
0.0
 11
502.4484421946373
 21
499.1214601386641
 31
0.0
  0
LINE
  5
1E8
330
2
100
AcDbEntity
  8
AM_4
100
AcDbLine
 10
502.5401451946372
 20
498.7161911386642
 30
0.0
 11
502.7294681946373
 21
498.733940138664
 31
0.0
  0
LINE
  5
1E9
330
2
100
AcDbEntity
  8
AM_4
100
AcDbLine
 10
502.6673471946373
 20
499.1362511386641
 30
0.0
 11
502.5963511946372
 21
499.1273761386641
 31
0.0
  0
ARC
  5
1EA
330
2
100
AcDbEntity
  8
AM_4
100
AcDbCircle
 10
502.4693241946372
 20
500.529549138664
 30
0.0
 40
1.407913999999998
100
AcDbArc
 50
275.1764690000012
 51
0.0
  0
ARC
  5
1EB
330
2
100
AcDbEntity
  8
AM_4
100
AcDbCircle
 10
502.4693241946372
 20
500.529549138664
 30
0.0
 40
1.439664999999999
100
AcDbArc
 50
275.1191170000013
 51
0.0
  0
LINE
  5
1EC
330
2
100
AcDbEntity
  8
AM_4
100
AcDbLine
 10
502.7767991946372
 20
498.9380531386641
 30
0.0
 11
502.4484421946373
 21
498.917346138664
 31
0.0
  0
LINE
  5
1ED
330
2
100
AcDbEntity
  8
AM_4
100
AcDbLine
 10
487.7927041946371
 20
508.5431511386641
 30
0.0
 11
487.4965921946373
 21
508.6239091386641
 31
0.0
  0
LINE
  5
1EE
330
2
100
AcDbEntity
  8
AM_4
100
AcDbLine
 10
487.1466401946372
 20
510.908207138664
 30
0.0
 11
487.8465431946373
 21
510.8543681386641
 31
0.0
  0
LINE
  5
1EF
330
2
100
AcDbEntity
  8
AM_4
100
AcDbLine
 10
485.5891641946373
 20
506.147329138664
 30
0.0
 11
488.1964951946372
 21
508.3277961386641
 31
0.0
  0
LINE
  5
1F0
330
2
100
AcDbEntity
  8
AM_4
100
AcDbLine
 10
487.9003821946372
 20
502.1940321386639
 30
0.0
 11
487.4427531946373
 21
502.1940321386639
 31
0.0
  0
LINE
  5
1F1
330
2
100
AcDbEntity
  8
AM_4
100
AcDbLine
 10
487.7388661946372
 20
504.4821761386641
 30
0.0
 11
488.2772531946373
 21
504.4821761386641
 31
0.0
  0
LINE
  5
1F2
330
2
100
AcDbEntity
  8
AM_4
100
AcDbLine
 10
458.6438691946372
 20
516.2137631386641
 30
0.0
 11
502.5223961946372
 21
516.2137631386641
 31
0.0
  0
LINE
  5
1F3
330
2
100
AcDbEntity
  8
AM_4
100
AcDbLine
 10
458.7148651946372
 20
516.417877138664
 30
0.0
 11
502.4484421946373
 21
516.417877138664
 31
0.0
  0
LINE
  5
1F4
330
2
100
AcDbEntity
  8
AM_4
100
AcDbLine
 10
458.7148651946372
 20
516.621990138664
 30
0.0
 11
502.4484421946373
 21
516.621990138664
 31
0.0
  0
LINE
  5
1F5
330
2
100
AcDbEntity
  8
AM_4
100
AcDbLine
 10
458.7148651946372
 20
516.2455141386641
 30
0.0
 11
502.4484421946373
 21
516.2455141386641
 31
0.0
  0
HATCH
  5
1F6
330
2
100
AcDbEntity
  8
AM_4
100
AcDbHatch
 10
0.0
 20
0.0
 30
0.0
210
0.0
220
0.0
230
1.0
  2
SOLID
 70
     1
 71
     0
 91
        8
 92
        7
 72
     0
 73
     1
 93
       23
 10
464.7189830760171
 20
507.6548125585226
 10
464.7728217596712
 20
507.9509253186181
 10
464.8804991269776
 20
508.166280053233
 10
465.0420151779385
 20
508.3277961041933
 10
465.2035312289013
 20
508.4623928133289
 10
465.5265633308222
 20
508.5431508388094
 10
465.6880793817849
 20
508.5700701806366
 10
465.9841921418811
 20
508.5700701806366
 10
465.9841921418811
 20
510.8005299320073
 10
465.0150958361123
 20
510.8005299320073
 10
464.4767089995753
 20
510.7736105901802
 10
464.0190801885182
 20
510.7197719065267
 10
463.6422094029382
 20
510.5851751973926
 10
463.2922579591916
 20
510.4505784882577
 10
463.0269101611818
 20
510.2621430954715
 10
462.784636084743
 20
510.0737077026823
 10
462.5962006919547
 20
509.8583529680665
 10
462.4346846409933
 20
509.6429982334504
 10
462.2462492482051
 20
509.1892150426548
 10
462.1385718808975
 20
508.8123442570788
 10
462.1116525390695
 20
508.4623928133303
 10
462.1116525390695
 20
502.3017091552326
 10
464.7189830760171
 20
502.3017091552326
 97
        0
 92
        7
 72
     0
 73
     1
 93
       54
 10
474.2945775258681
 20
508.0855220277523
 10
474.0523034494255
 20
508.6239088642902
 10
473.7023520056753
 20
509.1622957008286
 10
473.2985618782726
 20
509.6160788916241
 10
472.7870943835616
 20
510.0467883608546
 10
472.2217882051968
 20
510.3967398046044
 10
471.6026433431773
 20
510.6659332228728
 10
470.9335054177674
 20
510.8543686156611
 10
470.2336025302684
 20
510.908207299315
 10
469.7221350355577
 20
510.8812879574879
 10
469.2645062244993
 20
510.8005299320076
 10
468.8337967552691
 20
510.6928525647001
 10
468.430006627867
 20
510.5313365137378
 10
468.0531358422909
 20
510.3429011209498
 10
467.7301037403678
 20
510.1275463863358
 10
467.4339909802717
 20
509.8583529680661
 10
467.1378782201757
 20
509.5891595497988
 10
466.8994497639966
 20
509.2968924099634
 10
466.7110143712075
 20
508.97386030804
 10
466.5225789784186
 20
508.623908864289
 10
466.3879822692851
 20
508.2739574205417
 10
466.1995468764954
 20
507.5471351912143
 10
466.1187888510141
 20
506.7933936200629
 10
466.145708192843
 20
506.2280874416991
 10
466.2264662183229
 20
505.7204655672474
 10
466.3610629274566
 20
505.2359174143641
 10
466.5494983202449
 20
504.7782886033053
 10
466.7648530548615
 20
504.3744984759023
 10
467.0071271313013
 20
503.9976276903273
 10
467.2993942711356
 20
503.6476762465773
 10
467.6224263730601
 20
503.3246441446541
 10
467.9992971586357
 20
503.0554507263856
 10
468.3761679442087
 20
502.8400959917721
 10
468.779958071617
 20
502.6247412571548
 10
469.1837481990193
 20
502.4632252061937
 10
469.6413770100806
 20
502.3555478388852
 10
470.0720864793074
 20
502.2478704715788
 10
470.5297152903638
 20
502.194031787925
 10
470.9834984811626
 20
502.194031787925
 10
471.6026433431773
 20
502.220951129752
 10
472.1679495215432
 20
502.3017091552326
 10
472.6524976744284
 20
502.4093865225406
 10
473.0832071436573
 20
502.5439832316746
 10
473.6754326638471
 20
502.8131766499433
 10
473.8638680566374
 20
502.9208540172508
 10
473.8638680566374
 20
505.5589495162861
 10
473.2716425364446
 20
505.1551593888831
 10
472.6794170162539
 20
504.8321272869602
 10
472.0064334705798
 20
504.5898532105177
 10
471.6834013686593
 20
504.5090951850373
 10
471.3603692667376
 20
504.4821758432106
 10
470.8258280504598
 20
504.4821758432106
 10
470.448957264884
 20
504.5629338686907
 10
470.2874412139228
 20
504.5898532105182
 97
        0
 92
       22
 72
     0
 73
     1
 93
       15
 10
468.672280704308
 20
506.1473294162158
 10
468.5915226788273
 20
506.3357648090048
 10
468.537683995175
 20
506.5511195436139
 10
468.4838453115211
 20
506.8203129618892
 10
468.5107646533471
 20
507.1433450638118
 10
468.5915226788273
 20
507.493296507561
 10
468.779958071617
 20
507.8701672931376
 10
469.1029901735388
 20
508.2470380787139
 10
469.4798609591138
 20
508.5162314969824
 10
469.8836510865186
 20
508.6508282061173
 10
470.2605218720946
 20
508.677747547944
 10
470.5835539740184
 20
508.6239088642902
 10
470.8796667341137
 20
508.5431508388096
 10
471.091175848468
 20
508.4354734715018
 10
471.2796112412558
 20
508.3277961041944
 97
        0
 92
        7
 72
     0
 73
     1
 93
       27
 10
477.4672142411787
 20
508.0855220277526
 10
478.624745939735
 20
508.0855220277526
 10
478.624745939735
 20
510.1006270445081
 10
477.4672142411787
 20
510.1006270445081
 10
477.4672142411787
 20
510.9889653247948
 10
477.5210529248332
 20
511.2850780848909
 10
477.6287302921396
 20
511.5004328195063
 10
477.7902463431034
 20
511.6619488704678
 10
477.9517623940629
 20
511.7965455796023
 10
478.3017138378113
 20
511.8773036050828
 10
478.4363105469472
 20
511.9042229469097
 10
478.7285776867816
 20
511.9042229469097
 10
478.7285776867816
 20
513.9731666473192
 10
477.7633270012747
 20
513.9731666473192
 10
477.2518595065636
 20
513.9462473054924
 10
476.7942306955084
 20
513.8654892800117
 10
476.3904405681063
 20
513.7308925708781
 10
476.0404891243544
 20
513.596295861743
 10
475.771295706084
 20
513.407860468955
 10
475.5290216296428
 20
513.2232706964282
 10
475.3405862368548
 20
513.0079159618125
 10
475.2059895277223
 20
512.7925612271987
 10
474.9906347931054
 20
512.3618517579676
 10
474.8829574257978
 20
511.9580616305633
 10
474.8560380839708
 20
511.6081101868116
 10
474.8560380839708
 20
502.3286284970596
 10
477.4672142411787
 20
502.3286284970596
 97
        0
 92
        7
 72
     0
 73
     1
 93
        4
 10
482.3088501497585
 20
513.9731666473192
 10
479.5899966252426
 20
513.9731666473192
 10
479.5899966252426
 20
502.3286284970596
 10
482.3088501497585
 20
502.3286284970596
 97
        0
 92
        7
 72
     0
 73
     1
 93
       54
 10
491.2076154336751
 20
508.0855220277523
 10
490.9653413572327
 20
508.6239088642908
 10
490.6153899134833
 20
509.1622957008286
 10
490.2115997860806
 20
509.6160788916241
 10
489.7039779116294
 20
510.0467883608549
 10
489.1386717332671
 20
510.3967398046035
 10
488.5195268712474
 20
510.6659332228728
 10
487.8465433255747
 20
510.8543686156611
 10
487.146640438076
 20
510.908207299315
 10
486.6351729433653
 20
510.8812879574879
 10
486.1813897525673
 20
510.8005299320076
 10
485.7506802833387
 20
510.6928525646998
 10
485.3468901559327
 20
510.5313365137378
 10
484.9700193703578
 20
510.3429011209497
 10
484.6469872684353
 20
510.1275463863347
 10
484.3508745083417
 20
509.8583529680661
 10
484.0547617482457
 20
509.5891595497972
 10
483.8394070136305
 20
509.2968924099626
 10
483.6240522790156
 20
508.9738603080408
 10
483.4356168862263
 20
508.6239088642908
 10
483.3010201770918
 20
508.2739574205417
 10
483.1125847843042
 20
507.5471351912153
 10
483.0318267588221
 20
506.7933936200613
 10
483.0587461006493
 20
506.2280874416982
 10
483.1395041261306
 20
505.7204655672478
 10
483.2741008352651
 20
505.2359174143639
 10
483.4625362280539
 20
504.7782886033056
 10
483.6778909626696
 20
504.374498475899
 10
483.9201650391109
 20
503.9976276903263
 10
484.2162777992057
 20
503.6476762465772
 10
484.5662292429557
 20
503.3246441446548
 10
484.9161806867056
 20
503.0554507263853
 10
485.2930514722801
 20
502.8400959917703
 10
485.6968415996853
 20
502.6247412571548
 10
486.1006317270886
 20
502.4632252061938
 10
486.5544149178869
 20
502.3555478388852
 10
486.9851243871133
 20
502.2478704715788
 10
487.4427531981718
 20
502.194031787925
 10
487.9003820092271
 20
502.194031787925
 10
488.5195268712458
 20
502.220951129752
 10
489.0848330496129
 20
502.3017091552326
 10
489.5963005443218
 20
502.4093865225398
 10
490.0000906717267
 20
502.5439832316743
 10
490.5884705716545
 20
502.8131766499438
 10
490.7769059644443
 20
502.9208540172508
 10
490.7769059644456
 20
505.5589495162856
 10
490.1846804442543
 20
505.1551593888831
 10
489.5963005443233
 20
504.8321272869596
 10
488.9233169986513
 20
504.5898532105183
 10
488.6002848967275
 20
504.5090951850373
 10
488.2772527948051
 20
504.4821758432106
 10
487.7388659582678
 20
504.4821758432106
 10
487.3619951726916
 20
504.5629338686913
 10
487.2004791217305
 20
504.5898532105183
 97
        0
 92
       22
 72
     0
 73
     1
 93
       15
 10
485.4007288395886
 20
506.8203129618886
 10
485.4276481814149
 20
507.1433450638111
 10
485.5084062068975
 20
507.493296507561
 10
485.6968415996848
 20
507.8701672931368
 10
486.0198737016085
 20
508.2470380787139
 10
486.3928988669218
 20
508.5162314969826
 10
486.796688994326
 20
508.6508282061173
 10
487.1735597799021
 20
508.677747547944
 10
487.496591881826
 20
508.6239088642902
 10
487.7927046419206
 20
508.5431508388096
 10
488.0080593765367
 20
508.4354734715017
 10
488.1964947693249
 20
508.3277961041944
 10
485.5891642323778
 20
506.1473294162166
 10
485.5084062068975
 20
506.335764809004
 10
485.4545675232436
 20
506.5511195436148
 97
        0
 92
        7
 72
     0
 73
     1
 93
       66
 10
498.1181950426623
 20
506.5511195436202
 10
497.9028403080477
 20
506.6857162527546
 10
497.7182505355208
 20
506.793393620062
 10
498.091275700836
 20
507.0356676965035
 10
498.3604691191051
 20
507.3586997984251
 10
498.5758238537208
 20
507.708651242177
 10
498.7104205628559
 20
508.0586026859258
 10
498.8180979301621
 20
508.6508282061171
 10
498.8180979301621
 20
508.9200216243861
 10
498.8180979301621
 20
510.7197719065267
 10
496.2915254186953
 20
510.7197719065267
 10
496.2915254186968
 20
509.1892150426566
 10
496.2646060768691
 20
509.0007796498674
 10
496.1569287095622
 20
508.6239088642911
 10
496.0492513422538
 20
508.4354734715023
 10
495.8608159494652
 20
508.2470380787139
 10
495.5916225311972
 20
508.1124413695793
 10
495.2685904292743
 20
508.0855220277526
 10
494.9455583273511
 20
508.1124413695793
 10
494.6763649090827
 20
508.2470380787139
 10
494.5148488581216
 20
508.4085541296749
 10
494.4071714908135
 20
508.6239088642902
 10
494.3264134653333
 20
509.0007796498672
 10
494.3264134653333
 20
509.1622957008279
 10
494.3264134653333
 20
510.7197719065267
 10
491.7460022702123
 20
510.7197719065267
 10
491.7460022702123
 20
508.8931022825585
 10
491.7998409538671
 20
508.3277961041951
 10
491.9344376630006
 20
507.8970866349649
 10
492.0959537139625
 20
507.5202158493878
 10
492.3113084485775
 20
507.2510224311205
 10
492.5266631831938
 20
507.0356676965035
 10
492.6881792341545
 20
506.9010709873691
 10
492.8766146269431
 20
506.793393620062
 10
492.6343405505014
 20
506.6857162527549
 10
492.4459051577138
 20
506.5511195436205
 10
492.1497923976161
 20
506.2280874416982
 10
491.907518321175
 20
505.8512166561206
 10
491.7729216120386
 20
505.4781914908061
 10
491.6652442447322
 20
505.1282400470566
 10
491.6114055610789
 20
504.8321272869592
 10
491.5844862192513
 20
504.5629338686898
 10
491.5844862192513
 20
502.3286284970596
 10
494.2725747816803
 20
502.3286284970596
 10
494.2725747816791
 20
504.3744984759041
 10
494.2994941235066
 20
504.589853210521
 10
494.3264134653343
 20
504.7782886033059
 10
494.3802521489867
 20
505.0205626797483
 10
494.5148488581205
 20
505.2359174143628
 10
494.7032842509099
 20
505.4512721489785
 10
494.9724776691793
 20
505.5858688581131
 10
495.3493484547557
 20
505.6397075417668
 10
495.699299898504
 20
505.5858688581131
 10
495.9684933167732
 20
505.4512721489782
 10
496.1300093677349
 20
505.2359174143632
 10
496.2376867350427
 20
504.9936433379226
 10
496.2915254186968
 20
504.7782886033045
 10
496.3184447605232
 20
504.5629338686913
 10
496.3184447605232
 20
504.3744984759032
 10
496.3184447605232
 20
502.3286284970596
 10
498.9796139811248
 20
502.3286284970596
 10
498.9796139811248
 20
504.5898532105194
 10
498.9257752974706
 20
505.1820787307098
 10
498.7642592465097
 20
505.6666268835924
 10
498.5758238537193
 20
506.0396520489097
 10
498.3335497772785
 20
506.3357648090051
 97
        0
 75
     0
 76
     1
 47
0.04298
 98
        8
 10
463.5514221946372
 20
507.227820138664
 10
468.9174741946373
 20
504.8087581386639
 10
468.9174741946373
 20
504.8087581386639
 10
476.2826491946372
 20
505.8605231386641
 10
481.1226181946373
 20
506.3864061386641
 10
484.3843371946372
 20
506.9122881386642
 10
484.3843371946372
 20
506.9122881386642
 10
493.6434091946373
 20
506.4915831386641
  0
LINE
  5
1F7
330
2
100
AcDbEntity
  8
AM_4
100
AcDbLine
 10
491.2076151946372
 20
508.0855221386641
 30
0.0
 11
487.2004791946372
 21
504.589853138664
 31
0.0
  0
LINE
  5
1F8
330
2
100
AcDbEntity
  8
AM_4
100
AcDbLine
 10
463.2922581946372
 20
510.4505781386641
 30
0.0
 11
463.0269101946372
 21
510.2621431386641
 31
0.0
  0
LINE
  5
1F9
330
2
100
AcDbEntity
  8
AM_4
100
AcDbLine
 10
462.1116521946373
 20
502.301709138664
 30
0.0
 11
464.7189831946372
 21
502.301709138664
 31
0.0
  0
LINE
  5
1FA
330
2
100
AcDbEntity
  8
AM_4
100
AcDbLine
 10
462.7846361946373
 20
510.0737081386641
 30
0.0
 11
462.5962001946371
 21
509.858353138664
 31
0.0
  0
LINE
  5
1FB
330
2
100
AcDbEntity
  8
AM_4
100
AcDbLine
 10
462.4346841946373
 20
509.642998138664
 30
0.0
 11
462.2462491946372
 21
509.1892151386639
 31
0.0
  0
LINE
  5
1FC
330
2
100
AcDbEntity
  8
AM_4
100
AcDbLine
 10
462.2462491946372
 20
509.1892151386639
 30
0.0
 11
462.1385721946372
 21
508.8123441386641
 31
0.0
  0
LINE
  5
1FD
330
2
100
AcDbEntity
  8
AM_4
100
AcDbLine
 10
462.1385721946372
 20
508.8123441386641
 30
0.0
 11
462.1116521946373
 21
508.4623931386641
 31
0.0
  0
LINE
  5
1FE
330
2
100
AcDbEntity
  8
AM_4
100
AcDbLine
 10
462.5962001946371
 20
509.858353138664
 30
0.0
 11
462.4346841946373
 21
509.642998138664
 31
0.0
  0
LINE
  5
1FF
330
2
100
AcDbEntity
  8
AM_4
100
AcDbLine
 10
462.1116521946373
 20
508.4623931386641
 30
0.0
 11
462.1116521946373
 21
502.301709138664
 31
0.0
  0
ARC
  5
200
330
2
100
AcDbEntity
  8
AM_4
100
AcDbCircle
 10
458.7148651946372
 20
514.7849671386641
 30
0.0
 40
1.428795999999999
100
AcDbArc
 50
90.0
 51
180.0
  0
ARC
  5
201
330
2
100
AcDbEntity
  8
AM_4
100
AcDbCircle
 10
458.7148651946372
 20
514.7849671386641
 30
0.0
 40
1.837022999999999
100
AcDbArc
 50
90.0
 51
180.0
  0
ARC
  5
202
330
2
100
AcDbEntity
  8
AM_4
100
AcDbCircle
 10
458.7148651946372
 20
514.7849671386641
 30
0.0
 40
1.460545999999999
100
AcDbArc
 50
90.0
 51
180.0
  0
LINE
  5
203
330
2
100
AcDbEntity
  8
AM_4
100
AcDbLine
 10
456.8778421946372
 20
514.7849671386641
 30
0.0
 11
457.2860701946372
 21
514.7849671386641
 31
0.0
  0
LINE
  5
204
330
2
100
AcDbEntity
  8
AM_4
100
AcDbLine
 10
457.0257511946373
 20
515.4949281386641
 30
0.0
 11
456.9932111946372
 21
515.4120991386641
 31
0.0
  0
LINE
  5
205
330
2
100
AcDbEntity
  8
AM_4
100
AcDbLine
 10
456.8896751946372
 20
514.9683741386641
 30
0.0
 11
456.8808001946372
 21
514.876670138664
 31
0.0
  0
LINE
  5
206
330
2
100
AcDbEntity
  8
AM_4
100
AcDbLine
 10
456.8778421946372
 20
514.7849671386641
 30
0.0
 11
456.8778421946372
 21
514.7849671386641
 31
0.0
  0
LINE
  5
207
330
2
100
AcDbEntity
  8
AM_4
100
AcDbLine
 10
456.8808001946372
 20
514.876670138664
 30
0.0
 11
456.8778421946372
 21
514.7849671386641
 31
0.0
  0
LINE
  5
208
330
2
100
AcDbEntity
  8
AM_4
100
AcDbLine
 10
456.9932111946372
 20
515.4120991386641
 30
0.0
 11
456.9636291946372
 21
515.3263121386641
 31
0.0
  0
LINE
  5
209
330
2
100
AcDbEntity
  8
AM_4
100
AcDbLine
 10
456.9636291946372
 20
515.3263121386641
 30
0.0
 11
456.9370061946371
 21
515.2405251386641
 31
0.0
  0
LINE
  5
20A
330
2
100
AcDbEntity
  8
AM_4
100
AcDbLine
 10
456.9370061946371
 20
515.2405251386641
 30
0.0
 11
456.9162981946372
 21
515.1517801386639
 31
0.0
  0
LINE
  5
20B
330
2
100
AcDbEntity
  8
AM_4
100
AcDbLine
 10
456.9162981946372
 20
515.1517801386639
 30
0.0
 11
456.9015071946372
 21
515.060077138664
 31
0.0
  0
LINE
  5
20C
330
2
100
AcDbEntity
  8
AM_4
100
AcDbLine
 10
456.9015071946372
 20
515.060077138664
 30
0.0
 11
456.8896751946372
 21
514.9683741386641
 31
0.0
  0
LINE
  5
20D
330
2
100
AcDbEntity
  8
AM_4
100
AcDbLine
 10
457.2919861946372
 20
514.9269591386639
 30
0.0
 11
457.3008601946372
 21
514.9979551386641
 31
0.0
  0
LINE
  5
20E
330
2
100
AcDbEntity
  8
AM_4
100
AcDbLine
 10
457.0819561946372
 20
514.7849671386641
 30
0.0
 11
457.1233701946372
 21
515.1133241386641
 31
0.0
  0
LINE
  5
20F
330
2
100
AcDbEntity
  8
AM_4
100
AcDbLine
 10
457.2860701946372
 20
514.855963138664
 30
0.0
 11
457.2919861946372
 21
514.9269591386639
 31
0.0
  0
LINE
  5
210
330
2
100
AcDbEntity
  8
AM_4
100
AcDbLine
 10
457.4842671946373
 20
516.1398091386639
 30
0.0
 11
457.4221451946372
 21
516.0776871386641
 31
0.0
  0
LINE
  5
211
330
2
100
AcDbEntity
  8
AM_4
100
AcDbLine
 10
457.4280621946372
 20
515.3973081386641
 30
0.0
 11
457.4606021946372
 21
515.459430138664
 31
0.0
  0
LINE
  5
212
330
2
100
AcDbEntity
  8
AM_4
100
AcDbLine
 10
457.3718561946372
 20
515.693125138664
 30
0.0
 11
457.5789281946372
 21
515.9416111386641
 31
0.0
  0
LINE
  5
213
330
2
100
AcDbEntity
  8
AM_4
100
AcDbLine
 10
457.4221451946372
 20
516.0776871386641
 30
0.0
 11
457.3600241946372
 21
516.012607138664
 31
0.0
  0
LINE
  5
214
330
2
100
AcDbEntity
  8
AM_4
100
AcDbLine
 10
457.3600241946372
 20
516.012607138664
 30
0.0
 11
457.3038191946372
 21
515.9475281386639
 31
0.0
  0
LINE
  5
215
330
2
100
AcDbEntity
  8
AM_4
100
AcDbLine
 10
457.3038191946372
 20
515.9475281386639
 30
0.0
 11
457.2476131946372
 21
515.876532138664
 31
0.0
  0
LINE
  5
216
330
2
100
AcDbEntity
  8
AM_4
100
AcDbLine
 10
457.2476131946372
 20
515.876532138664
 30
0.0
 11
457.1973241946373
 21
515.8055361386641
 31
0.0
  0
LINE
  5
217
330
2
100
AcDbEntity
  8
AM_4
100
AcDbLine
 10
457.1973241946373
 20
515.8055361386641
 30
0.0
 11
457.1470361946372
 21
515.7315811386641
 31
0.0
  0
LINE
  5
218
330
2
100
AcDbEntity
  8
AM_4
100
AcDbLine
 10
457.1470361946372
 20
515.7315811386641
 30
0.0
 11
457.1026631946373
 21
515.654669138664
 31
0.0
  0
LINE
  5
219
330
2
100
AcDbEntity
  8
AM_4
100
AcDbLine
 10
457.1026631946373
 20
515.654669138664
 30
0.0
 11
457.0612491946372
 21
515.574798138664
 31
0.0
  0
LINE
  5
21A
330
2
100
AcDbEntity
  8
AM_4
100
AcDbLine
 10
457.0612491946372
 20
515.574798138664
 30
0.0
 11
457.0257511946373
 21
515.4949281386641
 31
0.0
  0
LINE
  5
21B
330
2
100
AcDbEntity
  8
AM_4
100
AcDbLine
 10
457.3008601946372
 20
514.9979551386641
 30
0.0
 11
457.3156511946372
 21
515.0689511386641
 31
0.0
  0
LINE
  5
21C
330
2
100
AcDbEntity
  8
AM_4
100
AcDbLine
 10
457.3156511946372
 20
515.0689511386641
 30
0.0
 11
457.3304421946373
 21
515.1369891386641
 31
0.0
  0
LINE
  5
21D
330
2
100
AcDbEntity
  8
AM_4
100
AcDbLine
 10
457.3304421946373
 20
515.1369891386641
 30
0.0
 11
457.3511491946372
 21
515.2020691386641
 31
0.0
  0
LINE
  5
21E
330
2
100
AcDbEntity
  8
AM_4
100
AcDbLine
 10
457.3511491946372
 20
515.2020691386641
 30
0.0
 11
457.3718561946372
 21
515.2701071386641
 31
0.0
  0
LINE
  5
21F
330
2
100
AcDbEntity
  8
AM_4
100
AcDbLine
 10
457.3718561946372
 20
515.2701071386641
 30
0.0
 11
457.3984801946372
 21
515.3351871386639
 31
0.0
  0
LINE
  5
220
330
2
100
AcDbEntity
  8
AM_4
100
AcDbLine
 10
457.3984801946372
 20
515.3351871386639
 30
0.0
 11
457.4280621946372
 21
515.3973081386641
 31
0.0
  0
LINE
  5
221
330
2
100
AcDbEntity
  8
AM_4
100
AcDbLine
 10
457.1233701946372
 20
515.1133241386641
 30
0.0
 11
457.2269061946371
 21
515.4239321386641
 31
0.0
  0
LINE
  5
222
330
2
100
AcDbEntity
  8
AM_4
100
AcDbLine
 10
457.2269061946371
 20
515.4239321386641
 30
0.0
 11
457.3718561946372
 21
515.693125138664
 31
0.0
  0
LINE
  5
223
330
2
100
AcDbEntity
  8
AM_4
100
AcDbLine
 10
458.7148651946372
 20
516.621990138664
 30
0.0
 11
458.6231621946372
 21
516.6190321386641
 31
0.0
  0
LINE
  5
224
330
2
100
AcDbEntity
  8
AM_4
100
AcDbLine
 10
458.6231621946372
 20
516.6190321386641
 30
0.0
 11
458.5314591946373
 21
516.6101581386641
 31
0.0
  0
LINE
  5
225
330
2
100
AcDbEntity
  8
AM_4
100
AcDbLine
 10
458.5314591946373
 20
516.6101581386641
 30
0.0
 11
458.4397561946373
 21
516.5983251386641
 31
0.0
  0
LINE
  5
226
330
2
100
AcDbEntity
  8
AM_4
100
AcDbLine
 10
458.4397561946373
 20
516.5983251386641
 30
0.0
 11
458.3480521946373
 21
516.583534138664
 31
0.0
  0
LINE
  5
227
330
2
100
AcDbEntity
  8
AM_4
100
AcDbLine
 10
458.3480521946373
 20
516.583534138664
 30
0.0
 11
458.2593071946372
 21
516.5628271386641
 31
0.0
  0
LINE
  5
228
330
2
100
AcDbEntity
  8
AM_4
100
AcDbLine
 10
458.2593071946372
 20
516.5628271386641
 30
0.0
 11
458.1735201946371
 21
516.536203138664
 31
0.0
  0
LINE
  5
229
330
2
100
AcDbEntity
  8
AM_4
100
AcDbLine
 10
458.1735201946371
 20
516.536203138664
 30
0.0
 11
458.0877331946372
 21
516.506622138664
 31
0.0
  0
LINE
  5
22A
330
2
100
AcDbEntity
  8
AM_4
100
AcDbLine
 10
458.0877331946372
 20
516.506622138664
 30
0.0
 11
458.0049051946373
 21
516.4740821386641
 31
0.0
  0
LINE
  5
22B
330
2
100
AcDbEntity
  8
AM_4
100
AcDbLine
 10
458.0049051946373
 20
516.4740821386641
 30
0.0
 11
457.9250341946373
 21
516.438584138664
 31
0.0
  0
LINE
  5
22C
330
2
100
AcDbEntity
  8
AM_4
100
AcDbLine
 10
457.9250341946373
 20
516.438584138664
 30
0.0
 11
457.8451641946371
 21
516.3971691386641
 31
0.0
  0
LINE
  5
22D
330
2
100
AcDbEntity
  8
AM_4
100
AcDbLine
 10
457.8451641946371
 20
516.3971691386641
 30
0.0
 11
457.7682511946372
 21
516.352797138664
 31
0.0
  0
LINE
  5
22E
330
2
100
AcDbEntity
  8
AM_4
100
AcDbLine
 10
457.7682511946372
 20
516.352797138664
 30
0.0
 11
457.6942971946373
 21
516.302508138664
 31
0.0
  0
LINE
  5
22F
330
2
100
AcDbEntity
  8
AM_4
100
AcDbLine
 10
457.6942971946373
 20
516.302508138664
 30
0.0
 11
457.6233011946372
 21
516.2522191386641
 31
0.0
  0
LINE
  5
230
330
2
100
AcDbEntity
  8
AM_4
100
AcDbLine
 10
457.6233011946372
 20
516.2522191386641
 30
0.0
 11
457.5523051946372
 21
516.196014138664
 31
0.0
  0
LINE
  5
231
330
2
100
AcDbEntity
  8
AM_4
100
AcDbLine
 10
457.5523051946372
 20
516.196014138664
 30
0.0
 11
457.4842671946373
 21
516.1398091386639
 31
0.0
  0
LINE
  5
232
330
2
100
AcDbEntity
  8
AM_4
100
AcDbLine
 10
457.4606021946372
 20
515.459430138664
 30
0.0
 11
457.5315981946372
 21
515.5777561386639
 31
0.0
  0
LINE
  5
233
330
2
100
AcDbEntity
  8
AM_4
100
AcDbLine
 10
457.5315981946372
 20
515.5777561386639
 30
0.0
 11
457.5730121946372
 21
515.633962138664
 31
0.0
  0
LINE
  5
234
330
2
100
AcDbEntity
  8
AM_4
100
AcDbLine
 10
457.5730121946372
 20
515.633962138664
 30
0.0
 11
457.6144261946373
 21
515.6872091386641
 31
0.0
  0
LINE
  5
235
330
2
100
AcDbEntity
  8
AM_4
100
AcDbLine
 10
457.6144261946373
 20
515.6872091386641
 30
0.0
 11
457.6617571946372
 21
515.740456138664
 31
0.0
  0
LINE
  5
236
330
2
100
AcDbEntity
  8
AM_4
100
AcDbLine
 10
457.6617571946372
 20
515.740456138664
 30
0.0
 11
457.7090881946372
 21
515.7907451386639
 31
0.0
  0
LINE
  5
237
330
2
100
AcDbEntity
  8
AM_4
100
AcDbLine
 10
457.7090881946372
 20
515.7907451386639
 30
0.0
 11
457.7593771946372
 21
515.8380751386641
 31
0.0
  0
LINE
  5
238
330
2
100
AcDbEntity
  8
AM_4
100
AcDbLine
 10
457.7593771946372
 20
515.8380751386641
 30
0.0
 11
457.8658711946372
 21
515.9268201386639
 31
0.0
  0
LINE
  5
239
330
2
100
AcDbEntity
  8
AM_4
100
AcDbLine
 10
457.8658711946372
 20
515.9268201386639
 30
0.0
 11
457.9220761946372
 21
515.9682351386641
 31
0.0
  0
LINE
  5
23A
330
2
100
AcDbEntity
  8
AM_4
100
AcDbLine
 10
457.9220761946372
 20
515.9682351386641
 30
0.0
 11
458.0404031946372
 21
516.0392311386641
 31
0.0
  0
LINE
  5
23B
330
2
100
AcDbEntity
  8
AM_4
100
AcDbLine
 10
458.0404031946372
 20
516.0392311386641
 30
0.0
 11
458.1025241946372
 21
516.0717711386641
 31
0.0
  0
LINE
  5
23C
330
2
100
AcDbEntity
  8
AM_4
100
AcDbLine
 10
458.1025241946372
 20
516.0717711386641
 30
0.0
 11
458.1646461946372
 21
516.1013521386641
 31
0.0
  0
LINE
  5
23D
330
2
100
AcDbEntity
  8
AM_4
100
AcDbLine
 10
458.1646461946372
 20
516.1013521386641
 30
0.0
 11
458.2948051946372
 21
516.148683138664
 31
0.0
  0
LINE
  5
23E
330
2
100
AcDbEntity
  8
AM_4
100
AcDbLine
 10
458.2948051946372
 20
516.148683138664
 30
0.0
 11
458.3628431946372
 21
516.1693901386639
 31
0.0
  0
LINE
  5
23F
330
2
100
AcDbEntity
  8
AM_4
100
AcDbLine
 10
458.3628431946372
 20
516.1693901386639
 30
0.0
 11
458.4308811946372
 21
516.1841811386641
 31
0.0
  0
LINE
  5
240
330
2
100
AcDbEntity
  8
AM_4
100
AcDbLine
 10
458.4308811946372
 20
516.1841811386641
 30
0.0
 11
458.5018771946372
 21
516.1989721386641
 31
0.0
  0
LINE
  5
241
330
2
100
AcDbEntity
  8
AM_4
100
AcDbLine
 10
458.5018771946372
 20
516.1989721386641
 30
0.0
 11
458.5728731946373
 21
516.207847138664
 31
0.0
  0
LINE
  5
242
330
2
100
AcDbEntity
  8
AM_4
100
AcDbLine
 10
458.5728731946373
 20
516.207847138664
 30
0.0
 11
458.6438691946372
 21
516.2137631386641
 31
0.0
  0
LINE
  5
243
330
2
100
AcDbEntity
  8
AM_4
100
AcDbLine
 10
458.7148651946372
 20
516.621990138664
 30
0.0
 11
458.7148651946372
 21
516.621990138664
 31
0.0
  0
LINE
  5
244
330
2
100
AcDbEntity
  8
AM_4
100
AcDbLine
 10
458.7148651946372
 20
516.621990138664
 30
0.0
 11
458.7148651946372
 21
516.2137631386641
 31
0.0
  0
LINE
  5
245
330
2
100
AcDbEntity
  8
AM_4
100
AcDbLine
 10
457.5789281946372
 20
515.9416111386641
 30
0.0
 11
457.8067071946372
 21
516.1279761386642
 31
0.0
  0
LINE
  5
246
330
2
100
AcDbEntity
  8
AM_4
100
AcDbLine
 10
457.8067071946372
 20
516.1279761386642
 30
0.0
 11
458.0966081946372
 21
516.293633138664
 31
0.0
  0
LINE
  5
247
330
2
100
AcDbEntity
  8
AM_4
100
AcDbLine
 10
458.0966081946372
 20
516.293633138664
 30
0.0
 11
458.3865091946373
 21
516.3764621386641
 31
0.0
  0
LINE
  5
248
330
2
100
AcDbEntity
  8
AM_4
100
AcDbLine
 10
458.3865091946373
 20
516.3764621386641
 30
0.0
 11
458.7148651946372
 21
516.417877138664
 31
0.0
  0
LINE
  5
249
330
2
100
AcDbEntity
  8
AM_4
100
AcDbLine
 10
458.7148651946372
 20
516.417877138664
 30
0.0
 11
458.7148651946372
 21
516.417877138664
 31
0.0
  0
LINE
  5
24A
330
2
100
AcDbEntity
  8
AM_4
100
AcDbLine
 10
463.0269101946372
 20
510.2621431386641
 30
0.0
 11
462.7846361946373
 21
510.0737081386641
 31
0.0
  0
LINE
  5
24B
330
2
100
AcDbEntity
  8
AM_4
100
AcDbLine
 10
475.3405861946372
 20
513.0079161386641
 30
0.0
 11
475.5290211946372
 21
513.2232711386641
 31
0.0
  0
LINE
  5
24C
330
2
100
AcDbEntity
  8
AM_4
100
AcDbLine
 10
477.4672141946372
 20
502.328628138664
 30
0.0
 11
474.8560381946372
 21
502.328628138664
 31
0.0
  0
LINE
  5
24D
330
2
100
AcDbEntity
  8
AM_4
100
AcDbLine
 10
472.7870941946372
 20
510.0467881386641
 30
0.0
 11
473.2985621946371
 21
509.616079138664
 31
0.0
  0
LINE
  5
24E
330
2
100
AcDbEntity
  8
AM_4
100
AcDbLine
 10
467.1378781946372
 20
509.589159138664
 30
0.0
 11
467.7301041946371
 21
510.1275461386641
 31
0.0
  0
LINE
  5
24F
330
2
100
AcDbEntity
  8
AM_4
100
AcDbLine
 10
465.9841921946372
 20
508.5700701386641
 30
0.0
 11
465.9841921946372
 21
510.8005301386641
 31
0.0
  0
LINE
  5
250
330
2
100
AcDbEntity
  8
AM_4
100
AcDbLine
 10
474.8560381946372
 20
502.328628138664
 30
0.0
 11
474.8560381946372
 21
511.6081101386639
 31
0.0
  0
LINE
  5
251
330
2
100
AcDbEntity
  8
AM_4
100
AcDbLine
 10
469.4798611946372
 20
508.516231138664
 30
0.0
 11
469.1029901946373
 21
508.2470381386641
 31
0.0
  0
LINE
  5
252
330
2
100
AcDbEntity
  8
AM_4
100
AcDbLine
 10
468.6722811946373
 20
506.147329138664
 30
0.0
 11
471.2796111946373
 21
508.3277961386641
 31
0.0
  0
LINE
  5
253
330
2
100
AcDbEntity
  8
AM_4
100
AcDbLine
 10
469.6413771946372
 20
502.3555481386639
 30
0.0
 11
469.1837481946372
 21
502.463225138664
 31
0.0
  0
LINE
  5
254
330
2
100
AcDbEntity
  8
AM_4
100
AcDbLine
 10
466.1995471946371
 20
507.547135138664
 30
0.0
 11
466.3879821946372
 21
508.273957138664
 31
0.0
  0
LINE
  5
255
330
2
100
AcDbEntity
  8
AM_4
100
AcDbLine
 10
466.3879821946372
 20
508.273957138664
 30
0.0
 11
466.5225791946371
 21
508.6239091386641
 31
0.0
  0
LINE
  5
256
330
2
100
AcDbEntity
  8
AM_4
100
AcDbLine
 10
466.5225791946371
 20
508.6239091386641
 30
0.0
 11
466.7110141946372
 21
508.973860138664
 31
0.0
  0
LINE
  5
257
330
2
100
AcDbEntity
  8
AM_4
100
AcDbLine
 10
466.7110141946372
 20
508.973860138664
 30
0.0
 11
466.8994501946372
 21
509.296892138664
 31
0.0
  0
LINE
  5
258
330
2
100
AcDbEntity
  8
AM_4
100
AcDbLine
 10
466.8994501946372
 20
509.296892138664
 30
0.0
 11
467.1378781946372
 21
509.589159138664
 31
0.0
  0
LINE
  5
259
330
2
100
AcDbEntity
  8
AM_4
100
AcDbLine
 10
469.1029901946373
 20
508.2470381386641
 30
0.0
 11
468.7799581946372
 21
507.8701671386641
 31
0.0
  0
LINE
  5
25A
330
2
100
AcDbEntity
  8
AM_4
100
AcDbLine
 10
468.7799581946372
 20
507.8701671386641
 30
0.0
 11
468.5915221946372
 21
507.493296138664
 31
0.0
  0
LINE
  5
25B
330
2
100
AcDbEntity
  8
AM_4
100
AcDbLine
 10
468.5915221946372
 20
507.493296138664
 30
0.0
 11
468.5107641946371
 21
507.143345138664
 31
0.0
  0
LINE
  5
25C
330
2
100
AcDbEntity
  8
AM_4
100
AcDbLine
 10
465.6880791946372
 20
508.5700701386641
 30
0.0
 11
465.9841921946372
 21
508.5700701386641
 31
0.0
  0
LINE
  5
25D
330
2
100
AcDbEntity
  8
AM_4
100
AcDbLine
 10
466.2264661946372
 20
505.720465138664
 30
0.0
 11
466.1457081946372
 21
506.228087138664
 31
0.0
  0
LINE
  5
25E
330
2
100
AcDbEntity
  8
AM_4
100
AcDbLine
 10
466.1457081946372
 20
506.228087138664
 30
0.0
 11
466.1187891946373
 21
506.793393138664
 31
0.0
  0
LINE
  5
25F
330
2
100
AcDbEntity
  8
AM_4
100
AcDbLine
 10
468.4838451946371
 20
506.8203131386641
 30
0.0
 11
468.5376841946372
 21
506.551119138664
 31
0.0
  0
LINE
  5
260
330
2
100
AcDbEntity
  8
AM_4
100
AcDbLine
 10
468.5376841946372
 20
506.551119138664
 30
0.0
 11
468.5915221946372
 21
506.3357651386641
 31
0.0
  0
LINE
  5
261
330
2
100
AcDbEntity
  8
AM_4
100
AcDbLine
 10
468.5915221946372
 20
506.3357651386641
 30
0.0
 11
468.6722811946373
 21
506.147329138664
 31
0.0
  0
LINE
  5
262
330
2
100
AcDbEntity
  8
AM_4
100
AcDbLine
 10
468.6722811946373
 20
506.147329138664
 30
0.0
 11
468.6722811946373
 21
506.147329138664
 31
0.0
  0
LINE
  5
263
330
2
100
AcDbEntity
  8
AM_4
100
AcDbLine
 10
466.1187891946373
 20
506.793393138664
 30
0.0
 11
466.1995471946371
 21
507.547135138664
 31
0.0
  0
LINE
  5
264
330
2
100
AcDbEntity
  8
AM_4
100
AcDbLine
 10
468.5107641946371
 20
507.143345138664
 30
0.0
 11
468.4838451946371
 21
506.8203131386641
 31
0.0
  0
LINE
  5
265
330
2
100
AcDbEntity
  8
AM_4
100
AcDbLine
 10
464.7728221946372
 20
507.950925138664
 30
0.0
 11
464.8804991946372
 21
508.1662801386641
 31
0.0
  0
LINE
  5
266
330
2
100
AcDbEntity
  8
AM_4
100
AcDbLine
 10
464.7189831946372
 20
507.6548121386641
 30
0.0
 11
464.7728221946372
 21
507.950925138664
 31
0.0
  0
LINE
  5
267
330
2
100
AcDbEntity
  8
AM_4
100
AcDbLine
 10
464.7189831946372
 20
507.6548121386641
 30
0.0
 11
464.7189831946372
 21
507.6548121386641
 31
0.0
  0
LINE
  5
268
330
2
100
AcDbEntity
  8
AM_4
100
AcDbLine
 10
464.8804991946372
 20
508.1662801386641
 30
0.0
 11
465.0420151946372
 21
508.3277961386641
 31
0.0
  0
LINE
  5
269
330
2
100
AcDbEntity
  8
AM_4
100
AcDbLine
 10
465.0420151946372
 20
508.3277961386641
 30
0.0
 11
465.2035311946373
 21
508.4623931386641
 31
0.0
  0
LINE
  5
26A
330
2
100
AcDbEntity
  8
AM_4
100
AcDbLine
 10
465.2035311946373
 20
508.4623931386641
 30
0.0
 11
465.5265631946372
 21
508.5431511386641
 31
0.0
  0
LINE
  5
26B
330
2
100
AcDbEntity
  8
AM_4
100
AcDbLine
 10
465.5265631946372
 20
508.5431511386641
 30
0.0
 11
465.6880791946372
 21
508.5700701386641
 31
0.0
  0
LINE
  5
26C
330
2
100
AcDbEntity
  8
AM_4
100
AcDbLine
 10
466.5494981946372
 20
504.778288138664
 30
0.0
 11
466.3610631946371
 21
505.235917138664
 31
0.0
  0
LINE
  5
26D
330
2
100
AcDbEntity
  8
AM_4
100
AcDbLine
 10
466.7648531946372
 20
504.374498138664
 30
0.0
 11
466.5494981946372
 21
504.778288138664
 31
0.0
  0
LINE
  5
26E
330
2
100
AcDbEntity
  8
AM_4
100
AcDbLine
 10
468.7799581946372
 20
502.624741138664
 30
0.0
 11
468.3761681946372
 21
502.840096138664
 31
0.0
  0
LINE
  5
26F
330
2
100
AcDbEntity
  8
AM_4
100
AcDbLine
 10
468.3761681946372
 20
502.840096138664
 30
0.0
 11
467.9992971946372
 21
503.0554511386641
 31
0.0
  0
LINE
  5
270
330
2
100
AcDbEntity
  8
AM_4
100
AcDbLine
 10
467.9992971946372
 20
503.0554511386641
 30
0.0
 11
467.6224261946372
 21
503.3246441386641
 31
0.0
  0
LINE
  5
271
330
2
100
AcDbEntity
  8
AM_4
100
AcDbLine
 10
467.6224261946372
 20
503.3246441386641
 30
0.0
 11
467.2993941946372
 21
503.6476761386641
 31
0.0
  0
LINE
  5
272
330
2
100
AcDbEntity
  8
AM_4
100
AcDbLine
 10
467.2993941946372
 20
503.6476761386641
 30
0.0
 11
467.0071271946373
 21
503.9976281386641
 31
0.0
  0
LINE
  5
273
330
2
100
AcDbEntity
  8
AM_4
100
AcDbLine
 10
467.0071271946373
 20
503.9976281386641
 30
0.0
 11
466.7648531946372
 21
504.374498138664
 31
0.0
  0
LINE
  5
274
330
2
100
AcDbEntity
  8
AM_4
100
AcDbLine
 10
469.1837481946372
 20
502.463225138664
 30
0.0
 11
468.7799581946372
 21
502.624741138664
 31
0.0
  0
LINE
  5
275
330
2
100
AcDbEntity
  8
AM_4
100
AcDbLine
 10
464.7189831946372
 20
502.301709138664
 30
0.0
 11
464.7189831946372
 21
507.6548121386641
 31
0.0
  0
LINE
  5
276
330
2
100
AcDbEntity
  8
AM_4
100
AcDbLine
 10
466.3610631946371
 20
505.235917138664
 30
0.0
 11
466.2264661946372
 21
505.720465138664
 31
0.0
  0
LINE
  5
277
330
2
100
AcDbEntity
  8
AM_4
100
AcDbLine
 10
473.7023521946372
 20
509.162296138664
 30
0.0
 11
474.0523031946373
 21
508.6239091386641
 31
0.0
  0
LINE
  5
278
330
2
100
AcDbEntity
  8
AM_4
100
AcDbLine
 10
474.0523031946373
 20
508.6239091386641
 30
0.0
 11
474.2945771946372
 21
508.0855221386641
 31
0.0
  0
LINE
  5
279
330
2
100
AcDbEntity
  8
AM_4
100
AcDbLine
 10
473.2985621946371
 20
509.616079138664
 30
0.0
 11
473.7023521946372
 21
509.162296138664
 31
0.0
  0
LINE
  5
27A
330
2
100
AcDbEntity
  8
AM_4
100
AcDbLine
 10
471.2796111946373
 20
508.3277961386641
 30
0.0
 11
471.0911761946372
 21
508.435473138664
 31
0.0
  0
LINE
  5
27B
330
2
100
AcDbEntity
  8
AM_4
100
AcDbLine
 10
471.0911761946372
 20
508.435473138664
 30
0.0
 11
470.8796671946372
 21
508.5431511386641
 31
0.0
  0
LINE
  5
27C
330
2
100
AcDbEntity
  8
AM_4
100
AcDbLine
 10
470.8796671946372
 20
508.5431511386641
 30
0.0
 11
470.5835541946371
 21
508.6239091386641
 31
0.0
  0
LINE
  5
27D
330
2
100
AcDbEntity
  8
AM_4
100
AcDbLine
 10
470.5835541946371
 20
508.6239091386641
 30
0.0
 11
470.2605221946372
 21
508.677747138664
 31
0.0
  0
LINE
  5
27E
330
2
100
AcDbEntity
  8
AM_4
100
AcDbLine
 10
470.2605221946372
 20
508.677747138664
 30
0.0
 11
469.8836511946373
 21
508.6508281386641
 31
0.0
  0
LINE
  5
27F
330
2
100
AcDbEntity
  8
AM_4
100
AcDbLine
 10
469.8836511946373
 20
508.6508281386641
 30
0.0
 11
469.4798611946372
 21
508.516231138664
 31
0.0
  0
LINE
  5
280
330
2
100
AcDbEntity
  8
AM_4
100
AcDbLine
 10
473.8638681946372
 20
505.5589491386641
 30
0.0
 11
473.8638681946372
 21
502.920854138664
 31
0.0
  0
LINE
  5
281
330
2
100
AcDbEntity
  8
AM_4
100
AcDbLine
 10
473.2716421946371
 20
505.155159138664
 30
0.0
 11
473.8638681946372
 21
505.5589491386641
 31
0.0
  0
LINE
  5
282
330
2
100
AcDbEntity
  8
AM_4
100
AcDbLine
 10
474.8560381946372
 20
502.328628138664
 30
0.0
 11
474.8560381946372
 21
502.328628138664
 31
0.0
  0
LINE
  5
283
330
2
100
AcDbEntity
  8
AM_4
100
AcDbLine
 10
473.8638681946372
 20
502.920854138664
 30
0.0
 11
473.6754321946372
 21
502.813177138664
 31
0.0
  0
LINE
  5
284
330
2
100
AcDbEntity
  8
AM_4
100
AcDbLine
 10
473.0832071946372
 20
502.543983138664
 30
0.0
 11
472.6524971946372
 21
502.4093861386639
 31
0.0
  0
LINE
  5
285
330
2
100
AcDbEntity
  8
AM_4
100
AcDbLine
 10
472.6524971946372
 20
502.4093861386639
 30
0.0
 11
472.1679491946372
 21
502.301709138664
 31
0.0
  0
LINE
  5
286
330
2
100
AcDbEntity
  8
AM_4
100
AcDbLine
 10
472.0064331946372
 20
504.589853138664
 30
0.0
 11
472.6794171946372
 21
504.8321271386639
 31
0.0
  0
LINE
  5
287
330
2
100
AcDbEntity
  8
AM_4
100
AcDbLine
 10
472.6794171946372
 20
504.8321271386639
 30
0.0
 11
473.2716421946371
 21
505.155159138664
 31
0.0
  0
LINE
  5
288
330
2
100
AcDbEntity
  8
AM_4
100
AcDbLine
 10
473.6754321946372
 20
502.813177138664
 30
0.0
 11
473.0832071946372
 21
502.543983138664
 31
0.0
  0
LINE
  5
289
330
2
100
AcDbEntity
  8
AM_4
100
AcDbLine
 10
473.8638681946372
 20
505.5589491386641
 30
0.0
 11
473.8638681946372
 21
505.5589491386641
 31
0.0
  0
LINE
  5
28A
330
2
100
AcDbEntity
  8
AM_4
100
AcDbLine
 10
470.2874411946372
 20
504.589853138664
 30
0.0
 11
470.4489571946372
 21
504.5629341386641
 31
0.0
  0
LINE
  5
28B
330
2
100
AcDbEntity
  8
AM_4
100
AcDbLine
 10
471.6026431946373
 20
502.220951138664
 30
0.0
 11
470.9834981946372
 21
502.1940321386639
 31
0.0
  0
LINE
  5
28C
330
2
100
AcDbEntity
  8
AM_4
100
AcDbLine
 10
470.9834981946372
 20
502.1940321386639
 30
0.0
 11
470.5297151946372
 21
502.1940321386639
 31
0.0
  0
LINE
  5
28D
330
2
100
AcDbEntity
  8
AM_4
100
AcDbLine
 10
470.5297151946372
 20
502.1940321386639
 30
0.0
 11
470.0720861946372
 21
502.247870138664
 31
0.0
  0
LINE
  5
28E
330
2
100
AcDbEntity
  8
AM_4
100
AcDbLine
 10
470.4489571946372
 20
504.5629341386641
 30
0.0
 11
470.8258281946371
 21
504.4821761386641
 31
0.0
  0
LINE
  5
28F
330
2
100
AcDbEntity
  8
AM_4
100
AcDbLine
 10
470.8258281946371
 20
504.4821761386641
 30
0.0
 11
471.3603691946372
 21
504.4821761386641
 31
0.0
  0
LINE
  5
290
330
2
100
AcDbEntity
  8
AM_4
100
AcDbLine
 10
471.3603691946372
 20
504.4821761386641
 30
0.0
 11
471.6834011946373
 21
504.5090951386639
 31
0.0
  0
LINE
  5
291
330
2
100
AcDbEntity
  8
AM_4
100
AcDbLine
 10
470.0720861946372
 20
502.247870138664
 30
0.0
 11
469.6413771946372
 21
502.3555481386639
 31
0.0
  0
LINE
  5
292
330
2
100
AcDbEntity
  8
AM_4
100
AcDbLine
 10
471.6834011946373
 20
504.5090951386639
 30
0.0
 11
472.0064331946372
 21
504.589853138664
 31
0.0
  0
LINE
  5
293
330
2
100
AcDbEntity
  8
AM_4
100
AcDbLine
 10
472.1679491946372
 20
502.301709138664
 30
0.0
 11
471.6026431946373
 21
502.220951138664
 31
0.0
  0
LINE
  5
294
330
2
100
AcDbEntity
  8
AM_4
100
AcDbLine
 10
474.2945771946372
 20
508.0855221386641
 30
0.0
 11
470.2874411946372
 21
504.589853138664
 31
0.0
  0
LINE
  5
295
330
2
100
AcDbEntity
  8
AM_4
100
AcDbLine
 10
469.2645061946373
 20
510.8005301386641
 30
0.0
 11
469.7221351946373
 21
510.8812881386641
 31
0.0
  0
LINE
  5
296
330
2
100
AcDbEntity
  8
AM_4
100
AcDbLine
 10
468.4300061946371
 20
510.5313361386641
 30
0.0
 11
468.8337971946372
 21
510.6928521386641
 31
0.0
  0
LINE
  5
297
330
2
100
AcDbEntity
  8
AM_4
100
AcDbLine
 10
467.7301041946371
 20
510.1275461386641
 30
0.0
 11
468.0531361946371
 21
510.3429011386642
 31
0.0
  0
LINE
  5
298
330
2
100
AcDbEntity
  8
AM_4
100
AcDbLine
 10
468.0531361946371
 20
510.3429011386642
 30
0.0
 11
468.4300061946371
 21
510.5313361386641
 31
0.0
  0
LINE
  5
299
330
2
100
AcDbEntity
  8
AM_4
100
AcDbLine
 10
468.8337971946372
 20
510.6928521386641
 30
0.0
 11
469.2645061946373
 21
510.8005301386641
 31
0.0
  0
LINE
  5
29A
330
2
100
AcDbEntity
  8
AM_4
100
AcDbLine
 10
465.0150961946373
 20
510.8005301386641
 30
0.0
 11
464.4767091946373
 21
510.7736101386641
 31
0.0
  0
LINE
  5
29B
330
2
100
AcDbEntity
  8
AM_4
100
AcDbLine
 10
464.4767091946373
 20
510.7736101386641
 30
0.0
 11
464.0190801946372
 21
510.7197721386641
 31
0.0
  0
LINE
  5
29C
330
2
100
AcDbEntity
  8
AM_4
100
AcDbLine
 10
464.0190801946372
 20
510.7197721386641
 30
0.0
 11
463.6422091946372
 21
510.5851751386641
 31
0.0
  0
LINE
  5
29D
330
2
100
AcDbEntity
  8
AM_4
100
AcDbLine
 10
463.6422091946372
 20
510.5851751386641
 30
0.0
 11
463.2922581946372
 21
510.4505781386641
 31
0.0
  0
LINE
  5
29E
330
2
100
AcDbEntity
  8
AM_4
100
AcDbLine
 10
465.9841921946372
 20
510.8005301386641
 30
0.0
 11
465.0150961946373
 21
510.8005301386641
 31
0.0
  0
LINE
  5
29F
330
2
100
AcDbEntity
  8
AM_4
100
AcDbLine
 10
474.9906351946373
 20
512.361852138664
 30
0.0
 11
475.2059891946371
 21
512.7925611386642
 31
0.0
  0
LINE
  5
2A0
330
2
100
AcDbEntity
  8
AM_4
100
AcDbLine
 10
475.2059891946371
 20
512.7925611386642
 30
0.0
 11
475.3405861946372
 21
513.0079161386641
 31
0.0
  0
LINE
  5
2A1
330
2
100
AcDbEntity
  8
AM_4
100
AcDbLine
 10
474.8560381946372
 20
511.6081101386639
 30
0.0
 11
474.8829571946372
 21
511.958061138664
 31
0.0
  0
LINE
  5
2A2
330
2
100
AcDbEntity
  8
AM_4
100
AcDbLine
 10
474.8829571946372
 20
511.958061138664
 30
0.0
 11
474.9906351946373
 21
512.361852138664
 31
0.0
  0
LINE
  5
2A3
330
2
100
AcDbEntity
  8
AM_4
100
AcDbLine
 10
472.2217881946372
 20
510.3967401386641
 30
0.0
 11
472.7870941946372
 21
510.0467881386641
 31
0.0
  0
LINE
  5
2A4
330
2
100
AcDbEntity
  8
AM_4
100
AcDbLine
 10
470.2336021946372
 20
510.908207138664
 30
0.0
 11
470.9335051946372
 21
510.8543681386641
 31
0.0
  0
LINE
  5
2A5
330
2
100
AcDbEntity
  8
AM_4
100
AcDbLine
 10
470.9335051946372
 20
510.8543681386641
 30
0.0
 11
471.6026431946373
 21
510.6659331386642
 31
0.0
  0
LINE
  5
2A6
330
2
100
AcDbEntity
  8
AM_4
100
AcDbLine
 10
469.7221351946373
 20
510.8812881386641
 30
0.0
 11
470.2336021946372
 21
510.908207138664
 31
0.0
  0
LINE
  5
2A7
330
2
100
AcDbEntity
  8
AM_4
100
AcDbLine
 10
471.6026431946373
 20
510.6659331386642
 30
0.0
 11
472.2217881946372
 21
510.3967401386641
 31
0.0
  0
LINE
  5
2A8
330
2
100
AcDbEntity
  8
AM_4
100
AcDbLine
 10
478.6247461946373
 20
510.1006271386641
 30
0.0
 11
478.6247461946373
 21
508.0855221386641
 31
0.0
  0
LINE
  5
2A9
330
2
100
AcDbEntity
  8
AM_4
100
AcDbLine
 10
484.0547621946371
 20
509.589159138664
 30
0.0
 11
484.6469871946371
 21
510.1275461386641
 31
0.0
  0
LINE
  5
2AA
330
2
100
AcDbEntity
  8
AM_4
100
AcDbLine
 10
479.5899961946371
 20
513.973167138664
 30
0.0
 11
479.5899961946371
 21
502.328628138664
 31
0.0
  0
LINE
  5
2AB
330
2
100
AcDbEntity
  8
AM_4
100
AcDbLine
 10
482.3088501946371
 20
502.328628138664
 30
0.0
 11
482.3088501946371
 21
513.973167138664
 31
0.0
  0
LINE
  5
2AC
330
2
100
AcDbEntity
  8
AM_4
100
AcDbLine
 10
479.5899961946371
 20
502.328628138664
 30
0.0
 11
482.3088501946371
 21
502.328628138664
 31
0.0
  0
LINE
  5
2AD
330
2
100
AcDbEntity
  8
AM_4
100
AcDbLine
 10
478.6247461946373
 20
508.0855221386641
 30
0.0
 11
477.4672141946372
 21
508.0855221386641
 31
0.0
  0
LINE
  5
2AE
330
2
100
AcDbEntity
  8
AM_4
100
AcDbLine
 10
477.4672141946372
 20
508.0855221386641
 30
0.0
 11
477.4672141946372
 21
502.328628138664
 31
0.0
  0
LINE
  5
2AF
330
2
100
AcDbEntity
  8
AM_4
100
AcDbLine
 10
486.7966891946372
 20
508.6508281386641
 30
0.0
 11
486.3928991946372
 21
508.516231138664
 31
0.0
  0
LINE
  5
2B0
330
2
100
AcDbEntity
  8
AM_4
100
AcDbLine
 10
486.3928991946372
 20
508.516231138664
 30
0.0
 11
486.0198741946373
 21
508.2470381386641
 31
0.0
  0
LINE
  5
2B1
330
2
100
AcDbEntity
  8
AM_4
100
AcDbLine
 10
487.4965921946373
 20
508.6239091386641
 30
0.0
 11
487.1735601946372
 21
508.677747138664
 31
0.0
  0
LINE
  5
2B2
330
2
100
AcDbEntity
  8
AM_4
100
AcDbLine
 10
487.1735601946372
 20
508.677747138664
 30
0.0
 11
486.7966891946372
 21
508.6508281386641
 31
0.0
  0
LINE
  5
2B3
330
2
100
AcDbEntity
  8
AM_4
100
AcDbLine
 10
485.6968411946373
 20
507.8701671386641
 30
0.0
 11
485.5084061946372
 21
507.493296138664
 31
0.0
  0
LINE
  5
2B4
330
2
100
AcDbEntity
  8
AM_4
100
AcDbLine
 10
485.5084061946372
 20
507.493296138664
 30
0.0
 11
485.4276481946373
 21
507.143345138664
 31
0.0
  0
LINE
  5
2B5
330
2
100
AcDbEntity
  8
AM_4
100
AcDbLine
 10
485.4007291946372
 20
506.8203131386641
 30
0.0
 11
485.4545671946373
 21
506.551119138664
 31
0.0
  0
LINE
  5
2B6
330
2
100
AcDbEntity
  8
AM_4
100
AcDbLine
 10
485.4545671946373
 20
506.551119138664
 30
0.0
 11
485.5084061946372
 21
506.3357651386641
 31
0.0
  0
LINE
  5
2B7
330
2
100
AcDbEntity
  8
AM_4
100
AcDbLine
 10
485.5084061946372
 20
506.3357651386641
 30
0.0
 11
485.5891641946373
 21
506.147329138664
 31
0.0
  0
LINE
  5
2B8
330
2
100
AcDbEntity
  8
AM_4
100
AcDbLine
 10
485.5891641946373
 20
506.147329138664
 30
0.0
 11
485.5891641946373
 21
506.147329138664
 31
0.0
  0
LINE
  5
2B9
330
2
100
AcDbEntity
  8
AM_4
100
AcDbLine
 10
485.4276481946373
 20
507.143345138664
 30
0.0
 11
485.4007291946372
 21
506.8203131386641
 31
0.0
  0
LINE
  5
2BA
330
2
100
AcDbEntity
  8
AM_4
100
AcDbLine
 10
486.0198741946373
 20
508.2470381386641
 30
0.0
 11
485.6968411946373
 21
507.8701671386641
 31
0.0
  0
LINE
  5
2BB
330
2
100
AcDbEntity
  8
AM_4
100
AcDbLine
 10
483.1125851946373
 20
507.547135138664
 30
0.0
 11
483.3010201946372
 21
508.273957138664
 31
0.0
  0
LINE
  5
2BC
330
2
100
AcDbEntity
  8
AM_4
100
AcDbLine
 10
483.3010201946372
 20
508.273957138664
 30
0.0
 11
483.4356171946373
 21
508.6239091386641
 31
0.0
  0
LINE
  5
2BD
330
2
100
AcDbEntity
  8
AM_4
100
AcDbLine
 10
483.4356171946373
 20
508.6239091386641
 30
0.0
 11
483.6240521946372
 21
508.973860138664
 31
0.0
  0
LINE
  5
2BE
330
2
100
AcDbEntity
  8
AM_4
100
AcDbLine
 10
483.6240521946372
 20
508.973860138664
 30
0.0
 11
483.8394071946372
 21
509.296892138664
 31
0.0
  0
LINE
  5
2BF
330
2
100
AcDbEntity
  8
AM_4
100
AcDbLine
 10
483.8394071946372
 20
509.296892138664
 30
0.0
 11
484.0547621946371
 21
509.589159138664
 31
0.0
  0
LINE
  5
2C0
330
2
100
AcDbEntity
  8
AM_4
100
AcDbLine
 10
483.1395041946372
 20
505.720465138664
 30
0.0
 11
483.0587461946372
 21
506.228087138664
 31
0.0
  0
LINE
  5
2C1
330
2
100
AcDbEntity
  8
AM_4
100
AcDbLine
 10
483.0587461946372
 20
506.228087138664
 30
0.0
 11
483.0318271946372
 21
506.793393138664
 31
0.0
  0
LINE
  5
2C2
330
2
100
AcDbEntity
  8
AM_4
100
AcDbLine
 10
483.0318271946372
 20
506.793393138664
 30
0.0
 11
483.1125851946373
 21
507.547135138664
 31
0.0
  0
LINE
  5
2C3
330
2
100
AcDbEntity
  8
AM_4
100
AcDbLine
 10
487.2004791946372
 20
504.589853138664
 30
0.0
 11
487.3619951946372
 21
504.5629341386641
 31
0.0
  0
LINE
  5
2C4
330
2
100
AcDbEntity
  8
AM_4
100
AcDbLine
 10
486.9851241946371
 20
502.247870138664
 30
0.0
 11
486.5544151946372
 21
502.3555481386639
 31
0.0
  0
LINE
  5
2C5
330
2
100
AcDbEntity
  8
AM_4
100
AcDbLine
 10
486.5544151946372
 20
502.3555481386639
 30
0.0
 11
486.1006321946372
 21
502.463225138664
 31
0.0
  0
LINE
  5
2C6
330
2
100
AcDbEntity
  8
AM_4
100
AcDbLine
 10
487.3619951946372
 20
504.5629341386641
 30
0.0
 11
487.7388661946372
 21
504.4821761386641
 31
0.0
  0
LINE
  5
2C7
330
2
100
AcDbEntity
  8
AM_4
100
AcDbLine
 10
487.4427531946373
 20
502.1940321386639
 30
0.0
 11
486.9851241946371
 21
502.247870138664
 31
0.0
  0
LINE
  5
2C8
330
2
100
AcDbEntity
  8
AM_4
100
AcDbLine
 10
485.6968411946373
 20
502.624741138664
 30
0.0
 11
485.2930511946373
 21
502.840096138664
 31
0.0
  0
LINE
  5
2C9
330
2
100
AcDbEntity
  8
AM_4
100
AcDbLine
 10
485.2930511946373
 20
502.840096138664
 30
0.0
 11
484.9161801946372
 21
503.0554511386641
 31
0.0
  0
LINE
  5
2CA
330
2
100
AcDbEntity
  8
AM_4
100
AcDbLine
 10
484.9161801946372
 20
503.0554511386641
 30
0.0
 11
484.5662291946372
 21
503.3246441386641
 31
0.0
  0
LINE
  5
2CB
330
2
100
AcDbEntity
  8
AM_4
100
AcDbLine
 10
484.5662291946372
 20
503.3246441386641
 30
0.0
 11
484.2162781946371
 21
503.6476761386641
 31
0.0
  0
LINE
  5
2CC
330
2
100
AcDbEntity
  8
AM_4
100
AcDbLine
 10
486.1006321946372
 20
502.463225138664
 30
0.0
 11
485.6968411946373
 21
502.624741138664
 31
0.0
  0
LINE
  5
2CD
330
2
100
AcDbEntity
  8
AM_4
100
AcDbLine
 10
483.4625361946372
 20
504.778288138664
 30
0.0
 11
483.2741011946373
 21
505.235917138664
 31
0.0
  0
LINE
  5
2CE
330
2
100
AcDbEntity
  8
AM_4
100
AcDbLine
 10
483.6778911946372
 20
504.374498138664
 30
0.0
 11
483.4625361946372
 21
504.778288138664
 31
0.0
  0
LINE
  5
2CF
330
2
100
AcDbEntity
  8
AM_4
100
AcDbLine
 10
483.9201651946372
 20
503.9976281386641
 30
0.0
 11
483.6778911946372
 21
504.374498138664
 31
0.0
  0
LINE
  5
2D0
330
2
100
AcDbEntity
  8
AM_4
100
AcDbLine
 10
484.2162781946371
 20
503.6476761386641
 30
0.0
 11
483.9201651946372
 21
503.9976281386641
 31
0.0
  0
LINE
  5
2D1
330
2
100
AcDbEntity
  8
AM_4
100
AcDbLine
 10
483.2741011946373
 20
505.235917138664
 30
0.0
 11
483.1395041946372
 21
505.720465138664
 31
0.0
  0
LINE
  5
2D2
330
2
100
AcDbEntity
  8
AM_4
100
AcDbLine
 10
482.3088501946371
 20
513.973167138664
 30
0.0
 11
479.5899961946371
 21
513.973167138664
 31
0.0
  0
LINE
  5
2D3
330
2
100
AcDbEntity
  8
AM_4
100
AcDbLine
 10
479.5899961946371
 20
513.973167138664
 30
0.0
 11
479.5899961946371
 21
513.973167138664
 31
0.0
  0
LINE
  5
2D4
330
2
100
AcDbEntity
  8
AM_4
100
AcDbLine
 10
478.7285771946373
 20
511.9042231386639
 30
0.0
 11
478.4363101946373
 21
511.9042231386639
 31
0.0
  0
LINE
  5
2D5
330
2
100
AcDbEntity
  8
AM_4
100
AcDbLine
 10
478.4363101946373
 20
511.9042231386639
 30
0.0
 11
478.3017141946372
 21
511.877303138664
 31
0.0
  0
LINE
  5
2D6
330
2
100
AcDbEntity
  8
AM_4
100
AcDbLine
 10
478.7285771946373
 20
513.973167138664
 30
0.0
 11
478.7285771946373
 21
511.9042231386639
 31
0.0
  0
LINE
  5
2D7
330
2
100
AcDbEntity
  8
AM_4
100
AcDbLine
 10
477.5210531946371
 20
511.2850781386639
 30
0.0
 11
477.4672141946372
 21
510.988965138664
 31
0.0
  0
LINE
  5
2D8
330
2
100
AcDbEntity
  8
AM_4
100
AcDbLine
 10
477.4672141946372
 20
510.988965138664
 30
0.0
 11
477.4672141946372
 21
510.1006271386641
 31
0.0
  0
LINE
  5
2D9
330
2
100
AcDbEntity
  8
AM_4
100
AcDbLine
 10
477.2518591946372
 20
513.9462471386641
 30
0.0
 11
477.7633271946371
 21
513.973167138664
 31
0.0
  0
LINE
  5
2DA
330
2
100
AcDbEntity
  8
AM_4
100
AcDbLine
 10
477.9517621946372
 20
511.796545138664
 30
0.0
 11
477.7902461946372
 21
511.6619491386641
 31
0.0
  0
LINE
  5
2DB
330
2
100
AcDbEntity
  8
AM_4
100
AcDbLine
 10
477.7902461946372
 20
511.6619491386641
 30
0.0
 11
477.6287301946372
 21
511.5004331386641
 31
0.0
  0
LINE
  5
2DC
330
2
100
AcDbEntity
  8
AM_4
100
AcDbLine
 10
477.6287301946372
 20
511.5004331386641
 30
0.0
 11
477.5210531946371
 21
511.2850781386639
 31
0.0
  0
LINE
  5
2DD
330
2
100
AcDbEntity
  8
AM_4
100
AcDbLine
 10
475.7712961946372
 20
513.4078601386639
 30
0.0
 11
476.0404891946373
 21
513.5962961386641
 31
0.0
  0
LINE
  5
2DE
330
2
100
AcDbEntity
  8
AM_4
100
AcDbLine
 10
475.5290211946372
 20
513.2232711386641
 30
0.0
 11
475.7712961946372
 21
513.4078601386639
 31
0.0
  0
LINE
  5
2DF
330
2
100
AcDbEntity
  8
AM_4
100
AcDbLine
 10
476.0404891946373
 20
513.5962961386641
 30
0.0
 11
476.3904401946372
 21
513.7308921386639
 31
0.0
  0
LINE
  5
2E0
330
2
100
AcDbEntity
  8
AM_4
100
AcDbLine
 10
476.3904401946372
 20
513.7308921386639
 30
0.0
 11
476.7942311946373
 21
513.8654891386639
 31
0.0
  0
LINE
  5
2E1
330
2
100
AcDbEntity
  8
AM_4
100
AcDbLine
 10
476.7942311946373
 20
513.8654891386639
 30
0.0
 11
477.2518591946372
 21
513.9462471386641
 31
0.0
  0
LINE
  5
2E2
330
2
100
AcDbEntity
  8
AM_4
100
AcDbLine
 10
477.4672141946372
 20
510.1006271386641
 30
0.0
 11
478.6247461946373
 21
510.1006271386641
 31
0.0
  0
LINE
  5
2E3
330
2
100
AcDbEntity
  8
AM_4
100
AcDbLine
 10
477.7633271946371
 20
513.973167138664
 30
0.0
 11
478.7285771946373
 21
513.973167138664
 31
0.0
  0
LINE
  5
2E4
330
2
100
AcDbEntity
  8
AM_4
100
AcDbLine
 10
478.3017141946372
 20
511.877303138664
 30
0.0
 11
477.9517621946372
 21
511.796545138664
 31
0.0
  0
LINE
  5
2E5
330
2
100
AcDbEntity
  8
AM_4
100
AcDbLine
 10
486.6351731946372
 20
510.8812881386641
 30
0.0
 11
487.1466401946372
 21
510.908207138664
 31
0.0
  0
LINE
  5
2E6
330
2
100
AcDbEntity
  8
AM_4
100
AcDbLine
 10
486.1813901946373
 20
510.8005301386641
 30
0.0
 11
486.6351731946372
 21
510.8812881386641
 31
0.0
  0
LINE
  5
2E7
330
2
100
AcDbEntity
  8
AM_4
100
AcDbLine
 10
484.6469871946371
 20
510.1275461386641
 30
0.0
 11
484.9700191946372
 21
510.3429011386642
 31
0.0
  0
LINE
  5
2E8
330
2
100
AcDbEntity
  8
AM_4
100
AcDbLine
 10
484.9700191946372
 20
510.3429011386642
 30
0.0
 11
485.3468901946372
 21
510.5313361386641
 31
0.0
  0
LINE
  5
2E9
330
2
100
AcDbEntity
  8
AM_4
100
AcDbLine
 10
485.3468901946372
 20
510.5313361386641
 30
0.0
 11
485.7506801946373
 21
510.6928521386641
 31
0.0
  0
LINE
  5
2EA
330
2
100
AcDbEntity
  8
AM_4
100
AcDbLine
 10
485.7506801946373
 20
510.6928521386641
 30
0.0
 11
486.1813901946373
 21
510.8005301386641
 31
0.0
  0
LINE
  5
2EB
330
2
100
AcDbEntity
  8
AM_4
100
AcDbLine
 10
498.8180981946372
 20
508.6508281386641
 30
0.0
 11
498.8180981946372
 21
510.7197721386641
 31
0.0
  0
LINE
  5
2EC
330
2
100
AcDbEntity
  8
AM_4
100
AcDbLine
 10
491.7460021946372
 20
508.893102138664
 30
0.0
 11
491.7460021946372
 21
510.7197721386641
 31
0.0
  0
LINE
  5
2ED
330
2
100
AcDbEntity
  8
AM_4
100
AcDbLine
 10
496.2915251946371
 20
509.1892151386639
 30
0.0
 11
496.2915251946371
 21
510.7197721386641
 31
0.0
  0
LINE
  5
2EE
330
2
100
AcDbEntity
  8
AM_4
100
AcDbLine
 10
494.3264131946373
 20
509.000780138664
 30
0.0
 11
494.3264131946373
 21
510.7197721386641
 31
0.0
  0
LINE
  5
2EF
330
2
100
AcDbEntity
  8
AM_4
100
AcDbLine
 10
489.7039781946372
 20
510.0467881386641
 30
0.0
 11
490.2116001946372
 21
509.616079138664
 31
0.0
  0
LINE
  5
2F0
330
2
100
AcDbEntity
  8
AM_4
100
AcDbLine
 10
494.2725751946372
 20
502.328628138664
 30
0.0
 11
491.5844861946372
 21
502.328628138664
 31
0.0
  0
LINE
  5
2F1
330
2
100
AcDbEntity
  8
AM_4
100
AcDbLine
 10
492.3113081946373
 20
507.251022138664
 30
0.0
 11
492.0959541946372
 21
507.520216138664
 31
0.0
  0
LINE
  5
2F2
330
2
100
AcDbEntity
  8
AM_4
100
AcDbLine
 10
492.0959541946372
 20
507.520216138664
 30
0.0
 11
491.9344371946372
 21
507.8970861386641
 31
0.0
  0
LINE
  5
2F3
330
2
100
AcDbEntity
  8
AM_4
100
AcDbLine
 10
491.9344371946372
 20
507.8970861386641
 30
0.0
 11
491.7998411946371
 21
508.3277961386641
 31
0.0
  0
LINE
  5
2F4
330
2
100
AcDbEntity
  8
AM_4
100
AcDbLine
 10
490.6153901946372
 20
509.162296138664
 30
0.0
 11
490.9653411946371
 21
508.6239091386641
 31
0.0
  0
LINE
  5
2F5
330
2
100
AcDbEntity
  8
AM_4
100
AcDbLine
 10
490.9653411946371
 20
508.6239091386641
 30
0.0
 11
491.2076151946372
 21
508.0855221386641
 31
0.0
  0
LINE
  5
2F6
330
2
100
AcDbEntity
  8
AM_4
100
AcDbLine
 10
491.7998411946371
 20
508.3277961386641
 30
0.0
 11
491.7460021946372
 21
508.893102138664
 31
0.0
  0
LINE
  5
2F7
330
2
100
AcDbEntity
  8
AM_4
100
AcDbLine
 10
491.9075181946372
 20
505.8512171386641
 30
0.0
 11
492.1497921946373
 21
506.228087138664
 31
0.0
  0
LINE
  5
2F8
330
2
100
AcDbEntity
  8
AM_4
100
AcDbLine
 10
492.1497921946373
 20
506.228087138664
 30
0.0
 11
492.4459051946372
 21
506.551119138664
 31
0.0
  0
LINE
  5
2F9
330
2
100
AcDbEntity
  8
AM_4
100
AcDbLine
 10
492.4459051946372
 20
506.551119138664
 30
0.0
 11
492.6343401946373
 21
506.685716138664
 31
0.0
  0
LINE
  5
2FA
330
2
100
AcDbEntity
  8
AM_4
100
AcDbLine
 10
492.6343401946373
 20
506.685716138664
 30
0.0
 11
492.8766141946372
 21
506.793393138664
 31
0.0
  0
LINE
  5
2FB
330
2
100
AcDbEntity
  8
AM_4
100
AcDbLine
 10
492.8766141946372
 20
506.793393138664
 30
0.0
 11
492.6881791946372
 21
506.9010711386639
 31
0.0
  0
LINE
  5
2FC
330
2
100
AcDbEntity
  8
AM_4
100
AcDbLine
 10
492.6881791946372
 20
506.9010711386639
 30
0.0
 11
492.5266631946373
 21
507.035668138664
 31
0.0
  0
LINE
  5
2FD
330
2
100
AcDbEntity
  8
AM_4
100
AcDbLine
 10
492.5266631946373
 20
507.035668138664
 30
0.0
 11
492.3113081946373
 21
507.251022138664
 31
0.0
  0
LINE
  5
2FE
330
2
100
AcDbEntity
  8
AM_4
100
AcDbLine
 10
490.7769061946372
 20
505.5589491386641
 30
0.0
 11
490.7769061946372
 21
502.920854138664
 31
0.0
  0
LINE
  5
2FF
330
2
100
AcDbEntity
  8
AM_4
100
AcDbLine
 10
491.6652441946372
 20
505.1282401386639
 30
0.0
 11
491.7729211946372
 21
505.4781911386641
 31
0.0
  0
LINE
  5
300
330
2
100
AcDbEntity
  8
AM_4
100
AcDbLine
 10
491.5844861946372
 20
504.5629341386641
 30
0.0
 11
491.6114051946371
 21
504.8321271386639
 31
0.0
  0
LINE
  5
301
330
2
100
AcDbEntity
  8
AM_4
100
AcDbLine
 10
491.5844861946372
 20
502.328628138664
 30
0.0
 11
491.5844861946372
 21
504.5629341386641
 31
0.0
  0
LINE
  5
302
330
2
100
AcDbEntity
  8
AM_4
100
AcDbLine
 10
490.7769061946372
 20
502.920854138664
 30
0.0
 11
490.5884701946372
 21
502.813177138664
 31
0.0
  0
LINE
  5
303
330
2
100
AcDbEntity
  8
AM_4
100
AcDbLine
 10
491.6114051946371
 20
504.8321271386639
 30
0.0
 11
491.6652441946372
 21
505.1282401386639
 31
0.0
  0
LINE
  5
304
330
2
100
AcDbEntity
  8
AM_4
100
AcDbLine
 10
490.7769061946372
 20
505.5589491386641
 30
0.0
 11
490.7769061946372
 21
505.5589491386641
 31
0.0
  0
LINE
  5
305
330
2
100
AcDbEntity
  8
AM_4
100
AcDbLine
 10
491.7729211946372
 20
505.4781911386641
 30
0.0
 11
491.9075181946372
 21
505.8512171386641
 31
0.0
  0
LINE
  5
306
330
2
100
AcDbEntity
  8
AM_4
100
AcDbLine
 10
488.0080591946373
 20
508.435473138664
 30
0.0
 11
487.7927041946371
 21
508.5431511386641
 31
0.0
  0
LINE
  5
307
330
2
100
AcDbEntity
  8
AM_4
100
AcDbLine
 10
488.1964951946372
 20
508.3277961386641
 30
0.0
 11
488.0080591946373
 21
508.435473138664
 31
0.0
  0
LINE
  5
308
330
2
100
AcDbEntity
  8
AM_4
100
AcDbLine
 10
488.6002851946373
 20
504.5090951386639
 30
0.0
 11
488.9233171946373
 21
504.589853138664
 31
0.0
  0
LINE
  5
309
330
2
100
AcDbEntity
  8
AM_4
100
AcDbLine
 10
490.0000901946372
 20
502.543983138664
 30
0.0
 11
489.5963001946372
 21
502.4093861386639
 31
0.0
  0
LINE
  5
30A
330
2
100
AcDbEntity
  8
AM_4
100
AcDbLine
 10
489.5963001946372
 20
502.4093861386639
 30
0.0
 11
489.0848331946371
 21
502.301709138664
 31
0.0
  0
LINE
  5
30B
330
2
100
AcDbEntity
  8
AM_4
100
AcDbLine
 10
489.0848331946371
 20
502.301709138664
 30
0.0
 11
488.5195271946372
 21
502.220951138664
 31
0.0
  0
LINE
  5
30C
330
2
100
AcDbEntity
  8
AM_4
100
AcDbLine
 10
488.2772531946373
 20
504.4821761386641
 30
0.0
 11
488.6002851946373
 21
504.5090951386639
 31
0.0
  0
LINE
  5
30D
330
2
100
AcDbEntity
  8
AM_4
100
AcDbLine
 10
488.9233171946373
 20
504.589853138664
 30
0.0
 11
489.5963001946372
 21
504.8321271386639
 31
0.0
  0
LINE
  5
30E
330
2
100
AcDbEntity
  8
AM_4
100
AcDbLine
 10
489.5963001946372
 20
504.8321271386639
 30
0.0
 11
490.1846801946373
 21
505.155159138664
 31
0.0
  0
LINE
  5
30F
330
2
100
AcDbEntity
  8
AM_4
100
AcDbLine
 10
488.5195271946372
 20
502.220951138664
 30
0.0
 11
487.9003821946372
 21
502.1940321386639
 31
0.0
  0
LINE
  5
310
330
2
100
AcDbEntity
  8
AM_4
100
AcDbLine
 10
490.1846801946373
 20
505.155159138664
 30
0.0
 11
490.7769061946372
 21
505.5589491386641
 31
0.0
  0
LINE
  5
311
330
2
100
AcDbEntity
  8
AM_4
100
AcDbLine
 10
490.5884701946372
 20
502.813177138664
 30
0.0
 11
490.0000901946372
 21
502.543983138664
 31
0.0
  0
LINE
  5
312
330
2
100
AcDbEntity
  8
AM_4
100
AcDbLine
 10
490.2116001946372
 20
509.616079138664
 30
0.0
 11
490.6153901946372
 21
509.162296138664
 31
0.0
  0
LINE
  5
313
330
2
100
AcDbEntity
  8
AM_4
100
AcDbLine
 10
498.8180981946372
 20
508.6508281386641
 30
0.0
 11
498.7104201946372
 21
508.0586031386641
 31
0.0
  0
LINE
  5
314
330
2
100
AcDbEntity
  8
AM_4
100
AcDbLine
 10
498.7104201946372
 20
508.0586031386641
 30
0.0
 11
498.5758241946371
 21
507.7086511386641
 31
0.0
  0
LINE
  5
315
330
2
100
AcDbEntity
  8
AM_4
100
AcDbLine
 10
498.5758241946371
 20
507.7086511386641
 30
0.0
 11
498.3604691946372
 21
507.3587001386639
 31
0.0
  0
LINE
  5
316
330
2
100
AcDbEntity
  8
AM_4
100
AcDbLine
 10
498.3335501946371
 20
506.3357651386641
 30
0.0
 11
498.5758241946371
 21
506.0396521386641
 31
0.0
  0
LINE
  5
317
330
2
100
AcDbEntity
  8
AM_4
100
AcDbLine
 10
498.5758241946371
 20
506.0396521386641
 30
0.0
 11
498.7642591946372
 21
505.6666271386641
 31
0.0
  0
LINE
  5
318
330
2
100
AcDbEntity
  8
AM_4
100
AcDbLine
 10
498.0912761946373
 20
507.035668138664
 30
0.0
 11
497.7182501946372
 21
506.793393138664
 31
0.0
  0
LINE
  5
319
330
2
100
AcDbEntity
  8
AM_4
100
AcDbLine
 10
497.7182501946372
 20
506.793393138664
 30
0.0
 11
497.9028401946372
 21
506.685716138664
 31
0.0
  0
LINE
  5
31A
330
2
100
AcDbEntity
  8
AM_4
100
AcDbLine
 10
497.9028401946372
 20
506.685716138664
 30
0.0
 11
498.1181951946372
 21
506.551119138664
 31
0.0
  0
LINE
  5
31B
330
2
100
AcDbEntity
  8
AM_4
100
AcDbLine
 10
498.1181951946372
 20
506.551119138664
 30
0.0
 11
498.3335501946371
 21
506.3357651386641
 31
0.0
  0
LINE
  5
31C
330
2
100
AcDbEntity
  8
AM_4
100
AcDbLine
 10
498.3604691946372
 20
507.3587001386639
 30
0.0
 11
498.0912761946373
 21
507.035668138664
 31
0.0
  0
LINE
  5
31D
330
2
100
AcDbEntity
  8
AM_4
100
AcDbLine
 10
496.1569291946371
 20
508.6239091386641
 30
0.0
 11
496.2646061946371
 21
509.000780138664
 31
0.0
  0
LINE
  5
31E
330
2
100
AcDbEntity
  8
AM_4
100
AcDbLine
 10
496.2646061946371
 20
509.000780138664
 30
0.0
 11
496.2915251946371
 21
509.1892151386639
 31
0.0
  0
LINE
  5
31F
330
2
100
AcDbEntity
  8
AM_4
100
AcDbLine
 10
495.5916221946372
 20
508.1124411386642
 30
0.0
 11
495.8608161946371
 21
508.2470381386641
 31
0.0
  0
LINE
  5
320
330
2
100
AcDbEntity
  8
AM_4
100
AcDbLine
 10
495.8608161946371
 20
508.2470381386641
 30
0.0
 11
496.0492511946372
 21
508.435473138664
 31
0.0
  0
LINE
  5
321
330
2
100
AcDbEntity
  8
AM_4
100
AcDbLine
 10
496.0492511946372
 20
508.435473138664
 30
0.0
 11
496.1569291946371
 21
508.6239091386641
 31
0.0
  0
LINE
  5
322
330
2
100
AcDbEntity
  8
AM_4
100
AcDbLine
 10
494.3264131946373
 20
509.000780138664
 30
0.0
 11
494.4071711946373
 21
508.6239091386641
 31
0.0
  0
LINE
  5
323
330
2
100
AcDbEntity
  8
AM_4
100
AcDbLine
 10
494.4071711946373
 20
508.6239091386641
 30
0.0
 11
494.5148491946372
 21
508.4085541386641
 31
0.0
  0
LINE
  5
324
330
2
100
AcDbEntity
  8
AM_4
100
AcDbLine
 10
494.5148491946372
 20
508.4085541386641
 30
0.0
 11
494.6763651946372
 21
508.2470381386641
 31
0.0
  0
LINE
  5
325
330
2
100
AcDbEntity
  8
AM_4
100
AcDbLine
 10
494.6763651946372
 20
508.2470381386641
 30
0.0
 11
494.9455581946372
 21
508.1124411386642
 31
0.0
  0
LINE
  5
326
330
2
100
AcDbEntity
  8
AM_4
100
AcDbLine
 10
494.9455581946372
 20
508.1124411386642
 30
0.0
 11
495.2685901946372
 21
508.0855221386641
 31
0.0
  0
LINE
  5
327
330
2
100
AcDbEntity
  8
AM_4
100
AcDbLine
 10
495.2685901946372
 20
508.0855221386641
 30
0.0
 11
495.5916221946372
 21
508.1124411386642
 31
0.0
  0
LINE
  5
328
330
2
100
AcDbEntity
  8
AM_4
100
AcDbLine
 10
498.9796141946372
 20
504.589853138664
 30
0.0
 11
498.9796141946372
 21
502.328628138664
 31
0.0
  0
LINE
  5
329
330
2
100
AcDbEntity
  8
AM_4
100
AcDbLine
 10
498.9257751946372
 20
505.1820791386639
 30
0.0
 11
498.9796141946372
 21
504.589853138664
 31
0.0
  0
LINE
  5
32A
330
2
100
AcDbEntity
  8
AM_4
100
AcDbLine
 10
496.2376871946371
 20
504.9936431386639
 30
0.0
 11
496.1300091946372
 21
505.235917138664
 31
0.0
  0
LINE
  5
32B
330
2
100
AcDbEntity
  8
AM_4
100
AcDbLine
 10
494.5148491946372
 20
505.235917138664
 30
0.0
 11
494.3802521946373
 21
505.020563138664
 31
0.0
  0
LINE
  5
32C
330
2
100
AcDbEntity
  8
AM_4
100
AcDbLine
 10
496.3184451946371
 20
504.5629341386641
 30
0.0
 11
496.2915251946371
 21
504.778288138664
 31
0.0
  0
LINE
  5
32D
330
2
100
AcDbEntity
  8
AM_4
100
AcDbLine
 10
496.3184451946371
 20
502.328628138664
 30
0.0
 11
496.3184451946371
 21
504.5629341386641
 31
0.0
  0
LINE
  5
32E
330
2
100
AcDbEntity
  8
AM_4
100
AcDbLine
 10
496.2915251946371
 20
504.778288138664
 30
0.0
 11
496.2376871946371
 21
504.9936431386639
 31
0.0
  0
LINE
  5
32F
330
2
100
AcDbEntity
  8
AM_4
100
AcDbLine
 10
494.2994941946373
 20
504.589853138664
 30
0.0
 11
494.2725751946372
 21
504.374498138664
 31
0.0
  0
LINE
  5
330
330
2
100
AcDbEntity
  8
AM_4
100
AcDbLine
 10
494.2725751946372
 20
504.374498138664
 30
0.0
 11
494.2725751946372
 21
502.328628138664
 31
0.0
  0
LINE
  5
331
330
2
100
AcDbEntity
  8
AM_4
100
AcDbLine
 10
494.3802521946373
 20
505.020563138664
 30
0.0
 11
494.3264131946373
 21
504.778288138664
 31
0.0
  0
LINE
  5
332
330
2
100
AcDbEntity
  8
AM_4
100
AcDbLine
 10
494.3264131946373
 20
504.778288138664
 30
0.0
 11
494.2994941946373
 21
504.589853138664
 31
0.0
  0
LINE
  5
333
330
2
100
AcDbEntity
  8
AM_4
100
AcDbLine
 10
496.1300091946372
 20
505.235917138664
 30
0.0
 11
495.9684931946372
 21
505.451272138664
 31
0.0
  0
LINE
  5
334
330
2
100
AcDbEntity
  8
AM_4
100
AcDbLine
 10
495.9684931946372
 20
505.451272138664
 30
0.0
 11
495.6993001946371
 21
505.5858691386641
 31
0.0
  0
LINE
  5
335
330
2
100
AcDbEntity
  8
AM_4
100
AcDbLine
 10
494.9724771946372
 20
505.5858691386641
 30
0.0
 11
494.7032841946373
 21
505.451272138664
 31
0.0
  0
LINE
  5
336
330
2
100
AcDbEntity
  8
AM_4
100
AcDbLine
 10
494.7032841946373
 20
505.451272138664
 30
0.0
 11
494.5148491946372
 21
505.235917138664
 31
0.0
  0
LINE
  5
337
330
2
100
AcDbEntity
  8
AM_4
100
AcDbLine
 10
498.9796141946372
 20
502.328628138664
 30
0.0
 11
496.3184451946371
 21
502.328628138664
 31
0.0
  0
LINE
  5
338
330
2
100
AcDbEntity
  8
AM_4
100
AcDbLine
 10
498.7642591946372
 20
505.6666271386641
 30
0.0
 11
498.9257751946372
 21
505.1820791386639
 31
0.0
  0
LINE
  5
339
330
2
100
AcDbEntity
  8
AM_4
100
AcDbLine
 10
495.3493481946373
 20
505.6397071386641
 30
0.0
 11
494.9724771946372
 21
505.5858691386641
 31
0.0
  0
LINE
  5
33A
330
2
100
AcDbEntity
  8
AM_4
100
AcDbLine
 10
495.6993001946371
 20
505.5858691386641
 30
0.0
 11
495.3493481946373
 21
505.6397071386641
 31
0.0
  0
LINE
  5
33B
330
2
100
AcDbEntity
  8
AM_4
100
AcDbLine
 10
491.7460021946372
 20
510.7197721386641
 30
0.0
 11
494.3264131946373
 21
510.7197721386641
 31
0.0
  0
LINE
  5
33C
330
2
100
AcDbEntity
  8
AM_4
100
AcDbLine
 10
491.7460021946372
 20
510.7197721386641
 30
0.0
 11
491.7460021946372
 21
510.7197721386641
 31
0.0
  0
LINE
  5
33D
330
2
100
AcDbEntity
  8
AM_4
100
AcDbLine
 10
488.5195271946372
 20
510.6659331386642
 30
0.0
 11
489.1386721946371
 21
510.3967401386641
 31
0.0
  0
LINE
  5
33E
330
2
100
AcDbEntity
  8
AM_4
100
AcDbLine
 10
489.1386721946371
 20
510.3967401386641
 30
0.0
 11
489.7039781946372
 21
510.0467881386641
 31
0.0
  0
LINE
  5
33F
330
2
100
AcDbEntity
  8
AM_4
100
AcDbLine
 10
487.8465431946373
 20
510.8543681386641
 30
0.0
 11
488.5195271946372
 21
510.6659331386642
 31
0.0
  0
LINE
  5
340
330
2
100
AcDbEntity
  8
AM_4
100
AcDbLine
 10
496.2915251946371
 20
510.7197721386641
 30
0.0
 11
498.8180981946372
 21
510.7197721386641
 31
0.0
  0
LINE
  5
341
330
2
100
AcDbEntity
  8
AM_4
100
AcDbLine
 10
502.7383431946373
 20
516.1841811386641
 30
0.0
 11
502.8063811946373
 21
516.1693901386639
 31
0.0
  0
LINE
  5
342
330
2
100
AcDbEntity
  8
AM_4
100
AcDbLine
 10
502.5431041946371
 20
516.6190321386641
 30
0.0
 11
502.4484421946373
 21
516.621990138664
 31
0.0
  0
LINE
  5
343
330
2
100
AcDbEntity
  8
AM_4
100
AcDbLine
 10
502.5223961946372
 20
516.2137631386641
 30
0.0
 11
502.5963511946372
 21
516.207847138664
 31
0.0
  0
LINE
  5
344
330
2
100
AcDbEntity
  8
AM_4
100
AcDbLine
 10
502.4484421946373
 20
516.2137631386641
 30
0.0
 11
502.4484421946373
 21
516.621990138664
 31
0.0
  0
LINE
  5
345
330
2
100
AcDbEntity
  8
AM_4
100
AcDbLine
 10
502.4484421946373
 20
516.621990138664
 30
0.0
 11
502.4484421946373
 21
516.621990138664
 31
0.0
  0
LINE
  5
346
330
2
100
AcDbEntity
  8
AM_4
100
AcDbLine
 10
502.6348071946372
 20
516.6101581386641
 30
0.0
 11
502.5431041946371
 21
516.6190321386641
 31
0.0
  0
LINE
  5
347
330
2
100
AcDbEntity
  8
AM_4
100
AcDbLine
 10
502.5963511946372
 20
516.207847138664
 30
0.0
 11
502.7383431946373
 21
516.1841811386641
 31
0.0
  0
ARC
  5
348
330
2
100
AcDbEntity
  8
AM_4
100
AcDbCircle
 10
502.4484421946373
 20
514.7849671386641
 30
0.0
 40
1.428795999999999
100
AcDbArc
 50
0.0
 51
90.0
  0
ARC
  5
349
330
2
100
AcDbEntity
  8
AM_4
100
AcDbCircle
 10
502.4484421946373
 20
514.7849671386641
 30
0.0
 40
1.837022999999999
100
AcDbArc
 50
0.0
 51
90.0
  0
ARC
  5
34A
330
2
100
AcDbEntity
  8
AM_4
100
AcDbCircle
 10
502.4484421946373
 20
514.7849671386641
 30
0.0
 40
1.460545999999999
100
AcDbArc
 50
0.0
 51
90.0
  0
LINE
  5
34B
330
2
100
AcDbEntity
  8
AM_4
100
AcDbLine
 10
502.4484421946373
 20
516.417877138664
 30
0.0
 11
502.7767991946372
 21
516.3764621386641
 31
0.0
  0
LINE
  5
34C
330
2
100
AcDbEntity
  8
AM_4
100
AcDbLine
 10
504.2647581946372
 20
515.060077138664
 30
0.0
 11
504.2825071946372
 21
514.876670138664
 31
0.0
  0
LINE
  5
34D
330
2
100
AcDbEntity
  8
AM_4
100
AcDbLine
 10
503.8624471946373
 20
514.9979551386641
 30
0.0
 11
503.8713221946372
 21
514.929917138664
 31
0.0
  0
LINE
  5
34E
330
2
100
AcDbEntity
  8
AM_4
100
AcDbLine
 10
504.0606451946372
 20
515.1133241386641
 30
0.0
 11
504.0813521946372
 21
514.7849671386641
 31
0.0
  0
LINE
  5
34F
330
2
100
AcDbEntity
  8
AM_4
100
AcDbLine
 10
504.2854651946371
 20
514.7849671386641
 30
0.0
 11
504.2825071946372
 21
514.876670138664
 31
0.0
  0
LINE
  5
350
330
2
100
AcDbEntity
  8
AM_4
100
AcDbLine
 10
503.8713221946372
 20
514.929917138664
 30
0.0
 11
503.8772381946372
 21
514.855963138664
 31
0.0
  0
LINE
  5
351
330
2
100
AcDbEntity
  8
AM_4
100
AcDbLine
 10
503.8772381946372
 20
514.7849671386641
 30
0.0
 11
504.2854651946371
 21
514.7849671386641
 31
0.0
  0
LINE
  5
352
330
2
100
AcDbEntity
  8
AM_4
100
AcDbLine
 10
504.2854651946371
 20
514.7849671386641
 30
0.0
 11
504.2854651946371
 21
514.7849671386641
 31
0.0
  0
LINE
  5
353
330
2
100
AcDbEntity
  8
AM_4
100
AcDbLine
 10
504.2647581946372
 20
515.060077138664
 30
0.0
 11
504.2470091946372
 21
515.1488221386641
 31
0.0
  0
LINE
  5
354
330
2
100
AcDbEntity
  8
AM_4
100
AcDbLine
 10
504.2470091946372
 20
515.1488221386641
 30
0.0
 11
504.2263021946372
 21
515.2375671386639
 31
0.0
  0
LINE
  5
355
330
2
100
AcDbEntity
  8
AM_4
100
AcDbLine
 10
504.2263021946372
 20
515.2375671386639
 30
0.0
 11
504.2026371946372
 21
515.323354138664
 31
0.0
  0
LINE
  5
356
330
2
100
AcDbEntity
  8
AM_4
100
AcDbLine
 10
504.2026371946372
 20
515.323354138664
 30
0.0
 11
504.1730551946373
 21
515.409141138664
 31
0.0
  0
LINE
  5
357
330
2
100
AcDbEntity
  8
AM_4
100
AcDbLine
 10
504.1730551946373
 20
515.409141138664
 30
0.0
 11
504.1405151946372
 21
515.4919701386639
 31
0.0
  0
LINE
  5
358
330
2
100
AcDbEntity
  8
AM_4
100
AcDbLine
 10
504.1405151946372
 20
515.4919701386639
 30
0.0
 11
504.1050171946372
 21
515.574798138664
 31
0.0
  0
LINE
  5
359
330
2
100
AcDbEntity
  8
AM_4
100
AcDbLine
 10
504.1050171946372
 20
515.574798138664
 30
0.0
 11
504.0636031946371
 21
515.651711138664
 31
0.0
  0
LINE
  5
35A
330
2
100
AcDbEntity
  8
AM_4
100
AcDbLine
 10
504.0636031946371
 20
515.651711138664
 30
0.0
 11
504.0221881946372
 21
515.7286231386641
 31
0.0
  0
LINE
  5
35B
330
2
100
AcDbEntity
  8
AM_4
100
AcDbLine
 10
504.0221881946372
 20
515.7286231386641
 30
0.0
 11
503.9718991946371
 21
515.8055361386641
 31
0.0
  0
LINE
  5
35C
330
2
100
AcDbEntity
  8
AM_4
100
AcDbLine
 10
503.9718991946371
 20
515.8055361386641
 30
0.0
 11
503.9216111946371
 21
515.876532138664
 31
0.0
  0
LINE
  5
35D
330
2
100
AcDbEntity
  8
AM_4
100
AcDbLine
 10
503.9216111946371
 20
515.876532138664
 30
0.0
 11
503.8683641946372
 21
515.9475281386639
 31
0.0
  0
LINE
  5
35E
330
2
100
AcDbEntity
  8
AM_4
100
AcDbLine
 10
503.7500371946372
 20
516.0776871386641
 30
0.0
 11
503.8683641946372
 21
515.9475281386639
 31
0.0
  0
LINE
  5
35F
330
2
100
AcDbEntity
  8
AM_4
100
AcDbLine
 10
503.7500371946372
 20
516.0776871386641
 30
0.0
 11
503.6879151946372
 21
516.136851138664
 31
0.0
  0
LINE
  5
360
330
2
100
AcDbEntity
  8
AM_4
100
AcDbLine
 10
503.6879151946372
 20
516.136851138664
 30
0.0
 11
503.6198771946373
 21
516.196014138664
 31
0.0
  0
LINE
  5
361
330
2
100
AcDbEntity
  8
AM_4
100
AcDbLine
 10
503.6198771946373
 20
516.196014138664
 30
0.0
 11
503.5518391946372
 21
516.2522191386641
 31
0.0
  0
LINE
  5
362
330
2
100
AcDbEntity
  8
AM_4
100
AcDbLine
 10
503.4039311946371
 20
516.352797138664
 30
0.0
 11
503.5518391946372
 21
516.2522191386641
 31
0.0
  0
LINE
  5
363
330
2
100
AcDbEntity
  8
AM_4
100
AcDbLine
 10
503.4039311946371
 20
516.352797138664
 30
0.0
 11
503.3270191946372
 21
516.3971691386641
 31
0.0
  0
LINE
  5
364
330
2
100
AcDbEntity
  8
AM_4
100
AcDbLine
 10
503.3270191946372
 20
516.3971691386641
 30
0.0
 11
503.2471481946372
 21
516.438584138664
 31
0.0
  0
LINE
  5
365
330
2
100
AcDbEntity
  8
AM_4
100
AcDbLine
 10
503.2471481946372
 20
516.438584138664
 30
0.0
 11
503.1672771946372
 21
516.4740821386641
 31
0.0
  0
LINE
  5
366
330
2
100
AcDbEntity
  8
AM_4
100
AcDbLine
 10
503.1672771946372
 20
516.4740821386641
 30
0.0
 11
503.0814901946372
 21
516.506622138664
 31
0.0
  0
LINE
  5
367
330
2
100
AcDbEntity
  8
AM_4
100
AcDbLine
 10
503.0814901946372
 20
516.506622138664
 30
0.0
 11
502.9957041946373
 21
516.536203138664
 31
0.0
  0
LINE
  5
368
330
2
100
AcDbEntity
  8
AM_4
100
AcDbLine
 10
502.9957041946373
 20
516.536203138664
 30
0.0
 11
502.9099171946373
 21
516.5628271386641
 31
0.0
  0
LINE
  5
369
330
2
100
AcDbEntity
  8
AM_4
100
AcDbLine
 10
502.9099171946373
 20
516.5628271386641
 30
0.0
 11
502.8182131946373
 21
516.583534138664
 31
0.0
  0
LINE
  5
36A
330
2
100
AcDbEntity
  8
AM_4
100
AcDbLine
 10
502.8063811946373
 20
516.1693901386639
 30
0.0
 11
502.8744191946373
 21
516.148683138664
 31
0.0
  0
LINE
  5
36B
330
2
100
AcDbEntity
  8
AM_4
100
AcDbLine
 10
502.8744191946373
 20
516.148683138664
 30
0.0
 11
502.9424571946371
 21
516.1250181386641
 31
0.0
  0
LINE
  5
36C
330
2
100
AcDbEntity
  8
AM_4
100
AcDbLine
 10
502.9424571946371
 20
516.1250181386641
 30
0.0
 11
503.0075361946372
 21
516.1013521386641
 31
0.0
  0
LINE
  5
36D
330
2
100
AcDbEntity
  8
AM_4
100
AcDbLine
 10
503.0075361946372
 20
516.1013521386641
 30
0.0
 11
503.0696581946371
 21
516.0717711386641
 31
0.0
  0
LINE
  5
36E
330
2
100
AcDbEntity
  8
AM_4
100
AcDbLine
 10
503.0696581946371
 20
516.0717711386641
 30
0.0
 11
503.1317791946372
 21
516.0392311386641
 31
0.0
  0
LINE
  5
36F
330
2
100
AcDbEntity
  8
AM_4
100
AcDbLine
 10
503.1317791946372
 20
516.0392311386641
 30
0.0
 11
503.1909431946372
 21
516.0037331386639
 31
0.0
  0
LINE
  5
370
330
2
100
AcDbEntity
  8
AM_4
100
AcDbLine
 10
503.1909431946372
 20
516.0037331386639
 30
0.0
 11
503.2501061946373
 21
515.9682351386641
 31
0.0
  0
LINE
  5
371
330
2
100
AcDbEntity
  8
AM_4
100
AcDbLine
 10
503.2501061946373
 20
515.9682351386641
 30
0.0
 11
503.3063111946372
 21
515.9268201386639
 31
0.0
  0
LINE
  5
372
330
2
100
AcDbEntity
  8
AM_4
100
AcDbLine
 10
503.3063111946372
 20
515.9268201386639
 30
0.0
 11
503.3595581946372
 21
515.885406138664
 31
0.0
  0
LINE
  5
373
330
2
100
AcDbEntity
  8
AM_4
100
AcDbLine
 10
503.3595581946372
 20
515.885406138664
 30
0.0
 11
503.4128051946372
 21
515.8380751386641
 31
0.0
  0
LINE
  5
374
330
2
100
AcDbEntity
  8
AM_4
100
AcDbLine
 10
503.4128051946372
 20
515.8380751386641
 30
0.0
 11
503.4630941946373
 21
515.7907451386639
 31
0.0
  0
LINE
  5
375
330
2
100
AcDbEntity
  8
AM_4
100
AcDbLine
 10
503.4630941946373
 20
515.7907451386639
 30
0.0
 11
503.5074671946373
 21
515.740456138664
 31
0.0
  0
LINE
  5
376
330
2
100
AcDbEntity
  8
AM_4
100
AcDbLine
 10
503.5074671946373
 20
515.740456138664
 30
0.0
 11
503.5547981946372
 21
515.690167138664
 31
0.0
  0
LINE
  5
377
330
2
100
AcDbEntity
  8
AM_4
100
AcDbLine
 10
503.5547981946372
 20
515.690167138664
 30
0.0
 11
503.5962121946372
 21
515.633962138664
 31
0.0
  0
LINE
  5
378
330
2
100
AcDbEntity
  8
AM_4
100
AcDbLine
 10
503.5962121946372
 20
515.633962138664
 30
0.0
 11
503.6346681946372
 21
515.5777561386639
 31
0.0
  0
LINE
  5
379
330
2
100
AcDbEntity
  8
AM_4
100
AcDbLine
 10
503.6346681946372
 20
515.5777561386639
 30
0.0
 11
503.6731241946372
 21
515.5215511386641
 31
0.0
  0
LINE
  5
37A
330
2
100
AcDbEntity
  8
AM_4
100
AcDbLine
 10
503.6731241946372
 20
515.5215511386641
 30
0.0
 11
503.7056641946373
 21
515.459430138664
 31
0.0
  0
LINE
  5
37B
330
2
100
AcDbEntity
  8
AM_4
100
AcDbLine
 10
503.7056641946373
 20
515.459430138664
 30
0.0
 11
503.7382041946371
 21
515.400266138664
 31
0.0
  0
LINE
  5
37C
330
2
100
AcDbEntity
  8
AM_4
100
AcDbLine
 10
503.7382041946371
 20
515.400266138664
 30
0.0
 11
503.7677861946372
 21
515.3351871386639
 31
0.0
  0
LINE
  5
37D
330
2
100
AcDbEntity
  8
AM_4
100
AcDbLine
 10
503.7677861946372
 20
515.3351871386639
 30
0.0
 11
503.8151161946371
 21
515.2050271386641
 31
0.0
  0
LINE
  5
37E
330
2
100
AcDbEntity
  8
AM_4
100
AcDbLine
 10
503.8151161946371
 20
515.2050271386641
 30
0.0
 11
503.8328661946372
 21
515.1369891386641
 31
0.0
  0
LINE
  5
37F
330
2
100
AcDbEntity
  8
AM_4
100
AcDbLine
 10
503.8328661946372
 20
515.1369891386641
 30
0.0
 11
503.8506151946371
 21
515.0689511386641
 31
0.0
  0
LINE
  5
380
330
2
100
AcDbEntity
  8
AM_4
100
AcDbLine
 10
503.8506151946371
 20
515.0689511386641
 30
0.0
 11
503.8624471946373
 21
514.9979551386641
 31
0.0
  0
LINE
  5
381
330
2
100
AcDbEntity
  8
AM_4
100
AcDbLine
 10
502.7767991946372
 20
516.3764621386641
 30
0.0
 11
503.0874071946372
 21
516.293633138664
 31
0.0
  0
LINE
  5
382
330
2
100
AcDbEntity
  8
AM_4
100
AcDbLine
 10
503.0874071946372
 20
516.293633138664
 30
0.0
 11
503.3566001946371
 21
516.1279761386642
 31
0.0
  0
LINE
  5
383
330
2
100
AcDbEntity
  8
AM_4
100
AcDbLine
 10
503.3566001946371
 20
516.1279761386642
 30
0.0
 11
503.6050861946372
 21
515.9416111386641
 31
0.0
  0
LINE
  5
384
330
2
100
AcDbEntity
  8
AM_4
100
AcDbLine
 10
503.6050861946372
 20
515.9416111386641
 30
0.0
 11
503.8121581946373
 21
515.693125138664
 31
0.0
  0
LINE
  5
385
330
2
100
AcDbEntity
  8
AM_4
100
AcDbLine
 10
503.8121581946373
 20
515.693125138664
 30
0.0
 11
503.9571091946371
 21
515.4239321386641
 31
0.0
  0
LINE
  5
386
330
2
100
AcDbEntity
  8
AM_4
100
AcDbLine
 10
503.9571091946371
 20
515.4239321386641
 30
0.0
 11
504.0606451946372
 21
515.1133241386641
 31
0.0
  0
LINE
  5
387
330
2
100
AcDbEntity
  8
AM_4
100
AcDbLine
 10
502.7294681946373
 20
516.5983251386641
 30
0.0
 11
502.6348071946372
 21
516.6101581386641
 31
0.0
  0
LINE
  5
388
330
2
100
AcDbEntity
  8
AM_4
100
AcDbLine
 10
502.8182131946373
 20
516.583534138664
 30
0.0
 11
502.7294681946373
 21
516.5983251386641
 31
0.0
  0
SOLID
  5
389
330
2
100
AcDbEntity
  8
AM_0
100
AcDbTrace
 10
144.1874038141411
 20
481.7008219781753
 30
0.0
 11
146.6839608944654
 21
470.9165376934867
 31
0.0
 12
141.5773674892259
 22
470.9165376934867
 32
0.0
 13
141.5773674892259
 23
470.9165376934867
 33
0.0
  0
LINE
  5
38A
330
2
100
AcDbEntity
  8
AM_0
100
AcDbLine
 10
141.5773674892259
 20
470.9165376934867
 30
0.0
 11
144.1874038141411
 21
481.7008219781753
 31
0.0
  0
LINE
  5
38B
330
2
100
AcDbEntity
  8
AM_0
100
AcDbLine
 10
144.1874038141411
 20
481.7008219781753
 30
0.0
 11
146.6839608944654
 21
470.9165376934867
 31
0.0
  0
LINE
  5
38C
330
2
100
AcDbEntity
  8
AM_0
100
AcDbLine
 10
146.6839608944654
 20
470.9165376934867
 30
0.0
 11
141.5773674892259
 21
470.9165376934867
 31
0.0
  0
MTEXT
  5
38D
330
2
100
AcDbEntity
  8
AM_6
 62
     7
100
AcDbMText
 10
151.9166116602389
 20
462.2898173763831
 30
0.0
 40
5.0
 41
0.0
 71
     8
 72
     5
  1
Y
 73
     1
 44
1.0
1001
ACAD
1000
MTEXTBEGIN
1070
    73
1070
     1
1070
    44
1040
1.0
1070
    74
1070
     0
1000
MTEXTEND
  0
LWPOLYLINE
  5
38E
330
2
100
AcDbEntity
  8
AM_0
100
AcDbPolyline
 90
        2
 70
     0
 43
1.0
 10
144.1874855843668
 20
473.4139509246593
 10
144.1874855843668
 20
460.5863273152491
  0
DIMENSION
  5
68E
330
2
100
AcDbEntity
  8
AM_5
100
AcDbDimension
  2
*D3
 10
294.2784275182061
 20
694.8245197321774
 30
0.0
 11
136.1744056669989
 21
694.8245197321774
 31
0.0
 70
   160
  1
%%c<>
 71
     5
 42
206.0000000000004
  3
AM_DIN
100
AcDbAlignedDimension
 13
88.27842751820559
 23
694.8245197321774
 33
0.0
 14
294.2784275182061
 24
694.8245197321774
 34
0.0
100
AcDbRotatedDimension
1001
GENIUS_GENDTOL_13
1000

1000
h7
1000

1040
0.0
1000
%%c<>
1001
ACAD
1000
DSTYLE
1002
{
1070
   140
1040
3.5
1070
   271
1070
     0
1002
}
  0
DIMENSION
  5
690
330
2
100
AcDbEntity
  8
AM_5
100
AcDbDimension
  2
*D4
 10
73.39529676525067
 20
507.9297103472493
 30
0.0
 11
70.94495227706166
 21
644.8931625154571
 31
0.0
 70
    32
  1
<> {}{\C2;%%p3}
 71
     5
 42
273.9269043364156
  3
AM_DIN
100
AcDbAlignedDimension
 13
188.0364539630958
 23
781.8566146836648
 33
0.0
 14
148.743173896549
 24
507.9297103472493
 34
0.0
 50
90.0
100
AcDbRotatedDimension
1001
ACAD
1000
DSTYLE
1002
{
1070
   286
1070
     0
1070
   284
1070
     8
1070
   274
1070
     2
1070
   272
1070
     2
1070
    47
1040
3.0
1070
    48
1040
3.0
1070
   140
1040
3.5
1070
   271
1070
     0
1002
}
1001
GENIUS_GENDTOL_13
1000
TolPm
1000
h7
1000
{$3%%p$P}
1040
268.0
  0
DIMENSION
  5
691
330
2
100
AcDbEntity
  8
AM_5
100
AcDbDimension
  2
*D5
 10
60.28059077598243
 20
808.6131979219524
 30
0.0
 11
57.83024628779332
 21
645.9463505628717
 31
0.0
 70
    32
  1
<> {}{\C2;%%p5}
 71
     5
 42
325.3336947181614
  3
AM_DIN
100
AcDbAlignedDimension
 13
180.0584275182058
 23
483.2795032037909
 33
0.0
 14
187.9075882859355
 24
808.6131979219524
 34
0.0
 50
90.0
100
AcDbRotatedDimension
1001
ACAD
1000
DSTYLE
1002
{
1070
   286
1070
     0
1070
   284
1070
     8
1070
   274
1070
     2
1070
   272
1070
     2
1070
    47
1040
5.0
1070
    48
1040
5.0
1070
   140
1040
3.5
1070
   271
1070
     0
1002
}
1001
GENIUS_GENDTOL_13
1000
TolPm
1000

1000
{$3%%p$P}
1040
320.0
  0
LWPOLYLINE
  5
6B7
330
2
100
AcDbEntity
  8
AM_0
100
AcDbPolyline
 90
        2
 70
     0
 43
0.0
 10
179.593013439265
 20
483.2795032037909
 10
202.963841597147
 20
483.2795032037909
  0
ARC
  5
6BA
330
2
100
AcDbEntity
  8
AM_0
100
AcDbCircle
 10
211.0757207640721
 20
782.8819730324651
 30
0.0
 40
1.0
100
AcDbArc
 50
270.0
 51
30.00000000000782
  0
LINE
  5
6BD
330
2
100
AcDbEntity
  8
AM_0
100
AcDbLine
 10
187.9075882859355
 20
808.6131979219524
 30
0.0
 11
194.6492667504757
 21
808.6131979219524
 31
0.0
  0
ARC
  5
6CB
330
2
100
AcDbEntity
  8
AM_0
100
AcDbCircle
 10
194.4894932510108
 20
803.6131979219524
 30
0.0
 40
5.0
100
AcDbArc
 50
28.58808396743628
 51
90.0
  0
LINE
  5
6DA
330
2
100
AcDbEntity
  8
AM_0
100
AcDbLine
 10
198.8799058105145
 20
806.0057441717347
 30
0.0
 11
211.9417461678561
 21
783.3819730324651
 31
0.0
  0
ARC
  5
6E4
330
2
100
AcDbEntity
  8
AM_0
100
AcDbCircle
 10
171.4811342723391
 20
782.8819730324651
 30
0.0
 40
1.0
100
AcDbArc
 50
149.9999999999922
 51
270.0
  0
LINE
  5
6E5
330
2
100
AcDbEntity
  8
AM_0
100
AcDbLine
 10
171.4811342723391
 20
781.881973032465
 30
0.0
 11
211.0757207640721
 21
781.881973032465
 31
0.0
  0
LINE
  5
6E8
330
2
100
AcDbEntity
  8
AM_0
100
AcDbLine
 10
183.6769492258967
 20
806.0057441717347
 30
0.0
 11
170.6151088685549
 21
783.3819730324651
 31
0.0
  0
ARC
  5
6EB
330
2
100
AcDbEntity
  8
AM_0
100
AcDbCircle
 10
188.0673617854003
 20
803.6131979219524
 30
0.0
 40
5.0
100
AcDbArc
 50
90.0
 51
151.4119160325637
  0
ARC
  5
6F2
330
2
100
AcDbEntity
  8
AM_0
100
AcDbCircle
 10
272.4284275182057
 20
741.3288161339472
 30
0.0
 40
21.85
100
AcDbArc
 50
0.0
 51
64.04263171650424
1001
GENIUS_GENODEF_13
1002
{
1000
HIER
1070
     0
1002
}
1002
{
1000
MANEDIT
1070
     0
1002
}
1002
{
1000
NOSEL
1070
     0
1002
}
1002
{
1000
BEHIND
1070
     0
1002
}
1002
{
1000
REACTOR
1002
}
1001
GENIUS_GENOBJ-N-FIL_13
1002
{
1000
OWNER
1000
GEN
1002
}
  0
LINE
  5
6F5
330
2
100
AcDbEntity
  8
AM_0
100
AcDbLine
 10
294.2784275182061
 20
654.729033662072
 30
0.0
 11
293.0350631636833
 21
654.729033662072
 31
0.0
  0
LINE
  5
6F6
330
2
100
AcDbEntity
  8
AM_0
100
AcDbLine
 10
293.1624021144211
 20
655.1140238400343
 30
0.0
 11
294.1109592729366
 21
656.7569730324651
 31
0.0
  0
ARC
  5
6F7
330
2
100
AcDbEntity
  8
AM_0
100
AcDbCircle
 10
294.0284275182061
 20
654.614023840034
 30
0.0
 40
1.0
100
AcDbArc
 50
149.9999999999922
 51
173.395808431049
1001
GENIUS_GENODEF_13
1002
{
1000
HIER
1070
     0
1002
}
1002
{
1000
MANEDIT
1070
     0
1002
}
1002
{
1000
NOSEL
1070
     0
1002
}
1002
{
1000
BEHIND
1070
     0
1002
}
1002
{
1000
REACTOR
1002
}
1001
GENIUS_GENOBJ-N-FIL_13
1002
{
1000
OWNER
1000
GEN
1002
}
  0
ARC
  5
6FA
330
2
100
AcDbEntity
  8
AM_0
100
AcDbCircle
 10
293.028427518206
 20
657.3819730324649
 30
0.0
 40
1.25
100
AcDbArc
 50
329.9999999999922
 51
0.0
1001
GENIUS_GENODEF_13
1002
{
1000
HIER
1070
     0
1002
}
1002
{
1000
MANEDIT
1070
     0
1002
}
1002
{
1000
NOSEL
1070
     0
1002
}
1002
{
1000
BEHIND
1070
     0
1002
}
1002
{
1000
REACTOR
1002
}
1001
GENIUS_GENOBJ-N-FIL_13
1002
{
1000
OWNER
1000
GEN
1002
}
  0
LINE
  5
702
330
2
100
AcDbEntity
  8
AM_0
 62
     7
100
AcDbLine
 10
294.2784275182051
 20
741.3288161339472
 30
0.0
 11
294.2784275182061
 21
657.3819730324649
 31
0.0
  0
ARC
  5
708
330
2
100
AcDbEntity
  8
AM_0
100
AcDbCircle
 10
110.1284275182055
 20
741.3288161339472
 30
0.0
 40
21.85
100
AcDbArc
 50
115.9573682834957
 51
180.0
1001
GENIUS_GENODEF_13
1002
{
1000
HIER
1070
     0
1002
}
1002
{
1000
MANEDIT
1070
     0
1002
}
1002
{
1000
NOSEL
1070
     0
1002
}
1002
{
1000
BEHIND
1070
     0
1002
}
1002
{
1000
REACTOR
1002
}
1001
GENIUS_GENOBJ-N-FIL_13
1002
{
1000
OWNER
1000
GEN
1002
}
  0
ARC
  5
709
330
2
100
AcDbEntity
  8
AM_0
100
AcDbCircle
 10
88.52842751820606
 20
654.6140238400337
 30
0.0
 40
1.0
100
AcDbArc
 50
6.604191568963928
 51
30.00000000000782
1001
GENIUS_GENODEF_13
1002
{
1000
HIER
1070
     0
1002
}
1002
{
1000
MANEDIT
1070
     0
1002
}
1002
{
1000
NOSEL
1070
     0
1002
}
1002
{
1000
BEHIND
1070
     0
1002
}
1002
{
1000
REACTOR
1002
}
1001
GENIUS_GENOBJ-N-FIL_13
1002
{
1000
OWNER
1000
GEN
1002
}
  0
LINE
  5
70A
330
2
100
AcDbEntity
  8
AM_0
100
AcDbLine
 10
89.39445292199016
 20
655.1140238400343
 30
0.0
 11
88.4458957634755
 21
656.7569730324651
 31
0.0
  0
ARC
  5
70B
330
2
100
AcDbEntity
  8
AM_0
100
AcDbCircle
 10
89.52842751820606
 20
657.3819730324649
 30
0.0
 40
1.25
100
AcDbArc
 50
180.0
 51
210.0000000000078
1001
GENIUS_GENODEF_13
1002
{
1000
HIER
1070
     0
1002
}
1002
{
1000
MANEDIT
1070
     0
1002
}
1002
{
1000
NOSEL
1070
     0
1002
}
1002
{
1000
BEHIND
1070
     0
1002
}
1002
{
1000
REACTOR
1002
}
1001
GENIUS_GENOBJ-N-FIL_13
1002
{
1000
OWNER
1000
GEN
1002
}
  0
LINE
  5
70C
330
2
100
AcDbEntity
  8
AM_0
 62
     7
100
AcDbLine
 10
88.27842751820606
 20
741.3288161339472
 30
0.0
 11
88.27842751820606
 21
657.3819730324649
 31
0.0
  0
ARC
  5
70D
330
2
100
AcDbEntity
  8
AM_0
100
AcDbCircle
 10
191.278427518206
 20
574.6319730324651
 30
0.0
 40
207.25
100
AcDbArc
 50
64.04263171650424
 51
115.9573682834957
  0
LINE
  5
70F
330
2
100
AcDbEntity
  8
AM_0
100
AcDbLine
 10
88.27842751820606
 20
654.729033662072
 30
0.0
 11
294.2784275182061
 21
654.729033662072
 31
0.0
  0
ARC
  5
711
330
2
100
AcDbEntity
  8
AM_0
100
AcDbCircle
 10
272.4284275182057
 20
560.1619047884976
 30
0.0
 40
21.85
100
AcDbArc
 50
295.9573682834957
 51
0.0
1001
GENIUS_GENODEF_13
1002
{
1000
HIER
1070
     0
1002
}
1002
{
1000
MANEDIT
1070
     0
1002
}
1002
{
1000
NOSEL
1070
     0
1002
}
1002
{
1000
BEHIND
1070
     0
1002
}
1002
{
1000
REACTOR
1002
}
1001
GENIUS_GENOBJ-N-FIL_13
1002
{
1000
OWNER
1000
GEN
1002
}
  0
LINE
  5
716
330
2
100
AcDbEntity
  8
AM_0
100
AcDbLine
 10
239.028427518206
 20
515.7295032037912
 30
0.0
 11
239.028427518206
 21
511.9295032037909
 31
0.0
  0
ARC
  5
723
330
2
100
AcDbEntity
  8
AM_0
100
AcDbCircle
 10
234.7784275182061
 20
515.7295032037912
 30
0.0
 40
4.25
100
AcDbArc
 50
0.0
 51
90.0
  0
ARC
  5
725
330
2
100
AcDbEntity
  8
AM_0
100
AcDbCircle
 10
191.278427518206
 20
726.8587478899794
 30
0.0
 40
207.25
100
AcDbArc
 50
281.5650407556169
 51
295.9573682834957
  0
LINE
  5
72B
330
2
100
AcDbEntity
  8
AM_0
100
AcDbLine
 10
232.0284275182061
 20
519.979503203791
 30
0.0
 11
232.0284275182061
 21
522.8366902589479
 31
0.0
  0
LINE
  5
743
330
2
100
AcDbEntity
  8
AM_0
100
AcDbLine
 10
234.7784275182061
 20
519.979503203791
 30
0.0
 11
147.7784275182051
 21
519.979503203791
 31
0.0
  0
LINE
  5
745
330
2
100
AcDbEntity
  8
AM_0
100
AcDbLine
 10
150.5284275182053
 20
519.979503203791
 30
0.0
 11
150.528427518206
 21
522.8366902589479
 31
0.0
  0
ARC
  5
746
330
2
100
AcDbEntity
  8
AM_0
100
AcDbCircle
 10
149.528427518206
 20
522.8366902589479
 30
0.0
 40
1.0
100
AcDbArc
 50
0.0
 51
78.434959244383
1001
GENIUS_GENODEF_13
1002
{
1000
HIER
1070
     0
1002
}
1002
{
1000
MANEDIT
1070
     0
1002
}
1002
{
1000
NOSEL
1070
     0
1002
}
1002
{
1000
BEHIND
1070
     0
1002
}
1002
{
1000
REACTOR
1002
}
1001
GENIUS_GENOBJ-N-FIL_13
1002
{
1000
OWNER
1000
GEN
1002
}
  0
LINE
  5
751
330
2
100
AcDbEntity
  8
AM_0
100
AcDbLine
 10
143.528427518206
 20
515.7295032037912
 30
0.0
 11
143.528427518206
 21
511.9295032037909
 31
0.0
  0
ARC
  5
753
330
2
100
AcDbEntity
  8
AM_0
100
AcDbCircle
 10
147.7784275182051
 20
515.7295032037912
 30
0.0
 40
4.25
100
AcDbArc
 50
90.0
 51
180.0
  0
ARC
  5
761
330
2
100
AcDbEntity
  8
AM_0
100
AcDbCircle
 10
233.028427518206
 20
522.8366902589479
 30
0.0
 40
1.0
100
AcDbArc
 50
101.565040755617
 51
180.0
1001
GENIUS_GENODEF_13
1002
{
1000
HIER
1070
     0
1002
}
1002
{
1000
MANEDIT
1070
     0
1002
}
1002
{
1000
NOSEL
1070
     0
1002
}
1002
{
1000
BEHIND
1070
     0
1002
}
1002
{
1000
REACTOR
1002
}
1001
GENIUS_GENOBJ-N-FIL_13
1002
{
1000
OWNER
1000
GEN
1002
}
  0
LINE
  5
763
330
2
100
AcDbEntity
  8
AM_0
100
AcDbLine
 10
202.963841597147
 20
483.2795032037909
 30
0.0
 11
204.4984275182054
 21
484.8140891248497
 31
0.0
  0
LINE
  5
768
330
2
100
AcDbEntity
  8
AM_0
100
AcDbLine
 10
179.593013439265
 20
483.2795032037909
 30
0.0
 11
178.0584275182058
 21
484.8140891248497
 31
0.0
  0
ARC
  5
769
330
2
100
AcDbEntity
  8
AM_0
100
AcDbCircle
 10
148.778427518206
 20
510.9295032037909
 30
0.0
 40
3.0
100
AcDbArc
 50
231.783482204498
 51
270.6733100745426
  0
LINE
  5
76A
330
2
100
AcDbEntity
  8
AM_0
100
AcDbLine
 10
233.8136811398657
 20
507.9297103472488
 30
0.0
 11
148.7431738965464
 21
507.9297103472488
 31
0.0
  0
DIMENSION
  5
76B
330
2
100
AcDbEntity
  8
AM_5
100
AcDbDimension
  2
*D6
 10
204.4984275182054
 20
474.3154576886437
 30
0.0
 11
222.0484275182054
 21
474.3154576886437
 31
0.0
 70
   160
  1
ISO 228-G 3/4
 71
     5
 42
26.4399999999996
  3
AM_DIN
100
AcDbAlignedDimension
 13
178.0584275182058
 23
484.8140891248497
 33
0.0
 14
204.4984275182054
 24
484.8140891248497
 34
0.0
100
AcDbRotatedDimension
1001
ACAD
1000
DSTYLE
1002
{
1070
   140
1040
3.5
1070
   271
1070
     0
1002
}
  0
ARC
  5
76C
330
2
100
AcDbEntity
  8
AM_0
100
AcDbCircle
 10
233.7784275182061
 20
510.9295032037909
 30
0.0
 40
3.0
100
AcDbArc
 50
269.3266899254573
 51
308.216517795502
  0
LINE
  5
770
330
2
100
AcDbEntity
  8
AM_0
100
AcDbLine
 10
178.0584275182058
 20
484.8140891248497
 30
0.0
 11
178.0584275182058
 21
507.9297103472488
 31
0.0
  0
ARC
  5
772
330
2
100
AcDbEntity
  8
AM_0
100
AcDbCircle
 10
146.528427518206
 20
511.9295032037909
 30
0.0
 40
3.0
100
AcDbArc
 50
180.0
 51
260.2915398463455
1001
GENIUS_GENODEF_13
1002
{
1000
HIER
1070
     0
1002
}
1002
{
1000
MANEDIT
1070
     0
1002
}
1002
{
1000
NOSEL
1070
     0
1002
}
1002
{
1000
BEHIND
1070
     0
1002
}
1002
{
1000
REACTOR
1002
}
1001
GENIUS_GENOBJ-N-FIL_13
1002
{
1000
OWNER
1000
GEN
1002
}
  0
ARC
  5
774
330
2
100
AcDbEntity
  8
AM_0
100
AcDbCircle
 10
145.685252896836
 20
507.0011103057078
 30
0.0
 40
2.0
100
AcDbArc
 50
51.78348220449803
 51
80.29153984634547
1001
GENIUS_GENODEF_13
1002
{
1000
HIER
1070
     0
1002
}
1002
{
1000
MANEDIT
1070
     0
1002
}
1002
{
1000
NOSEL
1070
     0
1002
}
1002
{
1000
BEHIND
1070
     0
1002
}
1002
{
1000
REACTOR
1002
}
1001
GENIUS_GENOBJ-N-FIL_13
1002
{
1000
OWNER
1000
GEN
1002
}
  0
LINE
  5
775
330
2
100
AcDbEntity
  8
AM_4
100
AcDbLine
 10
179.4860869022017
 20
483.3864297408537
 30
0.0
 11
179.4860869022016
 21
507.9297103472487
 31
0.0
  0
LINE
  5
777
330
2
100
AcDbEntity
  8
AM_0
100
AcDbLine
 10
204.4984275182054
 20
484.8140891248497
 30
0.0
 11
204.4984275182054
 21
507.9297103472488
 31
0.0
  0
LINE
  5
779
330
2
100
AcDbEntity
  8
AM_4
100
AcDbLine
 10
203.0707681342095
 20
483.3864297408537
 30
0.0
 11
203.0707681342095
 21
507.9297103472487
 31
0.0
  0
ARC
  5
77C
330
2
100
AcDbEntity
  8
AM_0
100
AcDbCircle
 10
236.8716021395761
 20
507.0011103057078
 30
0.0
 40
2.0
100
AcDbArc
 50
99.70846015365452
 51
128.216517795502
1001
GENIUS_GENODEF_13
1002
{
1000
HIER
1070
     0
1002
}
1002
{
1000
MANEDIT
1070
     0
1002
}
1002
{
1000
NOSEL
1070
     0
1002
}
1002
{
1000
BEHIND
1070
     0
1002
}
1002
{
1000
REACTOR
1002
}
1001
GENIUS_GENOBJ-N-FIL_13
1002
{
1000
OWNER
1000
GEN
1002
}
  0
ARC
  5
77D
330
2
100
AcDbEntity
  8
AM_0
100
AcDbCircle
 10
236.0284275182061
 20
511.9295032037909
 30
0.0
 40
3.0
100
AcDbArc
 50
279.7084601536545
 51
0.0
1001
GENIUS_GENODEF_13
1002
{
1000
HIER
1070
     0
1002
}
1002
{
1000
MANEDIT
1070
     0
1002
}
1002
{
1000
NOSEL
1070
     0
1002
}
1002
{
1000
BEHIND
1070
     0
1002
}
1002
{
1000
REACTOR
1002
}
1001
GENIUS_GENOBJ-N-FIL_13
1002
{
1000
OWNER
1000
GEN
1002
}
  0
ARC
  5
782
330
2
100
AcDbEntity
  8
AM_0
100
AcDbCircle
 10
110.1284275182055
 20
560.1619047884976
 30
0.0
 40
21.85
100
AcDbArc
 50
180.0
 51
244.0426317165043
1001
GENIUS_GENODEF_13
1002
{
1000
HIER
1070
     0
1002
}
1002
{
1000
MANEDIT
1070
     0
1002
}
1002
{
1000
NOSEL
1070
     0
1002
}
1002
{
1000
BEHIND
1070
     0
1002
}
1002
{
1000
REACTOR
1002
}
1001
GENIUS_GENOBJ-N-FIL_13
1002
{
1000
OWNER
1000
GEN
1002
}
  0
ARC
  5
787
330
2
100
AcDbEntity
  8
AM_0
100
AcDbCircle
 10
191.278427518206
 20
726.8587478899794
 30
0.0
 40
207.25
100
AcDbArc
 50
244.0426317165043
 51
258.434959244383
  0
LINE
  5
78E
330
2
100
AcDbEntity
  8
AM_0
 62
     7
100
AcDbLine
 10
294.2784275182061
 20
654.729033662072
 30
0.0
 11
294.2784275182061
 21
560.1619047884979
 31
0.0
  0
LINE
  5
78F
330
2
100
AcDbEntity
  8
AM_0
 62
     7
100
AcDbLine
 10
88.27842751820606
 20
654.729033662072
 30
0.0
 11
88.27842751820606
 21
560.1619047884976
 31
0.0
  0
LINE
  5
791
330
2
100
AcDbEntity
  8
AM_7
100
AcDbLine
 10
191.278427518206
 20
812.1352143555897
 30
0.0
 11
191.278427518206
 21
480.538809769814
 31
0.0
  0
LINE
  5
799
330
2
100
AcDbEntity
  8
AM_7
100
AcDbLine
 10
191.278427518206
 20
534.8118862108045
 30
0.0
 11
191.278427518206
 21
483.2931921483588
 31
0.0
1001
GENIUS_GENOBJ-N-CEN_13
1002
{
1000
OWNER
1000
GEN
1002
}
1001
GENIUS_GENODEF_13
1002
{
1000
HIER
1070
     0
1002
}
1002
{
1000
MANEDIT
1070
     0
1002
}
1002
{
1000
NOSEL
1070
     0
1002
}
1002
{
1000
BEHIND
1070
     0
1002
}
1002
{
1000
OTHER
1070
     0
1002
}
1002
{
1000
REACTOR
1002
}
  0
AMDTACMWBLOCKBOMENTITY
  5
812
330
2
100
AcDbEntity
  8
AM_5
 92
        8
310
0800000000000000
  0
AMDTACMWBLOCKBOMENTITY
  5
813
330
2
100
AcDbEntity
  8
AM_5
 92
        8
310
0800000000000000
  0
AMDTACMWBLOCKBOMENTITY
  5
814
330
2
100
AcDbEntity
  8
AM_5
 92
        8
310
0800000000000000
  0
AMDTACMWBLOCKBOMENTITY
  5
815
330
2
100
AcDbEntity
  8
AM_5
 92
        8
310
0800000000000000
  0
AMDTACMWBLOCKBOMENTITY
  5
816
330
2
100
AcDbEntity
  8
AM_5
 92
        8
310
0800000000000000
  0
AMDTACMWBLOCKBOMENTITY
  5
817
330
2
100
AcDbEntity
  8
AM_5
 92
        8
310
0800000000000000
  0
AMDTACMWBLOCKBOMENTITY
  5
818
330
2
100
AcDbEntity
  8
AM_5
 92
        8
310
0800000000000000
  0
LINE
  5
9EC
330
2
100
AcDbEntity
  8
AM_0
100
AcDbLine
 10
178.0584275182058
 20
484.8140891248497
 30
0.0
 11
204.4984275182054
 21
484.8140891248497
 31
0.0
  0
LINE
  5
9ED
330
2
100
AcDbEntity
  8
AM_4
100
AcDbLine
 10
153.112263376107
 20
523.589377219667
 30
0.0
 11
229.4850509466442
 21
523.5893772196668
 31
0.0
  0
ENDSEC
  0
SECTION
  2
OBJECTS
  0
DICTIONARY
  5
9
330
0
100
AcDbDictionary
281
     1
  3
ACAD_COLOR
350
28
  3
ACAD_GROUP
350
24
  3
ACAD_LAYOUT
350
D
  3
ACAD_MATERIAL
350
27
  3
ACAD_MLINESTYLE
350
25
  3
ACAD_PLOTSETTINGS
350
26
  3
ACAD_PLOTSTYLENAME
350
8
  3
ACAD_TABLESTYLE
350
29
  3
ACAD_VISUALSTYLE
350
8EF
  3
AcDbVariableDictionary
350
3F4
  3
AcmDictionary
350
3A2
  3
AMG
350
391
  3
AMGSNAPSETTINGS
350
432
  3
DWGPROPS
350
A17
  0
DICTIONARY
  5
3
330
2
100
AcDbDictionary
280
     1
281
     1
  3
ACAD_SORTENTS
360
38F
  0
DICTIONARY
  5
28
102
{ACAD_REACTORS
330
9
102
}
330
9
100
AcDbDictionary
281
     1
  0
DICTIONARY
  5
24
102
{ACAD_REACTORS
330
9
102
}
330
9
100
AcDbDictionary
281
     1
  0
DICTIONARY
  5
D
102
{ACAD_REACTORS
330
9
102
}
330
9
100
AcDbDictionary
281
     1
  3
Layout1
350
12
  3
Model
350
C
  0
DICTIONARY
  5
27
102
{ACAD_REACTORS
330
9
102
}
330
9
100
AcDbDictionary
281
     1
  3
ByBlock
350
8ED
  3
ByLayer
350
8EC
  3
Global
350
8EE
  0
DICTIONARY
  5
25
102
{ACAD_REACTORS
330
9
102
}
330
9
100
AcDbDictionary
281
     1
  3
Standard
350
2B
  0
DICTIONARY
  5
26
102
{ACAD_REACTORS
330
9
102
}
330
9
100
AcDbDictionary
281
     1
  0
ACDBDICTIONARYWDFLT
  5
8
102
{ACAD_REACTORS
330
9
102
}
330
9
100
AcDbDictionary
281
     1
  3
Normal
350
7
100
AcDbDictionaryWithDefault
340
7
  0
DICTIONARY
  5
29
102
{ACAD_REACTORS
330
9
102
}
330
9
100
AcDbDictionary
281
     1
  3
Standard
350
2C
  0
DICTIONARY
  5
8EF
102
{ACAD_REACTORS
330
9
102
}
330
9
100
AcDbDictionary
281
     1
  3
2dWireframe
350
8F5
  3
3D Hidden
350
8F7
  3
3dWireframe
350
8F6
  3
Basic
350
8F4
  3
Brighten
350
8FB
  3
ColorChange
350
8FF
  3
Conceptual
350
8F8
  3
Dim
350
8FA
  3
Facepattern
350
8FE
  3
Flat
350
8F0
  3
FlatWithEdges
350
8F1
  3
Gouraud
350
8F2
  3
GouraudWithEdges
350
8F3
  3
Linepattern
350
8FD
  3
Realistic
350
8F9
  3
Thicken
350
8FC
  0
DICTIONARY
  5
3F4
102
{ACAD_REACTORS
330
9
102
}
330
9
100
AcDbDictionary
281
     1
  3
CTABLESTYLE
350
3F5
  3
DIMASSOC
350
8E1
  3
HIDETEXT
350
8E0
  3
INDEXCTL
350
A16
  3
PROJECTNAME
350
8E2
  3
SORTENTS
350
A15
  0
DICTIONARY
  5
3A2
102
{ACAD_REACTORS
330
9
102
}
330
9
100
AcDbDictionary
281
     1
  3
AcmStdDictionary
350
3A3
  3
AMDTSECTSYM_ARROWCOLOR
350
427
  0
DICTIONARY
  5
391
102
{ACAD_REACTORS
330
9
102
}
330
9
100
AcDbDictionary
281
     1
  0
DICTIONARY
  5
432
102
{ACAD_REACTORS
330
9
102
}
330
9
100
AcDbDictionary
281
     1
  0
XRECORD
  5
A17
102
{ACAD_REACTORS
330
9
102
}
330
9
100
AcDbXrecord
280
     1
  1
DWGPROPS COOKIE
  2

  3

  4

  6

  7

  8
Schieman
  9

300
=
301
=
302
=
303
=
304
=
305
=
306
=
307
=
308
=
309
=
 40
3.54926005787037
 41
2452908.547844861
 42
2454175.368368958
  1

 90
        0
  0
SORTENTSTABLE
  5
38F
102
{ACAD_REACTORS
330
3
102
}
330
3
100
AcDbSortentsTable
330
2
  0
LAYOUT
  5
12
102
{ACAD_XDICTIONARY
360
A1A
102
}
102
{ACAD_REACTORS
330
D
102
}
330
D
100
AcDbPlotSettings
  1

  2
none_device
  4
Letter_(8.50_x_11.00_Inches)
  6

 40
6.349999904632567
 41
6.349999904632567
 42
6.350006103515625
 43
6.350006103515625
 44
215.8999938964844
 45
279.3999938964844
 46
0.0
 47
0.0
 48
0.0
 49
0.0
140
0.0
141
0.0
142
1.0
143
1.0
 70
 15024
 72
     1
 73
     1
 74
     5
  7
ganz_fein_1.ctb
 75
    16
147
1.0
148
0.0
149
0.0
100
AcDbLayout
  1
Layout1
 70
     1
 71
     1
 10
0.0
 20
0.0
 11
420.0
 21
297.0
 12
0.0
 22
0.0
 32
0.0
 14
1.000000000000000E+20
 24
1.000000000000000E+20
 34
1.000000000000000E+20
 15
-1.000000000000000E+20
 25
-1.000000000000000E+20
 35
-1.000000000000000E+20
146
0.0
 13
0.0
 23
0.0
 33
0.0
 16
1.0
 26
0.0
 36
0.0
 17
0.0
 27
1.0
 37
0.0
 76
     0
330
F
  0
LAYOUT
  5
C
102
{ACAD_XDICTIONARY
360
A18
102
}
102
{ACAD_REACTORS
330
D
102
}
330
D
100
AcDbPlotSettings
  1

  2
FinePrint pdfFactory
  4
A4
  6
AM_VIEW6
 40
7.143749713897705
 41
7.143725872039794
 42
7.143753051757812
 43
7.14373779296875
 44
210.0156707763672
 45
297.0106506347656
 46
1.0
 47
1.0
 48
-269.8052631578948
 49
-207.1011557610241
140
324.1947368421053
141
212.8988442389758
142
1.0
143
2.145833194417956
 70
 11952
 72
     1
 73
     1
 74
     4
  7
ganz_fein_1.ctb
 75
     0
147
0.4660194476445518
148
269.8052631578948
149
207.1011557610241
100
AcDbLayout
  1
Model
 70
     1
 71
     0
 10
0.0
 20
0.0
 11
12.0
 21
9.0
 12
0.0
 22
0.0
 32
0.0
 14
0.0
 24
0.0
 34
0.0
 15
0.0
 25
0.0
 35
0.0
146
0.0
 13
0.0
 23
0.0
 33
0.0
 16
1.0
 26
0.0
 36
0.0
 17
0.0
 27
1.0
 37
0.0
 76
     0
330
2
331
8E3
  0
MATERIAL
  5
8ED
102
{ACAD_XDICTIONARY
360
A20
102
}
102
{ACAD_REACTORS
330
27
102
}
330
27
100
AcDbMaterial
  1
ByBlock
  0
MATERIAL
  5
8EC
102
{ACAD_XDICTIONARY
360
A1E
102
}
102
{ACAD_REACTORS
330
27
102
}
330
27
100
AcDbMaterial
  1
ByLayer
  0
MATERIAL
  5
8EE
102
{ACAD_XDICTIONARY
360
A22
102
}
102
{ACAD_REACTORS
330
27
102
}
330
27
100
AcDbMaterial
  1
Global
  0
MLINESTYLE
  5
2B
102
{ACAD_REACTORS
330
25
102
}
330
25
100
AcDbMlineStyle
  2
STANDARD
 70
     0
  3

 62
   256
 51
90.0
 52
90.0
 71
     2
 49
0.5
 62
   256
  6
BYLAYER
 49
-0.5
 62
   256
  6
BYLAYER
  0
ACDBPLACEHOLDER
  5
7
102
{ACAD_REACTORS
330
8
102
}
330
8
  0
TABLESTYLE
  5
2C
102
{ACAD_XDICTIONARY
360
A1C
102
}
102
{ACAD_REACTORS
330
29
102
}
330
29
100
AcDbTableStyle
  3
Standard
 70
     0
 71
     0
 40
1.5
 41
1.5
280
     0
281
     0
  7
STANDARD
140
4.5
170
     2
 62
     0
 63
     7
283
     0
274
    -2
284
     1
 64
     0
275
    -2
285
     1
 65
     0
276
    -2
286
     1
 66
     0
277
    -2
287
     1
 67
     0
278
    -2
288
     1
 68
     0
279
    -2
289
     1
 69
     0
  7
STANDARD
140
6.0
170
     5
 62
     0
 63
     7
283
     0
274
    -2
284
     1
 64
     0
275
    -2
285
     1
 65
     0
276
    -2
286
     1
 66
     0
277
    -2
287
     1
 67
     0
278
    -2
288
     1
 68
     0
279
    -2
289
     1
 69
     0
  7
STANDARD
140
4.5
170
     5
 62
     0
 63
     7
283
     0
274
    -2
284
     1
 64
     0
275
    -2
285
     1
 65
     0
276
    -2
286
     1
 66
     0
277
    -2
287
     1
 67
     0
278
    -2
288
     1
 68
     0
279
    -2
289
     1
 69
     0
  0
VISUALSTYLE
  5
8F5
102
{ACAD_REACTORS
330
8EF
102
}
330
8EF
100
AcDbVisualStyle
  2
2dWireframe
 70
     4
 71
     0
 72
     2
 73
     0
 90
        0
 40
-0.6
 41
-30.0
 62
     5
 63
     7
 74
     1
 91
        4
 64
     7
 65
   257
 75
     1
175
     1
 42
1.0
 92
        0
 66
   257
 43
1.0
 76
     1
 77
     6
 78
     2
 67
     7
 79
     5
170
     0
171
     0
290
     0
174
     0
 93
        1
 44
0.0
173
     0
291
     0
 45
0.0
1001
ACAD
1000
AcDbSavedByObjectVersion
1070
     0
  0
VISUALSTYLE
  5
8F7
102
{ACAD_REACTORS
330
8EF
102
}
330
8EF
100
AcDbVisualStyle
  2
3D Hidden
 70
     6
 71
     1
 72
     2
 73
     2
 90
        0
 40
-0.6
 41
-30.0
 62
     5
 63
     7
 74
     2
 91
        2
 64
     7
 65
   257
 75
     2
175
     1
 42
40.0
 92
        0
 66
   257
 43
1.0
 76
     1
 77
     6
 78
     2
 67
     7
 79
     3
170
     0
171
     0
290
     0
174
     0
 93
        1
 44
0.0
173
     0
291
     0
 45
0.0
1001
ACAD
1000
AcDbSavedByObjectVersion
1070
     0
  0
VISUALSTYLE
  5
8F6
102
{ACAD_REACTORS
330
8EF
102
}
330
8EF
100
AcDbVisualStyle
  2
3dWireframe
 70
     5
 71
     0
 72
     2
 73
     0
 90
        0
 40
-0.6
 41
-30.0
 62
     5
 63
     7
 74
     1
 91
        4
 64
     7
 65
   257
 75
     1
175
     1
 42
1.0
 92
        0
 66
   257
 43
1.0
 76
     1
 77
     6
 78
     2
 67
     7
 79
     5
170
     0
171
     0
290
     0
174
     0
 93
        1
 44
0.0
173
     0
291
     0
 45
0.0
1001
ACAD
1000
AcDbSavedByObjectVersion
1070
     0
  0
VISUALSTYLE
  5
8F4
102
{ACAD_REACTORS
330
8EF
102
}
330
8EF
100
AcDbVisualStyle
  2
Basic
 70
     7
 71
     1
 72
     0
 73
     1
 90
        0
 40
-0.6
 41
-30.0
 62
     5
 63
     7
 74
     0
 91
        4
 64
     7
 65
   257
 75
     1
175
     1
 42
1.0
 92
        8
 66
     7
 43
1.0
 76
     1
 77
     6
 78
     2
 67
     7
 79
     5
170
     0
171
     0
290
     0
174
     0
 93
        1
 44
0.0
173
     0
291
     1
 45
0.0
1001
ACAD
1000
AcDbSavedByObjectVersion
1070
     0
  0
VISUALSTYLE
  5
8FB
102
{ACAD_REACTORS
330
8EF
102
}
330
8EF
100
AcDbVisualStyle
  2
Brighten
 70
    12
 71
     2
 72
     2
 73
     0
 90
        0
 40
-0.6
 41
-30.0
 62
     5
 63
     7
 74
     1
 91
        4
 64
     7
 65
   257
 75
     1
175
     1
 42
1.0
 92
        8
 66
     7
 43
1.0
 76
     1
 77
     6
 78
     2
 67
     7
 79
     5
170
     0
171
     0
290
     0
174
     0
 93
        1
 44
50.0
173
     0
291
     1
 45
0.0
1001
ACAD
1000
AcDbSavedByObjectVersion
1070
     0
  0
VISUALSTYLE
  5
8FF
102
{ACAD_REACTORS
330
8EF
102
}
330
8EF
100
AcDbVisualStyle
  2
ColorChange
 70
    16
 71
     2
 72
     2
 73
     3
 90
        0
 40
-0.6
 41
-30.0
 62
     5
 63
     8
 74
     1
 91
        4
 64
     7
 65
   257
 75
     1
175
     1
 42
1.0
 92
        8
 66
     8
 43
1.0
 76
     1
 77
     6
 78
     2
 67
     7
 79
     5
170
     0
171
     0
290
     0
174
     0
 93
        1
 44
0.0
173
     0
291
     1
 45
0.0
1001
ACAD
1000
AcDbSavedByObjectVersion
1070
     0
  0
VISUALSTYLE
  5
8F8
102
{ACAD_REACTORS
330
8EF
102
}
330
8EF
100
AcDbVisualStyle
  2
Conceptual
 70
     9
 71
     3
 72
     2
 73
     0
 90
        0
 40
-0.6
 41
-30.0
 62
     5
 63
     7
 74
     2
 91
        2
 64
     7
 65
   257
 75
     1
175
     1
 42
40.0
 92
        8
 66
     7
 43
1.0
 76
     1
 77
     6
 78
     2
 67
     7
 79
     3
170
     0
171
     0
290
     0
174
     0
 93
        1
 44
0.0
173
     0
291
     0
 45
0.0
1001
ACAD
1000
AcDbSavedByObjectVersion
1070
     0
  0
VISUALSTYLE
  5
8FA
102
{ACAD_REACTORS
330
8EF
102
}
330
8EF
100
AcDbVisualStyle
  2
Dim
 70
    11
 71
     2
 72
     2
 73
     0
 90
        0
 40
-0.6
 41
-30.0
 62
     5
 63
     7
 74
     1
 91
        4
 64
     7
 65
   257
 75
     1
175
     1
 42
1.0
 92
        8
 66
     7
 43
1.0
 76
     1
 77
     6
 78
     2
 67
     7
 79
     5
170
     0
171
     0
290
     0
174
     0
 93
        1
 44
-50.0
173
     0
291
     1
 45
0.0
1001
ACAD
1000
AcDbSavedByObjectVersion
1070
     0
  0
VISUALSTYLE
  5
8FE
102
{ACAD_REACTORS
330
8EF
102
}
330
8EF
100
AcDbVisualStyle
  2
Facepattern
 70
    15
 71
     2
 72
     2
 73
     0
 90
        0
 40
-0.6
 41
-30.0
 62
     5
 63
     7
 74
     1
 91
        4
 64
     7
 65
   257
 75
     1
175
     1
 42
1.0
 92
        8
 66
     7
 43
1.0
 76
     1
 77
     6
 78
     2
 67
     7
 79
     5
170
     0
171
     0
290
     0
174
     0
 93
        1
 44
0.0
173
     0
291
     1
 45
0.0
1001
ACAD
1000
AcDbSavedByObjectVersion
1070
     0
  0
VISUALSTYLE
  5
8F0
102
{ACAD_REACTORS
330
8EF
102
}
330
8EF
100
AcDbVisualStyle
  2
Flat
 70
     0
 71
     2
 72
     1
 73
     1
 90
        2
 40
-0.6
 41
30.0
 62
     5
 63
     7
 74
     0
 91
        4
 64
     7
 65
   257
 75
     1
175
     1
 42
1.0
 92
        8
 66
     7
 43
1.0
 76
     1
 77
     6
 78
     2
 67
     7
 79
     5
170
     0
171
     0
290
     0
174
     0
 93
       13
 44
0.0
173
     0
291
     1
 45
0.0
1001
ACAD
1000
AcDbSavedByObjectVersion
1070
     0
  0
VISUALSTYLE
  5
8F1
102
{ACAD_REACTORS
330
8EF
102
}
330
8EF
100
AcDbVisualStyle
  2
FlatWithEdges
 70
     1
 71
     2
 72
     1
 73
     1
 90
        2
 40
-0.6
 41
30.0
 62
     5
 63
     7
 74
     1
 91
        4
 64
     7
 65
   257
 75
     1
175
     1
 42
1.0
 92
        0
 66
   257
 43
1.0
 76
     1
 77
     6
 78
     2
 67
     7
 79
     5
170
     0
171
     0
290
     0
174
     0
 93
       13
 44
0.0
173
     0
291
     1
 45
0.0
1001
ACAD
1000
AcDbSavedByObjectVersion
1070
     0
  0
VISUALSTYLE
  5
8F2
102
{ACAD_REACTORS
330
8EF
102
}
330
8EF
100
AcDbVisualStyle
  2
Gouraud
 70
     2
 71
     2
 72
     2
 73
     1
 90
        2
 40
-0.6
 41
30.0
 62
     5
 63
     7
 74
     0
 91
        4
 64
     7
 65
   257
 75
     1
175
     1
 42
1.0
 92
        0
 66
     7
 43
1.0
 76
     1
 77
     6
 78
     2
 67
     7
 79
     5
170
     0
171
     0
290
     0
174
     0
 93
       13
 44
0.0
173
     0
291
     1
 45
0.0
1001
ACAD
1000
AcDbSavedByObjectVersion
1070
     0
  0
VISUALSTYLE
  5
8F3
102
{ACAD_REACTORS
330
8EF
102
}
330
8EF
100
AcDbVisualStyle
  2
GouraudWithEdges
 70
     3
 71
     2
 72
     2
 73
     1
 90
        2
 40
-0.6
 41
30.0
 62
     5
 63
     7
 74
     1
 91
        4
 64
     7
 65
   257
 75
     1
175
     1
 42
1.0
 92
        0
 66
   257
 43
1.0
 76
     1
 77
     6
 78
     2
 67
     7
 79
     5
170
     0
171
     0
290
     0
174
     0
 93
       13
 44
0.0
173
     0
291
     1
 45
0.0
1001
ACAD
1000
AcDbSavedByObjectVersion
1070
     0
  0
VISUALSTYLE
  5
8FD
102
{ACAD_REACTORS
330
8EF
102
}
330
8EF
100
AcDbVisualStyle
  2
Linepattern
 70
    14
 71
     2
 72
     2
 73
     0
 90
        0
 40
-0.6
 41
-30.0
 62
     5
 63
     7
 74
     1
 91
        4
 64
     7
 65
   257
 75
     7
175
     7
 42
1.0
 92
        8
 66
     7
 43
1.0
 76
     1
 77
     6
 78
     2
 67
     7
 79
     5
170
     0
171
     0
290
     0
174
     0
 93
        1
 44
0.0
173
     0
291
     1
 45
0.0
1001
ACAD
1000
AcDbSavedByObjectVersion
1070
     0
  0
VISUALSTYLE
  5
8F9
102
{ACAD_REACTORS
330
8EF
102
}
330
8EF
100
AcDbVisualStyle
  2
Realistic
 70
     8
 71
     2
 72
     2
 73
     0
 90
        0
 40
-0.6
 41
-30.0
 62
     5
 63
     7
 74
     1
 91
        0
 64
     7
 65
   257
 75
     1
175
     1
 42
1.0
 92
        8
 66
     8
 43
1.0
 76
     1
 77
     6
 78
     2
 67
     7
 79
     5
170
     0
171
     0
290
     0
174
     0
 93
       13
 44
0.0
173
     0
291
     0
 45
0.0
1001
ACAD
1000
AcDbSavedByObjectVersion
1070
     0
  0
VISUALSTYLE
  5
8FC
102
{ACAD_REACTORS
330
8EF
102
}
330
8EF
100
AcDbVisualStyle
  2
Thicken
 70
    13
 71
     2
 72
     2
 73
     0
 90
        0
 40
-0.6
 41
-30.0
 62
     5
 63
     7
 74
     1
 91
        4
 64
     7
 65
   257
 75
     1
175
     1
 42
1.0
 92
       12
 66
     7
 43
1.0
 76
     1
 77
     6
 78
     2
 67
     7
 79
     5
170
     0
171
     0
290
     0
174
     0
 93
        1
 44
0.0
173
     0
291
     1
 45
0.0
1001
ACAD
1000
AcDbSavedByObjectVersion
1070
     0
  0
DICTIONARYVAR
  5
3F5
102
{ACAD_REACTORS
330
3F4
102
}
330
3F4
100
DictionaryVariables
280
     0
  1
STANDARD
  0
DICTIONARYVAR
  5
8E1
102
{ACAD_REACTORS
330
3F4
102
}
330
3F4
100
DictionaryVariables
280
     0
  1
1
  0
DICTIONARYVAR
  5
8E0
102
{ACAD_REACTORS
330
3F4
102
}
330
3F4
100
DictionaryVariables
280
     0
  1
1
  0
DICTIONARYVAR
  5
A16
102
{ACAD_REACTORS
330
3F4
102
}
330
3F4
100
DictionaryVariables
280
     0
  1
0
  0
DICTIONARYVAR
  5
8E2
102
{ACAD_REACTORS
330
3F4
102
}
330
3F4
100
DictionaryVariables
280
     0
  1

  0
DICTIONARYVAR
  5
A15
102
{ACAD_REACTORS
330
3F4
102
}
330
3F4
100
DictionaryVariables
280
     0
  1
127
  0
DICTIONARY
  5
3A3
102
{ACAD_REACTORS
330
3A2
102
}
330
3A2
100
AcDbDictionary
281
     1
  0
XRECORD
  5
427
102
{ACAD_REACTORS
330
3A2
102
}
330
3A2
100
AcDbXrecord
280
     1
 90
-1023410169
  0
DICTIONARY
  5
A1A
330
12
100
AcDbDictionary
280
     1
281
     1
  3
ACAD_XREC_ROUNDTRIP
360
A1B
  0
DICTIONARY
  5
A18
330
C
100
AcDbDictionary
280
     1
281
     1
  3
ACAD_XREC_ROUNDTRIP
360
A19
  0
DICTIONARY
  5
A20
330
8ED
100
AcDbDictionary
280
     1
281
     1
  3
ACAD_XREC_ROUNDTRIP
360
A21
  0
DICTIONARY
  5
A1E
330
8EC
100
AcDbDictionary
280
     1
281
     1
  3
ACAD_XREC_ROUNDTRIP
360
A1F
  0
DICTIONARY
  5
A22
330
8EE
100
AcDbDictionary
280
     1
281
     1
  3
ACAD_XREC_ROUNDTRIP
360
A23
  0
DICTIONARY
  5
A1C
330
2C
100
AcDbDictionary
280
     1
281
     1
  3
ACAD_XREC_ROUNDTRIP
360
A1D
  0
XRECORD
  5
A1B
102
{ACAD_REACTORS
330
A1A
102
}
330
A1A
100
AcDbXrecord
280
     1
102
SHADEPLOT
 70
     0
102
SHADEPLOTRESLEVEL
 70
     2
102
SHADEPLOTCUSTOMDPI
 70
   300
  0
XRECORD
  5
A19
102
{ACAD_REACTORS
330
A18
102
}
330
A18
100
AcDbXrecord
280
     1
102
SHADEPLOT
 70
     0
102
SHADEPLOTRESLEVEL
 70
     2
102
SHADEPLOTCUSTOMDPI
 70
   300
  0
XRECORD
  5
A21
102
{ACAD_REACTORS
330
A20
102
}
330
A20
100
AcDbXrecord
280
     1
102
MATERIAL
148
0.0
149
0.0
149
0.0
 93
        0
 94
       63
282
     0
 72
     1
 77
     1
171
     1
175
     1
179
     1
273
     0
  0
XRECORD
  5
A1F
102
{ACAD_REACTORS
330
A1E
102
}
330
A1E
100
AcDbXrecord
280
     1
102
MATERIAL
148
0.0
149
0.0
149
0.0
 93
        0
 94
       63
282
     0
 72
     1
 77
     1
171
     1
175
     1
179
     1
273
     0
  0
XRECORD
  5
A23
102
{ACAD_REACTORS
330
A22
102
}
330
A22
100
AcDbXrecord
280
     1
102
MATERIAL
148
0.0
149
0.0
149
0.0
 93
        0
 94
       63
282
     0
 72
     1
 77
     1
171
     1
175
     1
179
     1
273
     0
  0
XRECORD
  5
A1D
102
{ACAD_REACTORS
330
A1C
102
}
330
A1C
100
AcDbXrecord
280
     1
102
ACAD_ROUNDTRIP_PRE2007_TABLESTYLE
 90
        4
 91
        0
  1

 92
        4
 93
        0
  2

 94
        4
 95
        0
  3

  0
ENDSEC
  0
EOF
