  0
SECTION
  2
HEADER
  9
$ACADVER
  1
AC1015
  9
$ACADMAINTVER
 70
    20
  9
$DWGCODEPAGE
  3
ANSI_1252
  9
$INSBASE
 10
232.2377521101753
 20
1619.569700116765
 30
0.0
  9
$EXTMIN
 10
285.0449568734557
 20
1791.543278945078
 30
-0.0015258207003583
  9
$EXTMAX
 10
1409.399509330512
 20
2330.642399199589
 30
0.0000000349246037
  9
$LIMMIN
 10
-0.0000000000001137
 20
0.0
  9
$LIMMAX
 10
1782.0
 20
1260.0
  9
$ORTHOMODE
 70
     1
  9
$REGENMODE
 70
     1
  9
$FILLMODE
 70
     1
  9
$QTEXTMODE
 70
     0
  9
$MIRRTEXT
 70
     0
  9
$LTSCALE
 40
3.0
  9
$ATTMODE
 70
     1
  9
$TEXTSIZE
 40
50.0
  9
$TRACEWID
 40
1.0
  9
$TEXTSTYLE
  7
STANDARD
  9
$CLAYER
  8
AM_0
  9
$CELTYPE
  6
ByLayer
  9
$CECOLOR
 62
   256
  9
$CELTSCALE
 40
1.0
  9
$DISPSILH
 70
     0
  9
$DIMSCALE
 40
3.0
  9
$DIMASZ
 40
2.5
  9
$DIMEXO
 40
0.0
  9
$DIMDLI
 40
10.0
  9
$DIMRND
 40
0.0
  9
$DIMDLE
 40
0.0
  9
$DIMEXE
 40
1.0
  9
$DIMTP
 40
0.1
  9
$DIMTM
 40
0.1
  9
$DIMTXT
 40
3.0
  9
$DIMCEN
 40
0.0
  9
$DIMTSZ
 40
0.0
  9
$DIMTOL
 70
     0
  9
$DIMLIM
 70
     0
  9
$DIMTIH
 70
     0
  9
$DIMTOH
 70
     0
  9
$DIMSE1
 70
     0
  9
$DIMSE2
 70
     0
  9
$DIMTAD
 70
     1
  9
$DIMZIN
 70
     8
  9
$DIMBLK
  1

  9
$DIMASO
 70
     1
  9
$DIMSHO
 70
     1
  9
$DIMPOST
  1

  9
$DIMAPOST
  1
"
  9
$DIMALT
 70
     0
  9
$DIMALTD
 70
     2
  9
$DIMALTF
 40
0.0393701
  9
$DIMLFAC
 40
1.0
  9
$DIMTOFL
 70
     1
  9
$DIMTVP
 40
0.0
  9
$DIMTIX
 70
     0
  9
$DIMSOXD
 70
     0
  9
$DIMSAH
 70
     0
  9
$DIMBLK1
  1

  9
$DIMBLK2
  1

  9
$DIMSTYLE
  2
AM_DIN
  9
$DIMCLRD
 70
   256
  9
$DIMCLRE
 70
   256
  9
$DIMCLRT
 70
     2
  9
$DIMTFAC
 40
0.71
  9
$DIMGAP
 40
0.7
  9
$DIMJUST
 70
     0
  9
$DIMSD1
 70
     0
  9
$DIMSD2
 70
     0
  9
$DIMTOLJ
 70
     0
  9
$DIMTZIN
 70
     8
  9
$DIMALTZ
 70
     0
  9
$DIMALTTZ
 70
     0
  9
$DIMUPT
 70
     0
  9
$DIMDEC
 70
     2
  9
$DIMTDEC
 70
     2
  9
$DIMALTU
 70
     2
  9
$DIMALTTD
 70
     2
  9
$DIMTXSTY
  7
STANDARD
  9
$DIMAUNIT
 70
     0
  9
$DIMADEC
 70
     0
  9
$DIMALTRND
 40
0.0
  9
$DIMAZIN
 70
     2
  9
$DIMDSEP
 70
    46
  9
$DIMATFIT
 70
     3
  9
$DIMFRAC
 70
     0
  9
$DIMLDRBLK
  1

  9
$DIMLUNIT
 70
     2
  9
$DIMLWD
 70
    -1
  9
$DIMLWE
 70
    -1
  9
$DIMTMOVE
 70
     0
  9
$LUNITS
 70
     2
  9
$LUPREC
 70
     2
  9
$SKETCHINC
 40
1.0
  9
$FILLETRAD
 40
7.5
  9
$AUNITS
 70
     0
  9
$AUPREC
 70
     0
  9
$MENU
  1
.
  9
$ELEVATION
 40
0.0
  9
$PELEVATION
 40
0.0
  9
$THICKNESS
 40
0.0
  9
$LIMCHECK
 70
     0
  9
$CHAMFERA
 40
7.5
  9
$CHAMFERB
 40
7.5
  9
$CHAMFERC
 40
20.0
  9
$CHAMFERD
 40
0.0
  9
$SKPOLY
 70
     0
  9
$TDCREATE
 40
2451186.887248461
  9
$TDUCREATE
 40
2451186.803915127
  9
$TDUPDATE
 40
2454630.556555799
  9
$TDUUPDATE
 40
2454630.473222465
  9
$TDINDWG
 40
0.4265519213
  9
$TDUSRTIMER
 40
0.4265516898
  9
$USRTIMER
 70
     1
  9
$ANGBASE
 50
0.0
  9
$ANGDIR
 70
     0
  9
$PDMODE
 70
     0
  9
$PDSIZE
 40
0.0
  9
$PLINEWID
 40
0.0
  9
$SPLFRAME
 70
     0
  9
$SPLINETYPE
 70
     6
  9
$SPLINESEGS
 70
     8
  9
$HANDSEED
  5
5DA
  9
$SURFTAB1
 70
     6
  9
$SURFTAB2
 70
     6
  9
$SURFTYPE
 70
     6
  9
$SURFU
 70
     6
  9
$SURFV
 70
     6
  9
$UCSBASE
  2

  9
$UCSNAME
  2

  9
$UCSORG
 10
0.0
 20
0.0
 30
0.0
  9
$UCSXDIR
 10
1.0
 20
0.0
 30
0.0
  9
$UCSYDIR
 10
0.0
 20
1.0
 30
0.0
  9
$UCSORTHOREF
  2

  9
$UCSORTHOVIEW
 70
     0
  9
$UCSORGTOP
 10
0.0
 20
0.0
 30
0.0
  9
$UCSORGBOTTOM
 10
0.0
 20
0.0
 30
0.0
  9
$UCSORGLEFT
 10
0.0
 20
0.0
 30
0.0
  9
$UCSORGRIGHT
 10
0.0
 20
0.0
 30
0.0
  9
$UCSORGFRONT
 10
0.0
 20
0.0
 30
0.0
  9
$UCSORGBACK
 10
0.0
 20
0.0
 30
0.0
  9
$PUCSBASE
  2

  9
$PUCSNAME
  2

  9
$PUCSORG
 10
0.0
 20
0.0
 30
0.0
  9
$PUCSXDIR
 10
1.0
 20
0.0
 30
0.0
  9
$PUCSYDIR
 10
0.0
 20
1.0
 30
0.0
  9
$PUCSORTHOREF
  2

  9
$PUCSORTHOVIEW
 70
     0
  9
$PUCSORGTOP
 10
0.0
 20
0.0
 30
0.0
  9
$PUCSORGBOTTOM
 10
0.0
 20
0.0
 30
0.0
  9
$PUCSORGLEFT
 10
0.0
 20
0.0
 30
0.0
  9
$PUCSORGRIGHT
 10
0.0
 20
0.0
 30
0.0
  9
$PUCSORGFRONT
 10
0.0
 20
0.0
 30
0.0
  9
$PUCSORGBACK
 10
0.0
 20
0.0
 30
0.0
  9
$USERI1
 70
     0
  9
$USERI2
 70
     0
  9
$USERI3
 70
     0
  9
$USERI4
 70
     0
  9
$USERI5
 70
     0
  9
$USERR1
 40
0.0
  9
$USERR2
 40
0.0
  9
$USERR3
 40
0.0
  9
$USERR4
 40
0.0
  9
$USERR5
 40
0.0
  9
$WORLDVIEW
 70
     1
  9
$SHADEDGE
 70
     3
  9
$SHADEDIF
 70
    70
  9
$TILEMODE
 70
     1
  9
$MAXACTVP
 70
    64
  9
$PINSBASE
 10
0.0
 20
0.0
 30
0.0
  9
$PLIMCHECK
 70
     0
  9
$PEXTMIN
 10
1.000000000000000E+20
 20
1.000000000000000E+20
 30
1.000000000000000E+20
  9
$PEXTMAX
 10
-1.000000000000000E+20
 20
-1.000000000000000E+20
 30
-1.000000000000000E+20
  9
$PLIMMIN
 10
0.0
 20
0.0
  9
$PLIMMAX
 10
420.0
 20
297.0
  9
$UNITMODE
 70
     0
  9
$VISRETAIN
 70
     1
  9
$PLINEGEN
 70
     0
  9
$PSLTSCALE
 70
     1
  9
$TREEDEPTH
 70
  3020
  9
$CMLSTYLE
  2
Standard
  9
$CMLJUST
 70
     0
  9
$CMLSCALE
 40
20.0
  9
$PROXYGRAPHICS
 70
     1
  9
$MEASUREMENT
 70
     1
  9
$CELWEIGHT
370
    -1
  9
$ENDCAPS
280
     0
  9
$JOINSTYLE
280
     0
  9
$LWDISPLAY
290
     0
  9
$INSUNITS
 70
     4
  9
$HYPERLINKBASE
  1

  9
$STYLESHEET
  1
ganz_fein_1.ctb
  9
$XEDIT
290
     1
  9
$CEPSNTYPE
380
     0
  9
$PSTYLEMODE
290
     1
  9
$FINGERPRINTGUID
  2
{C7712CA3-5B43-4384-8BF8-31F1F6C4A48F}
  9
$VERSIONGUID
  2
{A8B9D9CD-E233-4BB6-BB52-2B747A18B078}
  9
$EXTNAMES
290
     1
  9
$PSVPSCALE
 40
0.0
  9
$OLESTARTUP
290
     0
  0
ENDSEC
  0
SECTION
  2
CLASSES
  0
CLASS
  1
ACDBDICTIONARYWDFLT
  2
AcDbDictionaryWithDefault
  3
ObjectDBX Classes
 90
        0
280
     0
281
     0
  0
CLASS
  1
ACDBPLACEHOLDER
  2
AcDbPlaceHolder
  3
ObjectDBX Classes
 90
        0
280
     0
281
     0
  0
CLASS
  1
LAYOUT
  2
AcDbLayout
  3
ObjectDBX Classes
 90
        0
280
     0
281
     0
  0
CLASS
  1
ACME_DOCUMENT
  2
AcMeDbDoc
  3
AcMeServices
 90
        0
280
     0
281
     0
  0
CLASS
  1
AMGSETTINGSOBJ
  2
AmgSettingsObj
  3
"AcadM|Product Description: AutoCAD Mechanical|Company: Autodesk"
 90
        0
280
     0
281
     0
  0
CLASS
  1
ACMESCOPE
  2
AcMeScope
  3
AcMeServices
 90
        0
280
     0
281
     0
  0
CLASS
  1
ACMECOMMANDHISTORY
  2
AcMeCommandHistory
  3
AcMeServices
 90
        0
280
     0
281
     0
  0
CLASS
  1
DICTIONARYVAR
  2
AcDbDictionaryVar
  3
ObjectDBX Classes
 90
        0
280
     0
281
     0
  0
CLASS
  1
ACIMSYSVARMAN
  2
AcImSysVarManager
  3
AcMeServices
 90
        0
280
     0
281
     0
  0
CLASS
  1
ACIMREALSYSVAR
  2
AcImRealSysVar
  3
AcMeServices
 90
        0
280
     0
281
     0
  0
CLASS
  1
ACIMINTSYSVAR
  2
AcImIntSysVar
  3
AcMeServices
 90
        0
280
     0
281
     0
  0
CLASS
  1
ACMEDRAWINGMAN
  2
AcMeDrawingMan
  3
AcMeServices
 90
        0
280
     0
281
     0
  0
CLASS
  1
ACMEVIEW
  2
AcMeView
  3
AcMeServices
 90
        0
280
     0
281
     0
  0
CLASS
  1
ACDBENTITYCACHE
  2
AcMeEntityCache
  3
AcMeServices
 90
        0
280
     0
281
     0
  0
CLASS
  1
GSMANAGER
  2
AcMeGSManager
  3
AcMeServices
 90
        0
280
     0
281
     0
  0
CLASS
  1
AMDTINTERNALREACTOR
  2
AmdtInternalReactor
  3
AcMeServices
 90
        0
280
     0
281
     0
  0
CLASS
  1
ACMESTATEMGR
  2
AcMeStateMgr
  3
AcMeServices
 90
        0
280
     0
281
     0
  0
CLASS
  1
ACGREFMASTER
  2
AcGrefMaster
  3
AcAttribServices
 90
        0
280
     0
281
     0
  0
CLASS
  1
AM_DRAWING_MGR
  2
AcDmDwgMgr
  3
AcMechDwgViewMgmt
 90
        0
280
     0
281
     0
  0
CLASS
  1
AM_DWG_DOCUMENT
  2
AcDmDwgDocument
  3
AcMechDwgViewMgmt
 90
        0
280
     0
281
     0
  0
CLASS
  1
AM_DWG_SHEET
  2
AcDmSheet
  3
AcMechDwgViewMgmt
 90
        0
280
     0
281
     0
  0
CLASS
  1
AM_VIEWDIMPARMAP
  2
AcDmViewDimParMap
  3
AcMechDwgViewMgmt
 90
        0
280
     0
281
     0
  0
CLASS
  1
AM_DWGMGR_NAME
  2
AcDmDwgMgrName
  3
AcMechDwgViewMgmt
 90
        0
280
     0
281
     0
  0
CLASS
  1
ACME_DATABASE
  2
AcMeDbDatabase
  3
AcMeServices
 90
        0
280
     0
281
     0
  0
CLASS
  1
ACRFINSADJUSTERMGR
  2
AcRfInsAdjusterMgr
  3
AcMeServices
 90
        0
280
     0
281
     0
  0
CLASS
  1
ACGREFACADMASTER
  2
AcGrefacadMaster
  3
AcGrefServices
 90
        0
280
     0
281
     0
  0
CLASS
  1
AMDTMENUSTATEMGR
  2
AmdtMenuStateMgr
  3
McadcomServices
 90
        0
280
     0
281
     0
  0
CLASS
  1
AMDTMCOMMENUSTATE
  2
AmdtMcomMenuState
  3
McadcomServices
 90
        0
280
     0
281
     0
  0
CLASS
  1
AMIMASTER
  2
AmiMaster
  3
AmiServices
 90
        0
280
     0
281
     0
  0
CLASS
  1
ASAPP
  2
AcAsAppObject
  3
AutoSurfServices
 90
    32768
280
     1
281
     0
  0
CLASS
  1
IM_STATIC_MAN
  2
AcImStaticVarManager
  3
AcMeServices
 90
    32768
280
     0
281
     0
  0
CLASS
  1
ACIMSTRSYSVAR
  2
AcImStrSysVar
  3
AcMeServices
 90
        0
280
     0
281
     0
  0
CLASS
  1
ACIMDBLSTATICVAR
  2
AcImDblStaticVar
  3
AcMeServices
 90
    32768
280
     0
281
     0
  0
CLASS
  1
ACIMSTRSTATICVAR
  2
AcImStrStaticVar
  3
AcMeServices
 90
    32768
280
     0
281
     0
  0
CLASS
  1
ACIMINTSTATICVAR
  2
AcImIntStaticVar
  3
AcMeServices
 90
    32768
280
     0
281
     0
  0
CLASS
  1
ACASGREFMASTER
  2
AcAsGrefMaster
  3
AutoSurfResolverServices
 90
    32768
280
     1
281
     0
  0
CLASS
  1
ACADGREFMODULE
  2
AcAdGrefModule
  3
AdGrefServices
 90
    32768
280
     1
281
     0
  0
CLASS
  1
AMDTMAPISURFMOUDULE
  2
AmdtMApiSurfModule
  3
MApiSurfServices
 90
    32768
280
     1
281
     0
  0
CLASS
  1
MAPIAMMOUDLE
  2
MApiAmModule
  3
MApiAmServices
 90
        0
280
     0
281
     0
  0
CLASS
  1
AMDTADMENUSTATE
  2
AmdtAdMenuState
  3
DesignerServices
 90
        0
280
     0
281
     0
  0
CLASS
  1
ADAPPL
  2
AcAdAppl
  3
DesignerServices
 90
        0
280
     0
281
     0
  0
CLASS
  1
DEPMGR
  2
AcAdDepMgr
  3
DesignerServices
 90
        0
280
     0
281
     0
  0
CLASS
  1
PARAMMGR
  2
AcAdParamMgr
  3
DesignerServices
 90
        0
280
     0
281
     0
  0
CLASS
  1
PARAMSCOPE
  2
AcAdParamScope
  3
DesignerServices
 90
        0
280
     0
281
     0
  0
CLASS
  1
NAMEDAPPL
  2
AcAdNamedAppl
  3
DesignerServices
 90
        0
280
     0
281
     0
  0
CLASS
  1
ADHNTMPLT
  2
AdHoleNoteTemplateMgr
  3
DesignerServices
 90
    32768
280
     0
281
     0
  0
CLASS
  1
AM_HNTEMPLATE_MGR_NAME
  2
AdHoleNoteTemplateMgrName
  3
DesignerServices
 90
    32768
280
     0
281
     0
  0
CLASS
  1
AMDTDMMENUSTATE
  2
AmdtDmMenuState
  3
AcMechDwgViewMgmt
 90
        0
280
     0
281
     0
  0
CLASS
  1
MAPIADMODULE
  2
MApiAdModule
  3
MApiAdServices
 90
    32768
280
     1
281
     0
  0
CLASS
  1
AMDTAMMENUSTATE
  2
AmdtAmMenuState
  3
DesignerAssemblies
 90
        0
280
     0
281
     0
  0
CLASS
  1
ACAMPROJECT
  2
AcAmProject
  3
DesignerAssemblies
 90
        0
280
     0
281
     0
  0
CLASS
  1
ACAMGRCOMPDEF
  2
AcAmGrCompDef
  3
DesignerAssemblies
 90
        0
280
     0
281
     0
  0
CLASS
  1
ACCMCONTEXT
  2
AcCmContext
  3
DesignerAssemblies
 90
        0
280
     0
281
     0
  0
CLASS
  1
ACAMCOMPDEF
  2
AcAmCompDef
  3
DesignerAssemblies
 90
        0
280
     0
281
     0
  0
CLASS
  1
ACAMCOMPDEFMGR
  2
AcAmCompDefMgr
  3
DesignerAssemblies
 90
        0
280
     0
281
     0
  0
CLASS
  1
AMCONTEXTMGR
  2
AcAmContextMgr
  3
DesignerAssemblies
 90
        0
280
     0
281
     0
  0
CLASS
  1
ACAMCONTEXTMODELER
  2
AcAmContextModeler
  3
DesignerAssemblies
 90
        0
280
     0
281
     0
  0
CLASS
  1
ACMDATADICTIONARY
  2
AcmDataDictionary
  3
"AcmSymBB|Product Description: AutoCAD Mechanical|Company: Autodesk"
 90
        0
280
     0
281
     0
  0
CLASS
  1
ACMDATAENTRYBLOCK
  2
AcmDataEntryBlock
  3
"AcmSymBB|Product Description: AutoCAD Mechanical|Company: Autodesk"
 90
        0
280
     0
281
     0
  0
CLASS
  1
CATALOGSTATE
  2
AcAmCatalogState
  3
DesignerAssemblies
 90
        0
280
     0
281
     0
  0
CLASS
  1
ACAMGRCOMPDEFSET
  2
AcAmGrCompDefSet
  3
DesignerAssemblies
 90
        0
280
     0
281
     0
  0
CLASS
  1
AMDTBROWSERDBTAB
  2
AmdtBrowserDbTab
  3
McadcomServices
 90
        0
280
     0
281
     0
  0
CLASS
  1
CBROWSERAPPOBJECT
  2
CBrowserAppObject
  3
McadcomServices
 90
        0
280
     0
281
     0
  0
CLASS
  1
DM_PLACEHOLDER
  2
AcDmSelsetPlaceholder
  3
AcMechDwgViewMgmt
 90
        0
280
     0
281
     0
  0
CLASS
  1
ACMSTANDARDDIN
  2
AcmStandardDIN
  3
"Amdt_StdImp|Product Description: AutoCAD Mechanical|Company: Autodesk"
 90
        0
280
     0
281
     0
  0
CLASS
  1
AMGOBJPROPCFG
  2
AmgObjPropCfg
  3
"AmgLay|Product Description: AutoCAD Mechanical|Company: Autodesk"
 90
        1
280
     0
281
     0
  0
CLASS
  1
AMDTEDGESTANDARDDIN
  2
AmdtEdgeStdDIN
  3
"Amdt_StdImp|Product Description: AutoCAD Mechanical|Company: Autodesk"
 90
        0
280
     0
281
     0
  0
CLASS
  1
ACMSURFSTANDARDDIN
  2
AcmSurfTextStdDIN
  3
"Amdt_StdImp|Product Description: AutoCAD Mechanical|Company: Autodesk"
 90
        0
280
     0
281
     0
  0
CLASS
  1
ACMFCFSTANDARDDIN
  2
AcmFCFStdDIN
  3
"Amdt_StdImp|Product Description: AutoCAD Mechanical|Company: Autodesk"
 90
        0
280
     0
281
     0
  0
CLASS
  1
ACMWELDSTANDARDDIN
  2
AcmWeldingStdDIN
  3
"Amdt_StdImp|Product Description: AutoCAD Mechanical|Company: Autodesk"
 90
        0
280
     0
281
     0
  0
CLASS
  1
ACMIDSTANDARDDIN
  2
AcmIdStdDIN
  3
"Amdt_StdImp|Product Description: AutoCAD Mechanical|Company: Autodesk"
 90
        0
280
     0
281
     0
  0
CLASS
  1
ACMDATUMSTANDARDDIN
  2
AcmDatumStdDIN
  3
"Amdt_StdImp|Product Description: AutoCAD Mechanical|Company: Autodesk"
 90
        0
280
     0
281
     0
  0
CLASS
  1
ACMBOMSTANDARDDIN
  2
AcmBOMStdDIN
  3
"Amdt_StdImp|Product Description: AutoCAD Mechanical|Company: Autodesk"
 90
        0
280
     0
281
     0
  0
CLASS
  1
ACMDETAILSTANDARDDIN
  2
AmdtDetailSymStdDIN
  3
"Amdt_StdImp|Product Description: AutoCAD Mechanical|Company: Autodesk"
 90
        0
280
     0
281
     0
  0
CLASS
  1
ACMSECTIONSTANDARDDIN
  2
AmdtSectionSymStdDIN
  3
"Amdt_StdImp|Product Description: AutoCAD Mechanical|Company: Autodesk"
 90
        0
280
     0
281
     0
  0
CLASS
  1
ACMCENTERLINESTANDARDDIN
  2
AmdtCenterLineStdDIN
  3
"Amdt_StdImp|Product Description: AutoCAD Mechanical|Company: Autodesk"
 90
        0
280
     0
281
     0
  0
CLASS
  1
ACMTHREADLINESTANDARDDIN
  2
AmdtThreadLineStdDIN
  3
"Amdt_StdImp|Product Description: AutoCAD Mechanical|Company: Autodesk"
 90
        0
280
     0
281
     0
  0
CLASS
  1
ACAMGLAYSTD
  2
AcAmgLayStd
  3
"AmgLay|Product Description: AutoCAD Mechanical|Company: Autodesk"
 90
        0
280
     0
281
     0
  0
CLASS
  1
ACAMGDIMSTD
  2
AcAmgDimStd
  3
"AmgDim|Product Description: AutoCAD Mechanical|Company: Autodesk"
 90
        0
280
     0
281
     0
  0
CLASS
  1
ACAMGTITLESTD
  2
AcAmgTitleStd
  3
"AmgTitle|Product Description: AutoCAD Mechanical|Company: Autodesk"
 90
        0
280
     0
281
     0
  0
CLASS
  1
LAYER_INDEX
  2
AcDbLayerIndex
  3
ObjectDBX Classes
 90
    32768
280
     0
281
     0
  0
CLASS
  1
IDBUFFER
  2
AcDbIdBuffer
  3
ObjectDBX Classes
 90
    32768
280
     0
281
     0
  0
CLASS
  1
ACAMGFILTERDAT
  2
AcAmgFilterDat
  3
"AcadM|Product Description: AutoCAD Mechanical|Company: Autodesk"
 90
        0
280
     0
281
     0
  0
CLASS
  1
AMDTFORMULAUPDATEDISPATCHER
  2
AmdtFormulaUpdateDispatcher
  3
AcMeServices
 90
    32768
280
     0
281
     0
  0
CLASS
  1
ACMWELDSYM
  2
AcmWelding
  3
"AcmSymBB|Product Description: AutoCAD Mechanical|Company: Autodesk"
 90
    35839
280
     0
281
     1
  0
CLASS
  1
ACMDATAENTRYPART
  2
AcmDataEntryPart
  3
"AcmSymBB|Product Description: AutoCAD Mechanical|Company: Autodesk"
 90
    32768
280
     0
281
     0
  0
CLASS
  1
ACMPARTREF
  2
AcmPartRef
  3
"AcmSymBB|Product Description: AutoCAD Mechanical|Company: Autodesk"
 90
    35839
280
     0
281
     1
  0
CLASS
  1
ACDBCIRCARCRES
  2
AcDbCircArcRes
  3
AcGrefServices
 90
    32768
280
     0
281
     0
  0
CLASS
  1
ACMDATAENTRY
  2
AcmDataEntry
  3
"AcmSymBB|Product Description: AutoCAD Mechanical|Company: Autodesk"
 90
    32768
280
     0
281
     0
  0
CLASS
  1
ACMBOM
  2
AcmBom
  3
"AcmSymBB|Product Description: AutoCAD Mechanical|Company: Autodesk"
 90
    32768
280
     0
281
     0
  0
CLASS
  1
ACMBOMROW
  2
AcmBomRow
  3
"AcmSymBB|Product Description: AutoCAD Mechanical|Company: Autodesk"
 90
    32768
280
     0
281
     0
  0
CLASS
  1
ACMBALLOON
  2
AcmBalloon
  3
"AcmSymBB|Product Description: AutoCAD Mechanical|Company: Autodesk"
 90
    35839
280
     0
281
     1
  0
CLASS
  1
ACDBLINERES
  2
AcDbLineRes
  3
AcGrefServices
 90
    32768
280
     0
281
     0
  0
CLASS
  1
ACRFINSADJ
  2
AcRfInsAdjuster
  3
AcMeServices
 90
    32768
280
     0
281
     0
  0
CLASS
  1
ACMDIMBREAKPERSREACTOR
  2
AcmDimBreakPersReactor
  3
amgDimApp().moduleName()
 90
    35839
280
     0
281
     0
  0
CLASS
  1
ACMNOTESTANDARDDIN
  2
AmdtNoteStdDIN
  3
"Amdt_StdImp|Product Description: AutoCAD Mechanical|Company: Autodesk"
 90
        0
280
     0
281
     0
  0
CLASS
  1
AMDTDETAILSYMLABEL
  2
AmdtDetailSymLabel
  3
"AcmSymBB|Product Description: AutoCAD Mechanical|Company: Autodesk"
 90
    35839
280
     0
281
     1
  0
CLASS
  1
AMDTDETAILSYM
  2
AmdtDetailSym
  3
"AcmSymBB|Product Description: AutoCAD Mechanical|Company: Autodesk"
 90
    35839
280
     0
281
     1
  0
CLASS
  1
AMDTNOTE
  2
AmdtNote
  3
"AcmSymBB|Product Description: AutoCAD Mechanical|Company: Autodesk"
 90
    35839
280
     0
281
     1
  0
CLASS
  1
TABLESTYLE
  2
AcDbTableStyle
  3
ObjectDBX Classes
 90
     4095
280
     0
281
     0
  0
CLASS
  1
AMDTNOTETEMPLATEDB
  2
AmdtNoteTemplateDB
  3
AMDT_STDIMP_MODULE_NAME
 90
        0
280
     0
281
     0
  0
CLASS
  1
ACMSTANDARDISO
  2
AcmStandardISO
  3
"Amdt_StdImp|Product Description: AutoCAD Mechanical|Company: Autodesk"
 90
    32768
280
     0
281
     0
  0
CLASS
  1
AMDTEDGESTANDARDISO
  2
AmdtEdgeStdISO
  3
"Amdt_StdImp|Product Description: AutoCAD Mechanical|Company: Autodesk"
 90
    32768
280
     0
281
     0
  0
CLASS
  1
ACMSURFSTANDARDISO
  2
AcmSurfTextStdISO
  3
"Amdt_StdImp|Product Description: AutoCAD Mechanical|Company: Autodesk"
 90
    32768
280
     0
281
     0
  0
CLASS
  1
ACMFCFSTANDARDISO
  2
AcmFCFStdISO
  3
"Amdt_StdImp|Product Description: AutoCAD Mechanical|Company: Autodesk"
 90
    32768
280
     0
281
     0
  0
CLASS
  1
ACMWELDSTANDARDISO
  2
AcmWeldingStdISO
  3
"Amdt_StdImp|Product Description: AutoCAD Mechanical|Company: Autodesk"
 90
    32768
280
     0
281
     0
  0
CLASS
  1
ACMIDSTANDARDISO
  2
AcmIdStdISO
  3
"Amdt_StdImp|Product Description: AutoCAD Mechanical|Company: Autodesk"
 90
    32768
280
     0
281
     0
  0
CLASS
  1
ACMDATUMSTANDARDISO
  2
AcmDatumStdISO
  3
"Amdt_StdImp|Product Description: AutoCAD Mechanical|Company: Autodesk"
 90
    32768
280
     0
281
     0
  0
CLASS
  1
ACMBOMSTANDARDISO
  2
AcmBOMStdISO
  3
"Amdt_StdImp|Product Description: AutoCAD Mechanical|Company: Autodesk"
 90
    32768
280
     0
281
     0
  0
CLASS
  1
ACMDETAILSTANDARDISO
  2
AmdtDetailSymStdISO
  3
"Amdt_StdImp|Product Description: AutoCAD Mechanical|Company: Autodesk"
 90
    32768
280
     0
281
     0
  0
CLASS
  1
ACMSECTIONSTANDARDISO
  2
AmdtSectionSymStdISO
  3
"Amdt_StdImp|Product Description: AutoCAD Mechanical|Company: Autodesk"
 90
    32768
280
     0
281
     0
  0
CLASS
  1
ACMCENTERLINESTANDARDISO
  2
AmdtCenterLineStdISO
  3
"Amdt_StdImp|Product Description: AutoCAD Mechanical|Company: Autodesk"
 90
    32768
280
     0
281
     0
  0
CLASS
  1
ACMNOTESTANDARDISO
  2
AmdtNoteStdISO
  3
"Amdt_StdImp|Product Description: AutoCAD Mechanical|Company: Autodesk"
 90
    32768
280
     0
281
     0
  0
CLASS
  1
ACAMGHOLECHARTSTDISO
  2
AcAmgHoleChartStdISO
  3
ACMSYMBB_MODULE_NAME
 90
    32768
280
     0
281
     0
  0
CLASS
  1
ACMTHREADLINESTANDARDISO
  2
AmdtThreadLineStdISO
  3
"Amdt_StdImp|Product Description: AutoCAD Mechanical|Company: Autodesk"
 90
    32768
280
     0
281
     0
  0
CLASS
  1
SORTENTSTABLE
  2
AcDbSortentsTable
  3
ObjectDBX Classes
 90
        0
280
     0
281
     0
  0
CLASS
  1
MATERIAL
  2
AcDbMaterial
  3
ObjectDBX Classes
 90
     1024
280
     0
281
     0
  0
CLASS
  1
VISUALSTYLE
  2
AcDbVisualStyle
  3
ObjectDBX Classes
 90
     4095
280
     0
281
     0
  0
CLASS
  1
ACRFATTGENMGR
  2
AcRfAttGeneralMgr
  3
AcAttribServices
 90
    32768
280
     0
281
     0
  0
CLASS
  1
ACRFOBJATTMGR
  2
AcRfObjAttGroupMgr
  3
AcAttribServices
 90
    32768
280
     0
281
     0
  0
CLASS
  1
ACRFMCADAPIATTHOLDER
  2
AcRfMCADAPIAttHolder
  3
AcAttribServices
 90
    32768
280
     0
281
     0
  0
CLASS
  1
AMDTSYSATTR
  2
AmdtSystemAttribute
  3
AcAttribServices
 90
    32768
280
     0
281
     0
  0
CLASS
  1
ACMTAPERSTANDARDDIN
  2
AcmTaperStdDIN
  3
"Amdt_StdImp|Product Description: AutoCAD Mechanical|Company: Autodesk"
 90
        0
280
     0
281
     0
  0
CLASS
  1
ACMTAPERSTANDARDISO
  2
AcmTaperStdISO
  3
"Amdt_StdImp|Product Description: AutoCAD Mechanical|Company: Autodesk"
 90
    32768
280
     0
281
     0
  0
CLASS
  1
CAMSSTRUCTBTNSTATE
  2
StructBtnState
  3
L"DesignerAssemblies"
 90
    32768
280
     0
281
     0
  0
CLASS
  1
DIMASSOC
  2
AcDbDimAssoc
  3
"AcDbDimAssoc|Product Desc:     AcDim ARX App For Dimension|Company:          Autodesk, Inc.|WEB Address:      www.autodesk.com"
 90
        0
280
     0
281
     0
  0
CLASS
  1
AMDTACMWBLOCKBOMENTITY
  2
AmdtAcmWblockBomEntity
  3
"AcmSymBB|Product Description: AutoCAD Mechanical|Company: Autodesk"
 90
    35839
280
     0
281
     1
  0
CLASS
  1
ACMPARTLIST
  2
AcmPartList
  3
"AcmSymBB|Product Description: AutoCAD Mechanical|Company: Autodesk"
 90
    35839
280
     0
281
     1
  0
CLASS
  1
ACAMGHOLECHARTSTDDIN
  2
AcAmgHoleChartStdDIN
  3
ACMSYMBB_MODULE_NAME
 90
        0
280
     0
281
     0
  0
CLASS
  1
ACMSTANDARDANSI
  2
AcmStandardANSI
  3
"Amdt_StdImp|Product Description: AutoCAD Mechanical|Company: Autodesk"
 90
    32768
280
     0
281
     0
  0
CLASS
  1
ACMSURFSTANDARDANSI
  2
AcmSurfTextStdANSI
  3
"Amdt_StdImp|Product Description: AutoCAD Mechanical|Company: Autodesk"
 90
    32768
280
     0
281
     0
  0
CLASS
  1
ACMFCFSTANDARDANSI
  2
AcmFCFStdANSI
  3
"Amdt_StdImp|Product Description: AutoCAD Mechanical|Company: Autodesk"
 90
    32768
280
     0
281
     0
  0
CLASS
  1
ACMWELDSTANDARDANSI
  2
AcmWeldingStdANSI
  3
"Amdt_StdImp|Product Description: AutoCAD Mechanical|Company: Autodesk"
 90
    32768
280
     0
281
     0
  0
CLASS
  1
ACMIDSTANDARDANSI
  2
AcmIdStdANSI
  3
"Amdt_StdImp|Product Description: AutoCAD Mechanical|Company: Autodesk"
 90
    32768
280
     0
281
     0
  0
CLASS
  1
ACMDATUMSTANDARDANSI
  2
AcmDatumStdANSI
  3
"Amdt_StdImp|Product Description: AutoCAD Mechanical|Company: Autodesk"
 90
    32768
280
     0
281
     0
  0
CLASS
  1
ACMBOMSTANDARDANSI
  2
AcmBOMStdANSI
  3
"Amdt_StdImp|Product Description: AutoCAD Mechanical|Company: Autodesk"
 90
    32768
280
     0
281
     0
  0
CLASS
  1
ACMDETAILSTANDARDANSI
  2
AmdtDetailSymStdANSI
  3
"Amdt_StdImp|Product Description: AutoCAD Mechanical|Company: Autodesk"
 90
    32768
280
     0
281
     0
  0
CLASS
  1
ACMSECTIONSTANDARDANSI
  2
AmdtSectionSymStdANSI
  3
"Amdt_StdImp|Product Description: AutoCAD Mechanical|Company: Autodesk"
 90
    32768
280
     0
281
     0
  0
CLASS
  1
ACMCENTERLINESTANDARDANSI
  2
AmdtCenterLineStdANSI
  3
"Amdt_StdImp|Product Description: AutoCAD Mechanical|Company: Autodesk"
 90
    32768
280
     0
281
     0
  0
CLASS
  1
ACMTHREADLINESTANDARDANSI
  2
AmdtThreadLineStdANSI
  3
"Amdt_StdImp|Product Description: AutoCAD Mechanical|Company: Autodesk"
 90
    32768
280
     0
281
     0
  0
CLASS
  1
ACMNOTESTANDARDANSI
  2
AmdtNoteStdANSI
  3
"Amdt_StdImp|Product Description: AutoCAD Mechanical|Company: Autodesk"
 90
    32768
280
     0
281
     0
  0
CLASS
  1
ACAMGHOLECHARTSTDANSI
  2
AcAmgHoleChartStdANSI
  3
ACMSYMBB_MODULE_NAME
 90
    32768
280
     0
281
     0
  0
CLASS
  1
ACMTAPERSTANDARDANSI
  2
AcmTaperStdANSI
  3
"Amdt_StdImp|Product Description: AutoCAD Mechanical|Company: Autodesk"
 90
    32768
280
     0
281
     0
  0
ENDSEC
  0
SECTION
  2
TABLES
  0
TABLE
  2
VPORT
  5
23
330
0
100
AcDbSymbolTable
 70
     1
  0
VPORT
  5
24
330
23
100
AcDbSymbolTableRecord
100
AcDbViewportTableRecord
  2
*Active
 70
     0
 10
0.0
 20
0.0
 11
1.0
 21
1.0
 12
474.6490698913694
 22
1772.012986085719
 13
0.0
 23
0.0
 14
7.5
 24
7.5
 15
30.0
 25
30.0
 16
0.0
 26
0.0
 36
1.0
 17
372.5731632106145
 27
289.0798529866142
 37
0.0
 40
675.1922826244833
 41
1.671789242590559
 42
50.0
 43
0.0
 44
0.0
 50
0.0
 51
0.0
 71
    16
 72
  8000
 73
     1
 74
     3
 75
     0
 76
     0
 77
     0
 78
     0
281
     0
 65
     0
110
0.0
120
0.0
130
0.0
111
1.0
121
0.0
131
0.0
112
0.0
122
1.0
132
0.0
 79
     0
146
0.0
  0
ENDTAB
  0
TABLE
  2
LTYPE
  5
1E
330
0
100
AcDbSymbolTable
 70
    17
  0
LTYPE
  5
1F
330
1E
100
AcDbSymbolTableRecord
100
AcDbLinetypeTableRecord
  2
ByBlock
 70
     0
  3

 72
    65
 73
     0
 40
0.0
  0
LTYPE
  5
20
330
1E
100
AcDbSymbolTableRecord
100
AcDbLinetypeTableRecord
  2
ByLayer
 70
     0
  3

 72
    65
 73
     0
 40
0.0
  0
LTYPE
  5
C
330
1E
100
AcDbSymbolTableRecord
100
AcDbLinetypeTableRecord
  2
Continuous
 70
     0
  3
Solid line
 72
    65
 73
     0
 40
0.0
  0
LTYPE
  5
51C
330
1E
100
AcDbSymbolTableRecord
100
AcDbLinetypeTableRecord
  2
CENTER
 70
     0
  3
__ . __
 72
    65
 73
     4
 40
7.0
 49
4.0
 74
     0
 49
-1.0
 74
     0
 49
1.0
 74
     0
 49
-1.0
 74
     0
  0
LTYPE
  5
4FE
330
1E
100
AcDbSymbolTableRecord
100
AcDbLinetypeTableRecord
  2
Amconstr
 70
     0
  3
_______________________
 72
    65
 73
     2
 40
9999.0
 49
9999.0
 74
     0
 49
0.0
 74
     0
  0
LTYPE
  5
501
330
1E
100
AcDbSymbolTableRecord
100
AcDbLinetypeTableRecord
  2
Amzigzag
 70
     0
  3
/\/-/\/-/\/-/\/-/\/-/\/
 72
    65
 73
     2
 40
11.0001
 49
0.0001
 74
     4
 75
   135
340
502
 46
0.04
 50
0.0
 44
0.0
 45
0.0
 49
-11.0
 74
     0
  0
LTYPE
  5
DC
330
1E
100
AcDbSymbolTableRecord
100
AcDbLinetypeTableRecord
  2
AM_DIN_F_W050
 70
     0
  3
__ __ __ __ __ __ __ __ __ __ __ __ __ __ __
 72
    65
 73
     2
 40
6.25
 49
4.75
 74
     0
 49
-1.5
 74
     0
  0
LTYPE
  5
54
330
1E
100
AcDbSymbolTableRecord
100
AcDbLinetypeTableRecord
  2
AM_DIN_G_W050
 70
     0
  3
____ . ____ . ____ . ____ . ____ . ____ . ____
 72
    65
 73
     4
 40
13.75
 49
9.75
 74
     0
 49
-1.5
 74
     0
 49
1.0
 74
     0
 49
-1.5
 74
     0
  0
LTYPE
  5
4FD
330
1E
100
AcDbSymbolTableRecord
100
AcDbLinetypeTableRecord
  2
AM_DIN_K_W050
 70
     0
  3
_____ . . _____ . . _____ . . ____ .. ____
 72
    65
 73
     6
 40
16.25
 49
9.75
 74
     0
 49
-1.5
 74
     0
 49
1.0
 74
     0
 49
-1.5
 74
     0
 49
1.0
 74
     0
 49
-1.5
 74
     0
  0
LTYPE
  5
4FF
330
1E
100
AcDbSymbolTableRecord
100
AcDbLinetypeTableRecord
  2
AM_DIN_G_W050x2
 70
     0
  3
__ . __ . __ . __ . __ . __
 72
    65
 73
     4
 40
6.875
 49
4.75
 74
     0
 49
-0.875
 74
     0
 49
0.375
 74
     0
 49
-0.875
 74
     0
  0
LTYPE
  5
500
330
1E
100
AcDbSymbolTableRecord
100
AcDbLinetypeTableRecord
  2
AM_DIN_F_W050x2
 70
     0
  3
 _ _ _ _ _ _ _ _ _ _ _ _
 72
    65
 73
     2
 40
3.125
 49
2.25
 74
     0
 49
-0.875
 74
     0
  0
LTYPE
  5
514
330
1E
100
AcDbSymbolTableRecord
100
AcDbLinetypeTableRecord
  2
ACDINWELD
 70
     0
  3
_ _ _ _ _
 72
    65
 73
     2
 40
2.0
 49
2.0
 74
     0
 49
-1.0
 74
     0
  0
LTYPE
  5
517
330
1E
100
AcDbSymbolTableRecord
100
AcDbLinetypeTableRecord
  2
ACDINTGB
 70
     0
  3
__ . . __ . .
 72
    65
 73
     6
 40
9.0
 49
4.0
 74
     0
 49
-1.0
 74
     0
 49
1.0
 74
     0
 49
-1.0
 74
     0
 49
1.0
 74
     0
 49
-1.0
 74
     0
  0
LTYPE
  5
518
330
1E
100
AcDbSymbolTableRecord
100
AcDbLinetypeTableRecord
  2
ACDINTGL
 70
     0
  3
_ _ _ _ _
 72
    65
 73
     2
 40
3.0
 49
2.0
 74
     0
 49
-1.0
 74
     0
  0
LTYPE
  5
145
330
1E
100
AcDbSymbolTableRecord
100
AcDbLinetypeTableRecord
  2
GEN7
 70
     0
  3
____ . ____ . ____ . ____ . ____ . ____ . ____
 72
    65
 73
     4
 40
13.75
 49
9.75
 74
     0
 49
-1.5
 74
     0
 49
1.0
 74
     0
 49
-1.5
 74
     0
  0
LTYPE
  5
5D
330
1E
100
AcDbSymbolTableRecord
100
AcDbLinetypeTableRecord
  2
ACAD_ISO02W100
 70
     0
  3
ISO Strichlinie __ __ __ __ __ __ __ __ __ __ _
 72
    65
 73
     2
 40
15.0
 49
12.0
 74
     0
 49
-3.0
 74
     0
  0
LTYPE
  5
11A
330
1E
100
AcDbSymbolTableRecord
100
AcDbLinetypeTableRecord
  2
GEN7A
 70
     0
  3
__ . __ . __
 72
    65
 73
     4
 40
6.875
 49
4.75
 74
     0
 49
-0.875
 74
     0
 49
0.375
 74
     0
 49
-0.875
 74
     0
  0
LTYPE
  5
56B
330
1E
100
AcDbSymbolTableRecord
100
AcDbLinetypeTableRecord
  2
HIDDEN
 70
     0
  3
Verdeckt
 72
    65
 73
     2
 40
9.525
 49
6.349999999999999
 74
     0
 49
-3.174999999999999
 74
     0
  0
LTYPE
  5
56C
330
1E
100
AcDbSymbolTableRecord
100
AcDbLinetypeTableRecord
  2
PHANTOM2
 70
     0
  3
Phantom (.5x) ___ _ _ ___ _ _ ___ _ _ ___ _ _
 72
    65
 73
     6
 40
31.75
 49
15.875
 74
     0
 49
-3.174999999999999
 74
     0
 49
3.174999999999999
 74
     0
 49
-3.174999999999999
 74
     0
 49
3.174999999999999
 74
     0
 49
-3.174999999999999
 74
     0
  0
ENDTAB
  0
TABLE
  2
LAYER
  5
18
102
{ACAD_XDICTIONARY
360
19
102
}
330
0
100
AcDbSymbolTable
 70
    18
  0
LAYER
  5
6
330
18
100
AcDbSymbolTableRecord
100
AcDbLayerTableRecord
  2
0
 70
     0
 62
     7
  6
Continuous
370
    -3
390
7
  0
LAYER
  5
5F
330
18
100
AcDbSymbolTableRecord
100
AcDbLayerTableRecord
  2
5
 70
     0
 62
     3
  6
Continuous
370
    -3
390
7
  0
LAYER
  5
69
330
18
100
AcDbSymbolTableRecord
100
AcDbLayerTableRecord
  2
DEFPOINTS
 70
     0
 62
     7
  6
Continuous
290
     0
370
    -3
390
7
  0
LAYER
  5
212
330
18
100
AcDbSymbolTableRecord
100
AcDbLayerTableRecord
  2
UMRISS05
 70
     0
 62
     7
  6
Continuous
370
    -3
390
7
  0
LAYER
  5
5C
330
18
100
AcDbSymbolTableRecord
100
AcDbLayerTableRecord
  2
AVERDECKTE
 70
     0
 62
     4
  6
ACAD_ISO02W100
370
    -3
390
7
  0
LAYER
  5
88
330
18
100
AcDbSymbolTableRecord
100
AcDbLayerTableRecord
  2
6
 70
     0
 62
     2
  6
Continuous
370
    -3
390
7
  0
LAYER
  5
144
330
18
100
AcDbSymbolTableRecord
100
AcDbLayerTableRecord
  2
7
 70
     0
 62
     4
  6
GEN7
370
    -3
390
7
  0
LAYER
  5
11C
330
18
100
AcDbSymbolTableRecord
100
AcDbLayerTableRecord
  2
8
 70
     0
 62
     1
  6
Continuous
370
    -3
390
7
  0
LAYER
  5
119
330
18
100
AcDbSymbolTableRecord
100
AcDbLayerTableRecord
  2
7A
 70
     0
 62
     4
  6
GEN7A
370
    -3
390
7
  0
LAYER
  5
4A
330
18
100
AcDbSymbolTableRecord
100
AcDbLayerTableRecord
  2
VENTILUKAPPE
 70
     0
 62
     1
  6
Continuous
370
    -3
390
7
  0
LAYER
  5
269
330
18
100
AcDbSymbolTableRecord
100
AcDbLayerTableRecord
  2
4
 70
     0
 62
     3
  6
Continuous
370
    -3
390
7
  0
LAYER
  5
8F
330
18
100
AcDbSymbolTableRecord
100
AcDbLayerTableRecord
  2
AM_5
 70
     0
 62
     3
  6
Continuous
370
    25
390
7
  0
LAYER
  5
32
330
18
100
AcDbSymbolTableRecord
100
AcDbLayerTableRecord
  2
AM_0
 70
     0
 62
     7
  6
Continuous
370
    50
390
7
  0
LAYER
  5
53
330
18
100
AcDbSymbolTableRecord
100
AcDbLayerTableRecord
  2
AM_7
 70
     0
 62
     4
  6
AM_DIN_G_W050
370
    25
390
7
  0
LAYER
  5
231
330
18
100
AcDbSymbolTableRecord
100
AcDbLayerTableRecord
  2
AM_4
 70
     0
 62
     3
  6
Continuous
370
    25
390
7
  0
LAYER
  5
DB
330
18
100
AcDbSymbolTableRecord
100
AcDbLayerTableRecord
  2
AM_3
 70
     0
 62
     6
  6
AM_DIN_F_W050
370
    25
390
7
  0
LAYER
  5
219
330
18
100
AcDbSymbolTableRecord
100
AcDbLayerTableRecord
  2
TYPENSCHILD
 70
     0
 62
     6
  6
Continuous
370
    -3
390
7
  0
LAYER
  5
2E4
330
18
100
AcDbSymbolTableRecord
100
AcDbLayerTableRecord
  2
DN50-0
 70
     0
 62
     7
  6
Continuous
370
    -3
390
7
  0
ENDTAB
  0
TABLE
  2
STYLE
  5
1B
330
0
100
AcDbSymbolTable
 70
     5
  0
STYLE
  5
1C
330
1B
100
AcDbSymbolTableRecord
100
AcDbTextStyleTableRecord
  2
STANDARD
 70
     0
 40
0.0
 41
1.0
 50
0.0
 71
     0
 42
50.0
  3
ISOCP.SHX
  4

  0
STYLE
  5
502
330
1B
100
AcDbSymbolTableRecord
100
AcDbTextStyleTableRecord
  2

 70
     1
 40
0.0
 41
1.0
 50
0.0
 71
     0
 42
2.5
  3
ltypeshp.shx
  4

  0
STYLE
  5
50E
330
1B
100
AcDbSymbolTableRecord
100
AcDbTextStyleTableRecord
  2
ACDINTS
 70
     0
 40
1.0
 41
1.0
 50
0.0
 71
     0
 42
2.5
  3
isocp.shx
  4

  0
STYLE
  5
512
330
1B
100
AcDbSymbolTableRecord
100
AcDbTextStyleTableRecord
  2
ACDINGDT
 70
     0
 40
0.0
 41
1.0
 50
0.0
 71
     0
 42
2.5
  3
amgdt.shx
  4

  0
ENDTAB
  0
TABLE
  2
VIEW
  5
21
330
0
100
AcDbSymbolTable
 70
     1
  0
VIEW
  5
10
330
21
100
AcDbSymbolTableRecord
100
AcDbViewTableRecord
  2
AM_VIEW1
 70
     0
 40
630.0
 10
133.6534480159966
 20
655.9201470133857
 41
1012.453222453222
 11
0.0
 21
0.0
 31
1.0
 12
372.5731632106145
 22
289.0798529866142
 32
0.0
 42
50.0
 43
0.0
 44
0.0
 50
0.0
 71
    16
281
     0
 72
     0
  0
ENDTAB
  0
TABLE
  2
UCS
  5
22
330
0
100
AcDbSymbolTable
 70
     0
  0
ENDTAB
  0
TABLE
  2
APPID
  5
25
330
0
100
AcDbSymbolTable
 70
    30
  0
APPID
  5
26
330
25
100
AcDbSymbolTableRecord
100
AcDbRegAppTableRecord
  2
ACAD
 70
     0
  0
APPID
  5
6D
330
25
100
AcDbSymbolTableRecord
100
AcDbRegAppTableRecord
  2
GENIUS_GENDTOL_13
 70
     0
  0
APPID
  5
53D
330
25
100
AcDbSymbolTableRecord
100
AcDbRegAppTableRecord
  2
GENIUS_GENOENT_13
 70
     0
  0
APPID
  5
3B
330
25
100
AcDbSymbolTableRecord
100
AcDbRegAppTableRecord
  2
GENIUS_GENODEF_13
 70
     0
  0
APPID
  5
11D
330
25
100
AcDbSymbolTableRecord
100
AcDbRegAppTableRecord
  2
GENIUS_GENOBJ-N-HTC_13
 70
     0
  0
APPID
  5
11E
330
25
100
AcDbSymbolTableRecord
100
AcDbRegAppTableRecord
  2
GENIUS_GENHATCH_13
 70
     0
  0
APPID
  5
53E
330
25
100
AcDbSymbolTableRecord
100
AcDbRegAppTableRecord
  2
GENIUS_GENOLIS_13
 70
     0
  0
APPID
  5
55
330
25
100
AcDbSymbolTableRecord
100
AcDbRegAppTableRecord
  2
GENIUS_GENOREF_13
 70
     0
  0
APPID
  5
86
330
25
100
AcDbSymbolTableRecord
100
AcDbRegAppTableRecord
  2
GENIUS_GENHINW_13
 70
     0
  0
APPID
  5
541
330
25
100
AcDbSymbolTableRecord
100
AcDbRegAppTableRecord
  2
GENIUS_GENOBJ-N-LEADER_13
 70
     0
  0
APPID
  5
3C
330
25
100
AcDbSymbolTableRecord
100
AcDbRegAppTableRecord
  2
GENIUS_GENOBJ-N-FIL_13
 70
     0
  0
APPID
  5
46
330
25
100
AcDbSymbolTableRecord
100
AcDbRegAppTableRecord
  2
GENIUS_GENOBJ-N-CEN_13
 70
     0
  0
APPID
  5
545
330
25
100
AcDbSymbolTableRecord
100
AcDbRegAppTableRecord
  2
GENIUS_GENOBJ-N-CRS_13
 70
     0
  0
APPID
  5
89
330
25
100
AcDbSymbolTableRecord
100
AcDbRegAppTableRecord
  2
GENIUS_FIRSTVISTXT_14
 70
     0
  0
APPID
  5
236
330
25
100
AcDbSymbolTableRecord
100
AcDbRegAppTableRecord
  2
GENIUS_GEFWELD_13
 70
     0
  0
APPID
  5
237
330
25
100
AcDbSymbolTableRecord
100
AcDbRegAppTableRecord
  2
GENIUS_GENOBJ-F-WELS_13
 70
     0
  0
APPID
  5
53C
330
25
100
AcDbSymbolTableRecord
100
AcDbRegAppTableRecord
  2
GENIUS_GENOBJ-N-CRC_13
 70
     0
  0
APPID
  5
53F
330
25
100
AcDbSymbolTableRecord
100
AcDbRegAppTableRecord
  2
GENIUS_GENCRC_14
 70
     0
  0
APPID
  5
13
330
25
100
AcDbSymbolTableRecord
100
AcDbRegAppTableRecord
  2
EDBMODELINFO
 70
     0
  0
APPID
  5
BA
330
25
100
AcDbSymbolTableRecord
100
AcDbRegAppTableRecord
  2
ACAD_DIMASSOC_DIMLFAC
 70
     0
  0
APPID
  5
BB
330
25
100
AcDbSymbolTableRecord
100
AcDbRegAppTableRecord
  2
ACAD_DIMASSOC_CALC_DIMLFAC
 70
     0
  0
APPID
  5
BC
330
25
100
AcDbSymbolTableRecord
100
AcDbRegAppTableRecord
  2
ACAD_DIMASSOC_OVERRIDDEN_DIMLFAC
 70
     0
  0
APPID
  5
146
330
25
100
AcDbSymbolTableRecord
100
AcDbRegAppTableRecord
  2
GENIUS_GENCEN_19
 70
     0
  0
APPID
  5
54A
330
25
100
AcDbSymbolTableRecord
100
AcDbRegAppTableRecord
  2
ACATTRIBSERVICES
 70
     0
  0
APPID
  5
588
330
25
100
AcDbSymbolTableRecord
100
AcDbRegAppTableRecord
  2
MCAD_NO_VIS
 70
     0
  0
APPID
  5
589
330
25
100
AcDbSymbolTableRecord
100
AcDbRegAppTableRecord
  2
ACAD_TEMP_GRAPHIC
 70
     0
  0
APPID
  5
592
330
25
100
AcDbSymbolTableRecord
100
AcDbRegAppTableRecord
  2
AD_DRAW
 70
     0
  0
APPID
  5
5AD
330
25
100
AcDbSymbolTableRecord
100
AcDbRegAppTableRecord
  2
DESIGNERASSEMBLIES
 70
     0
  0
APPID
  5
5B3
330
25
100
AcDbSymbolTableRecord
100
AcDbRegAppTableRecord
  2
ACADM_DIM_EDIT
 70
     0
  0
APPID
  5
5B4
330
25
100
AcDbSymbolTableRecord
100
AcDbRegAppTableRecord
  2
AMDT_DM_ADJ
 70
     0
  0
ENDTAB
  0
TABLE
  2
DIMSTYLE
  5
27
330
0
100
AcDbSymbolTable
 70
    11
100
AcDbDimStyleTable
 71
     2
340
28
340
29
  0
DIMSTYLE
105
28
330
27
100
AcDbSymbolTableRecord
100
AcDbDimStyleTableRecord
  2
AM_DIN
 70
     0
  4
"
 40
3.0
 41
2.5
 42
0.0
 43
10.0
 44
1.0
 47
0.1
 48
0.1
 73
     0
 74
     0
 77
     1
 78
     8
 79
     2
140
3.0
141
0.0
143
0.0393701
146
0.71
147
0.7
172
     1
176
   256
177
   256
178
     2
271
     2
272
     2
283
     0
284
     8
340
1C
371
    -1
372
    -1
  0
DIMSTYLE
105
521
330
27
100
AcDbSymbolTableRecord
100
AcDbDimStyleTableRecord
  2
AM_DIN$3
 70
     0
  4
"
 40
3.0
 41
2.5
 42
1.0
 43
10.0
 44
1.0
 47
0.1
 48
0.1
 73
     0
 77
     1
 78
     8
 79
     2
140
3.5
141
0.0
143
0.0393701
146
0.71
147
1.5
176
   256
177
   256
178
     2
271
     2
272
     3
274
     4
283
     0
284
     8
288
     1
289
     0
340
1C
371
    -1
372
    -1
  0
DIMSTYLE
105
522
330
27
100
AcDbSymbolTableRecord
100
AcDbDimStyleTableRecord
  2
AM_DIN$4
 70
     0
  4
"
 40
3.0
 41
2.5
 42
1.0
 43
10.0
 44
1.0
 47
0.1
 48
0.1
 73
     0
 77
     1
 78
     8
 79
     2
140
3.5
141
0.0
143
0.0393701
146
0.71
147
1.5
176
   256
177
   256
178
     2
271
     2
272
     3
279
     1
283
     0
284
     8
288
     1
289
     0
340
1C
371
    -1
372
    -1
  0
DIMSTYLE
105
523
330
27
100
AcDbSymbolTableRecord
100
AcDbDimStyleTableRecord
  2
AM_DIN$6
 70
     0
  4
"
 40
3.0
 41
2.5
 42
1.0
 43
10.0
 44
1.0
 47
0.1
 48
0.1
 73
     0
 74
     0
 78
     8
 79
     2
140
3.5
141
0.0
143
0.0393701
146
0.71
147
1.5
172
     1
176
   256
177
   256
178
     2
271
     2
272
     3
283
     0
284
     8
340
1C
371
    -1
372
    -1
  0
DIMSTYLE
105
524
330
27
100
AcDbSymbolTableRecord
100
AcDbDimStyleTableRecord
  2
AM_DIN$7
 70
     0
  4
"
 40
3.0
 41
2.5
 42
1.0
 43
10.0
 44
1.0
 47
0.1
 48
0.1
 73
     0
 74
     0
 77
     1
 78
     8
 79
     2
140
5.0
141
0.0
143
0.0393701
146
0.71
147
1.5
172
     1
176
   256
177
   256
178
     2
271
     2
272
     3
274
     4
283
     0
284
     8
340
1C
371
    -1
372
    -1
  0
DIMSTYLE
105
525
330
27
100
AcDbSymbolTableRecord
100
AcDbDimStyleTableRecord
  2
AM_DIN$SF
 70
     0
  4
"
 40
3.0
 41
2.5
 42
1.0
 43
10.0
 44
1.0
 47
0.1
 48
0.1
 73
     0
 74
     0
 75
     1
 76
     1
 77
     1
 78
     8
 79
     2
140
3.5
141
0.0
143
0.0393701
146
0.71
147
1.5
172
     1
176
   256
177
   256
178
     2
271
     2
272
     3
274
     4
283
     0
284
     8
340
1C
371
    -1
372
    -1
  0
DIMSTYLE
105
526
330
27
100
AcDbSymbolTableRecord
100
AcDbDimStyleTableRecord
  2
AM_DIN$SH
 70
     0
  4
"
 40
3.0
 41
2.5
 42
1.0
 43
10.0
 44
1.0
 47
0.1
 48
0.1
 73
     0
 74
     0
 75
     1
 76
     1
 77
     1
 78
     8
 79
     2
140
3.5
141
0.0
143
0.0393701
144
2.0
146
0.71
147
1.5
172
     1
173
     1
176
   256
177
   256
178
     2
271
     2
272
     3
274
     4
283
     0
284
     8
340
1C
343
527
371
    -1
372
    -1
  0
DIMSTYLE
105
29
102
{ACAD_REACTORS
330
5E
330
6E
330
CD
102
}
330
27
100
AcDbSymbolTableRecord
100
AcDbDimStyleTableRecord
  2
GEN-ISO
 70
     0
  4
"
 40
3.0
 41
2.5
 42
1.0
 43
7.0
 44
1.0
 47
0.1
 48
0.1
 73
     0
 74
     0
 77
     1
 78
     8
140
3.5
141
0.0
143
0.0393701
146
0.71
147
0.6
172
     1
176
   256
177
   256
178
     2
271
     2
272
     3
274
     4
283
     0
340
1C
  0
DIMSTYLE
105
90
102
{ACAD_REACTORS
330
8E
330
BD
330
182
330
253
102
}
330
27
100
AcDbSymbolTableRecord
100
AcDbDimStyleTableRecord
  2
AM_DIN$0
 70
     0
  4
"
 40
3.0
 41
2.5
 42
1.0
 43
10.0
 44
1.0
 47
0.1
 48
0.1
 73
     0
 74
     0
 77
     1
 78
     8
 79
     2
140
3.5
141
0.0
143
0.0393701
146
0.71
147
1.5
172
     1
176
   256
177
   256
178
     2
271
     2
272
     3
274
     4
283
     0
284
     8
340
1C
371
    -1
372
    -1
  0
DIMSTYLE
105
AB
102
{ACAD_REACTORS
330
A8
102
}
330
27
100
AcDbSymbolTableRecord
100
AcDbDimStyleTableRecord
  2
AM_DIN$2
 70
     0
  4
"
 40
3.0
 41
2.5
 42
1.0
 43
10.0
 44
1.0
 47
0.1
 48
0.1
 73
     0
 74
     0
 77
     1
 78
     8
 79
     2
140
3.5
141
0.0
143
0.0393701
146
0.71
147
1.5
172
     1
176
   256
177
   256
178
     2
271
     2
272
     3
283
     0
284
     8
340
1C
371
    -1
372
    -1
  0
ENDTAB
  0
TABLE
  2
BLOCK_RECORD
  5
1
330
0
100
AcDbSymbolTable
 70
    12
  0
BLOCK_RECORD
  5
2
102
{ACAD_XDICTIONARY
360
3
102
}
330
1
100
AcDbSymbolTableRecord
100
AcDbBlockTableRecord
  2
*Model_Space
340
E
  0
BLOCK_RECORD
  5
14
330
1
100
AcDbSymbolTableRecord
100
AcDbBlockTableRecord
  2
*Paper_Space
340
17
  0
BLOCK_RECORD
  5
527
330
1
100
AcDbSymbolTableRecord
100
AcDbBlockTableRecord
  2
GENAXEH
340
0
  0
BLOCK_RECORD
  5
60
330
1
100
AcDbSymbolTableRecord
100
AcDbBlockTableRecord
  2
*D1
340
0
  0
BLOCK_RECORD
  5
6F
330
1
100
AcDbSymbolTableRecord
100
AcDbBlockTableRecord
  2
*D2
340
0
  0
BLOCK_RECORD
  5
91
330
1
100
AcDbSymbolTableRecord
100
AcDbBlockTableRecord
  2
*D3
340
0
  0
BLOCK_RECORD
  5
BE
330
1
100
AcDbSymbolTableRecord
100
AcDbBlockTableRecord
  2
*D4
340
0
  0
BLOCK_RECORD
  5
CE
330
1
100
AcDbSymbolTableRecord
100
AcDbBlockTableRecord
  2
*D5
340
0
  0
BLOCK_RECORD
  5
185
330
1
100
AcDbSymbolTableRecord
100
AcDbBlockTableRecord
  2
*D6
340
0
  0
BLOCK_RECORD
  5
AC
330
1
100
AcDbSymbolTableRecord
100
AcDbBlockTableRecord
  2
*D7
340
0
  0
BLOCK_RECORD
  5
256
330
1
100
AcDbSymbolTableRecord
100
AcDbBlockTableRecord
  2
*D8
340
0
  0
BLOCK_RECORD
  5
264
102
{ACAD_XDICTIONARY
360
265
102
}
330
1
100
AcDbSymbolTableRecord
100
AcDbBlockTableRecord
  2
kundenzeichnung
340
0
102
{BLKREFS
331
263
102
}
  0
ENDTAB
  0
ENDSEC
  0
SECTION
  2
BLOCKS
  0
BLOCK
  5
5
330
2
100
AcDbEntity
  8
0
100
AcDbBlockBegin
  2
*Model_Space
 70
     0
 10
0.0
 20
0.0
 30
0.0
  3
*Model_Space
  1

  0
ENDBLK
  5
D
330
2
100
AcDbEntity
  8
0
100
AcDbBlockEnd
  0
BLOCK
  5
15
330
14
100
AcDbEntity
 67
     1
  8
0
100
AcDbBlockBegin
  2
*Paper_Space
 70
     0
 10
0.0
 20
0.0
 30
0.0
  3
*Paper_Space
  1

  0
ENDBLK
  5
16
330
14
100
AcDbEntity
 67
     1
  8
0
100
AcDbBlockEnd
  0
BLOCK
  5
528
330
527
100
AcDbEntity
  8
0
100
AcDbBlockBegin
  2
GENAXEH
 70
     0
 10
0.0
 20
0.0
 30
0.0
  3
GENAXEH
  1

  0
LINE
  5
529
330
527
100
AcDbEntity
  8
0
100
AcDbLine
 10
-1.0
 20
0.0
 30
0.0
 11
1.0
 21
0.0
 31
0.0
  0
ENDBLK
  5
52A
330
527
100
AcDbEntity
  8
0
100
AcDbBlockEnd
  0
BLOCK
  5
61
330
60
100
AcDbEntity
  8
0
100
AcDbBlockBegin
  2
*D1
 70
     1
 10
0.0
 20
0.0
 30
0.0
  3
*D1
  1

  0
LINE
  5
62
330
60
100
AcDbEntity
  8
5
370
    -2
100
AcDbLine
 10
355.6566071837874
 20
2116.79008633847
 30
0.0
 11
355.6566071837874
 21
2313.046143627672
 31
0.0
  0
LINE
  5
63
330
60
100
AcDbEntity
  8
5
370
    -2
100
AcDbLine
 10
764.6566071837874
 20
2116.79008633847
 30
0.0
 11
764.6566071837874
 21
2313.046143627672
 31
0.0
  0
LINE
  5
64
330
60
100
AcDbEntity
  8
5
370
    -2
100
AcDbLine
 10
363.1566071837874
 20
2310.046143627672
 30
0.0
 11
757.1566071837874
 21
2310.046143627672
 31
0.0
  0
MTEXT
  5
65
330
60
100
AcDbEntity
  8
5
 62
     2
100
AcDbMText
 10
568.1384081355827
 20
2320.848647030871
 30
0.0
 40
10.5
 41
0.0
 71
     5
 72
     1
  1
%%c409
 73
     1
 44
1.0
1001
ACAD
1000
MTEXTBEGIN
1070
    73
1070
     1
1070
    44
1040
1.0
1070
    74
1070
     0
1000
MTEXTEND
  0
SOLID
  5
66
330
60
100
AcDbEntity
  8
5
100
AcDbTrace
 10
363.1566071837874
 20
2311.296143627672
 30
0.0
 11
363.1566071837874
 21
2308.796143627672
 31
0.0
 12
355.6566071837874
 22
2310.046143627672
 32
0.0
 13
355.6566071837874
 23
2310.046143627672
 33
0.0
  0
SOLID
  5
67
330
60
100
AcDbEntity
  8
5
100
AcDbTrace
 10
757.1566071837874
 20
2311.296143627672
 30
0.0
 11
757.1566071837874
 21
2308.796143627672
 31
0.0
 12
764.6566071837874
 22
2310.046143627672
 32
0.0
 13
764.6566071837874
 23
2310.046143627672
 33
0.0
  0
POINT
  5
68
330
60
100
AcDbEntity
  8
DEFPOINTS
 62
     0
100
AcDbPoint
 10
355.6566071837874
 20
2113.79008633847
 30
0.0
  0
POINT
  5
6A
330
60
100
AcDbEntity
  8
DEFPOINTS
 62
     0
100
AcDbPoint
 10
764.6566071837874
 20
2113.79008633847
 30
0.0
  0
POINT
  5
6B
330
60
100
AcDbEntity
  8
DEFPOINTS
 62
     0
100
AcDbPoint
 10
764.6566071837874
 20
2310.046143627672
 30
0.0
  0
ENDBLK
  5
6C
330
60
100
AcDbEntity
  8
0
100
AcDbBlockEnd
  0
BLOCK
  5
70
330
6F
100
AcDbEntity
  8
0
100
AcDbBlockBegin
  2
*D2
 70
     1
 10
0.0
 20
0.0
 30
0.0
  3
*D2
  1

  0
LINE
  5
71
330
6F
100
AcDbEntity
  8
5
370
    -2
100
AcDbLine
 10
557.1566071837878
 20
2276.820421715795
 30
0.0
 11
326.1184608246767
 21
2276.820421715795
 31
0.0
  0
LINE
  5
72
330
6F
100
AcDbEntity
  8
5
370
    -2
100
AcDbLine
 10
557.1566071837874
 20
1836.820421715795
 30
0.0
 11
326.1184608246765
 21
1836.820421715795
 31
0.0
  0
LINE
  5
73
330
6F
100
AcDbEntity
  8
5
370
    -2
100
AcDbLine
 10
329.1184608246767
 20
2269.320421715796
 30
0.0
 11
329.1184608246766
 21
1844.320421715795
 31
0.0
  0
SOLID
  5
74
330
6F
100
AcDbEntity
  8
5
100
AcDbTrace
 10
327.8684608246767
 20
2269.320421715796
 30
0.0
 11
330.3684608246767
 21
2269.320421715796
 31
0.0
 12
329.1184608246767
 22
2276.820421715795
 32
0.0
 13
329.1184608246767
 23
2276.820421715795
 33
0.0
  0
SOLID
  5
75
330
6F
100
AcDbEntity
  8
5
100
AcDbTrace
 10
327.8684608246765
 20
1844.320421715795
 30
0.0
 11
330.3684608246765
 21
1844.320421715795
 31
0.0
 12
329.1184608246766
 22
1836.820421715795
 32
0.0
 13
329.1184608246766
 23
1836.820421715795
 33
0.0
  0
MTEXT
  5
76
330
6F
100
AcDbEntity
  8
5
 62
     2
100
AcDbMText
 10
322.0684608246763
 20
2141.40179505424
 30
0.0
 40
10.5
 41
0.0
 71
     5
 72
     1
  1
440 {}{\C2;%%p3}
 11
0.0000000000000001
 21
1.0
 31
0.0
 73
     1
 44
1.0
1001
ACAD
1000
MTEXTBEGIN
1070
    73
1070
     1
1070
    44
1040
1.0
1070
    74
1070
     0
1000
MTEXTEND
  0
POINT
  5
77
330
6F
100
AcDbEntity
  8
DEFPOINTS
 62
     0
100
AcDbPoint
 10
560.1566071837878
 20
2276.820421715795
 30
0.0
  0
POINT
  5
78
330
6F
100
AcDbEntity
  8
DEFPOINTS
 62
     0
100
AcDbPoint
 10
560.1566071837874
 20
1836.820421715795
 30
0.0
  0
POINT
  5
79
330
6F
100
AcDbEntity
  8
DEFPOINTS
 62
     0
100
AcDbPoint
 10
329.1184608246766
 20
1836.820421715795
 30
0.0
  0
ENDBLK
  5
7A
330
6F
100
AcDbEntity
  8
0
100
AcDbBlockEnd
  0
BLOCK
  5
92
330
91
100
AcDbEntity
  8
0
100
AcDbBlockBegin
  2
*D3
 70
     1
 10
0.0
 20
0.0
 30
0.0
  3
*D3
  1

  0
LINE
  5
93
330
91
100
AcDbEntity
  8
AM_5
100
AcDbLine
 10
789.6566071837869
 20
1971.820421715795
 30
0.0
 11
859.0346336629536
 21
1971.820421715795
 31
0.0
  0
LINE
  5
94
330
91
100
AcDbEntity
  8
AM_5
100
AcDbLine
 10
745.6123874901837
 20
1818.228346967972
 30
0.0
 11
859.0346336629536
 21
1818.228346967972
 31
0.0
  0
LINE
  5
95
330
91
100
AcDbEntity
  8
AM_5
100
AcDbLine
 10
856.0346336629535
 20
1964.320421715795
 30
0.0
 11
856.0346336629535
 21
1825.728346967972
 31
0.0
  0
SOLID
  5
96
330
91
100
AcDbEntity
  8
AM_5
100
AcDbTrace
 10
854.7846336629536
 20
1964.320421715795
 30
0.0
 11
857.2846336629536
 21
1964.320421715795
 31
0.0
 12
856.0346336629535
 22
1971.820421715795
 32
0.0
 13
856.0346336629535
 23
1971.820421715795
 33
0.0
  0
SOLID
  5
97
330
91
100
AcDbEntity
  8
AM_5
100
AcDbTrace
 10
854.7846336629536
 20
1825.728346967972
 30
0.0
 11
857.2846336629536
 21
1825.728346967972
 31
0.0
 12
856.0346336629535
 22
1818.228346967972
 32
0.0
 13
856.0346336629535
 23
1818.228346967972
 33
0.0
  0
MTEXT
  5
98
330
91
100
AcDbEntity
  8
AM_5
 62
     2
100
AcDbMText
 10
846.2846336629533
 20
1895.024384341884
 30
0.0
 40
10.5
 41
0.0
 71
     5
 72
     1
  1
158{}{\C2;%%p3}
 11
0.0000000000000001
 21
1.0
 31
0.0
 73
     1
 44
1.0
1001
ACAD
1000
MTEXTBEGIN
1070
    73
1070
     1
1070
    44
1040
1.0
1070
    74
1070
     0
1000
MTEXTEND
  0
POINT
  5
99
330
91
100
AcDbEntity
  8
DEFPOINTS
 62
     0
100
AcDbPoint
 10
786.6566071837869
 20
1971.820421715795
 30
0.0
  0
POINT
  5
9A
330
91
100
AcDbEntity
  8
DEFPOINTS
 62
     0
100
AcDbPoint
 10
742.6123874901836
 20
1818.228346967972
 30
0.0
  0
POINT
  5
9B
330
91
100
AcDbEntity
  8
DEFPOINTS
 62
     0
100
AcDbPoint
 10
856.0346336629535
 20
1818.228346967972
 30
0.0
  0
ENDBLK
  5
9C
330
91
100
AcDbEntity
  8
0
100
AcDbBlockEnd
  0
BLOCK
  5
BF
330
BE
100
AcDbEntity
  8
0
100
AcDbBlockBegin
  2
*D4
 70
     1
 10
0.0
 20
0.0
 30
0.0
  3
*D4
  1

  0
LINE
  5
C0
330
BE
100
AcDbEntity
  8
AM_5
100
AcDbLine
 10
557.1100447034296
 20
2287.17652140447
 30
0.0
 11
296.5451945460083
 21
2287.17652140447
 31
0.0
  0
LINE
  5
C1
330
BE
100
AcDbEntity
  8
AM_5
100
AcDbLine
 10
374.7008268773916
 20
1818.228346967972
 30
0.0
 11
296.5451945460081
 21
1818.228346967972
 31
0.0
  0
LINE
  5
C2
330
BE
100
AcDbEntity
  8
AM_5
100
AcDbLine
 10
299.5451945460083
 20
2279.67652140447
 30
0.0
 11
299.5451945460081
 21
1825.728346967972
 31
0.0
  0
SOLID
  5
C3
330
BE
100
AcDbEntity
  8
AM_5
100
AcDbTrace
 10
298.2951945460083
 20
2279.67652140447
 30
0.0
 11
300.7951945460082
 21
2279.67652140447
 31
0.0
 12
299.5451945460083
 22
2287.17652140447
 32
0.0
 13
299.5451945460083
 23
2287.17652140447
 33
0.0
  0
SOLID
  5
C4
330
BE
100
AcDbEntity
  8
AM_5
100
AcDbTrace
 10
298.2951945460081
 20
1825.728346967972
 30
0.0
 11
300.7951945460082
 21
1825.728346967972
 31
0.0
 12
299.5451945460081
 22
1818.228346967972
 32
0.0
 13
299.5451945460081
 23
1818.228346967972
 33
0.0
  0
MTEXT
  5
C5
330
BE
100
AcDbEntity
  8
AM_5
 62
     2
100
AcDbMText
 10
289.7951945460079
 20
2052.702434186221
 30
0.0
 40
10.5
 41
0.0
 71
     5
 72
     1
  1
469 {}{\C2;%%p5}
 11
0.0000000000000001
 21
1.0
 31
0.0
 73
     1
 44
1.0
1001
ACAD
1000
MTEXTBEGIN
1070
    73
1070
     1
1070
    44
1040
1.0
1070
    74
1070
     0
1000
MTEXTEND
  0
POINT
  5
C6
330
BE
100
AcDbEntity
  8
DEFPOINTS
 62
     0
100
AcDbPoint
 10
560.1100447034296
 20
2287.17652140447
 30
0.0
  0
POINT
  5
C7
330
BE
100
AcDbEntity
  8
DEFPOINTS
 62
     0
100
AcDbPoint
 10
377.7008268773916
 20
1818.228346967972
 30
0.0
  0
POINT
  5
C8
330
BE
100
AcDbEntity
  8
DEFPOINTS
 62
     0
100
AcDbPoint
 10
299.5451945460081
 20
1818.228346967972
 30
0.0
  0
ENDBLK
  5
C9
330
BE
100
AcDbEntity
  8
0
100
AcDbBlockEnd
  0
BLOCK
  5
CF
330
CE
100
AcDbEntity
  8
0
100
AcDbBlockBegin
  2
*D5
 70
     1
 10
0.0
 20
0.0
 30
0.0
  3
*D5
  1

  0
LINE
  5
D0
330
CE
100
AcDbEntity
  8
5
370
    -2
100
AcDbLine
 10
1019.93365436227
 20
2007.535459294
 30
0.0
 11
944.2547488132481
 21
2051.228695784705
 31
0.0
  0
LINE
  5
D1
330
CE
100
AcDbEntity
  8
5
370
    -2
100
AcDbLine
 10
1167.157973005625
 20
2262.535459294001
 30
0.0
 11
1091.479067456603
 21
2306.228695784705
 31
0.0
  0
LINE
  5
D2
330
CE
100
AcDbEntity
  8
5
370
    -2
100
AcDbLine
 10
950.6028250246014
 20
2056.223886313088
 30
0.0
 11
1090.327143667956
 21
2298.233505256322
 31
0.0
  0
SOLID
  5
D3
330
CE
100
AcDbEntity
  8
5
100
AcDbTrace
 10
949.5202932698708
 20
2056.848886313088
 30
0.0
 11
951.6853567793319
 21
2055.598886313088
 31
0.0
 12
946.8528250246015
 22
2049.728695784704
 32
0.0
 13
946.8528250246015
 23
2049.728695784704
 33
0.0
  0
SOLID
  5
D4
330
CE
100
AcDbEntity
  8
5
100
AcDbTrace
 10
1089.244611913226
 20
2298.858505256322
 30
0.0
 11
1091.409675422687
 21
2297.608505256322
 31
0.0
 12
1094.077143667956
 22
2304.728695784706
 32
0.0
 13
1094.077143667956
 23
2304.728695784706
 33
0.0
  0
MTEXT
  5
D5
330
CE
100
AcDbEntity
  8
5
 62
     2
100
AcDbMText
 10
1013.902644256363
 20
2181.017464602132
 30
0.0
 40
10.5
 41
0.0
 71
     5
 72
     1
  1
(294)
 11
0.5
 21
0.8660254037844387
 31
0.0
 73
     1
 44
1.0
1001
ACAD
1000
MTEXTBEGIN
1070
    73
1070
     1
1070
    44
1040
1.0
1070
    74
1070
     0
1000
MTEXTEND
  0
POINT
  5
D6
330
CE
100
AcDbEntity
  8
DEFPOINTS
 62
     0
100
AcDbPoint
 10
1022.531730573624
 20
2006.035459294
 30
0.0
  0
POINT
  5
D7
330
CE
100
AcDbEntity
  8
DEFPOINTS
 62
     0
100
AcDbPoint
 10
1169.756049216978
 20
2261.035459294001
 30
0.0
  0
POINT
  5
D8
330
CE
100
AcDbEntity
  8
DEFPOINTS
 62
     0
100
AcDbPoint
 10
1094.077143667956
 20
2304.728695784706
 30
0.0
  0
ENDBLK
  5
D9
330
CE
100
AcDbEntity
  8
0
100
AcDbBlockEnd
  0
BLOCK
  5
186
330
185
100
AcDbEntity
  8
0
100
AcDbBlockBegin
  2
*D6
 70
     1
 10
0.0
 20
0.0
 30
0.0
  3
*D6
  1

  0
LINE
  5
187
330
185
100
AcDbEntity
  8
AM_5
100
AcDbLine
 10
390.2008268773916
 20
1810.488015445535
 30
0.0
 11
390.2008268773916
 21
1791.568237547267
 31
0.0
  0
LINE
  5
188
330
185
100
AcDbEntity
  8
AM_5
100
AcDbLine
 10
730.1123874901836
 20
1810.488015445535
 30
0.0
 11
730.1123874901836
 21
1791.568237547267
 31
0.0
  0
LINE
  5
189
330
185
100
AcDbEntity
  8
AM_5
100
AcDbLine
 10
397.7008268773916
 20
1794.568237547267
 30
0.0
 11
722.6123874901836
 21
1794.568237547267
 31
0.0
  0
SOLID
  5
18A
330
185
100
AcDbEntity
  8
AM_5
100
AcDbTrace
 10
397.7008268773916
 20
1795.818237547267
 30
0.0
 11
397.7008268773916
 21
1793.318237547267
 31
0.0
 12
390.2008268773916
 22
1794.568237547267
 32
0.0
 13
390.2008268773916
 23
1794.568237547267
 33
0.0
  0
SOLID
  5
18B
330
185
100
AcDbEntity
  8
AM_5
100
AcDbTrace
 10
722.6123874901836
 20
1795.818237547267
 30
0.0
 11
722.6123874901836
 21
1793.318237547267
 31
0.0
 12
730.1123874901836
 22
1794.568237547267
 32
0.0
 13
730.1123874901836
 23
1794.568237547267
 33
0.0
  0
MTEXT
  5
18C
330
185
100
AcDbEntity
  8
AM_5
 62
     2
100
AcDbMText
 10
560.1566071837876
 20
1804.318237547267
 30
0.0
 40
10.5
 41
0.0
 71
     5
 72
     1
  1
%%c340 {}{\C2;%%p1.5}
 73
     1
 44
1.0
1001
ACAD
1000
MTEXTBEGIN
1070
    73
1070
     1
1070
    44
1040
1.0
1070
    74
1070
     0
1000
MTEXTEND
  0
POINT
  5
18D
330
185
100
AcDbEntity
  8
DEFPOINTS
 62
     0
100
AcDbPoint
 10
390.2008268773916
 20
1813.488015445535
 30
0.0
  0
POINT
  5
18E
330
185
100
AcDbEntity
  8
DEFPOINTS
 62
     0
100
AcDbPoint
 10
730.1123874901836
 20
1813.488015445535
 30
0.0
  0
POINT
  5
18F
330
185
100
AcDbEntity
  8
DEFPOINTS
 62
     0
100
AcDbPoint
 10
730.1123874901836
 20
1794.568237547267
 30
0.0
  0
ENDBLK
  5
190
330
185
100
AcDbEntity
  8
0
100
AcDbBlockEnd
  0
BLOCK
  5
AD
330
AC
100
AcDbEntity
  8
0
100
AcDbBlockBegin
  2
*D7
 70
     1
 10
0.0
 20
0.0
 30
0.0
  3
*D7
  1

  0
LINE
  5
AE
330
AC
100
AcDbEntity
  8
AM_5
100
AcDbLine
 10
1169.756049216978
 20
2301.535459294001
 30
0.0
 11
1169.756049216978
 21
2328.269207636227
 31
0.0
  0
LINE
  5
AF
330
AC
100
AcDbEntity
  8
AM_5
100
AcDbLine
 10
1017.431278749493
 20
2003.09071206035
 30
0.0
 11
964.3055965176058
 21
1972.418585122888
 31
0.0
  0
ARC
  5
B0
330
AC
100
AcDbEntity
  8
AM_5
100
AcDbCircle
 10
1169.756049216978
 20
2091.035459294001
 30
0.0
 40
234.2337483422265
100
AcDbArc
 50
91.83464897042457
 51
208.1653510295754
  0
SOLID
  5
B1
330
AC
100
AcDbEntity
  8
AM_5
100
AcDbTrace
 10
1162.236998376011
 20
2326.398975068471
 30
0.0
 11
1162.277022497498
 21
2323.899295475063
 31
0.0
 12
1169.756049216978
 22
2325.269207636227
 32
0.0
 13
1169.756049216978
 23
2325.269207636227
 33
0.0
  0
SOLID
  5
B2
330
AC
100
AcDbEntity
  8
AM_5
100
AcDbTrace
 10
964.3505381017414
 20
1981.080568338122
 30
0.0
 11
962.165740011785
 21
1979.86539044739
 31
0.0
 12
966.9036727289592
 22
1973.918585122888
 32
0.0
 13
966.9036727289592
 23
1973.918585122888
 33
0.0
  0
MTEXT
  5
B3
330
AC
100
AcDbEntity
  8
AM_5
 62
     2
100
AcDbMText
 10
958.4590300354918
 20
2213.027850197398
 30
0.0
 40
10.5
 41
0.0
 71
     5
 72
     1
  1
3x120\U+00B0
 11
0.5000000000000009
 21
0.8660254037844381
 31
0.0
 73
     1
 44
1.0
1001
ACAD
1000
MTEXTBEGIN
1070
    73
1070
     1
1070
    44
1040
1.0
1070
    74
1070
     0
1000
MTEXTEND
  0
POINT
  5
B4
330
AC
100
AcDbEntity
  8
DEFPOINTS
 62
     0
100
AcDbPoint
 10
1019.19349801216
 20
2270.468920602493
 30
0.0
  0
POINT
  5
B5
330
AC
100
AcDbEntity
  8
DEFPOINTS
 62
     0
100
AcDbPoint
 10
1123.505693170539
 20
2064.332803780473
 30
0.0
  0
POINT
  5
B6
330
AC
100
AcDbEntity
  8
DEFPOINTS
 62
     0
100
AcDbPoint
 10
1169.756049216978
 20
2091.035459294001
 30
0.0
  0
POINT
  5
B7
330
AC
100
AcDbEntity
  8
DEFPOINTS
 62
     0
100
AcDbPoint
 10
1169.756049216978
 20
2298.535459294001
 30
0.0
  0
POINT
  5
B8
330
AC
100
AcDbEntity
  8
DEFPOINTS
 62
     0
100
AcDbPoint
 10
1020.029354960846
 20
2004.59071206035
 30
0.0
  0
ENDBLK
  5
B9
330
AC
100
AcDbEntity
  8
0
100
AcDbBlockEnd
  0
BLOCK
  5
257
330
256
100
AcDbEntity
  8
0
100
AcDbBlockBegin
  2
*D8
 70
     1
 10
0.0
 20
0.0
 30
0.0
  3
*D8
  1

  0
LINE
  5
258
330
256
100
AcDbEntity
  8
AM_5
100
AcDbLine
 10
788.3801522873014
 20
1958.584043534472
 30
0.0
 11
836.2749240064877
 21
1958.584043534472
 31
0.0
  0
LINE
  5
259
330
256
100
AcDbEntity
  8
AM_5
100
AcDbLine
 10
788.3801522873014
 20
1983.498238564847
 30
0.0
 11
836.2749240064877
 21
1983.498238564847
 31
0.0
  0
LINE
  5
25A
330
256
100
AcDbEntity
  8
AM_5
100
AcDbLine
 10
833.2749240064877
 20
1966.084043534472
 30
0.0
 11
833.2749240064877
 21
1975.998238564847
 31
0.0
  0
LINE
  5
25B
330
256
100
AcDbEntity
  8
AM_5
100
AcDbLine
 10
833.2749240064877
 20
1983.498238564847
 30
0.0
 11
833.2749240064877
 21
2064.048238564847
 31
0.0
  0
SOLID
  5
25C
330
256
100
AcDbEntity
  8
AM_5
100
AcDbTrace
 10
832.0249240064876
 20
1966.084043534472
 30
0.0
 11
834.5249240064877
 21
1966.084043534472
 31
0.0
 12
833.2749240064877
 22
1958.584043534472
 32
0.0
 13
833.2749240064877
 23
1958.584043534472
 33
0.0
  0
SOLID
  5
25D
330
256
100
AcDbEntity
  8
AM_5
100
AcDbTrace
 10
832.0249240064876
 20
1975.998238564847
 30
0.0
 11
834.5249240064877
 21
1975.998238564847
 31
0.0
 12
833.2749240064877
 22
1983.498238564847
 32
0.0
 13
833.2749240064877
 23
1983.498238564847
 33
0.0
  0
MTEXT
  5
25E
330
256
100
AcDbEntity
  8
AM_5
 62
     2
100
AcDbMText
 10
814.7738905419204
 20
2027.523238564848
 30
0.0
 40
10.5
 41
0.0
 71
     5
 72
     1
  1
EN 10226-1\PR 3/4
 11
0.0000000000000001
 21
1.0
 31
0.0
 73
     1
 44
1.0
1001
ACAD
1000
MTEXTBEGIN
1070
    73
1070
     1
1070
    44
1040
1.0
1070
    74
1070
     0
1000
MTEXTEND
  0
POINT
  5
25F
330
256
100
AcDbEntity
  8
DEFPOINTS
 62
     0
100
AcDbPoint
 10
785.3801522873014
 20
1958.584043534472
 30
0.0
  0
POINT
  5
260
330
256
100
AcDbEntity
  8
DEFPOINTS
 62
     0
100
AcDbPoint
 10
785.3801522873014
 20
1983.498238564847
 30
0.0
  0
POINT
  5
261
330
256
100
AcDbEntity
  8
DEFPOINTS
 62
     0
100
AcDbPoint
 10
833.2749240064877
 20
1983.498238564847
 30
0.0
  0
ENDBLK
  5
262
330
256
100
AcDbEntity
  8
0
100
AcDbBlockEnd
  0
BLOCK
  5
267
330
264
100
AcDbEntity
  8
0
100
AcDbBlockBegin
  2
kundenzeichnung
 70
     0
 10
0.0
 20
0.0
 30
0.0
  3
kundenzeichnung
  1

  0
HATCH
  5
268
330
264
100
AcDbEntity
  8
4
100
AcDbHatch
 10
0.0
 20
0.0
 30
0.0
210
0.0
220
0.0
230
1.0
  2
SOLID
 70
     1
 71
     0
 91
        8
 92
        7
 72
     0
 73
     1
 93
       23
 10
28.40570892222604
 20
8.966232540514965
 10
28.43262826405317
 20
9.114288920562557
 10
28.48646694770741
 20
9.221966287870145
 10
28.56722497318742
 20
9.302724313350381
 10
28.64798299866834
 20
9.370022667918192
 10
28.80949904962927
 20
9.410401680658424
 10
28.89025707511064
 20
9.423861351571758
 10
29.03831345515846
 20
9.423861351571986
 10
29.03831345515846
 20
10.53909122725736
 10
28.55376530227386
 20
10.53909122725736
 10
28.28457188400625
 20
10.52563155634425
 10
28.05575747847706
 20
10.49871221451712
 10
27.86732208568719
 20
10.43141385995022
 10
27.69234636381407
 20
10.36411550538264
 10
27.5596724648085
 20
10.26989780898952
 10
27.43853542658963
 20
10.17568011259504
 10
27.34431773019514
 20
10.068002745287
 10
27.26355970471377
 20
9.960325377979188
 10
27.1693420083202
 20
9.733433782580959
 10
27.11550332466595
 20
9.544998389793363
 10
27.10204365375285
 20
9.370022667918874
 10
27.10204365375285
 20
6.289680838869571
 10
28.4057089222265
 20
6.289680838869571
 97
        0
 92
        7
 72
     0
 73
     1
 93
       54
 10
33.19350614715222
 20
9.181587275129913
 10
33.07236910893152
 20
9.450780693398883
 10
32.89739338705658
 20
9.719974111668079
 10
32.69549832335542
 20
9.946865707065626
 10
32.43976457600002
 20
10.16222044168103
 10
32.15711148681748
 20
10.33719616355574
 10
31.84753905580783
 20
10.47179287269023
 10
31.51297009310201
 20
10.56601056908448
 10
31.16301864935213
 20
10.59292991091138
 10
30.90728490199763
 20
10.57947023999782
 10
30.67847049646798
 20
10.53909122725781
 10
30.46311576185326
 20
10.48525254360379
 10
30.2612206981521
 20
10.40449451812287
 10
30.07278530536405
 20
10.31027682172862
 10
29.91126925440222
 20
10.20259945442171
 10
29.76321287435439
 20
10.06800274528677
 10
29.61515649430658
 20
9.933406036153201
 10
29.49594226621594
 20
9.787272466235663
 10
29.40172456982237
 20
9.625756415273599
 10
29.30750687342743
 20
9.450780693398201
 10
29.24020851886053
 20
9.275804971524621
 10
29.14599082246605
 20
8.912393856860944
 10
29.10561180972582
 20
8.535523071285069
 10
29.11907148063938
 20
8.252869982102993
 10
29.15945049337961
 20
7.999059044876958
 10
29.22674884794651
 20
7.756784968435567
 10
29.32096654434099
 20
7.52797056290592
 10
29.42864391164903
 20
7.326075499204534
 10
29.54978094986927
 20
7.137640106417165
 10
29.69591451978613
 20
6.962664384542222
 10
29.85743057074797
 20
6.801148333580385
 10
30.04586596353602
 20
6.666551624446128
 10
30.23430135632316
 20
6.558874257139223
 10
30.43619642002659
 20
6.451196889830725
 10
30.63809148372821
 20
6.370438864350035
 10
30.86690588925831
 20
6.316600180695786
 10
31.08226062387166
 20
6.262761497042447
 10
31.31107502939995
 20
6.235842155215777
 10
31.53796662479954
 20
6.235842155215777
 10
31.84753905580783
 20
6.24930182612934
 10
32.13019214499036
 20
6.289680838869571
 10
32.37246622143266
 20
6.343519522523365
 10
32.58782095604784
 20
6.410817877090721
 10
32.88393371614257
 20
6.545414586224978
 10
32.97815141253705
 20
6.599253269878772
 10
32.97815141253705
 20
7.918301019396494
 10
32.68203865244095
 20
7.716405955694881
 10
32.38592589234577
 20
7.554889904733499
 10
32.04943411950853
 20
7.433752866512122
 10
31.88791806854806
 20
7.393373853772118
 10
31.72640201758714
 20
7.379914182858556
 10
31.45913140944867
 20
7.379914182858556
 10
31.27069601666062
 20
7.420293195598787
 10
31.18993799117925
 20
7.43375286651235
 97
        0
 92
       22
 72
     0
 73
     1
 93
       15
 10
30.3823577363728
 20
8.212490969361624
 10
30.34197872363256
 20
8.306708665755877
 10
30.31505938180635
 20
8.414386033060509
 10
30.28814003997832
 20
8.548982742197949
 10
30.30159971089233
 20
8.710498793159331
 10
30.34197872363256
 20
8.885474515034275
 10
30.43619642002659
 20
9.073909907822553
 10
30.59771247098797
 20
9.262345300610604
 10
30.78614786377602
 20
9.396942009744861
 10
30.98804292747764
 20
9.464240364312217
 10
31.17647832026614
 20
9.47770003522578
 10
31.33799437122752
 20
9.450780693398883
 10
31.48605075127534
 20
9.410401680658651
 10
31.59180530845242
 20
9.356562997004857
 10
31.68602300484645
 20
9.302724313351063
 97
        0
 92
        7
 72
     0
 73
     1
 93
       27
 10
34.77982450480886
 20
9.181587275129913
 10
35.35859035408703
 20
9.181587275129913
 10
35.35859035408703
 20
10.18913978350792
 10
34.77982450480886
 20
10.18913978350792
 10
34.77982450480886
 20
10.63330892365138
 10
34.80674384663507
 20
10.78136530369943
 10
34.86058253028932
 20
10.88904267100724
 10
34.94134055577069
 20
10.96980069648771
 10
35.0220985812507
 20
11.03709905105506
 10
35.19707430312519
 20
11.0774780637953
 10
35.26437265769255
 20
11.09093773470886
 10
35.41050622761031
 20
11.09093773470886
 10
35.41050622761031
 20
12.12540958491354
 10
34.92788088485668
 20
12.12540958491377
 10
34.67214713750081
 20
12.1119499140002
 10
34.44333273197299
 20
12.07157090125974
 10
34.24143766827274
 20
12.0042725466933
 10
34.06646194639598
 20
11.93697419212549
 10
33.93186523726126
 20
11.84275649573146
 10
33.81072819904057
 20
11.75046160946817
 10
33.71651050264609
 20
11.64278424216013
 10
33.64921214807964
 20
11.53510687485322
 10
33.5415347807716
 20
11.31975214023782
 10
33.4876960971178
 20
11.11785707653553
 10
33.47423642620424
 20
10.94288135465967
 10
33.47423642620424
 20
6.303140509782906
 10
34.77982450480886
 20
6.303140509782906
 97
        0
 92
        7
 72
     0
 73
     1
 93
        4
 10
37.20064245909816
 20
12.12540958491354
 10
35.84121569684067
 20
12.12540958491377
 10
35.84121569684067
 20
6.303140509782906
 10
37.20064245909816
 20
6.303140509782906
 97
        0
 92
        7
 72
     0
 73
     1
 93
       54
 10
41.6500251010575
 20
9.181587275129913
 10
41.52888806283681
 20
9.450780693398883
 10
41.35391234096187
 20
9.719974111667852
 10
41.15201727726071
 20
9.946865707065853
 10
40.8982063400349
 20
10.16222044168126
 10
40.61555325085282
 20
10.33719616355574
 10
40.30598081984317
 20
10.47179287269023
 10
39.9694890470073
 20
10.56601056908448
 10
39.61953760325741
 20
10.59292991091115
 10
39.36380385590292
 20
10.57947023999804
 10
39.13691226050378
 20
10.53909122725758
 10
38.92155752588951
 20
10.48525254360356
 10
38.71966246218653
 20
10.40449451812287
 10
38.53122706939848
 20
10.31027682172862
 10
38.36971101843665
 20
10.20259945442103
 10
38.22165463838974
 20
10.06800274528677
 10
38.07359825834192
 20
9.933406036152518
 10
37.96592089103524
 20
9.787272466235208
 10
37.85824352372765
 20
9.625756415274054
 10
37.76402582733226
 20
9.45078069339911
 10
37.69672747276536
 20
9.275804971524394
 10
37.60250977637134
 20
8.912393856861399
 10
37.5621307636311
 20
8.535523071284387
 10
37.57559043454421
 20
8.252869982102538
 10
37.61596944728444
 20
7.999059044877412
 10
37.6832678018518
 20
7.756784968435567
 10
37.77748549824628
 20
7.527970562906375
 10
37.88516286555478
 20
7.326075499202943
 10
38.00629990377501
 20
7.137640106416483
 10
38.15435628382238
 20
6.962664384541994
 10
38.32933200569732
 20
6.801148333580613
 10
38.50430772757227
 20
6.666551624445901
 10
38.69274312036032
 20
6.55887425713854
 10
38.89463818406239
 20
6.451196889830725
 10
39.09653324776355
 20
6.370438864350035
 10
39.3234248431636
 20
6.316600180695786
 10
39.53877957777695
 20
6.262761497042674
 10
39.76759398330614
 20
6.235842155215777
 10
39.99640838883351
 20
6.235842155215777
 10
40.30598081984317
 20
6.249301826129112
 10
40.58863390902661
 20
6.289680838869571
 10
40.84436765638111
 20
6.343519522523138
 10
41.04626272008363
 20
6.410817877090494
 10
41.34045267004785
 20
6.545414586224978
 10
41.43467036644233
 20
6.599253269878772
 10
41.43467036644233
 20
7.918301019396267
 10
41.13855760634669
 20
7.716405955695108
 10
40.84436765638111
 20
7.554889904733272
 10
40.50787588354523
 20
7.43375286651235
 10
40.34635983258385
 20
7.393373853772118
 10
40.18484378162248
 20
7.379914182858556
 10
39.91565036335351
 20
7.379914182858556
 10
39.727214970565
 20
7.420293195599015
 10
39.64645694508454
 20
7.43375286651235
 97
        0
 92
       22
 72
     0
 73
     1
 93
       15
 10
38.74658180401457
 20
8.548982742197949
 10
38.76004147492768
 20
8.710498793159104
 10
38.80042048766791
 20
8.885474515034047
 10
38.89463818406193
 20
9.073909907821871
 10
39.05615423502331
 20
9.262345300610377
 10
39.24266681768131
 20
9.396942009745089
 10
39.44456188138338
 20
9.464240364312445
 10
39.63299727417143
 20
9.47770003522578
 10
39.79451332513236
 20
9.450780693398883
 10
39.94256970518018
 20
9.410401680658651
 10
40.05024707248867
 20
9.356562997004402
 10
40.14446476888224
 20
9.302724313351063
 10
38.84079950040814
 20
8.212490969361851
 10
38.80042048766791
 20
8.306708665755422
 10
38.77350114584169
 20
8.414386033060964
 97
        0
 92
        7
 72
     0
 73
     1
 93
       66
 10
45.1053149055524
 20
8.414386033063465
 10
44.99763753824391
 20
8.481684387631048
 10
44.9053426519813
 20
8.535523071284387
 10
45.09185523463884
 20
8.656660109505537
 10
45.2264519437731
 20
8.818176160466009
 10
45.33412931108114
 20
8.993151882341862
 10
45.40142766564804
 20
9.168127604216579
 10
45.45526634930229
 20
9.46424036431199
 10
45.45526634930229
 20
9.598837073446702
 10
45.45526634930229
 20
10.49871221451712
 10
44.19198009356842
 20
10.49871221451712
 10
44.19198009356842
 20
9.733433782581869
 10
44.17852042265531
 20
9.639216086187389
 10
44.12468173900151
 20
9.450780693399337
 10
44.07084305534772
 20
9.356562997004857
 10
43.97662535895324
 20
9.262345300610377
 10
43.84202864981853
 20
9.195046946043248
 10
43.6805125988576
 20
9.181587275129913
 10
43.51899654789622
 20
9.195046946043476
 10
43.38439983876196
 20
9.262345300610604
 10
43.30364181328104
 20
9.343103326091295
 10
43.24980312962725
 20
9.450780693398883
 10
43.20942411688702
 20
9.639216086187389
 10
43.20942411688702
 20
9.719974111667852
 10
43.20942411688702
 20
10.49871221451712
 10
41.91921851932647
 20
10.49871221451712
 10
41.91921851932693
 20
9.585377402532913
 10
41.94613786115314
 20
9.302724313351291
 10
42.0134362157205
 20
9.087369578736343
 10
42.09419424120187
 20
8.898934185947382
 10
42.20187160850855
 20
8.764337476813807
 10
42.30954897581705
 20
8.65666010950531
 10
42.39030700129752
 20
8.589361754938181
 10
42.48452469769108
 20
8.535523071284387
 10
42.36338765947039
 20
8.481684387631048
 10
42.26916996307681
 20
8.414386033063692
 10
42.12111358302808
 20
8.252869982102765
 10
41.99997654480739
 20
8.064434589313805
 10
41.93267819024003
 20
7.877922006656262
 10
41.8788395065867
 20
7.702946284781774
 10
41.85192016475958
 20
7.554889904733045
 10
41.83846049384601
 20
7.420293195598333
 10
41.83846049384601
 20
6.303140509782906
 10
43.1825047750599
 20
6.303140509782906
 10
43.1825047750599
 20
7.326075499205217
 10
43.195964445973
 20
7.433752866513714
 10
43.20942411688747
 20
7.527970562906375
 10
43.23634345871414
 20
7.649107601127525
 10
43.30364181328059
 20
7.756784968434885
 10
43.39785950967507
 20
7.8644623357427
 10
43.53245621880978
 20
7.931760690310056
 10
43.72089161159784
 20
7.958680032136726
 10
43.89586733347278
 20
7.931760690309829
 10
44.03046404260749
 20
7.8644623357427
 10
44.11122206808795
 20
7.756784968435113
 10
44.16506075174129
 20
7.635647930214645
 10
44.19198009356842
 20
7.527970562905693
 10
44.20543976448243
 20
7.420293195599015
 10
44.20543976448243
 20
7.326075499204762
 10
44.20543976448243
 20
6.303140509782906
 10
45.53602437478275
 20
6.303140509782906
 10
45.53602437478275
 20
7.433752866513032
 10
45.50910503295563
 20
7.729865626608443
 10
45.42834700747516
 20
7.972139703049833
 10
45.33412931108069
 20
8.158652285708285
 10
45.21299227285999
 20
8.306708665756104
 97
        0
 75
     0
 76
     1
 47
0.0429800832770381
 98
        8
 10
27.82192834896887
 20
8.752736164879934
 10
30.50495471075829
 20
7.543205571180806
 10
30.50495471075829
 20
7.543205571180806
 10
34.18754178332984
 20
8.069087958597719
 10
36.60752639548718
 20
8.332029152305949
 10
38.23838575874925
 20
8.594970346014406
 10
38.23838575874925
 20
8.594970346014406
 10
42.86792209890336
 20
8.384617758594686
  0
POLYLINE
  5
26A
330
264
100
AcDbEntity
  8
4
100
AcDb2dPolyline
 66
     1
 10
0.0
 20
0.0
 30
0.0
  0
VERTEX
  5
26B
330
26A
100
AcDbEntity
  8
4
100
AcDbVertex
100
AcDb2dVertex
 10
32.97815141253705
 20
7.918301019396494
 30
0.0
  0
VERTEX
  5
26C
330
26A
100
AcDbEntity
  8
4
100
AcDbVertex
100
AcDb2dVertex
 10
32.97815141253705
 20
6.599253269878772
 30
0.0
  0
VERTEX
  5
26D
330
26A
100
AcDbEntity
  8
4
100
AcDbVertex
100
AcDb2dVertex
 10
32.88393371614347
 20
6.545414586224978
 30
0.0
  0
VERTEX
  5
26E
330
26A
100
AcDbEntity
  8
4
100
AcDbVertex
100
AcDb2dVertex
 10
32.58782095604738
 20
6.410817877090494
 30
0.0
  0
VERTEX
  5
26F
330
26A
100
AcDbEntity
  8
4
100
AcDbVertex
100
AcDb2dVertex
 10
32.37246622143221
 20
6.343519522523365
 30
0.0
  0
VERTEX
  5
270
330
26A
100
AcDbEntity
  8
4
100
AcDbVertex
100
AcDb2dVertex
 10
32.13019214499036
 20
6.289680838869571
 30
0.0
  0
VERTEX
  5
271
330
26A
100
AcDbEntity
  8
4
100
AcDbVertex
100
AcDb2dVertex
 10
31.84753905580783
 20
6.249301826129112
 30
0.0
  0
VERTEX
  5
272
330
26A
100
AcDbEntity
  8
4
100
AcDbVertex
100
AcDb2dVertex
 10
31.53796662479863
 20
6.235842155215777
 30
0.0
  0
VERTEX
  5
273
330
26A
100
AcDbEntity
  8
4
100
AcDbVertex
100
AcDb2dVertex
 10
31.3110750294004
 20
6.235842155215777
 30
0.0
  0
VERTEX
  5
274
330
26A
100
AcDbEntity
  8
4
100
AcDbVertex
100
AcDb2dVertex
 10
31.08226062387166
 20
6.262761497042447
 30
0.0
  0
VERTEX
  5
275
330
26A
100
AcDbEntity
  8
4
100
AcDbVertex
100
AcDb2dVertex
 10
30.86690588925649
 20
6.316600180696241
 30
0.0
  0
VERTEX
  5
276
330
26A
100
AcDbEntity
  8
4
100
AcDbVertex
100
AcDb2dVertex
 10
30.63809148372821
 20
6.370438864350035
 30
0.0
  0
VERTEX
  5
277
330
26A
100
AcDbEntity
  8
4
100
AcDbVertex
100
AcDb2dVertex
 10
30.43619642002614
 20
6.451196889830953
 30
0.0
  0
VERTEX
  5
278
330
26A
100
AcDbEntity
  8
4
100
AcDbVertex
100
AcDb2dVertex
 10
30.23430135632498
 20
6.55887425713854
 30
0.0
  0
VERTEX
  5
279
330
26A
100
AcDbEntity
  8
4
100
AcDbVertex
100
AcDb2dVertex
 10
30.04586596353647
 20
6.666551624446128
 30
0.0
  0
VERTEX
  5
27A
330
26A
100
AcDbEntity
  8
4
100
AcDbVertex
100
AcDb2dVertex
 10
29.85743057074797
 20
6.801148333580385
 30
0.0
  0
VERTEX
  5
27B
330
26A
100
AcDbEntity
  8
4
100
AcDbVertex
100
AcDb2dVertex
 10
29.69591451978704
 20
6.962664384541767
 30
0.0
  0
VERTEX
  5
27C
330
26A
100
AcDbEntity
  8
4
100
AcDbVertex
100
AcDb2dVertex
 10
29.54978094986927
 20
7.137640106416711
 30
0.0
  0
VERTEX
  5
27D
330
26A
100
AcDbEntity
  8
4
100
AcDbVertex
100
AcDb2dVertex
 10
29.42864391164858
 20
7.326075499204762
 30
0.0
  0
VERTEX
  5
27E
330
26A
100
AcDbEntity
  8
4
100
AcDbVertex
100
AcDb2dVertex
 10
29.32096654434099
 20
7.527970562906375
 30
0.0
  0
VERTEX
  5
27F
330
26A
100
AcDbEntity
  8
4
100
AcDbVertex
100
AcDb2dVertex
 10
29.22674884794651
 20
7.756784968435113
 30
0.0
  0
VERTEX
  5
280
330
26A
100
AcDbEntity
  8
4
100
AcDbVertex
100
AcDb2dVertex
 10
29.15945049337961
 20
7.999059044877185
 30
0.0
  0
VERTEX
  5
281
330
26A
100
AcDbEntity
  8
4
100
AcDbVertex
100
AcDb2dVertex
 10
29.11907148063892
 20
8.252869982102083
 30
0.0
  0
VERTEX
  5
282
330
26A
100
AcDbEntity
  8
4
100
AcDbVertex
100
AcDb2dVertex
 10
29.10561180972582
 20
8.535523071284387
 30
0.0
  0
VERTEX
  5
283
330
26A
100
AcDbEntity
  8
4
100
AcDbVertex
100
AcDb2dVertex
 10
29.14599082246605
 20
8.912393856860944
 30
0.0
  0
VERTEX
  5
284
330
26A
100
AcDbEntity
  8
4
100
AcDbVertex
100
AcDb2dVertex
 10
29.24020851886053
 20
9.275804971523939
 30
0.0
  0
VERTEX
  5
285
330
26A
100
AcDbEntity
  8
4
100
AcDbVertex
100
AcDb2dVertex
 10
29.30750687342743
 20
9.450780693398883
 30
0.0
  0
VERTEX
  5
286
330
26A
100
AcDbEntity
  8
4
100
AcDbVertex
100
AcDb2dVertex
 10
29.40172456982145
 20
9.625756415273599
 30
0.0
  0
VERTEX
  5
287
330
26A
100
AcDbEntity
  8
4
100
AcDbVertex
100
AcDb2dVertex
 10
29.49594226621594
 20
9.787272466234981
 30
0.0
  0
VERTEX
  5
288
330
26A
100
AcDbEntity
  8
4
100
AcDbVertex
100
AcDb2dVertex
 10
29.61515649430658
 20
9.933406036152518
 30
0.0
  0
VERTEX
  5
289
330
26A
100
AcDbEntity
  8
4
100
AcDbVertex
100
AcDb2dVertex
 10
29.76321287435439
 20
10.06800274528677
 30
0.0
  0
VERTEX
  5
28A
330
26A
100
AcDbEntity
  8
4
100
AcDbVertex
100
AcDb2dVertex
 10
29.91126925440222
 20
10.20259945442149
 30
0.0
  0
VERTEX
  5
28B
330
26A
100
AcDbEntity
  8
4
100
AcDbVertex
100
AcDb2dVertex
 10
30.07278530536314
 20
10.31027682172885
 30
0.0
  0
VERTEX
  5
28C
330
26A
100
AcDbEntity
  8
4
100
AcDbVertex
100
AcDb2dVertex
 10
30.26122069815165
 20
10.4044945181231
 30
0.0
  0
VERTEX
  5
28D
330
26A
100
AcDbEntity
  8
4
100
AcDbVertex
100
AcDb2dVertex
 10
30.46311576185326
 20
10.48525254360379
 30
0.0
  0
VERTEX
  5
28E
330
26A
100
AcDbEntity
  8
4
100
AcDbVertex
100
AcDb2dVertex
 10
30.67847049646843
 20
10.53909122725758
 30
0.0
  0
VERTEX
  5
28F
330
26A
100
AcDbEntity
  8
4
100
AcDbVertex
100
AcDb2dVertex
 10
30.90728490199672
 20
10.57947023999782
 30
0.0
  0
VERTEX
  5
290
330
26A
100
AcDbEntity
  8
4
100
AcDbVertex
100
AcDb2dVertex
 10
31.16301864935258
 20
10.59292991091115
 30
0.0
  0
VERTEX
  5
291
330
26A
100
AcDbEntity
  8
4
100
AcDbVertex
100
AcDb2dVertex
 10
31.51297009310201
 20
10.56601056908448
 30
0.0
  0
VERTEX
  5
292
330
26A
100
AcDbEntity
  8
4
100
AcDbVertex
100
AcDb2dVertex
 10
31.84753905580783
 20
10.47179287269023
 30
0.0
  0
VERTEX
  5
293
330
26A
100
AcDbEntity
  8
4
100
AcDbVertex
100
AcDb2dVertex
 10
32.15711148681703
 20
10.33719616355574
 30
0.0
  0
VERTEX
  5
294
330
26A
100
AcDbEntity
  8
4
100
AcDbVertex
100
AcDb2dVertex
 10
32.43976457599911
 20
10.16222044168103
 30
0.0
  0
VERTEX
  5
295
330
26A
100
AcDbEntity
  8
4
100
AcDbVertex
100
AcDb2dVertex
 10
32.69549832335497
 20
9.946865707065853
 30
0.0
  0
VERTEX
  5
296
330
26A
100
AcDbEntity
  8
4
100
AcDbVertex
100
AcDb2dVertex
 10
32.89739338705658
 20
9.719974111667852
 30
0.0
  0
VERTEX
  5
297
330
26A
100
AcDbEntity
  8
4
100
AcDbVertex
100
AcDb2dVertex
 10
33.07236910893152
 20
9.450780693398883
 30
0.0
  0
VERTEX
  5
298
330
26A
100
AcDbEntity
  8
4
100
AcDbVertex
100
AcDb2dVertex
 10
33.19350614715222
 20
9.181587275129913
 30
0.0
  0
VERTEX
  5
299
330
26A
100
AcDbEntity
  8
4
100
AcDbVertex
100
AcDb2dVertex
 10
31.18993799117925
 20
7.43375286651235
 30
0.0
  0
VERTEX
  5
29A
330
26A
100
AcDbEntity
  8
4
100
AcDbVertex
100
AcDb2dVertex
 10
31.27069601666017
 20
7.420293195599015
 30
0.0
  0
VERTEX
  5
29B
330
26A
100
AcDbEntity
  8
4
100
AcDbVertex
100
AcDb2dVertex
 10
31.45913140944867
 20
7.379914182858556
 30
0.0
  0
VERTEX
  5
29C
330
26A
100
AcDbEntity
  8
4
100
AcDbVertex
100
AcDb2dVertex
 10
31.72640201758714
 20
7.379914182858556
 30
0.0
  0
VERTEX
  5
29D
330
26A
100
AcDbEntity
  8
4
100
AcDbVertex
100
AcDb2dVertex
 10
31.88791806854806
 20
7.393373853772118
 30
0.0
  0
VERTEX
  5
29E
330
26A
100
AcDbEntity
  8
4
100
AcDbVertex
100
AcDb2dVertex
 10
32.04943411950945
 20
7.43375286651235
 30
0.0
  0
VERTEX
  5
29F
330
26A
100
AcDbEntity
  8
4
100
AcDbVertex
100
AcDb2dVertex
 10
32.38592589234577
 20
7.554889904733499
 30
0.0
  0
VERTEX
  5
2A0
330
26A
100
AcDbEntity
  8
4
100
AcDbVertex
100
AcDb2dVertex
 10
32.68203865244141
 20
7.716405955694881
 30
0.0
  0
VERTEX
  5
2A1
330
26A
100
AcDbEntity
  8
4
100
AcDbVertex
100
AcDb2dVertex
 10
32.97815141253705
 20
7.918301019396494
 30
0.0
  0
VERTEX
  5
2A2
330
26A
100
AcDbEntity
  8
4
100
AcDbVertex
100
AcDb2dVertex
 10
32.97815141253705
 20
7.918301019396494
 30
0.0
  0
SEQEND
  5
2A3
330
26A
100
AcDbEntity
  8
4
  0
LWPOLYLINE
  5
2A4
330
264
100
AcDbEntity
  8
4
100
AcDbPolyline
 90
        9
 70
     1
 43
0.3764767999999999
 10
24.67337694397975
 20
5.40360062811419
 10
24.67337694397975
 20
12.53130987337772
 42
-0.4142135623730758
 10
25.4036501524688
 20
13.26158308186632
 10
47.27043859031346
 20
13.26158308186632
 42
-0.4142135623731188
 10
48.00071179880252
 20
12.53130987337749
 10
48.00071179880252
 20
5.403600628075309
 42
-0.3882805062036363
 10
47.34510751733068
 20
4.68663927828129
 10
25.4036522928609
 20
4.68368101277997
 42
-0.3805717795643351
 10
24.67644243742598
 20
5.330761715745211
 42
-0.0371590147695308
  0
LWPOLYLINE
  5
2A5
330
264
100
AcDbEntity
  8
4
100
AcDbPolyline
 90
        9
 70
     0
 43
0.0
 10
24.4851385439797
 20
5.40360062807349
 10
24.4851385439797
 20
12.53130987333679
 42
-0.4142135623730935
 10
25.40365015246834
 20
13.44982148182566
 10
47.27043859031346
 20
13.44982148182566
 42
-0.4142135623730935
 10
48.1889501988021
 20
12.53130987333679
 10
48.1889501988021
 20
5.40360062807349
 42
-0.3910991924838771
 10
47.35304663093621
 20
4.498401946924104
 10
25.40367767217822
 20
4.495442614450212
 42
-0.3805717795643467
 10
24.48947661258762
 20
5.308910501154514
 42
-0.3805717795643467
  0
LWPOLYLINE
  5
2A6
330
264
100
AcDbEntity
  8
4
100
AcDbPolyline
 90
        9
 70
     0
 43
0.0
 10
24.68925223475435
 20
5.40360062807349
 10
24.68925223475435
 20
12.53130987333679
 42
-0.4142135623730959
 10
25.40365015246834
 20
13.24570779105056
 10
47.27043859031346
 20
13.24570779105056
 42
-0.4142135623730952
 10
47.984836508027
 20
12.53130987333679
 10
47.984836508027
 20
5.40360062807349
 42
-0.3879925607753563
 10
47.34439282610128
 20
4.702514472801567
 10
25.40365015246834
 20
4.699556303370172
 42
-0.3805717795643615
 10
24.69221040418597
 20
5.332604561716834
 42
-0.0582381889744711
  0
HATCH
  5
2A7
330
264
100
AcDbEntity
  8
4
100
AcDbHatch
 10
0.0
 20
0.0
 30
0.0
210
0.0
220
0.0
230
1.0
  2
SOLID
 70
     1
 71
     0
 91
        3
 92
        7
 72
     0
 73
     1
 93
        4
 10
47.27043859031346
 20
13.44982148182589
 10
25.40365015246834
 20
13.44982148182589
 10
25.40365015246834
 20
13.34776463643811
 10
47.27043859031346
 20
13.34776463643811
 97
        0
 92
        7
 72
     0
 73
     1
 93
        4
 10
24.58719538936703
 20
12.53130987333679
 10
24.48513854397925
 20
12.53130987333679
 10
24.48513854397925
 20
5.40360062807349
 10
24.58719538936657
 20
5.40360062807349
 97
        0
 92
        7
 72
     0
 73
     1
 93
       42
 10
24.77651823298356
 20
12.86854118853012
 10
24.79426724957375
 20
12.89812288284611
 10
24.81201626616257
 20
12.92770457716142
 10
24.83272345218575
 20
12.9558071867641
 10
24.85343063820483
 20
12.98243071164597
 10
24.87709599365553
 20
13.00905423652739
 10
24.90076134910851
 20
13.0341986766964
 10
24.92590578927684
 20
13.05786403214802
 10
24.95252931416053
 20
13.08005030288496
 10
24.97915283904422
 20
13.10223657362167
 10
25.00725544864327
 20
13.12294375964211
 10
25.03683714295903
 20
13.14069277623139
 10
25.06641883727389
 20
13.15844179282066
 10
25.09747961630547
 20
13.17471172469391
 10
25.12854039533613
 20
13.18950257185156
 10
25.16108025908307
 20
13.20133524957759
 10
25.19362012283
 20
13.21316792730385
 10
25.22763907129229
 20
13.22352152031408
 10
25.26165801975503
 20
13.23091694389245
 10
25.29715605293314
 20
13.23831236747173
 10
25.3326540861126
 20
13.24274962161917
 10
25.36815211928979
 20
13.24570779105056
 10
25.40365015246834
 20
13.24570779105056
 10
25.40365015246789
 20
13.34776463643834
 10
25.23947174901878
 20
13.32705745041767
 10
25.09452144687384
 20
13.28564307837609
 10
24.94957114472891
 20
13.20281433429341
 10
24.83568162161509
 20
13.10963199719981
 10
24.73214569151151
 20
12.98538888107623
 10
24.65967054043949
 20
12.85079217194197
 10
24.60790257538793
 20
12.69548827678636
 10
24.58719538936657
 20
12.53130987333679
 10
24.68925223475435
 20
12.53130987333679
 10
24.68925223475435
 20
12.5668079065158
 10
24.69221040418643
 20
12.6023059396939
 10
24.69664765833341
 20
12.63780397287155
 10
24.70404308191064
 20
12.67330200605397
 10
24.71143850549106
 20
12.70732095451285
 10
24.72179209850356
 20
12.73986081826297
 10
24.73214569151196
 20
12.77387976672207
 10
24.74545745395472
 20
12.80641963046878
 10
24.76024830111237
 20
12.83748040949876
 97
        0
 75
     0
 76
     1
 47
0.0056314001768925
 98
        3
 10
26.53220909583524
 20
13.38362028595156
 10
24.52265342497867
 20
12.35537540084374
 10
24.6923254780163
 20
12.83769585039294
  0
HATCH
  5
2A8
330
264
100
AcDbEntity
  8
4
100
AcDbHatch
 10
0.0
 20
0.0
 30
0.0
210
0.0
220
0.0
230
1.0
  2
SOLID
 70
     1
 71
     0
 91
       13
 92
        7
 72
     0
 73
     1
 93
        4
 10
24.68925223475435
 20
12.53130987333679
 10
24.58719538936657
 20
12.53130987333679
 10
24.58719538936657
 20
5.40360062807349
 10
24.68925223475435
 20
5.40360062807349
 97
        0
 92
        7
 72
     0
 73
     1
 93
        4
 10
47.27043859031346
 20
4.699556303370172
 10
25.40365015246834
 20
4.699556303370172
 10
25.40365015246834
 20
4.597499457982394
 10
47.27043859031346
 20
4.597499457982394
 97
        0
 92
        7
 72
     0
 73
     1
 93
        4
 10
47.27043859031346
 20
13.34776463643811
 10
25.40365015246834
 20
13.34776463643811
 10
25.40365015246834
 20
13.24570779105056
 10
47.27043859031346
 20
13.24570779105056
 97
        0
 92
        7
 72
     0
 73
     1
 93
        4
 10
48.18895019880256
 20
12.53130987333679
 10
48.08689335341478
 20
12.53130987333679
 10
48.08689335341478
 20
5.40360062807349
 10
48.18895019880256
 20
5.40360062807349
 97
        0
 92
        7
 72
     0
 73
     1
 93
       42
 10
25.09452144687384
 20
13.28564307837632
 10
25.23947174901878
 20
13.32705745041767
 10
25.40365015246834
 20
13.34776463643811
 10
25.40365015246789
 20
13.44982148182589
 10
25.35779852628002
 20
13.44834239711008
 10
25.31194690009215
 20
13.44390514296287
 10
25.26609527390201
 20
13.43798880409986
 10
25.22024364771369
 20
13.4305933805208
 10
25.17587110624027
 20
13.42023978751058
 10
25.13297764948311
 20
13.40692802506896
 10
25.0900841927255
 20
13.39213717791085
 10
25.04866982068461
 20
13.37586724603784
 10
25.00873453335953
 20
13.35811822944833
 10
24.968799246034
 20
13.33741104342834
 10
24.93034304342382
 20
13.31522477269163
 10
24.89336592553537
 20
13.2900803325233
 10
24.85786789235135
 20
13.26493589235588
 10
24.82236985917462
 20
13.23683328275547
 10
24.78835091071096
 20
13.20873067315665
 10
24.75729013167893
 20
13.17766989412507
 10
24.72622935264826
 20
13.14513003037768
 10
24.69812674305013
 20
13.1125901666328
 10
24.67002413344971
 20
13.07709213345447
 10
24.64487969328184
 20
13.04159410027387
 10
24.6197352531135
 20
13.00461698238041
 10
24.5975489823768
 20
12.96616077977001
 10
24.57684179635635
 20
12.92622549244583
 10
24.55909277976798
 20
12.88629020512189
 10
24.54282284789406
 20
12.84487583308009
 10
24.52803200073595
 20
12.80198237631998
 10
24.5147202382941
 20
12.75908891956351
 10
24.50436664528434
 20
12.71471637809191
 10
24.49697122170528
 20
12.66886475190222
 10
24.49105488284249
 20
12.62301312571298
 10
24.48661762869506
 20
12.57716149952603
 10
24.48513854397925
 20
12.53130987333679
 10
24.58719538936657
 20
12.53130987333679
 10
24.60790257538793
 20
12.69548827678636
 10
24.65967054043904
 20
12.85079217194152
 10
24.73214569151242
 20
12.98538888107669
 10
24.83568162161555
 20
13.10963199720027
 10
24.94957114472891
 20
13.20281433429363
 97
        0
 92
        7
 72
     0
 73
     1
 93
       42
 10
25.12854039533659
 20
13.18950257185179
 10
25.16108025908307
 20
13.20133524957759
 10
25.19362012283
 20
13.21316792730385
 10
25.22763907129229
 20
13.22352152031408
 10
25.26165801975503
 20
13.23091694389245
 10
25.29715605293314
 20
13.23831236747173
 10
25.3326540861126
 20
13.24274962161917
 10
25.36815211928979
 20
13.24570779105056
 10
25.40365015246834
 20
13.24570779105056
 10
25.40365015246789
 20
13.34776463643834
 10
25.23947174901878
 20
13.32705745041767
 10
25.09452144687384
 20
13.28564307837609
 10
24.94957114472891
 20
13.20281433429341
 10
24.83568162161509
 20
13.10963199719981
 10
24.73214569151151
 20
12.98538888107623
 10
24.65967054043949
 20
12.85079217194197
 10
24.60790257538793
 20
12.69548827678636
 10
24.58719538936657
 20
12.53130987333679
 10
24.68925223475435
 20
12.53130987333679
 10
24.68925223475435
 20
12.5668079065158
 10
24.69221040418643
 20
12.6023059396939
 10
24.69664765833341
 20
12.63780397287155
 10
24.70404308191064
 20
12.67330200605397
 10
24.71143850549106
 20
12.70732095451285
 10
24.72179209850356
 20
12.73986081826297
 10
24.73214569151196
 20
12.77387976672207
 10
24.74545745395472
 20
12.80641963046878
 10
24.76024830111237
 20
12.83748040949876
 10
24.77651823298402
 20
12.86854118853057
 10
24.79426724957375
 20
12.89812288284611
 10
24.81201626616257
 20
12.92770457716142
 10
24.83272345218575
 20
12.9558071867641
 10
24.85343063820483
 20
12.98243071164597
 10
24.87709599365553
 20
13.00905423652739
 10
24.90076134910851
 20
13.0341986766964
 10
24.92590578927684
 20
13.05786403214802
 10
24.95252931416053
 20
13.08005030288496
 10
24.97915283904422
 20
13.10223657362167
 10
25.00725544864327
 20
13.12294375964211
 10
25.03683714295903
 20
13.14069277623139
 10
25.06641883727389
 20
13.15844179282066
 10
25.09747961630547
 20
13.17471172469391
 97
        0
 92
        7
 72
     0
 73
     1
 93
        4
 10
47.27043859031346
 20
4.597499457982394
 10
25.40365015246834
 20
4.597499457982394
 10
25.40365015246834
 20
4.495442612594615
 10
47.27043859031346
 20
4.495442612594615
 97
        0
 92
       22
 72
     0
 73
     1
 93
       42
 10
47.95229664428006
 20
4.949521620333825
 10
48.02477179535253
 20
5.09447192247876
 10
48.07653976040455
 20
5.239422224623695
 10
48.08689335341478
 20
5.40360062807349
 10
47.984836508027
 20
5.40360062807349
 10
47.984836508027
 20
5.36810259489448
 10
47.98187833859538
 20
5.332604561715697
 10
47.9774410844484
 20
5.297106528537824
 10
47.97152474558515
 20
5.261608495359951
 10
47.96265023728847
 20
5.227589546889703
 10
47.95377572899633
 20
5.195049683150955
 10
47.94194305126985
 20
5.162509819404021
 10
47.93011037354427
 20
5.129969955657998
 10
47.91531952638615
 20
5.098909176626193
 10
47.9005286792285
 20
5.067848397594843
 10
47.88277966264013
 20
5.039745787994206
 10
47.8650306460504
 20
5.010164093680486
 10
47.84432346002995
 20
4.983540568794978
 10
47.8236162740086
 20
4.955437959196615
 10
47.8014300032728
 20
4.930293519030328
 10
47.77776464781891
 20
4.906628163576442
 10
47.75262020765331
 20
4.88296280812483
 10
47.72747576748407
 20
4.860776537387891
 10
47.69937315788502
 20
4.840069351367674
 10
47.67127054828415
 20
4.819362165346319
 10
47.64316793868329
 20
4.801613148757041
 10
47.61358624437071
 20
4.783864132168446
 10
47.58252546534004
 20
4.769073285010108
 10
47.5499856015931
 20
4.754282437853362
 10
47.51744573784617
 20
4.742449760127328
 10
47.48490587409924
 20
4.730617082401067
 10
47.45088692563558
 20
4.721742574106201
 10
47.41538889245839
 20
4.714347150527828
 10
47.37989085927984
 20
4.706951726948773
 10
47.34439282610128
 20
4.702514472801567
 10
47.30741570820737
 20
4.699556303370172
 10
47.27043859031346
 20
4.699556303370172
 10
47.27043859031346
 20
4.597499457982394
 10
47.43461699376303
 20
4.607853050992616
 10
47.58992088891864
 20
4.659621016044638
 10
47.72451759805244
 20
4.732096167116878
 10
47.84876071417693
 20
4.835632097220695
 97
        0
 92
        7
 72
     0
 73
     1
 93
       42
 10
47.97892016916375
 20
4.826757588925829
 10
48.00702277876462
 20
4.860776537388574
 10
48.03216721893204
 20
4.896274570565765
 10
48.05583257438411
 20
4.933251688460813
 10
48.078018845119
 20
4.97170789106849
 10
48.09872603114081
 20
5.010164093681169
 10
48.11647504773009
 20
5.050099381005111
 10
48.13274497960401
 20
5.091513753047138
 10
48.14753582676167
 20
5.134407209805658
 10
48.15936850448725
 20
5.177300666559403
 10
48.16972209749792
 20
5.221673208035554
 10
48.17859660579234
 20
5.266045749507156
 10
48.18303385993932
 20
5.311897375696162
 10
48.18747111408629
 20
5.357749001885622
 10
48.18895019880256
 20
5.40360062807349
 10
48.08689335341478
 20
5.40360062807349
 10
48.07653976040455
 20
5.239422224623922
 10
48.02477179535253
 20
5.094471922478533
 10
47.95229664428006
 20
4.949521620334053
 10
47.84876071417693
 20
4.835632097219786
 10
47.72451759805244
 20
4.732096167116651
 10
47.58992088891773
 20
4.659621016044184
 10
47.43461699376303
 20
4.607853050992616
 10
47.27043859031346
 20
4.597499457982394
 10
47.27043859031346
 20
4.495442612594615
 10
47.31629021650223
 20
4.496921697310426
 10
47.36362092740637
 20
4.501358951457859
 10
47.41095163831096
 20
4.505796205605065
 10
47.45532417978393
 20
4.514670713899704
 10
47.49969672125644
 20
4.523545222194115
 10
47.54406926272986
 20
4.536856984636187
 10
47.58696271948156
 20
4.551647831793616
 10
47.6283770915279
 20
4.566438678951271
 10
47.66979146356788
 20
4.585666780255451
 10
47.70824766618079
 20
4.604894881561904
 10
47.74670386878869
 20
4.627081152297705
 10
47.78516007139933
 20
4.650746507749545
 10
47.82065810457652
 20
4.675890947917423
 10
47.85615613775507
 20
4.702514472801567
 10
47.88869600150246
 20
4.732096167116878
 10
47.92123586524894
 20
4.761677861432417
 10
47.95081755956561
 20
4.792738640463539
 97
        0
 92
        7
 72
     0
 73
     1
 93
       42
 10
47.84876071417693
 20
13.10963199720027
 10
47.7245175980529
 20
13.20281433429318
 10
47.58992088891773
 20
13.28564307837632
 10
47.43461699376303
 20
13.32705745041767
 10
47.27043859031346
 20
13.34776463643834
 10
47.27043859031346
 20
13.24570779105056
 10
47.30741570820737
 20
13.24570779105056
 10
47.34439282610128
 20
13.24274962161917
 10
47.37989085927984
 20
13.23683328275592
 10
47.41538889245839
 20
13.2309169438929
 10
47.44940784092068
 20
13.22352152031408
 10
47.48342678938388
 20
13.21316792730363
 10
47.51744573784617
 20
13.20133524957759
 10
47.54998560159219
 20
13.18950257185179
 10
47.58104638062377
 20
13.17471172469391
 10
47.61210715965444
 20
13.15844179282066
 10
47.64168885396975
 20
13.14069277623139
 10
47.67127054828597
 20
13.12294375964211
 10
47.69937315788365
 20
13.10223657362167
 10
47.7259966827687
 20
13.08152938760054
 10
47.75262020765149
 20
13.0578640321487
 10
47.77776464782073
 20
13.03419867669618
 10
47.79995091855608
 20
13.00905423652921
 10
47.8236162740086
 20
12.98390979636042
 10
47.84432346002995
 20
12.95580718676115
 10
47.86355156133413
 20
12.92770457716142
 10
47.88277966263922
 20
12.89960196756192
 10
47.89904959451269
 20
12.8685411885308
 10
47.91531952638615
 20
12.83895949421503
 10
47.93011037354427
 20
12.8064196304681
 10
47.94194305126985
 20
12.77387976672207
 10
47.95377572899633
 20
12.74133990297423
 10
47.96265023729029
 20
12.70732095451285
 10
47.97152474558515
 20
12.67330200604988
 10
47.97744108444748
 20
12.63780397287405
 10
47.98187833859538
 20
12.60378502441108
 10
47.984836508027
 20
12.56680790651535
 10
47.984836508027
 20
12.53130987333679
 10
48.08689335341478
 20
12.53130987333679
 10
48.07653976040455
 20
12.69548827678704
 10
48.02477179535253
 20
12.85079217194152
 10
47.95229664428006
 20
12.98538888107623
 97
        0
 92
        7
 72
     0
 73
     1
 93
       42
 10
47.89017508621737
 20
13.20725158844129
 10
47.85615613775599
 20
13.23683328275547
 10
47.82213718929233
 20
13.26493589235588
 10
47.78516007139933
 20
13.29008033252353
 10
47.74818295350496
 20
13.31522477269163
 10
47.70972675089433
 20
13.33741104342812
 10
47.66979146356971
 20
13.35811822944833
 10
47.62985617624417
 20
13.37586724603761
 10
47.58696271948702
 20
13.39213717791108
 10
47.54406926272986
 20
13.40692802506874
 10
47.50117580597271
 20
13.42023978751058
 10
47.45532417978302
 20
13.43059338052103
 10
47.4109516383105
 20
13.43798880409986
 10
47.36362092740637
 20
13.44390514296287
 10
47.3177693012176
 20
13.44834239711008
 10
47.27043859031346
 20
13.44982148182589
 10
47.27043859031346
 20
13.34776463643811
 10
47.43461699376348
 20
13.32705745041744
 10
47.58992088891773
 20
13.28564307837632
 10
47.72451759805244
 20
13.20281433429341
 10
47.84876071417693
 20
13.10963199720027
 10
47.95229664428006
 20
12.98538888107623
 10
48.02477179535299
 20
12.85079217194152
 10
48.07653976040455
 20
12.69548827678636
 10
48.08689335341478
 20
12.53130987333679
 10
48.18895019880256
 20
12.53130987333679
 10
48.18747111408629
 20
12.57716149952512
 10
48.18303385993932
 20
12.62301312571412
 10
48.17859660579234
 20
12.66886475190267
 10
48.16972209749701
 20
12.71323729337973
 10
48.15936850448725
 20
12.75760983484929
 10
48.14753582676075
 20
12.80050329160576
 10
48.13274497960356
 20
12.84339674836201
 10
48.11647504773009
 20
12.88481112040381
 10
48.09872603114127
 20
12.92622549244583
 10
48.07801884511992
 20
12.96468169505556
 10
48.05731165909946
 20
13.00313789766528
 10
48.03216721893204
 20
13.04159410027523
 10
48.0070227787628
 20
13.07709213345288
 10
47.98039925388002
 20
13.11259016663166
 10
47.95081755956471
 20
13.14513003037882
 10
47.92123586524939
 20
13.1776698941253
 97
        0
 92
       23
 72
     0
 73
     1
 93
       42
 10
24.90076134910851
 20
4.906628163576897
 10
24.87561690894108
 20
4.931772603744775
 10
24.85343063820528
 20
4.956917043912199
 10
24.83272345218484
 20
4.983540568796797
 10
24.81201626616349
 20
5.011643178395843
 10
24.79278816485749
 20
5.039745787996253
 10
24.77503914826866
 20
5.069327482310882
 10
24.76024830111237
 20
5.100388261340185
 10
24.74545745395335
 20
5.129969955656633
 10
24.7321456915106
 20
5.162509819405613
 10
24.72031301378593
 20
5.1950496831505
 10
24.71143850549061
 20
5.229068631614381
 10
24.70404308191246
 20
5.263087580075989
 10
24.69664765833386
 20
5.297106528537824
 10
24.69221040418597
 20
5.332604561716379
 10
24.68925223475435
 20
5.368102594895617
 10
24.68925223475435
 20
5.40360062807349
 10
24.58719538936657
 20
5.40360062807349
 10
24.60790257538793
 20
5.23942222462324
 10
24.65967054043904
 20
5.094471922479442
 10
24.73214569151151
 20
4.949521620334053
 10
24.83568162161464
 20
4.835632097220468
 10
24.94957114472891
 20
4.732096167116878
 10
25.09452144687384
 20
4.659621016044638
 10
25.23947174901878
 20
4.607853050992616
 10
25.40365015246789
 20
4.597499457982394
 10
25.40365015246834
 20
4.699556303370172
 10
25.36815211929024
 20
4.699556303370172
 10
25.33117500139633
 20
4.702514472801567
 10
25.29567696821732
 20
4.706951726948773
 10
25.26165801975458
 20
4.712868065812017
 10
25.22763907129229
 20
4.721742574106428
 10
25.19362012283
 20
4.73061708240084
 10
25.16108025908307
 20
4.742449760127328
 10
25.12854039533613
 20
4.754282437853362
 10
25.09600053159011
 20
4.76907328501079
 10
25.06641883727389
 20
4.783864132168901
 10
25.03535805824322
 20
4.801613148757496
 10
25.00725544864372
 20
4.820841250062812
 10
24.97767375432886
 20
4.840069351367674
 10
24.95105022944472
 20
4.860776537387891
 10
24.92442670456057
 20
4.882962808124602
 97
        0
 92
        7
 72
     0
 73
     1
 93
       42
 10
24.83568162161464
 20
4.835632097220695
 10
24.73214569151151
 20
4.949521620334053
 10
24.65967054043904
 20
5.094471922479442
 10
24.60790257538793
 20
5.239422224623467
 10
24.58719538936703
 20
5.40360062807349
 10
24.48513854397925
 20
5.40360062807349
 10
24.48661762869506
 20
5.357749001885167
 10
24.49105488284249
 20
5.311897375695025
 10
24.49697122170528
 20
5.266045749507156
 10
24.50436664528388
 20
5.221673208034189
 10
24.51472023829501
 20
5.17730066656054
 10
24.52803200073686
 20
5.134407209804066
 10
24.54282284789406
 20
5.091513753048502
 10
24.55909277976753
 20
5.050099381006702
 10
24.57832088107352
 20
5.010164093677985
 10
24.59902806709306
 20
4.970228806355407
 10
24.62121433783068
 20
4.933251688458767
 10
24.64487969328184
 20
4.896274570565765
 10
24.67002413344926
 20
4.860776537388574
 10
24.69812674304922
 20
4.826757588926511
 10
24.72770843736362
 20
4.792738640463312
 10
24.75729013167984
 20
4.761677861432417
 10
24.78982999542677
 20
4.732096167117788
 10
24.82384894388952
 20
4.702514472801112
 10
24.85786789235226
 20
4.675890947918105
 10
24.89336592552945
 20
4.650746507750227
 10
24.93182212813781
 20
4.62708115229816
 10
24.968799246034
 20
4.604894881561449
 10
25.00873453335953
 20
4.58566678025636
 10
25.05014890540042
 20
4.566438678951499
 10
25.09156327743949
 20
4.551647831794753
 10
25.13445673419937
 20
4.53685698463596
 10
25.17735019095653
 20
4.523545222194115
 10
25.22172273242905
 20
4.514670713899704
 10
25.26609527390247
 20
4.505796205605065
 10
25.31194690009125
 20
4.501358951457859
 10
25.35779852627957
 20
4.496921697310426
 10
25.40365015246834
 20
4.495442612594615
 10
25.40365015246789
 20
4.597499457982394
 10
25.23947174901878
 20
4.607853050992616
 10
25.09452144687384
 20
4.659621016044411
 10
24.94957114472891
 20
4.732096167116878
 97
        0
 75
     0
 76
     1
 47
0.0249798791011511
 98
       13
 10
24.62608379848461
 20
9.839461937494206
 10
29.19896463564782
 20
4.621088010110497
 10
34.50027195207304
 20
13.27792511501502
 10
48.13798171318921
 20
10.20353407682341
 10
24.78242106256039
 20
13.19840352221172
 10
24.94705861311923
 20
13.17489324525058
 10
39.4352899658129
 20
4.546405313227296
 10
47.83187841040853
 20
4.922579640101957
 10
47.94947836040864
 20
4.805025428011276
 10
47.83187841040853
 20
13.08084931012126
 10
47.87891799383487
 20
13.19840352221172
 10
24.85297944626609
 20
4.87555767253707
 10
24.82946064598673
 20
4.758003460446843
  0
POLYLINE
  5
2A9
330
264
100
AcDbEntity
  8
4
100
AcDb2dPolyline
 66
     1
 10
0.0
 20
0.0
 30
0.0
  0
VERTEX
  5
2AA
330
2A9
100
AcDbEntity
  8
4
100
AcDbVertex
100
AcDb2dVertex
 10
25.40365015246834
 20
13.34776463643811
 30
0.0
  0
VERTEX
  5
2AB
330
2A9
100
AcDbEntity
  8
4
100
AcDbVertex
100
AcDb2dVertex
 10
47.27043859031346
 20
13.34776463643811
 30
0.0
  0
VERTEX
  5
2AC
330
2A9
100
AcDbEntity
  8
4
100
AcDbVertex
100
AcDb2dVertex
 10
47.43461699376303
 20
13.32705745041767
 30
0.0
  0
VERTEX
  5
2AD
330
2A9
100
AcDbEntity
  8
4
100
AcDbVertex
100
AcDb2dVertex
 10
47.58992088891818
 20
13.28564307837609
 30
0.0
  0
VERTEX
  5
2AE
330
2A9
100
AcDbEntity
  8
4
100
AcDbVertex
100
AcDb2dVertex
 10
47.72451759805244
 20
13.20281433429341
 30
0.0
  0
VERTEX
  5
2AF
330
2A9
100
AcDbEntity
  8
4
100
AcDbVertex
100
AcDb2dVertex
 10
47.84876071417693
 20
13.10963199720027
 30
0.0
  0
VERTEX
  5
2B0
330
2A9
100
AcDbEntity
  8
4
100
AcDbVertex
100
AcDb2dVertex
 10
47.95229664428006
 20
12.98538888107623
 30
0.0
  0
VERTEX
  5
2B1
330
2A9
100
AcDbEntity
  8
4
100
AcDbVertex
100
AcDb2dVertex
 10
48.02477179535253
 20
12.85079217194175
 30
0.0
  0
VERTEX
  5
2B2
330
2A9
100
AcDbEntity
  8
4
100
AcDbVertex
100
AcDb2dVertex
 10
48.07653976040455
 20
12.69548827678659
 30
0.0
  0
VERTEX
  5
2B3
330
2A9
100
AcDbEntity
  8
4
100
AcDbVertex
100
AcDb2dVertex
 10
48.08689335341478
 20
12.53130987333679
 30
0.0
  0
VERTEX
  5
2B4
330
2A9
100
AcDbEntity
  8
4
100
AcDbVertex
100
AcDb2dVertex
 10
48.08689335341478
 20
5.40360062807349
 30
0.0
  0
VERTEX
  5
2B5
330
2A9
100
AcDbEntity
  8
4
100
AcDbVertex
100
AcDb2dVertex
 10
48.07653976040455
 20
5.239422224623695
 30
0.0
  0
VERTEX
  5
2B6
330
2A9
100
AcDbEntity
  8
4
100
AcDbVertex
100
AcDb2dVertex
 10
48.02477179535253
 20
5.094471922478987
 30
0.0
  0
VERTEX
  5
2B7
330
2A9
100
AcDbEntity
  8
4
100
AcDbVertex
100
AcDb2dVertex
 10
47.95229664428006
 20
4.949521620334053
 30
0.0
  0
VERTEX
  5
2B8
330
2A9
100
AcDbEntity
  8
4
100
AcDbVertex
100
AcDb2dVertex
 10
47.84876071417693
 20
4.835632097220241
 30
0.0
  0
VERTEX
  5
2B9
330
2A9
100
AcDbEntity
  8
4
100
AcDbVertex
100
AcDb2dVertex
 10
47.72451759805244
 20
4.732096167116878
 30
0.0
  0
VERTEX
  5
2BA
330
2A9
100
AcDbEntity
  8
4
100
AcDbVertex
100
AcDb2dVertex
 10
47.58992088891818
 20
4.659621016044411
 30
0.0
  0
VERTEX
  5
2BB
330
2A9
100
AcDbEntity
  8
4
100
AcDbVertex
100
AcDb2dVertex
 10
47.43461699376303
 20
4.607853050992616
 30
0.0
  0
VERTEX
  5
2BC
330
2A9
100
AcDbEntity
  8
4
100
AcDbVertex
100
AcDb2dVertex
 10
47.27043859031346
 20
4.597499457982394
 30
0.0
  0
VERTEX
  5
2BD
330
2A9
100
AcDbEntity
  8
4
100
AcDbVertex
100
AcDb2dVertex
 10
25.40365015246834
 20
4.597499457982394
 30
0.0
  0
VERTEX
  5
2BE
330
2A9
100
AcDbEntity
  8
4
100
AcDbVertex
100
AcDb2dVertex
 10
25.23947174901878
 20
4.607853050992616
 30
0.0
  0
VERTEX
  5
2BF
330
2A9
100
AcDbEntity
  8
4
100
AcDbVertex
100
AcDb2dVertex
 10
25.09452144687384
 20
4.659621016044411
 30
0.0
  0
VERTEX
  5
2C0
330
2A9
100
AcDbEntity
  8
4
100
AcDbVertex
100
AcDb2dVertex
 10
24.94957114472891
 20
4.732096167116878
 30
0.0
  0
VERTEX
  5
2C1
330
2A9
100
AcDbEntity
  8
4
100
AcDbVertex
100
AcDb2dVertex
 10
24.83568162161555
 20
4.835632097220241
 30
0.0
  0
VERTEX
  5
2C2
330
2A9
100
AcDbEntity
  8
4
100
AcDbVertex
100
AcDb2dVertex
 10
24.73214569151151
 20
4.949521620334053
 30
0.0
  0
VERTEX
  5
2C3
330
2A9
100
AcDbEntity
  8
4
100
AcDbVertex
100
AcDb2dVertex
 10
24.65967054043904
 20
5.094471922478987
 30
0.0
  0
VERTEX
  5
2C4
330
2A9
100
AcDbEntity
  8
4
100
AcDbVertex
100
AcDb2dVertex
 10
24.60790257538793
 20
5.239422224623695
 30
0.0
  0
VERTEX
  5
2C5
330
2A9
100
AcDbEntity
  8
4
100
AcDbVertex
100
AcDb2dVertex
 10
24.58719538936657
 20
5.40360062807349
 30
0.0
  0
VERTEX
  5
2C6
330
2A9
100
AcDbEntity
  8
4
100
AcDbVertex
100
AcDb2dVertex
 10
24.58719538936657
 20
12.53130987333679
 30
0.0
  0
VERTEX
  5
2C7
330
2A9
100
AcDbEntity
  8
4
100
AcDbVertex
100
AcDb2dVertex
 10
24.60790257538793
 20
12.69548827678659
 30
0.0
  0
VERTEX
  5
2C8
330
2A9
100
AcDbEntity
  8
4
100
AcDbVertex
100
AcDb2dVertex
 10
24.65967054043904
 20
12.85079217194175
 30
0.0
  0
VERTEX
  5
2C9
330
2A9
100
AcDbEntity
  8
4
100
AcDbVertex
100
AcDb2dVertex
 10
24.73214569151151
 20
12.98538888107623
 30
0.0
  0
VERTEX
  5
2CA
330
2A9
100
AcDbEntity
  8
4
100
AcDbVertex
100
AcDb2dVertex
 10
24.83568162161555
 20
13.10963199720027
 30
0.0
  0
VERTEX
  5
2CB
330
2A9
100
AcDbEntity
  8
4
100
AcDbVertex
100
AcDb2dVertex
 10
24.94957114472891
 20
13.20281433429341
 30
0.0
  0
VERTEX
  5
2CC
330
2A9
100
AcDbEntity
  8
4
100
AcDbVertex
100
AcDb2dVertex
 10
25.09452144687384
 20
13.28564307837609
 30
0.0
  0
VERTEX
  5
2CD
330
2A9
100
AcDbEntity
  8
4
100
AcDbVertex
100
AcDb2dVertex
 10
25.23947174901878
 20
13.32705745041767
 30
0.0
  0
VERTEX
  5
2CE
330
2A9
100
AcDbEntity
  8
4
100
AcDbVertex
100
AcDb2dVertex
 10
25.40365015246834
 20
13.34776463643811
 30
0.0
  0
VERTEX
  5
2CF
330
2A9
100
AcDbEntity
  8
4
100
AcDbVertex
100
AcDb2dVertex
 10
25.40365015246834
 20
13.34776463643811
 30
0.0
  0
SEQEND
  5
2D0
330
2A9
100
AcDbEntity
  8
4
  0
POLYLINE
  5
2D1
330
264
100
AcDbEntity
  8
4
100
AcDb2dPolyline
 66
     1
 10
0.0
 20
0.0
 30
0.0
  0
VERTEX
  5
2D2
330
2D1
100
AcDbEntity
  8
4
100
AcDbVertex
100
AcDb2dVertex
 10
47.27043859031346
 20
13.44982148182589
 30
0.0
  0
VERTEX
  5
2D3
330
2D1
100
AcDbEntity
  8
4
100
AcDbVertex
100
AcDb2dVertex
 10
25.40365015246834
 20
13.44982148182589
 30
0.0
  0
VERTEX
  5
2D4
330
2D1
100
AcDbEntity
  8
4
100
AcDbVertex
100
AcDb2dVertex
 10
25.40365015246834
 20
13.24570779105056
 30
0.0
  0
VERTEX
  5
2D5
330
2D1
100
AcDbEntity
  8
4
100
AcDbVertex
100
AcDb2dVertex
 10
47.27043859031346
 20
13.24570779105056
 30
0.0
  0
VERTEX
  5
2D6
330
2D1
100
AcDbEntity
  8
4
100
AcDbVertex
100
AcDb2dVertex
 10
47.27043859031346
 20
13.44982148182589
 30
0.0
  0
VERTEX
  5
2D7
330
2D1
100
AcDbEntity
  8
4
100
AcDbVertex
100
AcDb2dVertex
 10
47.27043859031346
 20
13.44982148182589
 30
0.0
  0
SEQEND
  5
2D8
330
2D1
100
AcDbEntity
  8
4
  0
POLYLINE
  5
2D9
330
264
100
AcDbEntity
  8
4
100
AcDb2dPolyline
 66
     1
 10
0.0
 20
0.0
 30
0.0
  0
VERTEX
  5
2DA
330
2D9
100
AcDbEntity
  8
4
100
AcDbVertex
100
AcDb2dVertex
 10
25.40365015246834
 20
4.495442612594615
 30
0.0
  0
VERTEX
  5
2DB
330
2D9
100
AcDbEntity
  8
4
100
AcDbVertex
100
AcDb2dVertex
 10
47.27043859031346
 20
4.495442612594615
 30
0.0
  0
VERTEX
  5
2DC
330
2D9
100
AcDbEntity
  8
4
100
AcDbVertex
100
AcDb2dVertex
 10
47.27043859031346
 20
4.699556303370172
 30
0.0
  0
VERTEX
  5
2DD
330
2D9
100
AcDbEntity
  8
4
100
AcDbVertex
100
AcDb2dVertex
 10
25.40365015246834
 20
4.699556303370172
 30
0.0
  0
VERTEX
  5
2DE
330
2D9
100
AcDbEntity
  8
4
100
AcDbVertex
100
AcDb2dVertex
 10
25.40365015246834
 20
4.495442612594615
 30
0.0
  0
VERTEX
  5
2DF
330
2D9
100
AcDbEntity
  8
4
100
AcDbVertex
100
AcDb2dVertex
 10
25.40365015246834
 20
4.495442612594615
 30
0.0
  0
SEQEND
  5
2E0
330
2D9
100
AcDbEntity
  8
4
  0
TEXT
  5
2E1
330
264
100
AcDbEntity
  8
6
100
AcDbText
 10
21.86595678836766
 20
-4.265889494967723
 30
0.0
 40
3.0
  1
D- 59227 Ahlen
 72
     1
 11
35.72556381417053
 21
-4.265889494967723
 31
0.0
100
AcDbText
  0
TEXT
  5
2E2
330
264
100
AcDbEntity
  8
6
100
AcDbText
 10
8.879540566465085
 20
-0.0569949581513356
 30
0.0
 40
3.0
  1
Reflex Winkelmann GmbH+Co.KG
 41
0.95
 72
     1
 11
35.67666556646509
 21
-0.0569949581513356
 31
0.0
100
AcDbText
  0
TEXT
  5
2E3
330
264
100
AcDbEntity
  8
DN50-0
100
AcDbText
 10
-53.02024164343584
 20
-11.7514818916336
 30
0.0
 40
5.0
  1
50 l - 10 bar
100
AcDbText
  0
TEXT
  5
2E5
330
264
100
AcDbEntity
  8
0
100
AcDbText
 10
-70.18422903212922
 20
7.248518108366397
 30
0.0
 40
5.0
  1
Druckausdehnungsgefäß
100
AcDbText
  0
TEXT
  5
2E6
330
264
100
AcDbEntity
  8
0
100
AcDbText
 10
-45.54459962157579
 20
-2.251481891633602
 30
0.0
 40
5.0
  1
reflex S
100
AcDbText
  0
POLYLINE
  5
2E7
330
264
100
AcDbEntity
  8
4
100
AcDb2dPolyline
 66
     1
 10
0.0
 20
0.0
 30
0.0
  0
VERTEX
  5
2E8
330
2E7
100
AcDbEntity
  8
4
100
AcDbVertex
100
AcDb2dVertex
 10
25.40365015246834
 20
13.44982148182589
 30
0.0
  0
VERTEX
  5
2E9
330
2E7
100
AcDbEntity
  8
4
100
AcDbVertex
100
AcDb2dVertex
 10
25.35779852627957
 20
13.44834239711008
 30
0.0
  0
VERTEX
  5
2EA
330
2E7
100
AcDbEntity
  8
4
100
AcDbVertex
100
AcDb2dVertex
 10
25.31194690009125
 20
13.44390514296287
 30
0.0
  0
VERTEX
  5
2EB
330
2E7
100
AcDbEntity
  8
4
100
AcDbVertex
100
AcDb2dVertex
 10
25.26609527390247
 20
13.43798880409986
 30
0.0
  0
VERTEX
  5
2EC
330
2E7
100
AcDbEntity
  8
4
100
AcDbVertex
100
AcDb2dVertex
 10
25.22024364771369
 20
13.43059338052103
 30
0.0
  0
VERTEX
  5
2ED
330
2E7
100
AcDbEntity
  8
4
100
AcDbVertex
100
AcDb2dVertex
 10
25.17587110624072
 20
13.42023978751058
 30
0.0
  0
VERTEX
  5
2EE
330
2E7
100
AcDbEntity
  8
4
100
AcDbVertex
100
AcDb2dVertex
 10
25.13297764948357
 20
13.40692802506874
 30
0.0
  0
VERTEX
  5
2EF
330
2E7
100
AcDbEntity
  8
4
100
AcDbVertex
100
AcDb2dVertex
 10
25.09008419272641
 20
13.39213717791108
 30
0.0
  0
VERTEX
  5
2F0
330
2E7
100
AcDbEntity
  8
4
100
AcDbVertex
100
AcDb2dVertex
 10
25.04866982068506
 20
13.37586724603761
 30
0.0
  0
VERTEX
  5
2F1
330
2E7
100
AcDbEntity
  8
4
100
AcDbVertex
100
AcDb2dVertex
 10
25.00873453335953
 20
13.35811822944856
 30
0.0
  0
VERTEX
  5
2F2
330
2E7
100
AcDbEntity
  8
4
100
AcDbVertex
100
AcDb2dVertex
 10
24.968799246034
 20
13.33741104342789
 30
0.0
  0
VERTEX
  5
2F3
330
2E7
100
AcDbEntity
  8
4
100
AcDbVertex
100
AcDb2dVertex
 10
24.93034304342382
 20
13.31522477269141
 30
0.0
  0
VERTEX
  5
2F4
330
2E7
100
AcDbEntity
  8
4
100
AcDbVertex
100
AcDb2dVertex
 10
24.89336592552991
 20
13.29008033252353
 30
0.0
  0
VERTEX
  5
2F5
330
2E7
100
AcDbEntity
  8
4
100
AcDbVertex
100
AcDb2dVertex
 10
24.85786789235135
 20
13.26493589235542
 30
0.0
  0
VERTEX
  5
2F6
330
2E7
100
AcDbEntity
  8
4
100
AcDbVertex
100
AcDb2dVertex
 10
24.82236985917325
 20
13.23683328275592
 30
0.0
  0
VERTEX
  5
2F7
330
2E7
100
AcDbEntity
  8
4
100
AcDbVertex
100
AcDb2dVertex
 10
24.78835091071051
 20
13.20873067315642
 30
0.0
  0
VERTEX
  5
2F8
330
2E7
100
AcDbEntity
  8
4
100
AcDbVertex
100
AcDb2dVertex
 10
24.75729013167984
 20
13.17766989412553
 30
0.0
  0
VERTEX
  5
2F9
330
2E7
100
AcDbEntity
  8
4
100
AcDbVertex
100
AcDb2dVertex
 10
24.72622935264872
 20
13.14513003037859
 30
0.0
  0
VERTEX
  5
2FA
330
2E7
100
AcDbEntity
  8
4
100
AcDbVertex
100
AcDb2dVertex
 10
24.69812674304922
 20
13.11259016663189
 30
0.0
  0
VERTEX
  5
2FB
330
2E7
100
AcDbEntity
  8
4
100
AcDbVertex
100
AcDb2dVertex
 10
24.67002413344971
 20
13.07709213345356
 30
0.0
  0
VERTEX
  5
2FC
330
2E7
100
AcDbEntity
  8
4
100
AcDbVertex
100
AcDb2dVertex
 10
24.64487969328184
 20
13.04159410027523
 30
0.0
  0
VERTEX
  5
2FD
330
2E7
100
AcDbEntity
  8
4
100
AcDbVertex
100
AcDb2dVertex
 10
24.6197352531135
 20
13.00461698238109
 30
0.0
  0
VERTEX
  5
2FE
330
2E7
100
AcDbEntity
  8
4
100
AcDbVertex
100
AcDb2dVertex
 10
24.59754898237725
 20
12.96616077977137
 30
0.0
  0
VERTEX
  5
2FF
330
2E7
100
AcDbEntity
  8
4
100
AcDbVertex
100
AcDb2dVertex
 10
24.57684179635635
 20
12.92622549244561
 30
0.0
  0
VERTEX
  5
300
330
2E7
100
AcDbEntity
  8
4
100
AcDbVertex
100
AcDb2dVertex
 10
24.55909277976753
 20
12.88629020512007
 30
0.0
  0
VERTEX
  5
301
330
2E7
100
AcDbEntity
  8
4
100
AcDbVertex
100
AcDb2dVertex
 10
24.54282284789406
 20
12.84487583307873
 30
0.0
  0
VERTEX
  5
302
330
2E7
100
AcDbEntity
  8
4
100
AcDbVertex
100
AcDb2dVertex
 10
24.52803200073641
 20
12.80198237632157
 30
0.0
  0
VERTEX
  5
303
330
2E7
100
AcDbEntity
  8
4
100
AcDbVertex
100
AcDb2dVertex
 10
24.51472023829456
 20
12.75908891956442
 30
0.0
  0
VERTEX
  5
304
330
2E7
100
AcDbEntity
  8
4
100
AcDbVertex
100
AcDb2dVertex
 10
24.50436664528388
 20
12.71471637809145
 30
0.0
  0
VERTEX
  5
305
330
2E7
100
AcDbEntity
  8
4
100
AcDbVertex
100
AcDb2dVertex
 10
24.49697122170528
 20
12.6688647519029
 30
0.0
  0
VERTEX
  5
306
330
2E7
100
AcDbEntity
  8
4
100
AcDbVertex
100
AcDb2dVertex
 10
24.49105488284204
 20
12.62301312571435
 30
0.0
  0
VERTEX
  5
307
330
2E7
100
AcDbEntity
  8
4
100
AcDbVertex
100
AcDb2dVertex
 10
24.48661762869506
 20
12.57716149952557
 30
0.0
  0
VERTEX
  5
308
330
2E7
100
AcDbEntity
  8
4
100
AcDbVertex
100
AcDb2dVertex
 10
24.48513854397925
 20
12.53130987333679
 30
0.0
  0
VERTEX
  5
309
330
2E7
100
AcDbEntity
  8
4
100
AcDbVertex
100
AcDb2dVertex
 10
24.68925223475435
 20
12.53130987333679
 30
0.0
  0
VERTEX
  5
30A
330
2E7
100
AcDbEntity
  8
4
100
AcDbVertex
100
AcDb2dVertex
 10
24.68925223475435
 20
12.56680790651512
 30
0.0
  0
VERTEX
  5
30B
330
2E7
100
AcDbEntity
  8
4
100
AcDbVertex
100
AcDb2dVertex
 10
24.69221040418597
 20
12.60230593969345
 30
0.0
  0
VERTEX
  5
30C
330
2E7
100
AcDbEntity
  8
4
100
AcDbVertex
100
AcDb2dVertex
 10
24.69664765833341
 20
12.63780397287178
 30
0.0
  0
VERTEX
  5
30D
330
2E7
100
AcDbEntity
  8
4
100
AcDbVertex
100
AcDb2dVertex
 10
24.70404308191246
 20
12.67330200605011
 30
0.0
  0
VERTEX
  5
30E
330
2E7
100
AcDbEntity
  8
4
100
AcDbVertex
100
AcDb2dVertex
 10
24.71143850549106
 20
12.70732095451285
 30
0.0
  0
VERTEX
  5
30F
330
2E7
100
AcDbEntity
  8
4
100
AcDbVertex
100
AcDb2dVertex
 10
24.72179209850128
 20
12.73986081825956
 30
0.0
  0
VERTEX
  5
310
330
2E7
100
AcDbEntity
  8
4
100
AcDbVertex
100
AcDb2dVertex
 10
24.73214569151151
 20
12.77387976672207
 30
0.0
  0
VERTEX
  5
311
330
2E7
100
AcDbEntity
  8
4
100
AcDbVertex
100
AcDb2dVertex
 10
24.74545745395335
 20
12.80641963046878
 30
0.0
  0
VERTEX
  5
312
330
2E7
100
AcDbEntity
  8
4
100
AcDbVertex
100
AcDb2dVertex
 10
24.76024830111146
 20
12.8374804094999
 30
0.0
  0
VERTEX
  5
313
330
2E7
100
AcDbEntity
  8
4
100
AcDbVertex
100
AcDb2dVertex
 10
24.77651823298493
 20
12.8685411885308
 30
0.0
  0
VERTEX
  5
314
330
2E7
100
AcDbEntity
  8
4
100
AcDbVertex
100
AcDb2dVertex
 10
24.79426724957375
 20
12.89812288284611
 30
0.0
  0
VERTEX
  5
315
330
2E7
100
AcDbEntity
  8
4
100
AcDbVertex
100
AcDb2dVertex
 10
24.81201626616303
 20
12.92770457716142
 30
0.0
  0
VERTEX
  5
316
330
2E7
100
AcDbEntity
  8
4
100
AcDbVertex
100
AcDb2dVertex
 10
24.83272345218393
 20
12.95580718676092
 30
0.0
  0
VERTEX
  5
317
330
2E7
100
AcDbEntity
  8
4
100
AcDbVertex
100
AcDb2dVertex
 10
24.85343063820437
 20
12.98243071164461
 30
0.0
  0
VERTEX
  5
318
330
2E7
100
AcDbEntity
  8
4
100
AcDbVertex
100
AcDb2dVertex
 10
24.87709599365644
 20
13.0090542365283
 30
0.0
  0
VERTEX
  5
319
330
2E7
100
AcDbEntity
  8
4
100
AcDbVertex
100
AcDb2dVertex
 10
24.90076134910851
 20
13.0341986766964
 30
0.0
  0
VERTEX
  5
31A
330
2E7
100
AcDbEntity
  8
4
100
AcDbVertex
100
AcDb2dVertex
 10
24.92590578927684
 20
13.0578640321487
 30
0.0
  0
VERTEX
  5
31B
330
2E7
100
AcDbEntity
  8
4
100
AcDbVertex
100
AcDb2dVertex
 10
24.95252931416053
 20
13.08005030288496
 30
0.0
  0
VERTEX
  5
31C
330
2E7
100
AcDbEntity
  8
4
100
AcDbVertex
100
AcDb2dVertex
 10
24.97915283904422
 20
13.10223657362167
 30
0.0
  0
VERTEX
  5
31D
330
2E7
100
AcDbEntity
  8
4
100
AcDbVertex
100
AcDb2dVertex
 10
25.00725544864372
 20
13.12294375964211
 30
0.0
  0
VERTEX
  5
31E
330
2E7
100
AcDbEntity
  8
4
100
AcDbVertex
100
AcDb2dVertex
 10
25.03683714295903
 20
13.14069277623139
 30
0.0
  0
VERTEX
  5
31F
330
2E7
100
AcDbEntity
  8
4
100
AcDbVertex
100
AcDb2dVertex
 10
25.06641883727389
 20
13.15844179282066
 30
0.0
  0
VERTEX
  5
320
330
2E7
100
AcDbEntity
  8
4
100
AcDbVertex
100
AcDb2dVertex
 10
25.09747961630547
 20
13.17471172469391
 30
0.0
  0
VERTEX
  5
321
330
2E7
100
AcDbEntity
  8
4
100
AcDbVertex
100
AcDb2dVertex
 10
25.12854039533613
 20
13.18950257185156
 30
0.0
  0
VERTEX
  5
322
330
2E7
100
AcDbEntity
  8
4
100
AcDbVertex
100
AcDb2dVertex
 10
25.16108025908307
 20
13.20133524957759
 30
0.0
  0
VERTEX
  5
323
330
2E7
100
AcDbEntity
  8
4
100
AcDbVertex
100
AcDb2dVertex
 10
25.19362012283
 20
13.21316792730385
 30
0.0
  0
VERTEX
  5
324
330
2E7
100
AcDbEntity
  8
4
100
AcDbVertex
100
AcDb2dVertex
 10
25.22763907129229
 20
13.22352152031408
 30
0.0
  0
VERTEX
  5
325
330
2E7
100
AcDbEntity
  8
4
100
AcDbVertex
100
AcDb2dVertex
 10
25.26165801975503
 20
13.2309169438929
 30
0.0
  0
VERTEX
  5
326
330
2E7
100
AcDbEntity
  8
4
100
AcDbVertex
100
AcDb2dVertex
 10
25.29715605293314
 20
13.23831236747173
 30
0.0
  0
VERTEX
  5
327
330
2E7
100
AcDbEntity
  8
4
100
AcDbVertex
100
AcDb2dVertex
 10
25.33265408611169
 20
13.24274962161917
 30
0.0
  0
VERTEX
  5
328
330
2E7
100
AcDbEntity
  8
4
100
AcDbVertex
100
AcDb2dVertex
 10
25.36815211929024
 20
13.24570779105056
 30
0.0
  0
VERTEX
  5
329
330
2E7
100
AcDbEntity
  8
4
100
AcDbVertex
100
AcDb2dVertex
 10
25.40365015246834
 20
13.24570779105056
 30
0.0
  0
VERTEX
  5
32A
330
2E7
100
AcDbEntity
  8
4
100
AcDbVertex
100
AcDb2dVertex
 10
25.40365015246834
 20
13.44982148182589
 30
0.0
  0
VERTEX
  5
32B
330
2E7
100
AcDbEntity
  8
4
100
AcDbVertex
100
AcDb2dVertex
 10
25.40365015246834
 20
13.44982148182589
 30
0.0
  0
SEQEND
  5
32C
330
2E7
100
AcDbEntity
  8
4
  0
POLYLINE
  5
32D
330
264
100
AcDbEntity
  8
4
100
AcDb2dPolyline
 66
     1
 10
0.0
 20
0.0
 30
0.0
  0
VERTEX
  5
32E
330
32D
100
AcDbEntity
  8
4
100
AcDbVertex
100
AcDb2dVertex
 10
28.4057089222265
 20
8.966232540514738
 30
0.0
  0
VERTEX
  5
32F
330
32D
100
AcDbEntity
  8
4
100
AcDbVertex
100
AcDb2dVertex
 10
28.43262826405317
 20
9.114288920562557
 30
0.0
  0
VERTEX
  5
330
330
32D
100
AcDbEntity
  8
4
100
AcDbVertex
100
AcDb2dVertex
 10
28.48646694770741
 20
9.221966287870145
 30
0.0
  0
VERTEX
  5
331
330
32D
100
AcDbEntity
  8
4
100
AcDbVertex
100
AcDb2dVertex
 10
28.56722497318788
 20
9.302724313351063
 30
0.0
  0
VERTEX
  5
332
330
32D
100
AcDbEntity
  8
4
100
AcDbVertex
100
AcDb2dVertex
 10
28.64798299866834
 20
9.370022667918192
 30
0.0
  0
VERTEX
  5
333
330
32D
100
AcDbEntity
  8
4
100
AcDbVertex
100
AcDb2dVertex
 10
28.80949904963017
 20
9.410401680658651
 30
0.0
  0
VERTEX
  5
334
330
32D
100
AcDbEntity
  8
4
100
AcDbVertex
100
AcDb2dVertex
 10
28.89025707511064
 20
9.423861351571986
 30
0.0
  0
VERTEX
  5
335
330
32D
100
AcDbEntity
  8
4
100
AcDbVertex
100
AcDb2dVertex
 10
29.03831345515846
 20
9.423861351571986
 30
0.0
  0
VERTEX
  5
336
330
32D
100
AcDbEntity
  8
4
100
AcDbVertex
100
AcDb2dVertex
 10
29.03831345515846
 20
10.53909122725758
 30
0.0
  0
VERTEX
  5
337
330
32D
100
AcDbEntity
  8
4
100
AcDbVertex
100
AcDb2dVertex
 10
28.55376530227477
 20
10.53909122725758
 30
0.0
  0
VERTEX
  5
338
330
32D
100
AcDbEntity
  8
4
100
AcDbVertex
100
AcDb2dVertex
 10
28.28457188400534
 20
10.52563155634402
 30
0.0
  0
VERTEX
  5
339
330
32D
100
AcDbEntity
  8
4
100
AcDbVertex
100
AcDb2dVertex
 10
28.05575747847706
 20
10.49871221451712
 30
0.0
  0
VERTEX
  5
33A
330
32D
100
AcDbEntity
  8
4
100
AcDbVertex
100
AcDb2dVertex
 10
27.86732208568856
 20
10.43141385995
 30
0.0
  0
VERTEX
  5
33B
330
32D
100
AcDbEntity
  8
4
100
AcDbVertex
100
AcDb2dVertex
 10
27.69234636381407
 20
10.36411550538264
 30
0.0
  0
VERTEX
  5
33C
330
32D
100
AcDbEntity
  8
4
100
AcDbVertex
100
AcDb2dVertex
 10
27.55967246480987
 20
10.26989780898861
 30
0.0
  0
VERTEX
  5
33D
330
32D
100
AcDbEntity
  8
4
100
AcDbVertex
100
AcDb2dVertex
 10
27.43853542658872
 20
10.17568011259436
 30
0.0
  0
VERTEX
  5
33E
330
32D
100
AcDbEntity
  8
4
100
AcDbVertex
100
AcDb2dVertex
 10
27.34431773019469
 20
10.06800274528677
 30
0.0
  0
VERTEX
  5
33F
330
32D
100
AcDbEntity
  8
4
100
AcDbVertex
100
AcDb2dVertex
 10
27.26355970471377
 20
9.960325377979188
 30
0.0
  0
VERTEX
  5
340
330
32D
100
AcDbEntity
  8
4
100
AcDbVertex
100
AcDb2dVertex
 10
27.1693420083202
 20
9.733433782581187
 30
0.0
  0
VERTEX
  5
341
330
32D
100
AcDbEntity
  8
4
100
AcDbVertex
100
AcDb2dVertex
 10
27.11550332466595
 20
9.544998389792908
 30
0.0
  0
VERTEX
  5
342
330
32D
100
AcDbEntity
  8
4
100
AcDbVertex
100
AcDb2dVertex
 10
27.10204365375285
 20
9.370022667918192
 30
0.0
  0
VERTEX
  5
343
330
32D
100
AcDbEntity
  8
4
100
AcDbVertex
100
AcDb2dVertex
 10
27.10204365375285
 20
6.289680838869571
 30
0.0
  0
VERTEX
  5
344
330
32D
100
AcDbEntity
  8
4
100
AcDbVertex
100
AcDb2dVertex
 10
28.4057089222265
 20
6.289680838869571
 30
0.0
  0
VERTEX
  5
345
330
32D
100
AcDbEntity
  8
4
100
AcDbVertex
100
AcDb2dVertex
 10
28.4057089222265
 20
8.966232540514738
 30
0.0
  0
VERTEX
  5
346
330
32D
100
AcDbEntity
  8
4
100
AcDbVertex
100
AcDb2dVertex
 10
28.4057089222265
 20
8.966232540514738
 30
0.0
  0
SEQEND
  5
347
330
32D
100
AcDbEntity
  8
4
  0
POLYLINE
  5
348
330
264
100
AcDbEntity
  8
4
100
AcDb2dPolyline
 66
     1
 10
0.0
 20
0.0
 30
0.0
  0
VERTEX
  5
349
330
348
100
AcDbEntity
  8
4
100
AcDbVertex
100
AcDb2dVertex
 10
24.48513854397925
 20
5.40360062807349
 30
0.0
  0
VERTEX
  5
34A
330
348
100
AcDbEntity
  8
4
100
AcDbVertex
100
AcDb2dVertex
 10
24.48661762869506
 20
5.357749001884712
 30
0.0
  0
VERTEX
  5
34B
330
348
100
AcDbEntity
  8
4
100
AcDbVertex
100
AcDb2dVertex
 10
24.49105488284204
 20
5.311897375695934
 30
0.0
  0
VERTEX
  5
34C
330
348
100
AcDbEntity
  8
4
100
AcDbVertex
100
AcDb2dVertex
 10
24.49697122170528
 20
5.266045749507384
 30
0.0
  0
VERTEX
  5
34D
330
348
100
AcDbEntity
  8
4
100
AcDbVertex
100
AcDb2dVertex
 10
24.50436664528388
 20
5.221673208034644
 30
0.0
  0
VERTEX
  5
34E
330
348
100
AcDbEntity
  8
4
100
AcDbVertex
100
AcDb2dVertex
 10
24.51472023829456
 20
5.177300666561677
 30
0.0
  0
VERTEX
  5
34F
330
348
100
AcDbEntity
  8
4
100
AcDbVertex
100
AcDb2dVertex
 10
24.52803200073641
 20
5.134407209804521
 30
0.0
  0
VERTEX
  5
350
330
348
100
AcDbEntity
  8
4
100
AcDbVertex
100
AcDb2dVertex
 10
24.54282284789406
 20
5.091513753047365
 30
0.0
  0
VERTEX
  5
351
330
348
100
AcDbEntity
  8
4
100
AcDbVertex
100
AcDb2dVertex
 10
24.55909277976753
 20
5.05009938100602
 30
0.0
  0
VERTEX
  5
352
330
348
100
AcDbEntity
  8
4
100
AcDbVertex
100
AcDb2dVertex
 10
24.57832088107262
 20
5.010164093680486
 30
0.0
  0
VERTEX
  5
353
330
348
100
AcDbEntity
  8
4
100
AcDbVertex
100
AcDb2dVertex
 10
24.59902806709306
 20
4.970228806354725
 30
0.0
  0
VERTEX
  5
354
330
348
100
AcDbEntity
  8
4
100
AcDbVertex
100
AcDb2dVertex
 10
24.62121433782977
 20
4.933251688460586
 30
0.0
  0
VERTEX
  5
355
330
348
100
AcDbEntity
  8
4
100
AcDbVertex
100
AcDb2dVertex
 10
24.64487969328184
 20
4.896274570566674
 30
0.0
  0
VERTEX
  5
356
330
348
100
AcDbEntity
  8
4
100
AcDbVertex
100
AcDb2dVertex
 10
24.67002413344971
 20
4.860776537388119
 30
0.0
  0
VERTEX
  5
357
330
348
100
AcDbEntity
  8
4
100
AcDbVertex
100
AcDb2dVertex
 10
24.69812674304922
 20
4.826757588925829
 30
0.0
  0
VERTEX
  5
358
330
348
100
AcDbEntity
  8
4
100
AcDbVertex
100
AcDb2dVertex
 10
24.72770843736453
 20
4.792738640463085
 30
0.0
  0
VERTEX
  5
359
330
348
100
AcDbEntity
  8
4
100
AcDbVertex
100
AcDb2dVertex
 10
24.75729013167984
 20
4.76167786143219
 30
0.0
  0
VERTEX
  5
35A
330
348
100
AcDbEntity
  8
4
100
AcDbVertex
100
AcDb2dVertex
 10
24.78982999542677
 20
4.732096167116878
 30
0.0
  0
VERTEX
  5
35B
330
348
100
AcDbEntity
  8
4
100
AcDbVertex
100
AcDb2dVertex
 10
24.82384894388906
 20
4.702514472801567
 30
0.0
  0
VERTEX
  5
35C
330
348
100
AcDbEntity
  8
4
100
AcDbVertex
100
AcDb2dVertex
 10
24.85786789235135
 20
4.675890947917878
 30
0.0
  0
VERTEX
  5
35D
330
348
100
AcDbEntity
  8
4
100
AcDbVertex
100
AcDb2dVertex
 10
24.89336592552991
 20
4.650746507749772
 30
0.0
  0
VERTEX
  5
35E
330
348
100
AcDbEntity
  8
4
100
AcDbVertex
100
AcDb2dVertex
 10
24.93182212814009
 20
4.627081152297705
 30
0.0
  0
VERTEX
  5
35F
330
348
100
AcDbEntity
  8
4
100
AcDbVertex
100
AcDb2dVertex
 10
24.968799246034
 20
4.604894881561222
 30
0.0
  0
VERTEX
  5
360
330
348
100
AcDbEntity
  8
4
100
AcDbVertex
100
AcDb2dVertex
 10
25.00873453335953
 20
4.58566678025636
 30
0.0
  0
VERTEX
  5
361
330
348
100
AcDbEntity
  8
4
100
AcDbVertex
100
AcDb2dVertex
 10
25.05014890540087
 20
4.566438678951271
 30
0.0
  0
VERTEX
  5
362
330
348
100
AcDbEntity
  8
4
100
AcDbVertex
100
AcDb2dVertex
 10
25.09156327744222
 20
4.551647831793616
 30
0.0
  0
VERTEX
  5
363
330
348
100
AcDbEntity
  8
4
100
AcDbVertex
100
AcDb2dVertex
 10
25.13445673419937
 20
4.53685698463596
 30
0.0
  0
VERTEX
  5
364
330
348
100
AcDbEntity
  8
4
100
AcDbVertex
100
AcDb2dVertex
 10
25.17735019095653
 20
4.523545222194115
 30
0.0
  0
VERTEX
  5
365
330
348
100
AcDbEntity
  8
4
100
AcDbVertex
100
AcDb2dVertex
 10
25.22172273242905
 20
4.514670713899704
 30
0.0
  0
VERTEX
  5
366
330
348
100
AcDbEntity
  8
4
100
AcDbVertex
100
AcDb2dVertex
 10
25.26609527390247
 20
4.505796205605065
 30
0.0
  0
VERTEX
  5
367
330
348
100
AcDbEntity
  8
4
100
AcDbVertex
100
AcDb2dVertex
 10
25.31194690009125
 20
4.501358951457859
 30
0.0
  0
VERTEX
  5
368
330
348
100
AcDbEntity
  8
4
100
AcDbVertex
100
AcDb2dVertex
 10
25.35779852627957
 20
4.496921697310426
 30
0.0
  0
VERTEX
  5
369
330
348
100
AcDbEntity
  8
4
100
AcDbVertex
100
AcDb2dVertex
 10
25.40365015246834
 20
4.495442612594615
 30
0.0
  0
VERTEX
  5
36A
330
348
100
AcDbEntity
  8
4
100
AcDbVertex
100
AcDb2dVertex
 10
25.40365015246834
 20
4.699556303370172
 30
0.0
  0
VERTEX
  5
36B
330
348
100
AcDbEntity
  8
4
100
AcDbVertex
100
AcDb2dVertex
 10
25.36815211929024
 20
4.699556303370172
 30
0.0
  0
VERTEX
  5
36C
330
348
100
AcDbEntity
  8
4
100
AcDbVertex
100
AcDb2dVertex
 10
25.33117500139588
 20
4.702514472801567
 30
0.0
  0
VERTEX
  5
36D
330
348
100
AcDbEntity
  8
4
100
AcDbVertex
100
AcDb2dVertex
 10
25.29567696821778
 20
4.706951726948773
 30
0.0
  0
VERTEX
  5
36E
330
348
100
AcDbEntity
  8
4
100
AcDbVertex
100
AcDb2dVertex
 10
25.26165801975503
 20
4.712868065812017
 30
0.0
  0
VERTEX
  5
36F
330
348
100
AcDbEntity
  8
4
100
AcDbVertex
100
AcDb2dVertex
 10
25.22763907129229
 20
4.721742574106428
 30
0.0
  0
VERTEX
  5
370
330
348
100
AcDbEntity
  8
4
100
AcDbVertex
100
AcDb2dVertex
 10
25.19362012283
 20
4.730617082401067
 30
0.0
  0
VERTEX
  5
371
330
348
100
AcDbEntity
  8
4
100
AcDbVertex
100
AcDb2dVertex
 10
25.16108025908307
 20
4.742449760127328
 30
0.0
  0
VERTEX
  5
372
330
348
100
AcDbEntity
  8
4
100
AcDbVertex
100
AcDb2dVertex
 10
25.12854039533613
 20
4.754282437853362
 30
0.0
  0
VERTEX
  5
373
330
348
100
AcDbEntity
  8
4
100
AcDbVertex
100
AcDb2dVertex
 10
25.0960005315892
 20
4.769073285011018
 30
0.0
  0
VERTEX
  5
374
330
348
100
AcDbEntity
  8
4
100
AcDbVertex
100
AcDb2dVertex
 10
25.06641883727389
 20
4.783864132168673
 30
0.0
  0
VERTEX
  5
375
330
348
100
AcDbEntity
  8
4
100
AcDbVertex
100
AcDb2dVertex
 10
25.03535805824322
 20
4.801613148757724
 30
0.0
  0
VERTEX
  5
376
330
348
100
AcDbEntity
  8
4
100
AcDbVertex
100
AcDb2dVertex
 10
25.00725544864372
 20
4.820841250062585
 30
0.0
  0
VERTEX
  5
377
330
348
100
AcDbEntity
  8
4
100
AcDbVertex
100
AcDb2dVertex
 10
24.97767375432841
 20
4.840069351367674
 30
0.0
  0
VERTEX
  5
378
330
348
100
AcDbEntity
  8
4
100
AcDbVertex
100
AcDb2dVertex
 10
24.95105022944472
 20
4.860776537388119
 30
0.0
  0
VERTEX
  5
379
330
348
100
AcDbEntity
  8
4
100
AcDbVertex
100
AcDb2dVertex
 10
24.92442670456057
 20
4.88296280812483
 30
0.0
  0
VERTEX
  5
37A
330
348
100
AcDbEntity
  8
4
100
AcDbVertex
100
AcDb2dVertex
 10
24.90076134910851
 20
4.906628163576897
 30
0.0
  0
VERTEX
  5
37B
330
348
100
AcDbEntity
  8
4
100
AcDbVertex
100
AcDb2dVertex
 10
24.87561690894108
 20
4.931772603744775
 30
0.0
  0
VERTEX
  5
37C
330
348
100
AcDbEntity
  8
4
100
AcDbVertex
100
AcDb2dVertex
 10
24.85343063820437
 20
4.956917043912881
 30
0.0
  0
VERTEX
  5
37D
330
348
100
AcDbEntity
  8
4
100
AcDbVertex
100
AcDb2dVertex
 10
24.83272345218393
 20
4.98354056879657
 30
0.0
  0
VERTEX
  5
37E
330
348
100
AcDbEntity
  8
4
100
AcDbVertex
100
AcDb2dVertex
 10
24.81201626616303
 20
5.01164317839607
 30
0.0
  0
VERTEX
  5
37F
330
348
100
AcDbEntity
  8
4
100
AcDbVertex
100
AcDb2dVertex
 10
24.7927881648584
 20
5.03974578799557
 30
0.0
  0
VERTEX
  5
380
330
348
100
AcDbEntity
  8
4
100
AcDbVertex
100
AcDb2dVertex
 10
24.77503914826866
 20
5.069327482310882
 30
0.0
  0
VERTEX
  5
381
330
348
100
AcDbEntity
  8
4
100
AcDbVertex
100
AcDb2dVertex
 10
24.76024830111146
 20
5.100388261341777
 30
0.0
  0
VERTEX
  5
382
330
348
100
AcDbEntity
  8
4
100
AcDbVertex
100
AcDb2dVertex
 10
24.74545745395335
 20
5.129969955657088
 30
0.0
  0
VERTEX
  5
383
330
348
100
AcDbEntity
  8
4
100
AcDbVertex
100
AcDb2dVertex
 10
24.73214569151151
 20
5.162509819404021
 30
0.0
  0
VERTEX
  5
384
330
348
100
AcDbEntity
  8
4
100
AcDbVertex
100
AcDb2dVertex
 10
24.72031301378593
 20
5.195049683150728
 30
0.0
  0
VERTEX
  5
385
330
348
100
AcDbEntity
  8
4
100
AcDbVertex
100
AcDb2dVertex
 10
24.71143850549106
 20
5.229068631613245
 30
0.0
  0
VERTEX
  5
386
330
348
100
AcDbEntity
  8
4
100
AcDbVertex
100
AcDb2dVertex
 10
24.70404308191246
 20
5.263087580075989
 30
0.0
  0
VERTEX
  5
387
330
348
100
AcDbEntity
  8
4
100
AcDbVertex
100
AcDb2dVertex
 10
24.69664765833341
 20
5.297106528538506
 30
0.0
  0
VERTEX
  5
388
330
348
100
AcDbEntity
  8
4
100
AcDbVertex
100
AcDb2dVertex
 10
24.69221040418597
 20
5.332604561716834
 30
0.0
  0
VERTEX
  5
389
330
348
100
AcDbEntity
  8
4
100
AcDbVertex
100
AcDb2dVertex
 10
24.68925223475435
 20
5.368102594894935
 30
0.0
  0
VERTEX
  5
38A
330
348
100
AcDbEntity
  8
4
100
AcDbVertex
100
AcDb2dVertex
 10
24.68925223475435
 20
5.40360062807349
 30
0.0
  0
VERTEX
  5
38B
330
348
100
AcDbEntity
  8
4
100
AcDbVertex
100
AcDb2dVertex
 10
24.48513854397925
 20
5.40360062807349
 30
0.0
  0
VERTEX
  5
38C
330
348
100
AcDbEntity
  8
4
100
AcDbVertex
100
AcDb2dVertex
 10
24.48513854397925
 20
5.40360062807349
 30
0.0
  0
SEQEND
  5
38D
330
348
100
AcDbEntity
  8
4
  0
POLYLINE
  5
38E
330
264
100
AcDbEntity
  8
4
100
AcDb2dPolyline
 66
     1
 10
0.0
 20
0.0
 30
0.0
  0
VERTEX
  5
38F
330
38E
100
AcDbEntity
  8
4
100
AcDbVertex
100
AcDb2dVertex
 10
24.48513854397925
 20
12.53130987333679
 30
0.0
  0
VERTEX
  5
390
330
38E
100
AcDbEntity
  8
4
100
AcDbVertex
100
AcDb2dVertex
 10
24.48513854397925
 20
5.40360062807349
 30
0.0
  0
VERTEX
  5
391
330
38E
100
AcDbEntity
  8
4
100
AcDbVertex
100
AcDb2dVertex
 10
24.68925223475435
 20
5.40360062807349
 30
0.0
  0
VERTEX
  5
392
330
38E
100
AcDbEntity
  8
4
100
AcDbVertex
100
AcDb2dVertex
 10
24.68925223475435
 20
12.53130987333679
 30
0.0
  0
VERTEX
  5
393
330
38E
100
AcDbEntity
  8
4
100
AcDbVertex
100
AcDb2dVertex
 10
24.48513854397925
 20
12.53130987333679
 30
0.0
  0
VERTEX
  5
394
330
38E
100
AcDbEntity
  8
4
100
AcDbVertex
100
AcDb2dVertex
 10
24.48513854397925
 20
12.53130987333679
 30
0.0
  0
SEQEND
  5
395
330
38E
100
AcDbEntity
  8
4
  0
POLYLINE
  5
396
330
264
100
AcDbEntity
  8
4
100
AcDb2dPolyline
 66
     1
 10
0.0
 20
0.0
 30
0.0
  0
VERTEX
  5
397
330
396
100
AcDbEntity
  8
4
100
AcDbVertex
100
AcDb2dVertex
 10
41.91921851932693
 20
10.49871221451712
 30
0.0
  0
VERTEX
  5
398
330
396
100
AcDbEntity
  8
4
100
AcDbVertex
100
AcDb2dVertex
 10
43.20942411688702
 20
10.49871221451712
 30
0.0
  0
VERTEX
  5
399
330
396
100
AcDbEntity
  8
4
100
AcDbVertex
100
AcDb2dVertex
 10
43.20942411688702
 20
9.719974111667852
 30
0.0
  0
VERTEX
  5
39A
330
396
100
AcDbEntity
  8
4
100
AcDbVertex
100
AcDb2dVertex
 10
43.20942411688702
 20
9.639216086187161
 30
0.0
  0
VERTEX
  5
39B
330
396
100
AcDbEntity
  8
4
100
AcDbVertex
100
AcDb2dVertex
 10
43.24980312962725
 20
9.450780693398883
 30
0.0
  0
VERTEX
  5
39C
330
396
100
AcDbEntity
  8
4
100
AcDbVertex
100
AcDb2dVertex
 10
43.30364181328104
 20
9.343103326091295
 30
0.0
  0
VERTEX
  5
39D
330
396
100
AcDbEntity
  8
4
100
AcDbVertex
100
AcDb2dVertex
 10
43.38439983876196
 20
9.262345300610604
 30
0.0
  0
VERTEX
  5
39E
330
396
100
AcDbEntity
  8
4
100
AcDbVertex
100
AcDb2dVertex
 10
43.51899654789622
 20
9.195046946043476
 30
0.0
  0
VERTEX
  5
39F
330
396
100
AcDbEntity
  8
4
100
AcDbVertex
100
AcDb2dVertex
 10
43.6805125988576
 20
9.181587275129913
 30
0.0
  0
VERTEX
  5
3A0
330
396
100
AcDbEntity
  8
4
100
AcDbVertex
100
AcDb2dVertex
 10
43.84202864981898
 20
9.195046946043476
 30
0.0
  0
VERTEX
  5
3A1
330
396
100
AcDbEntity
  8
4
100
AcDbVertex
100
AcDb2dVertex
 10
43.97662535895324
 20
9.262345300610604
 30
0.0
  0
VERTEX
  5
3A2
330
396
100
AcDbEntity
  8
4
100
AcDbVertex
100
AcDb2dVertex
 10
44.07084305534772
 20
9.356562997004857
 30
0.0
  0
VERTEX
  5
3A3
330
396
100
AcDbEntity
  8
4
100
AcDbVertex
100
AcDb2dVertex
 10
44.12468173900106
 20
9.450780693398883
 30
0.0
  0
VERTEX
  5
3A4
330
396
100
AcDbEntity
  8
4
100
AcDbVertex
100
AcDb2dVertex
 10
44.17852042265531
 20
9.639216086187161
 30
0.0
  0
VERTEX
  5
3A5
330
396
100
AcDbEntity
  8
4
100
AcDbVertex
100
AcDb2dVertex
 10
44.19198009356842
 20
9.733433782581187
 30
0.0
  0
VERTEX
  5
3A6
330
396
100
AcDbEntity
  8
4
100
AcDbVertex
100
AcDb2dVertex
 10
44.19198009356842
 20
10.49871221451712
 30
0.0
  0
VERTEX
  5
3A7
330
396
100
AcDbEntity
  8
4
100
AcDbVertex
100
AcDb2dVertex
 10
45.45526634930229
 20
10.49871221451712
 30
0.0
  0
VERTEX
  5
3A8
330
396
100
AcDbEntity
  8
4
100
AcDbVertex
100
AcDb2dVertex
 10
45.45526634930229
 20
9.598837073446702
 30
0.0
  0
VERTEX
  5
3A9
330
396
100
AcDbEntity
  8
4
100
AcDbVertex
100
AcDb2dVertex
 10
45.45526634930229
 20
9.464240364312445
 30
0.0
  0
VERTEX
  5
3AA
330
396
100
AcDbEntity
  8
4
100
AcDbVertex
100
AcDb2dVertex
 10
45.40142766564804
 20
9.168127604216351
 30
0.0
  0
VERTEX
  5
3AB
330
396
100
AcDbEntity
  8
4
100
AcDbVertex
100
AcDb2dVertex
 10
45.33412931108069
 20
8.993151882341635
 30
0.0
  0
VERTEX
  5
3AC
330
396
100
AcDbEntity
  8
4
100
AcDbVertex
100
AcDb2dVertex
 10
45.2264519437731
 20
8.818176160466919
 30
0.0
  0
VERTEX
  5
3AD
330
396
100
AcDbEntity
  8
4
100
AcDbVertex
100
AcDb2dVertex
 10
45.09185523463929
 20
8.656660109505537
 30
0.0
  0
VERTEX
  5
3AE
330
396
100
AcDbEntity
  8
4
100
AcDbVertex
100
AcDb2dVertex
 10
44.9053426519813
 20
8.535523071284387
 30
0.0
  0
VERTEX
  5
3AF
330
396
100
AcDbEntity
  8
4
100
AcDbVertex
100
AcDb2dVertex
 10
44.99763753824481
 20
8.481684387630593
 30
0.0
  0
VERTEX
  5
3B0
330
396
100
AcDbEntity
  8
4
100
AcDbVertex
100
AcDb2dVertex
 10
45.1053149055524
 20
8.414386033063465
 30
0.0
  0
VERTEX
  5
3B1
330
396
100
AcDbEntity
  8
4
100
AcDbVertex
100
AcDb2dVertex
 10
45.21299227285999
 20
8.306708665755877
 30
0.0
  0
VERTEX
  5
3B2
330
396
100
AcDbEntity
  8
4
100
AcDbVertex
100
AcDb2dVertex
 10
45.33412931108069
 20
8.158652285708058
 30
0.0
  0
VERTEX
  5
3B3
330
396
100
AcDbEntity
  8
4
100
AcDbVertex
100
AcDb2dVertex
 10
45.42834700747516
 20
7.972139703050288
 30
0.0
  0
VERTEX
  5
3B4
330
396
100
AcDbEntity
  8
4
100
AcDbVertex
100
AcDb2dVertex
 10
45.50910503295563
 20
7.729865626608216
 30
0.0
  0
VERTEX
  5
3B5
330
396
100
AcDbEntity
  8
4
100
AcDbVertex
100
AcDb2dVertex
 10
45.53602437478275
 20
7.43375286651235
 30
0.0
  0
VERTEX
  5
3B6
330
396
100
AcDbEntity
  8
4
100
AcDbVertex
100
AcDb2dVertex
 10
45.53602437478275
 20
6.303140509782906
 30
0.0
  0
VERTEX
  5
3B7
330
396
100
AcDbEntity
  8
4
100
AcDbVertex
100
AcDb2dVertex
 10
44.20543976448198
 20
6.303140509782906
 30
0.0
  0
VERTEX
  5
3B8
330
396
100
AcDbEntity
  8
4
100
AcDbVertex
100
AcDb2dVertex
 10
44.20543976448198
 20
7.326075499204762
 30
0.0
  0
VERTEX
  5
3B9
330
396
100
AcDbEntity
  8
4
100
AcDbVertex
100
AcDb2dVertex
 10
44.20543976448198
 20
7.420293195599015
 30
0.0
  0
VERTEX
  5
3BA
330
396
100
AcDbEntity
  8
4
100
AcDbVertex
100
AcDb2dVertex
 10
44.19198009356842
 20
7.527970562906375
 30
0.0
  0
VERTEX
  5
3BB
330
396
100
AcDbEntity
  8
4
100
AcDbVertex
100
AcDb2dVertex
 10
44.16506075174129
 20
7.635647930213963
 30
0.0
  0
VERTEX
  5
3BC
330
396
100
AcDbEntity
  8
4
100
AcDbVertex
100
AcDb2dVertex
 10
44.11122206808795
 20
7.756784968435113
 30
0.0
  0
VERTEX
  5
3BD
330
396
100
AcDbEntity
  8
4
100
AcDbVertex
100
AcDb2dVertex
 10
44.03046404260749
 20
7.8644623357427
 30
0.0
  0
VERTEX
  5
3BE
330
396
100
AcDbEntity
  8
4
100
AcDbVertex
100
AcDb2dVertex
 10
43.89586733347278
 20
7.931760690310056
 30
0.0
  0
VERTEX
  5
3BF
330
396
100
AcDbEntity
  8
4
100
AcDbVertex
100
AcDb2dVertex
 10
43.72089161159784
 20
7.958680032136726
 30
0.0
  0
VERTEX
  5
3C0
330
396
100
AcDbEntity
  8
4
100
AcDbVertex
100
AcDb2dVertex
 10
43.53245621880978
 20
7.931760690310056
 30
0.0
  0
VERTEX
  5
3C1
330
396
100
AcDbEntity
  8
4
100
AcDbVertex
100
AcDb2dVertex
 10
43.39785950967507
 20
7.8644623357427
 30
0.0
  0
VERTEX
  5
3C2
330
396
100
AcDbEntity
  8
4
100
AcDbVertex
100
AcDb2dVertex
 10
43.30364181328104
 20
7.756784968435113
 30
0.0
  0
VERTEX
  5
3C3
330
396
100
AcDbEntity
  8
4
100
AcDbVertex
100
AcDb2dVertex
 10
43.23634345871414
 20
7.649107601127525
 30
0.0
  0
VERTEX
  5
3C4
330
396
100
AcDbEntity
  8
4
100
AcDbVertex
100
AcDb2dVertex
 10
43.20942411688702
 20
7.527970562906375
 30
0.0
  0
VERTEX
  5
3C5
330
396
100
AcDbEntity
  8
4
100
AcDbVertex
100
AcDb2dVertex
 10
43.19596444597391
 20
7.43375286651235
 30
0.0
  0
VERTEX
  5
3C6
330
396
100
AcDbEntity
  8
4
100
AcDbVertex
100
AcDb2dVertex
 10
43.1825047750599
 20
7.326075499204762
 30
0.0
  0
VERTEX
  5
3C7
330
396
100
AcDbEntity
  8
4
100
AcDbVertex
100
AcDb2dVertex
 10
43.1825047750599
 20
6.303140509782906
 30
0.0
  0
VERTEX
  5
3C8
330
396
100
AcDbEntity
  8
4
100
AcDbVertex
100
AcDb2dVertex
 10
41.83846049384601
 20
6.303140509782906
 30
0.0
  0
VERTEX
  5
3C9
330
396
100
AcDbEntity
  8
4
100
AcDbVertex
100
AcDb2dVertex
 10
41.83846049384601
 20
7.420293195599015
 30
0.0
  0
VERTEX
  5
3CA
330
396
100
AcDbEntity
  8
4
100
AcDbVertex
100
AcDb2dVertex
 10
41.85192016475958
 20
7.554889904733499
 30
0.0
  0
VERTEX
  5
3CB
330
396
100
AcDbEntity
  8
4
100
AcDbVertex
100
AcDb2dVertex
 10
41.87883950658624
 20
7.702946284781319
 30
0.0
  0
VERTEX
  5
3CC
330
396
100
AcDbEntity
  8
4
100
AcDbVertex
100
AcDb2dVertex
 10
41.93267819024003
 20
7.877922006656262
 30
0.0
  0
VERTEX
  5
3CD
330
396
100
AcDbEntity
  8
4
100
AcDbVertex
100
AcDb2dVertex
 10
41.99997654480739
 20
8.064434589313805
 30
0.0
  0
VERTEX
  5
3CE
330
396
100
AcDbEntity
  8
4
100
AcDbVertex
100
AcDb2dVertex
 10
42.12111358302808
 20
8.252869982102083
 30
0.0
  0
VERTEX
  5
3CF
330
396
100
AcDbEntity
  8
4
100
AcDbVertex
100
AcDb2dVertex
 10
42.26916996307591
 20
8.414386033063465
 30
0.0
  0
VERTEX
  5
3D0
330
396
100
AcDbEntity
  8
4
100
AcDbVertex
100
AcDb2dVertex
 10
42.36338765947039
 20
8.481684387630593
 30
0.0
  0
VERTEX
  5
3D1
330
396
100
AcDbEntity
  8
4
100
AcDbVertex
100
AcDb2dVertex
 10
42.48452469769108
 20
8.535523071284387
 30
0.0
  0
VERTEX
  5
3D2
330
396
100
AcDbEntity
  8
4
100
AcDbVertex
100
AcDb2dVertex
 10
42.39030700129752
 20
8.589361754938181
 30
0.0
  0
VERTEX
  5
3D3
330
396
100
AcDbEntity
  8
4
100
AcDbVertex
100
AcDb2dVertex
 10
42.3095489758166
 20
8.656660109505537
 30
0.0
  0
VERTEX
  5
3D4
330
396
100
AcDbEntity
  8
4
100
AcDbVertex
100
AcDb2dVertex
 10
42.201871608509
 20
8.764337476813125
 30
0.0
  0
VERTEX
  5
3D5
330
396
100
AcDbEntity
  8
4
100
AcDbVertex
100
AcDb2dVertex
 10
42.09419424120142
 20
8.898934185947609
 30
0.0
  0
VERTEX
  5
3D6
330
396
100
AcDbEntity
  8
4
100
AcDbVertex
100
AcDb2dVertex
 10
42.0134362157205
 20
9.087369578735888
 30
0.0
  0
VERTEX
  5
3D7
330
396
100
AcDbEntity
  8
4
100
AcDbVertex
100
AcDb2dVertex
 10
41.94613786115314
 20
9.302724313351063
 30
0.0
  0
VERTEX
  5
3D8
330
396
100
AcDbEntity
  8
4
100
AcDbVertex
100
AcDb2dVertex
 10
41.91921851932693
 20
9.585377402533367
 30
0.0
  0
VERTEX
  5
3D9
330
396
100
AcDbEntity
  8
4
100
AcDbVertex
100
AcDb2dVertex
 10
41.91921851932693
 20
10.49871221451712
 30
0.0
  0
VERTEX
  5
3DA
330
396
100
AcDbEntity
  8
4
100
AcDbVertex
100
AcDb2dVertex
 10
41.91921851932693
 20
10.49871221451712
 30
0.0
  0
SEQEND
  5
3DB
330
396
100
AcDbEntity
  8
4
  0
POLYLINE
  5
3DC
330
264
100
AcDbEntity
  8
4
100
AcDb2dPolyline
 66
     1
 10
0.0
 20
0.0
 30
0.0
  0
VERTEX
  5
3DD
330
3DC
100
AcDbEntity
  8
4
100
AcDbVertex
100
AcDb2dVertex
 10
30.3823577363728
 20
8.212490969361851
 30
0.0
  0
VERTEX
  5
3DE
330
3DC
100
AcDbEntity
  8
4
100
AcDbVertex
100
AcDb2dVertex
 10
31.68602300484645
 20
9.302724313351063
 30
0.0
  0
VERTEX
  5
3DF
330
3DC
100
AcDbEntity
  8
4
100
AcDbVertex
100
AcDb2dVertex
 10
31.59180530845242
 20
9.356562997004857
 30
0.0
  0
VERTEX
  5
3E0
330
3DC
100
AcDbEntity
  8
4
100
AcDbVertex
100
AcDb2dVertex
 10
31.48605075127489
 20
9.410401680658651
 30
0.0
  0
VERTEX
  5
3E1
330
3DC
100
AcDbEntity
  8
4
100
AcDbVertex
100
AcDb2dVertex
 10
31.33799437122707
 20
9.450780693398883
 30
0.0
  0
VERTEX
  5
3E2
330
3DC
100
AcDbEntity
  8
4
100
AcDbVertex
100
AcDb2dVertex
 10
31.17647832026614
 20
9.47770003522578
 30
0.0
  0
VERTEX
  5
3E3
330
3DC
100
AcDbEntity
  8
4
100
AcDbVertex
100
AcDb2dVertex
 10
30.98804292747764
 20
9.464240364312445
 30
0.0
  0
VERTEX
  5
3E4
330
3DC
100
AcDbEntity
  8
4
100
AcDbVertex
100
AcDb2dVertex
 10
30.78614786377602
 20
9.396942009745089
 30
0.0
  0
VERTEX
  5
3E5
330
3DC
100
AcDbEntity
  8
4
100
AcDbVertex
100
AcDb2dVertex
 10
30.59771247098797
 20
9.262345300610604
 30
0.0
  0
VERTEX
  5
3E6
330
3DC
100
AcDbEntity
  8
4
100
AcDbVertex
100
AcDb2dVertex
 10
30.43619642002614
 20
9.073909907822326
 30
0.0
  0
VERTEX
  5
3E7
330
3DC
100
AcDbEntity
  8
4
100
AcDbVertex
100
AcDb2dVertex
 10
30.34197872363256
 20
8.885474515034047
 30
0.0
  0
VERTEX
  5
3E8
330
3DC
100
AcDbEntity
  8
4
100
AcDbVertex
100
AcDb2dVertex
 10
30.30159971089188
 20
8.710498793159331
 30
0.0
  0
VERTEX
  5
3E9
330
3DC
100
AcDbEntity
  8
4
100
AcDbVertex
100
AcDb2dVertex
 10
30.28814003997832
 20
8.548982742197949
 30
0.0
  0
VERTEX
  5
3EA
330
3DC
100
AcDbEntity
  8
4
100
AcDbVertex
100
AcDb2dVertex
 10
30.31505938180544
 20
8.414386033063465
 30
0.0
  0
VERTEX
  5
3EB
330
3DC
100
AcDbEntity
  8
4
100
AcDbVertex
100
AcDb2dVertex
 10
30.34197872363256
 20
8.306708665755877
 30
0.0
  0
VERTEX
  5
3EC
330
3DC
100
AcDbEntity
  8
4
100
AcDbVertex
100
AcDb2dVertex
 10
30.3823577363728
 20
8.212490969361851
 30
0.0
  0
VERTEX
  5
3ED
330
3DC
100
AcDbEntity
  8
4
100
AcDbVertex
100
AcDb2dVertex
 10
30.3823577363728
 20
8.212490969361851
 30
0.0
  0
SEQEND
  5
3EE
330
3DC
100
AcDbEntity
  8
4
  0
POLYLINE
  5
3EF
330
264
100
AcDbEntity
  8
4
100
AcDb2dPolyline
 66
     1
 10
0.0
 20
0.0
 30
0.0
  0
VERTEX
  5
3F0
330
3EF
100
AcDbEntity
  8
4
100
AcDbVertex
100
AcDb2dVertex
 10
33.47423642620424
 20
6.303140509782906
 30
0.0
  0
VERTEX
  5
3F1
330
3EF
100
AcDbEntity
  8
4
100
AcDbVertex
100
AcDb2dVertex
 10
33.47423642620424
 20
10.94288135466104
 30
0.0
  0
VERTEX
  5
3F2
330
3EF
100
AcDbEntity
  8
4
100
AcDbVertex
100
AcDb2dVertex
 10
33.4876960971178
 20
11.11785707653575
 30
0.0
  0
VERTEX
  5
3F3
330
3EF
100
AcDbEntity
  8
4
100
AcDbVertex
100
AcDb2dVertex
 10
33.5415347807716
 20
11.31975214023737
 30
0.0
  0
VERTEX
  5
3F4
330
3EF
100
AcDbEntity
  8
4
100
AcDbVertex
100
AcDb2dVertex
 10
33.64921214807919
 20
11.53510687485254
 30
0.0
  0
VERTEX
  5
3F5
330
3EF
100
AcDbEntity
  8
4
100
AcDbVertex
100
AcDb2dVertex
 10
33.71651050264609
 20
11.64278424216013
 30
0.0
  0
VERTEX
  5
3F6
330
3EF
100
AcDbEntity
  8
4
100
AcDbVertex
100
AcDb2dVertex
 10
33.81072819904057
 20
11.75046160946772
 30
0.0
  0
VERTEX
  5
3F7
330
3EF
100
AcDbEntity
  8
4
100
AcDbVertex
100
AcDb2dVertex
 10
33.93186523726126
 20
11.84275649573123
 30
0.0
  0
VERTEX
  5
3F8
330
3EF
100
AcDbEntity
  8
4
100
AcDbVertex
100
AcDb2dVertex
 10
34.06646194639598
 20
11.93697419212549
 30
0.0
  0
VERTEX
  5
3F9
330
3EF
100
AcDbEntity
  8
4
100
AcDbVertex
100
AcDb2dVertex
 10
34.24143766827092
 20
12.00427254669262
 30
0.0
  0
VERTEX
  5
3FA
330
3EF
100
AcDbEntity
  8
4
100
AcDbVertex
100
AcDb2dVertex
 10
34.44333273197208
 20
12.07157090125974
 30
0.0
  0
VERTEX
  5
3FB
330
3EF
100
AcDbEntity
  8
4
100
AcDbVertex
100
AcDb2dVertex
 10
34.67214713750127
 20
12.1119499140002
 30
0.0
  0
VERTEX
  5
3FC
330
3EF
100
AcDbEntity
  8
4
100
AcDbVertex
100
AcDb2dVertex
 10
34.92788088485668
 20
12.12540958491354
 30
0.0
  0
VERTEX
  5
3FD
330
3EF
100
AcDbEntity
  8
4
100
AcDbVertex
100
AcDb2dVertex
 10
35.41050622761031
 20
12.12540958491354
 30
0.0
  0
VERTEX
  5
3FE
330
3EF
100
AcDbEntity
  8
4
100
AcDbVertex
100
AcDb2dVertex
 10
35.41050622761031
 20
11.09093773470886
 30
0.0
  0
VERTEX
  5
3FF
330
3EF
100
AcDbEntity
  8
4
100
AcDbVertex
100
AcDb2dVertex
 10
35.26437265769255
 20
11.09093773470886
 30
0.0
  0
VERTEX
  5
400
330
3EF
100
AcDbEntity
  8
4
100
AcDbVertex
100
AcDb2dVertex
 10
35.19707430312519
 20
11.0774780637953
 30
0.0
  0
VERTEX
  5
401
330
3EF
100
AcDbEntity
  8
4
100
AcDbVertex
100
AcDb2dVertex
 10
35.0220985812507
 20
11.03709905105506
 30
0.0
  0
VERTEX
  5
402
330
3EF
100
AcDbEntity
  8
4
100
AcDbVertex
100
AcDb2dVertex
 10
34.94134055576978
 20
10.96980069648771
 30
0.0
  0
VERTEX
  5
403
330
3EF
100
AcDbEntity
  8
4
100
AcDbVertex
100
AcDb2dVertex
 10
34.86058253028932
 20
10.88904267100724
 30
0.0
  0
VERTEX
  5
404
330
3EF
100
AcDbEntity
  8
4
100
AcDbVertex
100
AcDb2dVertex
 10
34.80674384663553
 20
10.78136530369966
 30
0.0
  0
VERTEX
  5
405
330
3EF
100
AcDbEntity
  8
4
100
AcDbVertex
100
AcDb2dVertex
 10
34.77982450480886
 20
10.63330892365161
 30
0.0
  0
VERTEX
  5
406
330
3EF
100
AcDbEntity
  8
4
100
AcDbVertex
100
AcDb2dVertex
 10
34.77982450480886
 20
10.18913978350792
 30
0.0
  0
VERTEX
  5
407
330
3EF
100
AcDbEntity
  8
4
100
AcDbVertex
100
AcDb2dVertex
 10
35.35859035408703
 20
10.18913978350792
 30
0.0
  0
VERTEX
  5
408
330
3EF
100
AcDbEntity
  8
4
100
AcDbVertex
100
AcDb2dVertex
 10
35.35859035408703
 20
9.181587275129913
 30
0.0
  0
VERTEX
  5
409
330
3EF
100
AcDbEntity
  8
4
100
AcDbVertex
100
AcDb2dVertex
 10
34.77982450480886
 20
9.181587275129913
 30
0.0
  0
VERTEX
  5
40A
330
3EF
100
AcDbEntity
  8
4
100
AcDbVertex
100
AcDb2dVertex
 10
34.77982450480886
 20
6.303140509782906
 30
0.0
  0
VERTEX
  5
40B
330
3EF
100
AcDbEntity
  8
4
100
AcDbVertex
100
AcDb2dVertex
 10
33.47423642620424
 20
6.303140509782906
 30
0.0
  0
VERTEX
  5
40C
330
3EF
100
AcDbEntity
  8
4
100
AcDbVertex
100
AcDb2dVertex
 10
33.47423642620424
 20
6.303140509782906
 30
0.0
  0
SEQEND
  5
40D
330
3EF
100
AcDbEntity
  8
4
  0
POLYLINE
  5
40E
330
264
100
AcDbEntity
  8
4
100
AcDb2dPolyline
 66
     1
 10
0.0
 20
0.0
 30
0.0
  0
VERTEX
  5
40F
330
40E
100
AcDbEntity
  8
4
100
AcDbVertex
100
AcDb2dVertex
 10
38.84079950040814
 20
8.212490969361851
 30
0.0
  0
VERTEX
  5
410
330
40E
100
AcDbEntity
  8
4
100
AcDbVertex
100
AcDb2dVertex
 10
40.14446476888224
 20
9.302724313351063
 30
0.0
  0
VERTEX
  5
411
330
40E
100
AcDbEntity
  8
4
100
AcDbVertex
100
AcDb2dVertex
 10
40.05024707248776
 20
9.356562997004857
 30
0.0
  0
VERTEX
  5
412
330
40E
100
AcDbEntity
  8
4
100
AcDbVertex
100
AcDb2dVertex
 10
39.94256970518018
 20
9.410401680658651
 30
0.0
  0
VERTEX
  5
413
330
40E
100
AcDbEntity
  8
4
100
AcDbVertex
100
AcDb2dVertex
 10
39.79451332513236
 20
9.450780693398883
 30
0.0
  0
VERTEX
  5
414
330
40E
100
AcDbEntity
  8
4
100
AcDbVertex
100
AcDb2dVertex
 10
39.63299727417143
 20
9.47770003522578
 30
0.0
  0
VERTEX
  5
415
330
40E
100
AcDbEntity
  8
4
100
AcDbVertex
100
AcDb2dVertex
 10
39.44456188138293
 20
9.464240364312445
 30
0.0
  0
VERTEX
  5
416
330
40E
100
AcDbEntity
  8
4
100
AcDbVertex
100
AcDb2dVertex
 10
39.24266681768131
 20
9.396942009745089
 30
0.0
  0
VERTEX
  5
417
330
40E
100
AcDbEntity
  8
4
100
AcDbVertex
100
AcDb2dVertex
 10
39.05615423502331
 20
9.262345300610604
 30
0.0
  0
VERTEX
  5
418
330
40E
100
AcDbEntity
  8
4
100
AcDbVertex
100
AcDb2dVertex
 10
38.89463818406239
 20
9.073909907822326
 30
0.0
  0
VERTEX
  5
419
330
40E
100
AcDbEntity
  8
4
100
AcDbVertex
100
AcDb2dVertex
 10
38.80042048766791
 20
8.885474515034047
 30
0.0
  0
VERTEX
  5
41A
330
40E
100
AcDbEntity
  8
4
100
AcDbVertex
100
AcDb2dVertex
 10
38.76004147492768
 20
8.710498793159331
 30
0.0
  0
VERTEX
  5
41B
330
40E
100
AcDbEntity
  8
4
100
AcDbVertex
100
AcDb2dVertex
 10
38.74658180401457
 20
8.548982742197949
 30
0.0
  0
VERTEX
  5
41C
330
40E
100
AcDbEntity
  8
4
100
AcDbVertex
100
AcDb2dVertex
 10
38.77350114584078
 20
8.414386033063465
 30
0.0
  0
VERTEX
  5
41D
330
40E
100
AcDbEntity
  8
4
100
AcDbVertex
100
AcDb2dVertex
 10
38.80042048766791
 20
8.306708665755877
 30
0.0
  0
VERTEX
  5
41E
330
40E
100
AcDbEntity
  8
4
100
AcDbVertex
100
AcDb2dVertex
 10
38.84079950040814
 20
8.212490969361851
 30
0.0
  0
VERTEX
  5
41F
330
40E
100
AcDbEntity
  8
4
100
AcDbVertex
100
AcDb2dVertex
 10
38.84079950040814
 20
8.212490969361851
 30
0.0
  0
SEQEND
  5
420
330
40E
100
AcDbEntity
  8
4
  0
POLYLINE
  5
421
330
264
100
AcDbEntity
  8
4
100
AcDb2dPolyline
 66
     1
 10
0.0
 20
0.0
 30
0.0
  0
VERTEX
  5
422
330
421
100
AcDbEntity
  8
4
100
AcDbVertex
100
AcDb2dVertex
 10
41.43467036644233
 20
7.918301019396494
 30
0.0
  0
VERTEX
  5
423
330
421
100
AcDbEntity
  8
4
100
AcDbVertex
100
AcDb2dVertex
 10
41.43467036644233
 20
6.599253269878772
 30
0.0
  0
VERTEX
  5
424
330
421
100
AcDbEntity
  8
4
100
AcDbVertex
100
AcDb2dVertex
 10
41.34045267004831
 20
6.545414586224978
 30
0.0
  0
VERTEX
  5
425
330
421
100
AcDbEntity
  8
4
100
AcDbVertex
100
AcDb2dVertex
 10
41.04626272008317
 20
6.410817877090494
 30
0.0
  0
VERTEX
  5
426
330
421
100
AcDbEntity
  8
4
100
AcDbVertex
100
AcDb2dVertex
 10
40.84436765638111
 20
6.343519522523365
 30
0.0
  0
VERTEX
  5
427
330
421
100
AcDbEntity
  8
4
100
AcDbVertex
100
AcDb2dVertex
 10
40.5886339090257
 20
6.289680838869571
 30
0.0
  0
VERTEX
  5
428
330
421
100
AcDbEntity
  8
4
100
AcDbVertex
100
AcDb2dVertex
 10
40.30598081984362
 20
6.249301826129112
 30
0.0
  0
VERTEX
  5
429
330
421
100
AcDbEntity
  8
4
100
AcDbVertex
100
AcDb2dVertex
 10
39.99640838883443
 20
6.235842155215777
 30
0.0
  0
VERTEX
  5
42A
330
421
100
AcDbEntity
  8
4
100
AcDbVertex
100
AcDb2dVertex
 10
39.76759398330569
 20
6.235842155215777
 30
0.0
  0
VERTEX
  5
42B
330
421
100
AcDbEntity
  8
4
100
AcDbVertex
100
AcDb2dVertex
 10
39.53877957777695
 20
6.262761497042447
 30
0.0
  0
VERTEX
  5
42C
330
421
100
AcDbEntity
  8
4
100
AcDbVertex
100
AcDb2dVertex
 10
39.32342484316178
 20
6.316600180696241
 30
0.0
  0
VERTEX
  5
42D
330
421
100
AcDbEntity
  8
4
100
AcDbVertex
100
AcDb2dVertex
 10
39.09653324776355
 20
6.370438864350035
 30
0.0
  0
VERTEX
  5
42E
330
421
100
AcDbEntity
  8
4
100
AcDbVertex
100
AcDb2dVertex
 10
38.89463818406239
 20
6.451196889830953
 30
0.0
  0
VERTEX
  5
42F
330
421
100
AcDbEntity
  8
4
100
AcDbVertex
100
AcDb2dVertex
 10
38.69274312036032
 20
6.55887425713854
 30
0.0
  0
VERTEX
  5
430
330
421
100
AcDbEntity
  8
4
100
AcDbVertex
100
AcDb2dVertex
 10
38.50430772757227
 20
6.666551624446128
 30
0.0
  0
VERTEX
  5
431
330
421
100
AcDbEntity
  8
4
100
AcDbVertex
100
AcDb2dVertex
 10
38.32933200569732
 20
6.801148333580385
 30
0.0
  0
VERTEX
  5
432
330
421
100
AcDbEntity
  8
4
100
AcDbVertex
100
AcDb2dVertex
 10
38.15435628382238
 20
6.962664384541767
 30
0.0
  0
VERTEX
  5
433
330
421
100
AcDbEntity
  8
4
100
AcDbVertex
100
AcDb2dVertex
 10
38.00629990377456
 20
7.137640106416711
 30
0.0
  0
VERTEX
  5
434
330
421
100
AcDbEntity
  8
4
100
AcDbVertex
100
AcDb2dVertex
 10
37.88516286555387
 20
7.326075499204762
 30
0.0
  0
VERTEX
  5
435
330
421
100
AcDbEntity
  8
4
100
AcDbVertex
100
AcDb2dVertex
 10
37.77748549824628
 20
7.527970562906375
 30
0.0
  0
VERTEX
  5
436
330
421
100
AcDbEntity
  8
4
100
AcDbVertex
100
AcDb2dVertex
 10
37.6832678018518
 20
7.756784968435113
 30
0.0
  0
VERTEX
  5
437
330
421
100
AcDbEntity
  8
4
100
AcDbVertex
100
AcDb2dVertex
 10
37.61596944728444
 20
7.999059044877185
 30
0.0
  0
VERTEX
  5
438
330
421
100
AcDbEntity
  8
4
100
AcDbVertex
100
AcDb2dVertex
 10
37.57559043454421
 20
8.252869982102083
 30
0.0
  0
VERTEX
  5
439
330
421
100
AcDbEntity
  8
4
100
AcDbVertex
100
AcDb2dVertex
 10
37.5621307636311
 20
8.535523071284387
 30
0.0
  0
VERTEX
  5
43A
330
421
100
AcDbEntity
  8
4
100
AcDbVertex
100
AcDb2dVertex
 10
37.60250977637134
 20
8.912393856860944
 30
0.0
  0
VERTEX
  5
43B
330
421
100
AcDbEntity
  8
4
100
AcDbVertex
100
AcDb2dVertex
 10
37.69672747276536
 20
9.275804971523939
 30
0.0
  0
VERTEX
  5
43C
330
421
100
AcDbEntity
  8
4
100
AcDbVertex
100
AcDb2dVertex
 10
37.76402582733272
 20
9.450780693398883
 30
0.0
  0
VERTEX
  5
43D
330
421
100
AcDbEntity
  8
4
100
AcDbVertex
100
AcDb2dVertex
 10
37.85824352372674
 20
9.625756415273599
 30
0.0
  0
VERTEX
  5
43E
330
421
100
AcDbEntity
  8
4
100
AcDbVertex
100
AcDb2dVertex
 10
37.96592089103433
 20
9.787272466234981
 30
0.0
  0
VERTEX
  5
43F
330
421
100
AcDbEntity
  8
4
100
AcDbVertex
100
AcDb2dVertex
 10
38.07359825834192
 20
9.933406036152518
 30
0.0
  0
VERTEX
  5
440
330
421
100
AcDbEntity
  8
4
100
AcDbVertex
100
AcDb2dVertex
 10
38.22165463838974
 20
10.06800274528677
 30
0.0
  0
VERTEX
  5
441
330
421
100
AcDbEntity
  8
4
100
AcDbVertex
100
AcDb2dVertex
 10
38.36971101843756
 20
10.20259945442149
 30
0.0
  0
VERTEX
  5
442
330
421
100
AcDbEntity
  8
4
100
AcDbVertex
100
AcDb2dVertex
 10
38.53122706939939
 20
10.31027682172885
 30
0.0
  0
VERTEX
  5
443
330
421
100
AcDbEntity
  8
4
100
AcDbVertex
100
AcDb2dVertex
 10
38.71966246218745
 20
10.4044945181231
 30
0.0
  0
VERTEX
  5
444
330
421
100
AcDbEntity
  8
4
100
AcDbVertex
100
AcDb2dVertex
 10
38.92155752588906
 20
10.48525254360379
 30
0.0
  0
VERTEX
  5
445
330
421
100
AcDbEntity
  8
4
100
AcDbVertex
100
AcDb2dVertex
 10
39.13691226050423
 20
10.53909122725758
 30
0.0
  0
VERTEX
  5
446
330
421
100
AcDbEntity
  8
4
100
AcDbVertex
100
AcDb2dVertex
 10
39.36380385590201
 20
10.57947023999782
 30
0.0
  0
VERTEX
  5
447
330
421
100
AcDbEntity
  8
4
100
AcDbVertex
100
AcDb2dVertex
 10
39.61953760325787
 20
10.59292991091115
 30
0.0
  0
VERTEX
  5
448
330
421
100
AcDbEntity
  8
4
100
AcDbVertex
100
AcDb2dVertex
 10
39.9694890470073
 20
10.56601056908448
 30
0.0
  0
VERTEX
  5
449
330
421
100
AcDbEntity
  8
4
100
AcDbVertex
100
AcDb2dVertex
 10
40.30598081984362
 20
10.47179287269023
 30
0.0
  0
VERTEX
  5
44A
330
421
100
AcDbEntity
  8
4
100
AcDbVertex
100
AcDb2dVertex
 10
40.61555325085282
 20
10.33719616355574
 30
0.0
  0
VERTEX
  5
44B
330
421
100
AcDbEntity
  8
4
100
AcDbVertex
100
AcDb2dVertex
 10
40.89820634003536
 20
10.16222044168103
 30
0.0
  0
VERTEX
  5
44C
330
421
100
AcDbEntity
  8
4
100
AcDbVertex
100
AcDb2dVertex
 10
41.1520172772598
 20
9.946865707065853
 30
0.0
  0
VERTEX
  5
44D
330
421
100
AcDbEntity
  8
4
100
AcDbVertex
100
AcDb2dVertex
 10
41.35391234096187
 20
9.719974111667852
 30
0.0
  0
VERTEX
  5
44E
330
421
100
AcDbEntity
  8
4
100
AcDbVertex
100
AcDb2dVertex
 10
41.52888806283681
 20
9.450780693398883
 30
0.0
  0
VERTEX
  5
44F
330
421
100
AcDbEntity
  8
4
100
AcDbVertex
100
AcDb2dVertex
 10
41.6500251010575
 20
9.181587275129913
 30
0.0
  0
VERTEX
  5
450
330
421
100
AcDbEntity
  8
4
100
AcDbVertex
100
AcDb2dVertex
 10
39.64645694508454
 20
7.43375286651235
 30
0.0
  0
VERTEX
  5
451
330
421
100
AcDbEntity
  8
4
100
AcDbVertex
100
AcDb2dVertex
 10
39.727214970565
 20
7.420293195599015
 30
0.0
  0
VERTEX
  5
452
330
421
100
AcDbEntity
  8
4
100
AcDbVertex
100
AcDb2dVertex
 10
39.91565036335396
 20
7.379914182858556
 30
0.0
  0
VERTEX
  5
453
330
421
100
AcDbEntity
  8
4
100
AcDbVertex
100
AcDb2dVertex
 10
40.18484378162248
 20
7.379914182858556
 30
0.0
  0
VERTEX
  5
454
330
421
100
AcDbEntity
  8
4
100
AcDbVertex
100
AcDb2dVertex
 10
40.34635983258385
 20
7.393373853772118
 30
0.0
  0
VERTEX
  5
455
330
421
100
AcDbEntity
  8
4
100
AcDbVertex
100
AcDb2dVertex
 10
40.50787588354523
 20
7.43375286651235
 30
0.0
  0
VERTEX
  5
456
330
421
100
AcDbEntity
  8
4
100
AcDbVertex
100
AcDb2dVertex
 10
40.84436765638111
 20
7.554889904733499
 30
0.0
  0
VERTEX
  5
457
330
421
100
AcDbEntity
  8
4
100
AcDbVertex
100
AcDb2dVertex
 10
41.13855760634669
 20
7.716405955694881
 30
0.0
  0
VERTEX
  5
458
330
421
100
AcDbEntity
  8
4
100
AcDbVertex
100
AcDb2dVertex
 10
41.43467036644233
 20
7.918301019396494
 30
0.0
  0
VERTEX
  5
459
330
421
100
AcDbEntity
  8
4
100
AcDbVertex
100
AcDb2dVertex
 10
41.43467036644233
 20
7.918301019396494
 30
0.0
  0
SEQEND
  5
45A
330
421
100
AcDbEntity
  8
4
  0
POLYLINE
  5
45B
330
264
100
AcDbEntity
  8
4
100
AcDb2dPolyline
 66
     1
 10
0.0
 20
0.0
 30
0.0
  0
VERTEX
  5
45C
330
45B
100
AcDbEntity
  8
4
100
AcDbVertex
100
AcDb2dVertex
 10
35.84121569684067
 20
12.12540958491354
 30
0.0
  0
VERTEX
  5
45D
330
45B
100
AcDbEntity
  8
4
100
AcDbVertex
100
AcDb2dVertex
 10
35.84121569684067
 20
6.303140509782906
 30
0.0
  0
VERTEX
  5
45E
330
45B
100
AcDbEntity
  8
4
100
AcDbVertex
100
AcDb2dVertex
 10
37.20064245909816
 20
6.303140509782906
 30
0.0
  0
VERTEX
  5
45F
330
45B
100
AcDbEntity
  8
4
100
AcDbVertex
100
AcDb2dVertex
 10
37.20064245909816
 20
12.12540958491354
 30
0.0
  0
VERTEX
  5
460
330
45B
100
AcDbEntity
  8
4
100
AcDbVertex
100
AcDb2dVertex
 10
35.84121569684067
 20
12.12540958491354
 30
0.0
  0
VERTEX
  5
461
330
45B
100
AcDbEntity
  8
4
100
AcDbVertex
100
AcDb2dVertex
 10
35.84121569684067
 20
12.12540958491354
 30
0.0
  0
SEQEND
  5
462
330
45B
100
AcDbEntity
  8
4
  0
POLYLINE
  5
463
330
264
100
AcDbEntity
  8
4
100
AcDb2dPolyline
 66
     1
 10
0.0
 20
0.0
 30
0.0
  0
VERTEX
  5
464
330
463
100
AcDbEntity
  8
4
100
AcDbVertex
100
AcDb2dVertex
 10
48.18895019880256
 20
12.53130987333679
 30
0.0
  0
VERTEX
  5
465
330
463
100
AcDbEntity
  8
4
100
AcDbVertex
100
AcDb2dVertex
 10
48.18747111408629
 20
12.57716149952557
 30
0.0
  0
VERTEX
  5
466
330
463
100
AcDbEntity
  8
4
100
AcDbVertex
100
AcDb2dVertex
 10
48.18303385993932
 20
12.62301312571435
 30
0.0
  0
VERTEX
  5
467
330
463
100
AcDbEntity
  8
4
100
AcDbVertex
100
AcDb2dVertex
 10
48.17859660579234
 20
12.6688647519029
 30
0.0
  0
VERTEX
  5
468
330
463
100
AcDbEntity
  8
4
100
AcDbVertex
100
AcDb2dVertex
 10
48.16972209749747
 20
12.71323729337564
 30
0.0
  0
VERTEX
  5
469
330
463
100
AcDbEntity
  8
4
100
AcDbVertex
100
AcDb2dVertex
 10
48.15936850448725
 20
12.75760983484861
 30
0.0
  0
VERTEX
  5
46A
330
463
100
AcDbEntity
  8
4
100
AcDbVertex
100
AcDb2dVertex
 10
48.14753582676075
 20
12.80050329160576
 30
0.0
  0
VERTEX
  5
46B
330
463
100
AcDbEntity
  8
4
100
AcDbVertex
100
AcDb2dVertex
 10
48.13274497960356
 20
12.84339674836292
 30
0.0
  0
VERTEX
  5
46C
330
463
100
AcDbEntity
  8
4
100
AcDbVertex
100
AcDb2dVertex
 10
48.11647504773009
 20
12.88481112040426
 30
0.0
  0
VERTEX
  5
46D
330
463
100
AcDbEntity
  8
4
100
AcDbVertex
100
AcDb2dVertex
 10
48.09872603114081
 20
12.92622549244561
 30
0.0
  0
VERTEX
  5
46E
330
463
100
AcDbEntity
  8
4
100
AcDbVertex
100
AcDb2dVertex
 10
48.07801884511992
 20
12.96468169505556
 30
0.0
  0
VERTEX
  5
46F
330
463
100
AcDbEntity
  8
4
100
AcDbVertex
100
AcDb2dVertex
 10
48.05731165909946
 20
13.00313789766551
 30
0.0
  0
VERTEX
  5
470
330
463
100
AcDbEntity
  8
4
100
AcDbVertex
100
AcDb2dVertex
 10
48.03216721893114
 20
13.04159410027523
 30
0.0
  0
VERTEX
  5
471
330
463
100
AcDbEntity
  8
4
100
AcDbVertex
100
AcDb2dVertex
 10
48.00702277876371
 20
13.07709213345356
 30
0.0
  0
VERTEX
  5
472
330
463
100
AcDbEntity
  8
4
100
AcDbVertex
100
AcDb2dVertex
 10
47.98039925388002
 20
13.11259016663189
 30
0.0
  0
VERTEX
  5
473
330
463
100
AcDbEntity
  8
4
100
AcDbVertex
100
AcDb2dVertex
 10
47.95081755956471
 20
13.14513003037859
 30
0.0
  0
VERTEX
  5
474
330
463
100
AcDbEntity
  8
4
100
AcDbVertex
100
AcDb2dVertex
 10
47.92123586524939
 20
13.17766989412553
 30
0.0
  0
VERTEX
  5
475
330
463
100
AcDbEntity
  8
4
100
AcDbVertex
100
AcDb2dVertex
 10
47.89017508621782
 20
13.20725158844061
 30
0.0
  0
VERTEX
  5
476
330
463
100
AcDbEntity
  8
4
100
AcDbVertex
100
AcDb2dVertex
 10
47.85615613775553
 20
13.23683328275592
 30
0.0
  0
VERTEX
  5
477
330
463
100
AcDbEntity
  8
4
100
AcDbVertex
100
AcDb2dVertex
 10
47.82213718929324
 20
13.26493589235542
 30
0.0
  0
VERTEX
  5
478
330
463
100
AcDbEntity
  8
4
100
AcDbVertex
100
AcDb2dVertex
 10
47.78516007139933
 20
13.29008033252353
 30
0.0
  0
VERTEX
  5
479
330
463
100
AcDbEntity
  8
4
100
AcDbVertex
100
AcDb2dVertex
 10
47.74818295350496
 20
13.31522477269141
 30
0.0
  0
VERTEX
  5
47A
330
463
100
AcDbEntity
  8
4
100
AcDbVertex
100
AcDb2dVertex
 10
47.70972675089524
 20
13.33741104342789
 30
0.0
  0
VERTEX
  5
47B
330
463
100
AcDbEntity
  8
4
100
AcDbVertex
100
AcDb2dVertex
 10
47.66979146356971
 20
13.35811822944856
 30
0.0
  0
VERTEX
  5
47C
330
463
100
AcDbEntity
  8
4
100
AcDbVertex
100
AcDb2dVertex
 10
47.62985617624372
 20
13.37586724603761
 30
0.0
  0
VERTEX
  5
47D
330
463
100
AcDbEntity
  8
4
100
AcDbVertex
100
AcDb2dVertex
 10
47.58696271948656
 20
13.39213717791108
 30
0.0
  0
VERTEX
  5
47E
330
463
100
AcDbEntity
  8
4
100
AcDbVertex
100
AcDb2dVertex
 10
47.54406926272986
 20
13.40692802506874
 30
0.0
  0
VERTEX
  5
47F
330
463
100
AcDbEntity
  8
4
100
AcDbVertex
100
AcDb2dVertex
 10
47.50117580597271
 20
13.42023978751058
 30
0.0
  0
VERTEX
  5
480
330
463
100
AcDbEntity
  8
4
100
AcDbVertex
100
AcDb2dVertex
 10
47.45532417978393
 20
13.43059338052103
 30
0.0
  0
VERTEX
  5
481
330
463
100
AcDbEntity
  8
4
100
AcDbVertex
100
AcDb2dVertex
 10
47.4109516383105
 20
13.43798880409986
 30
0.0
  0
VERTEX
  5
482
330
463
100
AcDbEntity
  8
4
100
AcDbVertex
100
AcDb2dVertex
 10
47.36362092740637
 20
13.44390514296287
 30
0.0
  0
VERTEX
  5
483
330
463
100
AcDbEntity
  8
4
100
AcDbVertex
100
AcDb2dVertex
 10
47.3177693012176
 20
13.44834239711008
 30
0.0
  0
VERTEX
  5
484
330
463
100
AcDbEntity
  8
4
100
AcDbVertex
100
AcDb2dVertex
 10
47.27043859031346
 20
13.44982148182589
 30
0.0
  0
VERTEX
  5
485
330
463
100
AcDbEntity
  8
4
100
AcDbVertex
100
AcDb2dVertex
 10
47.27043859031346
 20
13.24570779105056
 30
0.0
  0
VERTEX
  5
486
330
463
100
AcDbEntity
  8
4
100
AcDbVertex
100
AcDb2dVertex
 10
47.30741570820737
 20
13.24570779105056
 30
0.0
  0
VERTEX
  5
487
330
463
100
AcDbEntity
  8
4
100
AcDbVertex
100
AcDb2dVertex
 10
47.34439282610128
 20
13.24274962161917
 30
0.0
  0
VERTEX
  5
488
330
463
100
AcDbEntity
  8
4
100
AcDbVertex
100
AcDb2dVertex
 10
47.37989085927984
 20
13.23683328275592
 30
0.0
  0
VERTEX
  5
489
330
463
100
AcDbEntity
  8
4
100
AcDbVertex
100
AcDb2dVertex
 10
47.41538889245839
 20
13.2309169438929
 30
0.0
  0
VERTEX
  5
48A
330
463
100
AcDbEntity
  8
4
100
AcDbVertex
100
AcDb2dVertex
 10
47.44940784092068
 20
13.22352152031408
 30
0.0
  0
VERTEX
  5
48B
330
463
100
AcDbEntity
  8
4
100
AcDbVertex
100
AcDb2dVertex
 10
47.48342678938297
 20
13.21316792730385
 30
0.0
  0
VERTEX
  5
48C
330
463
100
AcDbEntity
  8
4
100
AcDbVertex
100
AcDb2dVertex
 10
47.51744573784617
 20
13.20133524957759
 30
0.0
  0
VERTEX
  5
48D
330
463
100
AcDbEntity
  8
4
100
AcDbVertex
100
AcDb2dVertex
 10
47.54998560159219
 20
13.18950257185156
 30
0.0
  0
VERTEX
  5
48E
330
463
100
AcDbEntity
  8
4
100
AcDbVertex
100
AcDb2dVertex
 10
47.58104638062377
 20
13.17471172469391
 30
0.0
  0
VERTEX
  5
48F
330
463
100
AcDbEntity
  8
4
100
AcDbVertex
100
AcDb2dVertex
 10
47.61210715965444
 20
13.15844179282066
 30
0.0
  0
VERTEX
  5
490
330
463
100
AcDbEntity
  8
4
100
AcDbVertex
100
AcDb2dVertex
 10
47.64168885396975
 20
13.14069277623139
 30
0.0
  0
VERTEX
  5
491
330
463
100
AcDbEntity
  8
4
100
AcDbVertex
100
AcDb2dVertex
 10
47.67127054828506
 20
13.12294375964211
 30
0.0
  0
VERTEX
  5
492
330
463
100
AcDbEntity
  8
4
100
AcDbVertex
100
AcDb2dVertex
 10
47.69937315788502
 20
13.10223657362167
 30
0.0
  0
VERTEX
  5
493
330
463
100
AcDbEntity
  8
4
100
AcDbVertex
100
AcDb2dVertex
 10
47.7259966827687
 20
13.08152938760076
 30
0.0
  0
VERTEX
  5
494
330
463
100
AcDbEntity
  8
4
100
AcDbVertex
100
AcDb2dVertex
 10
47.75262020765239
 20
13.0578640321487
 30
0.0
  0
VERTEX
  5
495
330
463
100
AcDbEntity
  8
4
100
AcDbVertex
100
AcDb2dVertex
 10
47.77776464781982
 20
13.0341986766964
 30
0.0
  0
VERTEX
  5
496
330
463
100
AcDbEntity
  8
4
100
AcDbVertex
100
AcDb2dVertex
 10
47.79995091855653
 20
13.0090542365283
 30
0.0
  0
VERTEX
  5
497
330
463
100
AcDbEntity
  8
4
100
AcDbVertex
100
AcDb2dVertex
 10
47.8236162740086
 20
12.98390979636042
 30
0.0
  0
VERTEX
  5
498
330
463
100
AcDbEntity
  8
4
100
AcDbVertex
100
AcDb2dVertex
 10
47.8443234600295
 20
12.95580718676092
 30
0.0
  0
VERTEX
  5
499
330
463
100
AcDbEntity
  8
4
100
AcDbVertex
100
AcDb2dVertex
 10
47.86355156133413
 20
12.92770457716142
 30
0.0
  0
VERTEX
  5
49A
330
463
100
AcDbEntity
  8
4
100
AcDbVertex
100
AcDb2dVertex
 10
47.88277966263922
 20
12.89960196756192
 30
0.0
  0
VERTEX
  5
49B
330
463
100
AcDbEntity
  8
4
100
AcDbVertex
100
AcDb2dVertex
 10
47.89904959451269
 20
12.8685411885308
 30
0.0
  0
VERTEX
  5
49C
330
463
100
AcDbEntity
  8
4
100
AcDbVertex
100
AcDb2dVertex
 10
47.91531952638615
 20
12.83895949421571
 30
0.0
  0
VERTEX
  5
49D
330
463
100
AcDbEntity
  8
4
100
AcDbVertex
100
AcDb2dVertex
 10
47.93011037354381
 20
12.80641963046878
 30
0.0
  0
VERTEX
  5
49E
330
463
100
AcDbEntity
  8
4
100
AcDbVertex
100
AcDb2dVertex
 10
47.94194305126985
 20
12.77387976672207
 30
0.0
  0
VERTEX
  5
49F
330
463
100
AcDbEntity
  8
4
100
AcDbVertex
100
AcDb2dVertex
 10
47.95377572899588
 20
12.74133990297514
 30
0.0
  0
VERTEX
  5
4A0
330
463
100
AcDbEntity
  8
4
100
AcDbVertex
100
AcDb2dVertex
 10
47.96265023729029
 20
12.70732095451285
 30
0.0
  0
VERTEX
  5
4A1
330
463
100
AcDbEntity
  8
4
100
AcDbVertex
100
AcDb2dVertex
 10
47.97152474558515
 20
12.67330200605011
 30
0.0
  0
VERTEX
  5
4A2
330
463
100
AcDbEntity
  8
4
100
AcDbVertex
100
AcDb2dVertex
 10
47.9774410844484
 20
12.63780397287178
 30
0.0
  0
VERTEX
  5
4A3
330
463
100
AcDbEntity
  8
4
100
AcDbVertex
100
AcDb2dVertex
 10
47.98187833859538
 20
12.60378502440926
 30
0.0
  0
VERTEX
  5
4A4
330
463
100
AcDbEntity
  8
4
100
AcDbVertex
100
AcDb2dVertex
 10
47.984836508027
 20
12.56680790651512
 30
0.0
  0
VERTEX
  5
4A5
330
463
100
AcDbEntity
  8
4
100
AcDbVertex
100
AcDb2dVertex
 10
47.984836508027
 20
12.53130987333679
 30
0.0
  0
VERTEX
  5
4A6
330
463
100
AcDbEntity
  8
4
100
AcDbVertex
100
AcDb2dVertex
 10
48.18895019880256
 20
12.53130987333679
 30
0.0
  0
VERTEX
  5
4A7
330
463
100
AcDbEntity
  8
4
100
AcDbVertex
100
AcDb2dVertex
 10
48.18895019880256
 20
12.53130987333679
 30
0.0
  0
SEQEND
  5
4A8
330
463
100
AcDbEntity
  8
4
  0
POLYLINE
  5
4A9
330
264
100
AcDbEntity
  8
4
100
AcDb2dPolyline
 66
     1
 10
0.0
 20
0.0
 30
0.0
  0
VERTEX
  5
4AA
330
4A9
100
AcDbEntity
  8
4
100
AcDbVertex
100
AcDb2dVertex
 10
47.27043859031346
 20
4.495442612594615
 30
0.0
  0
VERTEX
  5
4AB
330
4A9
100
AcDbEntity
  8
4
100
AcDbVertex
100
AcDb2dVertex
 10
47.31629021650223
 20
4.496921697310426
 30
0.0
  0
VERTEX
  5
4AC
330
4A9
100
AcDbEntity
  8
4
100
AcDbVertex
100
AcDb2dVertex
 10
47.36362092740637
 20
4.501358951457859
 30
0.0
  0
VERTEX
  5
4AD
330
4A9
100
AcDbEntity
  8
4
100
AcDbVertex
100
AcDb2dVertex
 10
47.4109516383105
 20
4.505796205605065
 30
0.0
  0
VERTEX
  5
4AE
330
4A9
100
AcDbEntity
  8
4
100
AcDbVertex
100
AcDb2dVertex
 10
47.45532417978393
 20
4.514670713899704
 30
0.0
  0
VERTEX
  5
4AF
330
4A9
100
AcDbEntity
  8
4
100
AcDbVertex
100
AcDb2dVertex
 10
47.49969672125644
 20
4.523545222194115
 30
0.0
  0
VERTEX
  5
4B0
330
4A9
100
AcDbEntity
  8
4
100
AcDbVertex
100
AcDb2dVertex
 10
47.54406926272986
 20
4.53685698463596
 30
0.0
  0
VERTEX
  5
4B1
330
4A9
100
AcDbEntity
  8
4
100
AcDbVertex
100
AcDb2dVertex
 10
47.58696271948656
 20
4.551647831793616
 30
0.0
  0
VERTEX
  5
4B2
330
4A9
100
AcDbEntity
  8
4
100
AcDbVertex
100
AcDb2dVertex
 10
47.6283770915279
 20
4.566438678951271
 30
0.0
  0
VERTEX
  5
4B3
330
4A9
100
AcDbEntity
  8
4
100
AcDbVertex
100
AcDb2dVertex
 10
47.66979146356971
 20
4.58566678025636
 30
0.0
  0
VERTEX
  5
4B4
330
4A9
100
AcDbEntity
  8
4
100
AcDbVertex
100
AcDb2dVertex
 10
47.70824766617898
 20
4.604894881561222
 30
0.0
  0
VERTEX
  5
4B5
330
4A9
100
AcDbEntity
  8
4
100
AcDbVertex
100
AcDb2dVertex
 10
47.74670386878915
 20
4.627081152297705
 30
0.0
  0
VERTEX
  5
4B6
330
4A9
100
AcDbEntity
  8
4
100
AcDbVertex
100
AcDb2dVertex
 10
47.78516007139933
 20
4.650746507749772
 30
0.0
  0
VERTEX
  5
4B7
330
4A9
100
AcDbEntity
  8
4
100
AcDbVertex
100
AcDb2dVertex
 10
47.82065810457697
 20
4.675890947917878
 30
0.0
  0
VERTEX
  5
4B8
330
4A9
100
AcDbEntity
  8
4
100
AcDbVertex
100
AcDb2dVertex
 10
47.85615613775553
 20
4.702514472801567
 30
0.0
  0
VERTEX
  5
4B9
330
4A9
100
AcDbEntity
  8
4
100
AcDbVertex
100
AcDb2dVertex
 10
47.88869600150246
 20
4.732096167116878
 30
0.0
  0
VERTEX
  5
4BA
330
4A9
100
AcDbEntity
  8
4
100
AcDbVertex
100
AcDb2dVertex
 10
47.92123586524939
 20
4.76167786143219
 30
0.0
  0
VERTEX
  5
4BB
330
4A9
100
AcDbEntity
  8
4
100
AcDbVertex
100
AcDb2dVertex
 10
47.95081755956471
 20
4.792738640463085
 30
0.0
  0
VERTEX
  5
4BC
330
4A9
100
AcDbEntity
  8
4
100
AcDbVertex
100
AcDb2dVertex
 10
47.97892016916375
 20
4.826757588925829
 30
0.0
  0
VERTEX
  5
4BD
330
4A9
100
AcDbEntity
  8
4
100
AcDbVertex
100
AcDb2dVertex
 10
48.00702277876371
 20
4.860776537388119
 30
0.0
  0
VERTEX
  5
4BE
330
4A9
100
AcDbEntity
  8
4
100
AcDbVertex
100
AcDb2dVertex
 10
48.03216721893114
 20
4.896274570566674
 30
0.0
  0
VERTEX
  5
4BF
330
4A9
100
AcDbEntity
  8
4
100
AcDbVertex
100
AcDb2dVertex
 10
48.05583257438366
 20
4.933251688460586
 30
0.0
  0
VERTEX
  5
4C0
330
4A9
100
AcDbEntity
  8
4
100
AcDbVertex
100
AcDb2dVertex
 10
48.07801884511992
 20
4.971707891070536
 30
0.0
  0
VERTEX
  5
4C1
330
4A9
100
AcDbEntity
  8
4
100
AcDbVertex
100
AcDb2dVertex
 10
48.09872603114081
 20
5.010164093680486
 30
0.0
  0
VERTEX
  5
4C2
330
4A9
100
AcDbEntity
  8
4
100
AcDbVertex
100
AcDb2dVertex
 10
48.11647504773009
 20
5.05009938100602
 30
0.0
  0
VERTEX
  5
4C3
330
4A9
100
AcDbEntity
  8
4
100
AcDbVertex
100
AcDb2dVertex
 10
48.13274497960356
 20
5.091513753047365
 30
0.0
  0
VERTEX
  5
4C4
330
4A9
100
AcDbEntity
  8
4
100
AcDbVertex
100
AcDb2dVertex
 10
48.14753582676075
 20
5.134407209804521
 30
0.0
  0
VERTEX
  5
4C5
330
4A9
100
AcDbEntity
  8
4
100
AcDbVertex
100
AcDb2dVertex
 10
48.15936850448725
 20
5.177300666561677
 30
0.0
  0
VERTEX
  5
4C6
330
4A9
100
AcDbEntity
  8
4
100
AcDbVertex
100
AcDb2dVertex
 10
48.16972209749747
 20
5.221673208034644
 30
0.0
  0
VERTEX
  5
4C7
330
4A9
100
AcDbEntity
  8
4
100
AcDbVertex
100
AcDb2dVertex
 10
48.17859660579234
 20
5.266045749507384
 30
0.0
  0
VERTEX
  5
4C8
330
4A9
100
AcDbEntity
  8
4
100
AcDbVertex
100
AcDb2dVertex
 10
48.18303385993932
 20
5.311897375695934
 30
0.0
  0
VERTEX
  5
4C9
330
4A9
100
AcDbEntity
  8
4
100
AcDbVertex
100
AcDb2dVertex
 10
48.18747111408629
 20
5.357749001884712
 30
0.0
  0
VERTEX
  5
4CA
330
4A9
100
AcDbEntity
  8
4
100
AcDbVertex
100
AcDb2dVertex
 10
48.18895019880256
 20
5.40360062807349
 30
0.0
  0
VERTEX
  5
4CB
330
4A9
100
AcDbEntity
  8
4
100
AcDbVertex
100
AcDb2dVertex
 10
47.984836508027
 20
5.40360062807349
 30
0.0
  0
VERTEX
  5
4CC
330
4A9
100
AcDbEntity
  8
4
100
AcDbVertex
100
AcDb2dVertex
 10
47.984836508027
 20
5.368102594894935
 30
0.0
  0
VERTEX
  5
4CD
330
4A9
100
AcDbEntity
  8
4
100
AcDbVertex
100
AcDb2dVertex
 10
47.98187833859538
 20
5.332604561716834
 30
0.0
  0
VERTEX
  5
4CE
330
4A9
100
AcDbEntity
  8
4
100
AcDbVertex
100
AcDb2dVertex
 10
47.9774410844484
 20
5.297106528538506
 30
0.0
  0
VERTEX
  5
4CF
330
4A9
100
AcDbEntity
  8
4
100
AcDbVertex
100
AcDb2dVertex
 10
47.97152474558515
 20
5.261608495360178
 30
0.0
  0
VERTEX
  5
4D0
330
4A9
100
AcDbEntity
  8
4
100
AcDbVertex
100
AcDb2dVertex
 10
47.96265023729029
 20
5.227589546897434
 30
0.0
  0
VERTEX
  5
4D1
330
4A9
100
AcDbEntity
  8
4
100
AcDbVertex
100
AcDb2dVertex
 10
47.95377572899588
 20
5.195049683150728
 30
0.0
  0
VERTEX
  5
4D2
330
4A9
100
AcDbEntity
  8
4
100
AcDbVertex
100
AcDb2dVertex
 10
47.94194305126985
 20
5.162509819404021
 30
0.0
  0
VERTEX
  5
4D3
330
4A9
100
AcDbEntity
  8
4
100
AcDbVertex
100
AcDb2dVertex
 10
47.93011037354381
 20
5.129969955657088
 30
0.0
  0
VERTEX
  5
4D4
330
4A9
100
AcDbEntity
  8
4
100
AcDbVertex
100
AcDb2dVertex
 10
47.91531952638615
 20
5.098909176626193
 30
0.0
  0
VERTEX
  5
4D5
330
4A9
100
AcDbEntity
  8
4
100
AcDbVertex
100
AcDb2dVertex
 10
47.9005286792285
 20
5.067848397595071
 30
0.0
  0
VERTEX
  5
4D6
330
4A9
100
AcDbEntity
  8
4
100
AcDbVertex
100
AcDb2dVertex
 10
47.88277966263922
 20
5.03974578799557
 30
0.0
  0
VERTEX
  5
4D7
330
4A9
100
AcDbEntity
  8
4
100
AcDbVertex
100
AcDb2dVertex
 10
47.8650306460504
 20
5.010164093680486
 30
0.0
  0
VERTEX
  5
4D8
330
4A9
100
AcDbEntity
  8
4
100
AcDbVertex
100
AcDb2dVertex
 10
47.8443234600295
 20
4.98354056879657
 30
0.0
  0
VERTEX
  5
4D9
330
4A9
100
AcDbEntity
  8
4
100
AcDbVertex
100
AcDb2dVertex
 10
47.8236162740086
 20
4.95543795919707
 30
0.0
  0
VERTEX
  5
4DA
330
4A9
100
AcDbEntity
  8
4
100
AcDbVertex
100
AcDb2dVertex
 10
47.80143000327234
 20
4.930293519029191
 30
0.0
  0
VERTEX
  5
4DB
330
4A9
100
AcDbEntity
  8
4
100
AcDbVertex
100
AcDb2dVertex
 10
47.77776464781982
 20
4.906628163576897
 30
0.0
  0
VERTEX
  5
4DC
330
4A9
100
AcDbEntity
  8
4
100
AcDbVertex
100
AcDb2dVertex
 10
47.75262020765239
 20
4.88296280812483
 30
0.0
  0
VERTEX
  5
4DD
330
4A9
100
AcDbEntity
  8
4
100
AcDbVertex
100
AcDb2dVertex
 10
47.72747576748407
 20
4.860776537388119
 30
0.0
  0
VERTEX
  5
4DE
330
4A9
100
AcDbEntity
  8
4
100
AcDbVertex
100
AcDb2dVertex
 10
47.69937315788502
 20
4.840069351367674
 30
0.0
  0
VERTEX
  5
4DF
330
4A9
100
AcDbEntity
  8
4
100
AcDbVertex
100
AcDb2dVertex
 10
47.67127054828506
 20
4.819362165346774
 30
0.0
  0
VERTEX
  5
4E0
330
4A9
100
AcDbEntity
  8
4
100
AcDbVertex
100
AcDb2dVertex
 10
47.64316793868601
 20
4.801613148757724
 30
0.0
  0
VERTEX
  5
4E1
330
4A9
100
AcDbEntity
  8
4
100
AcDbVertex
100
AcDb2dVertex
 10
47.61358624437071
 20
4.783864132168673
 30
0.0
  0
VERTEX
  5
4E2
330
4A9
100
AcDbEntity
  8
4
100
AcDbVertex
100
AcDb2dVertex
 10
47.58252546533912
 20
4.769073285011018
 30
0.0
  0
VERTEX
  5
4E3
330
4A9
100
AcDbEntity
  8
4
100
AcDbVertex
100
AcDb2dVertex
 10
47.54998560159219
 20
4.754282437853362
 30
0.0
  0
VERTEX
  5
4E4
330
4A9
100
AcDbEntity
  8
4
100
AcDbVertex
100
AcDb2dVertex
 10
47.51744573784617
 20
4.742449760127328
 30
0.0
  0
VERTEX
  5
4E5
330
4A9
100
AcDbEntity
  8
4
100
AcDbVertex
100
AcDb2dVertex
 10
47.48490587409924
 20
4.730617082401067
 30
0.0
  0
VERTEX
  5
4E6
330
4A9
100
AcDbEntity
  8
4
100
AcDbVertex
100
AcDb2dVertex
 10
47.45088692563649
 20
4.721742574106428
 30
0.0
  0
VERTEX
  5
4E7
330
4A9
100
AcDbEntity
  8
4
100
AcDbVertex
100
AcDb2dVertex
 10
47.41538889245839
 20
4.714347150527828
 30
0.0
  0
VERTEX
  5
4E8
330
4A9
100
AcDbEntity
  8
4
100
AcDbVertex
100
AcDb2dVertex
 10
47.37989085927984
 20
4.706951726948773
 30
0.0
  0
VERTEX
  5
4E9
330
4A9
100
AcDbEntity
  8
4
100
AcDbVertex
100
AcDb2dVertex
 10
47.34439282610128
 20
4.702514472801567
 30
0.0
  0
VERTEX
  5
4EA
330
4A9
100
AcDbEntity
  8
4
100
AcDbVertex
100
AcDb2dVertex
 10
47.30741570820737
 20
4.699556303370172
 30
0.0
  0
VERTEX
  5
4EB
330
4A9
100
AcDbEntity
  8
4
100
AcDbVertex
100
AcDb2dVertex
 10
47.27043859031346
 20
4.699556303370172
 30
0.0
  0
VERTEX
  5
4EC
330
4A9
100
AcDbEntity
  8
4
100
AcDbVertex
100
AcDb2dVertex
 10
47.27043859031346
 20
4.495442612594615
 30
0.0
  0
VERTEX
  5
4ED
330
4A9
100
AcDbEntity
  8
4
100
AcDbVertex
100
AcDb2dVertex
 10
47.27043859031346
 20
4.495442612594615
 30
0.0
  0
SEQEND
  5
4EE
330
4A9
100
AcDbEntity
  8
4
  0
POLYLINE
  5
4EF
330
264
100
AcDbEntity
  8
4
100
AcDb2dPolyline
 66
     1
 10
0.0
 20
0.0
 30
0.0
  0
VERTEX
  5
4F0
330
4EF
100
AcDbEntity
  8
4
100
AcDbVertex
100
AcDb2dVertex
 10
48.18895019880256
 20
5.40360062807349
 30
0.0
  0
VERTEX
  5
4F1
330
4EF
100
AcDbEntity
  8
4
100
AcDbVertex
100
AcDb2dVertex
 10
48.18895019880256
 20
12.53130987333679
 30
0.0
  0
VERTEX
  5
4F2
330
4EF
100
AcDbEntity
  8
4
100
AcDbVertex
100
AcDb2dVertex
 10
47.984836508027
 20
12.53130987333679
 30
0.0
  0
VERTEX
  5
4F3
330
4EF
100
AcDbEntity
  8
4
100
AcDbVertex
100
AcDb2dVertex
 10
47.984836508027
 20
5.40360062807349
 30
0.0
  0
VERTEX
  5
4F4
330
4EF
100
AcDbEntity
  8
4
100
AcDbVertex
100
AcDb2dVertex
 10
48.18895019880256
 20
5.40360062807349
 30
0.0
  0
VERTEX
  5
4F5
330
4EF
100
AcDbEntity
  8
4
100
AcDbVertex
100
AcDb2dVertex
 10
48.18895019880256
 20
5.40360062807349
 30
0.0
  0
SEQEND
  5
4F6
330
4EF
100
AcDbEntity
  8
4
  0
HATCH
  5
4F7
330
264
100
AcDbEntity
  8
4
100
AcDbHatch
 10
0.0
 20
0.0
 30
0.0
210
0.0
220
0.0
230
1.0
  2
SOLID
 70
     1
 71
     0
 91
        2
 92
        7
 72
     0
 73
     1
 93
        4
 10
48.08689335341478
 20
12.53130987333679
 10
47.984836508027
 20
12.53130987333679
 10
47.984836508027
 20
5.40360062807349
 10
48.08689335341478
 20
5.40360062807349
 97
        0
 92
        7
 72
     0
 73
     1
 93
       42
 10
48.02477179535299
 20
5.094471922478987
 10
48.07653976040455
 20
5.239422224623467
 10
48.08689335341478
 20
5.40360062807349
 10
47.984836508027
 20
5.40360062807349
 10
47.984836508027
 20
5.368102594894935
 10
47.98187833859538
 20
5.332604561715925
 10
47.9774410844484
 20
5.297106528541917
 10
47.97152474558515
 20
5.261608495359723
 10
47.96265023728937
 20
5.227589546891977
 10
47.95377572899633
 20
5.195049683151637
 10
47.94194305126985
 20
5.162509819404021
 10
47.93011037354427
 20
5.129969955657998
 10
47.91531952638615
 20
5.098909176626193
 10
47.9005286792285
 20
5.067848397594843
 10
47.88277966264013
 20
5.039745787994206
 10
47.8650306460504
 20
5.010164093680486
 10
47.84432346002995
 20
4.983540568794978
 10
47.8236162740086
 20
4.955437959196615
 10
47.8014300032728
 20
4.930293519030328
 10
47.77776464781891
 20
4.906628163576442
 10
47.75262020765331
 20
4.88296280812483
 10
47.72747576748407
 20
4.860776537387891
 10
47.69937315788502
 20
4.840069351367674
 10
47.67127054828415
 20
4.819362165346319
 10
47.64316793868329
 20
4.801613148757041
 10
47.61358624437071
 20
4.783864132168446
 10
47.58252546534004
 20
4.769073285010108
 10
47.5499856015931
 20
4.754282437853362
 10
47.51744573784617
 20
4.742449760127328
 10
47.48490587409924
 20
4.730617082401067
 10
47.45088692563558
 20
4.721742574106201
 10
47.41538889245839
 20
4.714347150527828
 10
47.37989085927984
 20
4.706951726948773
 10
47.34439282610128
 20
4.702514472801567
 10
47.30741570820737
 20
4.699556303370172
 10
47.27043859031346
 20
4.699556303370172
 10
47.27043859031346
 20
4.597499457982394
 10
47.43461699376303
 20
4.607853050992616
 10
47.58992088891864
 20
4.659621016044638
 10
47.72451759805244
 20
4.732096167116878
 10
47.84876071417693
 20
4.835632097220695
 10
47.95229664428006
 20
4.949521620334053
 97
        0
 75
     0
 76
     1
 47
0.0138128488116407
 98
        2
 10
48.05572044108931
 20
10.80073130087294
 10
47.93867172846193
 20
5.054490798426286
  0
ENDBLK
  5
4F8
330
264
100
AcDbEntity
  8
0
100
AcDbBlockEnd
  0
ENDSEC
  0
SECTION
  2
ENTITIES
  0
LINE
  5
37
330
2
100
AcDbEntity
  8
0
100
AcDbLine
 10
355.6566071837878
 20
2161.103718613565
 30
0.0
 11
355.6566071837878
 21
2103.571961843826
 31
0.0
  0
LINE
  5
38
330
2
100
AcDbEntity
  8
0
100
AcDbLine
 10
355.6566071837878
 20
2094.740200977495
 30
0.0
 11
355.6566071837878
 21
2065.579444248035
 31
0.0
  0
ARC
  5
39
330
2
100
AcDbEntity
  8
0
100
AcDbCircle
 10
560.1566071837878
 20
1974.320421715795
 30
0.0
 40
302.5
100
AcDbArc
 50
55.36949322241332
 51
124.6305067775867
  0
ARC
  5
3A
330
2
100
AcDbEntity
  8
0
100
AcDbCircle
 10
689.1566071837874
 20
2161.103718613564
 30
0.0
 40
75.5
100
AcDbArc
 50
0.0
 51
55.36949322241332
1001
GENIUS_GENODEF_13
1002
{
1000
HIER
1070
     0
1002
}
1002
{
1000
MANEDIT
1070
     0
1002
}
1002
{
1000
NOSEL
1070
     0
1002
}
1002
{
1000
BEHIND
1070
     0
1002
}
1002
{
1000
REACTOR
1002
}
1001
GENIUS_GENOBJ-N-FIL_13
1002
{
1000
OWNER
1000
GEN
1002
}
  0
ARC
  5
3D
330
2
100
AcDbEntity
  8
0
100
AcDbCircle
 10
431.1566071837874
 20
2161.103718613565
 30
0.0
 40
75.5
100
AcDbArc
 50
124.6305067775867
 51
180.0
1001
GENIUS_GENODEF_13
1002
{
1000
HIER
1070
     0
1002
}
1002
{
1000
MANEDIT
1070
     0
1002
}
1002
{
1000
NOSEL
1070
     0
1002
}
1002
{
1000
BEHIND
1070
     0
1002
}
1002
{
1000
REACTOR
1002
}
1001
GENIUS_GENOBJ-N-FIL_13
1002
{
1000
OWNER
1000
GEN
1002
}
  0
LINE
  5
3E
330
2
100
AcDbEntity
  8
0
100
AcDbLine
 10
764.6566071837874
 20
2061.820421715796
 30
0.0
 11
763.1566071837873
 21
2061.820421715796
 31
0.0
  0
ARC
  5
3F
330
2
100
AcDbEntity
  8
0
100
AcDbCircle
 10
560.1566071837878
 20
2139.320421715796
 30
0.0
 40
302.5
100
AcDbArc
 50
235.3694932224124
 51
304.6305067775867
  0
ARC
  5
40
330
2
100
AcDbEntity
  8
0
100
AcDbCircle
 10
431.1566071837874
 20
1952.537124818027
 30
0.0
 40
75.5
100
AcDbArc
 50
180.0
 51
235.3694932224124
1001
GENIUS_GENODEF_13
1002
{
1000
HIER
1070
     0
1002
}
1002
{
1000
MANEDIT
1070
     0
1002
}
1002
{
1000
NOSEL
1070
     0
1002
}
1002
{
1000
BEHIND
1070
     0
1002
}
1002
{
1000
REACTOR
1002
}
1001
GENIUS_GENOBJ-N-FIL_13
1002
{
1000
OWNER
1000
GEN
1002
}
  0
ARC
  5
41
330
2
100
AcDbEntity
  8
0
100
AcDbCircle
 10
689.1566071837874
 20
1952.537124818027
 30
0.0
 40
75.5
100
AcDbArc
 50
304.6305067775867
 51
0.0
1001
GENIUS_GENODEF_13
1002
{
1000
HIER
1070
     0
1002
}
1002
{
1000
MANEDIT
1070
     0
1002
}
1002
{
1000
NOSEL
1070
     0
1002
}
1002
{
1000
BEHIND
1070
     0
1002
}
1002
{
1000
REACTOR
1002
}
1001
GENIUS_GENOBJ-N-FIL_13
1002
{
1000
OWNER
1000
GEN
1002
}
  0
LINE
  5
42
330
2
100
AcDbEntity
  8
0
100
AcDbLine
 10
764.3216706932484
 20
2064.329444248031
 30
0.0
 11
763.3152802897443
 21
2062.586324936914
 31
0.0
  0
ARC
  5
43
330
2
100
AcDbEntity
  8
0
100
AcDbCircle
 10
760.9601786123594
 20
2014.820421715793
 30
0.0
 40
5.446428571428463
100
AcDbArc
 50
316.7634551556812
 51
43.23654484431873
  0
LINE
  5
44
330
2
100
AcDbEntity
  8
0
100
AcDbLine
 10
764.6566071837874
 20
2061.820421715796
 30
0.0
 11
763.1602700309095
 21
2061.820421715796
 31
0.0
  0
LINE
  5
45
330
2
100
AcDbEntity
  8
0
100
AcDbLine
 10
764.6566071837874
 20
2061.820421715796
 30
0.0
 11
764.6566071837874
 21
2026.236302148961
 31
0.0
1001
GENIUS_GENODEF_13
1002
{
1000
HIER
1070
     0
1002
}
1002
{
1000
MANEDIT
1070
     0
1002
}
1002
{
1000
NOSEL
1070
     0
1002
}
1002
{
1000
BEHIND
1070
     0
1002
}
1002
{
1000
REACTOR
1002
}
1001
GENIUS_GENOBJ-N-CEN_13
1002
{
1000
OWNER
1000
GEN
1002
}
  0
ARC
  5
47
330
2
100
AcDbEntity
  8
0
100
AcDbCircle
 10
762.1566071837873
 20
2065.579444248031
 30
0.0
 40
2.5
100
AcDbArc
 50
330.0000000000001
 51
0.0
1001
GENIUS_GENODEF_13
1002
{
1000
HIER
1070
     0
1002
}
1002
{
1000
MANEDIT
1070
     0
1002
}
1002
{
1000
NOSEL
1070
     0
1002
}
1002
{
1000
BEHIND
1070
     0
1002
}
1002
{
1000
REACTOR
1002
}
1001
GENIUS_GENOBJ-N-FIL_13
1002
{
1000
OWNER
1000
GEN
1002
}
  0
LINE
  5
48
330
2
100
AcDbEntity
  8
0
100
AcDbLine
 10
764.6566071837874
 20
2006.647172639099
 30
0.0
 11
764.6566071837874
 21
1972.714870467758
 31
0.0
  0
CIRCLE
  5
49
330
2
100
AcDbEntity
  8
VENTILUKAPPE
 62
     7
100
AcDbCircle
 10
1169.756049216978
 20
2091.035459294001
 30
0.0
 40
7.929719931403196
  0
ARC
  5
4B
330
2
100
AcDbEntity
  8
0
100
AcDbCircle
 10
765.6566071837874
 20
2019.236302148958
 30
0.0
 40
1.0
100
AcDbArc
 50
180.0
 51
223.2365448443187
1001
GENIUS_GENODEF_13
1002
{
1000
HIER
1070
     0
1002
}
1002
{
1000
MANEDIT
1070
     0
1002
}
1002
{
1000
NOSEL
1070
     0
1002
}
1002
{
1000
BEHIND
1070
     0
1002
}
1002
{
1000
REACTOR
1002
}
1001
GENIUS_GENOBJ-N-FIL_13
1002
{
1000
OWNER
1000
GEN
1002
}
  0
LINE
  5
4C
330
2
100
AcDbEntity
  8
0
100
AcDbLine
 10
764.6566071837874
 20
1952.537124818027
 30
0.0
 11
764.6566071837874
 21
2010.404541282627
 31
0.0
  0
LINE
  5
4D
330
2
100
AcDbEntity
  8
0
100
AcDbLine
 10
764.6566071837874
 20
2161.103718613565
 30
0.0
 11
764.6566071837874
 21
2103.571961843826
 31
0.0
  0
LINE
  5
4E
330
2
100
AcDbEntity
  8
0
100
AcDbLine
 10
764.6566071837874
 20
2094.740200977495
 30
0.0
 11
764.6566071837874
 21
2065.579444248031
 31
0.0
  0
ARC
  5
4F
330
2
100
AcDbEntity
  8
0
100
AcDbCircle
 10
765.6566071837874
 20
2010.404541282627
 30
0.0
 40
1.0
100
AcDbArc
 50
136.7634551556812
 51
180.0
1001
GENIUS_GENODEF_13
1002
{
1000
HIER
1070
     0
1002
}
1002
{
1000
MANEDIT
1070
     0
1002
}
1002
{
1000
NOSEL
1070
     0
1002
}
1002
{
1000
BEHIND
1070
     0
1002
}
1002
{
1000
REACTOR
1002
}
1001
GENIUS_GENOBJ-N-FIL_13
1002
{
1000
OWNER
1000
GEN
1002
}
  0
ARC
  5
50
330
2
100
AcDbEntity
  8
0
100
AcDbCircle
 10
764.1813056935293
 20
2062.086324936913
 30
0.0
 40
1.0
100
AcDbArc
 50
149.9999999999998
 51
175.9999999999904
1001
GENIUS_GENODEF_13
1002
{
1000
HIER
1070
     0
1002
}
1002
{
1000
MANEDIT
1070
     0
1002
}
1002
{
1000
NOSEL
1070
     0
1002
}
1002
{
1000
BEHIND
1070
     0
1002
}
1002
{
1000
REACTOR
1002
}
1001
GENIUS_GENOBJ-N-FIL_13
1002
{
1000
OWNER
1000
GEN
1002
}
  0
CIRCLE
  5
51
330
2
100
AcDbEntity
  8
0
100
AcDbCircle
 10
1169.756049216978
 20
2091.035459294001
 30
0.0
 40
204.5
  0
LINE
  5
52
330
2
100
AcDbEntity
  8
AM_7
 48
5.0
100
AcDbLine
 10
1169.756049216978
 20
2091.035459294001
 30
0.0
 11
1377.256049216979
 21
2091.035459294001
 31
0.0
1001
GENIUS_GENOREF_13
1005
544
  0
LINE
  5
56
102
{ACAD_REACTORS
330
AA
102
}
330
2
100
AcDbEntity
  8
AM_7
 48
5.0
100
AcDbLine
 10
1169.756049216978
 20
2091.035459294001
 30
0.0
 11
1169.756049216978
 21
2298.535459294001
 31
0.0
1001
GENIUS_GENOREF_13
1005
544
  0
LINE
  5
57
330
2
100
AcDbEntity
  8
AM_7
 48
5.0
100
AcDbLine
 10
1169.756049216978
 20
2091.035459294001
 30
0.0
 11
962.2560492169782
 21
2091.035459294001
 31
0.0
1001
GENIUS_GENOREF_13
1005
544
  0
LINE
  5
58
330
2
100
AcDbEntity
  8
AM_7
 48
5.0
100
AcDbLine
 10
1169.756049216978
 20
2091.035459294001
 30
0.0
 11
1169.756049216978
 21
1851.47445725707
 31
0.0
1001
GENIUS_GENOREF_13
1005
544
  0
LINE
  5
59
330
2
100
AcDbEntity
  8
AM_7
 48
5.0
100
AcDbLine
 10
1217.415022200264
 20
2063.5195384128
 30
0.0
 11
1325.870452346504
 21
2000.902766622791
 31
0.0
1001
GENIUS_GENOREF_13
1005
543
  0
LINE
  5
5A
102
{ACAD_REACTORS
330
AA
102
}
330
2
100
AcDbEntity
  8
AM_7
 48
5.0
100
AcDbLine
 10
1123.505693170539
 20
2064.332803780473
 30
0.0
 11
1020.029354960846
 21
2004.59071206035
 31
0.0
1001
GENIUS_GENOREF_13
1005
543
  0
LINE
  5
5B
330
2
100
AcDbEntity
  8
AVERDECKTE
 48
0.5
100
AcDbLine
 10
1169.756049216979
 20
2233.035459294001
 30
0.0
 11
1169.756049216978
 21
2289.035459294
 31
0.0
1001
GENIUS_GENOREF_13
1005
542
  0
DIMENSION
  5
5E
330
2
100
AcDbEntity
  8
5
100
AcDbDimension
  2
*D1
 10
764.6566071837874
 20
2310.046143627672
 30
0.0
 11
568.1384081355827
 21
2320.848647030871
 31
0.0
 70
   128
  1
%%c<>
 71
     5
 42
409.0
  3
GEN-ISO
100
AcDbAlignedDimension
 13
355.6566071837874
 23
2113.79008633847
 33
0.0
 14
764.6566071837874
 24
2113.79008633847
 34
0.0
100
AcDbRotatedDimension
1001
ACAD
1000
DSTYLE
1002
{
1070
    47
1040
5.0
1070
    48
1040
5.0
1070
   171
1070
     0
1070
   271
1070
     0
1070
   272
1070
     0
1070
   279
1070
     2
1002
}
1001
GENIUS_GENDTOL_13
1000

1000
h7
1000

1040
0.0
1000
%%c<>
  0
DIMENSION
  5
6E
330
2
100
AcDbEntity
  8
5
100
AcDbDimension
  2
*D2
 10
329.1184608246766
 20
1836.820421715795
 30
0.0
 11
329.1184608246763
 21
2141.40179505424
 31
0.0
 70
   129
  1
<> {}{\C2;%%p3}
 71
     5
 42
439.9999999999997
  3
GEN-ISO
100
AcDbAlignedDimension
 13
560.1566071837878
 23
2276.820421715795
 33
0.0
 14
560.1566071837874
 24
1836.820421715795
 34
0.0
1001
ACAD
1000
DSTYLE
1002
{
1070
   286
1070
     0
1070
   284
1070
     0
1070
    47
1040
3.0
1070
    48
1040
3.0
1070
   171
1070
     0
1070
   271
1070
     0
1070
   272
1070
     0
1070
   274
1070
     1
1002
}
1001
GENIUS_GENDTOL_13
1000
TolPm
1000
h7
1000
{$3%%p$P}
1040
440.0
  0
LINE
  5
7B
330
2
100
AcDbEntity
  8
0
100
AcDbLine
 10
355.6566071837878
 20
2061.820421715799
 30
0.0
 11
355.6566071837869
 21
2026.236302148964
 31
0.0
1001
GENIUS_GENODEF_13
1002
{
1000
HIER
1070
     0
1002
}
1002
{
1000
MANEDIT
1070
     0
1002
}
1002
{
1000
NOSEL
1070
     0
1002
}
1002
{
1000
BEHIND
1070
     0
1002
}
1002
{
1000
REACTOR
1002
}
1001
GENIUS_GENOBJ-N-CEN_13
1002
{
1000
OWNER
1000
GEN
1002
}
  0
ARC
  5
7C
330
2
100
AcDbEntity
  8
0
100
AcDbCircle
 10
359.3530357552154
 20
2014.820421715796
 30
0.0
 40
5.446428571428463
100
AcDbArc
 50
136.7634551556812
 51
223.2365448443187
  0
ARC
  5
7D
330
2
100
AcDbEntity
  8
0
100
AcDbCircle
 10
354.6566071837874
 20
2010.404541282631
 30
0.0
 40
1.0
100
AcDbArc
 50
0.0
 51
43.23654484431873
1001
GENIUS_GENODEF_13
1002
{
1000
HIER
1070
     0
1002
}
1002
{
1000
MANEDIT
1070
     0
1002
}
1002
{
1000
NOSEL
1070
     0
1002
}
1002
{
1000
BEHIND
1070
     0
1002
}
1002
{
1000
REACTOR
1002
}
1001
GENIUS_GENOBJ-N-FIL_13
1002
{
1000
OWNER
1000
GEN
1002
}
  0
ARC
  5
7E
330
2
100
AcDbEntity
  8
0
100
AcDbCircle
 10
354.6566071837869
 20
2019.236302148961
 30
0.0
 40
1.0
100
AcDbArc
 50
316.7634551556812
 51
0.0
1001
GENIUS_GENODEF_13
1002
{
1000
HIER
1070
     0
1002
}
1002
{
1000
MANEDIT
1070
     0
1002
}
1002
{
1000
NOSEL
1070
     0
1002
}
1002
{
1000
BEHIND
1070
     0
1002
}
1002
{
1000
REACTOR
1002
}
1001
GENIUS_GENOBJ-N-FIL_13
1002
{
1000
OWNER
1000
GEN
1002
}
  0
ARC
  5
7F
330
2
100
AcDbEntity
  8
0
100
AcDbCircle
 10
356.1319086740459
 20
2062.086324936917
 30
0.0
 40
1.0
100
AcDbArc
 50
4.000000000009558
 51
29.99999999999993
1001
GENIUS_GENODEF_13
1002
{
1000
HIER
1070
     0
1002
}
1002
{
1000
MANEDIT
1070
     0
1002
}
1002
{
1000
NOSEL
1070
     0
1002
}
1002
{
1000
BEHIND
1070
     0
1002
}
1002
{
1000
REACTOR
1002
}
1001
GENIUS_GENOBJ-N-FIL_13
1002
{
1000
OWNER
1000
GEN
1002
}
  0
ARC
  5
80
330
2
100
AcDbEntity
  8
0
100
AcDbCircle
 10
358.1566071837879
 20
2065.579444248035
 30
0.0
 40
2.5
100
AcDbArc
 50
180.0
 51
210.0
1001
GENIUS_GENODEF_13
1002
{
1000
HIER
1070
     0
1002
}
1002
{
1000
MANEDIT
1070
     0
1002
}
1002
{
1000
NOSEL
1070
     0
1002
}
1002
{
1000
BEHIND
1070
     0
1002
}
1002
{
1000
REACTOR
1002
}
1001
GENIUS_GENOBJ-N-FIL_13
1002
{
1000
OWNER
1000
GEN
1002
}
  0
LINE
  5
81
330
2
100
AcDbEntity
  8
0
100
AcDbLine
 10
355.6566071837878
 20
2061.820421715799
 30
0.0
 11
357.1529443366658
 21
2061.8204217158
 31
0.0
  0
LINE
  5
82
330
2
100
AcDbEntity
  8
0
100
AcDbLine
 10
355.9915436743267
 20
2064.329444248035
 30
0.0
 11
356.9979340778309
 21
2062.586324936917
 31
0.0
  0
LINE
  5
83
330
2
100
AcDbEntity
  8
0
100
AcDbLine
 10
355.6566071837878
 20
2061.820421715799
 30
0.0
 11
357.1566071837878
 21
2061.820421715799
 31
0.0
  0
LINE
  5
84
330
2
100
AcDbEntity
  8
0
100
AcDbLine
 10
355.6566071837878
 20
2010.404541282631
 30
0.0
 11
355.6566071837878
 21
1952.537124818027
 31
0.0
  0
LWPOLYLINE
  5
85
330
2
100
AcDbEntity
  8
5
100
AcDbPolyline
 90
        4
 70
     0
 10
1174.523133321626
 20
1872.94048950459
 40
1.875
 41
1.875
 42
0.9999999999999998
 10
1172.932948294974
 20
1873.933936323001
 40
1.875
 41
1.875
 42
0.9999999999999996
 10
1174.523133321626
 20
1872.94048950459
 40
0.0
 41
0.0
 10
1225.112928785845
 20
1841.335191689761
 40
0.0
 41
0.0
1001
GENIUS_GENHINW_13
1000
UCSORG
1010
0.0
1020
0.0
1030
0.0
1000
UCSXDIR
1010
1.0
1020
0.0
1030
0.0
1000
UCSYDIR
1010
0.0
1020
1.0
1030
0.0
1000
HEADTYPE
1070
     6
1000
ENDTYPE
1070
     0
1000
PSTA
1011
1173.7280408083
1021
1873.437212913796
1031
0.0
1000
PVERTEX
1011
1225.112928785845
1021
1841.335191689761
1031
0.0
1000
TEXTHANDLE
1005
87
1000
TEXTVERHOR
1070
     0
1000
TYPE
1070
     1
1000
ISDIMLEADER
1070
     0
1000
GENZICIR
1040
1.5
1000
OBJ_USEPSTA
1070
     0
1000
OBJ_USEPEND
1070
     0
1000
DOCKPOINT
1011
1328.34066417235
1021
1834.984023538226
1031
0.0
1000
DOCKDIREC
1070
     1
1001
GENIUS_GENOREF_13
1005
540
  0
TEXT
  5
87
330
2
100
AcDbEntity
  8
6
100
AcDbText
 10
1226.385720991981
 20
1829.562399483625
 30
0.0
 40
10.5
  1
Wasseranschluß
 11
1226.385720991981
 21
1840.062399483625
 31
0.0
100
AcDbText
 73
     3
1001
GENIUS_GENHINW_13
1000
LEADERHANDLE
1005
85
1001
GENIUS_FIRSTVISTXT_14
1070
     1
1001
GENIUS_GENOREF_13
1005
540
  0
LINE
  5
8A
330
2
100
AcDbEntity
  8
AM_7
 48
5.0
100
AcDbLine
 10
344.906607183787
 20
2014.820421715796
 30
0.0
 11
775.4066071837878
 21
2014.820421715792
 31
0.0
1001
GENIUS_GENODEF_13
1002
{
1000
HIER
1070
     0
1002
}
1002
{
1000
MANEDIT
1070
     0
1002
}
1002
{
1000
NOSEL
1070
     0
1002
}
1002
{
1000
BEHIND
1070
     0
1002
}
1002
{
1000
REACTOR
1002
}
1001
GENIUS_GENOBJ-N-CEN_13
1002
{
1000
OWNER
1000
GEN
1002
}
  0
LINE
  5
8B
330
2
100
AcDbEntity
  8
AM_7
 48
2.0
100
AcDbLine
 10
759.8051595129895
 20
1971.820421715795
 30
0.0
 11
793.8051595129896
 21
1971.820421715795
 31
0.0
1001
GENIUS_GENODEF_13
1002
{
1000
HIER
1070
     0
1002
}
1002
{
1000
MANEDIT
1070
     0
1002
}
1002
{
1000
NOSEL
1070
     0
1002
}
1002
{
1000
BEHIND
1070
     0
1002
}
1002
{
1000
REACTOR
1002
}
1001
GENIUS_GENOBJ-N-CEN_13
1002
{
1000
OWNER
1000
GEN
1002
}
  0
LINE
  5
8C
330
2
100
AcDbEntity
  8
AM_0
100
AcDbLine
 10
764.6566071837874
 20
1998.874686829667
 30
0.0
 11
764.6566071837874
 21
1971.066979270989
 31
0.0
  0
LINE
  5
8D
330
2
100
AcDbEntity
  8
AM_0
100
AcDbLine
 10
355.6566071837869
 20
2019.236302148961
 30
0.0
 11
355.6566071837869
 21
2026.236302148964
 31
0.0
  0
DIMENSION
  5
8E
330
2
100
AcDbEntity
  8
AM_5
100
AcDbDimension
  2
*D3
 10
856.0346336629535
 20
1818.228346967972
 30
0.0
 11
846.2846336629533
 21
1895.024384341884
 31
0.0
  1
158{}{\C2;%%p3}
 71
     5
 42
153.592074747823
  3
AM_DIN$0
100
AcDbAlignedDimension
 13
786.6566071837869
 23
1971.820421715795
 33
0.0
 14
742.6123874901836
 24
1818.228346967972
 34
0.0
 50
90.0
100
AcDbRotatedDimension
1001
ACAD
1000
DSTYLE
1002
{
1070
   286
1070
     0
1070
   284
1070
     8
1070
   274
1070
     4
1070
   272
1070
     3
1070
    47
1040
3.0
1070
    48
1040
3.0
1070
   271
1070
     0
1002
}
1001
GENIUS_GENDTOL_13
1000
TolPm
1000

1000
{$3%%p$P}
1040
158.0
  0
LINE
  5
9D
330
2
100
AcDbEntity
  8
AM_0
100
AcDbLine
 10
764.6566071837874
 20
2026.236302148961
 30
0.0
 11
764.6566071837874
 21
2019.236302148958
 31
0.0
  0
CIRCLE
  5
9E
330
2
100
AcDbEntity
  8
AM_0
100
AcDbCircle
 10
1169.756049216978
 20
2091.035459294001
 30
0.0
 40
43.0
  0
ARC
  5
9F
330
2
100
AcDbEntity
  8
0
100
AcDbCircle
 10
760.9601786123594
 20
2099.156081410661
 30
0.0
 40
5.446428571428463
100
AcDbArc
 50
316.7634551556812
 51
43.23654484431873
  0
ARC
  5
A0
330
2
100
AcDbEntity
  8
0
100
AcDbCircle
 10
765.6566071837874
 20
2094.740200977495
 30
0.0
 40
1.0
100
AcDbArc
 50
136.7634551556812
 51
180.0
1001
GENIUS_GENODEF_13
1002
{
1000
HIER
1070
     0
1002
}
1002
{
1000
MANEDIT
1070
     0
1002
}
1002
{
1000
NOSEL
1070
     0
1002
}
1002
{
1000
BEHIND
1070
     0
1002
}
1002
{
1000
REACTOR
1002
}
1001
GENIUS_GENOBJ-N-FIL_13
1002
{
1000
OWNER
1000
GEN
1002
}
  0
ARC
  5
A1
330
2
100
AcDbEntity
  8
0
100
AcDbCircle
 10
765.6566071837874
 20
2103.571961843826
 30
0.0
 40
1.0
100
AcDbArc
 50
180.0
 51
223.2365448443187
1001
GENIUS_GENODEF_13
1002
{
1000
HIER
1070
     0
1002
}
1002
{
1000
MANEDIT
1070
     0
1002
}
1002
{
1000
NOSEL
1070
     0
1002
}
1002
{
1000
BEHIND
1070
     0
1002
}
1002
{
1000
REACTOR
1002
}
1001
GENIUS_GENOBJ-N-FIL_13
1002
{
1000
OWNER
1000
GEN
1002
}
  0
ARC
  5
A2
330
2
100
AcDbEntity
  8
0
100
AcDbCircle
 10
359.3530357552158
 20
2099.156081410661
 30
0.0
 40
5.446428571428463
100
AcDbArc
 50
136.7634551556812
 51
223.2365448443187
  0
ARC
  5
A3
330
2
100
AcDbEntity
  8
0
100
AcDbCircle
 10
354.6566071837879
 20
2094.740200977495
 30
0.0
 40
1.0
100
AcDbArc
 50
0.0
 51
43.23654484431873
1001
GENIUS_GENODEF_13
1002
{
1000
HIER
1070
     0
1002
}
1002
{
1000
MANEDIT
1070
     0
1002
}
1002
{
1000
NOSEL
1070
     0
1002
}
1002
{
1000
BEHIND
1070
     0
1002
}
1002
{
1000
REACTOR
1002
}
1001
GENIUS_GENOBJ-N-FIL_13
1002
{
1000
OWNER
1000
GEN
1002
}
  0
ARC
  5
A4
330
2
100
AcDbEntity
  8
0
100
AcDbCircle
 10
354.6566071837879
 20
2103.571961843826
 30
0.0
 40
1.0
100
AcDbArc
 50
316.7634551556812
 51
0.0
1001
GENIUS_GENODEF_13
1002
{
1000
HIER
1070
     0
1002
}
1002
{
1000
MANEDIT
1070
     0
1002
}
1002
{
1000
NOSEL
1070
     0
1002
}
1002
{
1000
BEHIND
1070
     0
1002
}
1002
{
1000
REACTOR
1002
}
1001
GENIUS_GENOBJ-N-FIL_13
1002
{
1000
OWNER
1000
GEN
1002
}
  0
LINE
  5
A5
330
2
100
AcDbEntity
  8
AM_7
 48
5.0
100
AcDbLine
 10
344.9066071837874
 20
2099.156081410661
 30
0.0
 11
775.4066071837883
 21
2099.156081410657
 31
0.0
1001
GENIUS_GENODEF_13
1002
{
1000
HIER
1070
     0
1002
}
1002
{
1000
MANEDIT
1070
     0
1002
}
1002
{
1000
NOSEL
1070
     0
1002
}
1002
{
1000
BEHIND
1070
     0
1002
}
1002
{
1000
REACTOR
1002
}
1001
GENIUS_GENOBJ-N-CEN_13
1002
{
1000
OWNER
1000
GEN
1002
}
  0
LINE
  5
A6
330
2
100
AcDbEntity
  8
AM_5
100
AcDbLine
 10
360.8713628084547
 20
2103.785313378111
 30
0.0
 11
759.4249806037046
 21
2103.785313378111
 31
0.0
  0
LINE
  5
A7
330
2
100
AcDbEntity
  8
AM_5
100
AcDbLine
 10
360.8713628084547
 20
2094.430235951333
 30
0.0
 11
759.4249806037046
 21
2094.430235951333
 31
0.0
  0
DIMENSION
  5
A8
102
{ACAD_XDICTIONARY
360
A9
102
}
102
{ACAD_REACTORS
330
AA
102
}
330
2
100
AcDbEntity
  8
AM_5
100
AcDbDimension
  2
*D7
 10
1020.029354960846
 20
2004.59071206035
 30
0.0
 11
958.4590300354918
 21
2213.027850197398
 31
0.0
 70
     2
  1
3x<>
 71
     5
 42
2.094395102393194
  3
AM_DIN$2
100
AcDb2LineAngularDimension
 13
1169.756049216978
 23
2091.035459294001
 33
0.0
 14
1169.756049216978
 24
2298.535459294001
 34
0.0
 15
1123.505693170539
 25
2064.332803780473
 35
0.0
 16
1019.19349801216
 26
2270.468920602493
 36
0.0
1001
ACAD_DIMASSOC_DIMLFAC
1040
1.0
1001
ACAD_DIMASSOC_CALC_DIMLFAC
1040
1.0
1001
ACAD_DIMASSOC_OVERRIDDEN_DIMLFAC
1040
1.0
1001
ACAD
1000
DSTYLE
1002
{
1070
   144
1040
1.0
1070
   286
1070
     0
1070
   284
1070
     8
1070
   274
1070
     2
1070
   272
1070
     3
1070
    40
1040
3.0
1070
    47
1040
1.0
1070
    48
1040
1.0
1070
   271
1070
     0
1002
}
  0
DIMENSION
  5
BD
330
2
100
AcDbEntity
  8
AM_5
100
AcDbDimension
  2
*D4
 10
299.5451945460081
 20
1818.228346967972
 30
0.0
 11
289.7951945460079
 21
2052.702434186221
 31
0.0
  1
<> {}{\C2;%%p5}
 71
     5
 42
468.9481744364975
  3
AM_DIN$0
100
AcDbAlignedDimension
 13
560.1100447034296
 23
2287.17652140447
 33
0.0
 14
377.7008268773916
 24
1818.228346967972
 34
0.0
 50
90.0
100
AcDbRotatedDimension
1001
ACAD
1000
DSTYLE
1002
{
1070
   286
1070
     0
1070
   284
1070
     8
1070
   274
1070
     4
1070
   272
1070
     3
1070
    40
1040
3.0
1070
    47
1040
5.0
1070
    48
1040
5.0
1070
   271
1070
     0
1002
}
1001
GENIUS_GENDTOL_13
1000
TolPm
1000

1000
{$3%%p$P}
1040
493.0
  0
CIRCLE
  5
CA
330
2
100
AcDbEntity
  8
AM_7
 48
5.0
100
AcDbCircle
 10
1169.756049216978
 20
2091.035459294001
 30
0.0
 40
170.0
  0
LINE
  5
CB
330
2
100
AcDbEntity
  8
AM_7
 48
5.0
100
AcDbLine
 10
1217.415022200264
 20
2063.5195384128
 30
0.0
 11
1325.870452346504
 21
2000.902766622791
 31
0.0
1001
GENIUS_GENOREF_13
1005
53B
  0
LINE
  5
CC
330
2
100
AcDbEntity
  8
AM_7
 48
5.0
100
AcDbLine
 10
1123.505693170539
 20
2064.332803780473
 30
0.0
 11
1020.029354960846
 21
2004.59071206035
 31
0.0
1001
GENIUS_GENOREF_13
1005
53B
  0
DIMENSION
  5
CD
330
2
100
AcDbEntity
  8
5
100
AcDbDimension
  2
*D5
 10
1094.077143667956
 20
2304.728695784706
 30
0.0
 11
1013.902644256363
 21
2181.017464602132
 31
0.0
 70
     1
  1
(<>)
 71
     5
 42
294.44863728671
  3
GEN-ISO
100
AcDbAlignedDimension
 13
1022.531730573624
 23
2006.035459294001
 33
0.0
 14
1169.756049216978
 24
2261.035459294001
 34
0.0
1001
ACAD
1000
DSTYLE
1002
{
1070
    40
1040
3.0
1070
   271
1070
     0
1070
   171
1070
     0
1002
}
1001
GENIUS_GENDTOL_13
1000

1000
h7
1000

1040
0.0
1000
(<>)
  0
LINE
  5
DA
330
2
100
AcDbEntity
  8
AM_3
 48
3.0
100
AcDbLine
 10
1182.756049216978
 20
2241.535459294001
 30
0.0
 11
1182.756049216978
 21
2219.111554246644
 31
0.0
1001
GENIUS_GENODEF_13
1002
{
1000
HIER
1070
     0
1002
}
1002
{
1000
MANEDIT
1070
     0
1002
}
1002
{
1000
NOSEL
1070
     0
1002
}
1002
{
1000
BEHIND
1070
     0
1002
}
1002
{
1000
REACTOR
1002
}
1001
GENIUS_GENOBJ-N-CEN_13
1002
{
1000
OWNER
1000
GEN
1002
}
  0
LINE
  5
DD
330
2
100
AcDbEntity
  8
AM_3
 48
3.0
100
AcDbLine
 10
1156.75604921698
 20
2241.535459294001
 30
0.0
 11
1156.75604921698
 21
2191.035459294001
 31
0.0
1001
GENIUS_GENODEF_13
1002
{
1000
HIER
1070
     0
1002
}
1002
{
1000
MANEDIT
1070
     0
1002
}
1002
{
1000
NOSEL
1070
     0
1002
}
1002
{
1000
BEHIND
1070
     0
1002
}
1002
{
1000
REACTOR
1002
}
1001
GENIUS_GENOBJ-N-CEN_13
1002
{
1000
OWNER
1000
GEN
1002
}
  0
ARC
  5
DE
330
2
100
AcDbEntity
  8
AM_3
 48
3.0
100
AcDbCircle
 10
1166.161790226938
 20
2239.139098446974
 30
0.0
 40
2.77539230657983
100
AcDbArc
 50
20.81447086368564
 51
77.63626452992918
  0
LINE
  5
DF
330
2
100
AcDbEntity
  8
AM_3
 48
3.0
100
AcDbLine
 10
1168.242116010806
 20
2241.339669162823
 30
0.0
 11
1171.269982423149
 21
2241.339669162823
 31
0.0
  0
ARC
  5
E0
330
2
100
AcDbEntity
  8
AM_3
 48
3.0
100
AcDbCircle
 10
1166.25604921698
 20
2243.535459294001
 30
0.0
 40
2.0
100
AcDbArc
 50
0.0
 51
90.0
  0
ARC
  5
E1
330
2
100
AcDbEntity
  8
AM_3
 48
3.0
100
AcDbCircle
 10
1166.032250297905
 20
2239.641794798989
 30
0.0
 40
2.786805307953311
100
AcDbArc
 50
12.20669979367285
 51
74.94634181856003
  0
CIRCLE
  5
E2
330
2
100
AcDbEntity
  8
AM_3
 48
3.0
100
AcDbCircle
 10
1169.756049216978
 20
2261.035459294001
 30
0.0
 40
6.0
  0
LINE
  5
E3
330
2
100
AcDbEntity
  8
AM_3
 48
3.0
100
AcDbLine
 10
1158.756049216978
 20
2243.535459294001
 30
0.0
 11
1180.756049216978
 21
2243.535459294001
 31
0.0
  0
ARC
  5
E4
330
2
100
AcDbEntity
  8
AM_3
 48
3.0
100
AcDbCircle
 10
1169.756049216978
 20
2258.535459294001
 30
0.0
 40
15.0
100
AcDbArc
 50
0.0
 51
180.0
  0
LINE
  5
E5
330
2
100
AcDbEntity
  8
AM_3
 48
3.0
100
AcDbLine
 10
1166.756049216978
 20
2242.332965352705
 30
0.0
 11
1166.756049216978
 21
2236.562148678959
 31
0.0
1001
GENIUS_GENODEF_13
1002
{
1000
HIER
1070
     0
1002
}
1002
{
1000
MANEDIT
1070
     0
1002
}
1002
{
1000
NOSEL
1070
     0
1002
}
1002
{
1000
BEHIND
1070
     0
1002
}
1002
{
1000
REACTOR
1002
}
1001
GENIUS_GENOBJ-N-CEN_13
1002
{
1000
OWNER
1000
GEN
1002
}
  0
LINE
  5
E6
330
2
100
AcDbEntity
  8
AM_3
 48
3.0
100
AcDbLine
 10
1164.75604921698
 20
2254.398825081348
 30
0.0
 11
1164.75604921698
 21
2238.937494238382
 31
0.0
1001
GENIUS_GENODEF_13
1002
{
1000
HIER
1070
     0
1002
}
1002
{
1000
MANEDIT
1070
     0
1002
}
1002
{
1000
NOSEL
1070
     0
1002
}
1002
{
1000
BEHIND
1070
     0
1002
}
1002
{
1000
REACTOR
1002
}
1001
GENIUS_GENOBJ-N-CEN_13
1002
{
1000
OWNER
1000
GEN
1002
}
  0
ARC
  5
E7
330
2
100
AcDbEntity
  8
AM_3
 48
3.0
100
AcDbCircle
 10
1158.756049216978
 20
2240.332965352704
 30
0.0
 40
2.0
100
AcDbArc
 50
90.0
 51
180.0
1001
GENIUS_GENOBJ-N-CEN_13
1002
{
1000
OWNER
1000
GEN
1002
}
1001
GENIUS_GENODEF_13
1002
{
1000
HIER
1070
     0
1002
}
1002
{
1000
MANEDIT
1070
     0
1002
}
1002
{
1000
NOSEL
1070
     0
1002
}
1002
{
1000
BEHIND
1070
     0
1002
}
1002
{
1000
REACTOR
1002
}
1001
GENIUS_GENOBJ-N-FIL_13
1002
{
1000
OWNER
1000
GEN
1002
}
  0
ARC
  5
E8
330
2
100
AcDbEntity
  8
AM_3
 48
3.0
100
AcDbCircle
 10
1158.756049216978
 20
2241.535459294001
 30
0.0
 40
2.0
100
AcDbArc
 50
90.0
 51
180.0
1001
GENIUS_GENOBJ-N-CEN_13
1002
{
1000
OWNER
1000
GEN
1002
}
1001
GENIUS_GENODEF_13
1002
{
1000
HIER
1070
     0
1002
}
1002
{
1000
MANEDIT
1070
     0
1002
}
1002
{
1000
NOSEL
1070
     0
1002
}
1002
{
1000
BEHIND
1070
     0
1002
}
1002
{
1000
REACTOR
1002
}
1001
GENIUS_GENOBJ-N-FIL_13
1002
{
1000
OWNER
1000
GEN
1002
}
  0
LINE
  5
E9
330
2
100
AcDbEntity
  8
AM_3
 48
3.0
100
AcDbLine
 10
1154.756049216978
 20
2258.535459294001
 30
0.0
 11
1154.756049216978
 21
2248.280282127575
 31
0.0
  0
ARC
  5
EA
330
2
100
AcDbEntity
  8
AM_3
 48
3.0
100
AcDbCircle
 10
1165.047335243112
 20
2247.319655043031
 30
0.0
 40
10.33602304889329
100
AcDbArc
 50
174.6672502448834
 51
216.661818742649
  0
ARC
  5
EB
330
2
100
AcDbEntity
  8
AM_3
 48
3.0
100
AcDbCircle
 10
1164.75604921698
 20
2249.035459294001
 30
0.0
 40
3.5
100
AcDbArc
 50
0.0
 51
180.0
  0
ARC
  5
EC
330
2
100
AcDbEntity
  8
AM_3
 48
3.0
100
AcDbCircle
 10
1163.25604921698
 20
2243.535459294001
 30
0.0
 40
2.0
100
AcDbArc
 50
90.0
 51
180.0
  0
LINE
  5
ED
330
2
100
AcDbEntity
  8
AM_3
 48
3.0
100
AcDbLine
 10
1163.25604921698
 20
2245.535459294001
 30
0.0
 11
1166.25604921698
 21
2245.535459294001
 31
0.0
  0
LINE
  5
EE
330
2
100
AcDbEntity
  8
AM_3
 48
3.0
100
AcDbLine
 10
1168.256049216978
 20
2249.035459294001
 30
0.0
 11
1168.256049216978
 21
2243.535459294001
 31
0.0
1001
GENIUS_GENODEF_13
1002
{
1000
HIER
1070
     0
1002
}
1002
{
1000
MANEDIT
1070
     0
1002
}
1002
{
1000
NOSEL
1070
     0
1002
}
1002
{
1000
BEHIND
1070
     0
1002
}
1002
{
1000
REACTOR
1002
}
1001
GENIUS_GENOBJ-N-CEN_13
1002
{
1000
OWNER
1000
GEN
1002
}
  0
LINE
  5
EF
330
2
100
AcDbEntity
  8
AM_3
 48
3.0
100
AcDbLine
 10
1161.25604921698
 20
2249.035459294001
 30
0.0
 11
1161.25604921698
 21
2243.535459294001
 31
0.0
1001
GENIUS_GENODEF_13
1002
{
1000
HIER
1070
     0
1002
}
1002
{
1000
MANEDIT
1070
     0
1002
}
1002
{
1000
NOSEL
1070
     0
1002
}
1002
{
1000
BEHIND
1070
     0
1002
}
1002
{
1000
REACTOR
1002
}
1001
GENIUS_GENOBJ-N-CEN_13
1002
{
1000
OWNER
1000
GEN
1002
}
  0
LINE
  5
F0
330
2
100
AcDbEntity
  8
AM_3
 48
3.0
100
AcDbLine
 10
1158.756049216978
 20
2242.332965352705
 30
0.0
 11
1166.756049216978
 21
2242.332965352705
 31
0.0
  0
LINE
  5
F1
330
2
100
AcDbEntity
  8
AM_3
 48
3.0
100
AcDbLine
 10
1168.756049216979
 20
2240.23103437071
 30
0.0
 11
1168.756049216979
 21
2236.562148678959
 31
0.0
1001
GENIUS_GENODEF_13
1002
{
1000
HIER
1070
     0
1002
}
1002
{
1000
MANEDIT
1070
     0
1002
}
1002
{
1000
NOSEL
1070
     0
1002
}
1002
{
1000
BEHIND
1070
     0
1002
}
1002
{
1000
REACTOR
1002
}
1001
GENIUS_GENOBJ-N-CEN_13
1002
{
1000
OWNER
1000
GEN
1002
}
  0
LINE
  5
F2
330
2
100
AcDbEntity
  8
AM_3
 48
3.0
100
AcDbLine
 10
1170.75604921698
 20
2240.23103437071
 30
0.0
 11
1170.75604921698
 21
2236.562148678959
 31
0.0
1001
GENIUS_GENODEF_13
1002
{
1000
HIER
1070
     0
1002
}
1002
{
1000
MANEDIT
1070
     0
1002
}
1002
{
1000
NOSEL
1070
     0
1002
}
1002
{
1000
BEHIND
1070
     0
1002
}
1002
{
1000
REACTOR
1002
}
1001
GENIUS_GENOBJ-N-CEN_13
1002
{
1000
OWNER
1000
GEN
1002
}
  0
LINE
  5
F3
330
2
100
AcDbEntity
  8
AM_3
 48
3.0
100
AcDbLine
 10
1172.75604921698
 20
2242.332965352705
 30
0.0
 11
1172.75604921698
 21
2236.562148678959
 31
0.0
1001
GENIUS_GENODEF_13
1002
{
1000
HIER
1070
     0
1002
}
1002
{
1000
MANEDIT
1070
     0
1002
}
1002
{
1000
NOSEL
1070
     0
1002
}
1002
{
1000
BEHIND
1070
     0
1002
}
1002
{
1000
REACTOR
1002
}
1001
GENIUS_GENOBJ-N-CEN_13
1002
{
1000
OWNER
1000
GEN
1002
}
  0
LINE
  5
F4
330
2
100
AcDbEntity
  8
AM_3
 48
3.0
100
AcDbLine
 10
1172.75604921698
 20
2242.332965352705
 30
0.0
 11
1180.756049216978
 21
2242.332965352705
 31
0.0
  0
ARC
  5
F5
330
2
100
AcDbEntity
  8
AM_3
 48
3.0
100
AcDbCircle
 10
1174.756049216978
 20
2249.035459294001
 30
0.0
 40
3.5
100
AcDbArc
 50
0.0
 51
180.0
  0
LINE
  5
F6
330
2
100
AcDbEntity
  8
AM_3
 48
3.0
100
AcDbLine
 10
1178.25604921698
 20
2249.035459294001
 30
0.0
 11
1178.25604921698
 21
2243.535459294001
 31
0.0
1001
GENIUS_GENODEF_13
1002
{
1000
HIER
1070
     0
1002
}
1002
{
1000
MANEDIT
1070
     0
1002
}
1002
{
1000
NOSEL
1070
     0
1002
}
1002
{
1000
BEHIND
1070
     0
1002
}
1002
{
1000
REACTOR
1002
}
1001
GENIUS_GENOBJ-N-CEN_13
1002
{
1000
OWNER
1000
GEN
1002
}
  0
ARC
  5
F7
330
2
100
AcDbEntity
  8
AM_3
 48
3.0
100
AcDbCircle
 10
1173.350308207019
 20
2239.139098446974
 30
0.0
 40
2.775392306579831
100
AcDbArc
 50
102.3637354700708
 51
159.1855291363143
  0
LINE
  5
F8
330
2
100
AcDbEntity
  8
AM_3
 48
3.0
100
AcDbLine
 10
1168.756049216979
 20
2240.23103437071
 30
0.0
 11
1170.75604921698
 21
2240.23103437071
 31
0.0
  0
LINE
  5
F9
330
2
100
AcDbEntity
  8
AM_3
 48
3.0
100
AcDbLine
 10
1173.256049216979
 20
2245.535459294001
 30
0.0
 11
1176.256049216978
 21
2245.535459294001
 31
0.0
  0
ARC
  5
FA
330
2
100
AcDbEntity
  8
AM_3
 48
3.0
100
AcDbCircle
 10
1173.256049216979
 20
2243.535459294001
 30
0.0
 40
2.0
100
AcDbArc
 50
90.0
 51
180.0
  0
LINE
  5
FB
330
2
100
AcDbEntity
  8
AM_3
 48
3.0
100
AcDbLine
 10
1171.25604921698
 20
2249.035459294001
 30
0.0
 11
1171.25604921698
 21
2243.535459294001
 31
0.0
1001
GENIUS_GENODEF_13
1002
{
1000
HIER
1070
     0
1002
}
1002
{
1000
MANEDIT
1070
     0
1002
}
1002
{
1000
NOSEL
1070
     0
1002
}
1002
{
1000
BEHIND
1070
     0
1002
}
1002
{
1000
REACTOR
1002
}
1001
GENIUS_GENOBJ-N-CEN_13
1002
{
1000
OWNER
1000
GEN
1002
}
  0
ARC
  5
FC
330
2
100
AcDbEntity
  8
AM_3
 48
3.0
100
AcDbCircle
 10
1173.479848136055
 20
2239.641794798989
 30
0.0
 40
2.786805307953311
100
AcDbArc
 50
105.0536581814399
 51
167.7933002063271
  0
ARC
  5
FD
330
2
100
AcDbEntity
  8
AM_3
 48
3.0
100
AcDbCircle
 10
1176.256049216978
 20
2243.535459294001
 30
0.0
 40
2.0
100
AcDbArc
 50
0.0
 51
90.0
  0
LINE
  5
FE
330
2
100
AcDbEntity
  8
AM_3
 48
3.0
100
AcDbLine
 10
1184.75604921698
 20
2258.535459294001
 30
0.0
 11
1184.75604921698
 21
2248.280282127575
 31
0.0
  0
ARC
  5
FF
330
2
100
AcDbEntity
  8
AM_3
 48
3.0
100
AcDbCircle
 10
1180.756049216978
 20
2240.332965352704
 30
0.0
 40
2.0
100
AcDbArc
 50
0.0
 51
90.0
1001
GENIUS_GENOBJ-N-CEN_13
1002
{
1000
OWNER
1000
GEN
1002
}
1001
GENIUS_GENODEF_13
1002
{
1000
HIER
1070
     0
1002
}
1002
{
1000
MANEDIT
1070
     0
1002
}
1002
{
1000
NOSEL
1070
     0
1002
}
1002
{
1000
BEHIND
1070
     0
1002
}
1002
{
1000
REACTOR
1002
}
1001
GENIUS_GENOBJ-N-FIL_13
1002
{
1000
OWNER
1000
GEN
1002
}
  0
ARC
  5
100
330
2
100
AcDbEntity
  8
AM_3
 48
3.0
100
AcDbCircle
 10
1180.756049216978
 20
2241.535459294001
 30
0.0
 40
2.0
100
AcDbArc
 50
0.0
 51
90.0
1001
GENIUS_GENOBJ-N-CEN_13
1002
{
1000
OWNER
1000
GEN
1002
}
1001
GENIUS_GENODEF_13
1002
{
1000
HIER
1070
     0
1002
}
1002
{
1000
MANEDIT
1070
     0
1002
}
1002
{
1000
NOSEL
1070
     0
1002
}
1002
{
1000
BEHIND
1070
     0
1002
}
1002
{
1000
REACTOR
1002
}
1001
GENIUS_GENOBJ-N-FIL_13
1002
{
1000
OWNER
1000
GEN
1002
}
  0
ARC
  5
101
330
2
100
AcDbEntity
  8
AM_3
 48
3.0
100
AcDbCircle
 10
1174.464763190845
 20
2247.319655043031
 30
0.0
 40
10.33602304889329
100
AcDbArc
 50
323.3381812573509
 51
5.332749755116543
  0
LINE
  5
102
330
2
100
AcDbEntity
  8
AM_3
 48
3.0
100
AcDbLine
 10
1158.756049216978
 20
2189.035459294001
 30
0.0
 11
1166.756049216978
 21
2189.035459294001
 31
0.0
  0
ARC
  5
103
330
2
100
AcDbEntity
  8
AM_3
 48
3.0
100
AcDbCircle
 10
1158.756049216978
 20
2191.035459294001
 30
0.0
 40
2.0
100
AcDbArc
 50
180.0
 51
270.0
1001
GENIUS_GENOBJ-N-CEN_13
1002
{
1000
OWNER
1000
GEN
1002
}
1001
GENIUS_GENODEF_13
1002
{
1000
HIER
1070
     0
1002
}
1002
{
1000
MANEDIT
1070
     0
1002
}
1002
{
1000
NOSEL
1070
     0
1002
}
1002
{
1000
BEHIND
1070
     0
1002
}
1002
{
1000
REACTOR
1002
}
1001
GENIUS_GENOBJ-N-FIL_13
1002
{
1000
OWNER
1000
GEN
1002
}
  0
LINE
  5
104
330
2
100
AcDbEntity
  8
AM_3
 48
3.0
100
AcDbLine
 10
1182.756049216978
 20
2219.816459262787
 30
0.0
 11
1182.756049216978
 21
2191.035459294001
 31
0.0
1001
GENIUS_GENODEF_13
1002
{
1000
HIER
1070
     0
1002
}
1002
{
1000
MANEDIT
1070
     0
1002
}
1002
{
1000
NOSEL
1070
     0
1002
}
1002
{
1000
BEHIND
1070
     0
1002
}
1002
{
1000
REACTOR
1002
}
1001
GENIUS_GENOBJ-N-CEN_13
1002
{
1000
OWNER
1000
GEN
1002
}
  0
ARC
  5
105
330
2
100
AcDbEntity
  8
AM_3
 48
3.0
100
AcDbCircle
 10
1180.756049216978
 20
2191.035459294001
 30
0.0
 40
2.0
100
AcDbArc
 50
270.0
 51
0.0
1001
GENIUS_GENODEF_13
1002
{
1000
HIER
1070
     0
1002
}
1002
{
1000
MANEDIT
1070
     0
1002
}
1002
{
1000
NOSEL
1070
     0
1002
}
1002
{
1000
BEHIND
1070
     0
1002
}
1002
{
1000
REACTOR
1002
}
1001
GENIUS_GENOBJ-N-FIL_13
1002
{
1000
OWNER
1000
GEN
1002
}
  0
LINE
  5
106
330
2
100
AcDbEntity
  8
AM_3
 48
3.0
100
AcDbLine
 10
1166.756049216978
 20
2189.035459294001
 30
0.0
 11
1180.756049216978
 21
2189.035459294001
 31
0.0
  0
LINE
  5
107
330
2
100
AcDbEntity
  8
AM_3
 48
3.0
100
AcDbLine
 10
1171.81829130405
 20
2217.959527889414
 30
0.0
 11
1171.81829130405
 21
2197.449733995984
 31
0.0
1001
GENIUS_GENODEF_13
1002
{
1000
HIER
1070
     0
1002
}
1002
{
1000
MANEDIT
1070
     0
1002
}
1002
{
1000
NOSEL
1070
     0
1002
}
1002
{
1000
BEHIND
1070
     0
1002
}
1002
{
1000
REACTOR
1002
}
1001
GENIUS_GENOBJ-N-CEN_13
1002
{
1000
OWNER
1000
GEN
1002
}
  0
LINE
  5
108
330
2
100
AcDbEntity
  8
AM_3
 48
3.0
100
AcDbLine
 10
1167.818291304049
 20
2217.959527889414
 30
0.0
 11
1167.818291304049
 21
2197.449733995984
 31
0.0
1001
GENIUS_GENODEF_13
1002
{
1000
HIER
1070
     0
1002
}
1002
{
1000
MANEDIT
1070
     0
1002
}
1002
{
1000
NOSEL
1070
     0
1002
}
1002
{
1000
BEHIND
1070
     0
1002
}
1002
{
1000
REACTOR
1002
}
1001
GENIUS_GENOBJ-N-CEN_13
1002
{
1000
OWNER
1000
GEN
1002
}
  0
LINE
  5
109
330
2
100
AcDbEntity
  8
AM_3
 48
3.0
100
AcDbLine
 10
1174.374095586945
 20
2219.546056847222
 30
0.0
 11
1165.416836298597
 21
2219.546056847222
 31
0.0
  0
LINE
  5
10A
330
2
100
AcDbEntity
  8
AM_3
 48
3.0
100
AcDbLine
 10
1174.286278917648
 20
2195.336845137853
 30
0.0
 11
1165.592468529627
 21
2195.336845137853
 31
0.0
  0
ELLIPSE
  5
10B
330
2
100
AcDbEntity
  8
AM_3
 48
3.0
100
AcDbEllipse
 10
1169.818291304052
 20
2195.336845137853
 30
0.0
 11
3.0
 21
-0.0000000000000006
 31
0.0
210
0.0
220
0.0
230
1.0
 40
0.9449126231368628
 41
2.30052398302186
 42
7.124253977747518
  0
ELLIPSE
  5
10C
330
2
100
AcDbEntity
  8
AM_3
 48
3.0
100
AcDbEllipse
 10
1169.818291304052
 20
2219.546056847222
 30
0.0
 11
3.0
 21
-0.0000000000000006
 31
0.0
210
0.0
220
0.0
230
1.0
 40
0.9201419238112578
 41
5.442116636611653
 42
10.2658466313373
  0
ELLIPSE
  5
10D
330
2
100
AcDbEntity
  8
AM_3
 48
3.0
100
AcDbEllipse
 10
1169.818291304052
 20
2219.546056847222
 30
0.0
 11
3.0
 21
-0.0000000000000006
 31
0.0
210
0.0
220
0.0
230
1.0
 40
0.7095173195865053
 41
3.141592653589792
 42
3.982661324157721
  0
ELLIPSE
  5
10E
330
2
100
AcDbEntity
  8
AM_3
 48
3.0
100
AcDbEllipse
 10
1169.818291304052
 20
2219.546056847222
 30
0.0
 11
3.0
 21
-0.0000000000000006
 31
0.0
210
0.0
220
0.0
230
1.0
 40
0.7095173195865053
 41
5.442116636611656
 42
6.283185307179584
  0
ELLIPSE
  5
10F
330
2
100
AcDbEntity
  8
AM_3
 48
3.0
100
AcDbEllipse
 10
1169.818291304052
 20
2195.336845137853
 30
0.0
 11
3.0
 21
-0.0000000000000006
 31
0.0
210
0.0
220
0.0
230
1.0
 40
0.6301633309658806
 41
3.141592653589792
 42
6.283185307179584
  0
LINE
  5
110
330
2
100
AcDbEntity
  8
AM_3
 48
3.0
100
AcDbLine
 10
1172.7560492118
 20
2242.332965399054
 30
0.0
 11
1172.7560492118
 21
2235.289177034959
 31
0.0
1001
GENIUS_GENODEF_13
1002
{
1000
HIER
1070
     0
1002
}
1002
{
1000
MANEDIT
1070
     0
1002
}
1002
{
1000
NOSEL
1070
     0
1002
}
1002
{
1000
BEHIND
1070
     0
1002
}
1002
{
1000
REACTOR
1002
}
1001
GENIUS_GENOBJ-N-CEN_13
1002
{
1000
OWNER
1000
GEN
1002
}
  0
LINE
  5
111
330
2
100
AcDbEntity
  8
AM_3
 48
3.0
100
AcDbLine
 10
1166.756049211799
 20
2242.332965399054
 30
0.0
 11
1166.756049211799
 21
2235.289177034959
 31
0.0
1001
GENIUS_GENODEF_13
1002
{
1000
HIER
1070
     0
1002
}
1002
{
1000
MANEDIT
1070
     0
1002
}
1002
{
1000
NOSEL
1070
     0
1002
}
1002
{
1000
BEHIND
1070
     0
1002
}
1002
{
1000
REACTOR
1002
}
1001
GENIUS_GENOBJ-N-CEN_13
1002
{
1000
OWNER
1000
GEN
1002
}
  0
ELLIPSE
  5
112
330
2
100
AcDbEntity
  8
AM_3
 48
3.0
100
AcDbEllipse
 10
1169.756049211801
 20
2235.289177034959
 30
0.0
 11
2.999999999999982
 21
-0.0000000000000006
 31
0.0
210
0.0
220
0.0
230
1.0
 40
0.7741598128011863
 41
3.141592653589792
 42
6.283185307179584
  0
LINE
  5
113
330
2
100
AcDbEntity
  8
AM_3
 48
3.0
100
AcDbLine
 10
1170.756049211801
 20
2240.231034417059
 30
0.0
 11
1170.756049211801
 21
2235.289177034959
 31
0.0
1001
GENIUS_GENODEF_13
1002
{
1000
HIER
1070
     0
1002
}
1002
{
1000
MANEDIT
1070
     0
1002
}
1002
{
1000
NOSEL
1070
     0
1002
}
1002
{
1000
BEHIND
1070
     0
1002
}
1002
{
1000
REACTOR
1002
}
1001
GENIUS_GENOBJ-N-CEN_13
1002
{
1000
OWNER
1000
GEN
1002
}
  0
SPLINE
  5
114
330
2
100
AcDbEntity
  8
AM_3
 48
3.0
100
AcDbSpline
210
0.0
220
0.0
230
1.0
 70
     8
 71
     3
 72
    18
 73
    14
 74
     0
 42
0.0000000001
 43
0.0000000001
 40
3.628703069452225
 40
3.628703069452225
 40
3.628703069452225
 40
3.628703069452225
 40
3.912493910190088
 40
3.912493910190088
 40
4.196284750927953
 40
4.196284750927953
 40
4.622228449873871
 40
4.622228449873871
 40
5.048172148819785
 40
5.048172148819785
 40
5.474115847765705
 40
5.474115847765705
 40
5.796074891333204
 40
5.796074891333204
 40
5.796074891333204
 40
5.796074891333204
 10
1168.755602560783
 20
2235.331442914515
 30
0.0
 10
1168.768068943941
 20
2235.313222605401
 30
0.0
 10
1168.797212928713
 20
2235.277586598813
 30
0.0
 10
1168.904121921938
 20
2235.192386817386
 30
0.0
 10
1168.981675408762
 20
2235.143481587479
 30
0.0
 10
1169.22733154454
 20
2235.035575018844
 30
0.0
 10
1169.421366059867
 20
2234.985542225046
 30
0.0
 10
1169.829772262984
 20
2234.956958526017
 30
0.0
 10
1170.042636730525
 20
2234.978463764163
 30
0.0
 10
1170.403197848
 20
2235.075880648713
 30
0.0
 10
1170.548927923118
 20
2235.151271942916
 30
0.0
 10
1170.706372862702
 20
2235.267521422766
 30
0.0
 10
1170.742352824279
 20
2235.310772080745
 30
0.0
 10
1170.756495862818
 20
2235.331442914518
 30
0.0
  0
LINE
  5
115
330
2
100
AcDbEntity
  8
AM_3
 48
3.0
100
AcDbLine
 10
1168.7560492118
 20
2240.231034417059
 30
0.0
 11
1168.7560492118
 21
2235.289177034959
 31
0.0
1001
GENIUS_GENODEF_13
1002
{
1000
HIER
1070
     0
1002
}
1002
{
1000
MANEDIT
1070
     0
1002
}
1002
{
1000
NOSEL
1070
     0
1002
}
1002
{
1000
BEHIND
1070
     0
1002
}
1002
{
1000
REACTOR
1002
}
1001
GENIUS_GENOBJ-N-CEN_13
1002
{
1000
OWNER
1000
GEN
1002
}
  0
LINE
  5
116
330
2
100
AcDbEntity
  8
0
100
AcDbLine
 10
742.6123874901836
 20
1818.228346967972
 30
0.0
 11
717.3572103237574
 21
1818.228346967972
 31
0.0
  0
LINE
  5
117
330
2
100
AcDbEntity
  8
0
100
AcDbLine
 10
742.6123874901836
 20
1820.228346967972
 30
0.0
 11
717.3572103237574
 21
1820.228346967972
 31
0.0
  0
LINE
  5
118
102
{ACAD_REACTORS
330
184
102
}
330
2
100
AcDbEntity
  8
7A
100
AcDbLine
 10
730.1123874901836
 20
1825.900187079244
 30
0.0
 11
730.1123874901836
 21
1813.488015445535
 31
0.0
  0
HATCH
  5
11B
330
2
100
AcDbEntity
  8
8
100
AcDbHatch
 10
0.0
 20
0.0
 30
0.0
210
0.0
220
0.0
230
1.0
  2
_U
 70
     0
 71
     0
 91
        1
 92
        1
 93
        4
 72
     1
 10
742.6123874901836
 20
1818.228346967972
 11
736.1123874901836
 21
1818.228346967972
 72
     1
 10
736.1123874901831
 20
1818.228346967972
 11
736.1123874901831
 21
1820.228346967972
 72
     1
 10
736.1123874901831
 20
1820.228346967972
 11
742.6123874901832
 21
1820.228346967972
 72
     1
 10
742.6123874901836
 20
1820.228346967972
 11
742.6123874901836
 21
1818.228346967972
 97
        0
 75
     0
 76
     0
 52
45.0
 41
1.5
 77
     0
 78
     1
 53
135.0
 43
796.3926702544608
 44
1693.288983403423
 45
1.060660171779819
 46
1.060660171779819
 79
     0
 98
        1
 10
796.3926702544608
 20
1693.288983403423
1001
GENIUS_GENODEF_13
1002
{
1000
HIER
1070
     0
1002
}
1002
{
1000
MANEDIT
1070
     0
1002
}
1002
{
1000
NOSEL
1070
     0
1002
}
1002
{
1000
BEHIND
1070
     0
1002
}
1002
{
1000
REACTOR
1002
}
1001
GENIUS_GENOBJ-N-HTC_13
1002
{
1000
OWNER
1000
GEN
1002
}
1001
GENIUS_GENHATCH_13
1002
{
1000
DATA
1040
45.0
1042
-2.5
1000
_U
1070
     0
1011
740.0354203349984
1021
1819.343838744846
1031
0.0
1002
}
1002
{
1000
UCS
1010
0.0
1020
0.0
1030
0.0
1010
1.0
1020
0.0
1030
0.0
1010
0.0
1020
1.0
1030
0.0
1002
}
  0
LINE
  5
11F
330
2
100
AcDbEntity
  8
0
100
AcDbLine
 10
742.6123874901836
 20
1820.228346967972
 30
0.0
 11
742.6123874901836
 21
1818.228346967972
 31
0.0
  0
LINE
  5
120
330
2
100
AcDbEntity
  8
0
100
AcDbLine
 10
736.1123874901831
 20
1820.228346967972
 30
0.0
 11
736.1123874901831
 21
1818.228346967972
 31
0.0
  0
ARC
  5
121
330
2
100
AcDbEntity
  8
0
100
AcDbCircle
 10
719.6123874901831
 20
1820.228346967972
 30
0.0
 40
2.0
100
AcDbArc
 50
0.0
 51
90.0
1001
GENIUS_GENODEF_13
1002
{
1000
HIER
1070
     0
1002
}
1002
{
1000
MANEDIT
1070
     0
1002
}
1002
{
1000
NOSEL
1070
     0
1002
}
1002
{
1000
BEHIND
1070
     0
1002
}
1002
{
1000
REACTOR
1002
}
1001
GENIUS_GENOBJ-N-FIL_13
1002
{
1000
OWNER
1000
GEN
1002
}
  0
ARC
  5
122
330
2
100
AcDbEntity
  8
0
100
AcDbCircle
 10
717.3572103237574
 20
1825.228346967972
 30
0.0
 40
7.0
100
AcDbArc
 50
183.0000000000056
 51
270.0
1001
GENIUS_GENODEF_13
1002
{
1000
HIER
1070
     0
1002
}
1002
{
1000
MANEDIT
1070
     0
1002
}
1002
{
1000
NOSEL
1070
     0
1002
}
1002
{
1000
BEHIND
1070
     0
1002
}
1002
{
1000
REACTOR
1002
}
1001
GENIUS_GENOBJ-N-FIL_13
1002
{
1000
OWNER
1000
GEN
1002
}
  0
ARC
  5
123
330
2
100
AcDbEntity
  8
0
100
AcDbCircle
 10
715.5297442358942
 20
1825.513325940582
 30
0.0
 40
7.2
100
AcDbArc
 50
186.0271871956046
 51
274.732518612131
1001
GENIUS_GENODEF_13
1002
{
1000
HIER
1070
     0
1002
}
1002
{
1000
MANEDIT
1070
     0
1002
}
1002
{
1000
NOSEL
1070
     0
1002
}
1002
{
1000
BEHIND
1070
     0
1002
}
1002
{
1000
REACTOR
1002
}
1001
GENIUS_GENOBJ-N-FIL_13
1002
{
1000
OWNER
1000
GEN
1002
}
  0
ARC
  5
124
330
2
100
AcDbEntity
  8
0
100
AcDbCircle
 10
717.3572103237574
 20
1825.228346967972
 30
0.0
 40
5.0
100
AcDbArc
 50
183.0000000000056
 51
270.0
1001
GENIUS_GENODEF_13
1002
{
1000
HIER
1070
     0
1002
}
1002
{
1000
MANEDIT
1070
     0
1002
}
1002
{
1000
NOSEL
1070
     0
1002
}
1002
{
1000
BEHIND
1070
     0
1002
}
1002
{
1000
REACTOR
1002
}
1001
GENIUS_GENOBJ-N-FIL_13
1002
{
1000
OWNER
1000
GEN
1002
}
  0
ARC
  5
125
330
2
100
AcDbEntity
  8
0
100
AcDbCircle
 10
717.3572103237574
 20
1825.228346967972
 30
0.0
 40
3.0
100
AcDbArc
 50
183.0000000000056
 51
270.0
1001
GENIUS_GENODEF_13
1002
{
1000
HIER
1070
     0
1002
}
1002
{
1000
MANEDIT
1070
     0
1002
}
1002
{
1000
NOSEL
1070
     0
1002
}
1002
{
1000
BEHIND
1070
     0
1002
}
1002
{
1000
REACTOR
1002
}
1001
GENIUS_GENOBJ-N-FIL_13
1002
{
1000
OWNER
1000
GEN
1002
}
  0
LINE
  5
126
330
2
100
AcDbEntity
  8
0
100
AcDbLine
 10
724.1123874901837
 20
1820.228346967972
 30
0.0
 11
724.1123874901837
 21
1818.228346967972
 31
0.0
  0
LINE
  5
127
330
2
100
AcDbEntity
  8
0
100
AcDbLine
 10
719.6123874901831
 20
1822.228346967972
 30
0.0
 11
717.3572103237574
 21
1822.228346967972
 31
0.0
  0
ARC
  5
128
330
2
100
AcDbEntity
  8
0
100
AcDbCircle
 10
570.506288139065
 20
2110.292301284747
 30
0.0
 40
276.0
100
AcDbArc
 50
289.447591382204
 51
297.893620414149
  0
LINE
  5
129
330
2
100
AcDbEntity
  8
0
100
AcDbLine
 10
712.3640626499859
 20
1824.966667186757
 30
0.0
 11
710.4165973590052
 21
1862.126518598533
 31
0.0
  0
LINE
  5
12A
330
2
100
AcDbEntity
  8
0
100
AcDbLine
 10
709.3079625668897
 20
1845.065885385045
 30
0.0
 11
708.4193382894969
 21
1862.021846686047
 31
0.0
  0
LINE
  5
12B
330
2
100
AcDbEntity
  8
0
100
AcDbLine
 10
708.369544510966
 20
1824.757323361785
 30
0.0
 11
706.4220792199884
 21
1861.917174773562
 31
0.0
  0
ARC
  5
12C
330
2
100
AcDbEntity
  8
0
100
AcDbCircle
 10
708.5186768571084
 20
1841.019031289784
 30
0.0
 40
1.0
100
AcDbArc
 50
3.0000000000056
 51
93.00000000000558
1001
GENIUS_GENODEF_13
1002
{
1000
HIER
1070
     0
1002
}
1002
{
1000
MANEDIT
1070
     0
1002
}
1002
{
1000
NOSEL
1070
     0
1002
}
1002
{
1000
BEHIND
1070
     0
1002
}
1002
{
1000
REACTOR
1002
}
1001
GENIUS_GENOBJ-N-FIL_13
1002
{
1000
OWNER
1000
GEN
1002
}
  0
ARC
  5
12D
330
2
100
AcDbEntity
  8
0
100
AcDbCircle
 10
712.250773813129
 20
1827.128346967972
 30
0.0
 40
2.0
100
AcDbArc
 50
3.0000000000056
 51
90.0
1001
GENIUS_GENODEF_13
1002
{
1000
HIER
1070
     0
1002
}
1002
{
1000
MANEDIT
1070
     0
1002
}
1002
{
1000
NOSEL
1070
     0
1002
}
1002
{
1000
BEHIND
1070
     0
1002
}
1002
{
1000
REACTOR
1002
}
1001
GENIUS_GENOBJ-N-FIL_13
1002
{
1000
OWNER
1000
GEN
1002
}
  0
LINE
  5
12E
330
2
100
AcDbEntity
  8
0
100
AcDbLine
 10
712.250773813129
 20
1829.128346967972
 30
0.0
 11
712.1459582545648
 21
1829.128346967972
 31
0.0
  0
LINE
  5
12F
330
2
100
AcDbEntity
  8
0
100
AcDbLine
 10
714.3613217194925
 20
1825.071339099243
 30
0.0
 11
714.3528484412041
 21
1825.233018880458
 31
0.0
  0
LINE
  5
130
330
2
100
AcDbEntity
  8
0
100
AcDbLine
 10
714.3613217194925
 20
1825.071339099243
 30
0.0
 11
714.2480328826395
 21
1827.233018880458
 31
0.0
  0
LINE
  5
131
330
2
100
AcDbEntity
  8
0
100
AcDbLine
 10
710.3668035804749
 20
1824.861995274271
 30
0.0
 11
709.5173063918618
 21
1841.071367246027
 31
0.0
  0
ARC
  5
132
330
2
100
AcDbEntity
  8
0
100
AcDbCircle
 10
710.411264014132
 20
1843.120962271779
 30
0.0
 40
1.0
100
AcDbArc
 50
3.0000000000056
 51
93.00000000000558
1001
GENIUS_GENODEF_13
1002
{
1000
HIER
1070
     0
1002
}
1002
{
1000
MANEDIT
1070
     0
1002
}
1002
{
1000
NOSEL
1070
     0
1002
}
1002
{
1000
BEHIND
1070
     0
1002
}
1002
{
1000
REACTOR
1002
}
1001
GENIUS_GENOBJ-N-FIL_13
1002
{
1000
OWNER
1000
GEN
1002
}
  0
ARC
  5
133
330
2
100
AcDbEntity
  8
0
100
AcDbCircle
 10
710.3065921016459
 20
1845.118221341288
 30
0.0
 40
1.0
100
AcDbArc
 50
182.9999999999925
 51
273.0000000000056
1001
GENIUS_GENODEF_13
1002
{
1000
HIER
1070
     0
1002
}
1002
{
1000
MANEDIT
1070
     0
1002
}
1002
{
1000
NOSEL
1070
     0
1002
}
1002
{
1000
BEHIND
1070
     0
1002
}
1002
{
1000
REACTOR
1002
}
1001
GENIUS_GENOBJ-N-FIL_13
1002
{
1000
OWNER
1000
GEN
1002
}
  0
ARC
  5
134
330
2
100
AcDbEntity
  8
0
100
AcDbCircle
 10
708.4140049446223
 20
1843.016290359293
 30
0.0
 40
1.0
100
AcDbArc
 50
183.0000000000056
 51
273.0000000000056
1001
GENIUS_GENODEF_13
1002
{
1000
HIER
1070
     0
1002
}
1002
{
1000
MANEDIT
1070
     0
1002
}
1002
{
1000
NOSEL
1070
     0
1002
}
1002
{
1000
BEHIND
1070
     0
1002
}
1002
{
1000
REACTOR
1002
}
1001
GENIUS_GENOBJ-N-FIL_13
1002
{
1000
OWNER
1000
GEN
1002
}
  0
ARC
  5
135
330
2
100
AcDbEntity
  8
0
100
AcDbCircle
 10
701.4289315462146
 20
1861.655494992347
 30
0.0
 40
5.0
100
AcDbArc
 50
3.0000000000056
 51
108.175508901864
1001
GENIUS_GENODEF_13
1002
{
1000
HIER
1070
     0
1002
}
1002
{
1000
MANEDIT
1070
     0
1002
}
1002
{
1000
NOSEL
1070
     0
1002
}
1002
{
1000
BEHIND
1070
     0
1002
}
1002
{
1000
REACTOR
1002
}
1001
GENIUS_GENOBJ-N-FIL_13
1002
{
1000
OWNER
1000
GEN
1002
}
  0
ARC
  5
136
330
2
100
AcDbEntity
  8
0
100
AcDbCircle
 10
701.4289315462146
 20
1861.655494992347
 30
0.0
 40
7.0
100
AcDbArc
 50
3.0000000000056
 51
110.5888213471706
1001
GENIUS_GENODEF_13
1002
{
1000
HIER
1070
     0
1002
}
1002
{
1000
MANEDIT
1070
     0
1002
}
1002
{
1000
NOSEL
1070
     0
1002
}
1002
{
1000
BEHIND
1070
     0
1002
}
1002
{
1000
REACTOR
1002
}
1001
GENIUS_GENOBJ-N-FIL_13
1002
{
1000
OWNER
1000
GEN
1002
}
  0
ARC
  5
137
330
2
100
AcDbEntity
  8
0
100
AcDbCircle
 10
701.4289315462146
 20
1861.655494992347
 30
0.0
 40
9.0
100
AcDbArc
 50
117.7695771286052
 51
117.7695771286052
1001
GENIUS_GENODEF_13
1002
{
1000
HIER
1070
     0
1002
}
1002
{
1000
MANEDIT
1070
     0
1002
}
1002
{
1000
NOSEL
1070
     0
1002
}
1002
{
1000
BEHIND
1070
     0
1002
}
1002
{
1000
REACTOR
1002
}
1001
GENIUS_GENOBJ-N-FIL_13
1002
{
1000
OWNER
1000
GEN
1002
}
  0
LINE
  5
138
330
2
100
AcDbEntity
  8
0
100
AcDbLine
 10
658.2159655041059
 20
1852.821890370171
 30
0.0
 11
658.588784385508
 21
1851.82087029637
 31
0.0
  0
ARC
  5
139
330
2
100
AcDbEntity
  8
0
100
AcDbCircle
 10
661.4001319346717
 20
1852.867925671132
 30
0.0
 40
3.0
100
AcDbArc
 50
200.4272913906806
 51
289.447591382204
1001
GENIUS_GENODEF_13
1002
{
1000
HIER
1070
     0
1002
}
1002
{
1000
MANEDIT
1070
     0
1002
}
1002
{
1000
NOSEL
1070
     0
1002
}
1002
{
1000
BEHIND
1070
     0
1002
}
1002
{
1000
REACTOR
1002
}
1001
GENIUS_GENOBJ-N-FIL_13
1002
{
1000
OWNER
1000
GEN
1002
}
  0
LINE
  5
13A
330
2
100
AcDbEntity
  8
0
100
AcDbLine
 10
658.588784385508
 20
1851.820870296369
 30
0.0
 11
658.4254034521396
 21
1852.259548706017
 31
0.0
  0
ARC
  5
13B
330
2
100
AcDbEntity
  8
0
100
AcDbCircle
 10
568.9710196310224
 20
2113.147503400405
 30
0.0
 40
277.3054644028579
100
AcDbArc
 50
288.9729983640691
 51
297.4414674417387
  0
ARC
  5
13C
330
2
100
AcDbEntity
  8
0
100
AcDbCircle
 10
698.6156594464451
 20
1869.144520302269
 30
0.0
 40
1.0
100
AcDbArc
 50
235.9644386911501
 51
290.5888213471707
1001
GENIUS_GENODEF_13
1002
{
1000
HIER
1070
     0
1002
}
1002
{
1000
MANEDIT
1070
     0
1002
}
1002
{
1000
NOSEL
1070
     0
1002
}
1002
{
1000
BEHIND
1070
     0
1002
}
1002
{
1000
REACTOR
1002
}
1001
GENIUS_GENOBJ-N-FIL_13
1002
{
1000
OWNER
1000
GEN
1002
}
  0
ARC
  5
13D
330
2
100
AcDbEntity
  8
0
100
AcDbCircle
 10
699.5573586013088
 20
1867.356127826681
 30
0.0
 40
1.0
100
AcDbArc
 50
234.9949029881118
 51
288.175508901864
1001
GENIUS_GENODEF_13
1002
{
1000
HIER
1070
     0
1002
}
1002
{
1000
MANEDIT
1070
     0
1002
}
1002
{
1000
NOSEL
1070
     0
1002
}
1002
{
1000
BEHIND
1070
     0
1002
}
1002
{
1000
REACTOR
1002
}
1001
GENIUS_GENOBJ-N-FIL_13
1002
{
1000
OWNER
1000
GEN
1002
}
  0
ARC
  5
13E
330
2
100
AcDbEntity
  8
0
100
AcDbCircle
 10
696.8526924078887
 20
1862.318113651648
 30
0.0
 40
4.726569709707566
100
AcDbArc
 50
63.20118476904064
 51
91.0620555330896
1001
GENIUS_GENODEF_13
1002
{
1000
HIER
1070
     0
1002
}
1002
{
1000
MANEDIT
1070
     0
1002
}
1002
{
1000
NOSEL
1070
     0
1002
}
1002
{
1000
BEHIND
1070
     0
1002
}
1002
{
1000
REACTOR
1002
}
1001
GENIUS_GENOBJ-N-FIL_13
1002
{
1000
OWNER
1000
GEN
1002
}
  0
ARC
  5
13F
330
2
100
AcDbEntity
  8
0
100
AcDbCircle
 10
697.4962447508723
 20
1867.487139615966
 30
0.0
 40
1.0
100
AcDbArc
 50
55.96443869115007
 51
117.598147027036
1001
GENIUS_GENODEF_13
1002
{
1000
HIER
1070
     0
1002
}
1002
{
1000
MANEDIT
1070
     0
1002
}
1002
{
1000
NOSEL
1070
     0
1002
}
1002
{
1000
BEHIND
1070
     0
1002
}
1002
{
1000
REACTOR
1002
}
1001
GENIUS_GENOBJ-N-FIL_13
1002
{
1000
OWNER
1000
GEN
1002
}
  0
ARC
  5
140
330
2
100
AcDbEntity
  8
0
100
AcDbCircle
 10
570.506288139065
 20
2110.292301284747
 30
0.0
 40
272.0
100
AcDbArc
 50
288.811884705226
 51
297.7695771286052
  0
ARC
  5
141
330
2
100
AcDbEntity
  8
0
100
AcDbCircle
 10
701.4289315462146
 20
1861.655494992347
 30
0.0
 40
9.0
100
AcDbArc
 50
3.0000000000056
 51
117.7695771286052
1001
GENIUS_GENODEF_13
1002
{
1000
HIER
1070
     0
1002
}
1002
{
1000
MANEDIT
1070
     0
1002
}
1002
{
1000
NOSEL
1070
     0
1002
}
1002
{
1000
BEHIND
1070
     0
1002
}
1002
{
1000
REACTOR
1002
}
1001
GENIUS_GENOBJ-N-FIL_13
1002
{
1000
OWNER
1000
GEN
1002
}
  0
LINE
  5
142
330
2
100
AcDbEntity
  8
0
100
AcDbLine
 10
697.0329773762419
 20
1868.373358177949
 30
0.0
 11
696.2853827921362
 21
1869.120952762055
 31
0.0
  0
LINE
  5
143
330
2
100
AcDbEntity
  8
7
100
AcDbLine
 10
685.8962752737206
 20
1869.018583499522
 30
0.0
 11
689.9063267135125
 21
1859.277950703288
 31
0.0
1001
GENIUS_GENOBJ-N-CEN_13
1002
{
1000
OWNER
1000
GEN
1002
}
1001
GENIUS_GENODEF_13
1002
{
1000
HIER
1070
     0
1002
}
1002
{
1000
MANEDIT
1070
     0
1002
}
1002
{
1000
NOSEL
1070
     0
1002
}
1002
{
1000
BEHIND
1070
     0
1002
}
1002
{
1000
OTHER
1070
     0
1002
}
1002
{
1000
REACTOR
1002
}
1001
GENIUS_GENCEN_19
1002
{
1040
2.399999999999999
1002
}
  0
LINE
  5
147
330
2
100
AcDbEntity
  8
0
100
AcDbLine
 10
690.0457477505142
 20
1865.968095370141
 30
0.0
 11
690.8805255238367
 21
1864.076443337911
 31
0.0
  0
LINE
  5
148
330
2
100
AcDbEntity
  8
0
100
AcDbLine
 10
685.0482406963492
 20
1863.585712186756
 30
0.0
 11
685.8582397629797
 21
1861.680411403245
 31
0.0
  0
LINE
  5
149
330
2
100
AcDbEntity
  8
0
100
AcDbLine
 10
666.2247923432869
 20
1855.690714579348
 30
0.0
 11
666.9499051586853
 21
1853.728038867688
 31
0.0
  0
LINE
  5
14A
330
2
100
AcDbEntity
  8
0
100
AcDbLine
 10
661.0599576933682
 20
1853.808319464731
 30
0.0
 11
661.7653257070887
 21
1851.828661087903
 31
0.0
  0
HATCH
  5
14B
330
2
100
AcDbEntity
  8
8
100
AcDbHatch
 10
0.0
 20
0.0
 30
0.0
210
0.0
220
0.0
230
1.0
  2
_U
 70
     0
 71
     0
 91
        1
 92
        1
 93
       26
 72
     2
 10
568.9710196309565
 20
2113.147503400535
 40
277.3054644030032
 50
296.0797480328352
 51
297.4414674416948
 73
     1
 72
     2
 10
696.8526924078887
 20
1862.318113651648
 40
4.726569709707731
 50
-91.06205553312079
 51
-63.20118476909714
 73
     0
 72
     2
 10
699.5573586013088
 20
1867.356127826681
 40
1.000000000000067
 50
234.9949029880701
 51
288.1755089017831
 73
     1
 72
     2
 10
701.4289315462146
 20
1861.655494992347
 40
5.000000000000011
 50
-108.1755089017846
 51
-2.999999999999736
 73
     0
 72
     1
 10
706.4220792199884
 20
1861.917174773562
 11
706.8082385666094
 21
1854.548815497446
 72
     1
 10
706.8082385666094
 20
1854.548815497446
 11
707.0711549235266
 21
1854.548815497446
 72
     1
 10
707.0711549235266
 20
1854.548815497446
 11
707.0711549235266
 21
1849.53207255365
 72
     1
 10
707.0711549235266
 20
1849.53207255365
 11
707.415375409867
 21
1842.963954403051
 72
     2
 10
708.4140049446223
 20
1843.016290359293
 40
1.000000000000011
 50
183.0000000000007
 51
272.9999999999982
 73
     1
 72
     2
 10
708.5186768571084
 20
1841.019031289784
 40
0.9999999999999978
 50
-93.00000000000151
 51
-2.999999999999101
 73
     0
 72
     1
 10
709.5173063918618
 20
1841.071367246027
 11
710.3668035804749
 21
1824.861995274271
 72
     2
 10
717.3572103237574
 20
1825.228346967972
 40
6.999999999999976
 50
182.9999999999998
 51
270.0000000000002
 73
     1
 72
     1
 10
717.3572103237574
 20
1818.228346967972
 11
724.1123874901831
 21
1818.228346967972
 72
     1
 10
724.1123874901837
 20
1818.228346967972
 11
724.1123874901837
 21
1820.228346967972
 72
     1
 10
724.1123874901837
 20
1820.228346967972
 11
717.3572103237579
 21
1820.228346967972
 72
     2
 10
717.3572103237574
 20
1825.228346967972
 40
5.000000000000056
 50
90.00000000000051
 51
176.999999999999
 73
     0
 72
     1
 10
712.3640626499859
 20
1824.966667186757
 11
711.4098935488859
 21
1843.173298228022
 72
     2
 10
710.411264014132
 20
1843.120962271779
 40
0.9999999999999548
 50
363.0000000000009
 51
452.9999999999984
 73
     1
 72
     2
 10
710.3065921016459
 20
1845.118221341288
 40
1.000000000000025
 50
86.99999999999693
 51
176.9999999999994
 73
     0
 72
     1
 10
709.3079625668897
 20
1845.065885385045
 11
708.4193382894964
 21
1862.021846686047
 72
     2
 10
701.4289315462146
 20
1861.655494992347
 40
6.999999999999986
 50
362.9999999999995
 51
470.5888213471864
 73
     1
 72
     2
 10
698.6156594464451
 20
1869.144520302269
 40
1.000000000000035
 50
69.4111786528107
 51
124.0355613088212
 73
     0
 72
     2
 10
697.4962447508723
 20
1867.487139615966
 40
0.9999999999999229
 50
415.96443869117
 51
477.5981470270486
 73
     1
 72
     1
 10
697.0329773762419
 20
1868.373358177949
 11
696.2853827921366
 21
1869.120952762055
 72
     2
 10
570.5062881389166
 20
2110.292301285026
 40
272.0000000003154
 50
62.45642069693236
 51
63.92908123313326
 73
     0
 72
     1
 10
690.0457477505142
 20
1865.968095370141
 11
690.8805255238367
 21
1864.076443337911
 97
        0
 75
     0
 76
     0
 52
45.0
 41
2.0
 77
     0
 78
     1
 53
135.0
 43
795.2507366229093
 44
1711.217196409069
 45
1.414213562373094
 46
1.414213562373094
 79
     0
 98
        1
 10
795.2507366229093
 20
1711.217196409069
1001
GENIUS_GENOBJ-N-HTC_13
1002
{
1000
OWNER
1000
GEN
1002
}
1001
GENIUS_GENODEF_13
1002
{
1000
HIER
1070
     0
1002
}
1002
{
1000
MANEDIT
1070
     0
1002
}
1002
{
1000
NOSEL
1070
     0
1002
}
1002
{
1000
BEHIND
1070
     0
1002
}
1002
{
1000
OTHER
1070
     0
1002
}
1002
{
1000
REACTOR
1002
}
1001
GENIUS_GENHATCH_13
1002
{
1000
DATA
1040
45.0
1042
-2.5
1000
_U
1070
     0
1011
695.4771428846607
1021
1867.516779223282
1031
0.0
1002
}
1002
{
1000
UCS
1010
0.0
1020
0.0
1030
0.0
1010
1.0
1020
0.0
1030
0.0
1010
0.0
1020
1.0
1030
0.0
1002
}
  0
HATCH
  5
14C
330
2
100
AcDbEntity
  8
8
100
AcDbHatch
 10
0.0
 20
0.0
 30
0.0
210
0.0
220
0.0
230
1.0
  2
_U
 70
     0
 71
     0
 91
        1
 92
        1
 93
        5
 72
     2
 10
661.4001319346717
 20
1852.867925671132
 40
3.000000000000028
 50
139.1963180041162
 51
159.5727086093439
 73
     0
 72
     1
 10
658.588784385508
 20
1851.82087029637
 11
658.2159655041059
 21
1852.821890370171
 72
     2
 10
570.5062881390676
 20
2110.292301284747
 40
271.9999999999987
 50
288.8118847052087
 51
289.4459763233523
 73
     1
 72
     1
 10
661.0599576933682
 20
1853.808319464731
 11
661.7653257070887
 21
1851.828661087903
 72
     2
 10
568.9710196310207
 20
2113.147503400406
 40
277.3054644028595
 50
70.45005239894209
 51
71.02700163591062
 73
     0
 97
        0
 75
     0
 76
     0
 52
45.0
 41
2.0
 77
     0
 78
     1
 53
135.0
 43
808.6793348173555
 44
1676.613230719059
 45
1.414213562373094
 46
1.414213562373094
 79
     0
 98
        1
 10
795.2507366229093
 20
1711.217196409069
1001
GENIUS_GENOBJ-N-HTC_13
1002
{
1000
OWNER
1000
GEN
1002
}
1001
GENIUS_GENODEF_13
1002
{
1000
HIER
1070
     0
1002
}
1002
{
1000
MANEDIT
1070
     0
1002
}
1002
{
1000
NOSEL
1070
     0
1002
}
1002
{
1000
BEHIND
1070
     0
1002
}
1002
{
1000
OTHER
1070
     0
1002
}
1002
{
1000
REACTOR
1002
}
1001
GENIUS_GENHATCH_13
1002
{
1000
DATA
1040
45.0
1042
-5.0
1000
_U
1070
     0
1011
660.6776215770833
1021
1852.591043572365
1031
0.0
1002
}
1002
{
1000
UCS
1010
0.0
1020
0.0
1030
0.0
1010
1.0
1020
0.0
1030
0.0
1010
0.0
1020
1.0
1030
0.0
1002
}
  0
LINE
  5
14D
330
2
100
AcDbEntity
  8
AM_3
 48
3.0
100
AcDbLine
 10
1169.756049216978
 20
2261.035459294001
 30
0.0
 11
1169.756049216978
 21
2249.650355628025
 31
0.0
1001
GENIUS_GENOREF_13
1005
549
  0
LINE
  5
14E
330
2
100
AcDbEntity
  8
AM_3
 48
3.0
100
AcDbLine
 10
1169.756049216978
 20
2261.035459294001
 30
0.0
 11
1181.141152882956
 21
2261.035459294001
 31
0.0
1001
GENIUS_GENOREF_13
1005
549
  0
LINE
  5
14F
330
2
100
AcDbEntity
  8
AM_3
 48
3.0
100
AcDbLine
 10
1169.756049216978
 20
2261.035459294001
 30
0.0
 11
1169.756049216978
 21
2272.420562959977
 31
0.0
1001
GENIUS_GENOREF_13
1005
549
  0
LINE
  5
150
330
2
100
AcDbEntity
  8
AM_3
 48
3.0
100
AcDbLine
 10
1169.756049216978
 20
2261.035459294001
 30
0.0
 11
1158.370945551003
 21
2261.035459294001
 31
0.0
1001
GENIUS_GENOREF_13
1005
549
  0
LINE
  5
151
330
2
100
AcDbEntity
  8
AM_3
 48
3.0
100
AcDbLine
 10
1174.756049216978
 20
2254.398825081348
 30
0.0
 11
1174.756049216978
 21
2238.937494238382
 31
0.0
1001
GENIUS_GENODEF_13
1002
{
1000
HIER
1070
     0
1002
}
1002
{
1000
MANEDIT
1070
     0
1002
}
1002
{
1000
NOSEL
1070
     0
1002
}
1002
{
1000
BEHIND
1070
     0
1002
}
1002
{
1000
REACTOR
1002
}
1001
GENIUS_GENOBJ-N-CEN_13
1002
{
1000
OWNER
1000
GEN
1002
}
  0
LINE
  5
152
330
2
100
AcDbEntity
  8
AM_3
 48
3.0
100
AcDbLine
 10
1169.818291304052
 20
2224.54425600014
 30
0.0
 11
1169.818291304052
 21
2191.010030410964
 31
0.0
1001
GENIUS_GENODEF_13
1002
{
1000
HIER
1070
     0
1002
}
1002
{
1000
MANEDIT
1070
     0
1002
}
1002
{
1000
NOSEL
1070
     0
1002
}
1002
{
1000
BEHIND
1070
     0
1002
}
1002
{
1000
REACTOR
1002
}
1001
GENIUS_GENOBJ-N-CEN_13
1002
{
1000
OWNER
1000
GEN
1002
}
  0
LINE
  5
153
330
2
100
AcDbEntity
  8
0
100
AcDbLine
 10
377.7008268773916
 20
1818.228346967972
 30
0.0
 11
402.9560040438172
 21
1818.228346967972
 31
0.0
  0
LINE
  5
154
330
2
100
AcDbEntity
  8
0
100
AcDbLine
 10
377.7008268773916
 20
1820.228346967972
 30
0.0
 11
402.9560040438172
 21
1820.228346967972
 31
0.0
  0
LINE
  5
155
102
{ACAD_REACTORS
330
184
102
}
330
2
100
AcDbEntity
  8
7A
100
AcDbLine
 10
390.2008268773916
 20
1825.900187079244
 30
0.0
 11
390.2008268773916
 21
1813.488015445535
 31
0.0
  0
HATCH
  5
156
330
2
100
AcDbEntity
  8
8
100
AcDbHatch
 10
0.0
 20
0.0
 30
0.0
210
0.0
220
0.0
230
1.0
  2
_U
 70
     0
 71
     0
 91
        1
 92
        1
 93
        4
 72
     1
 10
377.7008268773916
 20
1818.228346967972
 11
384.2008268773916
 21
1818.228346967972
 72
     1
 10
384.2008268773916
 20
1818.228346967972
 11
384.2008268773916
 21
1820.228346967972
 72
     1
 10
384.2008268773916
 20
1820.228346967972
 11
377.7008268773916
 21
1820.228346967972
 72
     1
 10
377.7008268773916
 20
1820.228346967972
 11
377.7008268773916
 21
1818.228346967972
 97
        0
 75
     0
 76
     0
 52
45.0
 41
1.5
 77
     0
 78
     1
 53
45.0
 43
323.9205441131148
 44
1693.288983403423
 45
-1.060660171779819
 46
1.060660171779819
 79
     0
 98
        1
 10
323.9205441131148
 20
1693.288983403423
1001
GENIUS_GENODEF_13
1002
{
1000
HIER
1070
     0
1002
}
1002
{
1000
MANEDIT
1070
     0
1002
}
1002
{
1000
NOSEL
1070
     0
1002
}
1002
{
1000
BEHIND
1070
     0
1002
}
1002
{
1000
REACTOR
1002
}
1001
GENIUS_GENOBJ-N-HTC_13
1002
{
1000
OWNER
1000
GEN
1002
}
1001
GENIUS_GENHATCH_13
1002
{
1000
DATA
1040
45.0
1042
2.5
1000
_U
1070
     0
1011
380.2777940325768
1021
1819.343838744846
1031
0.0
1002
}
1002
{
1000
UCS
1010
0.0
1020
0.0
1030
0.0
1010
1.0
1020
0.0
1030
0.0
1010
0.0
1020
1.0
1030
0.0
1002
}
  0
LINE
  5
157
330
2
100
AcDbEntity
  8
0
100
AcDbLine
 10
377.7008268773916
 20
1820.228346967972
 30
0.0
 11
377.7008268773916
 21
1818.228346967972
 31
0.0
  0
LINE
  5
158
330
2
100
AcDbEntity
  8
0
100
AcDbLine
 10
384.2008268773916
 20
1820.228346967972
 30
0.0
 11
384.2008268773916
 21
1818.228346967972
 31
0.0
  0
ARC
  5
159
330
2
100
AcDbEntity
  8
0
100
AcDbCircle
 10
400.700826877392
 20
1820.228346967972
 30
0.0
 40
2.0
100
AcDbArc
 50
90.0
 51
180.0
1001
GENIUS_GENODEF_13
1002
{
1000
HIER
1070
     0
1002
}
1002
{
1000
MANEDIT
1070
     0
1002
}
1002
{
1000
NOSEL
1070
     0
1002
}
1002
{
1000
BEHIND
1070
     0
1002
}
1002
{
1000
REACTOR
1002
}
1001
GENIUS_GENOBJ-N-FIL_13
1002
{
1000
OWNER
1000
GEN
1002
}
  0
ARC
  5
15A
330
2
100
AcDbEntity
  8
0
100
AcDbCircle
 10
402.9560040438172
 20
1825.228346967972
 30
0.0
 40
7.0
100
AcDbArc
 50
270.0
 51
356.9999999999944
1001
GENIUS_GENODEF_13
1002
{
1000
HIER
1070
     0
1002
}
1002
{
1000
MANEDIT
1070
     0
1002
}
1002
{
1000
NOSEL
1070
     0
1002
}
1002
{
1000
BEHIND
1070
     0
1002
}
1002
{
1000
REACTOR
1002
}
1001
GENIUS_GENOBJ-N-FIL_13
1002
{
1000
OWNER
1000
GEN
1002
}
  0
ARC
  5
15B
330
2
100
AcDbEntity
  8
0
100
AcDbCircle
 10
404.7834701316806
 20
1825.513325940582
 30
0.0
 40
7.2
100
AcDbArc
 50
265.2674813878689
 51
353.9728128043954
1001
GENIUS_GENODEF_13
1002
{
1000
HIER
1070
     0
1002
}
1002
{
1000
MANEDIT
1070
     0
1002
}
1002
{
1000
NOSEL
1070
     0
1002
}
1002
{
1000
BEHIND
1070
     0
1002
}
1002
{
1000
REACTOR
1002
}
1001
GENIUS_GENOBJ-N-FIL_13
1002
{
1000
OWNER
1000
GEN
1002
}
  0
ARC
  5
15C
330
2
100
AcDbEntity
  8
0
100
AcDbCircle
 10
402.9560040438172
 20
1825.228346967972
 30
0.0
 40
5.0
100
AcDbArc
 50
270.0
 51
356.9999999999944
1001
GENIUS_GENODEF_13
1002
{
1000
HIER
1070
     0
1002
}
1002
{
1000
MANEDIT
1070
     0
1002
}
1002
{
1000
NOSEL
1070
     0
1002
}
1002
{
1000
BEHIND
1070
     0
1002
}
1002
{
1000
REACTOR
1002
}
1001
GENIUS_GENOBJ-N-FIL_13
1002
{
1000
OWNER
1000
GEN
1002
}
  0
ARC
  5
15D
330
2
100
AcDbEntity
  8
0
100
AcDbCircle
 10
402.9560040438172
 20
1825.228346967972
 30
0.0
 40
3.0
100
AcDbArc
 50
270.0
 51
356.9999999999944
1001
GENIUS_GENODEF_13
1002
{
1000
HIER
1070
     0
1002
}
1002
{
1000
MANEDIT
1070
     0
1002
}
1002
{
1000
NOSEL
1070
     0
1002
}
1002
{
1000
BEHIND
1070
     0
1002
}
1002
{
1000
REACTOR
1002
}
1001
GENIUS_GENOBJ-N-FIL_13
1002
{
1000
OWNER
1000
GEN
1002
}
  0
LINE
  5
15E
330
2
100
AcDbEntity
  8
0
100
AcDbLine
 10
396.2008268773916
 20
1820.228346967972
 30
0.0
 11
396.2008268773916
 21
1818.228346967972
 31
0.0
  0
LINE
  5
15F
330
2
100
AcDbEntity
  8
0
100
AcDbLine
 10
400.700826877392
 20
1822.228346967972
 30
0.0
 11
402.9560040438172
 21
1822.228346967972
 31
0.0
  0
ARC
  5
160
330
2
100
AcDbEntity
  8
0
100
AcDbCircle
 10
549.8069262285098
 20
2110.292301284747
 30
0.0
 40
276.0
100
AcDbArc
 50
242.1063795858511
 51
250.552408617796
  0
LINE
  5
161
330
2
100
AcDbEntity
  8
0
100
AcDbLine
 10
407.9491517175893
 20
1824.966667186757
 30
0.0
 11
409.89661700857
 21
1862.126518598533
 31
0.0
  0
LINE
  5
162
330
2
100
AcDbEntity
  8
0
100
AcDbLine
 10
411.0052518006851
 20
1845.065885385045
 30
0.0
 11
411.8938760780788
 21
1862.021846686047
 31
0.0
  0
LINE
  5
163
330
2
100
AcDbEntity
  8
0
100
AcDbLine
 10
411.9436698566087
 20
1824.757323361785
 30
0.0
 11
413.8911351475862
 21
1861.917174773562
 31
0.0
  0
ARC
  5
164
330
2
100
AcDbEntity
  8
0
100
AcDbCircle
 10
411.7945375104668
 20
1841.019031289784
 30
0.0
 40
1.0
100
AcDbArc
 50
86.99999999999441
 51
176.9999999999944
1001
GENIUS_GENODEF_13
1002
{
1000
HIER
1070
     0
1002
}
1002
{
1000
MANEDIT
1070
     0
1002
}
1002
{
1000
NOSEL
1070
     0
1002
}
1002
{
1000
BEHIND
1070
     0
1002
}
1002
{
1000
REACTOR
1002
}
1001
GENIUS_GENOBJ-N-FIL_13
1002
{
1000
OWNER
1000
GEN
1002
}
  0
ARC
  5
165
330
2
100
AcDbEntity
  8
0
100
AcDbCircle
 10
408.0624405544458
 20
1827.128346967972
 30
0.0
 40
2.0
100
AcDbArc
 50
90.0
 51
176.9999999999944
1001
GENIUS_GENODEF_13
1002
{
1000
HIER
1070
     0
1002
}
1002
{
1000
MANEDIT
1070
     0
1002
}
1002
{
1000
NOSEL
1070
     0
1002
}
1002
{
1000
BEHIND
1070
     0
1002
}
1002
{
1000
REACTOR
1002
}
1001
GENIUS_GENOBJ-N-FIL_13
1002
{
1000
OWNER
1000
GEN
1002
}
  0
LINE
  5
166
330
2
100
AcDbEntity
  8
0
100
AcDbLine
 10
408.0624405544458
 20
1829.128346967972
 30
0.0
 11
408.1672561130103
 21
1829.128346967972
 31
0.0
  0
LINE
  5
167
330
2
100
AcDbEntity
  8
0
100
AcDbLine
 10
405.9518926480827
 20
1825.071339099243
 30
0.0
 11
405.9603659263712
 21
1825.233018880458
 31
0.0
  0
LINE
  5
168
330
2
100
AcDbEntity
  8
0
100
AcDbLine
 10
405.9518926480827
 20
1825.071339099243
 30
0.0
 11
406.0651814849352
 21
1827.233018880458
 31
0.0
  0
LINE
  5
169
330
2
100
AcDbEntity
  8
0
100
AcDbLine
 10
409.9464107870999
 20
1824.861995274271
 30
0.0
 11
410.7959079757129
 21
1841.071367246027
 31
0.0
  0
ARC
  5
16A
330
2
100
AcDbEntity
  8
0
100
AcDbCircle
 10
409.9019503534427
 20
1843.120962271779
 30
0.0
 40
1.0
100
AcDbArc
 50
86.99999999999441
 51
176.9999999999944
1001
GENIUS_GENODEF_13
1002
{
1000
HIER
1070
     0
1002
}
1002
{
1000
MANEDIT
1070
     0
1002
}
1002
{
1000
NOSEL
1070
     0
1002
}
1002
{
1000
BEHIND
1070
     0
1002
}
1002
{
1000
REACTOR
1002
}
1001
GENIUS_GENOBJ-N-FIL_13
1002
{
1000
OWNER
1000
GEN
1002
}
  0
ARC
  5
16B
330
2
100
AcDbEntity
  8
0
100
AcDbCircle
 10
410.0066222659288
 20
1845.118221341288
 30
0.0
 40
1.0
100
AcDbArc
 50
266.9999999999944
 51
357.0000000000074
1001
GENIUS_GENODEF_13
1002
{
1000
HIER
1070
     0
1002
}
1002
{
1000
MANEDIT
1070
     0
1002
}
1002
{
1000
NOSEL
1070
     0
1002
}
1002
{
1000
BEHIND
1070
     0
1002
}
1002
{
1000
REACTOR
1002
}
1001
GENIUS_GENOBJ-N-FIL_13
1002
{
1000
OWNER
1000
GEN
1002
}
  0
ARC
  5
16C
330
2
100
AcDbEntity
  8
0
100
AcDbCircle
 10
411.8992094229529
 20
1843.016290359293
 30
0.0
 40
1.0
100
AcDbArc
 50
266.9999999999944
 51
356.9999999999944
1001
GENIUS_GENODEF_13
1002
{
1000
HIER
1070
     0
1002
}
1002
{
1000
MANEDIT
1070
     0
1002
}
1002
{
1000
NOSEL
1070
     0
1002
}
1002
{
1000
BEHIND
1070
     0
1002
}
1002
{
1000
REACTOR
1002
}
1001
GENIUS_GENOBJ-N-FIL_13
1002
{
1000
OWNER
1000
GEN
1002
}
  0
ARC
  5
16D
330
2
100
AcDbEntity
  8
0
100
AcDbCircle
 10
418.8842828213605
 20
1861.655494992347
 30
0.0
 40
5.0
100
AcDbArc
 50
71.82449109813596
 51
176.9999999999944
1001
GENIUS_GENODEF_13
1002
{
1000
HIER
1070
     0
1002
}
1002
{
1000
MANEDIT
1070
     0
1002
}
1002
{
1000
NOSEL
1070
     0
1002
}
1002
{
1000
BEHIND
1070
     0
1002
}
1002
{
1000
REACTOR
1002
}
1001
GENIUS_GENOBJ-N-FIL_13
1002
{
1000
OWNER
1000
GEN
1002
}
  0
ARC
  5
16E
330
2
100
AcDbEntity
  8
0
100
AcDbCircle
 10
418.8842828213605
 20
1861.655494992347
 30
0.0
 40
7.0
100
AcDbArc
 50
69.41117865282933
 51
176.9999999999944
1001
GENIUS_GENODEF_13
1002
{
1000
HIER
1070
     0
1002
}
1002
{
1000
MANEDIT
1070
     0
1002
}
1002
{
1000
NOSEL
1070
     0
1002
}
1002
{
1000
BEHIND
1070
     0
1002
}
1002
{
1000
REACTOR
1002
}
1001
GENIUS_GENOBJ-N-FIL_13
1002
{
1000
OWNER
1000
GEN
1002
}
  0
ARC
  5
16F
330
2
100
AcDbEntity
  8
0
100
AcDbCircle
 10
418.8842828213605
 20
1861.655494992347
 30
0.0
 40
9.0
100
AcDbArc
 50
62.23042287139481
 51
62.23042287139481
1001
GENIUS_GENODEF_13
1002
{
1000
HIER
1070
     0
1002
}
1002
{
1000
MANEDIT
1070
     0
1002
}
1002
{
1000
NOSEL
1070
     0
1002
}
1002
{
1000
BEHIND
1070
     0
1002
}
1002
{
1000
REACTOR
1002
}
1001
GENIUS_GENOBJ-N-FIL_13
1002
{
1000
OWNER
1000
GEN
1002
}
  0
LINE
  5
170
330
2
100
AcDbEntity
  8
0
100
AcDbLine
 10
462.0972488634688
 20
1852.821890370171
 30
0.0
 11
461.7244299820672
 21
1851.82087029637
 31
0.0
  0
ARC
  5
171
330
2
100
AcDbEntity
  8
0
100
AcDbCircle
 10
458.9130824329031
 20
1852.867925671132
 30
0.0
 40
3.0
100
AcDbArc
 50
250.552408617796
 51
339.5727086093194
1001
GENIUS_GENODEF_13
1002
{
1000
HIER
1070
     0
1002
}
1002
{
1000
MANEDIT
1070
     0
1002
}
1002
{
1000
NOSEL
1070
     0
1002
}
1002
{
1000
BEHIND
1070
     0
1002
}
1002
{
1000
REACTOR
1002
}
1001
GENIUS_GENOBJ-N-FIL_13
1002
{
1000
OWNER
1000
GEN
1002
}
  0
LINE
  5
172
330
2
100
AcDbEntity
  8
0
100
AcDbLine
 10
461.7244299820672
 20
1851.820870296369
 30
0.0
 11
461.8878109154361
 21
1852.259548706017
 31
0.0
  0
ARC
  5
173
330
2
100
AcDbEntity
  8
0
100
AcDbCircle
 10
551.3421947365527
 20
2113.147503400405
 30
0.0
 40
277.3054644028579
100
AcDbArc
 50
242.5585325582613
 51
251.0270016359307
  0
ARC
  5
174
330
2
100
AcDbEntity
  8
0
100
AcDbCircle
 10
421.6975549211301
 20
1869.144520302269
 30
0.0
 40
1.0
100
AcDbArc
 50
249.4111786528293
 51
304.0355613088499
1001
GENIUS_GENODEF_13
1002
{
1000
HIER
1070
     0
1002
}
1002
{
1000
MANEDIT
1070
     0
1002
}
1002
{
1000
NOSEL
1070
     0
1002
}
1002
{
1000
BEHIND
1070
     0
1002
}
1002
{
1000
REACTOR
1002
}
1001
GENIUS_GENOBJ-N-FIL_13
1002
{
1000
OWNER
1000
GEN
1002
}
  0
ARC
  5
175
330
2
100
AcDbEntity
  8
0
100
AcDbCircle
 10
420.7558557662664
 20
1867.356127826681
 30
0.0
 40
1.0
100
AcDbArc
 50
251.824491098136
 51
305.0050970118882
1001
GENIUS_GENODEF_13
1002
{
1000
HIER
1070
     0
1002
}
1002
{
1000
MANEDIT
1070
     0
1002
}
1002
{
1000
NOSEL
1070
     0
1002
}
1002
{
1000
BEHIND
1070
     0
1002
}
1002
{
1000
REACTOR
1002
}
1001
GENIUS_GENOBJ-N-FIL_13
1002
{
1000
OWNER
1000
GEN
1002
}
  0
ARC
  5
176
330
2
100
AcDbEntity
  8
0
100
AcDbCircle
 10
423.460521959686
 20
1862.318113651648
 30
0.0
 40
4.726569709707566
100
AcDbArc
 50
88.93794446691041
 51
116.7988152309567
1001
GENIUS_GENODEF_13
1002
{
1000
HIER
1070
     0
1002
}
1002
{
1000
MANEDIT
1070
     0
1002
}
1002
{
1000
NOSEL
1070
     0
1002
}
1002
{
1000
BEHIND
1070
     0
1002
}
1002
{
1000
REACTOR
1002
}
1001
GENIUS_GENOBJ-N-FIL_13
1002
{
1000
OWNER
1000
GEN
1002
}
  0
ARC
  5
177
330
2
100
AcDbEntity
  8
0
100
AcDbCircle
 10
422.8169696167023
 20
1867.487139615966
 30
0.0
 40
1.0
100
AcDbArc
 50
62.40185297296394
 51
124.0355613088499
1001
GENIUS_GENODEF_13
1002
{
1000
HIER
1070
     0
1002
}
1002
{
1000
MANEDIT
1070
     0
1002
}
1002
{
1000
NOSEL
1070
     0
1002
}
1002
{
1000
BEHIND
1070
     0
1002
}
1002
{
1000
REACTOR
1002
}
1001
GENIUS_GENOBJ-N-FIL_13
1002
{
1000
OWNER
1000
GEN
1002
}
  0
ARC
  5
178
330
2
100
AcDbEntity
  8
0
100
AcDbCircle
 10
549.8069262285098
 20
2110.292301284747
 30
0.0
 40
272.0
100
AcDbArc
 50
242.2304228713948
 51
251.188115294774
  0
ARC
  5
179
330
2
100
AcDbEntity
  8
0
100
AcDbCircle
 10
418.8842828213605
 20
1861.655494992347
 30
0.0
 40
9.0
100
AcDbArc
 50
62.23042287139481
 51
176.9999999999944
1001
GENIUS_GENODEF_13
1002
{
1000
HIER
1070
     0
1002
}
1002
{
1000
MANEDIT
1070
     0
1002
}
1002
{
1000
NOSEL
1070
     0
1002
}
1002
{
1000
BEHIND
1070
     0
1002
}
1002
{
1000
REACTOR
1002
}
1001
GENIUS_GENOBJ-N-FIL_13
1002
{
1000
OWNER
1000
GEN
1002
}
  0
LINE
  5
17A
330
2
100
AcDbEntity
  8
0
100
AcDbLine
 10
423.2802369913334
 20
1868.373358177949
 30
0.0
 11
424.0278315754385
 21
1869.120952762055
 31
0.0
  0
LINE
  5
17B
330
2
100
AcDbEntity
  8
7
100
AcDbLine
 10
434.4169390938541
 20
1869.018583499522
 30
0.0
 11
430.4068876540627
 21
1859.277950703288
 31
0.0
1001
GENIUS_GENOBJ-N-CEN_13
1002
{
1000
OWNER
1000
GEN
1002
}
1001
GENIUS_GENODEF_13
1002
{
1000
HIER
1070
     0
1002
}
1002
{
1000
MANEDIT
1070
     0
1002
}
1002
{
1000
NOSEL
1070
     0
1002
}
1002
{
1000
BEHIND
1070
     0
1002
}
1002
{
1000
OTHER
1070
     0
1002
}
1002
{
1000
REACTOR
1002
}
1001
GENIUS_GENCEN_19
1002
{
1040
2.399999999999999
1002
}
  0
LINE
  5
17C
330
2
100
AcDbEntity
  8
0
100
AcDbLine
 10
430.2674666170605
 20
1865.968095370141
 30
0.0
 11
429.4326888437385
 21
1864.076443337911
 31
0.0
  0
LINE
  5
17D
330
2
100
AcDbEntity
  8
0
100
AcDbLine
 10
435.2649736712256
 20
1863.585712186756
 30
0.0
 11
434.454974604595
 21
1861.680411403245
 31
0.0
  0
LINE
  5
17E
330
2
100
AcDbEntity
  8
0
100
AcDbLine
 10
454.0884220242879
 20
1855.690714579348
 30
0.0
 11
453.3633092088893
 21
1853.728038867688
 31
0.0
  0
LINE
  5
17F
330
2
100
AcDbEntity
  8
0
100
AcDbLine
 10
459.253256674207
 20
1853.808319464731
 30
0.0
 11
458.5478886604859
 21
1851.828661087903
 31
0.0
  0
HATCH
  5
180
330
2
100
AcDbEntity
  8
8
100
AcDbHatch
 10
0.0
 20
0.0
 30
0.0
210
0.0
220
0.0
230
1.0
  2
_U
 70
     0
 71
     0
 91
        1
 92
        1
 93
       26
 72
     2
 10
551.3421947366187
 20
2113.147503400535
 40
277.3054644030032
 50
116.0797480328352
 51
117.4414674416947
 73
     0
 72
     2
 10
423.460521959686
 20
1862.318113651648
 40
4.726569709707731
 50
88.9379444668792
 51
116.7988152309028
 73
     1
 72
     2
 10
420.7558557662664
 20
1867.356127826681
 40
1.000000000000067
 50
54.99490298807003
 51
108.1755089017831
 73
     0
 72
     2
 10
418.8842828213605
 20
1861.655494992347
 40
5.000000000000011
 50
71.8244910982154
 51
177.0000000000002
 73
     1
 72
     1
 10
413.8911351475862
 20
1861.917174773562
 11
413.5049758009654
 21
1854.548815497446
 72
     1
 10
413.5049758009654
 20
1854.548815497446
 11
413.2420594440482
 21
1854.548815497446
 72
     1
 10
413.2420594440486
 20
1854.548815497446
 11
413.2420594440486
 21
1849.53207255365
 72
     1
 10
413.2420594440486
 20
1849.53207255365
 11
412.8978389577082
 21
1842.963954403051
 72
     2
 10
411.8992094229529
 20
1843.016290359293
 40
1.000000000000011
 50
3.000000000000678
 51
92.99999999999815
 73
     0
 72
     2
 10
411.7945375104668
 20
1841.019031289784
 40
0.9999999999999978
 50
86.9999999999985
 51
177.0000000000009
 73
     1
 72
     1
 10
410.7959079757129
 20
1841.071367246027
 11
409.9464107870999
 21
1824.861995274271
 72
     2
 10
402.9560040438172
 20
1825.228346967972
 40
6.999999999999976
 50
2.999999999999813
 51
90.00000000000015
 73
     0
 72
     1
 10
402.9560040438172
 20
1818.228346967972
 11
396.2008268773916
 21
1818.228346967972
 72
     1
 10
396.2008268773916
 20
1818.228346967972
 11
396.2008268773916
 21
1820.228346967972
 72
     1
 10
396.2008268773916
 20
1820.228346967972
 11
402.9560040438172
 21
1820.228346967972
 72
     2
 10
402.9560040438172
 20
1825.228346967972
 40
5.000000000000056
 50
270.0000000000005
 51
356.999999999999
 73
     1
 72
     1
 10
407.9491517175893
 20
1824.966667186757
 11
408.9033208186893
 21
1843.173298228022
 72
     2
 10
409.9019503534427
 20
1843.120962271779
 40
0.9999999999999548
 50
183.0000000000008
 51
272.9999999999984
 73
     0
 72
     2
 10
410.0066222659288
 20
1845.118221341288
 40
1.000000000000025
 50
266.9999999999969
 51
356.9999999999994
 73
     1
 72
     1
 10
411.0052518006851
 20
1845.065885385045
 11
411.8938760780784
 21
1862.021846686047
 72
     2
 10
418.8842828213605
 20
1861.655494992347
 40
6.999999999999986
 50
182.9999999999995
 51
290.5888213471865
 73
     0
 72
     2
 10
421.6975549211301
 20
1869.144520302269
 40
1.000000000000035
 50
249.4111786528107
 51
304.0355613088213
 73
     1
 72
     2
 10
422.8169696167023
 20
1867.487139615966
 40
0.9999999999999229
 50
235.96443869117
 51
297.5981470270486
 73
     0
 72
     1
 10
423.2802369913334
 20
1868.373358177949
 11
424.0278315754385
 21
1869.120952762055
 72
     2
 10
549.8069262286585
 20
2110.292301285026
 40
272.0000000003154
 50
242.4564206969324
 51
243.9290812331333
 73
     1
 72
     1
 10
430.2674666170605
 20
1865.968095370141
 11
429.4326888437381
 21
1864.076443337911
 97
        0
 75
     0
 76
     0
 52
45.0
 41
2.0
 77
     0
 78
     1
 53
45.0
 43
325.062477744666
 44
1711.217196409069
 45
-1.414213562373094
 46
1.414213562373094
 79
     0
 98
        1
 10
325.062477744666
 20
1711.217196409069
1001
GENIUS_GENOBJ-N-HTC_13
1002
{
1000
OWNER
1000
GEN
1002
}
1001
GENIUS_GENODEF_13
1002
{
1000
HIER
1070
     0
1002
}
1002
{
1000
MANEDIT
1070
     0
1002
}
1002
{
1000
NOSEL
1070
     0
1002
}
1002
{
1000
BEHIND
1070
     0
1002
}
1002
{
1000
OTHER
1070
     0
1002
}
1002
{
1000
REACTOR
1002
}
1001
GENIUS_GENHATCH_13
1002
{
1000
DATA
1040
45.0
1042
2.5
1000
_U
1070
     0
1011
424.8360714829146
1021
1867.516779223282
1031
0.0
1002
}
1002
{
1000
UCS
1010
0.0
1020
0.0
1030
0.0
1010
1.0
1020
0.0
1030
0.0
1010
0.0
1020
1.0
1030
0.0
1002
}
  0
HATCH
  5
181
330
2
100
AcDbEntity
  8
8
100
AcDbHatch
 10
0.0
 20
0.0
 30
0.0
210
0.0
220
0.0
230
1.0
  2
_U
 70
     0
 71
     0
 91
        1
 92
        1
 93
        5
 72
     2
 10
458.9130824329031
 20
1852.867925671132
 40
3.000000000000028
 50
319.1963180041162
 51
339.5727086093438
 73
     1
 72
     1
 10
461.7244299820672
 20
1851.82087029637
 11
462.0972488634692
 21
1852.821890370171
 72
     2
 10
549.8069262285075
 20
2110.292301284747
 40
271.9999999999987
 50
108.8118847052087
 51
109.4459763233523
 73
     0
 72
     1
 10
459.253256674207
 20
1853.808319464731
 11
458.5478886604865
 21
1851.828661087903
 72
     2
 10
551.3421947365541
 20
2113.147503400406
 40
277.3054644028595
 50
250.4500523989421
 51
251.0270016359106
 73
     1
 97
        0
 75
     0
 76
     0
 52
45.0
 41
2.0
 77
     0
 78
     1
 53
45.0
 43
311.6338795502202
 44
1676.613230719059
 45
-1.414213562373094
 46
1.414213562373094
 79
     0
 98
        1
 10
325.062477744666
 20
1711.217196409069
1001
GENIUS_GENOBJ-N-HTC_13
1002
{
1000
OWNER
1000
GEN
1002
}
1001
GENIUS_GENODEF_13
1002
{
1000
HIER
1070
     0
1002
}
1002
{
1000
MANEDIT
1070
     0
1002
}
1002
{
1000
NOSEL
1070
     0
1002
}
1002
{
1000
BEHIND
1070
     0
1002
}
1002
{
1000
OTHER
1070
     0
1002
}
1002
{
1000
REACTOR
1002
}
1001
GENIUS_GENHATCH_13
1002
{
1000
DATA
1040
45.0
1042
5.0
1000
_U
1070
     0
1011
459.6355927904915
1021
1852.591043572365
1031
0.0
1002
}
1002
{
1000
UCS
1010
0.0
1020
0.0
1030
0.0
1010
1.0
1020
0.0
1030
0.0
1010
0.0
1020
1.0
1030
0.0
1002
}
  0
DIMENSION
  5
182
102
{ACAD_XDICTIONARY
360
183
102
}
102
{ACAD_REACTORS
330
184
102
}
330
2
100
AcDbEntity
  8
AM_5
100
AcDbDimension
  2
*D6
 10
730.1123874901836
 20
1794.568237547267
 30
0.0
 11
560.1566071837876
 21
1804.318237547267
 31
0.0
  1
%%c<> {}{\C2;%%p1.5}
 71
     5
 42
339.9115606127921
  3
AM_DIN$0
100
AcDbAlignedDimension
 13
390.2008268773916
 23
1813.488015445535
 33
0.0
 14
730.1123874901836
 24
1813.488015445535
 34
0.0
100
AcDbRotatedDimension
1001
ACAD
1000
DSTYLE
1002
{
1070
   286
1070
     0
1070
   284
1070
     8
1070
   274
1070
     4
1070
   272
1070
     3
1070
    40
1040
3.0
1070
    47
1040
1.5
1070
    48
1040
1.5
1070
   271
1070
     0
1002
}
1001
GENIUS_GENDTOL_13
1000
TolPm
1000

1000
{$3%%p$P}
1040
340.0
  0
LINE
  5
191
330
2
100
AcDbEntity
  8
AM_3
 48
3.0
100
AcDbLine
 10
1032.919225947422
 20
2027.043789543199
 30
0.0
 11
1052.338897370483
 21
2038.255742066877
 31
0.0
1001
GENIUS_GENODEF_13
1002
{
1000
HIER
1070
     0
1002
}
1002
{
1000
MANEDIT
1070
     0
1002
}
1002
{
1000
NOSEL
1070
     0
1002
}
1002
{
1000
BEHIND
1070
     0
1002
}
1002
{
1000
REACTOR
1002
}
1001
GENIUS_GENOBJ-N-CEN_13
1002
{
1000
OWNER
1000
GEN
1002
}
  0
LINE
  5
192
330
2
100
AcDbEntity
  8
AM_3
 48
3.0
100
AcDbLine
 10
1045.919225947421
 20
2004.527129044805
 30
0.0
 11
1089.653508838535
 21
2029.777129044805
 31
0.0
1001
GENIUS_GENODEF_13
1002
{
1000
HIER
1070
     0
1002
}
1002
{
1000
MANEDIT
1070
     0
1002
}
1002
{
1000
NOSEL
1070
     0
1002
}
1002
{
1000
BEHIND
1070
     0
1002
}
1002
{
1000
REACTOR
1002
}
1001
GENIUS_GENOBJ-N-CEN_13
1002
{
1000
OWNER
1000
GEN
1002
}
  0
ARC
  5
193
330
2
100
AcDbEntity
  8
AM_3
 48
3.0
100
AcDbCircle
 10
1043.291664812601
 20
2013.87092012436
 30
0.0
 40
2.775392306579828
100
AcDbArc
 50
140.814470863681
 51
197.6362645299277
  0
LINE
  5
194
330
2
100
AcDbEntity
  8
AM_3
 48
3.0
100
AcDbLine
 10
1040.345751777918
 20
2014.572249743412
 30
0.0
 11
1038.831818571746
 21
2017.194458975767
 31
0.0
  0
ARC
  5
195
330
2
100
AcDbEntity
  8
AM_3
 48
3.0
100
AcDbCircle
 10
1039.437175139851
 20
2011.754370380757
 30
0.0
 40
1.999999999999999
100
AcDbArc
 50
119.999999999997
 51
209.999999999985
  0
ARC
  5
196
330
2
100
AcDbEntity
  8
AM_3
 48
3.0
100
AcDbCircle
 10
1042.921086965884
 20
2013.507387079004
 30
0.0
 40
2.786805307953311
100
AcDbArc
 50
132.2066997936666
 51
194.9463418185683
  0
CIRCLE
  5
197
330
2
100
AcDbEntity
  8
AM_3
 48
3.0
100
AcDbCircle
 10
1022.531730573625
 20
2006.035459294001
 30
0.0
 40
5.999999999999999
  0
LINE
  5
198
330
2
100
AcDbEntity
  8
AM_3
 48
3.0
100
AcDbLine
 10
1043.187175139852
 20
2005.259179852372
 30
0.0
 11
1032.187175139852
 21
2024.311738735631
 31
0.0
  0
ARC
  5
199
330
2
100
AcDbEntity
  8
AM_3
 48
3.0
100
AcDbCircle
 10
1024.696794083086
 20
2007.285459294001
 30
0.0
 40
15.0
100
AcDbArc
 50
119.999999999997
 51
299.999999999997
  0
LINE
  5
19A
330
2
100
AcDbEntity
  8
AM_3
 48
3.0
100
AcDbLine
 10
1040.228565440912
 20
2012.788630053297
 30
0.0
 11
1045.226239280958
 21
2015.674038390169
 31
0.0
1001
GENIUS_GENODEF_13
1002
{
1000
HIER
1070
     0
1002
}
1002
{
1000
MANEDIT
1070
     0
1002
}
1002
{
1000
NOSEL
1070
     0
1002
}
1002
{
1000
BEHIND
1070
     0
1002
}
1002
{
1000
REACTOR
1002
}
1001
GENIUS_GENOBJ-N-CEN_13
1002
{
1000
OWNER
1000
GEN
1002
}
  0
LINE
  5
19B
330
2
100
AcDbEntity
  8
AM_3
 48
3.0
100
AcDbLine
 10
1030.779224397406
 20
2005.023649381407
 30
0.0
 11
1044.169129683731
 21
2012.75431480289
 31
0.0
1001
GENIUS_GENODEF_13
1002
{
1000
HIER
1070
     0
1002
}
1002
{
1000
MANEDIT
1070
     0
1002
}
1002
{
1000
NOSEL
1070
     0
1002
}
1002
{
1000
BEHIND
1070
     0
1002
}
1002
{
1000
REACTOR
1002
}
1001
GENIUS_GENOBJ-N-CEN_13
1002
{
1000
OWNER
1000
GEN
1002
}
  0
ARC
  5
19C
330
2
100
AcDbEntity
  8
AM_3
 48
3.0
100
AcDbCircle
 10
1045.960616248482
 20
2006.860426823021
 30
0.0
 40
1.999999999999999
100
AcDbArc
 50
209.999999999985
 51
299.999999999997
1001
GENIUS_GENOBJ-N-CEN_13
1002
{
1000
OWNER
1000
GEN
1002
}
1001
GENIUS_GENODEF_13
1002
{
1000
HIER
1070
     0
1002
}
1002
{
1000
MANEDIT
1070
     0
1002
}
1002
{
1000
NOSEL
1070
     0
1002
}
1002
{
1000
BEHIND
1070
     0
1002
}
1002
{
1000
REACTOR
1002
}
1001
GENIUS_GENOBJ-N-FIL_13
1002
{
1000
OWNER
1000
GEN
1002
}
  0
ARC
  5
19D
330
2
100
AcDbEntity
  8
AM_3
 48
3.0
100
AcDbCircle
 10
1044.919225947421
 20
2006.259179852373
 30
0.0
 40
1.999999999999999
100
AcDbArc
 50
209.999999999985
 51
299.999999999997
1001
GENIUS_GENOBJ-N-CEN_13
1002
{
1000
OWNER
1000
GEN
1002
}
1001
GENIUS_GENODEF_13
1002
{
1000
HIER
1070
     0
1002
}
1002
{
1000
MANEDIT
1070
     0
1002
}
1002
{
1000
NOSEL
1070
     0
1002
}
1002
{
1000
BEHIND
1070
     0
1002
}
1002
{
1000
REACTOR
1002
}
1001
GENIUS_GENOBJ-N-FIL_13
1002
{
1000
OWNER
1000
GEN
1002
}
  0
LINE
  5
19E
330
2
100
AcDbEntity
  8
AM_3
 48
3.0
100
AcDbLine
 10
1032.196794083086
 20
1994.295078237234
 30
0.0
 11
1041.07803802952
 21
1999.422666820447
 31
0.0
  0
ARC
  5
19F
330
2
100
AcDbEntity
  8
AM_3
 48
3.0
100
AcDbCircle
 10
1036.764322475232
 20
2008.815495498964
 30
0.0
 40
10.33602304889329
100
AcDbArc
 50
294.6672502448743
 51
336.6618187426518
  0
ARC
  5
1A0
330
2
100
AcDbEntity
  8
AM_3
 48
3.0
100
AcDbCircle
 10
1035.424035419037
 20
2007.705332275081
 30
0.0
 40
3.499999999999998
100
AcDbArc
 50
119.999999999997
 51
299.999999999997
  0
ARC
  5
1A1
330
2
100
AcDbEntity
  8
AM_3
 48
3.0
100
AcDbCircle
 10
1040.937175139852
 20
2009.156294169404
 30
0.0
 40
1.999999999999999
100
AcDbArc
 50
209.999999999985
 51
299.999999999997
  0
LINE
  5
1A2
330
2
100
AcDbEntity
  8
AM_3
 48
3.0
100
AcDbLine
 10
1039.205124332283
 20
2008.156294169404
 30
0.0
 11
1037.705124332283
 21
2010.754370380757
 31
0.0
  0
LINE
  5
1A3
330
2
100
AcDbEntity
  8
AM_3
 48
3.0
100
AcDbLine
 10
1033.674035419038
 20
2010.736421188325
 30
0.0
 11
1038.437175139852
 21
2013.486421188325
 31
0.0
1001
GENIUS_GENODEF_13
1002
{
1000
HIER
1070
     0
1002
}
1002
{
1000
MANEDIT
1070
     0
1002
}
1002
{
1000
NOSEL
1070
     0
1002
}
1002
{
1000
BEHIND
1070
     0
1002
}
1002
{
1000
REACTOR
1002
}
1001
GENIUS_GENOBJ-N-CEN_13
1002
{
1000
OWNER
1000
GEN
1002
}
  0
LINE
  5
1A4
330
2
100
AcDbEntity
  8
AM_3
 48
3.0
100
AcDbLine
 10
1037.174035419037
 20
2004.674243361835
 30
0.0
 11
1041.937175139852
 21
2007.424243361835
 31
0.0
1001
GENIUS_GENODEF_13
1002
{
1000
HIER
1070
     0
1002
}
1002
{
1000
MANEDIT
1070
     0
1002
}
1002
{
1000
NOSEL
1070
     0
1002
}
1002
{
1000
BEHIND
1070
     0
1002
}
1002
{
1000
REACTOR
1002
}
1001
GENIUS_GENOBJ-N-CEN_13
1002
{
1000
OWNER
1000
GEN
1002
}
  0
LINE
  5
1A5
330
2
100
AcDbEntity
  8
AM_3
 48
3.0
100
AcDbLine
 10
1044.228565440912
 20
2005.860426823021
 30
0.0
 11
1040.228565440912
 21
2012.788630053297
 31
0.0
  0
LINE
  5
1A6
330
2
100
AcDbEntity
  8
AM_3
 48
3.0
100
AcDbLine
 10
1041.048891068322
 20
2015.571646351863
 30
0.0
 11
1044.226239280958
 21
2017.406089197737
 31
0.0
1001
GENIUS_GENODEF_13
1002
{
1000
HIER
1070
     0
1002
}
1002
{
1000
MANEDIT
1070
     0
1002
}
1002
{
1000
NOSEL
1070
     0
1002
}
1002
{
1000
BEHIND
1070
     0
1002
}
1002
{
1000
REACTOR
1002
}
1001
GENIUS_GENOBJ-N-CEN_13
1002
{
1000
OWNER
1000
GEN
1002
}
  0
LINE
  5
1A7
330
2
100
AcDbEntity
  8
AM_3
 48
3.0
100
AcDbLine
 10
1040.048891068321
 20
2017.303697159434
 30
0.0
 11
1043.226239280957
 21
2019.138140005308
 31
0.0
1001
GENIUS_GENODEF_13
1002
{
1000
HIER
1070
     0
1002
}
1002
{
1000
MANEDIT
1070
     0
1002
}
1002
{
1000
NOSEL
1070
     0
1002
}
1002
{
1000
BEHIND
1070
     0
1002
}
1002
{
1000
REACTOR
1002
}
1001
GENIUS_GENOBJ-N-CEN_13
1002
{
1000
OWNER
1000
GEN
1002
}
  0
LINE
  5
1A8
330
2
100
AcDbEntity
  8
AM_3
 48
3.0
100
AcDbLine
 10
1037.228565440911
 20
2017.984782476005
 30
0.0
 11
1042.226239280957
 21
2020.870190812877
 31
0.0
1001
GENIUS_GENODEF_13
1002
{
1000
HIER
1070
     0
1002
}
1002
{
1000
MANEDIT
1070
     0
1002
}
1002
{
1000
NOSEL
1070
     0
1002
}
1002
{
1000
BEHIND
1070
     0
1002
}
1002
{
1000
REACTOR
1002
}
1001
GENIUS_GENOBJ-N-CEN_13
1002
{
1000
OWNER
1000
GEN
1002
}
  0
LINE
  5
1A9
330
2
100
AcDbEntity
  8
AM_3
 48
3.0
100
AcDbLine
 10
1037.228565440911
 20
2017.984782476005
 30
0.0
 11
1033.228565440912
 21
2024.912985706279
 31
0.0
  0
ARC
  5
1AA
330
2
100
AcDbEntity
  8
AM_3
 48
3.0
100
AcDbCircle
 10
1030.424035419038
 20
2016.365586312924
 30
0.0
 40
3.499999999999998
100
AcDbArc
 50
119.999999999997
 51
299.999999999997
  0
LINE
  5
1AB
330
2
100
AcDbEntity
  8
AM_3
 48
3.0
100
AcDbLine
 10
1028.674035419037
 20
2019.396675226171
 30
0.0
 11
1033.437175139852
 21
2022.146675226171
 31
0.0
1001
GENIUS_GENODEF_13
1002
{
1000
HIER
1070
     0
1002
}
1002
{
1000
MANEDIT
1070
     0
1002
}
1002
{
1000
NOSEL
1070
     0
1002
}
1002
{
1000
BEHIND
1070
     0
1002
}
1002
{
1000
REACTOR
1002
}
1001
GENIUS_GENOBJ-N-CEN_13
1002
{
1000
OWNER
1000
GEN
1002
}
  0
ARC
  5
1AC
330
2
100
AcDbEntity
  8
AM_3
 48
3.0
100
AcDbCircle
 10
1039.697405822561
 20
2020.09635931067
 30
0.0
 40
2.77539230657983
100
AcDbArc
 50
222.3637354700762
 51
279.1855291363086
  0
LINE
  5
1AD
330
2
100
AcDbEntity
  8
AM_3
 48
3.0
100
AcDbLine
 10
1041.048891068322
 20
2015.571646351863
 30
0.0
 11
1040.048891068321
 21
2017.303697159434
 31
0.0
  0
LINE
  5
1AE
330
2
100
AcDbEntity
  8
AM_3
 48
3.0
100
AcDbLine
 10
1034.205124332284
 20
2016.816548207247
 30
0.0
 11
1032.705124332284
 21
2019.4146244186
 31
0.0
  0
ARC
  5
1AF
330
2
100
AcDbEntity
  8
AM_3
 48
3.0
100
AcDbCircle
 10
1035.937175139852
 20
2017.816548207247
 30
0.0
 40
1.999999999999999
100
AcDbArc
 50
209.999999999985
 51
299.999999999997
  0
LINE
  5
1B0
330
2
100
AcDbEntity
  8
AM_3
 48
3.0
100
AcDbLine
 10
1032.174035419037
 20
2013.33449739968
 30
0.0
 11
1036.937175139851
 21
2016.084497399679
 31
0.0
1001
GENIUS_GENODEF_13
1002
{
1000
HIER
1070
     0
1002
}
1002
{
1000
MANEDIT
1070
     0
1002
}
1002
{
1000
NOSEL
1070
     0
1002
}
1002
{
1000
BEHIND
1070
     0
1002
}
1002
{
1000
REACTOR
1002
}
1001
GENIUS_GENOBJ-N-CEN_13
1002
{
1000
OWNER
1000
GEN
1002
}
  0
ARC
  5
1B1
330
2
100
AcDbEntity
  8
AM_3
 48
3.0
100
AcDbCircle
 10
1039.197288046809
 20
2019.957196004012
 30
0.0
 40
2.786805307953311
100
AcDbArc
 50
225.0536581814531
 51
287.7933002063157
  0
ARC
  5
1B2
330
2
100
AcDbEntity
  8
AM_3
 48
3.0
100
AcDbCircle
 10
1034.437175139852
 20
2020.4146244186
 30
0.0
 40
1.999999999999999
100
AcDbArc
 50
119.999999999997
 51
209.999999999985
  0
LINE
  5
1B3
330
2
100
AcDbEntity
  8
AM_3
 48
3.0
100
AcDbLine
 10
1017.196794083085
 20
2020.27584035077
 30
0.0
 11
1026.07803802952
 21
2025.403428933982
 31
0.0
  0
ARC
  5
1B4
330
2
100
AcDbEntity
  8
AM_3
 48
3.0
100
AcDbCircle
 10
1034.960616248482
 20
2025.912985706279
 30
0.0
 40
1.999999999999999
100
AcDbArc
 50
119.999999999997
 51
209.999999999985
1001
GENIUS_GENOBJ-N-CEN_13
1002
{
1000
OWNER
1000
GEN
1002
}
1001
GENIUS_GENODEF_13
1002
{
1000
HIER
1070
     0
1002
}
1002
{
1000
MANEDIT
1070
     0
1002
}
1002
{
1000
NOSEL
1070
     0
1002
}
1002
{
1000
BEHIND
1070
     0
1002
}
1002
{
1000
REACTOR
1002
}
1001
GENIUS_GENOBJ-N-FIL_13
1002
{
1000
OWNER
1000
GEN
1002
}
  0
ARC
  5
1B5
330
2
100
AcDbEntity
  8
AM_3
 48
3.0
100
AcDbCircle
 10
1033.919225947421
 20
2025.311738735631
 30
0.0
 40
1.999999999999999
100
AcDbArc
 50
119.999999999997
 51
209.999999999985
1001
GENIUS_GENOBJ-N-CEN_13
1002
{
1000
OWNER
1000
GEN
1002
}
1001
GENIUS_GENODEF_13
1002
{
1000
HIER
1070
     0
1002
}
1002
{
1000
MANEDIT
1070
     0
1002
}
1002
{
1000
NOSEL
1070
     0
1002
}
1002
{
1000
BEHIND
1070
     0
1002
}
1002
{
1000
REACTOR
1002
}
1001
GENIUS_GENOBJ-N-FIL_13
1002
{
1000
OWNER
1000
GEN
1002
}
  0
ARC
  5
1B6
330
2
100
AcDbEntity
  8
AM_3
 48
3.0
100
AcDbCircle
 10
1032.055608501366
 20
2016.971227340009
 30
0.0
 40
10.33602304889329
100
AcDbArc
 50
83.33818125735033
 51
125.3327497551276
  0
LINE
  5
1B7
330
2
100
AcDbEntity
  8
AM_3
 48
3.0
100
AcDbLine
 10
1090.385559646104
 20
2032.509179852373
 30
0.0
 11
1086.385559646105
 21
2039.437383082648
 31
0.0
  0
ARC
  5
1B8
330
2
100
AcDbEntity
  8
AM_3
 48
3.0
100
AcDbCircle
 10
1088.653508838536
 20
2031.509179852373
 30
0.0
 40
1.999999999999999
100
AcDbArc
 50
299.999999999997
 51
29.99999999998502
1001
GENIUS_GENOBJ-N-CEN_13
1002
{
1000
OWNER
1000
GEN
1002
}
1001
GENIUS_GENODEF_13
1002
{
1000
HIER
1070
     0
1002
}
1002
{
1000
MANEDIT
1070
     0
1002
}
1002
{
1000
NOSEL
1070
     0
1002
}
1002
{
1000
BEHIND
1070
     0
1002
}
1002
{
1000
REACTOR
1002
}
1001
GENIUS_GENOBJ-N-FIL_13
1002
{
1000
OWNER
1000
GEN
1002
}
  0
LINE
  5
1B9
330
2
100
AcDbEntity
  8
AM_3
 48
3.0
100
AcDbLine
 10
1051.728431719247
 20
2037.903289558806
 30
0.0
 11
1076.653508838536
 21
2052.293789543199
 31
0.0
1001
GENIUS_GENODEF_13
1002
{
1000
HIER
1070
     0
1002
}
1002
{
1000
MANEDIT
1070
     0
1002
}
1002
{
1000
NOSEL
1070
     0
1002
}
1002
{
1000
BEHIND
1070
     0
1002
}
1002
{
1000
REACTOR
1002
}
1001
GENIUS_GENOBJ-N-CEN_13
1002
{
1000
OWNER
1000
GEN
1002
}
  0
ARC
  5
1BA
330
2
100
AcDbEntity
  8
AM_3
 48
3.0
100
AcDbCircle
 10
1077.653508838536
 20
2050.56173873563
 30
0.0
 40
1.999999999999999
100
AcDbArc
 50
29.99999999998502
 51
119.999999999997
1001
GENIUS_GENODEF_13
1002
{
1000
HIER
1070
     0
1002
}
1002
{
1000
MANEDIT
1070
     0
1002
}
1002
{
1000
NOSEL
1070
     0
1002
}
1002
{
1000
BEHIND
1070
     0
1002
}
1002
{
1000
REACTOR
1002
}
1001
GENIUS_GENOBJ-N-FIL_13
1002
{
1000
OWNER
1000
GEN
1002
}
  0
LINE
  5
1BB
330
2
100
AcDbEntity
  8
AM_3
 48
3.0
100
AcDbLine
 10
1086.385559646105
 20
2039.437383082648
 30
0.0
 11
1079.385559646105
 21
2051.56173873563
 31
0.0
  0
LINE
  5
1BC
330
2
100
AcDbEntity
  8
AM_3
 48
3.0
100
AcDbLine
 10
1058.805460418137
 20
2029.359379032453
 30
0.0
 11
1076.56746295623
 21
2039.614275979168
 31
0.0
1001
GENIUS_GENODEF_13
1002
{
1000
HIER
1070
     0
1002
}
1002
{
1000
MANEDIT
1070
     0
1002
}
1002
{
1000
NOSEL
1070
     0
1002
}
1002
{
1000
BEHIND
1070
     0
1002
}
1002
{
1000
REACTOR
1002
}
1001
GENIUS_GENOBJ-N-CEN_13
1002
{
1000
OWNER
1000
GEN
1002
}
  0
LINE
  5
1BD
330
2
100
AcDbEntity
  8
AM_3
 48
3.0
100
AcDbLine
 10
1060.805460418138
 20
2025.895277417314
 30
0.0
 11
1078.567462956231
 21
2036.150174364028
 31
0.0
1001
GENIUS_GENODEF_13
1002
{
1000
HIER
1070
     0
1002
}
1002
{
1000
MANEDIT
1070
     0
1002
}
1002
{
1000
NOSEL
1070
     0
1002
}
1002
{
1000
BEHIND
1070
     0
1002
}
1002
{
1000
REACTOR
1002
}
1001
GENIUS_GENOBJ-N-CEN_13
1002
{
1000
OWNER
1000
GEN
1002
}
  0
LINE
  5
1BE
330
2
100
AcDbEntity
  8
AM_3
 48
3.0
100
AcDbLine
 10
1056.153583895388
 20
2030.779505989637
 30
0.0
 11
1060.632213539562
 21
2023.022291897643
 31
0.0
  0
LINE
  5
1BF
330
2
100
AcDbEntity
  8
AM_3
 48
3.0
100
AcDbLine
 10
1077.163284575946
 20
2042.808060377835
 30
0.0
 11
1081.510189769957
 21
2035.278999726123
 31
0.0
  0
ELLIPSE
  5
1C0
330
2
100
AcDbEntity
  8
AM_3
 48
3.0
100
AcDbEllipse
 10
1079.397278382745
 20
2038.938669600665
 30
0.0
 11
-1.499999999999997
 21
2.598076211353316
 31
0.0
210
0.0
220
0.0
230
1.0
 40
0.9449126231368627
 41
2.30052398302186
 42
7.124253977747518
  0
ELLIPSE
  5
1C1
330
2
100
AcDbEntity
  8
AM_3
 48
3.0
100
AcDbEllipse
 10
1058.431486036834
 20
2026.83406374598
 30
0.0
 11
-1.499999999999997
 21
2.598076211353316
 31
0.0
210
0.0
220
0.0
230
1.0
 40
0.9201419238112578
 41
5.442116636611653
 42
10.2658466313373
  0
ELLIPSE
  5
1C2
330
2
100
AcDbEntity
  8
AM_3
 48
3.0
100
AcDbEllipse
 10
1058.431486036834
 20
2026.83406374598
 30
0.0
 11
-1.499999999999997
 21
2.598076211353316
 31
0.0
210
0.0
220
0.0
230
1.0
 40
0.7095173195865053
 41
3.141592653589792
 42
3.982661324157721
  0
ELLIPSE
  5
1C3
330
2
100
AcDbEntity
  8
AM_3
 48
3.0
100
AcDbEllipse
 10
1058.431486036834
 20
2026.83406374598
 30
0.0
 11
-1.499999999999997
 21
2.598076211353316
 31
0.0
210
0.0
220
0.0
230
1.0
 40
0.7095173195865053
 41
5.442116636611656
 42
6.283185307179584
  0
ELLIPSE
  5
1C4
330
2
100
AcDbEntity
  8
AM_3
 48
3.0
100
AcDbEllipse
 10
1079.397278382745
 20
2038.938669600665
 30
0.0
 11
-1.499999999999997
 21
2.598076211353316
 31
0.0
210
0.0
220
0.0
230
1.0
 40
0.6301633309658806
 41
3.141592653589792
 42
6.283185307179584
  0
LINE
  5
1C5
330
2
100
AcDbEntity
  8
AM_3
 48
3.0
100
AcDbLine
 10
1037.228565403361
 20
2017.984782448344
 30
0.0
 11
1043.328665065549
 21
2021.506676630391
 31
0.0
1001
GENIUS_GENODEF_13
1002
{
1000
HIER
1070
     0
1002
}
1002
{
1000
MANEDIT
1070
     0
1002
}
1002
{
1000
NOSEL
1070
     0
1002
}
1002
{
1000
BEHIND
1070
     0
1002
}
1002
{
1000
REACTOR
1002
}
1001
GENIUS_GENOBJ-N-CEN_13
1002
{
1000
OWNER
1000
GEN
1002
}
  0
LINE
  5
1C6
330
2
100
AcDbEntity
  8
AM_3
 48
3.0
100
AcDbLine
 10
1040.228565403362
 20
2012.788630025637
 30
0.0
 11
1046.328665065549
 21
2016.310524207684
 31
0.0
1001
GENIUS_GENODEF_13
1002
{
1000
HIER
1070
     0
1002
}
1002
{
1000
MANEDIT
1070
     0
1002
}
1002
{
1000
NOSEL
1070
     0
1002
}
1002
{
1000
BEHIND
1070
     0
1002
}
1002
{
1000
REACTOR
1002
}
1001
GENIUS_GENOBJ-N-CEN_13
1002
{
1000
OWNER
1000
GEN
1002
}
  0
ELLIPSE
  5
1C7
330
2
100
AcDbEntity
  8
AM_3
 48
3.0
100
AcDbEllipse
 10
1044.828665065548
 20
2018.908600419038
 30
0.0
 11
-1.499999999999991
 21
2.598076211353303
 31
0.0
210
0.0
220
0.0
230
1.0
 40
0.7741598128011863
 41
3.141592653589792
 42
6.283185307179584
  0
LINE
  5
1C8
330
2
100
AcDbEntity
  8
AM_3
 48
3.0
100
AcDbLine
 10
1040.04889103077
 20
2017.303697131773
 30
0.0
 11
1044.328665065548
 21
2019.774625822822
 31
0.0
1001
GENIUS_GENODEF_13
1002
{
1000
HIER
1070
     0
1002
}
1002
{
1000
MANEDIT
1070
     0
1002
}
1002
{
1000
NOSEL
1070
     0
1002
}
1002
{
1000
BEHIND
1070
     0
1002
}
1002
{
1000
REACTOR
1002
}
1001
GENIUS_GENOBJ-N-CEN_13
1002
{
1000
OWNER
1000
GEN
1002
}
  0
SPLINE
  5
1C9
330
2
100
AcDbEntity
  8
AM_3
 48
3.0
100
AcDbSpline
210
0.0
220
0.0
230
1.0
 70
     8
 71
     3
 72
    18
 73
    14
 74
     0
 42
0.0000000001
 43
0.0000000001
 40
3.628703069452225
 40
3.628703069452225
 40
3.628703069452225
 40
3.628703069452225
 40
3.912493910190088
 40
3.912493910190088
 40
4.196284750927953
 40
4.196284750927953
 40
4.622228449873871
 40
4.622228449873871
 40
5.048172148819785
 40
5.048172148819785
 40
5.474115847765705
 40
5.474115847765705
 40
5.796074891333204
 40
5.796074891333204
 40
5.796074891333204
 40
5.796074891333204
 10
1045.292285065649
 20
2018.021055264348
 30
0.0
 10
1045.301831124627
 20
2018.040961623413
 30
0.0
 10
1045.318120819237
 20
2018.084019057888
 30
0.0
 10
1045.338451497736
 20
2018.219204852627
 30
0.0
 10
1045.342027925802
 20
2018.310820757322
 30
0.0
 10
1045.312649687586
 20
2018.577518495819
 30
0.0
 10
1045.258962100373
 20
2018.770573712202
 30
0.0
 10
1045.079513208308
 20
2019.138555708678
 30
0.0
 10
1044.954456891988
 20
2019.312149126059
 30
0.0
 10
1044.689810836473
 20
2019.575695771135
 30
0.0
 10
1044.551655022911
 20
2019.66420607118
 30
0.0
 10
1044.372257550391
 20
2019.742432648632
 30
0.0
 10
1044.316811401063
 20
2019.751966880395
 30
0.0
 10
1044.291838414628
 20
2019.753879694171
 30
0.0
  0
LINE
  5
1CA
330
2
100
AcDbEntity
  8
AM_3
 48
3.0
100
AcDbLine
 10
1041.04889103077
 20
2015.571646324204
 30
0.0
 11
1045.328665065548
 21
2018.042575015253
 31
0.0
1001
GENIUS_GENODEF_13
1002
{
1000
HIER
1070
     0
1002
}
1002
{
1000
MANEDIT
1070
     0
1002
}
1002
{
1000
NOSEL
1070
     0
1002
}
1002
{
1000
BEHIND
1070
     0
1002
}
1002
{
1000
REACTOR
1002
}
1001
GENIUS_GENOBJ-N-CEN_13
1002
{
1000
OWNER
1000
GEN
1002
}
  0
LINE
  5
1CB
330
2
100
AcDbEntity
  8
AM_3
 48
3.0
100
AcDbLine
 10
1022.531730573625
 20
2006.035459294001
 30
0.0
 11
1032.39151957308
 21
2011.728011126989
 31
0.0
1001
GENIUS_GENOREF_13
1005
548
  0
LINE
  5
1CC
330
2
100
AcDbEntity
  8
AM_3
 48
3.0
100
AcDbLine
 10
1022.531730573625
 20
2006.035459294001
 30
0.0
 11
1016.839178740636
 21
2015.895248293457
 31
0.0
1001
GENIUS_GENOREF_13
1005
548
  0
LINE
  5
1CD
330
2
100
AcDbEntity
  8
AM_3
 48
3.0
100
AcDbLine
 10
1022.531730573625
 20
2006.035459294001
 30
0.0
 11
1012.67194157417
 21
2000.342907461013
 31
0.0
1001
GENIUS_GENOREF_13
1005
548
  0
LINE
  5
1CE
330
2
100
AcDbEntity
  8
AM_3
 48
3.0
100
AcDbLine
 10
1022.531730573625
 20
2006.035459294001
 30
0.0
 11
1028.224282406612
 21
1996.175670294547
 31
0.0
1001
GENIUS_GENOREF_13
1005
548
  0
LINE
  5
1CF
330
2
100
AcDbEntity
  8
AM_3
 48
3.0
100
AcDbLine
 10
1025.779224397407
 20
2013.68390341925
 30
0.0
 11
1039.169129683732
 21
2021.414568840733
 31
0.0
1001
GENIUS_GENODEF_13
1002
{
1000
HIER
1070
     0
1002
}
1002
{
1000
MANEDIT
1070
     0
1002
}
1002
{
1000
NOSEL
1070
     0
1002
}
1002
{
1000
BEHIND
1070
     0
1002
}
1002
{
1000
REACTOR
1002
}
1001
GENIUS_GENOBJ-N-CEN_13
1002
{
1000
OWNER
1000
GEN
1002
}
  0
LINE
  5
1D0
330
2
100
AcDbEntity
  8
AM_3
 48
3.0
100
AcDbLine
 10
1054.102918597234
 20
2024.334964169522
 30
0.0
 11
1083.144409853699
 21
2041.10207696411
 31
0.0
1001
GENIUS_GENODEF_13
1002
{
1000
HIER
1070
     0
1002
}
1002
{
1000
MANEDIT
1070
     0
1002
}
1002
{
1000
NOSEL
1070
     0
1002
}
1002
{
1000
BEHIND
1070
     0
1002
}
1002
{
1000
REACTOR
1002
}
1001
GENIUS_GENOBJ-N-CEN_13
1002
{
1000
OWNER
1000
GEN
1002
}
  0
LINE
  5
1D1
330
2
100
AcDbEntity
  8
AM_3
 48
3.0
100
AcDbLine
 10
1293.592872486537
 20
2004.527129044805
 30
0.0
 11
1274.173201063476
 21
2015.739081568483
 31
0.0
1001
GENIUS_GENODEF_13
1002
{
1000
HIER
1070
     0
1002
}
1002
{
1000
MANEDIT
1070
     0
1002
}
1002
{
1000
NOSEL
1070
     0
1002
}
1002
{
1000
BEHIND
1070
     0
1002
}
1002
{
1000
REACTOR
1002
}
1001
GENIUS_GENOBJ-N-CEN_13
1002
{
1000
OWNER
1000
GEN
1002
}
  0
LINE
  5
1D2
330
2
100
AcDbEntity
  8
AM_3
 48
3.0
100
AcDbLine
 10
1306.592872486536
 20
2027.043789543198
 30
0.0
 11
1262.858589595422
 21
2052.293789543199
 31
0.0
1001
GENIUS_GENODEF_13
1002
{
1000
HIER
1070
     0
1002
}
1002
{
1000
MANEDIT
1070
     0
1002
}
1002
{
1000
NOSEL
1070
     0
1002
}
1002
{
1000
BEHIND
1070
     0
1002
}
1002
{
1000
REACTOR
1002
}
1001
GENIUS_GENOBJ-N-CEN_13
1002
{
1000
OWNER
1000
GEN
1002
}
  0
ARC
  5
1D3
330
2
100
AcDbEntity
  8
AM_3
 48
3.0
100
AcDbCircle
 10
1299.814692611397
 20
2020.096359310671
 30
0.0
 40
2.77539230657983
100
AcDbArc
 50
260.8144708636914
 51
317.6362645299239
  0
LINE
  5
1D4
330
2
100
AcDbEntity
  8
AM_3
 48
3.0
100
AcDbLine
 10
1300.680279862212
 20
2017.194458975769
 30
0.0
 11
1299.166346656041
 21
2014.572249743415
 31
0.0
  0
ARC
  5
1D5
330
2
100
AcDbEntity
  8
AM_3
 48
3.0
100
AcDbCircle
 10
1303.574923294105
 20
2017.816548207246
 30
0.0
 40
2.0
100
AcDbArc
 50
240.0000000000029
 51
330.000000000015
  0
ARC
  5
1D6
330
2
100
AcDbEntity
  8
AM_3
 48
3.0
100
AcDbCircle
 10
1300.314810387149
 20
2019.957196004012
 30
0.0
 40
2.786805307953311
100
AcDbArc
 50
252.2066997936843
 51
314.9463418185832
  0
CIRCLE
  5
1D7
330
2
100
AcDbEntity
  8
AM_3
 48
3.0
100
AcDbCircle
 10
1316.980367860333
 20
2006.035459294002
 30
0.0
 40
6.0
  0
LINE
  5
1D8
330
2
100
AcDbEntity
  8
AM_3
 48
3.0
100
AcDbLine
 10
1307.324923294106
 20
2024.311738735631
 30
0.0
 11
1296.324923294106
 21
2005.259179852374
 31
0.0
  0
ARC
  5
1D9
330
2
100
AcDbEntity
  8
AM_3
 48
3.0
100
AcDbCircle
 10
1314.815304350872
 20
2007.285459294002
 30
0.0
 40
15.0
100
AcDbArc
 50
240.0000000000029
 51
60.00000000000296
  0
LINE
  5
1DA
330
2
100
AcDbEntity
  8
AM_3
 48
3.0
100
AcDbLine
 10
1302.283532993046
 20
2017.984782476004
 30
0.0
 11
1297.285859153
 21
2020.870190812876
 31
0.0
1001
GENIUS_GENODEF_13
1002
{
1000
HIER
1070
     0
1002
}
1002
{
1000
MANEDIT
1070
     0
1002
}
1002
{
1000
NOSEL
1070
     0
1002
}
1002
{
1000
BEHIND
1070
     0
1002
}
1002
{
1000
REACTOR
1002
}
1001
GENIUS_GENOBJ-N-CEN_13
1002
{
1000
OWNER
1000
GEN
1002
}
  0
LINE
  5
1DB
330
2
100
AcDbEntity
  8
AM_3
 48
3.0
100
AcDbLine
 10
1313.73287403655
 20
2013.683903419249
 30
0.0
 11
1300.342968750225
 21
2021.414568840732
 31
0.0
1001
GENIUS_GENODEF_13
1002
{
1000
HIER
1070
     0
1002
}
1002
{
1000
MANEDIT
1070
     0
1002
}
1002
{
1000
NOSEL
1070
     0
1002
}
1002
{
1000
BEHIND
1070
     0
1002
}
1002
{
1000
REACTOR
1002
}
1001
GENIUS_GENOBJ-N-CEN_13
1002
{
1000
OWNER
1000
GEN
1002
}
  0
ARC
  5
1DC
330
2
100
AcDbEntity
  8
AM_3
 48
3.0
100
AcDbCircle
 10
1304.551482185477
 20
2025.91298570628
 30
0.0
 40
2.0
100
AcDbArc
 50
330.000000000015
 51
60.00000000000296
1001
GENIUS_GENOBJ-N-CEN_13
1002
{
1000
OWNER
1000
GEN
1002
}
1001
GENIUS_GENODEF_13
1002
{
1000
HIER
1070
     0
1002
}
1002
{
1000
MANEDIT
1070
     0
1002
}
1002
{
1000
NOSEL
1070
     0
1002
}
1002
{
1000
BEHIND
1070
     0
1002
}
1002
{
1000
REACTOR
1002
}
1001
GENIUS_GENOBJ-N-FIL_13
1002
{
1000
OWNER
1000
GEN
1002
}
  0
ARC
  5
1DD
330
2
100
AcDbEntity
  8
AM_3
 48
3.0
100
AcDbCircle
 10
1305.592872486537
 20
2025.311738735632
 30
0.0
 40
2.0
100
AcDbArc
 50
330.000000000015
 51
60.00000000000296
1001
GENIUS_GENOBJ-N-CEN_13
1002
{
1000
OWNER
1000
GEN
1002
}
1001
GENIUS_GENODEF_13
1002
{
1000
HIER
1070
     0
1002
}
1002
{
1000
MANEDIT
1070
     0
1002
}
1002
{
1000
NOSEL
1070
     0
1002
}
1002
{
1000
BEHIND
1070
     0
1002
}
1002
{
1000
REACTOR
1002
}
1001
GENIUS_GENOBJ-N-FIL_13
1002
{
1000
OWNER
1000
GEN
1002
}
  0
LINE
  5
1DE
330
2
100
AcDbEntity
  8
AM_3
 48
3.0
100
AcDbLine
 10
1322.315304350872
 20
2020.275840350769
 30
0.0
 11
1313.434060404437
 21
2025.403428933982
 31
0.0
  0
ARC
  5
1DF
330
2
100
AcDbEntity
  8
AM_3
 48
3.0
100
AcDbCircle
 10
1307.456489932592
 20
2016.97122734001
 30
0.0
 40
10.33602304889329
100
AcDbArc
 50
54.66725024487241
 51
96.66181874267593
  0
ARC
  5
1E0
330
2
100
AcDbEntity
  8
AM_3
 48
3.0
100
AcDbCircle
 10
1309.088063014919
 20
2016.365586312923
 30
0.0
 40
3.5
100
AcDbArc
 50
240.0000000000029
 51
60.00000000000296
  0
ARC
  5
1E1
330
2
100
AcDbEntity
  8
AM_3
 48
3.0
100
AcDbCircle
 10
1305.074923294105
 20
2020.4146244186
 30
0.0
 40
2.0
100
AcDbArc
 50
330.000000000015
 51
60.00000000000296
  0
LINE
  5
1E2
330
2
100
AcDbEntity
  8
AM_3
 48
3.0
100
AcDbLine
 10
1306.806974101673
 20
2019.414624418599
 30
0.0
 11
1305.306974101673
 21
2016.816548207247
 31
0.0
  0
LINE
  5
1E3
330
2
100
AcDbEntity
  8
AM_3
 48
3.0
100
AcDbLine
 10
1307.33806301492
 20
2013.334497399679
 30
0.0
 11
1302.574923294106
 21
2016.084497399679
 31
0.0
1001
GENIUS_GENODEF_13
1002
{
1000
HIER
1070
     0
1002
}
1002
{
1000
MANEDIT
1070
     0
1002
}
1002
{
1000
NOSEL
1070
     0
1002
}
1002
{
1000
BEHIND
1070
     0
1002
}
1002
{
1000
REACTOR
1002
}
1001
GENIUS_GENOBJ-N-CEN_13
1002
{
1000
OWNER
1000
GEN
1002
}
  0
LINE
  5
1E4
330
2
100
AcDbEntity
  8
AM_3
 48
3.0
100
AcDbLine
 10
1310.838063014919
 20
2019.396675226169
 30
0.0
 11
1306.074923294105
 21
2022.146675226169
 31
0.0
1001
GENIUS_GENODEF_13
1002
{
1000
HIER
1070
     0
1002
}
1002
{
1000
MANEDIT
1070
     0
1002
}
1002
{
1000
NOSEL
1070
     0
1002
}
1002
{
1000
BEHIND
1070
     0
1002
}
1002
{
1000
REACTOR
1002
}
1001
GENIUS_GENOBJ-N-CEN_13
1002
{
1000
OWNER
1000
GEN
1002
}
  0
LINE
  5
1E5
330
2
100
AcDbEntity
  8
AM_3
 48
3.0
100
AcDbLine
 10
1306.283532993046
 20
2024.91298570628
 30
0.0
 11
1302.283532993046
 21
2017.984782476004
 31
0.0
  0
LINE
  5
1E6
330
2
100
AcDbEntity
  8
AM_3
 48
3.0
100
AcDbLine
 10
1299.463207365637
 20
2017.303697159433
 30
0.0
 11
1296.285859153
 21
2019.138140005307
 31
0.0
1001
GENIUS_GENODEF_13
1002
{
1000
HIER
1070
     0
1002
}
1002
{
1000
MANEDIT
1070
     0
1002
}
1002
{
1000
NOSEL
1070
     0
1002
}
1002
{
1000
BEHIND
1070
     0
1002
}
1002
{
1000
REACTOR
1002
}
1001
GENIUS_GENOBJ-N-CEN_13
1002
{
1000
OWNER
1000
GEN
1002
}
  0
LINE
  5
1E7
330
2
100
AcDbEntity
  8
AM_3
 48
3.0
100
AcDbLine
 10
1298.463207365636
 20
2015.571646351863
 30
0.0
 11
1295.285859152999
 21
2017.406089197737
 31
0.0
1001
GENIUS_GENODEF_13
1002
{
1000
HIER
1070
     0
1002
}
1002
{
1000
MANEDIT
1070
     0
1002
}
1002
{
1000
NOSEL
1070
     0
1002
}
1002
{
1000
BEHIND
1070
     0
1002
}
1002
{
1000
REACTOR
1002
}
1001
GENIUS_GENOBJ-N-CEN_13
1002
{
1000
OWNER
1000
GEN
1002
}
  0
LINE
  5
1E8
330
2
100
AcDbEntity
  8
AM_3
 48
3.0
100
AcDbLine
 10
1299.283532993045
 20
2012.788630053296
 30
0.0
 11
1294.285859152999
 21
2015.674038390168
 31
0.0
1001
GENIUS_GENODEF_13
1002
{
1000
HIER
1070
     0
1002
}
1002
{
1000
MANEDIT
1070
     0
1002
}
1002
{
1000
NOSEL
1070
     0
1002
}
1002
{
1000
BEHIND
1070
     0
1002
}
1002
{
1000
REACTOR
1002
}
1001
GENIUS_GENOBJ-N-CEN_13
1002
{
1000
OWNER
1000
GEN
1002
}
  0
LINE
  5
1E9
330
2
100
AcDbEntity
  8
AM_3
 48
3.0
100
AcDbLine
 10
1299.283532993045
 20
2012.788630053296
 30
0.0
 11
1295.283532993046
 21
2005.860426823022
 31
0.0
  0
ARC
  5
1EA
330
2
100
AcDbEntity
  8
AM_3
 48
3.0
100
AcDbCircle
 10
1304.08806301492
 20
2007.70533227508
 30
0.0
 40
3.5
100
AcDbArc
 50
240.0000000000029
 51
60.00000000000296
  0
LINE
  5
1EB
330
2
100
AcDbEntity
  8
AM_3
 48
3.0
100
AcDbLine
 10
1302.338063014919
 20
2004.674243361833
 30
0.0
 11
1297.574923294105
 21
2007.424243361833
 31
0.0
1001
GENIUS_GENODEF_13
1002
{
1000
HIER
1070
     0
1002
}
1002
{
1000
MANEDIT
1070
     0
1002
}
1002
{
1000
NOSEL
1070
     0
1002
}
1002
{
1000
BEHIND
1070
     0
1002
}
1002
{
1000
REACTOR
1002
}
1001
GENIUS_GENOBJ-N-CEN_13
1002
{
1000
OWNER
1000
GEN
1002
}
  0
ARC
  5
1EC
330
2
100
AcDbEntity
  8
AM_3
 48
3.0
100
AcDbCircle
 10
1296.220433621357
 20
2013.87092012436
 30
0.0
 40
2.775392306579831
100
AcDbArc
 50
342.3637354700722
 51
39.18552913631893
  0
LINE
  5
1ED
330
2
100
AcDbEntity
  8
AM_3
 48
3.0
100
AcDbLine
 10
1299.463207365637
 20
2017.303697159433
 30
0.0
 11
1298.463207365636
 21
2015.571646351863
 31
0.0
  0
LINE
  5
1EE
330
2
100
AcDbEntity
  8
AM_3
 48
3.0
100
AcDbLine
 10
1301.806974101674
 20
2010.754370380757
 30
0.0
 11
1300.306974101674
 21
2008.156294169404
 31
0.0
  0
ARC
  5
1EF
330
2
100
AcDbEntity
  8
AM_3
 48
3.0
100
AcDbCircle
 10
1300.074923294106
 20
2011.754370380757
 30
0.0
 40
2.0
100
AcDbArc
 50
330.000000000015
 51
60.00000000000296
  0
LINE
  5
1F0
330
2
100
AcDbEntity
  8
AM_3
 48
3.0
100
AcDbLine
 10
1305.838063014919
 20
2010.736421188324
 30
0.0
 11
1301.074923294105
 21
2013.486421188324
 31
0.0
1001
GENIUS_GENODEF_13
1002
{
1000
HIER
1070
     0
1002
}
1002
{
1000
MANEDIT
1070
     0
1002
}
1002
{
1000
NOSEL
1070
     0
1002
}
1002
{
1000
BEHIND
1070
     0
1002
}
1002
{
1000
REACTOR
1002
}
1001
GENIUS_GENOBJ-N-CEN_13
1002
{
1000
OWNER
1000
GEN
1002
}
  0
ARC
  5
1F1
330
2
100
AcDbEntity
  8
AM_3
 48
3.0
100
AcDbCircle
 10
1296.591011468074
 20
2013.507387079003
 30
0.0
 40
2.786805307953311
100
AcDbArc
 50
345.0536581814317
 51
47.7933002063334
  0
ARC
  5
1F2
330
2
100
AcDbEntity
  8
AM_3
 48
3.0
100
AcDbCircle
 10
1298.574923294106
 20
2009.156294169404
 30
0.0
 40
2.0
100
AcDbArc
 50
240.0000000000029
 51
330.000000000015
  0
LINE
  5
1F3
330
2
100
AcDbEntity
  8
AM_3
 48
3.0
100
AcDbLine
 10
1307.315304350871
 20
1994.295078237234
 30
0.0
 11
1298.434060404436
 21
1999.422666820447
 31
0.0
  0
ARC
  5
1F4
330
2
100
AcDbEntity
  8
AM_3
 48
3.0
100
AcDbCircle
 10
1293.551482185477
 20
2006.860426823022
 30
0.0
 40
2.0
100
AcDbArc
 50
240.0000000000029
 51
330.000000000015
1001
GENIUS_GENOBJ-N-CEN_13
1002
{
1000
OWNER
1000
GEN
1002
}
1001
GENIUS_GENODEF_13
1002
{
1000
HIER
1070
     0
1002
}
1002
{
1000
MANEDIT
1070
     0
1002
}
1002
{
1000
NOSEL
1070
     0
1002
}
1002
{
1000
BEHIND
1070
     0
1002
}
1002
{
1000
REACTOR
1002
}
1001
GENIUS_GENOBJ-N-FIL_13
1002
{
1000
OWNER
1000
GEN
1002
}
  0
ARC
  5
1F5
330
2
100
AcDbEntity
  8
AM_3
 48
3.0
100
AcDbCircle
 10
1294.592872486537
 20
2006.259179852374
 30
0.0
 40
2.0
100
AcDbArc
 50
240.0000000000029
 51
330.000000000015
1001
GENIUS_GENOBJ-N-CEN_13
1002
{
1000
OWNER
1000
GEN
1002
}
1001
GENIUS_GENODEF_13
1002
{
1000
HIER
1070
     0
1002
}
1002
{
1000
MANEDIT
1070
     0
1002
}
1002
{
1000
NOSEL
1070
     0
1002
}
1002
{
1000
BEHIND
1070
     0
1002
}
1002
{
1000
REACTOR
1002
}
1001
GENIUS_GENOBJ-N-FIL_13
1002
{
1000
OWNER
1000
GEN
1002
}
  0
ARC
  5
1F6
330
2
100
AcDbEntity
  8
AM_3
 48
3.0
100
AcDbCircle
 10
1302.747775958726
 20
2008.815495498964
 30
0.0
 40
10.33602304889329
100
AcDbArc
 50
203.3381812573481
 51
245.3327497551257
  0
LINE
  5
1F7
330
2
100
AcDbEntity
  8
AM_3
 48
3.0
100
AcDbLine
 10
1260.126538787854
 20
2051.561738735631
 30
0.0
 11
1256.126538787854
 21
2044.633535505356
 31
0.0
  0
ARC
  5
1F8
330
2
100
AcDbEntity
  8
AM_3
 48
3.0
100
AcDbCircle
 10
1261.858589595423
 20
2050.561738735631
 30
0.0
 40
2.0
100
AcDbArc
 50
60.00000000000296
 51
150.000000000015
1001
GENIUS_GENOBJ-N-CEN_13
1002
{
1000
OWNER
1000
GEN
1002
}
1001
GENIUS_GENODEF_13
1002
{
1000
HIER
1070
     0
1002
}
1002
{
1000
MANEDIT
1070
     0
1002
}
1002
{
1000
NOSEL
1070
     0
1002
}
1002
{
1000
BEHIND
1070
     0
1002
}
1002
{
1000
REACTOR
1002
}
1001
GENIUS_GENOBJ-N-FIL_13
1002
{
1000
OWNER
1000
GEN
1002
}
  0
LINE
  5
1F9
330
2
100
AcDbEntity
  8
AM_3
 48
3.0
100
AcDbLine
 10
1274.783666714711
 20
2015.386629060412
 30
0.0
 11
1249.858589595423
 21
2029.777129044805
 31
0.0
1001
GENIUS_GENODEF_13
1002
{
1000
HIER
1070
     0
1002
}
1002
{
1000
MANEDIT
1070
     0
1002
}
1002
{
1000
NOSEL
1070
     0
1002
}
1002
{
1000
BEHIND
1070
     0
1002
}
1002
{
1000
REACTOR
1002
}
1001
GENIUS_GENOBJ-N-CEN_13
1002
{
1000
OWNER
1000
GEN
1002
}
  0
ARC
  5
1FA
330
2
100
AcDbEntity
  8
AM_3
 48
3.0
100
AcDbCircle
 10
1250.858589595423
 20
2031.509179852374
 30
0.0
 40
2.0
100
AcDbArc
 50
150.000000000015
 51
240.0000000000029
1001
GENIUS_GENODEF_13
1002
{
1000
HIER
1070
     0
1002
}
1002
{
1000
MANEDIT
1070
     0
1002
}
1002
{
1000
NOSEL
1070
     0
1002
}
1002
{
1000
BEHIND
1070
     0
1002
}
1002
{
1000
REACTOR
1002
}
1001
GENIUS_GENOBJ-N-FIL_13
1002
{
1000
OWNER
1000
GEN
1002
}
  0
LINE
  5
1FB
330
2
100
AcDbEntity
  8
AM_3
 48
3.0
100
AcDbLine
 10
1256.126538787854
 20
2044.633535505356
 30
0.0
 11
1249.126538787854
 21
2032.509179852374
 31
0.0
  0
LINE
  5
1FC
330
2
100
AcDbEntity
  8
AM_3
 48
3.0
100
AcDbLine
 10
1278.644395928749
 20
2025.787470960138
 30
0.0
 11
1260.882393390656
 21
2036.042367906853
 31
0.0
1001
GENIUS_GENODEF_13
1002
{
1000
HIER
1070
     0
1002
}
1002
{
1000
MANEDIT
1070
     0
1002
}
1002
{
1000
NOSEL
1070
     0
1002
}
1002
{
1000
BEHIND
1070
     0
1002
}
1002
{
1000
REACTOR
1002
}
1001
GENIUS_GENOBJ-N-CEN_13
1002
{
1000
OWNER
1000
GEN
1002
}
  0
LINE
  5
1FD
330
2
100
AcDbEntity
  8
AM_3
 48
3.0
100
AcDbLine
 10
1280.64439592875
 20
2029.251572575277
 30
0.0
 11
1262.882393390657
 21
2039.506469521992
 31
0.0
1001
GENIUS_GENODEF_13
1002
{
1000
HIER
1070
     0
1002
}
1002
{
1000
MANEDIT
1070
     0
1002
}
1002
{
1000
NOSEL
1070
     0
1002
}
1002
{
1000
BEHIND
1070
     0
1002
}
1002
{
1000
REACTOR
1002
}
1001
GENIUS_GENOBJ-N-CEN_13
1002
{
1000
OWNER
1000
GEN
1002
}
  0
LINE
  5
1FE
330
2
100
AcDbEntity
  8
AM_3
 48
3.0
100
AcDbLine
 10
1278.740468168603
 20
2022.780815045146
 30
0.0
 11
1283.219097812778
 21
2030.538029137139
 31
0.0
  0
LINE
  5
1FF
330
2
100
AcDbEntity
  8
AM_3
 48
3.0
100
AcDbLine
 10
1257.818584157342
 20
2034.961472366317
 30
0.0
 11
1262.165489351353
 21
2042.490533018029
 31
0.0
  0
ELLIPSE
  5
200
330
2
100
AcDbEntity
  8
AM_3
 48
3.0
100
AcDbEllipse
 10
1260.05257796414
 20
2038.830863143487
 30
0.0
 11
-1.5
 21
-2.598076211353313
 31
0.0
210
0.0
220
0.0
230
1.0
 40
0.9449126231368627
 41
2.30052398302186
 42
7.124253977747518
  0
ELLIPSE
  5
201
330
2
100
AcDbEntity
  8
AM_3
 48
3.0
100
AcDbEllipse
 10
1281.01837031005
 20
2026.726257288802
 30
0.0
 11
-1.5
 21
-2.598076211353313
 31
0.0
210
0.0
220
0.0
230
1.0
 40
0.9201419238112576
 41
5.442116636611653
 42
10.2658466313373
  0
ELLIPSE
  5
202
330
2
100
AcDbEntity
  8
AM_3
 48
3.0
100
AcDbEllipse
 10
1281.01837031005
 20
2026.726257288802
 30
0.0
 11
-1.5
 21
-2.598076211353313
 31
0.0
210
0.0
220
0.0
230
1.0
 40
0.7095173195865056
 41
3.141592653589792
 42
3.982661324157721
  0
ELLIPSE
  5
203
330
2
100
AcDbEntity
  8
AM_3
 48
3.0
100
AcDbEllipse
 10
1281.01837031005
 20
2026.726257288802
 30
0.0
 11
-1.5
 21
-2.598076211353313
 31
0.0
210
0.0
220
0.0
230
1.0
 40
0.7095173195865056
 41
5.442116636611656
 42
6.283185307179584
  0
ELLIPSE
  5
204
330
2
100
AcDbEntity
  8
AM_3
 48
3.0
100
AcDbEllipse
 10
1260.05257796414
 20
2038.830863143487
 30
0.0
 11
-1.5
 21
-2.598076211353313
 31
0.0
210
0.0
220
0.0
230
1.0
 40
0.6301633309658806
 41
3.141592653589792
 42
6.283185307179584
  0
LINE
  5
205
330
2
100
AcDbEntity
  8
AM_3
 48
3.0
100
AcDbLine
 10
1299.283533035774
 20
2012.788630034607
 30
0.0
 11
1293.183433373588
 21
2016.310524216653
 31
0.0
1001
GENIUS_GENODEF_13
1002
{
1000
HIER
1070
     0
1002
}
1002
{
1000
MANEDIT
1070
     0
1002
}
1002
{
1000
NOSEL
1070
     0
1002
}
1002
{
1000
BEHIND
1070
     0
1002
}
1002
{
1000
REACTOR
1002
}
1001
GENIUS_GENOBJ-N-CEN_13
1002
{
1000
OWNER
1000
GEN
1002
}
  0
LINE
  5
206
330
2
100
AcDbEntity
  8
AM_3
 48
3.0
100
AcDbLine
 10
1302.283533035775
 20
2017.984782457314
 30
0.0
 11
1296.183433373588
 21
2021.506676639361
 31
0.0
1001
GENIUS_GENODEF_13
1002
{
1000
HIER
1070
     0
1002
}
1002
{
1000
MANEDIT
1070
     0
1002
}
1002
{
1000
NOSEL
1070
     0
1002
}
1002
{
1000
BEHIND
1070
     0
1002
}
1002
{
1000
REACTOR
1002
}
1001
GENIUS_GENOBJ-N-CEN_13
1002
{
1000
OWNER
1000
GEN
1002
}
  0
ELLIPSE
  5
207
330
2
100
AcDbEntity
  8
AM_3
 48
3.0
100
AcDbEllipse
 10
1294.683433373588
 20
2018.908600428007
 30
0.0
 11
-1.499999999999992
 21
-2.5980762113533
 31
0.0
210
0.0
220
0.0
230
1.0
 40
0.7741598128011863
 41
3.141592653589792
 42
6.283185307179584
  0
LINE
  5
208
330
2
100
AcDbEntity
  8
AM_3
 48
3.0
100
AcDbLine
 10
1298.463207408365
 20
2015.571646333173
 30
0.0
 11
1294.183433373588
 21
2018.042575024223
 31
0.0
1001
GENIUS_GENODEF_13
1002
{
1000
HIER
1070
     0
1002
}
1002
{
1000
MANEDIT
1070
     0
1002
}
1002
{
1000
NOSEL
1070
     0
1002
}
1002
{
1000
BEHIND
1070
     0
1002
}
1002
{
1000
REACTOR
1002
}
1001
GENIUS_GENOBJ-N-CEN_13
1002
{
1000
OWNER
1000
GEN
1002
}
  0
SPLINE
  5
209
330
2
100
AcDbEntity
  8
AM_3
 48
3.0
100
AcDbSpline
210
0.0
220
0.0
230
1.0
 70
     8
 71
     3
 72
    18
 73
    14
 74
     0
 42
0.0000000001
 43
0.0000000001
 40
3.628703069452225
 40
3.628703069452225
 40
3.628703069452225
 40
3.628703069452225
 40
3.912493910190088
 40
3.912493910190088
 40
4.196284750927953
 40
4.196284750927953
 40
4.622228449873871
 40
4.622228449873871
 40
5.048172148819785
 40
5.048172148819785
 40
5.474115847765705
 40
5.474115847765705
 40
5.796074891333204
 40
5.796074891333204
 40
5.796074891333204
 40
5.796074891333204
 10
1295.220260024504
 20
2019.753879703142
 30
0.0
 10
1295.198247582368
 20
2019.75219365319
 30
0.0
 10
1295.152813902987
 20
2019.744772225305
 30
0.0
 10
1295.025574231262
 20
2019.694786211991
 30
0.0
 10
1294.944444316373
 20
2019.652075537205
 30
0.0
 10
1294.72816641881
 20
2019.493284367342
 30
0.0
 10
1294.587819490696
 20
2019.350261944757
 30
0.0
 10
1294.358862179645
 20
2019.010863647309
 30
0.0
 10
1294.271054028423
 20
2018.815764991782
 30
0.0
 10
1294.175138966463
 20
2018.454801462157
 30
0.0
 10
1294.167564704909
 20
2018.290899867908
 30
0.0
 10
1294.189517237843
 20
2018.096423810606
 30
0.0
 10
1294.208983425595
 20
2018.043638920863
 30
0.0
 10
1294.21981337349
 20
2018.021055273316
 30
0.0
  0
LINE
  5
20A
330
2
100
AcDbEntity
  8
AM_3
 48
3.0
100
AcDbLine
 10
1299.463207408365
 20
2017.303697140742
 30
0.0
 11
1295.183433373588
 21
2019.774625831792
 31
0.0
1001
GENIUS_GENODEF_13
1002
{
1000
HIER
1070
     0
1002
}
1002
{
1000
MANEDIT
1070
     0
1002
}
1002
{
1000
NOSEL
1070
     0
1002
}
1002
{
1000
BEHIND
1070
     0
1002
}
1002
{
1000
REACTOR
1002
}
1001
GENIUS_GENOBJ-N-CEN_13
1002
{
1000
OWNER
1000
GEN
1002
}
  0
LINE
  5
20B
330
2
100
AcDbEntity
  8
AM_3
 48
3.0
100
AcDbLine
 10
1316.980367860333
 20
2006.035459294002
 30
0.0
 11
1307.120578860878
 21
2011.72801112699
 31
0.0
1001
GENIUS_GENOREF_13
1005
547
  0
LINE
  5
20C
330
2
100
AcDbEntity
  8
AM_3
 48
3.0
100
AcDbLine
 10
1316.980367860333
 20
2006.035459294002
 30
0.0
 11
1311.287816027345
 21
1996.175670294547
 31
0.0
1001
GENIUS_GENOREF_13
1005
547
  0
LINE
  5
20D
330
2
100
AcDbEntity
  8
AM_3
 48
3.0
100
AcDbLine
 10
1316.980367860333
 20
2006.035459294002
 30
0.0
 11
1326.840156859788
 21
2000.342907461014
 31
0.0
1001
GENIUS_GENOREF_13
1005
547
  0
LINE
  5
20E
330
2
100
AcDbEntity
  8
AM_3
 48
3.0
100
AcDbLine
 10
1316.980367860333
 20
2006.035459294002
 30
0.0
 11
1322.672919693321
 21
2015.895248293457
 31
0.0
1001
GENIUS_GENOREF_13
1005
547
  0
LINE
  5
20F
330
2
100
AcDbEntity
  8
AM_3
 48
3.0
100
AcDbLine
 10
1308.732874036551
 20
2005.023649381406
 30
0.0
 11
1295.342968750226
 21
2012.75431480289
 31
0.0
1001
GENIUS_GENODEF_13
1002
{
1000
HIER
1070
     0
1002
}
1002
{
1000
MANEDIT
1070
     0
1002
}
1002
{
1000
NOSEL
1070
     0
1002
}
1002
{
1000
BEHIND
1070
     0
1002
}
1002
{
1000
REACTOR
1002
}
1001
GENIUS_GENOBJ-N-CEN_13
1002
{
1000
OWNER
1000
GEN
1002
}
  0
LINE
  5
210
330
2
100
AcDbEntity
  8
AM_3
 48
3.0
100
AcDbLine
 10
1285.346937749651
 20
2024.227157712343
 30
0.0
 11
1256.305446493186
 21
2040.994270506931
 31
0.0
1001
GENIUS_GENODEF_13
1002
{
1000
HIER
1070
     0
1002
}
1002
{
1000
MANEDIT
1070
     0
1002
}
1002
{
1000
NOSEL
1070
     0
1002
}
1002
{
1000
BEHIND
1070
     0
1002
}
1002
{
1000
REACTOR
1002
}
1001
GENIUS_GENOBJ-N-CEN_13
1002
{
1000
OWNER
1000
GEN
1002
}
  0
LINE
  5
211
330
2
100
AcDbEntity
  8
UMRISS05
100
AcDbLine
 10
555.2580044606384
 20
2285.652405381369
 30
0.0
 11
565.1165536070066
 21
2285.652405381369
 31
0.0
  0
LINE
  5
213
330
2
100
AcDbEntity
  8
UMRISS05
100
AcDbLine
 10
555.2580044606384
 20
2276.823594142711
 30
0.0
 11
555.2580044606384
 21
2285.652405381369
 31
0.0
  0
LINE
  5
214
330
2
100
AcDbEntity
  8
UMRISS05
100
AcDbLine
 10
555.2580044606384
 20
2276.823594142711
 30
0.0
 11
556.2738776187615
 21
2276.823594142711
 31
0.0
  0
ARC
  5
215
330
2
100
AcDbEntity
  8
UMRISS05
100
AcDbCircle
 10
560.1100447034296
 20
2285.637243453209
 30
0.0
 40
1.539277951260049
100
AcDbArc
 50
0.5643740561916657
 51
179.4356259438083
  0
LINE
  5
216
330
2
100
AcDbEntity
  8
UMRISS05
100
AcDbLine
 10
565.1165536070066
 20
2285.652405381369
 30
0.0
 11
565.1165536070066
 21
2276.823594142711
 31
0.0
  0
LINE
  5
217
330
2
100
AcDbEntity
  8
UMRISS05
100
AcDbLine
 10
563.9738776428239
 20
2276.823594142711
 30
0.0
 11
565.1165536070066
 21
2276.823594142711
 31
0.0
  0
ARC
  5
218
330
2
100
AcDbEntity
  8
TYPENSCHILD
100
AcDbCircle
 10
551.6264510435076
 20
2116.503342504923
 30
0.0
 40
160.0000005
100
AcDbArc
 50
88.69943404624008
 51
96.82089513892814
  0
ARC
  5
21A
330
2
100
AcDbEntity
  8
TYPENSCHILD
100
AcDbCircle
 10
551.6264510435076
 20
2116.503342504923
 30
0.0
 40
160.8000005025
100
AcDbArc
 50
88.69943404624008
 51
96.78680032427193
  0
LINE
  5
21B
330
2
100
AcDbEntity
  8
TYPENSCHILD
100
AcDbLine
 10
532.6238775448555
 20
2276.17657871573
 30
0.0
 11
532.6238775448555
 21
2275.370904834142
 31
0.0
1001
GENIUS_GENODEF_13
1002
{
1000
HIER
1070
     0
1002
}
1002
{
1000
MANEDIT
1070
     0
1002
}
1002
{
1000
NOSEL
1070
     0
1002
}
1002
{
1000
BEHIND
1070
     0
1002
}
1002
{
1000
REACTOR
1002
}
1001
GENIUS_GENOBJ-N-CEN_13
1002
{
1000
OWNER
1000
GEN
1002
}
  0
ARC
  5
21C
330
2
100
AcDbEntity
  8
TYPENSCHILD
100
AcDbCircle
 10
568.6867633240681
 20
2116.503342504923
 30
0.0
 40
160.0000005
100
AcDbArc
 50
83.17910486107187
 51
91.3005659537599
  0
ARC
  5
21D
330
2
100
AcDbEntity
  8
TYPENSCHILD
100
AcDbCircle
 10
568.6867633240681
 20
2116.503342504923
 30
0.0
 40
160.8000005025
100
AcDbArc
 50
83.21319967572808
 51
91.3005659537599
  0
LINE
  5
21E
330
2
100
AcDbEntity
  8
TYPENSCHILD
100
AcDbLine
 10
587.6893368227201
 20
2276.17657871573
 30
0.0
 11
587.6893368227201
 21
2275.370904834142
 31
0.0
1001
GENIUS_GENODEF_13
1002
{
1000
HIER
1070
     0
1002
}
1002
{
1000
MANEDIT
1070
     0
1002
}
1002
{
1000
NOSEL
1070
     0
1002
}
1002
{
1000
BEHIND
1070
     0
1002
}
1002
{
1000
REACTOR
1002
}
1001
GENIUS_GENOBJ-N-CEN_13
1002
{
1000
OWNER
1000
GEN
1002
}
  0
LINE
  5
21F
330
2
100
AcDbEntity
  8
7
100
AcDbLine
 10
792.6566071837874
 20
1971.820421715795
 30
0.0
 11
761.6566071837874
 21
1971.820421715795
 31
0.0
1001
GENIUS_GENODEF_13
1002
{
1000
HIER
1070
     0
1002
}
1002
{
1000
MANEDIT
1070
     0
1002
}
1002
{
1000
NOSEL
1070
     0
1002
}
1002
{
1000
BEHIND
1070
     0
1002
}
1002
{
1000
REACTOR
1002
}
1001
GENIUS_GENOBJ-N-CEN_13
1002
{
1000
OWNER
1000
GEN
1002
}
  0
LINE
  5
220
330
2
100
AcDbEntity
  8
AM_7
 48
2.0
100
AcDbLine
 10
1169.756049216978
 20
1891.386906964799
 30
0.0
 11
1169.756049216978
 21
1857.386906964799
 31
0.0
1001
GENIUS_GENODEF_13
1002
{
1000
HIER
1070
     0
1002
}
1002
{
1000
MANEDIT
1070
     0
1002
}
1002
{
1000
NOSEL
1070
     0
1002
}
1002
{
1000
BEHIND
1070
     0
1002
}
1002
{
1000
REACTOR
1002
}
1001
GENIUS_GENOBJ-N-CEN_13
1002
{
1000
OWNER
1000
GEN
1002
}
  0
LINE
  5
221
330
2
100
AcDbEntity
  8
7
100
AcDbLine
 10
1169.756049216978
 20
1858.535459294001
 30
0.0
 11
1169.756049216978
 21
1889.535459294001
 31
0.0
1001
GENIUS_GENODEF_13
1002
{
1000
HIER
1070
     0
1002
}
1002
{
1000
MANEDIT
1070
     0
1002
}
1002
{
1000
NOSEL
1070
     0
1002
}
1002
{
1000
BEHIND
1070
     0
1002
}
1002
{
1000
REACTOR
1002
}
1001
GENIUS_GENOBJ-N-CEN_13
1002
{
1000
OWNER
1000
GEN
1002
}
  0
LINE
  5
222
330
2
100
AcDbEntity
  8
AM_0
100
AcDbLine
 10
355.6566071837878
 20
2061.820421715799
 30
0.0
 11
763.1566071837873
 21
2061.768040561554
 31
0.0
  0
LINE
  5
223
330
2
100
AcDbEntity
  8
AM_5
100
AcDbLine
 10
360.8713628084542
 20
2019.449653683247
 30
0.0
 11
759.4249806037042
 21
2019.449653683247
 31
0.0
  0
LINE
  5
224
330
2
100
AcDbEntity
  8
AM_5
100
AcDbLine
 10
360.8713628084542
 20
2010.094576256468
 30
0.0
 11
759.4249806037042
 21
2010.094576256468
 31
0.0
  0
LINE
  5
225
330
2
100
AcDbEntity
  8
UMRISS05
100
AcDbLine
 10
556.6201856944717
 20
2276.823594142711
 30
0.0
 11
556.6201856944717
 21
2285.652405381369
 31
0.0
  0
LINE
  5
226
330
2
100
AcDbEntity
  8
UMRISS05
100
AcDbLine
 10
557.9823669283069
 20
2276.823594142711
 30
0.0
 11
557.9823669283069
 21
2285.652405381369
 31
0.0
  0
LINE
  5
227
330
2
100
AcDbEntity
  8
UMRISS05
100
AcDbLine
 10
559.3445378287287
 20
2276.823594142711
 30
0.0
 11
559.3445378287287
 21
2285.652405381369
 31
0.0
  0
LINE
  5
228
330
2
100
AcDbEntity
  8
UMRISS05
100
AcDbLine
 10
560.7067190625639
 20
2276.823594142711
 30
0.0
 11
560.7067190625639
 21
2285.652405381369
 31
0.0
  0
LINE
  5
229
330
2
100
AcDbEntity
  8
UMRISS05
100
AcDbLine
 10
562.2391742423023
 20
2276.823594142711
 30
0.0
 11
562.2391742423023
 21
2285.652405381369
 31
0.0
  0
LINE
  5
22A
330
2
100
AcDbEntity
  8
UMRISS05
100
AcDbLine
 10
563.6013554761375
 20
2276.823594142711
 30
0.0
 11
563.6013554761375
 21
2285.652405381369
 31
0.0
  0
LINE
  5
22B
330
2
100
AcDbEntity
  8
AM_7
100
AcDbLine
 10
1169.756049216978
 20
2091.035459294001
 30
0.0
 11
1409.317051253909
 21
2091.035459294001
 31
0.0
1001
GENIUS_GENOREF_13
1005
546
  0
LINE
  5
22C
330
2
100
AcDbEntity
  8
AM_7
100
AcDbLine
 10
1169.756049216978
 20
2091.035459294001
 30
0.0
 11
1169.756049216978
 21
2330.596461330932
 31
0.0
1001
GENIUS_GENOREF_13
1005
546
  0
LINE
  5
22D
330
2
100
AcDbEntity
  8
AM_7
100
AcDbLine
 10
1169.756049216978
 20
2091.035459294001
 30
0.0
 11
930.1950471800475
 21
2091.035459294001
 31
0.0
1001
GENIUS_GENOREF_13
1005
546
  0
LINE
  5
22E
330
2
100
AcDbEntity
  8
AM_7
100
AcDbLine
 10
1169.756049216978
 20
2091.035459294001
 30
0.0
 11
1169.756049216978
 21
1851.47445725707
 31
0.0
1001
GENIUS_GENOREF_13
1005
546
  0
LINE
  5
22F
330
2
100
AcDbEntity
  8
AM_7
100
AcDbLine
 10
560.1566071837878
 20
2293.257429075137
 30
0.0
 11
560.1566071837878
 21
1836.80554531694
 31
0.0
  0
LINE
  5
230
330
2
100
AcDbEntity
  8
AM_4
100
AcDbLine
 10
773.065070617803
 20
1983.488214215147
 30
0.0
 11
770.697901265973
 21
1984.860318500668
 31
0.0
  0
LINE
  5
232
330
2
100
AcDbEntity
  8
AM_4
100
AcDbLine
 10
773.0650706178026
 20
1958.594067884172
 30
0.0
 11
770.6979012659726
 21
1957.221963598652
 31
0.0
  0
LINE
  5
233
330
2
100
AcDbEntity
  8
AM_0
100
AcDbLine
 10
785.3801522873014
 20
1958.584043534472
 30
0.0
 11
769.7851507911828
 21
1957.13728727032
 31
0.0
  0
LINE
  5
234
330
2
100
AcDbEntity
  8
AM_0
100
AcDbLine
 10
785.3801522873014
 20
1983.498238564847
 30
0.0
 11
769.7851507911828
 21
1984.944994828999
 31
0.0
  0
SOLID
  5
235
330
2
100
AcDbEntity
  8
AM_0
100
AcDbTrace
 10
764.6566071837874
 20
1957.13728727032
 30
0.0
 11
764.6566071837869
 21
1953.13728727032
 31
0.0
 12
768.6566071837874
 22
1957.13728727032
 32
0.0
 13
768.6566071837874
 23
1957.13728727032
 33
0.0
1001
GENIUS_GEFWELD_13
1040
4.0
1070
     3
1001
GENIUS_GENODEF_13
1002
{
1000
HIER
1070
     0
1002
}
1002
{
1000
MANEDIT
1070
     0
1002
}
1002
{
1000
NOSEL
1070
     0
1002
}
1002
{
1000
BEHIND
1070
     0
1002
}
1002
{
1000
REACTOR
1002
}
1001
GENIUS_GENOBJ-F-WELS_13
1002
{
1000
OWNER
1000
GEF
1002
}
  0
LINE
  5
238
330
2
100
AcDbEntity
  8
AM_0
100
AcDbLine
 10
769.7851507911828
 20
1957.13728727032
 30
0.0
 11
764.6566071837874
 21
1957.13728727032
 31
0.0
  0
LINE
  5
239
330
2
100
AcDbEntity
  8
AM_0
100
AcDbLine
 10
769.7851507911828
 20
1984.944994828999
 30
0.0
 11
764.6566071837874
 21
1984.944994828999
 31
0.0
  0
LINE
  5
23A
330
2
100
AcDbEntity
  8
AM_0
100
AcDbLine
 10
786.6566071837869
 20
1982.238846430348
 30
0.0
 11
785.3801522873014
 21
1983.498238564847
 31
0.0
  0
LINE
  5
23B
330
2
100
AcDbEntity
  8
AM_4
100
AcDbLine
 10
773.065070617803
 20
1983.488214215147
 30
0.0
 11
786.6566071837869
 21
1982.238846430348
 31
0.0
  0
LINE
  5
23C
330
2
100
AcDbEntity
  8
AM_0
100
AcDbLine
 10
786.6566071837869
 20
1959.843435668971
 30
0.0
 11
786.6566071837869
 21
1982.238846430348
 31
0.0
  0
LINE
  5
23D
330
2
100
AcDbEntity
  8
AM_4
100
AcDbLine
 10
773.0650706178026
 20
1958.594067884172
 30
0.0
 11
786.6566071837869
 21
1959.843435668971
 31
0.0
  0
LINE
  5
23E
330
2
100
AcDbEntity
  8
AM_0
100
AcDbLine
 10
786.6566071837869
 20
1959.843435668971
 30
0.0
 11
785.3801522873014
 21
1958.584043534472
 31
0.0
  0
SOLID
  5
23F
330
2
100
AcDbEntity
  8
AM_0
100
AcDbTrace
 10
764.6566071837874
 20
1984.996671271658
 30
0.0
 11
764.6566071837869
 21
1988.996671271658
 31
0.0
 12
768.6566071837874
 22
1984.996671271658
 32
0.0
 13
768.6566071837874
 23
1984.996671271658
 33
0.0
1001
GENIUS_GEFWELD_13
1040
4.0
1070
     3
1001
GENIUS_GENODEF_13
1002
{
1000
HIER
1070
     0
1002
}
1002
{
1000
MANEDIT
1070
     0
1002
}
1002
{
1000
NOSEL
1070
     0
1002
}
1002
{
1000
BEHIND
1070
     0
1002
}
1002
{
1000
REACTOR
1002
}
1001
GENIUS_GENOBJ-F-WELS_13
1002
{
1000
OWNER
1000
GEF
1002
}
  0
LINE
  5
240
330
2
100
AcDbEntity
  8
AM_0
100
AcDbLine
 10
770.697901265973
 20
1984.860318500668
 30
0.0
 11
770.6979012659726
 21
1957.221963598652
 31
0.0
  0
LINE
  5
241
102
{ACAD_REACTORS
330
255
102
}
330
2
100
AcDbEntity
  8
AM_0
100
AcDbLine
 10
785.3801522873014
 20
1983.498238564847
 30
0.0
 11
785.3801522873014
 21
1958.584043534472
 31
0.0
  0
LINE
  5
242
330
2
100
AcDbEntity
  8
AM_7
 48
2.0
100
AcDbLine
 10
1169.756049216978
 20
1885.47445725707
 30
0.0
 11
1169.756049216978
 21
1851.47445725707
 31
0.0
1001
GENIUS_GENODEF_13
1002
{
1000
HIER
1070
     0
1002
}
1002
{
1000
MANEDIT
1070
     0
1002
}
1002
{
1000
NOSEL
1070
     0
1002
}
1002
{
1000
BEHIND
1070
     0
1002
}
1002
{
1000
REACTOR
1002
}
1001
GENIUS_GENOBJ-N-CEN_13
1002
{
1000
OWNER
1000
GEN
1002
}
  0
LINE
  5
243
330
2
100
AcDbEntity
  8
7
100
AcDbLine
 10
1169.756049216978
 20
1852.623009586272
 30
0.0
 11
1169.756049216978
 21
1883.623009586273
 31
0.0
1001
GENIUS_GENODEF_13
1002
{
1000
HIER
1070
     0
1002
}
1002
{
1000
MANEDIT
1070
     0
1002
}
1002
{
1000
NOSEL
1070
     0
1002
}
1002
{
1000
BEHIND
1070
     0
1002
}
1002
{
1000
REACTOR
1002
}
1001
GENIUS_GENOBJ-N-CEN_13
1002
{
1000
OWNER
1000
GEN
1002
}
  0
LINE
  5
244
330
2
100
AcDbEntity
  8
AM_4
100
AcDbLine
 10
1181.42384171633
 20
1878.909326690624
 30
0.0
 11
1182.79594600185
 21
1881.276496042454
 31
0.0
  0
LINE
  5
245
330
2
100
AcDbEntity
  8
AM_4
100
AcDbLine
 10
1156.529695385355
 20
1878.909326690624
 30
0.0
 11
1155.157591099834
 21
1881.276496042454
 31
0.0
  0
LINE
  5
246
330
2
100
AcDbEntity
  8
AM_0
100
AcDbLine
 10
1156.519671035655
 20
1866.594245021126
 30
0.0
 11
1155.072914771503
 21
1882.189246517244
 31
0.0
  0
LINE
  5
247
330
2
100
AcDbEntity
  8
AM_0
100
AcDbLine
 10
1181.43386606603
 20
1866.594245021126
 30
0.0
 11
1182.880622330181
 21
1882.189246517244
 31
0.0
  0
SOLID
  5
248
330
2
100
AcDbEntity
  8
AM_0
100
AcDbTrace
 10
1155.072914771503
 20
1887.31779012464
 30
0.0
 11
1151.072914771503
 21
1887.31779012464
 31
0.0
 12
1155.072914771503
 22
1883.31779012464
 32
0.0
 13
1155.072914771503
 23
1883.31779012464
 33
0.0
1001
GENIUS_GEFWELD_13
1040
4.0
1070
     3
1001
GENIUS_GENODEF_13
1002
{
1000
HIER
1070
     0
1002
}
1002
{
1000
MANEDIT
1070
     0
1002
}
1002
{
1000
NOSEL
1070
     0
1002
}
1002
{
1000
BEHIND
1070
     0
1002
}
1002
{
1000
REACTOR
1002
}
1001
GENIUS_GENOBJ-F-WELS_13
1002
{
1000
OWNER
1000
GEF
1002
}
  0
LINE
  5
249
330
2
100
AcDbEntity
  8
AM_0
100
AcDbLine
 10
1155.072914771503
 20
1882.189246517244
 30
0.0
 11
1155.072914771503
 21
1887.31779012464
 31
0.0
  0
LINE
  5
24A
330
2
100
AcDbEntity
  8
AM_0
100
AcDbLine
 10
1182.880622330181
 20
1882.189246517244
 30
0.0
 11
1182.880622330181
 21
1887.31779012464
 31
0.0
  0
LINE
  5
24B
330
2
100
AcDbEntity
  8
AM_0
100
AcDbLine
 10
1180.174473931531
 20
1865.31779012464
 30
0.0
 11
1181.43386606603
 21
1866.594245021126
 31
0.0
  0
LINE
  5
24C
330
2
100
AcDbEntity
  8
AM_4
100
AcDbLine
 10
1181.42384171633
 20
1878.909326690624
 30
0.0
 11
1180.174473931531
 21
1865.31779012464
 31
0.0
  0
LINE
  5
24D
330
2
100
AcDbEntity
  8
AM_0
100
AcDbLine
 10
1157.779063170154
 20
1865.31779012464
 30
0.0
 11
1180.174473931531
 21
1865.31779012464
 31
0.0
  0
LINE
  5
24E
330
2
100
AcDbEntity
  8
AM_4
100
AcDbLine
 10
1156.529695385355
 20
1878.909326690624
 30
0.0
 11
1157.779063170154
 21
1865.31779012464
 31
0.0
  0
LINE
  5
24F
330
2
100
AcDbEntity
  8
AM_0
100
AcDbLine
 10
1157.779063170154
 20
1865.31779012464
 30
0.0
 11
1156.519671035655
 21
1866.594245021126
 31
0.0
  0
SOLID
  5
250
330
2
100
AcDbEntity
  8
AM_0
100
AcDbTrace
 10
1182.932298772841
 20
1887.31779012464
 30
0.0
 11
1186.932298772841
 21
1887.31779012464
 31
0.0
 12
1182.932298772841
 22
1883.31779012464
 32
0.0
 13
1182.932298772841
 23
1883.31779012464
 33
0.0
1001
GENIUS_GEFWELD_13
1040
4.0
1070
     3
1001
GENIUS_GENODEF_13
1002
{
1000
HIER
1070
     0
1002
}
1002
{
1000
MANEDIT
1070
     0
1002
}
1002
{
1000
NOSEL
1070
     0
1002
}
1002
{
1000
BEHIND
1070
     0
1002
}
1002
{
1000
REACTOR
1002
}
1001
GENIUS_GENOBJ-F-WELS_13
1002
{
1000
OWNER
1000
GEF
1002
}
  0
LINE
  5
251
330
2
100
AcDbEntity
  8
AM_0
100
AcDbLine
 10
1182.79594600185
 20
1881.276496042454
 30
0.0
 11
1155.157591099834
 21
1881.276496042454
 31
0.0
  0
LINE
  5
252
330
2
100
AcDbEntity
  8
AM_0
100
AcDbLine
 10
1181.43386606603
 20
1866.594245021126
 30
0.0
 11
1156.519671035655
 21
1866.594245021126
 31
0.0
  0
DIMENSION
  5
253
102
{ACAD_XDICTIONARY
360
254
102
}
102
{ACAD_REACTORS
330
255
102
}
330
2
100
AcDbEntity
  8
AM_5
100
AcDbDimension
  2
*D8
 10
833.2749240064877
 20
1983.498238564847
 30
0.0
 11
814.7738905419204
 21
2027.523238564848
 31
0.0
  1
EN 10226-1\PR 3/4
 71
     5
 42
24.91419503037514
  3
AM_DIN$0
100
AcDbAlignedDimension
 13
785.3801522873014
 23
1958.584043534472
 33
0.0
 14
785.3801522873014
 24
1983.498238564847
 34
0.0
 50
90.0
100
AcDbRotatedDimension
  0
INSERT
  5
263
330
2
100
AcDbEntity
  8
AM_0
100
AcDbBlockReference
  2
kundenzeichnung
 10
1048.877317456985
 20
1816.405777842176
 30
0.0
 41
2.0
 42
2.0
 43
2.0
  0
POINT
  5
53B
330
2
100
AcDbEntity
  8
0
 60
     1
100
AcDbPoint
 10
844.6508296432879
 20
2368.936726434047
 30
0.0
1001
GENIUS_GENODEF_13
1002
{
1000
HIER
1070
   250
1002
}
1002
{
1000
MANEDIT
1070
     1
1002
}
1002
{
1000
NOSEL
1070
     0
1002
}
1002
{
1000
BEHIND
1070
     0
1002
}
1002
{
1000
REACTOR
1002
}
1001
GENIUS_GENOBJ-N-CRC_13
1002
{
1000
OWNER
1000
GEN
1002
}
1001
GENIUS_GENOENT_13
1002
{
1000
MYREF
1005
53B
1002
}
1002
{
1000
GRP
1005
0
1002
}
1001
GENIUS_GENOLIS_13
1002
{
1000
ENT
1005
CC
1005
CB
1002
}
1001
GENIUS_GENCRC_14
1070
     0
1011
1059.60079850126
1021
3240.587726689082
1031
0.0
1000
293
1000
10|20|30
1040
30.0
1070
     3
1040
5.759586531581287
  0
POINT
  5
540
330
2
100
AcDbEntity
  8
0
 60
     1
100
AcDbPoint
 10
747.6479539521415
 20
1562.628496723736
 30
0.0
1001
GENIUS_GENODEF_13
1002
{
1000
HIER
1070
   100
1002
}
1002
{
1000
MANEDIT
1070
     0
1002
}
1002
{
1000
NOSEL
1070
     0
1002
}
1002
{
1000
BEHIND
1070
     0
1002
}
1002
{
1000
REACTOR
1002
}
1001
GENIUS_GENOBJ-N-LEADER_13
1002
{
1000
OWNER
1000
GEN
1002
}
1001
GENIUS_GENOENT_13
1002
{
1000
MYREF
1005
540
1002
}
1002
{
1000
GRP
1005
0
1002
}
1001
GENIUS_GENOLIS_13
1002
{
1000
ENT
1005
87
1005
85
1002
}
  0
POINT
  5
542
330
2
100
AcDbEntity
  8
0
 60
     1
100
AcDbPoint
 10
708.2090932031697
 20
2916.793937884043
 30
0.0
1001
GENIUS_GENODEF_13
1002
{
1000
HIER
1070
   250
1002
}
1002
{
1000
MANEDIT
1070
     1
1002
}
1002
{
1000
NOSEL
1070
     0
1002
}
1002
{
1000
BEHIND
1070
     0
1002
}
1002
{
1000
REACTOR
1002
}
1001
GENIUS_GENOBJ-N-CRC_13
1002
{
1000
OWNER
1000
GEN
1002
}
1001
GENIUS_GENOENT_13
1002
{
1000
MYREF
1005
542
1002
}
1002
{
1000
GRP
1005
0
1002
}
1001
GENIUS_GENOLIS_13
1002
{
1000
ENT
1005
5B
1002
}
1001
GENIUS_GENCRC_14
1070
     0
1011
1389.932666596152
1021
3305.179445002685
1031
0.0
1000
293
1000
Keine
1040
50.0
1070
     3
1040
0.5235987755982988
  0
POINT
  5
543
330
2
100
AcDbEntity
  8
0
 60
     1
100
AcDbPoint
 10
747.6479539521415
 20
1562.628496723736
 30
0.0
1001
GENIUS_GENODEF_13
1002
{
1000
HIER
1070
   250
1002
}
1002
{
1000
MANEDIT
1070
     1
1002
}
1002
{
1000
NOSEL
1070
     0
1002
}
1002
{
1000
BEHIND
1070
     0
1002
}
1002
{
1000
REACTOR
1002
}
1001
GENIUS_GENOBJ-N-CRC_13
1002
{
1000
OWNER
1000
GEN
1002
}
1001
GENIUS_GENOENT_13
1002
{
1000
MYREF
1005
543
1002
}
1002
{
1000
GRP
1005
0
1002
}
1001
GENIUS_GENOLIS_13
1002
{
1000
ENT
1005
5A
1005
59
1002
}
1001
GENIUS_GENCRC_14
1070
     0
1011
962.5979228101137
1021
2434.279496978772
1031
0.0
1000
293
1000
10|20|30
1040
30.0
1070
     3
1040
5.759586531581287
  0
POINT
  5
544
330
2
100
AcDbEntity
  8
0
 60
     1
100
AcDbPoint
 10
747.6479539521415
 20
1562.628496723736
 30
0.0
1001
GENIUS_GENODEF_13
1002
{
1000
HIER
1070
    10
1002
}
1002
{
1000
MANEDIT
1070
     0
1002
}
1002
{
1000
NOSEL
1070
     0
1002
}
1002
{
1000
BEHIND
1070
     0
1002
}
1002
{
1000
REACTOR
1002
}
1001
GENIUS_GENOBJ-N-CRS_13
1002
{
1000
OWNER
1000
GEN
1002
}
1001
GENIUS_GENOENT_13
1002
{
1000
MYREF
1005
544
1002
}
1002
{
1000
GRP
1005
0
1002
}
1001
GENIUS_GENOLIS_13
1002
{
1000
ENT
1005
58
1005
57
1005
56
1005
52
1002
}
  0
POINT
  5
546
330
2
100
AcDbEntity
  8
0
 60
     1
100
AcDbPoint
 10
0.0
 20
0.0
 30
0.0
1001
GENIUS_GENOLIS_13
1002
{
1000
ENT
1005
22E
1005
22D
1005
22C
1005
22B
1002
}
1001
GENIUS_GENODEF_13
1002
{
1000
HIER
1070
    10
1002
}
1002
{
1000
MANEDIT
1070
     0
1002
}
1002
{
1000
NOSEL
1070
     0
1002
}
1002
{
1000
BEHIND
1070
     0
1002
}
1002
{
1000
OTHER
1070
     0
1002
}
1002
{
1000
REACTOR
1002
}
1001
GENIUS_GENOENT_13
1002
{
1000
MYREF
1005
546
1002
}
1002
{
1000
GRP
1005
0
1002
}
1001
GENIUS_GENOBJ-N-CRS_13
1002
{
1000
OWNER
1000
GEN
1002
}
  0
POINT
  5
547
330
2
100
AcDbEntity
  8
0
 60
     1
100
AcDbPoint
 10
-2285.417061708093
 20
-1975.490887659262
 30
0.0
 50
240.0
1001
GENIUS_GENOBJ-N-CRS_13
1002
{
1000
OWNER
1000
GEN
1002
}
1001
GENIUS_GENODEF_13
1002
{
1000
HIER
1070
    10
1002
}
1002
{
1000
MANEDIT
1070
     0
1002
}
1002
{
1000
NOSEL
1070
     0
1002
}
1002
{
1000
BEHIND
1070
     0
1002
}
1002
{
1000
OTHER
1070
     0
1002
}
1002
{
1000
REACTOR
1002
}
1001
GENIUS_GENOLIS_13
1002
{
1000
ENT
1005
20E
1005
20D
1005
20C
1005
20B
1002
}
1001
GENIUS_GENOENT_13
1002
{
1000
MYREF
1005
547
1002
}
1002
{
1000
GRP
1005
0
1002
}
  0
POINT
  5
548
330
2
100
AcDbEntity
  8
0
 60
     1
100
AcDbPoint
 10
-710.6531052837767
 20
9562.053981794598
 30
0.0
 50
120.0
1001
GENIUS_GENOBJ-N-CRS_13
1002
{
1000
OWNER
1000
GEN
1002
}
1001
GENIUS_GENODEF_13
1002
{
1000
HIER
1070
    10
1002
}
1002
{
1000
MANEDIT
1070
     0
1002
}
1002
{
1000
NOSEL
1070
     0
1002
}
1002
{
1000
BEHIND
1070
     0
1002
}
1002
{
1000
OTHER
1070
     0
1002
}
1002
{
1000
REACTOR
1002
}
1001
GENIUS_GENOLIS_13
1002
{
1000
ENT
1005
1CE
1005
1CD
1005
1CC
1005
1CB
1002
}
1001
GENIUS_GENOENT_13
1002
{
1000
MYREF
1005
548
1002
}
1002
{
1000
GRP
1005
0
1002
}
  0
POINT
  5
549
330
2
100
AcDbEntity
  8
0
 60
     1
100
AcDbPoint
 10
8493.771870753928
 20
2429.495955840123
 30
0.0
1001
GENIUS_GENOBJ-N-CRS_13
1002
{
1000
OWNER
1000
GEN
1002
}
1001
GENIUS_GENODEF_13
1002
{
1000
HIER
1070
    10
1002
}
1002
{
1000
MANEDIT
1070
     0
1002
}
1002
{
1000
NOSEL
1070
     0
1002
}
1002
{
1000
BEHIND
1070
     0
1002
}
1002
{
1000
OTHER
1070
     0
1002
}
1002
{
1000
REACTOR
1002
}
1001
GENIUS_GENOLIS_13
1002
{
1000
ENT
1005
150
1005
14F
1005
14E
1005
14D
1002
}
1001
GENIUS_GENOENT_13
1002
{
1000
MYREF
1005
549
1002
}
1002
{
1000
GRP
1005
0
1002
}
  0
ENDSEC
  0
SECTION
  2
OBJECTS
  0
DICTIONARY
  5
9
330
0
100
AcDbDictionary
281
     1
  3
ACAD_COLOR
350
30
  3
ACAD_GROUP
350
2B
  3
ACAD_LAYOUT
350
F
  3
ACAD_MATERIAL
350
B
  3
ACAD_MLINESTYLE
350
2C
  3
ACAD_PLOTSETTINGS
350
2D
  3
ACAD_PLOTSTYLENAME
350
8
  3
ACAD_TABLESTYLE
350
31
  3
ACAD_VISUALSTYLE
350
12
  3
AcDbVariableDictionary
350
571
  3
AcmDictionary
350
50B
  3
AMG
350
4FC
  3
AMGSNAPSETTINGS
350
5B9
  3
DWGPROPS
350
5CD
  0
DICTIONARY
  5
19
330
18
100
AcDbDictionary
280
     1
281
     1
  3
AMLAYER_GROUPCOLORS
360
1A
  0
DICTIONARY
  5
3
330
2
100
AcDbDictionary
280
     1
281
     1
  3
ACAD_SORTENTS
360
4FA
  0
DICTIONARY
  5
265
330
264
100
AcDbDictionary
280
     1
281
     1
  3
ACAD_SORTENTS
360
4F9
  0
DICTIONARY
  5
A9
330
A8
100
AcDbDictionary
280
     1
281
     1
  3
ACAD_DIMASSOC
360
AA
  0
DICTIONARY
  5
183
330
182
100
AcDbDictionary
280
     1
281
     1
  3
ACAD_DIMASSOC
360
184
  0
DICTIONARY
  5
254
330
253
100
AcDbDictionary
280
     1
281
     1
  3
ACAD_DIMASSOC
360
255
  0
DICTIONARY
  5
30
102
{ACAD_REACTORS
330
9
102
}
330
9
100
AcDbDictionary
281
     1
  0
DICTIONARY
  5
2B
102
{ACAD_REACTORS
330
9
102
}
330
9
100
AcDbDictionary
281
     1
  0
DICTIONARY
  5
F
102
{ACAD_REACTORS
330
9
102
}
330
9
100
AcDbDictionary
281
     1
  3
Layout1
350
17
  3
Model
350
E
  0
DICTIONARY
  5
B
102
{ACAD_REACTORS
330
9
102
}
330
9
100
AcDbDictionary
281
     1
  3
ByBlock
350
2F
  3
ByLayer
350
2E
  3
Global
350
A
  0
DICTIONARY
  5
2C
102
{ACAD_REACTORS
330
9
102
}
330
9
100
AcDbDictionary
281
     1
  3
Standard
350
33
  0
DICTIONARY
  5
2D
102
{ACAD_REACTORS
330
9
102
}
330
9
100
AcDbDictionary
281
     1
  0
ACDBDICTIONARYWDFLT
  5
8
102
{ACAD_REACTORS
330
9
102
}
330
9
100
AcDbDictionary
281
     1
  3
Normal
350
7
100
AcDbDictionaryWithDefault
340
7
  0
DICTIONARY
  5
31
102
{ACAD_REACTORS
330
9
102
}
330
9
100
AcDbDictionary
281
     1
  3
Standard
350
34
  0
DICTIONARY
  5
12
102
{ACAD_REACTORS
330
9
102
}
330
9
100
AcDbDictionary
281
     1
  3
2dWireframe
350
11
  3
3D Hidden
350
579
  3
3dWireframe
350
36
  3
Basic
350
578
  3
Brighten
350
57C
  3
ColorChange
350
580
  3
Conceptual
350
57A
  3
Dim
350
57B
  3
Facepattern
350
57F
  3
Flat
350
574
  3
FlatWithEdges
350
575
  3
Gouraud
350
576
  3
GouraudWithEdges
350
577
  3
Linepattern
350
57E
  3
Realistic
350
35
  3
Thicken
350
57D
  0
DICTIONARY
  5
571
102
{ACAD_REACTORS
330
9
102
}
330
9
100
AcDbDictionary
281
     1
  3
CTABLESTYLE
350
572
  3
DIMASSOC
350
5CC
  3
HIDETEXT
350
5CB
  3
INDEXCTL
350
5CA
  3
SORTENTS
350
5C9
  0
DICTIONARY
  5
50B
102
{ACAD_REACTORS
330
9
102
}
330
9
100
AcDbDictionary
281
     1
  3
AcmStdDictionary
350
50C
  3
AMDTSECTSYM_ARROWCOLOR
350
5AF
  0
DICTIONARY
  5
4FC
102
{ACAD_REACTORS
330
9
102
}
330
9
100
AcDbDictionary
281
     1
  0
DICTIONARY
  5
5B9
102
{ACAD_REACTORS
330
9
102
}
330
9
100
AcDbDictionary
281
     1
  0
XRECORD
  5
5CD
102
{ACAD_REACTORS
330
9
102
}
330
9
100
AcDbXrecord
280
     1
  1
DWGPROPS COOKIE
  2

  3

  4

  6

  7

  8
Schieman
  9

300
=
301
=
302
=
303
=
304
=
305
=
306
=
307
=
308
=
309
=
 40
0.4265515625
 41
2451186.887248461
 42
2454630.556555799
  1

 90
        0
  0
DICTIONARY
  5
1A
102
{ACAD_REACTORS
330
19
102
}
330
19
100
AcDbDictionary
280
     1
281
     1
  0
SORTENTSTABLE
  5
4FA
102
{ACAD_REACTORS
330
3
102
}
330
3
100
AcDbSortentsTable
330
2
  0
SORTENTSTABLE
  5
4F9
102
{ACAD_REACTORS
330
265
102
}
330
265
100
AcDbSortentsTable
330
264
  0
DIMASSOC
  5
AA
102
{ACAD_REACTORS
330
A9
102
}
330
A9
100
AcDbDimAssoc
330
A8
 90
       15
 70
     1
 71
     0
  1
AcDbOsnapPointRef
 72
    13
331
56
 73
     2
 91
        0
 40
0.0
 10
0.0
 20
0.0
 30
2.000000000000000E+50
 75
     0
  1
AcDbOsnapPointRef
 72
     1
331
56
 73
     2
 91
        0
 40
0.0
 10
0.0
 20
0.0
 30
2.000000000000000E+50
 75
     0
  1
AcDbOsnapPointRef
 72
    13
331
5A
 73
     2
 91
        0
 40
0.0
 10
0.0
 20
0.0
 30
2.000000000000000E+50
 75
     0
  1
AcDbOsnapPointRef
 72
     1
331
5A
 73
     2
 91
        0
 40
0.0
 10
0.0
 20
0.0
 30
2.000000000000000E+50
 75
     0
  0
DIMASSOC
  5
184
102
{ACAD_REACTORS
330
183
102
}
330
183
100
AcDbDimAssoc
330
182
 90
        3
 70
     0
 71
     0
  1
AcDbOsnapPointRef
 72
     1
331
155
 73
     0
 91
        0
 40
0.0
 10
0.0
 20
0.0
 30
2.000000000000000E+50
 75
     0
  1
AcDbOsnapPointRef
 72
     1
331
118
 73
     0
 91
        0
 40
0.0
 10
0.0
 20
0.0
 30
2.000000000000000E+50
 75
     0
  0
DIMASSOC
  5
255
102
{ACAD_REACTORS
330
254
102
}
330
254
100
AcDbDimAssoc
330
253
 90
        3
 70
     0
 71
     0
  1
AcDbOsnapPointRef
 72
     1
331
241
 73
     0
 91
        0
 40
0.0
 10
0.0
 20
0.0
 30
2.000000000000000E+50
 75
     0
  1
AcDbOsnapPointRef
 72
    13
331
241
 73
     0
 91
        0
 40
0.0
 10
0.0
 20
0.0
 30
2.000000000000000E+50
 75
     0
  0
LAYOUT
  5
17
102
{ACAD_XDICTIONARY
360
5D2
102
}
102
{ACAD_REACTORS
330
F
102
}
330
F
100
AcDbPlotSettings
  1

  2

  4

  6

 40
0.0
 41
0.0
 42
0.0
 43
0.0
 44
0.0
 45
0.0
 46
0.0
 47
0.0
 48
0.0
 49
0.0
140
0.0
141
0.0
142
1.0
143
1.0
 70
   688
 72
     0
 73
     0
 74
     5
  7
ganz_fein_1.ctb
 75
    16
147
1.0
148
0.0
149
0.0
100
AcDbLayout
  1
Layout1
 70
     1
 71
     1
 10
0.0
 20
0.0
 11
420.0
 21
297.0
 12
0.0
 22
0.0
 32
0.0
 14
1.000000000000000E+20
 24
1.000000000000000E+20
 34
1.000000000000000E+20
 15
-1.000000000000000E+20
 25
-1.000000000000000E+20
 35
-1.000000000000000E+20
146
0.0
 13
0.0
 23
0.0
 33
0.0
 16
1.0
 26
0.0
 36
0.0
 17
0.0
 27
1.0
 37
0.0
 76
     0
330
14
  0
LAYOUT
  5
E
102
{ACAD_XDICTIONARY
360
5D0
102
}
102
{ACAD_REACTORS
330
F
102
}
330
F
100
AcDbPlotSettings
  1

  2
FinePrint pdfFactory
  4
A4
  6
AM_VIEW1
 40
7.143749713897705
 41
7.143725872039794
 42
7.143753051757812
 43
7.14373779296875
 44
210.0156707763672
 45
297.0106506347656
 46
0.0
 47
0.0
 48
-372.5731632106148
 49
-289.079852986614
140
1409.426836789385
141
970.9201470133857
142
1.0
143
6.437499583253869
 70
 11952
 72
     1
 73
     1
 74
     4
  7
ganz_fein_1.ctb
 75
     0
147
0.1553398158815172
148
372.5731632106148
149
289.079852986614
100
AcDbLayout
  1
Model
 70
     1
 71
     0
 10
0.0
 20
0.0
 11
12.0
 21
9.0
 12
0.0
 22
0.0
 32
0.0
 14
0.0
 24
0.0
 34
0.0
 15
0.0
 25
0.0
 35
0.0
146
0.0
 13
0.0
 23
0.0
 33
0.0
 16
1.0
 26
0.0
 36
0.0
 17
0.0
 27
1.0
 37
0.0
 76
     0
330
2
331
24
1001
EDBMODELINFO
1000
1007747205|1:3|REFLEX_EDBTITLE||DRAWING||||-16573.DWG|LEV-IN|
  0
MATERIAL
  5
2F
102
{ACAD_XDICTIONARY
360
5D6
102
}
102
{ACAD_REACTORS
330
B
102
}
330
B
100
AcDbMaterial
  1
ByBlock
  0
MATERIAL
  5
2E
102
{ACAD_XDICTIONARY
360
5D4
102
}
102
{ACAD_REACTORS
330
B
102
}
330
B
100
AcDbMaterial
  1
ByLayer
  0
MATERIAL
  5
A
102
{ACAD_XDICTIONARY
360
5CE
102
}
102
{ACAD_REACTORS
330
B
102
}
330
B
100
AcDbMaterial
  1
Global
  0
MLINESTYLE
  5
33
102
{ACAD_REACTORS
330
2C
102
}
330
2C
100
AcDbMlineStyle
  2
STANDARD
 70
     0
  3

 62
   256
 51
90.0
 52
90.0
 71
     2
 49
0.5
 62
   256
  6
BYLAYER
 49
-0.5
 62
   256
  6
BYLAYER
  0
ACDBPLACEHOLDER
  5
7
102
{ACAD_REACTORS
330
8
102
}
330
8
  0
TABLESTYLE
  5
34
102
{ACAD_XDICTIONARY
360
5D8
102
}
102
{ACAD_REACTORS
330
31
102
}
330
31
100
AcDbTableStyle
  3
Standard
 70
     0
 71
     0
 40
1.5
 41
1.5
280
     0
281
     0
  7
STANDARD
140
4.5
170
     2
 62
     0
 63
     7
283
     0
274
    -2
284
     1
 64
     0
275
    -2
285
     1
 65
     0
276
    -2
286
     1
 66
     0
277
    -2
287
     1
 67
     0
278
    -2
288
     1
 68
     0
279
    -2
289
     1
 69
     0
  7
STANDARD
140
6.0
170
     5
 62
     0
 63
     7
283
     0
274
    -2
284
     1
 64
     0
275
    -2
285
     1
 65
     0
276
    -2
286
     1
 66
     0
277
    -2
287
     1
 67
     0
278
    -2
288
     1
 68
     0
279
    -2
289
     1
 69
     0
  7
STANDARD
140
4.5
170
     5
 62
     0
 63
     7
283
     0
274
    -2
284
     1
 64
     0
275
    -2
285
     1
 65
     0
276
    -2
286
     1
 66
     0
277
    -2
287
     1
 67
     0
278
    -2
288
     1
 68
     0
279
    -2
289
     1
 69
     0
  0
VISUALSTYLE
  5
11
102
{ACAD_REACTORS
330
12
102
}
330
12
100
AcDbVisualStyle
  2
2dWireframe
 70
     4
 71
     0
 72
     2
 73
     0
 90
        0
 40
-0.6
 41
-30.0
 62
     5
 63
     7
 74
     1
 91
        4
 64
     7
 65
   257
 75
     1
175
     1
 42
1.0
 92
        0
 66
   257
 43
1.0
 76
     1
 77
     6
 78
     2
 67
     7
 79
     5
170
     0
171
     0
290
     0
174
     0
 93
        1
 44
0.0
173
     0
291
     0
 45
0.0
1001
ACAD
1000
AcDbSavedByObjectVersion
1070
     0
  0
VISUALSTYLE
  5
579
102
{ACAD_REACTORS
330
12
102
}
330
12
100
AcDbVisualStyle
  2
3D Hidden
 70
     6
 71
     1
 72
     2
 73
     2
 90
        0
 40
-0.6
 41
-30.0
 62
     5
 63
     7
 74
     2
 91
        2
 64
     7
 65
   257
 75
     2
175
     1
 42
40.0
 92
        0
 66
   257
 43
1.0
 76
     1
 77
     6
 78
     2
 67
     7
 79
     3
170
     0
171
     0
290
     0
174
     0
 93
        1
 44
0.0
173
     0
291
     0
 45
0.0
1001
ACAD
1000
AcDbSavedByObjectVersion
1070
     0
  0
VISUALSTYLE
  5
36
102
{ACAD_REACTORS
330
12
102
}
330
12
100
AcDbVisualStyle
  2
3dWireframe
 70
     5
 71
     0
 72
     2
 73
     0
 90
        0
 40
-0.6
 41
-30.0
 62
     5
 63
     7
 74
     1
 91
        4
 64
     7
 65
   257
 75
     1
175
     1
 42
1.0
 92
        0
 66
   257
 43
1.0
 76
     1
 77
     6
 78
     2
 67
     7
 79
     5
170
     0
171
     0
290
     0
174
     0
 93
        1
 44
0.0
173
     0
291
     0
 45
0.0
1001
ACAD
1000
AcDbSavedByObjectVersion
1070
     0
  0
VISUALSTYLE
  5
578
102
{ACAD_REACTORS
330
12
102
}
330
12
100
AcDbVisualStyle
  2
Basic
 70
     7
 71
     1
 72
     0
 73
     1
 90
        0
 40
-0.6
 41
-30.0
 62
     5
 63
     7
 74
     0
 91
        4
 64
     7
 65
   257
 75
     1
175
     1
 42
1.0
 92
        8
 66
     7
 43
1.0
 76
     1
 77
     6
 78
     2
 67
     7
 79
     5
170
     0
171
     0
290
     0
174
     0
 93
        1
 44
0.0
173
     0
291
     1
 45
0.0
1001
ACAD
1000
AcDbSavedByObjectVersion
1070
     0
  0
VISUALSTYLE
  5
57C
102
{ACAD_REACTORS
330
12
102
}
330
12
100
AcDbVisualStyle
  2
Brighten
 70
    12
 71
     2
 72
     2
 73
     0
 90
        0
 40
-0.6
 41
-30.0
 62
     5
 63
     7
 74
     1
 91
        4
 64
     7
 65
   257
 75
     1
175
     1
 42
1.0
 92
        8
 66
     7
 43
1.0
 76
     1
 77
     6
 78
     2
 67
     7
 79
     5
170
     0
171
     0
290
     0
174
     0
 93
        1
 44
50.0
173
     0
291
     1
 45
0.0
1001
ACAD
1000
AcDbSavedByObjectVersion
1070
     0
  0
VISUALSTYLE
  5
580
102
{ACAD_REACTORS
330
12
102
}
330
12
100
AcDbVisualStyle
  2
ColorChange
 70
    16
 71
     2
 72
     2
 73
     3
 90
        0
 40
-0.6
 41
-30.0
 62
     5
 63
     8
 74
     1
 91
        4
 64
     7
 65
   257
 75
     1
175
     1
 42
1.0
 92
        8
 66
     8
 43
1.0
 76
     1
 77
     6
 78
     2
 67
     7
 79
     5
170
     0
171
     0
290
     0
174
     0
 93
        1
 44
0.0
173
     0
291
     1
 45
0.0
1001
ACAD
1000
AcDbSavedByObjectVersion
1070
     0
  0
VISUALSTYLE
  5
57A
102
{ACAD_REACTORS
330
12
102
}
330
12
100
AcDbVisualStyle
  2
Conceptual
 70
     9
 71
     3
 72
     2
 73
     0
 90
        0
 40
-0.6
 41
-30.0
 62
     5
 63
     7
 74
     2
 91
        2
 64
     7
 65
   257
 75
     1
175
     1
 42
40.0
 92
        8
 66
     7
 43
1.0
 76
     1
 77
     6
 78
     2
 67
     7
 79
     3
170
     0
171
     0
290
     0
174
     0
 93
        1
 44
0.0
173
     0
291
     0
 45
0.0
1001
ACAD
1000
AcDbSavedByObjectVersion
1070
     0
  0
VISUALSTYLE
  5
57B
102
{ACAD_REACTORS
330
12
102
}
330
12
100
AcDbVisualStyle
  2
Dim
 70
    11
 71
     2
 72
     2
 73
     0
 90
        0
 40
-0.6
 41
-30.0
 62
     5
 63
     7
 74
     1
 91
        4
 64
     7
 65
   257
 75
     1
175
     1
 42
1.0
 92
        8
 66
     7
 43
1.0
 76
     1
 77
     6
 78
     2
 67
     7
 79
     5
170
     0
171
     0
290
     0
174
     0
 93
        1
 44
-50.0
173
     0
291
     1
 45
0.0
1001
ACAD
1000
AcDbSavedByObjectVersion
1070
     0
  0
VISUALSTYLE
  5
57F
102
{ACAD_REACTORS
330
12
102
}
330
12
100
AcDbVisualStyle
  2
Facepattern
 70
    15
 71
     2
 72
     2
 73
     0
 90
        0
 40
-0.6
 41
-30.0
 62
     5
 63
     7
 74
     1
 91
        4
 64
     7
 65
   257
 75
     1
175
     1
 42
1.0
 92
        8
 66
     7
 43
1.0
 76
     1
 77
     6
 78
     2
 67
     7
 79
     5
170
     0
171
     0
290
     0
174
     0
 93
        1
 44
0.0
173
     0
291
     1
 45
0.0
1001
ACAD
1000
AcDbSavedByObjectVersion
1070
     0
  0
VISUALSTYLE
  5
574
102
{ACAD_REACTORS
330
12
102
}
330
12
100
AcDbVisualStyle
  2
Flat
 70
     0
 71
     2
 72
     1
 73
     1
 90
        2
 40
-0.6
 41
30.0
 62
     5
 63
     7
 74
     0
 91
        4
 64
     7
 65
   257
 75
     1
175
     1
 42
1.0
 92
        8
 66
     7
 43
1.0
 76
     1
 77
     6
 78
     2
 67
     7
 79
     5
170
     0
171
     0
290
     0
174
     0
 93
       13
 44
0.0
173
     0
291
     1
 45
0.0
1001
ACAD
1000
AcDbSavedByObjectVersion
1070
     0
  0
VISUALSTYLE
  5
575
102
{ACAD_REACTORS
330
12
102
}
330
12
100
AcDbVisualStyle
  2
FlatWithEdges
 70
     1
 71
     2
 72
     1
 73
     1
 90
        2
 40
-0.6
 41
30.0
 62
     5
 63
     7
 74
     1
 91
        4
 64
     7
 65
   257
 75
     1
175
     1
 42
1.0
 92
        0
 66
   257
 43
1.0
 76
     1
 77
     6
 78
     2
 67
     7
 79
     5
170
     0
171
     0
290
     0
174
     0
 93
       13
 44
0.0
173
     0
291
     1
 45
0.0
1001
ACAD
1000
AcDbSavedByObjectVersion
1070
     0
  0
VISUALSTYLE
  5
576
102
{ACAD_REACTORS
330
12
102
}
330
12
100
AcDbVisualStyle
  2
Gouraud
 70
     2
 71
     2
 72
     2
 73
     1
 90
        2
 40
-0.6
 41
30.0
 62
     5
 63
     7
 74
     0
 91
        4
 64
     7
 65
   257
 75
     1
175
     1
 42
1.0
 92
        0
 66
     7
 43
1.0
 76
     1
 77
     6
 78
     2
 67
     7
 79
     5
170
     0
171
     0
290
     0
174
     0
 93
       13
 44
0.0
173
     0
291
     1
 45
0.0
1001
ACAD
1000
AcDbSavedByObjectVersion
1070
     0
  0
VISUALSTYLE
  5
577
102
{ACAD_REACTORS
330
12
102
}
330
12
100
AcDbVisualStyle
  2
GouraudWithEdges
 70
     3
 71
     2
 72
     2
 73
     1
 90
        2
 40
-0.6
 41
30.0
 62
     5
 63
     7
 74
     1
 91
        4
 64
     7
 65
   257
 75
     1
175
     1
 42
1.0
 92
        0
 66
   257
 43
1.0
 76
     1
 77
     6
 78
     2
 67
     7
 79
     5
170
     0
171
     0
290
     0
174
     0
 93
       13
 44
0.0
173
     0
291
     1
 45
0.0
1001
ACAD
1000
AcDbSavedByObjectVersion
1070
     0
  0
VISUALSTYLE
  5
57E
102
{ACAD_REACTORS
330
12
102
}
330
12
100
AcDbVisualStyle
  2
Linepattern
 70
    14
 71
     2
 72
     2
 73
     0
 90
        0
 40
-0.6
 41
-30.0
 62
     5
 63
     7
 74
     1
 91
        4
 64
     7
 65
   257
 75
     7
175
     7
 42
1.0
 92
        8
 66
     7
 43
1.0
 76
     1
 77
     6
 78
     2
 67
     7
 79
     5
170
     0
171
     0
290
     0
174
     0
 93
        1
 44
0.0
173
     0
291
     1
 45
0.0
1001
ACAD
1000
AcDbSavedByObjectVersion
1070
     0
  0
VISUALSTYLE
  5
35
102
{ACAD_REACTORS
330
12
102
}
330
12
100
AcDbVisualStyle
  2
Realistic
 70
     8
 71
     2
 72
     2
 73
     0
 90
        0
 40
-0.6
 41
-30.0
 62
     5
 63
     7
 74
     1
 91
        0
 64
     7
 65
   257
 75
     1
175
     1
 42
1.0
 92
        8
 66
     8
 43
1.0
 76
     1
 77
     6
 78
     2
 67
     7
 79
     5
170
     0
171
     0
290
     0
174
     0
 93
       13
 44
0.0
173
     0
291
     0
 45
0.0
1001
ACAD
1000
AcDbSavedByObjectVersion
1070
     0
  0
VISUALSTYLE
  5
57D
102
{ACAD_REACTORS
330
12
102
}
330
12
100
AcDbVisualStyle
  2
Thicken
 70
    13
 71
     2
 72
     2
 73
     0
 90
        0
 40
-0.6
 41
-30.0
 62
     5
 63
     7
 74
     1
 91
        4
 64
     7
 65
   257
 75
     1
175
     1
 42
1.0
 92
       12
 66
     7
 43
1.0
 76
     1
 77
     6
 78
     2
 67
     7
 79
     5
170
     0
171
     0
290
     0
174
     0
 93
        1
 44
0.0
173
     0
291
     1
 45
0.0
1001
ACAD
1000
AcDbSavedByObjectVersion
1070
     0
  0
DICTIONARYVAR
  5
572
102
{ACAD_REACTORS
330
571
102
}
330
571
100
DictionaryVariables
280
     0
  1
STANDARD
  0
DICTIONARYVAR
  5
5CC
102
{ACAD_REACTORS
330
571
102
}
330
571
100
DictionaryVariables
280
     0
  1
2
  0
DICTIONARYVAR
  5
5CB
102
{ACAD_REACTORS
330
571
102
}
330
571
100
DictionaryVariables
280
     0
  1
1
  0
DICTIONARYVAR
  5
5CA
102
{ACAD_REACTORS
330
571
102
}
330
571
100
DictionaryVariables
280
     0
  1
0
  0
DICTIONARYVAR
  5
5C9
102
{ACAD_REACTORS
330
571
102
}
330
571
100
DictionaryVariables
280
     0
  1
127
  0
DICTIONARY
  5
50C
102
{ACAD_REACTORS
330
50B
102
}
330
50B
100
AcDbDictionary
281
     1
  0
XRECORD
  5
5AF
102
{ACAD_REACTORS
330
50B
102
}
330
50B
100
AcDbXrecord
280
     1
 90
-1023410169
  0
DICTIONARY
  5
5D2
330
17
100
AcDbDictionary
280
     1
281
     1
  3
ACAD_XREC_ROUNDTRIP
360
5D3
  0
DICTIONARY
  5
5D0
330
E
100
AcDbDictionary
280
     1
281
     1
  3
ACAD_XREC_ROUNDTRIP
360
5D1
  0
DICTIONARY
  5
5D6
330
2F
100
AcDbDictionary
280
     1
281
     1
  3
ACAD_XREC_ROUNDTRIP
360
5D7
  0
DICTIONARY
  5
5D4
330
2E
100
AcDbDictionary
280
     1
281
     1
  3
ACAD_XREC_ROUNDTRIP
360
5D5
  0
DICTIONARY
  5
5CE
330
A
100
AcDbDictionary
280
     1
281
     1
  3
ACAD_XREC_ROUNDTRIP
360
5CF
  0
DICTIONARY
  5
5D8
330
34
100
AcDbDictionary
280
     1
281
     1
  3
ACAD_XREC_ROUNDTRIP
360
5D9
  0
XRECORD
  5
5D3
102
{ACAD_REACTORS
330
5D2
102
}
330
5D2
100
AcDbXrecord
280
     1
102
SHADEPLOT
 70
     0
102
SHADEPLOTRESLEVEL
 70
     2
102
SHADEPLOTCUSTOMDPI
 70
   300
  0
XRECORD
  5
5D1
102
{ACAD_REACTORS
330
5D0
102
}
330
5D0
100
AcDbXrecord
280
     1
102
SHADEPLOT
 70
     0
102
SHADEPLOTRESLEVEL
 70
     2
102
SHADEPLOTCUSTOMDPI
 70
   300
  0
XRECORD
  5
5D7
102
{ACAD_REACTORS
330
5D6
102
}
330
5D6
100
AcDbXrecord
280
     1
102
MATERIAL
148
0.0
149
0.0
149
0.0
 93
        0
 94
       63
282
     0
 72
     1
 77
     1
171
     1
175
     1
179
     1
273
     0
  0
XRECORD
  5
5D5
102
{ACAD_REACTORS
330
5D4
102
}
330
5D4
100
AcDbXrecord
280
     1
102
MATERIAL
148
0.0
149
0.0
149
0.0
 93
        0
 94
       63
282
     0
 72
     1
 77
     1
171
     1
175
     1
179
     1
273
     0
  0
XRECORD
  5
5CF
102
{ACAD_REACTORS
330
5CE
102
}
330
5CE
100
AcDbXrecord
280
     1
102
MATERIAL
148
0.0
149
0.0
149
0.0
 93
        0
 94
       63
282
     0
 72
     1
 77
     1
171
     1
175
     1
179
     1
273
     0
  0
XRECORD
  5
5D9
102
{ACAD_REACTORS
330
5D8
102
}
330
5D8
100
AcDbXrecord
280
     1
102
ACAD_ROUNDTRIP_PRE2007_TABLESTYLE
 90
        4
 91
        0
  1

 92
        4
 93
        0
  2

 94
        4
 95
        0
  3

  0
ENDSEC
  0
EOF
