  0
SECTION
  2
HEADER
  9
$ACADVER
  1
AC1021
  9
$ACADMAINTVER
 70
     1
  9
$DWGCODEPAGE
  3
ANSI_1252
  9
$LASTSAVEDBY
  1
zawierac
  9
$CUSTOMPROPERTYTAG
  1
AmdtFileType
  9
$CUSTOMPROPERTY
  1
84
  9
$INSBASE
 10
0.0
 20
0.0
 30
0.0
  9
$EXTMIN
 10
1632.799364253298
 20
637.4140982642617
 30
-0.0000000349181977
  9
$EXTMAX
 10
2542.539547401744
 20
1251.943329826259
 30
0.0000000814935717
  9
$LIMMIN
 10
0.0
 20
0.0
  9
$LIMMAX
 10
420.0
 20
297.0
  9
$ORTHOMODE
 70
     1
  9
$REGENMODE
 70
     1
  9
$FILLMODE
 70
     1
  9
$QTEXTMODE
 70
     0
  9
$MIRRTEXT
 70
     1
  9
$LTSCALE
 40
1.0
  9
$ATTMODE
 70
     1
  9
$TEXTSIZE
 40
2.5
  9
$TRACEWID
 40
1.0
  9
$TEXTSTYLE
  7
Standard
  9
$CLAYER
  8
0
  9
$CELTYPE
  6
ByLayer
  9
$CECOLOR
 62
   256
  9
$CELTSCALE
 40
1.0
  9
$DISPSILH
 70
     0
  9
$DIMSCALE
 40
1.0
  9
$DIMASZ
 40
2.5
  9
$DIMEXO
 40
1.0
  9
$DIMDLI
 40
10.0
  9
$DIMRND
 40
0.0
  9
$DIMDLE
 40
0.0
  9
$DIMEXE
 40
1.0
  9
$DIMTP
 40
0.1
  9
$DIMTM
 40
0.1
  9
$DIMTXT
 40
3.5
  9
$DIMCEN
 40
0.0
  9
$DIMTSZ
 40
0.0
  9
$DIMTOL
 70
     0
  9
$DIMLIM
 70
     0
  9
$DIMTIH
 70
     0
  9
$DIMTOH
 70
     0
  9
$DIMSE1
 70
     0
  9
$DIMSE2
 70
     0
  9
$DIMTAD
 70
     1
  9
$DIMZIN
 70
     8
  9
$DIMBLK
  1

  9
$DIMASO
 70
     1
  9
$DIMSHO
 70
     1
  9
$DIMPOST
  1

  9
$DIMAPOST
  1
"
  9
$DIMALT
 70
     0
  9
$DIMALTD
 70
     2
  9
$DIMALTF
 40
0.0393701
  9
$DIMLFAC
 40
1.0
  9
$DIMTOFL
 70
     1
  9
$DIMTVP
 40
0.0
  9
$DIMTIX
 70
     0
  9
$DIMSOXD
 70
     0
  9
$DIMSAH
 70
     0
  9
$DIMBLK1
  1

  9
$DIMBLK2
  1

  9
$DIMSTYLE
  2
AM_DIN
  9
$DIMCLRD
 70
   256
  9
$DIMCLRE
 70
   256
  9
$DIMCLRT
 70
     2
  9
$DIMTFAC
 40
0.71
  9
$DIMGAP
 40
1.5
  9
$DIMJUST
 70
     0
  9
$DIMSD1
 70
     0
  9
$DIMSD2
 70
     0
  9
$DIMTOLJ
 70
     0
  9
$DIMTZIN
 70
     8
  9
$DIMALTZ
 70
     0
  9
$DIMALTTZ
 70
     0
  9
$DIMUPT
 70
     0
  9
$DIMDEC
 70
     2
  9
$DIMTDEC
 70
     3
  9
$DIMALTU
 70
     2
  9
$DIMALTTD
 70
     4
  9
$DIMTXSTY
  7
Standard
  9
$DIMAUNIT
 70
     0
  9
$DIMADEC
 70
     0
  9
$DIMALTRND
 40
0.0
  9
$DIMAZIN
 70
     2
  9
$DIMDSEP
 70
    46
  9
$DIMATFIT
 70
     3
  9
$DIMFRAC
 70
     0
  9
$DIMLDRBLK
  1

  9
$DIMLUNIT
 70
     2
  9
$DIMLWD
 70
    -1
  9
$DIMLWE
 70
    -1
  9
$DIMTMOVE
 70
     0
  9
$DIMFXL
 40
1.0
  9
$DIMFXLON
 70
     0
  9
$DIMJOGANG
 40
0.7853981633974483
  9
$DIMTFILL
 70
     0
  9
$DIMTFILLCLR
 70
     0
  9
$DIMARCSYM
 70
     0
  9
$DIMLTYPE
  6

  9
$DIMLTEX1
  6

  9
$DIMLTEX2
  6

  9
$LUNITS
 70
     2
  9
$LUPREC
 70
     4
  9
$SKETCHINC
 40
1.0
  9
$FILLETRAD
 40
10.0
  9
$AUNITS
 70
     0
  9
$AUPREC
 70
     0
  9
$MENU
  1
.
  9
$ELEVATION
 40
0.0
  9
$PELEVATION
 40
0.0
  9
$THICKNESS
 40
0.0
  9
$LIMCHECK
 70
     0
  9
$CHAMFERA
 40
10.0
  9
$CHAMFERB
 40
10.0
  9
$CHAMFERC
 40
20.0
  9
$CHAMFERD
 40
0.0
  9
$SKPOLY
 70
     0
  9
$TDCREATE
 40
2456806.349077419
  9
$TDUCREATE
 40
2456806.265744086
  9
$TDUPDATE
 40
2456806.393573472
  9
$TDUUPDATE
 40
2456806.310240139
  9
$TDINDWG
 40
0.0405111458
  9
$TDUSRTIMER
 40
0.0405111458
  9
$USRTIMER
 70
     1
  9
$ANGBASE
 50
0.0
  9
$ANGDIR
 70
     0
  9
$PDMODE
 70
     0
  9
$PDSIZE
 40
0.0
  9
$PLINEWID
 40
0.0
  9
$SPLFRAME
 70
     0
  9
$SPLINETYPE
 70
     6
  9
$SPLINESEGS
 70
     8
  9
$HANDSEED
  5
F3A
  9
$SURFTAB1
 70
     6
  9
$SURFTAB2
 70
     6
  9
$SURFTYPE
 70
     6
  9
$SURFU
 70
     6
  9
$SURFV
 70
     6
  9
$UCSBASE
  2

  9
$UCSNAME
  2

  9
$UCSORG
 10
0.0
 20
0.0
 30
0.0
  9
$UCSXDIR
 10
1.0
 20
0.0
 30
0.0
  9
$UCSYDIR
 10
0.0
 20
1.0
 30
0.0
  9
$UCSORTHOREF
  2

  9
$UCSORTHOVIEW
 70
     0
  9
$UCSORGTOP
 10
0.0
 20
0.0
 30
0.0
  9
$UCSORGBOTTOM
 10
0.0
 20
0.0
 30
0.0
  9
$UCSORGLEFT
 10
0.0
 20
0.0
 30
0.0
  9
$UCSORGRIGHT
 10
0.0
 20
0.0
 30
0.0
  9
$UCSORGFRONT
 10
0.0
 20
0.0
 30
0.0
  9
$UCSORGBACK
 10
0.0
 20
0.0
 30
0.0
  9
$PUCSBASE
  2

  9
$PUCSNAME
  2

  9
$PUCSORG
 10
0.0
 20
0.0
 30
0.0
  9
$PUCSXDIR
 10
1.0
 20
0.0
 30
0.0
  9
$PUCSYDIR
 10
0.0
 20
1.0
 30
0.0
  9
$PUCSORTHOREF
  2

  9
$PUCSORTHOVIEW
 70
     0
  9
$PUCSORGTOP
 10
0.0
 20
0.0
 30
0.0
  9
$PUCSORGBOTTOM
 10
0.0
 20
0.0
 30
0.0
  9
$PUCSORGLEFT
 10
0.0
 20
0.0
 30
0.0
  9
$PUCSORGRIGHT
 10
0.0
 20
0.0
 30
0.0
  9
$PUCSORGFRONT
 10
0.0
 20
0.0
 30
0.0
  9
$PUCSORGBACK
 10
0.0
 20
0.0
 30
0.0
  9
$USERI1
 70
     0
  9
$USERI2
 70
     0
  9
$USERI3
 70
     0
  9
$USERI4
 70
     0
  9
$USERI5
 70
     0
  9
$USERR1
 40
0.0
  9
$USERR2
 40
0.0
  9
$USERR3
 40
0.0
  9
$USERR4
 40
0.0
  9
$USERR5
 40
0.0
  9
$WORLDVIEW
 70
     1
  9
$SHADEDGE
 70
     3
  9
$SHADEDIF
 70
    70
  9
$TILEMODE
 70
     1
  9
$MAXACTVP
 70
    64
  9
$PINSBASE
 10
0.0
 20
0.0
 30
0.0
  9
$PLIMCHECK
 70
     0
  9
$PEXTMIN
 10
1.000000000000000E+20
 20
1.000000000000000E+20
 30
1.000000000000000E+20
  9
$PEXTMAX
 10
-1.000000000000000E+20
 20
-1.000000000000000E+20
 30
-1.000000000000000E+20
  9
$PLIMMIN
 10
0.0
 20
0.0
  9
$PLIMMAX
 10
420.0
 20
297.0
  9
$UNITMODE
 70
     0
  9
$VISRETAIN
 70
     1
  9
$PLINEGEN
 70
     0
  9
$PSLTSCALE
 70
     1
  9
$TREEDEPTH
 70
  3020
  9
$CMLSTYLE
  2
Standard
  9
$CMLJUST
 70
     0
  9
$CMLSCALE
 40
20.0
  9
$PROXYGRAPHICS
 70
     1
  9
$MEASUREMENT
 70
     1
  9
$CELWEIGHT
370
    -1
  9
$ENDCAPS
280
     0
  9
$JOINSTYLE
280
     0
  9
$LWDISPLAY
290
     0
  9
$INSUNITS
 70
     4
  9
$HYPERLINKBASE
  1

  9
$STYLESHEET
  1
monochrome.ctb
  9
$XEDIT
290
     1
  9
$CEPSNTYPE
380
     0
  9
$PSTYLEMODE
290
     1
  9
$FINGERPRINTGUID
  2
{06B3460F-234D-43B5-80B3-96B8C963D6F8}
  9
$VERSIONGUID
  2
{2F998D90-4CCB-48E8-AD9C-A056DF3729DD}
  9
$EXTNAMES
290
     1
  9
$PSVPSCALE
 40
0.0
  9
$OLESTARTUP
290
     0
  9
$SORTENTS
280
   127
  9
$INDEXCTL
280
     0
  9
$HIDETEXT
280
     0
  9
$XCLIPFRAME
290
     0
  9
$HALOGAP
280
     0
  9
$OBSCOLOR
 70
   257
  9
$OBSLTYPE
280
     0
  9
$INTERSECTIONDISPLAY
280
     0
  9
$INTERSECTIONCOLOR
 70
   257
  9
$DIMASSOC
280
     2
  9
$PROJECTNAME
  1

  9
$CAMERADISPLAY
290
     0
  9
$LENSLENGTH
 40
50.0
  9
$CAMERAHEIGHT
 40
0.0
  9
$STEPSPERSEC
 40
2.0
  9
$STEPSIZE
 40
6.0
  9
$3DDWFPREC
 40
2.0
  9
$PSOLWIDTH
 40
0.25
  9
$PSOLHEIGHT
 40
4.0
  9
$LOFTANG1
 40
1.570796326794896
  9
$LOFTANG2
 40
1.570796326794896
  9
$LOFTMAG1
 40
0.0
  9
$LOFTMAG2
 40
0.0
  9
$LOFTPARAM
 70
     7
  9
$LOFTNORMALS
280
     1
  9
$LATITUDE
 40
37.795
  9
$LONGITUDE
 40
-122.394
  9
$NORTHDIRECTION
 40
0.0
  9
$TIMEZONE
 70
 -8000
  9
$LIGHTGLYPHDISPLAY
280
     1
  9
$TILEMODELIGHTSYNCH
280
     1
  9
$CMATERIAL
347
255
  9
$SOLIDHIST
280
     1
  9
$SHOWHIST
280
     1
  9
$DWFFRAME
280
     2
  9
$DGNFRAME
280
     0
  9
$REALWORLDSCALE
290
     1
  9
$INTERFERECOLOR
 62
     1
  9
$INTERFEREOBJVS
345
262
  9
$INTERFEREVPVS
346
25F
  9
$CSHADOW
280
     0
  9
$SHADOWPLANELOCATION
 40
0.0
  0
ENDSEC
  0
SECTION
  2
CLASSES
  0
CLASS
  1
ACDBDICTIONARYWDFLT
  2
AcDbDictionaryWithDefault
  3
ObjectDBX Classes
 90
        0
 91
        1
280
     0
281
     0
  0
CLASS
  1
ACME_DOCUMENT
  2
AcMeDbDoc
  3
AcMeServices
 90
        0
 91
        2
280
     0
281
     0
  0
CLASS
  1
AMGSETTINGSOBJ
  2
AmgSettingsObj
  3
"AcadM|Product Description: AutoCAD Mechanical|Company: Autodesk"
 90
        0
 91
        4
280
     0
281
     0
  0
CLASS
  1
ACMESCOPE
  2
AcMeScope
  3
AcMeServices
 90
        0
 91
        1
280
     0
281
     0
  0
CLASS
  1
ACMECOMMANDHISTORY
  2
AcMeCommandHistory
  3
AcMeServices
 90
        0
 91
        1
280
     0
281
     0
  0
CLASS
  1
ACIMSYSVARMAN
  2
AcImSysVarManager
  3
AcMeServices
 90
        0
 91
        5
280
     0
281
     0
  0
CLASS
  1
ACIMREALSYSVAR
  2
AcImRealSysVar
  3
AcMeServices
 90
        0
 91
        3
280
     0
281
     0
  0
CLASS
  1
ACIMINTSYSVAR
  2
AcImIntSysVar
  3
AcMeServices
 90
        0
 91
       27
280
     0
281
     0
  0
CLASS
  1
ACMEDRAWINGMAN
  2
AcMeDrawingMan
  3
AcMeServices
 90
        0
 91
        1
280
     0
281
     0
  0
CLASS
  1
ACMEVIEW
  2
AcMeView
  3
AcMeServices
 90
        0
 91
        1
280
     0
281
     0
  0
CLASS
  1
ACDBENTITYCACHE
  2
AcMeEntityCache
  3
AcMeServices
 90
        0
 91
        1
280
     0
281
     0
  0
CLASS
  1
GSMANAGER
  2
AcMeGSManager
  3
AcMeServices
 90
        0
 91
        1
280
     0
281
     0
  0
CLASS
  1
AMDTINTERNALREACTOR
  2
AmdtInternalReactor
  3
AcMeServices
 90
        0
 91
        2
280
     0
281
     0
  0
CLASS
  1
ACMESTATEMGR
  2
AcMeStateMgr
  3
AcMeServices
 90
        0
 91
        1
280
     0
281
     0
  0
CLASS
  1
ACGREFMASTER
  2
AcGrefMaster
  3
AcAttribServices
 90
        0
 91
        1
280
     0
281
     0
  0
CLASS
  1
ACME_DATABASE
  2
AcMeDbDatabase
  3
AcMeServices
 90
        0
 91
        1
280
     0
281
     0
  0
CLASS
  1
ACRFINSADJUSTERMGR
  2
AcRfInsAdjusterMgr
  3
AcMeServices
 90
        0
 91
        1
280
     0
281
     0
  0
CLASS
  1
ACGREFACADMASTER
  2
AcGrefacadMaster
  3
AcGrefServices
 90
        0
 91
        1
280
     0
281
     0
  0
CLASS
  1
AMIMASTER
  2
AmiMaster
  3
AmiServices
 90
        0
 91
        1
280
     0
281
     0
  0
CLASS
  1
ACMDATADICTIONARY
  2
AcmDataDictionary
  3
"AcmSymBB|Product Description: AutoCAD Mechanical|Company: Autodesk"
 90
        0
 91
        1
280
     0
281
     0
  0
CLASS
  1
ACMDATAENTRYBLOCK
  2
AcmDataEntryBlock
  3
"AcmSymBB|Product Description: AutoCAD Mechanical|Company: Autodesk"
 90
        0
 91
        1
280
     0
281
     0
  0
CLASS
  1
ACIMSTRSYSVAR
  2
AcImStrSysVar
  3
AcMeServices
 90
        0
 91
        5
280
     0
281
     0
  0
CLASS
  1
ACMSTANDARDISO
  2
AcmStandardISO
  3
"Amdt_StdImp|Product Description: AutoCAD Mechanical|Company: Autodesk"
 90
        0
 91
        1
280
     0
281
     0
  0
CLASS
  1
AMGOBJPROPCFG
  2
AmgObjPropCfg
  3
"AmgLay|Product Description: AutoCAD Mechanical|Company: Autodesk"
 90
        1
 91
        1
280
     0
281
     0
  0
CLASS
  1
AMDTEDGESTANDARDISO
  2
AmdtEdgeStdISO
  3
"Amdt_StdImp|Product Description: AutoCAD Mechanical|Company: Autodesk"
 90
        0
 91
        1
280
     0
281
     0
  0
CLASS
  1
ACMSURFSTANDARDISO
  2
AcmSurfTextStdISO
  3
"Amdt_StdImp|Product Description: AutoCAD Mechanical|Company: Autodesk"
 90
        0
 91
        1
280
     0
281
     0
  0
CLASS
  1
ACMFCFSTANDARDISO
  2
AcmFCFStdISO
  3
"Amdt_StdImp|Product Description: AutoCAD Mechanical|Company: Autodesk"
 90
        0
 91
        1
280
     0
281
     0
  0
CLASS
  1
ACMWELDSTANDARDISO
  2
AcmWeldingStdISO
  3
"Amdt_StdImp|Product Description: AutoCAD Mechanical|Company: Autodesk"
 90
        0
 91
        1
280
     0
281
     0
  0
CLASS
  1
ACMIDSTANDARDISO
  2
AcmIdStdISO
  3
"Amdt_StdImp|Product Description: AutoCAD Mechanical|Company: Autodesk"
 90
        0
 91
        1
280
     0
281
     0
  0
CLASS
  1
ACMDATUMSTANDARDISO
  2
AcmDatumStdISO
  3
"Amdt_StdImp|Product Description: AutoCAD Mechanical|Company: Autodesk"
 90
        0
 91
        1
280
     0
281
     0
  0
CLASS
  1
ACMBOMSTANDARDISO
  2
AcmBOMStdISO
  3
"Amdt_StdImp|Product Description: AutoCAD Mechanical|Company: Autodesk"
 90
        0
 91
        1
280
     0
281
     0
  0
CLASS
  1
ACMDETAILSTANDARDISO
  2
AmdtDetailSymStdISO
  3
"Amdt_StdImp|Product Description: AutoCAD Mechanical|Company: Autodesk"
 90
        0
 91
        1
280
     0
281
     0
  0
CLASS
  1
ACMSECTIONSTANDARDISO
  2
AmdtSectionSymStdISO
  3
"Amdt_StdImp|Product Description: AutoCAD Mechanical|Company: Autodesk"
 90
        0
 91
        1
280
     0
281
     0
  0
CLASS
  1
ACMCENTERLINESTANDARDISO
  2
AmdtCenterLineStdISO
  3
"Amdt_StdImp|Product Description: AutoCAD Mechanical|Company: Autodesk"
 90
        0
 91
        1
280
     0
281
     0
  0
CLASS
  1
ACMNOTESTANDARDISO
  2
AmdtNoteStdISO
  3
"Amdt_StdImp|Product Description: AutoCAD Mechanical|Company: Autodesk"
 90
        0
 91
        1
280
     0
281
     0
  0
CLASS
  1
ACAMGLAYSTD
  2
AcAmgLayStd
  3
"AmgLay|Product Description: AutoCAD Mechanical|Company: Autodesk"
 90
        0
 91
        2
280
     0
281
     0
  0
CLASS
  1
ACAMGDIMSTD
  2
AcAmgDimStd
  3
"AmgDim|Product Description: AutoCAD Mechanical|Company: Autodesk"
 90
        0
 91
        2
280
     0
281
     0
  0
CLASS
  1
ACAMGHOLECHARTSTDISO
  2
AcAmgHoleChartStdISO
  3
ACMSYMBB_MODULE_NAME
 90
        0
 91
        1
280
     0
281
     0
  0
CLASS
  1
ACAMGTITLESTD
  2
AcAmgTitleStd
  3
"AmgTitle|Product Description: AutoCAD Mechanical|Company: Autodesk"
 90
        0
 91
        2
280
     0
281
     0
  0
CLASS
  1
LAYER_INDEX
  2
AcDbLayerIndex
  3
ObjectDBX Classes
 90
        0
 91
        0
280
     0
281
     0
  0
CLASS
  1
IDBUFFER
  2
AcDbIdBuffer
  3
ObjectDBX Classes
 90
        0
 91
        0
280
     0
281
     0
  0
CLASS
  1
DICTIONARYVAR
  2
AcDbDictionaryVar
  3
ObjectDBX Classes
 90
        0
 91
        3
280
     0
281
     0
  0
CLASS
  1
AM_DRAWING_MGR
  2
AcDmDwgMgr
  3
AcMechDwgViewMgmt
 90
        0
 91
        1
280
     0
281
     0
  0
CLASS
  1
AM_DWG_DOCUMENT
  2
AcDmDwgDocument
  3
AcMechDwgViewMgmt
 90
        0
 91
        1
280
     0
281
     0
  0
CLASS
  1
AM_DWG_SHEET
  2
AcDmSheet
  3
AcMechDwgViewMgmt
 90
        0
 91
        2
280
     0
281
     0
  0
CLASS
  1
AM_VIEWDIMPARMAP
  2
AcDmViewDimParMap
  3
AcMechDwgViewMgmt
 90
        0
 91
        2
280
     0
281
     0
  0
CLASS
  1
AM_DWGMGR_NAME
  2
AcDmDwgMgrName
  3
AcMechDwgViewMgmt
 90
        0
 91
        1
280
     0
281
     0
  0
CLASS
  1
AMDTMENUSTATEMGR
  2
AmdtMenuStateMgr
  3
McadcomServices
 90
        0
 91
        1
280
     0
281
     0
  0
CLASS
  1
AMDTMCOMMENUSTATE
  2
AmdtMcomMenuState
  3
McadcomServices
 90
        0
 91
        1
280
     0
281
     0
  0
CLASS
  1
MAPIAMMOUDLE
  2
MApiAmModule
  3
MApiAmServices
 90
        0
 91
        1
280
     0
281
     0
  0
CLASS
  1
AMDTADMENUSTATE
  2
AmdtAdMenuState
  3
DesignerServices
 90
        0
 91
        1
280
     0
281
     0
  0
CLASS
  1
ADAPPL
  2
AcAdAppl
  3
DesignerServices
 90
        0
 91
        1
280
     0
281
     0
  0
CLASS
  1
DEPMGR
  2
AcAdDepMgr
  3
DesignerServices
 90
        0
 91
        1
280
     0
281
     0
  0
CLASS
  1
PARAMMGR
  2
AcAdParamMgr
  3
DesignerServices
 90
        0
 91
        1
280
     0
281
     0
  0
CLASS
  1
PARAMSCOPE
  2
AcAdParamScope
  3
DesignerServices
 90
        0
 91
        1
280
     0
281
     0
  0
CLASS
  1
NAMEDAPPL
  2
AcAdNamedAppl
  3
DesignerServices
 90
        0
 91
        1
280
     0
281
     0
  0
CLASS
  1
AMDTDMMENUSTATE
  2
AmdtDmMenuState
  3
AcMechDwgViewMgmt
 90
        0
 91
        1
280
     0
281
     0
  0
CLASS
  1
AMDTAMMENUSTATE
  2
AmdtAmMenuState
  3
DesignerAssemblies
 90
        0
 91
        1
280
     0
281
     0
  0
CLASS
  1
ACAMPROJECT
  2
AcAmProject
  3
DesignerAssemblies
 90
        0
 91
        1
280
     0
281
     0
  0
CLASS
  1
ACAMGRCOMPDEF
  2
AcAmGrCompDef
  3
DesignerAssemblies
 90
        0
 91
        1
280
     0
281
     0
  0
CLASS
  1
ACCMCONTEXT
  2
AcCmContext
  3
DesignerAssemblies
 90
        0
 91
        1
280
     0
281
     0
  0
CLASS
  1
ACAMCOMPDEF
  2
AcAmCompDef
  3
DesignerAssemblies
 90
        0
 91
        1
280
     0
281
     0
  0
CLASS
  1
ACAMCOMPDEFMGR
  2
AcAmCompDefMgr
  3
DesignerAssemblies
 90
        0
 91
        1
280
     0
281
     0
  0
CLASS
  1
AMCONTEXTMGR
  2
AcAmContextMgr
  3
DesignerAssemblies
 90
        0
 91
        1
280
     0
281
     0
  0
CLASS
  1
ACAMCONTEXTMODELER
  2
AcAmContextModeler
  3
DesignerAssemblies
 90
        0
 91
        1
280
     0
281
     0
  0
CLASS
  1
ACMTHREADLINESTANDARDISO
  2
AmdtThreadLineStdISO
  3
"Amdt_StdImp|Product Description: AutoCAD Mechanical|Company: Autodesk"
 90
        0
 91
        1
280
     0
281
     0
  0
CLASS
  1
CATALOGSTATE
  2
AcAmCatalogState
  3
DesignerAssemblies
 90
        0
 91
        1
280
     0
281
     0
  0
CLASS
  1
ACAMGRCOMPDEFSET
  2
AcAmGrCompDefSet
  3
DesignerAssemblies
 90
        0
 91
        1
280
     0
281
     0
  0
CLASS
  1
AMDTBROWSERDBTAB
  2
AmdtBrowserDbTab
  3
McadcomServices
 90
        0
 91
        1
280
     0
281
     0
  0
CLASS
  1
CBROWSERAPPOBJECT
  2
CBrowserAppObject
  3
McadcomServices
 90
        0
 91
        3
280
     0
281
     0
  0
CLASS
  1
DM_PLACEHOLDER
  2
AcDmSelsetPlaceholder
  3
AcMechDwgViewMgmt
 90
        0
 91
        1
280
     0
281
     0
  0
CLASS
  1
TABLESTYLE
  2
AcDbTableStyle
  3
ObjectDBX Classes
 90
     4095
 91
        1
280
     0
281
     0
  0
CLASS
  1
VAACXREFPANELOBJECT
  2
VaAcXREFPanelObject
  3
VAAC_ADDIN
 90
        0
 91
        0
280
     0
281
     0
  0
CLASS
  1
VAACIMAGEINVENTORY
  2
VaAcImageInventory
  3
VAAC_ADDIN
 90
        0
 91
        0
280
     0
281
     0
  0
CLASS
  1
AMDTNOTETEMPLATEDB
  2
AmdtNoteTemplateDB
  3
AMDT_STDIMP_MODULE_NAME
 90
        0
 91
        9
280
     0
281
     0
  0
CLASS
  1
ACMBOM
  2
AcmBom
  3
"AcmSymBB|Product Description: AutoCAD Mechanical|Company: Autodesk"
 90
        0
 91
        0
280
     0
281
     0
  0
CLASS
  1
AMDTFORMULAUPDATEDISPATCHER
  2
AmdtFormulaUpdateDispatcher
  3
AcMeServices
 90
        0
 91
        0
280
     0
281
     0
  0
CLASS
  1
ACAMGFILTERDAT
  2
AcAmgFilterDat
  3
"AcadM|Product Description: AutoCAD Mechanical|Company: Autodesk"
 90
        0
 91
        6
280
     0
281
     0
  0
CLASS
  1
ACMSTANDARDDIN
  2
AcmStandardDIN
  3
"Amdt_StdImp|Product Description: AutoCAD Mechanical|Company: Autodesk"
 90
        0
 91
        1
280
     0
281
     0
  0
CLASS
  1
AMDTEDGESTANDARDDIN13715
  2
AmdtEdgeStdDIN13715
  3
"Amdt_StdImp|Product Description: AutoCAD Mechanical|Company: Autodesk"
 90
        0
 91
        1
280
     0
281
     0
  0
CLASS
  1
ACMSURFSTANDARDDIN
  2
AcmSurfTextStdDIN
  3
"Amdt_StdImp|Product Description: AutoCAD Mechanical|Company: Autodesk"
 90
        0
 91
        1
280
     0
281
     0
  0
CLASS
  1
ACMFCFSTANDARDDIN
  2
AcmFCFStdDIN
  3
"Amdt_StdImp|Product Description: AutoCAD Mechanical|Company: Autodesk"
 90
        0
 91
        1
280
     0
281
     0
  0
CLASS
  1
ACMWELDSTANDARDDIN
  2
AcmWeldingStdDIN
  3
"Amdt_StdImp|Product Description: AutoCAD Mechanical|Company: Autodesk"
 90
        0
 91
        1
280
     0
281
     0
  0
CLASS
  1
ACMIDSTANDARDDIN
  2
AcmIdStdDIN
  3
"Amdt_StdImp|Product Description: AutoCAD Mechanical|Company: Autodesk"
 90
        0
 91
        1
280
     0
281
     0
  0
CLASS
  1
ACMDATUMSTANDARDDIN
  2
AcmDatumStdDIN
  3
"Amdt_StdImp|Product Description: AutoCAD Mechanical|Company: Autodesk"
 90
        0
 91
        1
280
     0
281
     0
  0
CLASS
  1
ACMBOMSTANDARDDIN
  2
AcmBOMStdDIN
  3
"Amdt_StdImp|Product Description: AutoCAD Mechanical|Company: Autodesk"
 90
        0
 91
        1
280
     0
281
     0
  0
CLASS
  1
ACMDETAILSTANDARDDIN
  2
AmdtDetailSymStdDIN
  3
"Amdt_StdImp|Product Description: AutoCAD Mechanical|Company: Autodesk"
 90
        0
 91
        1
280
     0
281
     0
  0
CLASS
  1
ACMSECTIONSTANDARDDIN
  2
AmdtSectionSymStdDIN
  3
"Amdt_StdImp|Product Description: AutoCAD Mechanical|Company: Autodesk"
 90
        0
 91
        1
280
     0
281
     0
  0
CLASS
  1
ACMCENTERLINESTANDARDDIN
  2
AmdtCenterLineStdDIN
  3
"Amdt_StdImp|Product Description: AutoCAD Mechanical|Company: Autodesk"
 90
        0
 91
        1
280
     0
281
     0
  0
CLASS
  1
ACMTHREADLINESTANDARDDIN
  2
AmdtThreadLineStdDIN
  3
"Amdt_StdImp|Product Description: AutoCAD Mechanical|Company: Autodesk"
 90
        0
 91
        1
280
     0
281
     0
  0
CLASS
  1
ACMNOTESTANDARDDIN
  2
AmdtNoteStdDIN
  3
"Amdt_StdImp|Product Description: AutoCAD Mechanical|Company: Autodesk"
 90
        0
 91
        1
280
     0
281
     0
  0
CLASS
  1
ACAMGHOLECHARTSTDDIN
  2
AcAmgHoleChartStdDIN
  3
ACMSYMBB_MODULE_NAME
 90
        0
 91
        1
280
     0
281
     0
  0
CLASS
  1
MATERIAL
  2
AcDbMaterial
  3
ObjectDBX Classes
 90
     1024
 91
        3
280
     0
281
     0
  0
CLASS
  1
VISUALSTYLE
  2
AcDbVisualStyle
  3
ObjectDBX Classes
 90
     4095
 91
       16
280
     0
281
     0
  0
CLASS
  1
ACRFATTGENMGR
  2
AcRfAttGeneralMgr
  3
AcAttribServices
 90
        0
 91
        1
280
     0
281
     0
  0
CLASS
  1
ACRFOBJATTMGR
  2
AcRfObjAttGroupMgr
  3
AcAttribServices
 90
        0
 91
        1
280
     0
281
     0
  0
CLASS
  1
ACRFMCADAPIATTHOLDER
  2
AcRfMCADAPIAttHolder
  3
AcAttribServices
 90
        0
 91
        1
280
     0
281
     0
  0
CLASS
  1
AMDTSYSATTR
  2
AmdtSystemAttribute
  3
AcAttribServices
 90
        0
 91
        1
280
     0
281
     0
  0
CLASS
  1
ACMTAPERSTANDARDISO
  2
AcmTaperStdISO
  3
"Amdt_StdImp|Product Description: AutoCAD Mechanical|Company: Autodesk"
 90
        0
 91
        1
280
     0
281
     0
  0
CLASS
  1
ACMTAPERSTANDARDDIN
  2
AcmTaperStdDIN
  3
"Amdt_StdImp|Product Description: AutoCAD Mechanical|Company: Autodesk"
 90
        0
 91
        1
280
     0
281
     0
  0
CLASS
  1
CAMSSTRUCTBTNSTATE
  2
StructBtnState
  3
L"DesignerAssemblies"
 90
        0
 91
        1
280
     0
281
     0
  0
CLASS
  1
AMDTNOTE
  2
AmdtNote
  3
"AcmSymBB|Product Description: AutoCAD Mechanical|Company: Autodesk"
 90
     3071
 91
        1
280
     0
281
     1
  0
CLASS
  1
ACMWELDSYM
  2
AcmWelding
  3
"AcmSymBB|Product Description: AutoCAD Mechanical|Company: Autodesk"
 90
     3071
 91
        0
280
     0
281
     1
  0
CLASS
  1
ACDBCIRCARCRES
  2
AcDbCircArcRes
  3
AcGrefServices
 90
        0
 91
        2
280
     0
281
     0
  0
CLASS
  1
ACMPARTREF
  2
AcmPartRef
  3
"AcmSymBB|Product Description: AutoCAD Mechanical|Company: Autodesk"
 90
     3071
 91
        0
280
     0
281
     1
  0
CLASS
  1
ACDBLINERES
  2
AcDbLineRes
  3
AcGrefServices
 90
        0
 91
        2
280
     0
281
     0
  0
CLASS
  1
DIMASSOC
  2
AcDbDimAssoc
  3
"AcDbDimAssoc|Product Desc:     AcDim ARX App For Dimension|Company:          Autodesk, Inc.|WEB Address:      www.autodesk.com"
 90
        0
 91
        3
280
     0
281
     0
  0
CLASS
  1
SORTENTSTABLE
  2
AcDbSortentsTable
  3
ObjectDBX Classes
 90
        0
 91
        0
280
     0
281
     0
  0
CLASS
  1
ACMDATAENTRYPART
  2
AcmDataEntryPart
  3
"AcmSymBB|Product Description: AutoCAD Mechanical|Company: Autodesk"
 90
        0
 91
        6
280
     0
281
     0
  0
ENDSEC
  0
SECTION
  2
TABLES
  0
TABLE
  2
VPORT
  5
8
330
0
100
AcDbSymbolTable
 70
     1
  0
VPORT
  5
253
330
8
100
AcDbSymbolTableRecord
100
AcDbViewportTableRecord
  2
*Active
 70
     0
 10
0.0
 20
0.0
 11
1.0
 21
1.0
 12
2087.593541244627
 22
944.6438823511465
 13
0.0
 23
0.0
 14
10.0
 24
10.0
 15
10.0
 25
10.0
 16
0.0
 26
0.0
 36
1.0
 17
0.0
 27
0.0
 37
0.0
 40
618.3995923272987
 41
1.888421052631579
 42
50.0
 43
0.0
 44
0.0
 50
0.0
 51
0.0
 71
     0
 72
  8000
 73
     1
 74
     3
 75
     0
 76
     0
 77
     0
 78
     0
281
     0
 65
     1
110
0.0
120
0.0
130
0.0
111
1.0
121
0.0
131
0.0
112
0.0
122
1.0
132
0.0
 79
     0
146
0.0
348
25E
 60
     3
 61
     5
292
     1
282
     1
141
0.0
142
0.0
 63
   250
421
  3355443
  0
ENDTAB
  0
TABLE
  2
LTYPE
  5
5
330
0
100
AcDbSymbolTable
 70
    24
  0
LTYPE
  5
14
330
5
100
AcDbSymbolTableRecord
100
AcDbLinetypeTableRecord
  2
ByBlock
 70
     0
  3

 72
    65
 73
     0
 40
0.0
  0
LTYPE
  5
15
330
5
100
AcDbSymbolTableRecord
100
AcDbLinetypeTableRecord
  2
ByLayer
 70
     0
  3

 72
    65
 73
     0
 40
0.0
  0
LTYPE
  5
16
330
5
100
AcDbSymbolTableRecord
100
AcDbLinetypeTableRecord
  2
Continuous
 70
     0
  3
Solid line
 72
    65
 73
     0
 40
0.0
  0
LTYPE
  5
64
330
5
100
AcDbSymbolTableRecord
100
AcDbLinetypeTableRecord
  2
AM_ISO02W050
 70
     0
  3
__ __ __ __ __ __ __ __ __ __ __ __ __ __ __
 72
    65
 73
     2
 40
7.5
 49
6.0
 74
     0
 49
-1.5
 74
     0
  0
LTYPE
  5
65
330
5
100
AcDbSymbolTableRecord
100
AcDbLinetypeTableRecord
  2
AM_ISO08W050
 70
     0
  3
____ . ____ . ____ . ____ . ____ . ____ . ____
 72
    65
 73
     4
 40
18.0
 49
12.0
 74
     0
 49
-1.5
 74
     0
 49
3.0
 74
     0
 49
-1.5
 74
     0
  0
LTYPE
  5
66
330
5
100
AcDbSymbolTableRecord
100
AcDbLinetypeTableRecord
  2
AM_ISO09W050
 70
     0
  3
_____ . . _____ . . _____ . . ____ .. ____
 72
    65
 73
     6
 40
22.5
 49
12.0
 74
     0
 49
-1.5
 74
     0
 49
3.0
 74
     0
 49
-1.5
 74
     0
 49
3.0
 74
     0
 49
-1.5
 74
     0
  0
LTYPE
  5
67
330
5
100
AcDbSymbolTableRecord
100
AcDbLinetypeTableRecord
  2
Amconstr
 70
     0
  3
_______________________
 72
    65
 73
     2
 40
9999.0
 49
9999.0
 74
     0
 49
0.0
 74
     0
  0
LTYPE
  5
68
330
5
100
AcDbSymbolTableRecord
100
AcDbLinetypeTableRecord
  2
AM_ISO08W050x2
 70
     0
  3
__ . __ . __ . __ . __ . __
 72
    65
 73
     4
 40
9.0
 49
6.0
 74
     0
 49
-0.75
 74
     0
 49
1.5
 74
     0
 49
-0.75
 74
     0
  0
LTYPE
  5
69
330
5
100
AcDbSymbolTableRecord
100
AcDbLinetypeTableRecord
  2
AM_ISO02W050x2
 70
     0
  3
 _ _ _ _ _ _ _ _ _ _ _ _
 72
    65
 73
     2
 40
3.75
 49
3.0
 74
     0
 49
-0.75
 74
     0
  0
LTYPE
  5
6C
330
5
100
AcDbSymbolTableRecord
100
AcDbLinetypeTableRecord
  2
Amzigzag
 70
     0
  3
/\/-/\/-/\/-/\/-/\/-/\/
 72
    65
 73
     2
 40
11.0001
 49
0.0001
 74
     4
 75
   135
340
6B
 46
0.04
 50
0.0
 44
0.0
 45
0.0
 49
-11.0
 74
     0
  0
LTYPE
  5
7A
330
5
100
AcDbSymbolTableRecord
100
AcDbLinetypeTableRecord
  2
ACISOWELD
 70
     0
  3
_ _ _ _ _
 72
    65
 73
     2
 40
2.0
 49
2.0
 74
     0
 49
-1.0
 74
     0
  0
LTYPE
  5
7B
330
5
100
AcDbSymbolTableRecord
100
AcDbLinetypeTableRecord
  2
ACISOTGB
 70
     0
  3
__ . . __ . .
 72
    65
 73
     6
 40
9.0
 49
4.0
 74
     0
 49
-1.0
 74
     0
 49
1.0
 74
     0
 49
-1.0
 74
     0
 49
1.0
 74
     0
 49
-1.0
 74
     0
  0
LTYPE
  5
7C
330
5
100
AcDbSymbolTableRecord
100
AcDbLinetypeTableRecord
  2
ACISOTGL
 70
     0
  3
_ _ _ _ _
 72
    65
 73
     2
 40
3.0
 49
2.0
 74
     0
 49
-1.0
 74
     0
  0
LTYPE
  5
7E
330
5
100
AcDbSymbolTableRecord
100
AcDbLinetypeTableRecord
  2
CENTER
 70
     0
  3
__ . __
 72
    65
 73
     4
 40
7.0
 49
4.0
 74
     0
 49
-1.0
 74
     0
 49
1.0
 74
     0
 49
-1.0
 74
     0
  0
LTYPE
  5
D8
330
5
100
AcDbSymbolTableRecord
100
AcDbLinetypeTableRecord
  2
HIDDEN
 70
     0
  3
Hidden __ __ __ __ __ __ __ __ __ __ __ __ __ _
 72
    65
 73
     2
 40
9.524999999999998
 49
6.349999999999999
 74
     0
 49
-3.174999999999999
 74
     0
  0
LTYPE
  5
D9
330
5
100
AcDbSymbolTableRecord
100
AcDbLinetypeTableRecord
  2
PHANTOM2
 70
     0
  3
Phantom (.5x) ___ _ _ ___ _ _ ___ _ _ ___ _ _
 72
    65
 73
     6
 40
31.75
 49
15.875
 74
     0
 49
-3.174999999999999
 74
     0
 49
3.174999999999999
 74
     0
 49
-3.174999999999999
 74
     0
 49
3.174999999999999
 74
     0
 49
-3.174999999999999
 74
     0
  0
LTYPE
  5
23B
330
5
100
AcDbSymbolTableRecord
100
AcDbLinetypeTableRecord
  2
ACDINWELD
 70
     0
  3
_ _ _ _ _
 72
    65
 73
     2
 40
2.0
 49
2.0
 74
     0
 49
-1.0
 74
     0
  0
LTYPE
  5
23C
330
5
100
AcDbSymbolTableRecord
100
AcDbLinetypeTableRecord
  2
ACDINTGB
 70
     0
  3
__ . . __ . .
 72
    65
 73
     6
 40
9.0
 49
4.0
 74
     0
 49
-1.0
 74
     0
 49
1.0
 74
     0
 49
-1.0
 74
     0
 49
1.0
 74
     0
 49
-1.0
 74
     0
  0
LTYPE
  5
23D
330
5
100
AcDbSymbolTableRecord
100
AcDbLinetypeTableRecord
  2
ACDINTGL
 70
     0
  3
_ _ _ _ _
 72
    65
 73
     2
 40
3.0
 49
2.0
 74
     0
 49
-1.0
 74
     0
  0
LTYPE
  5
24E
330
5
100
AcDbSymbolTableRecord
100
AcDbLinetypeTableRecord
  2
AM_DIN_F_W050
 70
     0
  3
__ __ __ __ __ __ __ __ __ __ __ __ __ __ __
 72
    65
 73
     2
 40
6.25
 49
4.75
 74
     0
 49
-1.5
 74
     0
  0
LTYPE
  5
24F
330
5
100
AcDbSymbolTableRecord
100
AcDbLinetypeTableRecord
  2
AM_DIN_G_W050
 70
     0
  3
____ . ____ . ____ . ____ . ____ . ____ . ____
 72
    65
 73
     4
 40
13.75
 49
9.75
 74
     0
 49
-1.5
 74
     0
 49
1.0
 74
     0
 49
-1.5
 74
     0
  0
LTYPE
  5
250
330
5
100
AcDbSymbolTableRecord
100
AcDbLinetypeTableRecord
  2
AM_DIN_K_W050
 70
     0
  3
_____ . . _____ . . _____ . . ____ .. ____
 72
    65
 73
     6
 40
16.25
 49
9.75
 74
     0
 49
-1.5
 74
     0
 49
1.0
 74
     0
 49
-1.5
 74
     0
 49
1.0
 74
     0
 49
-1.5
 74
     0
  0
LTYPE
  5
251
330
5
100
AcDbSymbolTableRecord
100
AcDbLinetypeTableRecord
  2
AM_DIN_G_W050x2
 70
     0
  3
__ . __ . __ . __ . __ . __
 72
    65
 73
     4
 40
6.875
 49
4.75
 74
     0
 49
-0.875
 74
     0
 49
0.375
 74
     0
 49
-0.875
 74
     0
  0
LTYPE
  5
252
330
5
100
AcDbSymbolTableRecord
100
AcDbLinetypeTableRecord
  2
AM_DIN_F_W050x2
 70
     0
  3
 _ _ _ _ _ _ _ _ _ _ _ _
 72
    65
 73
     2
 40
3.125
 49
2.25
 74
     0
 49
-0.875
 74
     0
  0
LTYPE
  5
349
330
5
100
AcDbSymbolTableRecord
100
AcDbLinetypeTableRecord
  2
DASHDOT
 70
     0
  3
Dash dot __ . __ . __ . __ . __ . __ . __ . __
 72
    65
 73
     4
 40
1.0
 49
0.5
 74
     0
 49
-0.25
 74
     0
 49
0.0
 74
     0
 49
-0.25
 74
     0
  0
LTYPE
  5
34A
330
5
100
AcDbSymbolTableRecord
100
AcDbLinetypeTableRecord
  2
gen7
 70
     0
  3
____ . ____ . ____ . ____ . ____ . ____ . ____
 72
    65
 73
     4
 40
13.75
 49
9.75
 74
     0
 49
-1.5
 74
     0
 49
1.0
 74
     0
 49
-1.5
 74
     0
  0
ENDTAB
  0
TABLE
  2
LAYER
  5
2
102
{ACAD_XDICTIONARY
360
362
102
}
330
0
100
AcDbSymbolTable
 70
    15
  0
LAYER
  5
10
330
2
100
AcDbSymbolTableRecord
100
AcDbLayerTableRecord
  2
0
 70
     0
 62
     7
  6
Continuous
370
    -3
390
F
347
257
  0
LAYER
  5
34B
330
2
100
AcDbSymbolTableRecord
100
AcDbLayerTableRecord
  2
AM_5
 70
     0
 62
     3
  6
Continuous
370
    25
390
F
347
257
  0
LAYER
  5
34C
330
2
100
AcDbSymbolTableRecord
100
AcDbLayerTableRecord
  2
AM_0
 70
     0
 62
     7
  6
Continuous
370
    50
390
F
347
257
  0
LAYER
  5
34D
330
2
100
AcDbSymbolTableRecord
100
AcDbLayerTableRecord
  2
UMRISS05
 70
     0
 62
     7
  6
Continuous
370
    -3
390
F
347
257
  0
LAYER
  5
34E
330
2
100
AcDbSymbolTableRecord
100
AcDbLayerTableRecord
  2
DEFPOINTS
 70
     0
 62
     7
  6
Continuous
290
     0
370
    -3
390
F
347
257
  0
LAYER
  5
34F
330
2
100
AcDbSymbolTableRecord
100
AcDbLayerTableRecord
  2
AM_8
 70
     0
 62
     1
  6
Continuous
370
    25
390
F
347
257
  0
LAYER
  5
350
330
2
100
AcDbSymbolTableRecord
100
AcDbLayerTableRecord
  2
AM_7
 70
     0
 62
     4
  6
AM_DIN_G_W050
370
    25
390
F
347
257
  0
LAYER
  5
351
330
2
100
AcDbSymbolTableRecord
100
AcDbLayerTableRecord
  2
AM_4
 70
     0
 62
     3
  6
Continuous
370
    25
390
F
347
257
  0
LAYER
  5
352
330
2
100
AcDbSymbolTableRecord
100
AcDbLayerTableRecord
  2
AM_12
 70
     0
 62
     7
  6
Continuous
290
     0
370
    50
390
F
347
257
  0
LAYER
  5
353
330
2
100
AcDbSymbolTableRecord
100
AcDbLayerTableRecord
  2
AM_PAREF
 70
     0
 62
     4
  6
Continuous
290
     0
370
    25
390
F
347
257
  0
LAYER
  5
354
330
2
100
AcDbSymbolTableRecord
100
AcDbLayerTableRecord
  2
AM_3
 70
     0
 62
     6
  6
AM_DIN_F_W050
370
    25
390
F
347
257
  0
LAYER
  5
355
330
2
100
AcDbSymbolTableRecord
100
AcDbLayerTableRecord
  2
AM_6
 70
     0
 62
     2
  6
Continuous
370
    35
390
F
347
257
  0
LAYER
  5
356
330
2
100
AcDbSymbolTableRecord
100
AcDbLayerTableRecord
  2
KOPF03
 70
     0
 62
     2
  6
Continuous
370
    -3
390
F
347
257
  0
LAYER
  5
357
330
2
100
AcDbSymbolTableRecord
100
AcDbLayerTableRecord
  2
7
 70
     0
 62
     4
  6
gen7
370
    -3
390
F
347
257
  0
LAYER
  5
358
330
2
100
AcDbSymbolTableRecord
100
AcDbLayerTableRecord
  2
8
 70
     0
 62
     1
  6
Continuous
370
    -3
390
F
347
257
  0
ENDTAB
  0
TABLE
  2
STYLE
  5
3
330
0
100
AcDbSymbolTable
 70
     7
  0
STYLE
  5
11
330
3
100
AcDbSymbolTableRecord
100
AcDbTextStyleTableRecord
  2
Standard
 70
     0
 40
0.0
 41
1.0
 50
0.0
 71
     0
 42
2.5
  3
ISOCP.SHX
  4
bigfont.shx
  0
STYLE
  5
6B
330
3
100
AcDbSymbolTableRecord
100
AcDbTextStyleTableRecord
  2

 70
     1
 40
0.0
 41
1.0
 50
0.0
 71
     0
 42
2.5
  3
ltypeshp.shx
  4

  0
STYLE
  5
6D
330
3
100
AcDbSymbolTableRecord
100
AcDbTextStyleTableRecord
  2
ACISOTS
 70
     0
 40
1.0
 41
1.0
 50
0.0
 71
     0
 42
2.5
  3
isocp.shx
  4
bigfont.shx
  0
STYLE
  5
79
330
3
100
AcDbSymbolTableRecord
100
AcDbTextStyleTableRecord
  2
ACISOGDT
 70
     0
 40
0.0
 41
1.0
 50
0.0
 71
     0
 42
2.5
  3
amgdt.shx
  4
bigfont.shx
  0
STYLE
  5
22D
330
3
100
AcDbSymbolTableRecord
100
AcDbTextStyleTableRecord
  2
ACDINTS
 70
     0
 40
1.0
 41
1.0
 50
0.0
 71
     0
 42
2.5
  3
isocp.shx
  4

  0
STYLE
  5
23A
330
3
100
AcDbSymbolTableRecord
100
AcDbTextStyleTableRecord
  2
ACDINGDT
 70
     0
 40
0.0
 41
1.0
 50
0.0
 71
     0
 42
2.5
  3
amgdt.shx
  4

  0
ENDTAB
  0
TABLE
  2
VIEW
  5
6
330
0
100
AcDbSymbolTable
 70
     0
  0
ENDTAB
  0
TABLE
  2
UCS
  5
7
330
0
100
AcDbSymbolTable
 70
     0
  0
ENDTAB
  0
TABLE
  2
APPID
  5
9
330
0
100
AcDbSymbolTable
 70
    19
  0
APPID
  5
12
330
9
100
AcDbSymbolTableRecord
100
AcDbRegAppTableRecord
  2
ACAD
 70
     0
  0
APPID
  5
46
330
9
100
AcDbSymbolTableRecord
100
AcDbRegAppTableRecord
  2
MCAD_NO_VIS
 70
     0
  0
APPID
  5
47
330
9
100
AcDbSymbolTableRecord
100
AcDbRegAppTableRecord
  2
ACAD_TEMP_GRAPHIC
 70
     0
  0
APPID
  5
58
330
9
100
AcDbSymbolTableRecord
100
AcDbRegAppTableRecord
  2
ACATTRIBSERVICES
 70
     0
  0
APPID
  5
EE
330
9
100
AcDbSymbolTableRecord
100
AcDbRegAppTableRecord
  2
AD_DRAW
 70
     0
  0
APPID
  5
10C
330
9
100
AcDbSymbolTableRecord
100
AcDbRegAppTableRecord
  2
DESIGNERASSEMBLIES
 70
     0
  0
APPID
  5
111
330
9
100
AcDbSymbolTableRecord
100
AcDbRegAppTableRecord
  2
ACADM_DIM_EDIT
 70
     0
  0
APPID
  5
112
330
9
100
AcDbSymbolTableRecord
100
AcDbRegAppTableRecord
  2
AMDT_DM_ADJ
 70
     0
  0
APPID
  5
35A
330
9
100
AcDbSymbolTableRecord
100
AcDbRegAppTableRecord
  2
GENIUS_GENODEF_13
 70
     0
  0
APPID
  5
35B
330
9
100
AcDbSymbolTableRecord
100
AcDbRegAppTableRecord
  2
GENIUS_GENDTOL_13
 70
     0
  0
APPID
  5
35C
330
9
100
AcDbSymbolTableRecord
100
AcDbRegAppTableRecord
  2
GENIUS_GENOBJ-N-FIL_13
 70
     0
  0
APPID
  5
35D
330
9
100
AcDbSymbolTableRecord
100
AcDbRegAppTableRecord
  2
GENIUS_GENOBJ-N-HTC_13
 70
     0
  0
APPID
  5
35E
330
9
100
AcDbSymbolTableRecord
100
AcDbRegAppTableRecord
  2
GENIUS_GENHATCH_13
 70
     0
  0
APPID
  5
35F
330
9
100
AcDbSymbolTableRecord
100
AcDbRegAppTableRecord
  2
GENIUS_GENOBJ-N-CEN_13
 70
     0
  0
APPID
  5
360
330
9
100
AcDbSymbolTableRecord
100
AcDbRegAppTableRecord
  2
GENIUS_GENOBJ-N-ZOO_13
 70
     0
  0
APPID
  5
361
330
9
100
AcDbSymbolTableRecord
100
AcDbRegAppTableRecord
  2
GENIUS_GENZOO_16
 70
     0
  0
APPID
  5
93B
330
9
100
AcDbSymbolTableRecord
100
AcDbRegAppTableRecord
  2
GENIUS_GENREC_14
 70
     0
  0
APPID
  5
93C
330
9
100
AcDbSymbolTableRecord
100
AcDbRegAppTableRecord
  2
GENIUS_GENOBJ-N-REC_13
 70
     0
  0
APPID
  5
93D
330
9
100
AcDbSymbolTableRecord
100
AcDbRegAppTableRecord
  2
ACAD_PSEXT
 70
     0
  0
ENDTAB
  0
TABLE
  2
DIMSTYLE
  5
A
330
0
100
AcDbSymbolTable
 70
    17
100
AcDbDimStyleTable
 71
     1
340
245
  0
DIMSTYLE
105
27
330
A
100
AcDbSymbolTableRecord
100
AcDbDimStyleTableRecord
  2
ISO-25
 70
     0
 41
2.5
 42
0.625
 43
3.75
 44
1.25
 73
     0
 74
     0
 77
     1
 78
     8
140
2.5
141
2.5
143
0.03937007874016
147
0.625
171
     3
172
     1
271
     2
272
     2
274
     3
278
    44
283
     0
284
     8
340
11
  0
DIMSTYLE
105
81
330
A
100
AcDbSymbolTableRecord
100
AcDbDimStyleTableRecord
  2
AM_ISO
 70
     0
  4
"
 41
2.5
 42
1.0
 43
10.0
 44
1.0
 47
0.1
 48
0.1
 73
     0
 74
     0
 77
     1
 78
     8
 79
     2
140
3.5
141
0.0
143
0.0393701
146
0.71
147
1.5
172
     1
176
   256
177
   256
178
     2
271
     2
272
     3
274
     4
283
     0
284
     8
340
11
371
    -1
372
    -1
  0
DIMSTYLE
105
82
330
A
100
AcDbSymbolTableRecord
100
AcDbDimStyleTableRecord
  2
AM_ISO$3
 70
     0
  4
"
 41
2.5
 42
1.0
 43
10.0
 44
1.0
 47
0.1
 48
0.1
 73
     0
 77
     1
 78
     8
 79
     2
140
3.5
141
0.0
143
0.0393701
146
0.71
147
1.5
176
   256
177
   256
178
     2
271
     2
272
     3
274
     4
283
     0
284
     8
288
     1
289
     0
340
11
371
    -1
372
    -1
  0
DIMSTYLE
105
83
330
A
100
AcDbSymbolTableRecord
100
AcDbDimStyleTableRecord
  2
AM_ISO$4
 70
     0
  4
"
 41
2.5
 42
1.0
 43
10.0
 44
1.0
 47
0.1
 48
0.1
 73
     0
 77
     1
 78
     8
 79
     2
140
3.5
141
0.0
143
0.0393701
146
0.71
147
1.5
176
   256
177
   256
178
     2
271
     2
272
     3
274
     4
283
     0
284
     8
288
     1
289
     0
340
11
371
    -1
372
    -1
  0
DIMSTYLE
105
84
330
A
100
AcDbSymbolTableRecord
100
AcDbDimStyleTableRecord
  2
AM_ISO$6
 70
     0
  4
"
 41
2.5
 42
1.0
 43
10.0
 44
1.0
 47
0.1
 48
0.1
 73
     0
 74
     0
 78
     8
 79
     2
140
3.5
141
0.0
143
0.0393701
146
0.71
147
1.5
172
     1
176
   256
177
   256
178
     2
271
     2
272
     3
274
     4
283
     0
284
     8
340
11
371
    -1
372
    -1
  0
DIMSTYLE
105
85
330
A
100
AcDbSymbolTableRecord
100
AcDbDimStyleTableRecord
  2
AM_ISO$7
 70
     0
  4
"
 41
2.5
 42
1.0
 43
10.0
 44
1.0
 47
0.1
 48
0.1
 73
     0
 74
     0
 77
     1
 78
     8
 79
     2
140
5.0
141
0.0
143
0.0393701
146
0.71
147
1.5
172
     1
176
   256
177
   256
178
     2
271
     2
272
     3
274
     4
283
     0
284
     8
340
11
371
    -1
372
    -1
  0
DIMSTYLE
105
86
330
A
100
AcDbSymbolTableRecord
100
AcDbDimStyleTableRecord
  2
AM_ISO$SF
 70
     0
  4
"
 41
2.5
 42
1.0
 43
10.0
 44
1.0
 47
0.1
 48
0.1
 73
     0
 74
     0
 75
     1
 76
     1
 77
     1
 78
     8
 79
     2
140
3.5
141
0.0
143
0.0393701
146
0.71
147
1.5
172
     1
176
   256
177
   256
178
     2
271
     2
272
     3
274
     4
283
     0
284
     8
340
11
371
    -1
372
    -1
  0
DIMSTYLE
105
8B
330
A
100
AcDbSymbolTableRecord
100
AcDbDimStyleTableRecord
  2
AM_ISO$SH
 70
     0
  4
"
 41
2.5
 42
1.0
 43
10.0
 44
1.0
 47
0.1
 48
0.1
 73
     0
 74
     0
 75
     1
 76
     1
 77
     1
 78
     8
 79
     2
140
3.5
141
0.0
143
0.0393701
144
2.0
146
0.71
147
1.5
172
     1
173
     1
176
   256
177
   256
178
     2
271
     2
272
     3
274
     4
283
     0
284
     8
340
11
343
87
371
    -1
372
    -1
  0
DIMSTYLE
105
245
102
{ACAD_REACTORS
330
5BC
330
5BD
330
690
330
694
330
695
330
697
102
}
330
A
100
AcDbSymbolTableRecord
100
AcDbDimStyleTableRecord
  2
AM_DIN
 70
     0
  4
"
 41
2.5
 42
1.0
 43
10.0
 44
1.0
 47
0.1
 48
0.1
 73
     0
 74
     0
 77
     1
 78
     8
 79
     2
140
3.5
141
0.0
143
0.0393701
146
0.71
147
1.5
172
     1
176
   256
177
   256
178
     2
271
     2
272
     3
274
     4
283
     0
284
     8
340
11
371
    -1
372
    -1
  0
DIMSTYLE
105
246
330
A
100
AcDbSymbolTableRecord
100
AcDbDimStyleTableRecord
  2
AM_DIN$3
 70
     0
  4
"
 41
2.5
 42
1.0
 43
10.0
 44
1.0
 47
0.1
 48
0.1
 73
     0
 77
     1
 78
     8
 79
     2
140
3.5
141
0.0
143
0.0393701
146
0.71
147
1.5
176
   256
177
   256
178
     2
271
     2
272
     3
274
     4
283
     0
284
     8
288
     1
289
     0
340
11
371
    -1
372
    -1
  0
DIMSTYLE
105
247
102
{ACAD_REACTORS
330
7F0
330
7F3
102
}
330
A
100
AcDbSymbolTableRecord
100
AcDbDimStyleTableRecord
  2
AM_DIN$4
 70
     0
  4
"
 41
2.5
 42
1.0
 43
10.0
 44
1.0
 47
0.1
 48
0.1
 73
     0
 77
     1
 78
     8
 79
     2
140
3.5
141
0.0
143
0.0393701
146
0.71
147
1.5
176
   256
177
   256
178
     2
271
     2
272
     3
274
     4
283
     0
284
     8
288
     1
289
     0
340
11
371
    -1
372
    -1
  0
DIMSTYLE
105
248
330
A
100
AcDbSymbolTableRecord
100
AcDbDimStyleTableRecord
  2
AM_DIN$6
 70
     0
  4
"
 41
2.5
 42
1.0
 43
10.0
 44
1.0
 47
0.1
 48
0.1
 73
     0
 74
     0
 78
     8
 79
     2
140
3.5
141
0.0
143
0.0393701
146
0.71
147
1.5
172
     1
176
   256
177
   256
178
     2
271
     2
272
     3
274
     4
283
     0
284
     8
340
11
371
    -1
372
    -1
  0
DIMSTYLE
105
249
330
A
100
AcDbSymbolTableRecord
100
AcDbDimStyleTableRecord
  2
AM_DIN$7
 70
     0
  4
"
 41
2.5
 42
1.0
 43
10.0
 44
1.0
 47
0.1
 48
0.1
 73
     0
 74
     0
 77
     1
 78
     8
 79
     2
140
5.0
141
0.0
143
0.0393701
146
0.71
147
1.5
172
     1
176
   256
177
   256
178
     2
271
     2
272
     3
274
     4
283
     0
284
     8
340
11
371
    -1
372
    -1
  0
DIMSTYLE
105
24A
330
A
100
AcDbSymbolTableRecord
100
AcDbDimStyleTableRecord
  2
AM_DIN$SF
 70
     0
  4
"
 41
2.5
 42
1.0
 43
10.0
 44
1.0
 47
0.1
 48
0.1
 73
     0
 74
     0
 75
     1
 76
     1
 77
     1
 78
     8
 79
     2
140
3.5
141
0.0
143
0.0393701
146
0.71
147
1.5
172
     1
176
   256
177
   256
178
     2
271
     2
272
     3
274
     4
283
     0
284
     8
340
11
371
    -1
372
    -1
  0
DIMSTYLE
105
24B
330
A
100
AcDbSymbolTableRecord
100
AcDbDimStyleTableRecord
  2
AM_DIN$SH
 70
     0
  4
"
 41
2.5
 42
1.0
 43
10.0
 44
1.0
 47
0.1
 48
0.1
 73
     0
 74
     0
 75
     1
 76
     1
 77
     1
 78
     8
 79
     2
140
3.5
141
0.0
143
0.0393701
144
2.0
146
0.71
147
1.5
172
     1
173
     1
176
   256
177
   256
178
     2
271
     2
272
     3
274
     4
283
     0
284
     8
340
11
343
87
371
    -1
372
    -1
  0
DIMSTYLE
105
359
102
{ACAD_REACTORS
330
6E4
330
7F6
102
}
330
A
100
AcDbSymbolTableRecord
100
AcDbDimStyleTableRecord
  2
AM_DIN$0
 70
     0
  4
"
 41
2.5
 42
1.0
 43
10.0
 44
1.0
 47
0.1
 48
0.1
 73
     0
 74
     0
 77
     1
 78
     8
 79
     2
140
3.5
141
0.0
143
0.0393701
146
0.71
147
1.5
172
     1
176
   256
177
   256
178
     2
271
     2
272
     3
274
     4
283
     0
284
     8
340
11
371
    -1
372
    -1
  0
ENDTAB
  0
TABLE
  2
BLOCK_RECORD
  5
1
330
0
100
AcDbSymbolTable
 70
    29
  0
BLOCK_RECORD
  5
1F
102
{ACAD_XDICTIONARY
360
8F
102
}
330
1
100
AcDbSymbolTableRecord
100
AcDbBlockTableRecord
  2
*Model_Space
340
22
 70
     0
280
     1
281
     0
  0
BLOCK_RECORD
  5
1B
330
1
100
AcDbSymbolTableRecord
100
AcDbBlockTableRecord
  2
*Paper_Space
340
1E
 70
     0
280
     1
281
     0
  0
BLOCK_RECORD
  5
23
330
1
100
AcDbSymbolTableRecord
100
AcDbBlockTableRecord
  2
*Paper_Space0
340
26
 70
     0
280
     1
281
     0
  0
BLOCK_RECORD
  5
87
330
1
100
AcDbSymbolTableRecord
100
AcDbBlockTableRecord
  2
GENAXEH
340
0
 70
     0
280
     1
281
     0
  0
BLOCK_RECORD
  5
801
330
1
100
AcDbSymbolTableRecord
100
AcDbBlockTableRecord
  2
*D15
340
0
 70
     0
280
     1
281
     0
  0
BLOCK_RECORD
  5
80D
330
1
100
AcDbSymbolTableRecord
100
AcDbBlockTableRecord
  2
*D16
340
0
 70
     0
280
     1
281
     0
  0
BLOCK_RECORD
  5
819
330
1
100
AcDbSymbolTableRecord
100
AcDbBlockTableRecord
  2
*D17
340
0
 70
     0
280
     1
281
     0
  0
BLOCK_RECORD
  5
825
330
1
100
AcDbSymbolTableRecord
100
AcDbBlockTableRecord
  2
*D18
340
0
 70
     0
280
     1
281
     0
  0
BLOCK_RECORD
  5
831
330
1
100
AcDbSymbolTableRecord
100
AcDbBlockTableRecord
  2
*D19
340
0
 70
     0
280
     1
281
     0
  0
BLOCK_RECORD
  5
849
330
1
100
AcDbSymbolTableRecord
100
AcDbBlockTableRecord
  2
*D21
340
0
 70
     0
280
     1
281
     0
  0
BLOCK_RECORD
  5
861
330
1
100
AcDbSymbolTableRecord
100
AcDbBlockTableRecord
  2
*D23
340
0
 70
     0
280
     1
281
     0
  0
BLOCK_RECORD
  5
8C2
330
1
100
AcDbSymbolTableRecord
100
AcDbBlockTableRecord
  2
*D24
340
0
 70
     0
280
     1
281
     0
  0
BLOCK_RECORD
  5
8CB
330
1
100
AcDbSymbolTableRecord
100
AcDbBlockTableRecord
  2
*D25
340
0
 70
     0
280
     1
281
     0
  0
BLOCK_RECORD
  5
8D4
330
1
100
AcDbSymbolTableRecord
100
AcDbBlockTableRecord
  2
*D26
340
0
 70
     0
280
     1
281
     0
  0
BLOCK_RECORD
  5
F32
330
1
100
AcDbSymbolTableRecord
100
AcDbBlockTableRecord
  2
*S28
340
0
 70
     0
280
     1
281
     0
  0
ENDTAB
  0
ENDSEC
  0
SECTION
  2
BLOCKS
  0
BLOCK
  5
20
330
1F
100
AcDbEntity
  8
0
100
AcDbBlockBegin
  2
*Model_Space
 70
     0
 10
0.0
 20
0.0
 30
0.0
  3
*Model_Space
  1

  0
ENDBLK
  5
21
330
1F
100
AcDbEntity
  8
0
100
AcDbBlockEnd
  0
BLOCK
  5
1C
330
1B
100
AcDbEntity
 67
     1
  8
0
100
AcDbBlockBegin
  2
*Paper_Space
 70
     0
 10
0.0
 20
0.0
 30
0.0
  3
*Paper_Space
  1

  0
ENDBLK
  5
1D
330
1B
100
AcDbEntity
 67
     1
  8
0
100
AcDbBlockEnd
  0
BLOCK
  5
24
330
23
100
AcDbEntity
 67
     1
  8
0
100
AcDbBlockBegin
  2
*Paper_Space0
 70
     0
 10
0.0
 20
0.0
 30
0.0
  3
*Paper_Space0
  1

  0
ENDBLK
  5
25
330
23
100
AcDbEntity
 67
     1
  8
0
100
AcDbBlockEnd
  0
BLOCK
  5
89
330
87
100
AcDbEntity
  8
0
100
AcDbBlockBegin
  2
GENAXEH
 70
     0
 10
0.0
 20
0.0
 30
0.0
  3
GENAXEH
  1

  0
LINE
  5
88
330
87
100
AcDbEntity
  8
0
100
AcDbLine
 10
-1.0
 20
0.0
 30
0.0
 11
1.0
 21
0.0
 31
0.0
  0
ENDBLK
  5
8A
330
87
100
AcDbEntity
  8
0
100
AcDbBlockEnd
  0
BLOCK
  5
80B
330
801
100
AcDbEntity
  8
0
100
AcDbBlockBegin
  2
*D15
 70
     1
 10
0.0
 20
0.0
 30
0.0
  3
*D15
  1

  0
LINE
  5
DF0
330
801
100
AcDbEntity
  8
AM_5
100
AcDbLine
 10
2192.50973131717
 20
1126.880040516379
 30
0.0
 11
2192.50973131717
 21
1030.076851361112
 31
0.0
  0
LINE
  5
DF1
330
801
100
AcDbEntity
  8
AM_5
100
AcDbLine
 10
2494.50973131717
 20
1126.880040516379
 30
0.0
 11
2494.50973131717
 21
1030.076851361112
 31
0.0
  0
LINE
  5
DF2
330
801
100
AcDbEntity
  8
AM_5
100
AcDbLine
 10
2197.50973131717
 20
1032.076851361112
 30
0.0
 11
2489.50973131717
 21
1032.076851361112
 31
0.0
  0
SOLID
  5
DF3
330
801
100
AcDbEntity
  8
AM_5
100
AcDbTrace
 10
2197.50973131717
 20
1032.910184694445
 30
0.0
 11
2197.50973131717
 21
1031.243518027779
 31
0.0
 12
2192.50973131717
 22
1032.076851361112
 32
0.0
 13
2192.50973131717
 23
1032.076851361112
 33
0.0
  0
SOLID
  5
DF4
330
801
100
AcDbEntity
  8
AM_5
100
AcDbTrace
 10
2489.50973131717
 20
1032.910184694445
 30
0.0
 11
2489.50973131717
 21
1031.243518027779
 31
0.0
 12
2494.50973131717
 22
1032.076851361112
 32
0.0
 13
2494.50973131717
 23
1032.076851361112
 33
0.0
  0
MTEXT
  5
DF5
330
801
100
AcDbEntity
  8
AM_5
 62
     2
100
AcDbMText
 10
2321.786571283659
 20
1038.926851361112
 30
0.0
 40
7.0
 41
0.0
 46
0.0
 71
     5
 72
     1
  1
(302)
 73
     1
 44
1.0
  0
POINT
  5
DF6
330
801
100
AcDbEntity
  8
DEFPOINTS
 62
     0
100
AcDbPoint
 10
2192.50973131717
 20
1128.880040516379
 30
0.0
  0
POINT
  5
DF7
330
801
100
AcDbEntity
  8
DEFPOINTS
 62
     0
100
AcDbPoint
 10
2494.50973131717
 20
1128.880040516379
 30
0.0
  0
POINT
  5
DF8
330
801
100
AcDbEntity
  8
DEFPOINTS
 62
     0
100
AcDbPoint
 10
2494.50973131717
 20
1032.076851361112
 30
0.0
  0
ENDBLK
  5
80C
330
801
100
AcDbEntity
  8
0
100
AcDbBlockEnd
  0
BLOCK
  5
817
330
80D
100
AcDbEntity
  8
0
100
AcDbBlockBegin
  2
*D16
 70
     1
 10
0.0
 20
0.0
 30
0.0
  3
*D16
  1

  0
LINE
  5
DF9
330
80D
100
AcDbEntity
  8
AM_5
100
AcDbLine
 10
2206.259731317171
 20
1147.631937783695
 30
0.0
 11
2206.259731317171
 21
1049.639484511531
 31
0.0
  0
LINE
  5
DFA
330
80D
100
AcDbEntity
  8
AM_5
100
AcDbLine
 10
2480.759731317169
 20
1147.6319301543
 30
0.0
 11
2480.759731317169
 21
1049.639484511531
 31
0.0
  0
LINE
  5
DFB
330
80D
100
AcDbEntity
  8
AM_5
100
AcDbLine
 10
2211.259731317171
 20
1051.639484511531
 30
0.0
 11
2475.759731317169
 21
1051.639484511531
 31
0.0
  0
SOLID
  5
DFC
330
80D
100
AcDbEntity
  8
AM_5
100
AcDbTrace
 10
2211.259731317171
 20
1052.472817844864
 30
0.0
 11
2211.259731317171
 21
1050.806151178198
 31
0.0
 12
2206.259731317171
 22
1051.639484511531
 32
0.0
 13
2206.259731317171
 23
1051.639484511531
 33
0.0
  0
SOLID
  5
DFD
330
80D
100
AcDbEntity
  8
AM_5
100
AcDbTrace
 10
2475.759731317169
 20
1052.472817844864
 30
0.0
 11
2475.759731317169
 21
1050.806151178198
 31
0.0
 12
2480.759731317169
 22
1051.639484511531
 32
0.0
 13
2480.759731317169
 23
1051.639484511531
 33
0.0
  0
MTEXT
  5
DFE
330
80D
100
AcDbEntity
  8
AM_5
 62
     2
100
AcDbMText
 10
2374.692255309783
 20
1058.140173487909
 30
0.0
 40
7.0
 41
0.0
 46
0.0
 71
     5
 72
     1
  1
274.5 {}{\C2;%%p2}
 73
     1
 44
1.0
  0
POINT
  5
DFF
330
80D
100
AcDbEntity
  8
DEFPOINTS
 62
     0
100
AcDbPoint
 10
2206.259731317171
 20
1149.631937783695
 30
0.0
  0
POINT
  5
E00
330
80D
100
AcDbEntity
  8
DEFPOINTS
 62
     0
100
AcDbPoint
 10
2480.759731317169
 20
1149.6319301543
 30
0.0
  0
POINT
  5
E01
330
80D
100
AcDbEntity
  8
DEFPOINTS
 62
     0
100
AcDbPoint
 10
2480.759731317169
 20
1051.639484511531
 30
0.0
  0
ENDBLK
  5
818
330
80D
100
AcDbEntity
  8
0
100
AcDbBlockEnd
  0
BLOCK
  5
823
330
819
100
AcDbEntity
  8
0
100
AcDbBlockBegin
  2
*D17
 70
     1
 10
0.0
 20
0.0
 30
0.0
  3
*D17
  1

  0
LINE
  5
883
330
819
100
AcDbEntity
  8
AM_5
100
AcDbLine
 10
1735.565365427944
 20
1029.413334806793
 30
0.0
 11
1694.883322868638
 21
1029.413334806793
 31
0.0
  0
LINE
  5
884
330
819
100
AcDbEntity
  8
AM_5
100
AcDbLine
 10
1712.365251111502
 20
989.4133348067937
 30
0.0
 11
1694.883322868638
 21
989.4133348067937
 31
0.0
  0
LINE
  5
885
330
819
100
AcDbEntity
  8
AM_5
100
AcDbLine
 10
1696.883322868638
 20
1024.413334806793
 30
0.0
 11
1696.883322868638
 21
994.4133348067936
 31
0.0
  0
SOLID
  5
886
330
819
100
AcDbEntity
  8
AM_5
100
AcDbTrace
 10
1696.049989535304
 20
1024.413334806793
 30
0.0
 11
1697.716656201971
 21
1024.413334806793
 31
0.0
 12
1696.883322868638
 22
1029.413334806793
 32
0.0
 13
1696.883322868638
 23
1029.413334806793
 33
0.0
  0
SOLID
  5
887
330
819
100
AcDbEntity
  8
AM_5
100
AcDbTrace
 10
1696.049989535304
 20
994.4133348067936
 30
0.0
 11
1697.716656201971
 21
994.4133348067936
 31
0.0
 12
1696.883322868638
 22
989.4133348067937
 32
0.0
 13
1696.883322868638
 23
989.4133348067937
 33
0.0
  0
MTEXT
  5
888
330
819
100
AcDbEntity
  8
AM_5
 62
     2
100
AcDbMText
 10
1690.383322868638
 20
1009.413334806793
 30
0.0
 40
7.0
 41
0.0
 46
0.0
 71
     5
 72
     1
  1
40 {}{\C2;%%p3}
 11
0.0000000000000001
 21
1.0
 31
0.0
 73
     1
 44
1.0
  0
POINT
  5
889
330
819
100
AcDbEntity
  8
DEFPOINTS
 62
     0
100
AcDbPoint
 10
1737.565365427944
 20
1029.413334806793
 30
0.0
  0
POINT
  5
88A
330
819
100
AcDbEntity
  8
DEFPOINTS
 62
     0
100
AcDbPoint
 10
1714.365251111502
 20
989.4133348067937
 30
0.0
  0
POINT
  5
88B
330
819
100
AcDbEntity
  8
DEFPOINTS
 62
     0
100
AcDbPoint
 10
1696.883322868638
 20
989.4133348067937
 30
0.0
  0
ENDBLK
  5
824
330
819
100
AcDbEntity
  8
0
100
AcDbBlockEnd
  0
BLOCK
  5
82F
330
825
100
AcDbEntity
  8
0
100
AcDbBlockBegin
  2
*D18
 70
     1
 10
0.0
 20
0.0
 30
0.0
  3
*D18
  1

  0
LINE
  5
88C
330
825
100
AcDbEntity
  8
AM_5
100
AcDbLine
 10
1714.365251111502
 20
887.3414146894905
 30
0.0
 11
1714.365251111502
 21
894.3140036194339
 31
0.0
  0
LINE
  5
88D
330
825
100
AcDbEntity
  8
AM_5
100
AcDbLine
 10
2068.365251111502
 20
887.3414146894905
 30
0.0
 11
2068.365251111502
 21
894.3140036194339
 31
0.0
  0
LINE
  5
88E
330
825
100
AcDbEntity
  8
AM_5
100
AcDbLine
 10
1719.365251111502
 20
892.314003619434
 30
0.0
 11
2063.365251111501
 21
892.314003619434
 31
0.0
  0
SOLID
  5
88F
330
825
100
AcDbEntity
  8
AM_5
100
AcDbTrace
 10
1719.365251111502
 20
893.1473369527672
 30
0.0
 11
1719.365251111502
 21
891.4806702861005
 31
0.0
 12
1714.365251111502
 22
892.314003619434
 32
0.0
 13
1714.365251111502
 23
892.314003619434
 33
0.0
  0
SOLID
  5
890
330
825
100
AcDbEntity
  8
AM_5
100
AcDbTrace
 10
2063.365251111501
 20
893.1473369527672
 30
0.0
 11
2063.365251111501
 21
891.4806702861005
 31
0.0
 12
2068.365251111502
 22
892.314003619434
 32
0.0
 13
2068.365251111502
 23
892.314003619434
 33
0.0
  0
MTEXT
  5
891
330
825
100
AcDbEntity
  8
AM_5
 62
     2
100
AcDbMText
 10
1864.356092516109
 20
898.8140036194339
 30
0.0
 40
7.0
 41
0.0
 46
0.0
 71
     5
 72
     1
  1
ø354
 73
     1
 44
1.0
  0
POINT
  5
892
330
825
100
AcDbEntity
  8
DEFPOINTS
 62
     0
100
AcDbPoint
 10
1714.365251111502
 20
885.3414146894905
 30
0.0
  0
POINT
  5
893
330
825
100
AcDbEntity
  8
DEFPOINTS
 62
     0
100
AcDbPoint
 10
2068.365251111502
 20
885.3414146894905
 30
0.0
  0
POINT
  5
894
330
825
100
AcDbEntity
  8
DEFPOINTS
 62
     0
100
AcDbPoint
 10
2068.365251111502
 20
892.314003619434
 30
0.0
  0
ENDBLK
  5
830
330
825
100
AcDbEntity
  8
0
100
AcDbBlockEnd
  0
BLOCK
  5
83B
330
831
100
AcDbEntity
  8
0
100
AcDbBlockBegin
  2
*D19
 70
     1
 10
0.0
 20
0.0
 30
0.0
  3
*D19
  1

  0
LINE
  5
90A
330
831
100
AcDbEntity
  8
AM_5
100
AcDbLine
 10
1887.944054942962
 20
1209.797499066675
 30
0.0
 11
1668.798189184284
 21
1209.797499066675
 31
0.0
  0
LINE
  5
90B
330
831
100
AcDbEntity
  8
AM_5
100
AcDbLine
 10
1878.645251111537
 20
754.9131276633354
 30
0.0
 11
1668.798189184284
 21
754.9131276633355
 31
0.0
  0
LINE
  5
90C
330
831
100
AcDbEntity
  8
AM_5
100
AcDbLine
 10
1670.798189184284
 20
1204.797499066675
 30
0.0
 11
1670.798189184284
 21
759.9131276633356
 31
0.0
  0
SOLID
  5
90D
330
831
100
AcDbEntity
  8
AM_5
100
AcDbTrace
 10
1669.964855850951
 20
1204.797499066675
 30
0.0
 11
1671.631522517617
 21
1204.797499066675
 31
0.0
 12
1670.798189184284
 22
1209.797499066675
 32
0.0
 13
1670.798189184284
 23
1209.797499066675
 33
0.0
  0
SOLID
  5
90E
330
831
100
AcDbEntity
  8
AM_5
100
AcDbTrace
 10
1669.964855850951
 20
759.9131276633356
 30
0.0
 11
1671.631522517617
 21
759.9131276633356
 31
0.0
 12
1670.798189184284
 22
754.9131276633355
 32
0.0
 13
1670.798189184284
 23
754.9131276633355
 33
0.0
  0
MTEXT
  5
90F
330
831
100
AcDbEntity
  8
AM_5
 62
     2
100
AcDbMText
 10
1664.298189184284
 20
982.3553133650056
 30
0.0
 40
7.0
 41
0.0
 46
0.0
 71
     5
 72
     1
  1
455 {}{\C2;%%p4}
 11
0.0000000000000001
 21
1.0
 31
0.0
 73
     1
 44
1.0
  0
POINT
  5
910
330
831
100
AcDbEntity
  8
DEFPOINTS
 62
     0
100
AcDbPoint
 10
1889.944054942962
 20
1209.797499066675
 30
0.0
  0
POINT
  5
911
330
831
100
AcDbEntity
  8
DEFPOINTS
 62
     0
100
AcDbPoint
 10
1880.645251111537
 20
754.9131276633354
 30
0.0
  0
POINT
  5
912
330
831
100
AcDbEntity
  8
DEFPOINTS
 62
     0
100
AcDbPoint
 10
1670.798189184284
 20
754.9131276633355
 30
0.0
  0
ENDBLK
  5
83C
330
831
100
AcDbEntity
  8
0
100
AcDbBlockEnd
  0
BLOCK
  5
853
330
849
100
AcDbEntity
  8
0
100
AcDbBlockBegin
  2
*D21
 70
     1
 10
0.0
 20
0.0
 30
0.0
  3
*D21
  1

  0
LINE
  5
901
330
849
100
AcDbEntity
  8
AM_5
100
AcDbLine
 10
1846.864507870743
 20
776.9131277738169
 30
0.0
 11
1694.883322868638
 21
776.913127773817
 31
0.0
  0
LINE
  5
902
330
849
100
AcDbEntity
  8
AM_5
100
AcDbLine
 10
1712.365251111502
 20
989.4133348067937
 30
0.0
 11
1694.883322868638
 21
989.4133348067937
 31
0.0
  0
LINE
  5
903
330
849
100
AcDbEntity
  8
AM_5
100
AcDbLine
 10
1696.883322868638
 20
781.9131277738169
 30
0.0
 11
1696.883322868638
 21
984.4133348067936
 31
0.0
  0
SOLID
  5
904
330
849
100
AcDbEntity
  8
AM_5
100
AcDbTrace
 10
1696.049989535304
 20
781.9131277738169
 30
0.0
 11
1697.716656201971
 21
781.9131277738169
 31
0.0
 12
1696.883322868638
 22
776.913127773817
 32
0.0
 13
1696.883322868638
 23
776.913127773817
 33
0.0
  0
SOLID
  5
905
330
849
100
AcDbEntity
  8
AM_5
100
AcDbTrace
 10
1696.049989535304
 20
984.4133348067936
 30
0.0
 11
1697.716656201971
 21
984.4133348067936
 31
0.0
 12
1696.883322868638
 22
989.4133348067937
 32
0.0
 13
1696.883322868638
 23
989.4133348067937
 33
0.0
  0
MTEXT
  5
906
330
849
100
AcDbEntity
  8
AM_5
 62
     2
100
AcDbMText
 10
1690.38263389226
 20
883.1632312903055
 30
0.0
 40
7.0
 41
0.0
 46
0.0
 71
     5
 72
     1
  1
213 {}{\C2;%%p2}
 11
0.0000000000000001
 21
1.0
 31
0.0
 73
     1
 44
1.0
  0
POINT
  5
907
330
849
100
AcDbEntity
  8
DEFPOINTS
 62
     0
100
AcDbPoint
 10
1848.864507870743
 20
776.9131277738169
 30
0.0
  0
POINT
  5
908
330
849
100
AcDbEntity
  8
DEFPOINTS
 62
     0
100
AcDbPoint
 10
1714.365251111502
 20
989.4133348067937
 30
0.0
  0
POINT
  5
909
330
849
100
AcDbEntity
  8
DEFPOINTS
 62
     0
100
AcDbPoint
 10
1696.883322868638
 20
989.4133348067937
 30
0.0
  0
ENDBLK
  5
854
330
849
100
AcDbEntity
  8
0
100
AcDbBlockEnd
  0
BLOCK
  5
86B
330
861
100
AcDbEntity
  8
0
100
AcDbBlockBegin
  2
*D23
 70
     1
 10
0.0
 20
0.0
 30
0.0
  3
*D23
  1

  0
LINE
  5
F05
330
861
100
AcDbEntity
  8
AM_5
100
AcDbLine
 10
1878.145251111537
 20
762.3349308357583
 30
0.0
 11
1878.145251111537
 21
719.5984103439053
 31
0.0
  0
LINE
  5
F06
330
861
100
AcDbEntity
  8
AM_5
100
AcDbLine
 10
1904.585251111536
 20
761.1275040465569
 30
0.0
 11
1904.585251111536
 21
719.5984103439053
 31
0.0
  0
LINE
  5
F07
330
861
100
AcDbEntity
  8
AM_5
100
AcDbLine
 10
1883.145251111538
 20
721.5984103439053
 30
0.0
 11
1899.585251111536
 21
721.5984103439053
 31
0.0
  0
LINE
  5
F08
330
861
100
AcDbEntity
  8
AM_5
100
AcDbLine
 10
1904.585251111536
 20
721.5984103439053
 30
0.0
 11
1983.185251111536
 21
721.5984103439053
 31
0.0
  0
SOLID
  5
F09
330
861
100
AcDbEntity
  8
AM_5
100
AcDbTrace
 10
1883.145251111538
 20
722.4317436772387
 30
0.0
 11
1883.145251111538
 21
720.7650770105719
 31
0.0
 12
1878.145251111537
 22
721.5984103439053
 32
0.0
 13
1878.145251111537
 23
721.5984103439053
 33
0.0
  0
SOLID
  5
F0A
330
861
100
AcDbEntity
  8
AM_5
100
AcDbTrace
 10
1899.585251111536
 20
722.4317436772387
 30
0.0
 11
1899.585251111536
 21
720.7650770105719
 31
0.0
 12
1904.585251111536
 22
721.5984103439053
 32
0.0
 13
1904.585251111536
 23
721.5984103439053
 33
0.0
  0
MTEXT
  5
F0B
330
861
100
AcDbEntity
  8
AM_5
 62
     2
100
AcDbMText
 10
1946.385251111536
 20
726.0090705156851
 30
0.0
 40
6.0
 41
0.0
 46
0.0
 71
     5
 72
     1
  1
EN ISO 228-1  G3/4
 73
     1
 44
1.0
  0
POINT
  5
F0C
330
861
100
AcDbEntity
  8
DEFPOINTS
 62
     0
100
AcDbPoint
 10
1878.145251111537
 20
762.3349308357583
 30
0.0
  0
POINT
  5
F0D
330
861
100
AcDbEntity
  8
DEFPOINTS
 62
     0
100
AcDbPoint
 10
1904.585251111536
 20
761.1275040465569
 30
0.0
  0
POINT
  5
F0E
330
861
100
AcDbEntity
  8
DEFPOINTS
 62
     0
100
AcDbPoint
 10
1904.585251111536
 20
721.5984103439053
 30
0.0
  0
ENDBLK
  5
86C
330
861
100
AcDbEntity
  8
0
100
AcDbBlockEnd
  0
BLOCK
  5
8C9
330
8C2
100
AcDbEntity
  8
0
100
AcDbBlockBegin
  2
*D24
 70
     1
 10
0.0
 20
0.0
 30
0.0
  3
*D24
  1

  0
LINE
  5
E02
330
8C2
100
AcDbEntity
  8
AM_5
100
AcDbLine
 10
2486.668214962295
 20
1175.071011719026
 30
0.0
 11
2489.777943196572
 21
1178.986313790252
 31
0.0
  0
LINE
  5
E03
330
8C2
100
AcDbEntity
  8
AM_5
100
AcDbLine
 10
2489.777943196572
 20
1178.986313790252
 30
0.0
 11
2509.167892690233
 21
1178.986313790252
 31
0.0
  0
SOLID
  5
E04
330
8C2
100
AcDbEntity
  8
AM_5
100
AcDbTrace
 10
2486.015664617091
 20
1175.589299758072
 30
0.0
 11
2487.3207653075
 21
1174.55272367998
 31
0.0
 12
2483.558486728019
 22
1171.1557096478
 32
0.0
 13
2483.558486728019
 23
1171.1557096478
 33
0.0
  0
MTEXT
  5
E05
330
8C2
100
AcDbEntity
  8
AM_5
 62
     2
100
AcDbMText
 10
2500.972917943402
 20
1185.486313790253
 30
0.0
 40
7.0
 41
0.0
 46
0.0
 71
     5
 72
     1
  1
R4.5
 73
     1
 44
1.0
  0
POINT
  5
E06
330
8C2
100
AcDbEntity
  8
DEFPOINTS
 62
     0
100
AcDbPoint
 10
2483.558486728019
 20
1171.1557096478
 30
0.0
  0
POINT
  5
E07
330
8C2
100
AcDbEntity
  8
DEFPOINTS
 62
     0
100
AcDbPoint
 10
2480.759731317169
 20
1167.631937783695
 30
0.0
  0
ENDBLK
  5
8CA
330
8C2
100
AcDbEntity
  8
0
100
AcDbBlockEnd
  0
BLOCK
  5
8D2
330
8CB
100
AcDbEntity
  8
0
100
AcDbBlockBegin
  2
*D25
 70
     1
 10
0.0
 20
0.0
 30
0.0
  3
*D25
  1

  0
LINE
  5
E17
330
8CB
100
AcDbEntity
  8
AM_5
100
AcDbLine
 10
2492.409379269566
 20
1143.862561510194
 30
0.0
 11
2497.030933111425
 21
1141.573781352125
 31
0.0
  0
LINE
  5
E18
330
8CB
100
AcDbEntity
  8
AM_5
100
AcDbLine
 10
2497.030933111425
 20
1141.573781352125
 30
0.0
 11
2508.430933111426
 21
1141.573781352125
 31
0.0
  0
SOLID
  5
E19
330
8CB
100
AcDbEntity
  8
AM_5
100
AcDbTrace
 10
2492.779211081971
 20
1144.609333814834
 30
0.0
 11
2492.039547457162
 21
1143.115789205553
 31
0.0
 12
2487.928745441722
 22
1146.081552384617
 32
0.0
 13
2487.928745441722
 23
1146.081552384617
 33
0.0
  0
MTEXT
  5
E1A
330
8CB
100
AcDbEntity
  8
AM_5
 62
     2
100
AcDbMText
 10
2504.230933111425
 20
1148.073781352125
 30
0.0
 40
7.0
 41
0.0
 46
0.0
 71
     5
 72
     1
  1
R8
 73
     1
 44
1.0
  0
POINT
  5
E1B
330
8CB
100
AcDbEntity
  8
DEFPOINTS
 62
     0
100
AcDbPoint
 10
2487.928745441722
 20
1146.081552384617
 30
0.0
  0
POINT
  5
E1C
330
8CB
100
AcDbEntity
  8
DEFPOINTS
 62
     0
100
AcDbPoint
 10
2480.759731317169
 20
1149.631937783695
 30
0.0
  0
ENDBLK
  5
8D3
330
8CB
100
AcDbEntity
  8
0
100
AcDbBlockEnd
  0
BLOCK
  5
8DE
330
8D4
100
AcDbEntity
  8
0
100
AcDbBlockBegin
  2
*D26
 70
     1
 10
0.0
 20
0.0
 30
0.0
  3
*D26
  1

  0
LINE
  5
E0E
330
8D4
100
AcDbEntity
  8
AM_5
100
AcDbLine
 10
2478.759731317168
 20
1149.631937783695
 30
0.0
 11
2454.759731317167
 21
1149.631937783695
 31
0.0
  0
LINE
  5
E0F
330
8D4
100
AcDbEntity
  8
AM_5
100
AcDbLine
 10
2478.759731317168
 20
1167.631937783695
 30
0.0
 11
2454.759731317167
 21
1167.631937783695
 31
0.0
  0
LINE
  5
E10
330
8D4
100
AcDbEntity
  8
AM_5
100
AcDbLine
 10
2456.759731317167
 20
1154.631937783695
 30
0.0
 11
2456.759731317167
 21
1162.631937783695
 31
0.0
  0
SOLID
  5
E11
330
8D4
100
AcDbEntity
  8
AM_5
100
AcDbTrace
 10
2455.926397983834
 20
1154.631937783695
 30
0.0
 11
2457.593064650501
 21
1154.631937783695
 31
0.0
 12
2456.759731317167
 22
1149.631937783695
 32
0.0
 13
2456.759731317167
 23
1149.631937783695
 33
0.0
  0
SOLID
  5
E12
330
8D4
100
AcDbEntity
  8
AM_5
100
AcDbTrace
 10
2455.926397983834
 20
1162.631937783695
 30
0.0
 11
2457.593064650501
 21
1162.631937783695
 31
0.0
 12
2456.759731317167
 22
1167.631937783695
 32
0.0
 13
2456.759731317167
 23
1167.631937783695
 33
0.0
  0
MTEXT
  5
E13
330
8D4
100
AcDbEntity
  8
AM_5
 62
     2
100
AcDbMText
 10
2450.259731317167
 20
1158.631937783695
 30
0.0
 40
7.0
 41
0.0
 46
0.0
 71
     5
 72
     1
  1
18
 11
0.0000000000000001
 21
1.0
 31
0.0
 73
     1
 44
1.0
  0
POINT
  5
E14
330
8D4
100
AcDbEntity
  8
DEFPOINTS
 62
     0
100
AcDbPoint
 10
2480.759731317168
 20
1149.631937783695
 30
0.0
  0
POINT
  5
E15
330
8D4
100
AcDbEntity
  8
DEFPOINTS
 62
     0
100
AcDbPoint
 10
2480.759731317168
 20
1167.631937783695
 30
0.0
  0
POINT
  5
E16
330
8D4
100
AcDbEntity
  8
DEFPOINTS
 62
     0
100
AcDbPoint
 10
2456.759731317167
 20
1167.631937783695
 30
0.0
  0
ENDBLK
  5
8DF
330
8D4
100
AcDbEntity
  8
0
100
AcDbBlockEnd
  0
BLOCK
  5
F37
330
F32
100
AcDbEntity
  8
0
100
AcDbBlockBegin
  2
*S28
 70
     1
 10
0.0
 20
0.0
 30
0.0
  3
*S28
  1

  0
LINE
  5
F33
330
F32
100
AcDbEntity
  8
AM_5
 62
     3
100
AcDbLine
 10
2239.640943319146
 20
1204.226662198192
 30
0.0
 11
2409.040943319146
 21
1204.226662198192
 31
0.0
  0
LINE
  5
F34
330
F32
100
AcDbEntity
  8
AM_5
 62
     3
100
AcDbLine
 10
2409.040943319146
 20
1204.226662198192
 30
0.0
 11
2456.857696535783
 21
1145.687303200685
 31
0.0
  0
TRACE
  5
F35
330
F32
100
AcDbEntity
  8
AM_5
  6
Continuous
 62
     3
100
AcDbTrace
 10
2455.787107214698
 20
1144.812812836606
 30
0.0
 11
2457.928285856868
 21
1146.561793564764
 31
0.0
 12
2463.500110344912
 22
1137.555369925731
 32
0.0
 13
2463.500110344912
 23
1137.555369925731
 33
0.0
  0
MTEXT
  5
F36
330
F32
100
AcDbEntity
  8
AM_5
 62
     2
100
AcDbMText
 10
2239.640943319146
 20
1207.726662198191
 30
0.0
 40
10.5
 41
0.0
 46
0.0
 71
     7
 72
     5
  1
Langloch für Wandmontage
  7
ACDINTS
 73
     1
 44
1.0
  0
ENDBLK
  5
F38
330
F32
100
AcDbEntity
  8
0
100
AcDbBlockEnd
  0
ENDSEC
  0
SECTION
  2
ENTITIES
  0
INSERT
  5
5BB
330
1F
100
AcDbEntity
  8
AM_5
100
AcDbBlockReference
  2
*S28
 10
0.0
 20
0.0
 30
0.0
  0
DIMENSION
  5
5BC
330
1F
100
AcDbEntity
  8
AM_5
100
AcDbDimension
  2
*D15
 10
2494.50973131717
 20
1032.076851361112
 30
0.0
 11
2321.786571283659
 21
1032.076851361112
 31
0.0
 70
   160
  1
(<>)
 71
     5
 42
302.0
 73
     0
 74
     0
 75
     0
  3
AM_DIN
100
AcDbAlignedDimension
 13
2192.50973131717
 23
1128.880040516379
 33
0.0
 14
2494.50973131717
 24
1128.880040516379
 34
0.0
100
AcDbRotatedDimension
1001
ACAD
1000
DSTYLE
1002
{
1070
    40
1040
2.0
1002
}
  0
DIMENSION
  5
5BD
330
1F
100
AcDbEntity
  8
AM_5
100
AcDbDimension
  2
*D16
 10
2480.759731317169
 20
1051.639484511531
 30
0.0
 11
2374.692255309783
 21
1051.639484511531
 31
0.0
 70
   160
  1
<> {}{\C2;%%p2}
 71
     5
 42
274.4999999999973
 73
     0
 74
     0
 75
     0
  3
AM_DIN
100
AcDbAlignedDimension
 13
2206.259731317171
 23
1149.631937783695
 33
0.0
 14
2480.759731317169
 24
1149.6319301543
 34
0.0
100
AcDbRotatedDimension
1001
GENIUS_GENDTOL_13
1000
TolPm
1000

1000
{$3%%p$P}
1040
260.57
1001
ACAD
1000
DSTYLE
1002
{
1070
    40
1040
2.0
1070
    47
1040
2.0
1070
    48
1040
2.0
1002
}
  0
LINE
  5
5BE
330
1F
100
AcDbEntity
  8
AM_3
100
AcDbLine
 10
2354.641946659634
 20
955.8567798393246
 30
0.0
 11
2346.948961693299
 21
955.8567798393246
 31
0.0
  0
LINE
  5
5BF
330
1F
100
AcDbEntity
  8
AM_3
100
AcDbLine
 10
2346.770999939504
 20
956.4192542088562
 30
0.0
 11
2354.641946659634
 21
956.4192542088553
 31
0.0
  0
LINE
  5
5C0
330
1F
100
AcDbEntity
  8
AM_3
100
AcDbLine
 10
2346.737264146346
 20
956.4968047426013
 30
0.0
 11
2352.304004729171
 21
962.063545325425
 31
0.0
  0
LINE
  5
5C1
330
1F
100
AcDbEntity
  8
AM_3
100
AcDbLine
 10
2351.912469113125
 20
962.4550809414699
 30
0.0
 11
2346.455554145705
 21
956.9981659740491
 31
0.0
  0
LINE
  5
5C2
330
1F
100
AcDbEntity
  8
AM_3
100
AcDbLine
 10
2350.933967217142
 20
963.4335828374519
 30
0.0
 11
2345.447932357974
 21
957.9475479782844
 31
0.0
  0
LINE
  5
5C3
330
1F
100
AcDbEntity
  8
AM_3
100
AcDbLine
 10
2344.891946659634
 20
958.187021161822
 30
0.0
 11
2350.536237776203
 21
963.8313122783916
 31
0.0
  0
ARC
  5
5C4
330
1F
100
AcDbEntity
  8
AM_3
100
AcDbCircle
 10
2343.553803490163
 20
955.2680917698531
 30
0.0
 40
11.06378007031087
100
AcDbArc
 50
359.4489818018907
 51
180.5510181981093
  0
ARC
  5
5C5
330
1F
100
AcDbEntity
  8
AM_3
100
AcDbCircle
 10
2343.553803490163
 20
955.2680917698531
 30
0.0
 40
12.13045274550452
100
AcDbArc
 50
359.4974360408545
 51
180.5025639591455
  0
ARC
  5
5C6
330
1F
100
AcDbEntity
  8
AM_3
100
AcDbCircle
 10
2343.553803490163
 20
955.2680917698531
 30
0.0
 40
13.22
100
AcDbArc
 50
359.5388565806804
 51
180.4611434193196
  0
LINE
  5
5C7
330
1F
100
AcDbEntity
  8
AM_3
100
AcDbLine
 10
2343.649508736403
 20
955.3014695513207
 30
0.0
 11
2351.357794619838
 21
963.0097554347562
 31
0.0
  0
LINE
  5
5C8
330
1F
100
AcDbEntity
  8
AM_7
100
AcDbLine
 10
2160.509731317171
 20
955.1768162856246
 30
0.0
 11
2526.50973131717
 21
955.1768162856246
 31
0.0
1001
GENIUS_GENODEF_13
1002
{
1000
HIER
1070
     0
1002
}
1002
{
1000
MANEDIT
1070
     0
1002
}
1002
{
1000
NOSEL
1070
     0
1002
}
1002
{
1000
BEHIND
1070
     0
1002
}
1002
{
1000
OTHER
1070
     0
1002
}
1002
{
1000
REACTOR
1002
}
1001
GENIUS_GENOBJ-N-CEN_13
1002
{
1000
OWNER
1000
GEN
1002
}
  0
LINE
  5
5C9
330
1F
100
AcDbEntity
  8
AM_7
100
AcDbLine
 10
2343.509731317169
 20
1137.176816285625
 30
0.0
 11
2343.774162002099
 21
955.1616921320869
 31
0.0
  0
LINE
  5
5CA
330
1F
100
AcDbEntity
  8
AM_3
100
AcDbLine
 10
2344.891946659634
 20
958.187021161822
 30
0.0
 11
2344.891946659634
 21
966.1692542088562
 31
0.0
  0
LINE
  5
5CB
330
1F
100
AcDbEntity
  8
AM_3
100
AcDbLine
 10
2344.338231681271
 20
966.1692542088562
 30
0.0
 11
2344.338231681271
 21
958.3623679040197
 31
0.0
  0
LINE
  5
5CC
330
1F
100
AcDbEntity
  8
AM_3
100
AcDbLine
 10
2342.954421029166
 20
966.1692542088562
 30
0.0
 11
2342.954421029166
 21
958.3066125980598
 31
0.0
  0
LINE
  5
5CD
330
1F
100
AcDbEntity
  8
AM_3
100
AcDbLine
 10
2342.391946659634
 20
958.187021161822
 30
0.0
 11
2342.391946659634
 21
966.1692542088562
 31
0.0
  0
LINE
  5
5CE
330
1F
100
AcDbEntity
  8
AM_3
100
AcDbLine
 10
2343.553803490163
 20
955.2680917698531
 30
0.0
 11
2343.553803490163
 21
975.2680917698535
 31
0.0
  0
LINE
  5
5CF
330
1F
100
AcDbEntity
  8
AM_3
100
AcDbLine
 10
2336.356119927021
 20
963.4397766623465
 30
0.0
 11
2341.946677583224
 21
957.8492190061428
 31
0.0
  0
LINE
  5
5D0
330
1F
100
AcDbEntity
  8
AM_3
100
AcDbLine
 10
2335.377618031038
 20
962.4612747663645
 30
0.0
 11
2340.993996105813
 21
956.8448966915898
 31
0.0
  0
LINE
  5
5D1
330
1F
100
AcDbEntity
  8
AM_3
100
AcDbLine
 10
2340.624179706668
 20
956.4192542088562
 30
0.0
 11
2334.9798885901
 21
962.063545325425
 31
0.0
  0
LINE
  5
5D2
330
1F
100
AcDbEntity
  8
AM_3
100
AcDbLine
 10
2342.391946659634
 20
958.187021161822
 30
0.0
 11
2336.747655543065
 21
963.8313122783916
 31
0.0
  0
LINE
  5
5D3
330
1F
100
AcDbEntity
  8
AM_3
100
AcDbLine
 10
2343.509731317169
 20
955.1768162856246
 30
0.0
 11
2335.801445433735
 21
962.8851021690602
 31
0.0
  0
LINE
  5
5D4
330
1F
100
AcDbEntity
  8
AM_3
100
AcDbLine
 10
2340.624179706668
 20
956.4192542088562
 30
0.0
 11
2332.641946659634
 21
956.4192542088553
 31
0.0
  0
LINE
  5
5D5
330
1F
100
AcDbEntity
  8
AM_3
100
AcDbLine
 10
2332.641946659634
 20
955.865539230494
 30
0.0
 11
2340.601292754547
 21
955.865539230494
 31
0.0
  0
LINE
  5
5D6
330
1F
100
AcDbEntity
  8
AM_3
100
AcDbLine
 10
2332.641946659635
 20
955.1616921320869
 30
0.0
 11
2332.641946659634
 21
956.4192542088562
 31
0.0
  0
ARC
  5
5D7
330
1F
100
AcDbEntity
  8
AM_3
100
AcDbCircle
 10
2343.774162002099
 20
955.1616921320869
 30
0.0
 40
3.25
100
AcDbArc
 50
0.0
 51
180.0
  0
LINE
  5
5D8
330
1F
100
AcDbEntity
  8
AM_3
100
AcDbLine
 10
2334.9798885901
 20
962.063545325425
 30
0.0
 11
2336.747655543065
 21
963.8313122783916
 31
0.0
  0
LINE
  5
5D9
330
1F
100
AcDbEntity
  8
AM_3
100
AcDbLine
 10
2342.391946659634
 20
966.1692542088562
 30
0.0
 11
2344.891946659634
 21
966.1692542088562
 31
0.0
  0
ARC
  5
5DA
330
1F
100
AcDbEntity
  8
AM_0
100
AcDbCircle
 10
2343.509731317169
 20
955.1768162856246
 30
0.0
 40
177.0
100
AcDbArc
 50
0.0
 51
180.0
  0
LINE
  5
5DD
330
1F
100
AcDbEntity
  8
AM_0
100
AcDbLine
 10
2272.50973131717
 20
1137.176816285625
 30
0.0
 11
2192.50973131717
 21
1137.176816285625
 31
0.0
  0
LINE
  5
5DE
330
1F
100
AcDbEntity
  8
AM_3
100
AcDbLine
 10
2272.50973131717
 20
1135.676816285625
 30
0.0
 11
2192.50973131717
 21
1135.676816285625
 31
0.0
  0
LINE
  5
5E0
330
1F
100
AcDbEntity
  8
AM_0
100
AcDbLine
 10
2192.50973131717
 20
1128.501486876273
 30
0.0
 11
2230.012922259765
 21
1090.998295933678
 31
0.0
  0
LINE
  5
5E1
330
1F
100
AcDbEntity
  8
AM_0
100
AcDbLine
 10
2192.50973131717
 20
1137.176816285625
 30
0.0
 11
2192.50973131717
 21
1128.501486876273
 31
0.0
  0
LINE
  5
5E2
330
1F
100
AcDbEntity
  8
AM_0
100
AcDbLine
 10
2272.50973131717
 20
1117.312561881715
 30
0.0
 11
2272.50973131717
 21
1137.176816285625
 31
0.0
  0
LINE
  5
5E3
330
1F
100
AcDbEntity
  8
AM_3
100
AcDbLine
 10
2354.641946659634
 20
956.4192542088562
 30
0.0
 11
2354.641946659635
 21
955.1616921320869
 31
0.0
  0
LINE
  5
5E4
330
1F
100
AcDbEntity
  8
AM_3
100
AcDbLine
 10
2350.536237776203
 20
963.8313122783916
 30
0.0
 11
2352.304004729171
 21
962.063545325425
 31
0.0
  0
LINE
  5
5E5
330
1F
100
AcDbEntity
  8
AM_0
100
AcDbLine
 10
2414.50973131717
 20
1117.312561881715
 30
0.0
 11
2414.50973131717
 21
1137.176816285625
 31
0.0
  0
LINE
  5
5E6
330
1F
100
AcDbEntity
  8
AM_0
100
AcDbLine
 10
2494.50973131717
 20
1137.176816285625
 30
0.0
 11
2494.50973131717
 21
1128.501486876273
 31
0.0
  0
LINE
  5
5E7
330
1F
100
AcDbEntity
  8
AM_0
100
AcDbLine
 10
2494.50973131717
 20
1128.501486876273
 30
0.0
 11
2457.006540374575
 21
1090.998295933678
 31
0.0
  0
LINE
  5
5E8
330
1F
100
AcDbEntity
  8
AM_7
  6
AM_DIN_G_W050x2
100
AcDbLine
 10
2479.56260288982
 20
1137.176816285625
 30
0.0
 11
2494.50973131717
 21
1137.176816285625
 31
0.0
  0
LINE
  5
5E9
330
1F
100
AcDbEntity
  8
AM_3
100
AcDbLine
 10
2414.50973131717
 20
1135.676816285625
 30
0.0
 11
2494.50973131717
 21
1135.676816285625
 31
0.0
  0
LINE
  5
5EA
330
1F
100
AcDbEntity
  8
AM_0
100
AcDbLine
 10
2414.50973131717
 20
1137.176816285625
 30
0.0
 11
2494.50973131717
 21
1137.176816285625
 31
0.0
  0
ARC
  5
5EB
330
1F
100
AcDbEntity
  8
AM_0
100
AcDbCircle
 10
2343.509731317169
 20
955.1768162856246
 30
0.0
 40
6.096064167721124
100
AcDbArc
 50
0.0
 51
180.0
  0
ARC
  5
5EC
330
1F
100
AcDbEntity
  8
AM_0
100
AcDbCircle
 10
2343.509731317169
 20
955.1768162856246
 30
0.0
 40
20.79729324586606
100
AcDbArc
 50
0.0
 51
180.0
  0
LINE
  5
5EE
330
1F
100
AcDbEntity
  8
AM_0
100
AcDbLine
 10
1714.365251111502
 20
989.4133348067937
 30
0.0
 11
1715.608615466024
 21
989.4133348067931
 31
0.0
  0
LINE
  5
5F0
330
1F
100
AcDbEntity
  8
AM_0
100
AcDbLine
 10
2065.8652511115
 20
989.2983249847558
 30
0.0
 11
2065.865251111501
 21
983.0662741771872
 31
0.0
1001
GENIUS_GENODEF_13
1002
{
1000
HIER
1070
     0
1002
}
1002
{
1000
MANEDIT
1070
     0
1002
}
1002
{
1000
NOSEL
1070
     0
1002
}
1002
{
1000
BEHIND
1070
     0
1002
}
1002
{
1000
REACTOR
1002
}
1001
GENIUS_GENOBJ-N-CEN_13
1002
{
1000
OWNER
1000
GEN
1002
}
  0
LINE
  5
5F1
330
1F
100
AcDbEntity
  8
AM_0
100
AcDbLine
 10
2066.166693952986
 20
990.4233249847559
 30
0.0
 11
2067.115251111501
 21
992.0662741771867
 31
0.0
  0
ARC
  5
5F2
330
1F
100
AcDbEntity
  8
AM_0
100
AcDbCircle
 10
2067.115251111501
 20
992.0662741771867
 30
0.0
 40
1.25
100
AcDbArc
 50
329.9999999999906
 51
0.0
1001
GENIUS_GENODEF_13
1002
{
1000
HIER
1070
     0
1002
}
1002
{
1000
MANEDIT
1070
     0
1002
}
1002
{
1000
NOSEL
1070
     0
1002
}
1002
{
1000
BEHIND
1070
     0
1002
}
1002
{
1000
REACTOR
1002
}
1001
GENIUS_GENOBJ-N-FIL_13
1002
{
1000
OWNER
1000
GEN
1002
}
  0
ARC
  5
5F3
330
1F
100
AcDbEntity
  8
AM_0
100
AcDbCircle
 10
2068.115251111501
 20
989.2983249847558
 30
0.0
 40
2.25
100
AcDbArc
 50
149.9999999999905
 51
180.0
1001
GENIUS_GENODEF_13
1002
{
1000
HIER
1070
     0
1002
}
1002
{
1000
MANEDIT
1070
     0
1002
}
1002
{
1000
NOSEL
1070
     0
1002
}
1002
{
1000
BEHIND
1070
     0
1002
}
1002
{
1000
REACTOR
1002
}
1001
GENIUS_GENOBJ-N-FIL_13
1002
{
1000
OWNER
1000
GEN
1002
}
  0
ARC
  5
5F4
330
1F
100
AcDbEntity
  8
AM_0
100
AcDbCircle
 10
2068.115251111501
 20
989.2983249847558
 30
0.0
 40
1.0
100
AcDbArc
 50
149.9999999999905
 51
180.0
1001
GENIUS_GENODEF_13
1002
{
1000
HIER
1070
     0
1002
}
1002
{
1000
MANEDIT
1070
     0
1002
}
1002
{
1000
NOSEL
1070
     0
1002
}
1002
{
1000
BEHIND
1070
     0
1002
}
1002
{
1000
REACTOR
1002
}
1001
GENIUS_GENOBJ-N-FIL_13
1002
{
1000
OWNER
1000
GEN
1002
}
  0
LINE
  5
5F5
330
1F
100
AcDbEntity
  8
AM_0
100
AcDbLine
 10
2067.249225707717
 20
989.7983249847557
 30
0.0
 11
2068.197782866231
 21
991.4412741771867
 31
0.0
  0
LINE
  5
5F6
330
1F
100
AcDbEntity
  8
AM_0
100
AcDbLine
 10
2067.115251111501
 20
989.4133348067937
 30
0.0
 11
2067.115251111502
 21
880.8724286622705
 31
0.0
1001
GENIUS_GENODEF_13
1002
{
1000
HIER
1070
     0
1002
}
1002
{
1000
MANEDIT
1070
     0
1002
}
1002
{
1000
NOSEL
1070
     0
1002
}
1002
{
1000
BEHIND
1070
     0
1002
}
1002
{
1000
REACTOR
1002
}
1001
GENIUS_GENOBJ-N-CEN_13
1002
{
1000
OWNER
1000
GEN
1002
}
  0
LINE
  5
5F7
330
1F
100
AcDbEntity
  8
AM_0
100
AcDbLine
 10
2068.365251111501
 20
989.4133348067937
 30
0.0
 11
2068.365251111503
 21
880.8724286622705
 31
0.0
1001
GENIUS_GENODEF_13
1002
{
1000
HIER
1070
     0
1002
}
1002
{
1000
MANEDIT
1070
     0
1002
}
1002
{
1000
NOSEL
1070
     0
1002
}
1002
{
1000
BEHIND
1070
     0
1002
}
1002
{
1000
REACTOR
1002
}
1001
GENIUS_GENOBJ-N-CEN_13
1002
{
1000
OWNER
1000
GEN
1002
}
  0
ARC
  5
5F8
330
1F
100
AcDbEntity
  8
AM_0
100
AcDbCircle
 10
1971.3652511115
 20
943.7259984433737
 30
0.0
 40
18.0
100
AcDbArc
 50
0.0
 51
59.99999999999946
1001
GENIUS_GENODEF_13
1002
{
1000
HIER
1070
     0
1002
}
1002
{
1000
MANEDIT
1070
     0
1002
}
1002
{
1000
NOSEL
1070
     0
1002
}
1002
{
1000
BEHIND
1070
     0
1002
}
1002
{
1000
OTHER
1070
     0
1002
}
1002
{
1000
REACTOR
1002
}
1001
GENIUS_GENOBJ-N-FIL_13
1002
{
1000
OWNER
1000
GEN
1002
}
  0
ARC
  5
5F9
330
1F
100
AcDbEntity
  8
AM_0
100
AcDbCircle
 10
1971.365251111499
 20
943.7259984433737
 30
0.0
 40
20.0
100
AcDbArc
 50
0.0
 51
59.99999999999946
1001
GENIUS_GENOBJ-N-FIL_13
1002
{
1000
OWNER
1000
GEN
1002
}
1001
GENIUS_GENODEF_13
1002
{
1000
HIER
1070
     0
1002
}
1002
{
1000
MANEDIT
1070
     0
1002
}
1002
{
1000
NOSEL
1070
     0
1002
}
1002
{
1000
BEHIND
1070
     0
1002
}
1002
{
1000
OTHER
1070
     0
1002
}
1002
{
1000
REACTOR
1002
}
  0
LINE
  5
5FA
330
1F
100
AcDbEntity
  8
AM_0
100
AcDbLine
 10
2067.115251111507
 20
1092.346992676731
 30
0.0
 11
2067.115251111501
 21
992.0662741771867
 31
0.0
1001
GENIUS_GENODEF_13
1002
{
1000
HIER
1070
     0
1002
}
1002
{
1000
MANEDIT
1070
     0
1002
}
1002
{
1000
NOSEL
1070
     0
1002
}
1002
{
1000
BEHIND
1070
     0
1002
}
1002
{
1000
REACTOR
1002
}
1001
GENIUS_GENOBJ-N-CEN_13
1002
{
1000
OWNER
1000
GEN
1002
}
  0
LINE
  5
5FB
330
1F
100
AcDbEntity
  8
AM_0
100
AcDbLine
 10
2068.365251111507
 20
1092.346992676731
 30
0.0
 11
2068.365251111501
 21
992.0662741771867
 31
0.0
1001
GENIUS_GENODEF_13
1002
{
1000
HIER
1070
     0
1002
}
1002
{
1000
MANEDIT
1070
     0
1002
}
1002
{
1000
NOSEL
1070
     0
1002
}
1002
{
1000
BEHIND
1070
     0
1002
}
1002
{
1000
REACTOR
1002
}
1001
GENIUS_GENOBJ-N-CEN_13
1002
{
1000
OWNER
1000
GEN
1002
}
  0
LINE
  5
5FC
330
1F
100
AcDbEntity
  8
AM_3
100
AcDbLine
 10
2042.16513679506
 20
1051.913334806793
 30
0.0
 11
2042.16513679506
 21
1006.913334806794
 31
0.0
  0
ARC
  5
5FE
330
1F
100
AcDbEntity
  8
AM_0
100
AcDbCircle
 10
2012.465251111504
 20
1092.346992676731
 30
0.0
 40
54.64999999999999
100
AcDbArc
 50
0.0
 51
57.91746383470472
1001
GENIUS_GENODEF_13
1002
{
1000
HIER
1070
     0
1002
}
1002
{
1000
MANEDIT
1070
     0
1002
}
1002
{
1000
NOSEL
1070
     0
1002
}
1002
{
1000
BEHIND
1070
     0
1002
}
1002
{
1000
REACTOR
1002
}
1001
GENIUS_GENOBJ-N-FIL_13
1002
{
1000
OWNER
1000
GEN
1002
}
  0
ARC
  5
5FF
330
1F
100
AcDbEntity
  8
AM_0
100
AcDbCircle
 10
2012.465251111504
 20
1092.346992676731
 30
0.0
 40
55.89999999999999
100
AcDbArc
 50
0.0
 51
57.91746383470472
1001
GENIUS_GENODEF_13
1002
{
1000
HIER
1070
     0
1002
}
1002
{
1000
MANEDIT
1070
     0
1002
}
1002
{
1000
NOSEL
1070
     0
1002
}
1002
{
1000
BEHIND
1070
     0
1002
}
1002
{
1000
REACTOR
1002
}
1001
GENIUS_GENOBJ-N-FIL_13
1002
{
1000
OWNER
1000
GEN
1002
}
  0
POINT
  5
601
330
1F
100
AcDbEntity
  8
DEFPOINTS
  6
ByBlock
 62
     0
100
AcDbPoint
 10
1908.329681327754
 20
1182.476191553813
 30
0.0
  0
ARC
  5
602
330
1F
100
AcDbEntity
  8
AM_0
100
AcDbCircle
 10
1910.007843818991
 20
1184.066274177187
 30
0.0
 40
1.0
100
AcDbArc
 50
210.0000000000094
 51
270.0
  0
ARC
  5
603
330
1F
100
AcDbEntity
  8
AM_0
100
AcDbCircle
 10
1911.162544357371
 20
1184.066274177187
 30
0.0
 40
1.0
100
AcDbArc
 50
270.0
 51
30.00000000000945
  0
POINT
  5
604
330
1F
100
AcDbEntity
  8
DEFPOINTS
  6
ByBlock
 62
     0
100
AcDbPoint
 10
1912.446063203663
 20
1184.544783427143
 30
0.0
  0
LINE
  5
605
330
1F
100
AcDbEntity
  8
AM_0
100
AcDbLine
 10
1897.660608453116
 20
1192.765749191199
 30
0.0
 11
1897.660608453116
 21
1208.732870112948
 31
0.0
  0
LINE
  5
606
330
1F
100
AcDbEntity
  8
AM_0
100
AcDbLine
 10
1895.848571620395
 20
1192.765749191199
 30
0.0
 11
1898.069706871955
 21
1188.918630085014
 31
0.0
  0
LINE
  5
607
330
1F
100
AcDbEntity
  8
AM_0
100
AcDbLine
 10
1895.848571620395
 20
1192.765749191199
 30
0.0
 11
1897.660608453116
 21
1192.765749191199
 31
0.0
  0
LINE
  5
608
330
1F
100
AcDbEntity
  8
AM_0
100
AcDbLine
 10
1899.935732275739
 20
1195.779632302032
 30
0.0
 11
1899.935732275739
 21
1189.418630085014
 31
0.0
  0
ARC
  5
609
330
1F
100
AcDbEntity
  8
AM_0
100
AcDbCircle
 10
1898.935732275739
 20
1189.418630085014
 30
0.0
 40
1.0
100
AcDbArc
 50
210.0000000000094
 51
0.0
  0
ARC
  5
60A
330
1F
100
AcDbEntity
  8
AM_0
100
AcDbCircle
 10
1900.935732275739
 20
1195.779632302032
 30
0.0
 40
1.0
100
AcDbArc
 50
30.00000000000945
 51
180.0
  0
ARC
  5
60B
330
1F
100
AcDbEntity
  8
AM_0
100
AcDbCircle
 10
1896.660608453115
 20
1205.780760474503
 30
0.0
 40
1.0
100
AcDbArc
 50
0.0
 51
90.0
  0
LINE
  5
60C
330
1F
100
AcDbEntity
  8
AM_0
100
AcDbLine
 10
1896.660608453115
 20
1206.780760474503
 30
0.0
 11
1896.660608453115
 21
1209.342356434014
 31
0.0
  0
LINE
  5
60D
330
1F
100
AcDbEntity
  8
AM_0
100
AcDbLine
 10
1886.881930602613
 20
1192.765749191199
 30
0.0
 11
1884.660795351053
 21
1188.918630085014
 31
0.0
  0
LINE
  5
60E
330
1F
100
AcDbEntity
  8
AM_0
100
AcDbLine
 10
1885.069893769892
 20
1192.765749191199
 30
0.0
 11
1886.881930602613
 21
1192.765749191199
 31
0.0
  0
LINE
  5
60F
330
1F
100
AcDbEntity
  8
AM_0
100
AcDbLine
 10
1885.069893769892
 20
1196.378352356086
 30
0.0
 11
1887.496837717437
 21
1196.378352356086
 31
0.0
  0
ARC
  5
610
330
1F
100
AcDbEntity
  8
AM_0
100
AcDbCircle
 10
1886.069893769892
 20
1205.780760474503
 30
0.0
 40
1.0
100
AcDbArc
 50
90.0
 51
180.0
  0
LINE
  5
611
330
1F
100
AcDbEntity
  8
AM_0
100
AcDbLine
 10
1885.069893769892
 20
1192.765749191199
 30
0.0
 11
1885.069893769892
 21
1208.732870112948
 31
0.0
  0
LINE
  5
612
330
1F
100
AcDbEntity
  8
AM_4
100
AcDbLine
 10
1892.495034049472
 20
1201.254336265186
 30
0.0
 11
1892.495034049472
 21
1195.254336265186
 31
0.0
  0
LINE
  5
613
330
1F
100
AcDbEntity
  8
AM_4
100
AcDbLine
 10
1893.406844581462
 20
1201.254336265186
 30
0.0
 11
1893.406844581462
 21
1195.254336265186
 31
0.0
  0
LINE
  5
614
330
1F
100
AcDbEntity
  8
AM_4
100
AcDbLine
 10
1894.318655113452
 20
1201.254336265186
 30
0.0
 11
1894.318655113452
 21
1195.254336265186
 31
0.0
  0
LINE
  5
615
330
1F
100
AcDbEntity
  8
AM_4
100
AcDbLine
 10
1891.400861411084
 20
1201.254336265186
 30
0.0
 11
1891.400861411084
 21
1195.254336265186
 31
0.0
  0
LINE
  5
616
330
1F
100
AcDbEntity
  8
AM_4
100
AcDbLine
 10
1890.306688772696
 20
1201.254336265186
 30
0.0
 11
1890.306688772696
 21
1195.254336265186
 31
0.0
  0
LINE
  5
617
330
1F
100
AcDbEntity
  8
AM_4
100
AcDbLine
 10
1889.394878240707
 20
1201.254336265186
 30
0.0
 11
1889.394878240707
 21
1195.254336265186
 31
0.0
  0
LINE
  5
618
330
1F
100
AcDbEntity
  8
AM_4
100
AcDbLine
 10
1888.483067708716
 20
1201.254336265186
 30
0.0
 11
1888.483067708716
 21
1195.254336265186
 31
0.0
  0
LINE
  5
619
330
1F
100
AcDbEntity
  8
AM_0
100
AcDbLine
 10
1887.400861411084
 20
1195.008967335271
 30
0.0
 11
1895.400861411084
 21
1195.008967335271
 31
0.0
  0
LINE
  5
61A
330
1F
100
AcDbEntity
  8
AM_0
100
AcDbLine
 10
1892.91863508269
 20
1206.780760474503
 30
0.0
 11
1892.91863508269
 21
1201.254336265186
 31
0.0
  0
LINE
  5
61B
330
1F
100
AcDbEntity
  8
AM_0
100
AcDbLine
 10
1889.811867140319
 20
1206.780760474503
 30
0.0
 11
1889.811867140319
 21
1201.254336265186
 31
0.0
  0
LINE
  5
61C
330
1F
100
AcDbEntity
  8
AM_0
100
AcDbLine
 10
1887.400861411084
 20
1201.254336265186
 30
0.0
 11
1895.400861411084
 21
1201.254336265186
 31
0.0
  0
LINE
  5
61D
330
1F
100
AcDbEntity
  8
AM_0
100
AcDbLine
 10
1887.994411879234
 20
1209.797499066675
 30
0.0
 11
1894.736090343774
 21
1209.797499066675
 31
0.0
  0
LINE
  5
61E
330
1F
100
AcDbEntity
  8
AM_0
100
AcDbLine
 10
1886.069893769892
 20
1206.780760474503
 30
0.0
 11
1896.660608453115
 21
1206.780760474503
 31
0.0
  0
LINE
  5
61F
330
1F
100
AcDbEntity
  8
AM_0
100
AcDbLine
 10
1886.069893769892
 20
1206.780760474503
 30
0.0
 11
1886.069893769892
 21
1209.342356434014
 31
0.0
  0
LINE
  5
620
330
1F
100
AcDbEntity
  8
AM_0
100
AcDbLine
 10
1897.660608453116
 20
1196.378352356086
 30
0.0
 11
1895.400861411084
 21
1196.378352356086
 31
0.0
  0
ARC
  5
621
330
1F
100
AcDbEntity
  8
AM_0
100
AcDbCircle
 10
1894.576316844309
 20
1204.797499066675
 30
0.0
 40
5.0
100
AcDbArc
 50
28.58808396743745
 51
90.0
  0
HATCH
  5
622
330
1F
100
AcDbEntity
  8
AM_8
100
AcDbHatch
 10
0.0
 20
0.0
 30
0.0
210
0.0
220
0.0
230
1.0
  2
_U
 70
     0
 71
     0
 91
        1
 92
        1
 93
        6
 72
     2
 10
1894.57631684431
 20
1204.797499066674
 40
5.000000000000229
 50
65.36360151377627
 51
90.0000000000104
 73
     1
 72
     1
 10
1894.576316844309
 20
1209.797499066675
 11
1888.154185378699
 21
1209.797499066675
 72
     2
 10
1888.154185378699
 20
1204.797499066675
 40
5.0
 50
90.00000000000031
 51
114.6363984862367
 73
     1
 72
     1
 10
1886.069893769892
 20
1209.342356434014
 11
1886.069893769892
 21
1206.780760474503
 72
     1
 10
1886.069893769892
 20
1206.780760474503
 11
1896.660608453115
 21
1206.780760474503
 72
     1
 10
1896.660608453115
 20
1206.780760474503
 11
1896.660608453115
 21
1209.342356434015
 97
        0
 75
     0
 76
     0
 52
45.0
 41
2.0
 77
     0
 78
     1
 53
45.0
 43
1645.368427443382
 44
514.7781231047268
 45
-1.414213562373094
 46
1.414213562373095
 79
     0
 98
        1
 10
1645.368427443382
 20
514.7781231047268
1001
GENIUS_GENODEF_13
1002
{
1000
HIER
1070
     0
1002
}
1002
{
1000
MANEDIT
1070
     0
1002
}
1002
{
1000
NOSEL
1070
     0
1002
}
1002
{
1000
BEHIND
1070
     0
1002
}
1002
{
1000
OTHER
1070
     0
1002
}
1002
{
1000
REACTOR
1002
}
1001
GENIUS_GENOBJ-N-HTC_13
1002
{
1000
OWNER
1000
GEN
1002
}
1001
GENIUS_GENHATCH_13
1002
{
1000
DATA
1040
45.0
1042
2.5
1000
_U
1070
     0
1011
1893.034641866471
1021
1208.713628303886
1031
0.0
1002
}
1002
{
1000
UCS
1010
0.0
1020
0.0
1030
0.0
1010
1.0
1020
0.0
1030
0.0
1010
0.0
1020
1.0
1030
0.0
1002
}
  0
LINE
  5
623
330
1F
100
AcDbEntity
  8
AM_0
100
AcDbLine
 10
1898.400861411084
 20
1185.254336265186
 30
0.0
 11
1898.400861411084
 21
1182.978260739583
 31
0.0
  0
LINE
  5
624
330
1F
100
AcDbEntity
  8
AM_0
100
AcDbLine
 10
1884.400861411084
 20
1185.254336265186
 30
0.0
 11
1898.400861411084
 21
1185.254336265186
 31
0.0
  0
LINE
  5
625
330
1F
100
AcDbEntity
  8
AM_0
100
AcDbLine
 10
1884.400861411084
 20
1185.254336265186
 30
0.0
 11
1884.400861411084
 21
1182.980033890456
 31
0.0
  0
LINE
  5
626
330
1F
100
AcDbEntity
  8
AM_0
100
AcDbLine
 10
1894.678445265774
 20
1183.046758379196
 30
0.0
 11
1894.678445265774
 21
1179.250524578423
 31
0.0
  0
LINE
  5
627
330
1F
100
AcDbEntity
  8
AM_0
100
AcDbLine
 10
1888.123277556394
 20
1183.047588414183
 30
0.0
 11
1888.123277556394
 21
1179.250524578423
 31
0.0
  0
LINE
  5
628
330
1F
100
AcDbEntity
  8
AM_0
100
AcDbLine
 10
1888.123277556394
 20
1179.250524578423
 30
0.0
 11
1894.678445265774
 21
1179.250524578423
 31
0.0
  0
LINE
  5
629
330
1F
100
AcDbEntity
  8
AM_0
100
AcDbLine
 10
1895.400861411084
 20
1201.254336265186
 30
0.0
 11
1895.400861411084
 21
1185.254336265186
 31
0.0
  0
LINE
  5
62A
330
1F
100
AcDbEntity
  8
AM_0
100
AcDbLine
 10
1887.400861411084
 20
1201.254336265186
 30
0.0
 11
1887.400861411084
 21
1185.254336265186
 31
0.0
  0
LINE
  5
62B
330
1F
100
AcDbEntity
  8
AM_0
100
AcDbLine
 10
1898.966729403813
 20
1207.190045316457
 30
0.0
 11
1912.028569761155
 21
1184.566274177187
 31
0.0
  0
HATCH
  5
62C
330
1F
100
AcDbEntity
  8
AM_8
100
AcDbHatch
 10
0.0
 20
0.0
 30
0.0
210
0.0
220
0.0
230
1.0
  2
_U
 70
     0
 71
     0
 91
        1
 92
        1
 93
       12
 72
     1
 10
1897.660608453116
 20
1208.732870112948
 11
1897.660608453116
 21
1192.765749191199
 72
     1
 10
1897.660608453116
 20
1192.765749191199
 11
1895.848571620395
 21
1192.765749191199
 72
     1
 10
1895.848571620395
 20
1192.765749191199
 11
1898.069706871955
 21
1188.918630085015
 72
     2
 10
1898.935732275739
 20
1189.418630085014
 40
1.000000000000057
 50
209.9999999999981
 51
360.0
 73
     1
 72
     1
 10
1899.935732275739
 20
1189.418630085014
 11
1899.935732275739
 21
1195.779632302032
 72
     2
 10
1900.935732275739
 20
1195.779632302032
 40
1.0
 50
180.0
 51
329.9999999999995
 73
     0
 72
     1
 10
1901.801757679524
 20
1196.279632302032
 11
1909.141818415207
 21
1183.566274177187
 72
     2
 10
1910.007843818992
 20
1184.066274177187
 40
0.9999999999999836
 50
210.0000000000005
 51
269.9999999999935
 73
     1
 72
     1
 10
1910.007843818991
 20
1183.066274177187
 11
1911.16254435737
 21
1183.066274177187
 72
     2
 10
1911.162544357371
 20
1184.066274177187
 40
1.0
 50
270.0000000000033
 51
390.0000000000022
 73
     1
 72
     1
 10
1912.028569761155
 20
1184.566274177187
 11
1898.966729403813
 21
1207.190045316457
 72
     2
 10
1894.57631684431
 20
1204.797499066675
 40
4.999999999999955
 50
28.58808396744364
 51
51.91292630187383
 73
     1
 97
        0
 75
     0
 76
     0
 52
45.0
 41
5.0
 77
     0
 78
     1
 53
45.0
 43
1645.368427443382
 44
514.7781231047268
 45
-3.535533905932737
 46
3.535533905932737
 79
     0
 98
        1
 10
1645.368427443382
 20
514.7781231047268
1001
GENIUS_GENOBJ-N-HTC_13
1002
{
1000
OWNER
1000
GEN
1002
}
1001
GENIUS_GENODEF_13
1002
{
1000
HIER
1070
     0
1002
}
1002
{
1000
MANEDIT
1070
     0
1002
}
1002
{
1000
NOSEL
1070
     0
1002
}
1002
{
1000
BEHIND
1070
     0
1002
}
1002
{
1000
OTHER
1070
     0
1002
}
1002
{
1000
REACTOR
1002
}
1001
GENIUS_GENHATCH_13
1002
{
1000
DATA
1040
45.0
1042
2.5
1000
_U
1070
     0
1011
1901.936050572012
1021
1199.165466361654
1031
0.0
1002
}
1002
{
1000
UCS
1010
0.0
1020
0.0
1030
0.0
1010
1.0
1020
0.0
1030
0.0
1010
0.0
1020
1.0
1030
0.0
1002
}
  0
LINE
  5
62D
330
1F
100
AcDbEntity
  8
AM_0
100
AcDbLine
 10
1901.801757679524
 20
1196.279632302032
 30
0.0
 11
1909.141818415207
 21
1183.566274177187
 31
0.0
  0
ARC
  5
62E
330
1F
100
AcDbEntity
  8
AM_0
100
AcDbCircle
 10
1881.794769947269
 20
1195.779632302032
 30
0.0
 40
1.0
100
AcDbArc
 50
0.0
 51
149.9999999999905
  0
LINE
  5
62F
330
1F
100
AcDbEntity
  8
AM_0
100
AcDbLine
 10
1882.794769947268
 20
1189.418630085014
 30
0.0
 11
1882.794769947268
 21
1195.779632302032
 31
0.0
  0
ARC
  5
630
330
1F
100
AcDbEntity
  8
AM_0
100
AcDbCircle
 10
1872.722658404017
 20
1184.066274177187
 30
0.0
 40
1.0
100
AcDbArc
 50
270.0
 51
329.9999999999906
  0
ARC
  5
631
330
1F
100
AcDbEntity
  8
AM_0
100
AcDbCircle
 10
1871.567957865638
 20
1184.066274177187
 30
0.0
 40
1.0
100
AcDbArc
 50
149.9999999999905
 51
270.0
  0
LINE
  5
632
330
1F
100
AcDbEntity
  8
AM_0
100
AcDbLine
 10
1871.567957865638
 20
1183.066274177187
 30
0.0
 11
1911.162544357371
 21
1183.066274177187
 31
0.0
  0
LINE
  5
633
330
1F
100
AcDbEntity
  8
AM_0
100
AcDbLine
 10
1883.763772819194
 20
1207.190045316457
 30
0.0
 11
1870.701932461853
 21
1184.566274177187
 31
0.0
  0
LINE
  5
634
330
1F
100
AcDbEntity
  8
AM_0
100
AcDbLine
 10
1880.928744543484
 20
1196.279632302032
 30
0.0
 11
1873.542401872325
 21
1183.48611151347
 31
0.0
  0
ARC
  5
636
330
1F
100
AcDbEntity
  8
AM_0
100
AcDbCircle
 10
1888.154185378699
 20
1204.797499066675
 30
0.0
 40
5.0
100
AcDbArc
 50
90.0
 51
151.4119160325625
  0
HATCH
  5
637
330
1F
100
AcDbEntity
  8
AM_8
100
AcDbHatch
 10
0.0
 20
0.0
 30
0.0
210
0.0
220
0.0
230
1.0
  2
_U
 70
     0
 71
     0
 91
        1
 92
        1
 93
       14
 72
     1
 10
1883.763772819195
 20
1207.190045316457
 11
1870.701932461854
 21
1184.566274177187
 72
     2
 10
1871.567957865638
 20
1184.066274177187
 40
1.000000000000057
 50
150.0000000000019
 51
270.0000000000017
 73
     1
 72
     1
 10
1871.567957865638
 20
1183.066274177187
 11
1872.722658404017
 21
1183.066274177187
 72
     2
 10
1872.722658404017
 20
1184.066274177187
 40
1.0
 50
270.0
 51
330.0000000000003
 73
     1
 72
     1
 10
1873.588683807802
 20
1183.566274177187
 11
1880.928744543484
 21
1196.279632302032
 72
     2
 10
1881.794769947269
 20
1195.779632302032
 40
0.9999999999999344
 50
210.0000000000022
 51
360.0
 73
     0
 72
     1
 10
1882.794769947268
 20
1195.779632302032
 11
1882.794769947268
 21
1195.378352356085
 72
     1
 10
1882.794769947268
 20
1195.378352356086
 11
1882.794769947268
 21
1195.217555781004
 72
     1
 10
1882.794769947268
 20
1195.217555781004
 11
1882.794769947268
 21
1189.418630085014
 72
     2
 10
1883.794769947269
 20
1189.418630085014
 40
1.0
 50
180.0
 51
330.0000000000003
 73
     1
 72
     1
 10
1884.660795351053
 20
1188.918630085014
 11
1886.881930602614
 21
1192.765749191198
 72
     1
 10
1886.881930602613
 20
1192.765749191199
 11
1885.069893769892
 21
1192.765749191199
 72
     1
 10
1885.069893769892
 20
1192.765749191199
 11
1885.069893769892
 21
1208.732870112948
 72
     2
 10
1888.154185378699
 20
1204.797499066675
 40
5.000000000000037
 50
128.0870736981277
 51
151.4119160325583
 73
     1
 97
        0
 75
     0
 76
     0
 52
45.0
 41
4.0
 77
     0
 78
     1
 53
45.0
 43
1645.368427443382
 44
514.7781231047268
 45
-2.828427124746189
 46
2.82842712474619
 79
     0
 98
        1
 10
1645.368427443382
 20
514.7781231047268
1001
GENIUS_GENODEF_13
1002
{
1000
HIER
1070
     0
1002
}
1002
{
1000
MANEDIT
1070
     0
1002
}
1002
{
1000
NOSEL
1070
     0
1002
}
1002
{
1000
BEHIND
1070
     0
1002
}
1002
{
1000
OTHER
1070
     0
1002
}
1002
{
1000
REACTOR
1002
}
1001
GENIUS_GENOBJ-N-HTC_13
1002
{
1000
OWNER
1000
GEN
1002
}
1001
GENIUS_GENHATCH_13
1002
{
1000
DATA
1040
45.0
1042
2.5
1000
_U
1070
     0
1011
1882.722031924949
1021
1200.684492080738
1031
0.0
1002
}
1002
{
1000
UCS
1010
0.0
1020
0.0
1030
0.0
1010
1.0
1020
0.0
1030
0.0
1010
0.0
1020
1.0
1030
0.0
1002
}
  0
ARC
  5
638
330
1F
100
AcDbEntity
  8
AM_0
100
AcDbCircle
 10
1883.794769947269
 20
1189.418630085014
 30
0.0
 40
1.0
100
AcDbArc
 50
180.0
 51
329.9999999999906
  0
LINE
  5
639
330
1F
100
AcDbEntity
  8
AM_0
100
AcDbLine
 10
1911.365251111499
 20
1077.732899586176
 30
0.0
 11
1912.365251111499
 21
1076.732899586176
 31
0.0
  0
LINE
  5
63A
330
1F
100
AcDbEntity
  8
AM_0
100
AcDbLine
 10
1912.365251111499
 20
1074.732899586176
 30
0.0
 11
1911.365251111499
 21
1073.732899586176
 31
0.0
  0
LINE
  5
63B
330
1F
100
AcDbEntity
  8
AM_0
100
AcDbLine
 10
1912.365251111499
 20
1076.732899586176
 30
0.0
 11
1927.27235833671
 21
1076.732899586176
 31
0.0
  0
LINE
  5
63C
330
1F
100
AcDbEntity
  8
AM_0
100
AcDbLine
 10
1912.365251111499
 20
1074.732899586176
 30
0.0
 11
1927.27235833671
 21
1074.732899586176
 31
0.0
  0
ARC
  5
63D
330
1F
100
AcDbEntity
  8
AM_0
100
AcDbCircle
 10
1927.27235833671
 20
1056.732899586175
 30
0.0
 40
18.0
100
AcDbArc
 50
7.1660910389357
 51
90.0
1001
GENIUS_GENOBJ-N-FIL_13
1002
{
1000
OWNER
1000
GEN
1002
}
1001
GENIUS_GENODEF_13
1002
{
1000
HIER
1070
     0
1002
}
1002
{
1000
MANEDIT
1070
     0
1002
}
1002
{
1000
NOSEL
1070
     0
1002
}
1002
{
1000
BEHIND
1070
     0
1002
}
1002
{
1000
OTHER
1070
     0
1002
}
1002
{
1000
REACTOR
1002
}
  0
ARC
  5
63E
330
1F
100
AcDbEntity
  8
AM_0
100
AcDbCircle
 10
1927.27235833671
 20
1056.732899586175
 30
0.0
 40
20.0
100
AcDbArc
 50
7.1660910389357
 51
90.0
1001
GENIUS_GENODEF_13
1002
{
1000
HIER
1070
     0
1002
}
1002
{
1000
MANEDIT
1070
     0
1002
}
1002
{
1000
NOSEL
1070
     0
1002
}
1002
{
1000
BEHIND
1070
     0
1002
}
1002
{
1000
OTHER
1070
     0
1002
}
1002
{
1000
REACTOR
1002
}
1001
GENIUS_GENOBJ-N-FIL_13
1002
{
1000
OWNER
1000
GEN
1002
}
  0
LINE
  5
63F
330
1F
100
AcDbEntity
  8
AM_3
100
AcDbLine
 10
1961.371762830888
 20
956.4805318822811
 30
0.0
 11
1971.780262887864
 21
962.4898821920366
 31
0.0
  0
LINE
  5
640
330
1F
100
AcDbEntity
  8
AM_3
100
AcDbLine
 10
1962.371762830888
 20
954.7484810747119
 30
0.0
 11
1973.780262887864
 21
961.3351816536575
 31
0.0
  0
ARC
  5
641
330
1F
100
AcDbEntity
  8
AM_0
100
AcDbCircle
 10
1974.456751054523
 20
985.8197405774809
 30
0.0
 40
18.0
100
AcDbArc
 50
187.1660910389357
 51
239.9999999999995
1001
GENIUS_GENOBJ-N-FIL_13
1002
{
1000
OWNER
1000
GEN
1002
}
1001
GENIUS_GENODEF_13
1002
{
1000
HIER
1070
     0
1002
}
1002
{
1000
MANEDIT
1070
     0
1002
}
1002
{
1000
NOSEL
1070
     0
1002
}
1002
{
1000
BEHIND
1070
     0
1002
}
1002
{
1000
OTHER
1070
     0
1002
}
1002
{
1000
REACTOR
1002
}
  0
ARC
  5
642
330
1F
100
AcDbEntity
  8
AM_3
100
AcDbCircle
 10
1971.371762830888
 20
939.1600238065922
 30
0.0
 40
18.0
100
AcDbArc
 50
120.0000000000005
 51
172.8339089610643
1001
GENIUS_GENOBJ-N-FIL_13
1002
{
1000
OWNER
1000
GEN
1002
}
1001
GENIUS_GENODEF_13
1002
{
1000
HIER
1070
     0
1002
}
1002
{
1000
MANEDIT
1070
     0
1002
}
1002
{
1000
NOSEL
1070
     0
1002
}
1002
{
1000
BEHIND
1070
     0
1002
}
1002
{
1000
OTHER
1070
     0
1002
}
1002
{
1000
REACTOR
1002
}
  0
ARC
  5
643
330
1F
100
AcDbEntity
  8
AM_3
100
AcDbCircle
 10
1971.371762830888
 20
939.1600238065922
 30
0.0
 40
20.0
100
AcDbArc
 50
120.0000000000005
 51
172.8339089610643
1001
GENIUS_GENODEF_13
1002
{
1000
HIER
1070
     0
1002
}
1002
{
1000
MANEDIT
1070
     0
1002
}
1002
{
1000
NOSEL
1070
     0
1002
}
1002
{
1000
BEHIND
1070
     0
1002
}
1002
{
1000
OTHER
1070
     0
1002
}
1002
{
1000
REACTOR
1002
}
1001
GENIUS_GENOBJ-N-FIL_13
1002
{
1000
OWNER
1000
GEN
1002
}
  0
ARC
  5
644
330
1F
100
AcDbEntity
  8
AM_0
100
AcDbCircle
 10
1974.456751054523
 20
985.8197405774809
 30
0.0
 40
20.0
100
AcDbArc
 50
187.1660910389357
 51
239.9999999999995
1001
GENIUS_GENODEF_13
1002
{
1000
HIER
1070
     0
1002
}
1002
{
1000
MANEDIT
1070
     0
1002
}
1002
{
1000
NOSEL
1070
     0
1002
}
1002
{
1000
BEHIND
1070
     0
1002
}
1002
{
1000
OTHER
1070
     0
1002
}
1002
{
1000
REACTOR
1002
}
1001
GENIUS_GENOBJ-N-FIL_13
1002
{
1000
OWNER
1000
GEN
1002
}
  0
LINE
  5
645
330
1F
100
AcDbEntity
  8
AM_0
100
AcDbLine
 10
1947.116132389834
 20
1059.227820692855
 30
0.0
 11
1956.597354406711
 21
983.5743115814695
 31
0.0
  0
LINE
  5
646
330
1F
100
AcDbEntity
  8
AM_0
100
AcDbLine
 10
1945.131754984522
 20
1058.978328582187
 30
0.0
 11
1954.612977001399
 21
983.3248194708017
 31
0.0
  0
LINE
  5
647
330
1F
100
AcDbEntity
  8
AM_3
100
AcDbLine
 10
1962.16513679506
 20
1006.913334806794
 30
0.0
 11
1962.16513679506
 21
1051.913334806793
 31
0.0
  0
LINE
  5
648
330
1F
100
AcDbEntity
  8
AM_0
100
AcDbLine
 10
1870.365251111499
 20
1076.732899586176
 30
0.0
 11
1871.365251111499
 21
1077.732899586176
 31
0.0
  0
LINE
  5
649
330
1F
100
AcDbEntity
  8
AM_0
100
AcDbLine
 10
1871.365251111499
 20
1073.732899586176
 30
0.0
 11
1870.365251111499
 21
1074.732899586176
 31
0.0
  0
LINE
  5
64A
330
1F
100
AcDbEntity
  8
AM_0
100
AcDbLine
 10
1870.365251111499
 20
1076.732899586176
 30
0.0
 11
1855.458143886289
 21
1076.732899586176
 31
0.0
  0
LINE
  5
64B
330
1F
100
AcDbEntity
  8
AM_0
100
AcDbLine
 10
1870.365251111499
 20
1074.732899586176
 30
0.0
 11
1855.458143886289
 21
1074.732899586176
 31
0.0
  0
ARC
  5
64C
330
1F
100
AcDbEntity
  8
AM_0
100
AcDbCircle
 10
1855.458143886289
 20
1056.732899586175
 30
0.0
 40
18.0
100
AcDbArc
 50
90.0
 51
172.8339089610643
1001
GENIUS_GENOBJ-N-FIL_13
1002
{
1000
OWNER
1000
GEN
1002
}
1001
GENIUS_GENODEF_13
1002
{
1000
HIER
1070
     0
1002
}
1002
{
1000
MANEDIT
1070
     0
1002
}
1002
{
1000
NOSEL
1070
     0
1002
}
1002
{
1000
BEHIND
1070
     0
1002
}
1002
{
1000
OTHER
1070
     0
1002
}
1002
{
1000
REACTOR
1002
}
  0
ARC
  5
64D
330
1F
100
AcDbEntity
  8
AM_0
100
AcDbCircle
 10
1855.458143886289
 20
1056.732899586175
 30
0.0
 40
20.0
100
AcDbArc
 50
90.0
 51
172.8339089610643
1001
GENIUS_GENODEF_13
1002
{
1000
HIER
1070
     0
1002
}
1002
{
1000
MANEDIT
1070
     0
1002
}
1002
{
1000
NOSEL
1070
     0
1002
}
1002
{
1000
BEHIND
1070
     0
1002
}
1002
{
1000
OTHER
1070
     0
1002
}
1002
{
1000
REACTOR
1002
}
1001
GENIUS_GENOBJ-N-FIL_13
1002
{
1000
OWNER
1000
GEN
1002
}
  0
ARC
  5
64E
330
1F
100
AcDbEntity
  8
AM_3
100
AcDbCircle
 10
1811.358739392111
 20
939.1600238065922
 30
0.0
 40
18.0
100
AcDbArc
 50
7.1660910389357
 51
59.99999999999946
1001
GENIUS_GENOBJ-N-FIL_13
1002
{
1000
OWNER
1000
GEN
1002
}
1001
GENIUS_GENODEF_13
1002
{
1000
HIER
1070
     0
1002
}
1002
{
1000
MANEDIT
1070
     0
1002
}
1002
{
1000
NOSEL
1070
     0
1002
}
1002
{
1000
BEHIND
1070
     0
1002
}
1002
{
1000
OTHER
1070
     0
1002
}
1002
{
1000
REACTOR
1002
}
  0
ARC
  5
64F
330
1F
100
AcDbEntity
  8
AM_3
100
AcDbCircle
 10
1811.358739392111
 20
939.1600238065922
 30
0.0
 40
20.0
100
AcDbArc
 50
7.1660910389357
 51
59.99999999999946
1001
GENIUS_GENODEF_13
1002
{
1000
HIER
1070
     0
1002
}
1002
{
1000
MANEDIT
1070
     0
1002
}
1002
{
1000
NOSEL
1070
     0
1002
}
1002
{
1000
BEHIND
1070
     0
1002
}
1002
{
1000
OTHER
1070
     0
1002
}
1002
{
1000
REACTOR
1002
}
1001
GENIUS_GENOBJ-N-FIL_13
1002
{
1000
OWNER
1000
GEN
1002
}
  0
ARC
  5
650
330
1F
100
AcDbEntity
  8
AM_0
100
AcDbCircle
 10
1808.273751168476
 20
985.8197405774809
 30
0.0
 40
20.0
100
AcDbArc
 50
300.0000000000005
 51
352.8339089610578
1001
GENIUS_GENODEF_13
1002
{
1000
HIER
1070
     0
1002
}
1002
{
1000
MANEDIT
1070
     0
1002
}
1002
{
1000
NOSEL
1070
     0
1002
}
1002
{
1000
BEHIND
1070
     0
1002
}
1002
{
1000
OTHER
1070
     0
1002
}
1002
{
1000
REACTOR
1002
}
1001
GENIUS_GENOBJ-N-FIL_13
1002
{
1000
OWNER
1000
GEN
1002
}
  0
ARC
  5
651
330
1F
100
AcDbEntity
  8
AM_0
100
AcDbCircle
 10
1808.273751168476
 20
985.8197405774809
 30
0.0
 40
18.0
100
AcDbArc
 50
300.0000000000005
 51
352.8339089610578
1001
GENIUS_GENOBJ-N-FIL_13
1002
{
1000
OWNER
1000
GEN
1002
}
1001
GENIUS_GENODEF_13
1002
{
1000
HIER
1070
     0
1002
}
1002
{
1000
MANEDIT
1070
     0
1002
}
1002
{
1000
NOSEL
1070
     0
1002
}
1002
{
1000
BEHIND
1070
     0
1002
}
1002
{
1000
OTHER
1070
     0
1002
}
1002
{
1000
REACTOR
1002
}
  0
ARC
  5
652
330
1F
100
AcDbEntity
  8
AM_0
100
AcDbCircle
 10
1811.3652511115
 20
943.7259984433737
 30
0.0
 40
18.0
100
AcDbArc
 50
120.0000000000005
 51
180.0
1001
GENIUS_GENOBJ-N-FIL_13
1002
{
1000
OWNER
1000
GEN
1002
}
1001
GENIUS_GENODEF_13
1002
{
1000
HIER
1070
     0
1002
}
1002
{
1000
MANEDIT
1070
     0
1002
}
1002
{
1000
NOSEL
1070
     0
1002
}
1002
{
1000
BEHIND
1070
     0
1002
}
1002
{
1000
OTHER
1070
     0
1002
}
1002
{
1000
REACTOR
1002
}
  0
LINE
  5
653
330
1F
100
AcDbEntity
  8
AM_3
100
AcDbLine
 10
1821.358739392112
 20
956.4805318822811
 30
0.0
 11
1810.950239335135
 21
962.4898821920366
 31
0.0
  0
LINE
  5
654
330
1F
100
AcDbEntity
  8
AM_3
100
AcDbLine
 10
1820.358739392111
 20
954.7484810747125
 30
0.0
 11
1808.950239335135
 21
961.3351816536575
 31
0.0
  0
LINE
  5
655
330
1F
100
AcDbEntity
  8
AM_0
100
AcDbLine
 10
1818.273751168476
 20
968.4992325017921
 30
0.0
 11
1802.365251111499
 21
959.3144557114934
 31
0.0
  0
LINE
  5
656
330
1F
100
AcDbEntity
  8
AM_0
100
AcDbLine
 10
1817.273751168476
 20
970.2312833093612
 30
0.0
 11
1801.365251111499
 21
961.0465065190625
 31
0.0
  0
LINE
  5
657
330
1F
100
AcDbEntity
  8
AM_0
100
AcDbLine
 10
1835.614369833165
 20
1059.227820692855
 30
0.0
 11
1826.133147816287
 21
983.5743115814695
 31
0.0
  0
LINE
  5
658
330
1F
100
AcDbEntity
  8
AM_0
100
AcDbLine
 10
1837.598747238477
 20
1058.978328582187
 30
0.0
 11
1828.1175252216
 21
983.3248194708017
 31
0.0
  0
LINE
  5
659
330
1F
100
AcDbEntity
  8
AM_3
100
AcDbLine
 10
1820.565365427944
 20
1006.913334806794
 30
0.0
 11
1820.565365427944
 21
1051.913334806793
 31
0.0
  0
LINE
  5
65A
330
1F
100
AcDbEntity
  8
AM_0
100
AcDbLine
 10
1871.365251111499
 20
1077.732899586176
 30
0.0
 11
1911.365251111499
 21
1077.732899586176
 31
0.0
  0
LINE
  5
65B
330
1F
100
AcDbEntity
  8
AM_0
100
AcDbLine
 10
1911.365251111499
 20
1073.732899586176
 30
0.0
 11
1871.365251111499
 21
1073.732899586176
 31
0.0
  0
LINE
  5
65C
330
1F
100
AcDbEntity
  8
AM_0
100
AcDbLine
 10
1965.456751054523
 20
970.2312833093612
 30
0.0
 11
1981.3652511115
 21
961.0465065190625
 31
0.0
  0
LINE
  5
65D
330
1F
100
AcDbEntity
  8
AM_0
100
AcDbLine
 10
1964.456751054523
 20
968.4992325017921
 30
0.0
 11
1980.3652511115
 21
959.3144557114934
 31
0.0
  0
LINE
  5
65E
330
1F
100
AcDbEntity
  8
AM_7
100
AcDbLine
 10
1959.16513679506
 20
1029.413334806793
 30
0.0
 11
2045.16513679506
 21
1029.413334806793
 31
0.0
  0
LINE
  5
65F
330
1F
100
AcDbEntity
  8
AM_3
100
AcDbLine
 10
1962.16513679506
 20
1008.413334806793
 30
0.0
 11
2042.16513679506
 21
1008.413334806793
 31
0.0
  0
LINE
  5
660
330
1F
100
AcDbEntity
  8
AM_3
100
AcDbLine
 10
1962.16513679506
 20
1050.413334806793
 30
0.0
 11
2042.16513679506
 21
1050.413334806793
 31
0.0
  0
LINE
  5
661
330
1F
100
AcDbEntity
  8
AM_3
100
AcDbLine
 10
2042.16513679506
 20
1006.913334806794
 30
0.0
 11
1962.16513679506
 21
1006.913334806794
 31
0.0
  0
LINE
  5
662
330
1F
100
AcDbEntity
  8
AM_3
100
AcDbLine
 10
1962.16513679506
 20
1051.913334806793
 30
0.0
 11
2042.16513679506
 21
1051.913334806793
 31
0.0
  0
ARC
  5
663
330
1F
100
AcDbEntity
  8
AM_0
100
AcDbCircle
 10
1891.365251111504
 20
899.1662741771873
 30
0.0
 40
282.65
100
AcDbArc
 50
57.91746383470472
 51
122.0825361652952
  0
ARC
  5
664
330
1F
100
AcDbEntity
  8
AM_0
100
AcDbCircle
 10
1891.365251111504
 20
899.1662741771873
 30
0.0
 40
283.9
100
AcDbArc
 50
57.91746383470472
 51
122.0825361652952
  0
LINE
  5
665
330
1F
100
AcDbEntity
  8
AM_0
100
AcDbLine
 10
1956.668597052985
 20
983.0662741771872
 30
0.0
 11
2067.115251111501
 21
983.0662741771872
 31
0.0
  0
ARC
  5
666
330
1F
100
AcDbEntity
  8
AM_0
100
AcDbCircle
 10
1973.3652511115
 20
848.4032380060712
 30
0.0
 40
18.0
100
AcDbArc
 50
314.9999999999908
 51
0.0
1001
GENIUS_GENOBJ-N-FIL_13
1002
{
1000
OWNER
1000
GEN
1002
}
1001
GENIUS_GENODEF_13
1002
{
1000
HIER
1070
     0
1002
}
1002
{
1000
MANEDIT
1070
     0
1002
}
1002
{
1000
NOSEL
1070
     0
1002
}
1002
{
1000
BEHIND
1070
     0
1002
}
1002
{
1000
OTHER
1070
     0
1002
}
1002
{
1000
REACTOR
1002
}
  0
ARC
  5
667
330
1F
100
AcDbEntity
  8
AM_0
100
AcDbCircle
 10
1971.3652511115
 20
849.231665130817
 30
0.0
 40
18.0
100
AcDbArc
 50
314.9999999999908
 51
0.0
1001
GENIUS_GENODEF_13
1002
{
1000
HIER
1070
     0
1002
}
1002
{
1000
MANEDIT
1070
     0
1002
}
1002
{
1000
NOSEL
1070
     0
1002
}
1002
{
1000
BEHIND
1070
     0
1002
}
1002
{
1000
OTHER
1070
     0
1002
}
1002
{
1000
REACTOR
1002
}
1001
GENIUS_GENOBJ-N-FIL_13
1002
{
1000
OWNER
1000
GEN
1002
}
  0
LINE
  5
668
330
1F
100
AcDbEntity
  8
AM_3
100
AcDbLine
 10
1912.3652511115
 20
850.9758210081013
 30
0.0
 11
1911.3652511115
 21
851.9758210081015
 31
0.0
  0
LINE
  5
669
330
1F
100
AcDbEntity
  8
AM_3
100
AcDbLine
 10
1911.3652511115
 20
847.9758210081014
 30
0.0
 11
1912.3652511115
 21
848.9758210081014
 31
0.0
  0
LINE
  5
66A
330
1F
100
AcDbEntity
  8
AM_3
100
AcDbLine
 10
1912.3652511115
 20
848.9758210081014
 30
0.0
 11
1927.272358336711
 21
848.9758210081014
 31
0.0
  0
LINE
  5
66B
330
1F
100
AcDbEntity
  8
AM_3
100
AcDbLine
 10
1912.3652511115
 20
850.9758210081013
 30
0.0
 11
1927.272358336711
 21
850.9758210081013
 31
0.0
  0
ARC
  5
66C
330
1F
100
AcDbEntity
  8
AM_3
100
AcDbCircle
 10
1927.272358336711
 20
868.9758210081015
 30
0.0
 40
20.0
100
AcDbArc
 50
270.0
 51
352.8339089610578
1001
GENIUS_GENODEF_13
1002
{
1000
HIER
1070
     0
1002
}
1002
{
1000
MANEDIT
1070
     0
1002
}
1002
{
1000
NOSEL
1070
     0
1002
}
1002
{
1000
BEHIND
1070
     0
1002
}
1002
{
1000
OTHER
1070
     0
1002
}
1002
{
1000
REACTOR
1002
}
1001
GENIUS_GENOBJ-N-FIL_13
1002
{
1000
OWNER
1000
GEN
1002
}
  0
ARC
  5
66D
330
1F
100
AcDbEntity
  8
AM_3
100
AcDbCircle
 10
1927.272358336711
 20
868.9758210081015
 30
0.0
 40
18.0
100
AcDbArc
 50
270.0
 51
352.8339089610578
1001
GENIUS_GENOBJ-N-FIL_13
1002
{
1000
OWNER
1000
GEN
1002
}
1001
GENIUS_GENODEF_13
1002
{
1000
HIER
1070
     0
1002
}
1002
{
1000
MANEDIT
1070
     0
1002
}
1002
{
1000
NOSEL
1070
     0
1002
}
1002
{
1000
BEHIND
1070
     0
1002
}
1002
{
1000
OTHER
1070
     0
1002
}
1002
{
1000
REACTOR
1002
}
  0
LINE
  5
66E
330
1F
100
AcDbEntity
  8
AM_3
100
AcDbLine
 10
1871.3652511115
 20
851.9758210081015
 30
0.0
 11
1870.3652511115
 21
850.9758210081013
 31
0.0
  0
LINE
  5
66F
330
1F
100
AcDbEntity
  8
AM_3
100
AcDbLine
 10
1870.3652511115
 20
848.9758210081014
 30
0.0
 11
1871.3652511115
 21
847.9758210081014
 31
0.0
  0
LINE
  5
670
330
1F
100
AcDbEntity
  8
AM_3
100
AcDbLine
 10
1870.3652511115
 20
848.9758210081014
 30
0.0
 11
1855.458143886289
 21
848.9758210081014
 31
0.0
  0
LINE
  5
671
330
1F
100
AcDbEntity
  8
AM_3
100
AcDbLine
 10
1870.3652511115
 20
850.9758210081013
 30
0.0
 11
1855.458143886289
 21
850.9758210081013
 31
0.0
  0
ARC
  5
672
330
1F
100
AcDbEntity
  8
AM_0
100
AcDbCircle
 10
1811.3652511115
 20
849.231665130817
 30
0.0
 40
18.0
100
AcDbArc
 50
180.0
 51
225.0000000000092
1001
GENIUS_GENODEF_13
1002
{
1000
HIER
1070
     0
1002
}
1002
{
1000
MANEDIT
1070
     0
1002
}
1002
{
1000
NOSEL
1070
     0
1002
}
1002
{
1000
BEHIND
1070
     0
1002
}
1002
{
1000
OTHER
1070
     0
1002
}
1002
{
1000
REACTOR
1002
}
1001
GENIUS_GENOBJ-N-FIL_13
1002
{
1000
OWNER
1000
GEN
1002
}
  0
ARC
  5
673
330
1F
100
AcDbEntity
  8
AM_3
100
AcDbCircle
 10
1855.458143886289
 20
868.9758210081015
 30
0.0
 40
20.0
100
AcDbArc
 50
187.1660910389357
 51
270.0
1001
GENIUS_GENODEF_13
1002
{
1000
HIER
1070
     0
1002
}
1002
{
1000
MANEDIT
1070
     0
1002
}
1002
{
1000
NOSEL
1070
     0
1002
}
1002
{
1000
BEHIND
1070
     0
1002
}
1002
{
1000
OTHER
1070
     0
1002
}
1002
{
1000
REACTOR
1002
}
1001
GENIUS_GENOBJ-N-FIL_13
1002
{
1000
OWNER
1000
GEN
1002
}
  0
ARC
  5
674
330
1F
100
AcDbEntity
  8
AM_3
100
AcDbCircle
 10
1855.458143886289
 20
868.9758210081015
 30
0.0
 40
18.0
100
AcDbArc
 50
187.1660910389357
 51
270.0
1001
GENIUS_GENOBJ-N-FIL_13
1002
{
1000
OWNER
1000
GEN
1002
}
1001
GENIUS_GENODEF_13
1002
{
1000
HIER
1070
     0
1002
}
1002
{
1000
MANEDIT
1070
     0
1002
}
1002
{
1000
NOSEL
1070
     0
1002
}
1002
{
1000
BEHIND
1070
     0
1002
}
1002
{
1000
OTHER
1070
     0
1002
}
1002
{
1000
REACTOR
1002
}
  0
LINE
  5
675
330
1F
100
AcDbEntity
  8
AM_3
100
AcDbLine
 10
1871.3652511115
 20
847.9758210081014
 30
0.0
 11
1911.3652511115
 21
847.9758210081014
 31
0.0
  0
LINE
  5
676
330
1F
100
AcDbEntity
  8
AM_3
100
AcDbLine
 10
1911.3652511115
 20
851.9758210081015
 30
0.0
 11
1871.3652511115
 21
851.9758210081015
 31
0.0
  0
LINE
  5
677
330
1F
100
AcDbEntity
  8
AM_7
100
AcDbLine
 10
1891.365251111504
 20
1214.797499066676
 30
0.0
 11
1891.365251111539
 21
751.6615689088316
 31
0.0
1001
GENIUS_GENODEF_13
1002
{
1000
HIER
1070
     0
1002
}
1002
{
1000
MANEDIT
1070
     0
1002
}
1002
{
1000
NOSEL
1070
     0
1002
}
1002
{
1000
BEHIND
1070
     0
1002
}
1002
{
1000
REACTOR
1002
}
1001
GENIUS_GENOBJ-N-CEN_13
1002
{
1000
OWNER
1000
GEN
1002
}
  0
LINE
  5
678
330
1F
100
AcDbEntity
  8
AM_0
100
AcDbLine
 10
1791.3652511115
 20
849.2316651308176
 30
0.0
 11
1791.3652511115
 21
943.7259984433737
 31
0.0
  0
LINE
  5
679
330
1F
100
AcDbEntity
  8
AM_3
100
AcDbLine
 10
1835.614369833166
 20
866.4808999014217
 30
0.0
 11
1829.218136039922
 21
941.4054528026078
 31
0.0
  0
LINE
  5
67A
330
1F
100
AcDbEntity
  8
AM_3
100
AcDbLine
 10
1837.598747238477
 20
866.7303920120899
 30
0.0
 11
1831.202513445235
 21
941.6549449132714
 31
0.0
  0
LINE
  5
67B
330
1F
100
AcDbEntity
  8
AM_0
100
AcDbLine
 10
1793.3652511115
 20
943.7259984433737
 30
0.0
 11
1793.3652511115
 21
849.231665130817
 31
0.0
  0
LINE
  5
67C
330
1F
100
AcDbEntity
  8
AM_3
100
AcDbLine
 10
1945.131754984522
 20
866.7303920120899
 30
0.0
 11
1951.527988777764
 21
941.6549449132695
 31
0.0
  0
LINE
  5
67D
330
1F
100
AcDbEntity
  8
AM_3
100
AcDbLine
 10
1947.116132389834
 20
866.4808999014217
 30
0.0
 11
1953.512366183077
 21
941.4054528026078
 31
0.0
  0
ARC
  5
67E
330
1F
100
AcDbEntity
  8
AM_0
100
AcDbCircle
 10
2013.865251111501
 20
880.8014662049991
 30
0.0
 40
53.25
100
AcDbArc
 50
305.1054462199577
 51
0.0
1001
GENIUS_GENOBJ-N-FIL_13
1002
{
1000
OWNER
1000
GEN
1002
}
1001
GENIUS_GENODEF_13
1002
{
1000
HIER
1070
     0
1002
}
1002
{
1000
MANEDIT
1070
     0
1002
}
1002
{
1000
NOSEL
1070
     0
1002
}
1002
{
1000
BEHIND
1070
     0
1002
}
1002
{
1000
OTHER
1070
     0
1002
}
1002
{
1000
REACTOR
1002
}
  0
ARC
  5
67F
330
1F
100
AcDbEntity
  8
AM_0
100
AcDbCircle
 10
2013.865251111501
 20
880.8014662049991
 30
0.0
 40
54.5
100
AcDbArc
 50
305.1054462199577
 51
0.0
1001
GENIUS_GENOBJ-N-FIL_13
1002
{
1000
OWNER
1000
GEN
1002
}
1001
GENIUS_GENODEF_13
1002
{
1000
HIER
1070
     0
1002
}
1002
{
1000
MANEDIT
1070
     0
1002
}
1002
{
1000
NOSEL
1070
     0
1002
}
1002
{
1000
BEHIND
1070
     0
1002
}
1002
{
1000
OTHER
1070
     0
1002
}
1002
{
1000
REACTOR
1002
}
  0
LINE
  5
680
330
1F
100
AcDbEntity
  8
AM_0
100
AcDbLine
 10
1989.3652511115
 20
943.7259984433737
 30
0.0
 11
1989.3652511115
 21
849.2316651308167
 31
0.0
  0
LINE
  5
681
330
1F
100
AcDbEntity
  8
AM_0
100
AcDbLine
 10
1991.3652511115
 20
943.7259984433737
 30
0.0
 11
1991.3652511115
 21
848.4032380060712
 31
0.0
  0
ARC
  5
682
330
1F
100
AcDbEntity
  8
AM_0
100
AcDbCircle
 10
1770.265251111504
 20
1092.346992676731
 30
0.0
 40
54.64999999999999
100
AcDbArc
 50
122.0825361652952
 51
180.0
1001
GENIUS_GENODEF_13
1002
{
1000
HIER
1070
     0
1002
}
1002
{
1000
MANEDIT
1070
     0
1002
}
1002
{
1000
NOSEL
1070
     0
1002
}
1002
{
1000
BEHIND
1070
     0
1002
}
1002
{
1000
REACTOR
1002
}
1001
GENIUS_GENOBJ-N-FIL_13
1002
{
1000
OWNER
1000
GEN
1002
}
  0
ARC
  5
683
330
1F
100
AcDbEntity
  8
AM_0
100
AcDbCircle
 10
1770.265251111504
 20
1092.346992676731
 30
0.0
 40
55.89999999999999
100
AcDbArc
 50
122.0825361652952
 51
180.0
1001
GENIUS_GENODEF_13
1002
{
1000
HIER
1070
     0
1002
}
1002
{
1000
MANEDIT
1070
     0
1002
}
1002
{
1000
NOSEL
1070
     0
1002
}
1002
{
1000
BEHIND
1070
     0
1002
}
1002
{
1000
REACTOR
1002
}
1001
GENIUS_GENOBJ-N-FIL_13
1002
{
1000
OWNER
1000
GEN
1002
}
  0
LINE
  5
684
330
1F
100
AcDbEntity
  8
AM_0
100
AcDbLine
 10
1716.865251111502
 20
989.2983249847558
 30
0.0
 11
1716.865251111502
 21
983.0662741771872
 31
0.0
1001
GENIUS_GENODEF_13
1002
{
1000
HIER
1070
     0
1002
}
1002
{
1000
MANEDIT
1070
     0
1002
}
1002
{
1000
NOSEL
1070
     0
1002
}
1002
{
1000
BEHIND
1070
     0
1002
}
1002
{
1000
REACTOR
1002
}
1001
GENIUS_GENOBJ-N-CEN_13
1002
{
1000
OWNER
1000
GEN
1002
}
  0
LINE
  5
685
330
1F
100
AcDbEntity
  8
AM_0
100
AcDbLine
 10
1715.615251111502
 20
983.0662741771872
 30
0.0
 11
1826.061905170014
 21
983.0662741771872
 31
0.0
  0
ARC
  5
686
330
1F
100
AcDbEntity
  8
AM_0
100
AcDbCircle
 10
1715.615251111502
 20
992.0662741771867
 30
0.0
 40
1.25
100
AcDbArc
 50
180.0
 51
210.0000000000094
1001
GENIUS_GENODEF_13
1002
{
1000
HIER
1070
     0
1002
}
1002
{
1000
MANEDIT
1070
     0
1002
}
1002
{
1000
NOSEL
1070
     0
1002
}
1002
{
1000
BEHIND
1070
     0
1002
}
1002
{
1000
REACTOR
1002
}
1001
GENIUS_GENOBJ-N-FIL_13
1002
{
1000
OWNER
1000
GEN
1002
}
  0
LINE
  5
687
330
1F
100
AcDbEntity
  8
AM_0
100
AcDbLine
 10
1716.563808270018
 20
990.4233249847559
 30
0.0
 11
1715.615251111502
 21
992.0662741771867
 31
0.0
  0
ARC
  5
688
330
1F
100
AcDbEntity
  8
AM_0
100
AcDbCircle
 10
1714.615251111502
 20
989.2983249847558
 30
0.0
 40
1.0
100
AcDbArc
 50
0.0
 51
30.00000000000945
1001
GENIUS_GENODEF_13
1002
{
1000
HIER
1070
     0
1002
}
1002
{
1000
MANEDIT
1070
     0
1002
}
1002
{
1000
NOSEL
1070
     0
1002
}
1002
{
1000
BEHIND
1070
     0
1002
}
1002
{
1000
REACTOR
1002
}
1001
GENIUS_GENOBJ-N-FIL_13
1002
{
1000
OWNER
1000
GEN
1002
}
  0
ARC
  5
689
330
1F
100
AcDbEntity
  8
AM_0
100
AcDbCircle
 10
1714.615251111502
 20
989.2983249847558
 30
0.0
 40
2.25
100
AcDbArc
 50
0.0
 51
30.00000000000945
1001
GENIUS_GENODEF_13
1002
{
1000
HIER
1070
     0
1002
}
1002
{
1000
MANEDIT
1070
     0
1002
}
1002
{
1000
NOSEL
1070
     0
1002
}
1002
{
1000
BEHIND
1070
     0
1002
}
1002
{
1000
REACTOR
1002
}
1001
GENIUS_GENOBJ-N-FIL_13
1002
{
1000
OWNER
1000
GEN
1002
}
  0
LINE
  5
68A
330
1F
100
AcDbEntity
  8
AM_0
100
AcDbLine
 10
1715.481276515287
 20
989.7983249847557
 30
0.0
 11
1714.532719356772
 21
991.4412741771867
 31
0.0
  0
LINE
  5
68B
330
1F
100
AcDbEntity
  8
AM_0
100
AcDbLine
 10
1714.365251111502
 20
989.4133348067937
 30
0.0
 11
1714.3652511115
 21
880.8724286622705
 31
0.0
1001
GENIUS_GENODEF_13
1002
{
1000
HIER
1070
     0
1002
}
1002
{
1000
MANEDIT
1070
     0
1002
}
1002
{
1000
NOSEL
1070
     0
1002
}
1002
{
1000
BEHIND
1070
     0
1002
}
1002
{
1000
REACTOR
1002
}
1001
GENIUS_GENOBJ-N-CEN_13
1002
{
1000
OWNER
1000
GEN
1002
}
  0
LINE
  5
68C
330
1F
100
AcDbEntity
  8
AM_0
100
AcDbLine
 10
1715.615251111502
 20
989.4133348067937
 30
0.0
 11
1715.615251111501
 21
880.8724286622705
 31
0.0
1001
GENIUS_GENODEF_13
1002
{
1000
HIER
1070
     0
1002
}
1002
{
1000
MANEDIT
1070
     0
1002
}
1002
{
1000
NOSEL
1070
     0
1002
}
1002
{
1000
BEHIND
1070
     0
1002
}
1002
{
1000
REACTOR
1002
}
1001
GENIUS_GENOBJ-N-CEN_13
1002
{
1000
OWNER
1000
GEN
1002
}
  0
LINE
  5
68D
330
1F
100
AcDbEntity
  8
AM_0
100
AcDbLine
 10
1715.615251111504
 20
1092.346992676731
 30
0.0
 11
1715.615251111502
 21
992.0662741771867
 31
0.0
1001
GENIUS_GENODEF_13
1002
{
1000
HIER
1070
     0
1002
}
1002
{
1000
MANEDIT
1070
     0
1002
}
1002
{
1000
NOSEL
1070
     0
1002
}
1002
{
1000
BEHIND
1070
     0
1002
}
1002
{
1000
REACTOR
1002
}
1001
GENIUS_GENOBJ-N-CEN_13
1002
{
1000
OWNER
1000
GEN
1002
}
  0
LINE
  5
68E
330
1F
100
AcDbEntity
  8
AM_0
100
AcDbLine
 10
1714.365251111504
 20
1092.346992676731
 30
0.0
 11
1714.365251111502
 21
992.0662741771867
 31
0.0
1001
GENIUS_GENODEF_13
1002
{
1000
HIER
1070
     0
1002
}
1002
{
1000
MANEDIT
1070
     0
1002
}
1002
{
1000
NOSEL
1070
     0
1002
}
1002
{
1000
BEHIND
1070
     0
1002
}
1002
{
1000
REACTOR
1002
}
1001
GENIUS_GENOBJ-N-CEN_13
1002
{
1000
OWNER
1000
GEN
1002
}
  0
LINE
  5
68F
330
1F
100
AcDbEntity
  8
AM_3
100
AcDbLine
 10
1740.565365427944
 20
1051.913334806793
 30
0.0
 11
1740.565365427944
 21
1006.913334806794
 31
0.0
  0
DIMENSION
  5
690
330
1F
100
AcDbEntity
  8
AM_5
100
AcDbDimension
  2
*D17
 10
1696.883322868638
 20
989.4133348067937
 30
0.0
 11
1690.383322868638
 21
1009.413334806793
 31
0.0
 70
    32
  1
<> {}{\C2;%%p3}
 71
     5
 42
39.99999999999977
 73
     0
 74
     0
 75
     0
  3
AM_DIN
100
AcDbAlignedDimension
 13
1737.565365427944
 23
1029.413334806793
 33
0.0
 14
1714.365251111502
 24
989.4133348067937
 34
0.0
 50
90.0
100
AcDbRotatedDimension
1001
GENIUS_GENDTOL_13
1000
TolPm
1000

1000
{$3%%p$P}
1040
37.38
1001
ACAD
1000
DSTYLE
1002
{
1070
    40
1040
2.0
1070
    47
1040
3.0
1070
    48
1040
3.0
1002
}
  0
ARC
  5
691
330
1F
100
AcDbEntity
  8
AM_0
100
AcDbCircle
 10
1768.865251111499
 20
880.8014662049991
 30
0.0
 40
54.5
100
AcDbArc
 50
180.0
 51
234.8945537800423
1001
GENIUS_GENOBJ-N-FIL_13
1002
{
1000
OWNER
1000
GEN
1002
}
1001
GENIUS_GENODEF_13
1002
{
1000
HIER
1070
     0
1002
}
1002
{
1000
MANEDIT
1070
     0
1002
}
1002
{
1000
NOSEL
1070
     0
1002
}
1002
{
1000
BEHIND
1070
     0
1002
}
1002
{
1000
OTHER
1070
     0
1002
}
1002
{
1000
REACTOR
1002
}
  0
ARC
  5
692
330
1F
100
AcDbEntity
  8
AM_0
100
AcDbCircle
 10
1768.865251111499
 20
880.8014662049991
 30
0.0
 40
53.25
100
AcDbArc
 50
180.0
 51
234.8945537800423
1001
GENIUS_GENOBJ-N-FIL_13
1002
{
1000
OWNER
1000
GEN
1002
}
1001
GENIUS_GENODEF_13
1002
{
1000
HIER
1070
     0
1002
}
1002
{
1000
MANEDIT
1070
     0
1002
}
1002
{
1000
NOSEL
1070
     0
1002
}
1002
{
1000
BEHIND
1070
     0
1002
}
1002
{
1000
OTHER
1070
     0
1002
}
1002
{
1000
REACTOR
1002
}
  0
ARC
  5
693
330
1F
100
AcDbEntity
  8
AM_0
100
AcDbCircle
 10
1811.3652511115
 20
943.7259984433737
 30
0.0
 40
20.0
100
AcDbArc
 50
120.0000000000005
 51
180.0
1001
GENIUS_GENODEF_13
1002
{
1000
HIER
1070
     0
1002
}
1002
{
1000
MANEDIT
1070
     0
1002
}
1002
{
1000
NOSEL
1070
     0
1002
}
1002
{
1000
BEHIND
1070
     0
1002
}
1002
{
1000
OTHER
1070
     0
1002
}
1002
{
1000
REACTOR
1002
}
1001
GENIUS_GENOBJ-N-FIL_13
1002
{
1000
OWNER
1000
GEN
1002
}
  0
DIMENSION
  5
694
330
1F
100
AcDbEntity
  8
AM_5
100
AcDbDimension
  2
*D18
 10
2068.365251111502
 20
892.314003619434
 30
0.0
 11
1864.356092516109
 21
892.314003619434
 31
0.0
 70
   160
  1
ø<>
 71
     5
 42
353.9999999999991
 73
     0
 74
     0
 75
     0
  3
AM_DIN
100
AcDbAlignedDimension
 13
1714.365251111502
 23
885.3414146894905
 33
0.0
 14
2068.365251111502
 24
885.3414146894905
 34
0.0
100
AcDbRotatedDimension
1001
ACAD
1000
DSTYLE
1002
{
1070
    40
1040
2.0
1002
}
  0
DIMENSION
  5
695
330
1F
100
AcDbEntity
  8
AM_5
100
AcDbDimension
  2
*D19
 10
1670.798189184284
 20
754.9131276633355
 30
0.0
 11
1664.298189184284
 21
982.3553133650056
 31
0.0
 70
    32
  1
<> {}{\C2;%%p4}
 71
     5
 42
454.8843714033396
 73
     0
 74
     0
 75
     0
  3
AM_DIN
100
AcDbAlignedDimension
 13
1889.944054942962
 23
1209.797499066675
 33
0.0
 14
1880.645251111537
 24
754.9131276633355
 34
0.0
 50
90.0
100
AcDbRotatedDimension
1001
ACAD
1000
DSTYLE
1002
{
1070
    40
1040
2.0
1070
    47
1040
4.0
1070
    48
1040
4.0
1070
   271
1070
     0
1002
}
1001
GENIUS_GENDTOL_13
1000
TolPm
1000

1000
{$3%%p$P}
1040
455.0
  0
DIMENSION
  5
697
330
1F
100
AcDbEntity
  8
AM_5
100
AcDbDimension
  2
*D21
 10
1696.883322868638
 20
989.4133348067937
 30
0.0
 11
1690.38263389226
 21
883.1632312903055
 31
0.0
 70
    32
  1
<> {}{\C2;%%p2}
 71
     5
 42
212.5002070329766
 73
     0
 74
     0
 75
     0
  3
AM_DIN
100
AcDbAlignedDimension
 13
1848.864507870743
 23
776.913127773817
 33
0.0
 14
1714.365251111502
 24
989.4133348067937
 34
0.0
 50
90.0
100
AcDbRotatedDimension
1001
ACAD
1000
DSTYLE
1002
{
1070
    40
1040
2.0
1070
    47
1040
2.0
1070
    48
1040
2.0
1070
   271
1070
     0
1002
}
1001
GENIUS_GENDTOL_13
1000
TolPm
1000

1000
{$3%%p$P}
1040
248.0
  0
ARC
  5
698
330
1F
100
AcDbEntity
  8
AM_0
100
AcDbCircle
 10
1811.3652511115
 20
849.2316651308176
 30
0.0
 40
20.0
100
AcDbArc
 50
180.0
 51
225.0000000000092
1001
GENIUS_GENODEF_13
1002
{
1000
HIER
1070
     0
1002
}
1002
{
1000
MANEDIT
1070
     0
1002
}
1002
{
1000
NOSEL
1070
     0
1002
}
1002
{
1000
BEHIND
1070
     0
1002
}
1002
{
1000
OTHER
1070
     0
1002
}
1002
{
1000
REACTOR
1002
}
1001
GENIUS_GENOBJ-N-FIL_13
1002
{
1000
OWNER
1000
GEN
1002
}
  0
LINE
  5
699
330
1F
100
AcDbEntity
  8
AM_7
100
AcDbLine
 10
1823.565365427944
 20
1029.413334806793
 30
0.0
 11
1737.565365427944
 21
1029.413334806793
 31
0.0
  0
LINE
  5
69A
330
1F
100
AcDbEntity
  8
AM_3
100
AcDbLine
 10
1820.565365427944
 20
1008.413334806793
 30
0.0
 11
1740.565365427944
 21
1008.413334806793
 31
0.0
  0
LINE
  5
69B
330
1F
100
AcDbEntity
  8
AM_3
100
AcDbLine
 10
1820.565365427944
 20
1050.413334806793
 30
0.0
 11
1740.565365427944
 21
1050.413334806793
 31
0.0
  0
LINE
  5
69C
330
1F
100
AcDbEntity
  8
AM_3
100
AcDbLine
 10
1740.565365427944
 20
1006.913334806794
 30
0.0
 11
1820.565365427944
 21
1006.913334806794
 31
0.0
  0
LINE
  5
69D
330
1F
100
AcDbEntity
  8
AM_3
100
AcDbLine
 10
1820.565365427944
 20
1051.913334806793
 30
0.0
 11
1740.565365427944
 21
1051.913334806793
 31
0.0
  0
ARC
  5
69F
330
1F
100
AcDbEntity
  8
0
100
AcDbCircle
 10
1885.89299857672
 20
1047.281467678031
 30
0.0
 40
256.7471365087093
100
AcDbArc
 50
234.8945537800604
 51
261.9245786576782
  0
ARC
  5
6A0
330
1F
100
AcDbEntity
  8
0
100
AcDbCircle
 10
1885.89299857672
 20
1047.281467678031
 30
0.0
 40
257.9971365087093
100
AcDbArc
 50
234.8945537800604
 51
261.9480989900792
  0
ARC
  5
6A1
330
1F
100
AcDbEntity
  8
AM_0
100
AcDbCircle
 10
1849.615251111538
 20
790.8376302426903
 30
0.0
 40
1.0
100
AcDbArc
 50
0.0
 51
81.94809899007919
1001
GENIUS_GENOBJ-N-FIL_13
1002
{
1000
OWNER
1000
GEN
1002
}
1001
GENIUS_GENODEF_13
1002
{
1000
HIER
1070
     0
1002
}
1002
{
1000
MANEDIT
1070
     0
1002
}
1002
{
1000
NOSEL
1070
     0
1002
}
1002
{
1000
BEHIND
1070
     0
1002
}
1002
{
1000
OTHER
1070
     0
1002
}
1002
{
1000
REACTOR
1002
}
  0
ARC
  5
6A2
330
1F
100
AcDbEntity
  8
0
100
AcDbCircle
 10
1896.83750364628
 20
1047.281467678031
 30
0.0
 40
257.9971365087093
100
AcDbArc
 50
278.0519010099346
 51
305.1054462199396
  0
ARC
  5
6A3
330
1F
100
AcDbEntity
  8
AM_0
100
AcDbCircle
 10
1933.115251111538
 20
790.837630242701
 30
0.0
 40
1.0
100
AcDbArc
 50
98.05190100994749
 51
180.0
1001
GENIUS_GENODEF_13
1002
{
1000
HIER
1070
     0
1002
}
1002
{
1000
MANEDIT
1070
     0
1002
}
1002
{
1000
NOSEL
1070
     0
1002
}
1002
{
1000
BEHIND
1070
     0
1002
}
1002
{
1000
OTHER
1070
     0
1002
}
1002
{
1000
REACTOR
1002
}
1001
GENIUS_GENOBJ-N-FIL_13
1002
{
1000
OWNER
1000
GEN
1002
}
  0
ARC
  5
6A4
330
1F
100
AcDbEntity
  8
0
100
AcDbCircle
 10
1896.83750364628
 20
1047.281467678031
 30
0.0
 40
256.7471365087093
100
AcDbArc
 50
278.0540332829825
 51
305.1054462199396
  0
LINE
  5
6A5
330
1F
100
AcDbEntity
  8
0
100
AcDbLine
 10
1959.478259631812
 20
805.237329661873
 30
0.0
 11
1986.093173172858
 21
835.6753159447134
 31
0.0
  0
ARC
  5
6A6
330
1F
100
AcDbEntity
  8
AM_0
100
AcDbCircle
 10
1940.65822841865
 20
821.693526826942
 30
0.0
 40
25.0
100
AcDbArc
 50
287.2945875637571
 51
318.8336168303113
1001
GENIUS_GENOBJ-N-FIL_13
1002
{
1000
OWNER
1000
GEN
1002
}
1001
GENIUS_GENODEF_13
1002
{
1000
HIER
1070
     0
1002
}
1002
{
1000
MANEDIT
1070
     0
1002
}
1002
{
1000
NOSEL
1070
     0
1002
}
1002
{
1000
BEHIND
1070
     0
1002
}
1002
{
1000
OTHER
1070
     0
1002
}
1002
{
1000
REACTOR
1002
}
  0
LINE
  5
6A7
330
1F
100
AcDbEntity
  8
0
100
AcDbLine
 10
1957.503640331457
 20
805.9858112519172
 30
0.0
 11
1984.093173172858
 21
836.5037430694592
 31
0.0
  0
ARC
  5
6A8
330
1F
100
AcDbEntity
  8
AM_0
100
AcDbCircle
 10
1942.424308669666
 20
819.1240667157789
 30
0.0
 40
20.0
100
AcDbArc
 50
282.0332980778555
 51
318.9351538314713
1001
GENIUS_GENOBJ-N-FIL_13
1002
{
1000
OWNER
1000
GEN
1002
}
1001
GENIUS_GENODEF_13
1002
{
1000
HIER
1070
     0
1002
}
1002
{
1000
MANEDIT
1070
     0
1002
}
1002
{
1000
NOSEL
1070
     0
1002
}
1002
{
1000
BEHIND
1070
     0
1002
}
1002
{
1000
OTHER
1070
     0
1002
}
1002
{
1000
REACTOR
1002
}
  0
LINE
  5
6A9
330
1F
100
AcDbEntity
  8
0
100
AcDbLine
 10
1825.218998019585
 20
805.6397189613022
 30
0.0
 11
1798.637329050142
 21
836.5037430694592
 31
0.0
  0
LINE
  5
6AA
330
1F
100
AcDbEntity
  8
0
100
AcDbLine
 10
1823.138523520056
 20
805.0484268427178
 30
0.0
 11
1797.223115487769
 21
835.0895295070866
 31
0.0
  0
ARC
  5
6AB
330
1F
100
AcDbEntity
  8
AM_0
100
AcDbCircle
 10
1842.068191593466
 20
821.3783890787588
 30
0.0
 40
25.0
100
AcDbArc
 50
220.7831906230973
 51
253.7295518239544
1001
GENIUS_GENOBJ-N-FIL_13
1002
{
1000
OWNER
1000
GEN
1002
}
1001
GENIUS_GENODEF_13
1002
{
1000
HIER
1070
     0
1002
}
1002
{
1000
MANEDIT
1070
     0
1002
}
1002
{
1000
NOSEL
1070
     0
1002
}
1002
{
1000
BEHIND
1070
     0
1002
}
1002
{
1000
OTHER
1070
     0
1002
}
1002
{
1000
REACTOR
1002
}
  0
MTEXT
  5
6AD
330
1F
100
AcDbEntity
  8
AM_6
 62
     7
100
AcDbMText
 10
1938.402977472586
 20
830.4026469186316
 30
0.0
 40
13.56047352831319
 41
0.0
 46
0.0
 71
     5
 72
     5
  1
Z
 73
     1
 44
1.0
1001
GENIUS_GENOBJ-N-ZOO_13
1002
{
1000
OWNER
1000
GEN
1002
}
1001
GENIUS_GENODEF_13
1002
{
1000
HIER
1070
     0
1002
}
1002
{
1000
MANEDIT
1070
     0
1002
}
1002
{
1000
NOSEL
1070
     0
1002
}
1002
{
1000
BEHIND
1070
     0
1002
}
1002
{
1000
OTHER
1070
     0
1002
}
1002
{
1000
REACTOR
1002
}
1001
GENIUS_GENZOO_16
1002
{
1000
TYP
1070
     1
1002
}
1002
{
1000
OBJ
1005
0
1002
}
1002
{
1000
SSYM
1005
0
1002
}
1002
{
1000
DSYM
1005
0
1002
}
1002
{
1000
SIZE
1040
14119.92726833473
1002
}
1002
{
1000
ORIGIN
1010
323.1649870679203
1020
290.6283908219497
1030
0.0
1002
}
  0
ARC
  5
6AE
330
1F
100
AcDbEntity
  8
AM_3
100
AcDbCircle
 10
2343.50973131717
 20
955.1768162856246
 30
0.0
 40
43.13765517385517
100
AcDbArc
 50
0.0
 51
180.0
  0
ARC
  5
6AF
330
1F
100
AcDbEntity
  8
AM_3
100
AcDbCircle
 10
2343.50973131717
 20
955.1768162856246
 30
0.0
 40
40.46234484814442
100
AcDbArc
 50
0.0
 51
180.0
  0
ARC
  5
6B0
330
1F
100
AcDbEntity
  8
AM_3
100
AcDbCircle
 10
2343.50973131717
 20
955.1768162856246
 30
0.0
 40
47.50000001249991
100
AcDbArc
 50
0.0
 51
180.0
  0
ARC
  5
6B1
330
1F
100
AcDbEntity
  8
AM_3
100
AcDbCircle
 10
2343.50973131717
 20
955.1768162856246
 30
0.0
 40
33.114285723
100
AcDbArc
 50
0.0
 51
180.0
  0
ARC
  5
6B2
330
1F
100
AcDbEntity
  8
AM_0
100
AcDbCircle
 10
1933.115251111538
 20
790.8376508999403
 30
0.0
 40
2.25
100
AcDbArc
 50
97.68615262813732
 51
180.0
  0
LINE
  5
6B3
330
1F
100
AcDbEntity
  8
AM_0
100
AcDbLine
 10
1948.090345454442
 20
797.8238046591772
 30
0.0
 11
1932.814321084967
 21
793.0674358938598
 31
0.0
  0
ARC
  5
6B4
330
1F
100
AcDbEntity
  8
AM_0
100
AcDbCircle
 10
1930.365251111538
 20
793.5674358938594
 30
0.0
 40
2.5
100
AcDbArc
 50
109.103324477467
 51
180.0
1001
GENIUS_GENODEF_13
1002
{
1000
HIER
1070
     0
1002
}
1002
{
1000
MANEDIT
1070
     0
1002
}
1002
{
1000
NOSEL
1070
     0
1002
}
1002
{
1000
BEHIND
1070
     0
1002
}
1002
{
1000
REACTOR
1002
}
1001
GENIUS_GENOBJ-N-FIL_13
1002
{
1000
OWNER
1000
GEN
1002
}
  0
LINE
  5
6B5
330
1F
100
AcDbEntity
  8
AM_0
100
AcDbLine
 10
1930.365251111538
 20
796.0674358938594
 30
0.0
 11
1930.365251111538
 21
796.0674358938594
 31
0.0
  0
LINE
  5
6B6
330
1F
100
AcDbEntity
  8
AM_0
100
AcDbLine
 10
1929.547069293356
 20
795.9297607048023
 30
0.0
 11
1946.593911009741
 21
799.5635346083528
 31
0.0
  0
LINE
  5
6B7
330
1F
100
AcDbEntity
  8
AM_0
100
AcDbLine
 10
1935.597301919107
 20
779.4131276633355
 30
0.0
 11
1936.115251111538
 21
779.4131276633355
 31
0.0
  0
ARC
  5
6B8
330
1F
100
AcDbEntity
  8
AM_0
100
AcDbCircle
 10
1936.115251111538
 20
780.4131276633356
 30
0.0
 40
1.0
100
AcDbArc
 50
270.0
 51
0.0
1001
GENIUS_GENODEF_13
1002
{
1000
HIER
1070
     0
1002
}
1002
{
1000
MANEDIT
1070
     0
1002
}
1002
{
1000
NOSEL
1070
     0
1002
}
1002
{
1000
BEHIND
1070
     0
1002
}
1002
{
1000
REACTOR
1002
}
1001
GENIUS_GENOBJ-N-FIL_13
1002
{
1000
OWNER
1000
GEN
1002
}
  0
LINE
  5
6B9
330
1F
100
AcDbEntity
  8
AM_0
100
AcDbLine
 10
1935.865251111538
 20
780.2131276633357
 30
0.0
 11
1936.915251111539
 21
780.2131276633357
 31
0.0
  0
ARC
  5
6BA
330
1F
100
AcDbEntity
  8
AM_0
100
AcDbCircle
 10
1936.915251111539
 20
780.4131276633356
 30
0.0
 40
0.2
100
AcDbArc
 50
270.0
 51
0.0
  0
LINE
  5
6BB
330
1F
100
AcDbEntity
  8
AM_0
100
AcDbLine
 10
1935.865251111538
 20
779.4131276633355
 30
0.0
 11
1935.865251111538
 21
784.2131276633357
 31
0.0
  0
LINE
  5
6BC
330
1F
100
AcDbEntity
  8
AM_0
100
AcDbLine
 10
1937.115251111538
 20
784.2131276633357
 30
0.0
 11
1937.115251111538
 21
780.4131276633356
 31
0.0
  0
LINE
  5
6BD
330
1F
100
AcDbEntity
  8
AM_0
100
AcDbLine
 10
1933.115251111538
 20
785.2131276633357
 30
0.0
 11
1934.865251111538
 21
785.2131276633357
 31
0.0
  0
LINE
  5
6BE
330
1F
100
AcDbEntity
  8
AM_0
100
AcDbLine
 10
1933.115251111538
 20
786.4631276633357
 30
0.0
 11
1934.865251111538
 21
786.4631276633357
 31
0.0
  0
ARC
  5
6BF
330
1F
100
AcDbEntity
  8
AM_0
100
AcDbCircle
 10
1933.115251111538
 20
787.4631276633357
 30
0.0
 40
1.0
100
AcDbArc
 50
180.0
 51
270.0
  0
ARC
  5
6C0
330
1F
100
AcDbEntity
  8
AM_0
100
AcDbCircle
 10
1932.13320030397
 20
778.4131276633355
 30
0.0
 40
1.0
100
AcDbArc
 50
30.00000000000945
 51
90.0
1001
GENIUS_GENODEF_13
1002
{
1000
HIER
1070
     0
1002
}
1002
{
1000
MANEDIT
1070
     0
1002
}
1002
{
1000
NOSEL
1070
     0
1002
}
1002
{
1000
BEHIND
1070
     0
1002
}
1002
{
1000
REACTOR
1002
}
1001
GENIUS_GENOBJ-N-FIL_13
1002
{
1000
OWNER
1000
GEN
1002
}
  0
ARC
  5
6C1
330
1F
100
AcDbEntity
  8
AM_0
100
AcDbCircle
 10
1933.865251111538
 20
779.4131276633355
 30
0.0
 40
1.0
100
AcDbArc
 50
210.0000000000094
 51
329.9999999999906
  0
ARC
  5
6C2
330
1F
100
AcDbEntity
  8
AM_0
100
AcDbCircle
 10
1935.597301919107
 20
778.4131276633355
 30
0.0
 40
1.0
100
AcDbArc
 50
90.0
 51
149.9999999999905
1001
GENIUS_GENODEF_13
1002
{
1000
HIER
1070
     0
1002
}
1002
{
1000
MANEDIT
1070
     0
1002
}
1002
{
1000
NOSEL
1070
     0
1002
}
1002
{
1000
BEHIND
1070
     0
1002
}
1002
{
1000
REACTOR
1002
}
1001
GENIUS_GENOBJ-N-FIL_13
1002
{
1000
OWNER
1000
GEN
1002
}
  0
ARC
  5
6C3
330
1F
100
AcDbEntity
  8
AM_0
100
AcDbCircle
 10
1934.865251111538
 20
784.2131276633357
 30
0.0
 40
1.0
100
AcDbArc
 50
0.0
 51
90.0
  0
ARC
  5
6C4
330
1F
100
AcDbEntity
  8
AM_0
100
AcDbCircle
 10
1934.865251111538
 20
784.2131276633357
 30
0.0
 40
2.25
100
AcDbArc
 50
0.0
 51
90.0
  0
ARC
  5
6C5
330
1F
100
AcDbEntity
  8
AM_0
100
AcDbCircle
 10
1928.865251111538
 20
780.4131276633356
 30
0.0
 40
1.0
100
AcDbArc
 50
180.0
 51
270.0
1001
GENIUS_GENODEF_13
1002
{
1000
HIER
1070
     0
1002
}
1002
{
1000
MANEDIT
1070
     0
1002
}
1002
{
1000
NOSEL
1070
     0
1002
}
1002
{
1000
BEHIND
1070
     0
1002
}
1002
{
1000
REACTOR
1002
}
1001
GENIUS_GENOBJ-N-FIL_13
1002
{
1000
OWNER
1000
GEN
1002
}
  0
LINE
  5
6C6
330
1F
100
AcDbEntity
  8
AM_0
100
AcDbLine
 10
1928.865251111538
 20
779.4131276633355
 30
0.0
 11
1932.13320030397
 21
779.4131276633355
 31
0.0
  0
ARC
  5
6C7
330
1F
100
AcDbEntity
  8
AM_0
100
AcDbCircle
 10
1933.115251111538
 20
787.4631276633357
 30
0.0
 40
2.25
100
AcDbArc
 50
180.0
 51
270.0
  0
LINE
  5
6C8
330
1F
100
AcDbEntity
  8
AM_0
100
AcDbLine
 10
1932.115251111538
 20
787.4631276633357
 30
0.0
 11
1932.115251111538
 21
790.837630242701
 31
0.0
  0
LINE
  5
6C9
330
1F
100
AcDbEntity
  8
AM_0
100
AcDbLine
 10
1930.865251111538
 20
787.4631276633357
 30
0.0
 11
1930.865251111538
 21
790.8376508999403
 31
0.0
  0
LINE
  5
6CA
330
1F
100
AcDbEntity
  8
AM_0
100
AcDbLine
 10
1927.865251111538
 20
793.5674358938594
 30
0.0
 11
1927.865251111538
 21
780.4131276633356
 31
0.0
  0
ARC
  5
6CB
330
1F
100
AcDbEntity
  8
AM_0
100
AcDbCircle
 10
1849.365251111538
 20
790.6230680298507
 30
0.0
 40
2.5
100
AcDbArc
 50
0.0
 51
81.13645032565434
1001
GENIUS_GENODEF_13
1002
{
1000
HIER
1070
     0
1002
}
1002
{
1000
MANEDIT
1070
     0
1002
}
1002
{
1000
NOSEL
1070
     0
1002
}
1002
{
1000
BEHIND
1070
     0
1002
}
1002
{
1000
REACTOR
1002
}
1001
GENIUS_GENOBJ-N-FIL_13
1002
{
1000
OWNER
1000
GEN
1002
}
  0
ARC
  5
6CC
330
1F
100
AcDbEntity
  8
AM_0
100
AcDbCircle
 10
1852.365251111538
 20
793.5674358938594
 30
0.0
 40
2.5
100
AcDbArc
 50
0.0
 51
70.89667552253295
1001
GENIUS_GENODEF_13
1002
{
1000
HIER
1070
     0
1002
}
1002
{
1000
MANEDIT
1070
     0
1002
}
1002
{
1000
NOSEL
1070
     0
1002
}
1002
{
1000
BEHIND
1070
     0
1002
}
1002
{
1000
REACTOR
1002
}
1001
GENIUS_GENOBJ-N-FIL_13
1002
{
1000
OWNER
1000
GEN
1002
}
  0
LINE
  5
6CD
330
1F
100
AcDbEntity
  8
AM_0
100
AcDbLine
 10
1835.063900931628
 20
797.379640937981
 30
0.0
 11
1849.750455702812
 21
793.0932132528809
 31
0.0
  0
LINE
  5
6CE
330
1F
100
AcDbEntity
  8
AM_0
100
AcDbLine
 10
1836.674650606274
 20
799.0363785249925
 30
0.0
 11
1853.18343292972
 21
795.9297607048023
 31
0.0
  0
ARC
  5
6CF
330
1F
100
AcDbEntity
  8
AM_0
100
AcDbCircle
 10
1840.373326442812
 20
818.6913981651812
 30
0.0
 40
20.0
100
AcDbArc
 50
220.7367058950376
 51
259.3427276573895
1001
GENIUS_GENOBJ-N-FIL_13
1002
{
1000
OWNER
1000
GEN
1002
}
1001
GENIUS_GENODEF_13
1002
{
1000
HIER
1070
     0
1002
}
1002
{
1000
MANEDIT
1070
     0
1002
}
1002
{
1000
NOSEL
1070
     0
1002
}
1002
{
1000
BEHIND
1070
     0
1002
}
1002
{
1000
OTHER
1070
     0
1002
}
1002
{
1000
REACTOR
1002
}
  0
ARC
  5
6D0
330
1F
100
AcDbEntity
  8
AM_0
100
AcDbCircle
 10
1849.615251111538
 20
787.4631276633357
 30
0.0
 40
1.0
100
AcDbArc
 50
270.0
 51
0.0
  0
ARC
  5
6D1
330
1F
100
AcDbEntity
  8
AM_0
100
AcDbCircle
 10
1849.615251111538
 20
787.4631276633357
 30
0.0
 40
2.25
100
AcDbArc
 50
270.0
 51
0.0
  0
ARC
  5
6D2
330
1F
100
AcDbEntity
  8
AM_0
100
AcDbCircle
 10
1853.865251111539
 20
780.4131276633356
 30
0.0
 40
1.0
100
AcDbArc
 50
270.0
 51
0.0
1001
GENIUS_GENODEF_13
1002
{
1000
HIER
1070
     0
1002
}
1002
{
1000
MANEDIT
1070
     0
1002
}
1002
{
1000
NOSEL
1070
     0
1002
}
1002
{
1000
BEHIND
1070
     0
1002
}
1002
{
1000
REACTOR
1002
}
1001
GENIUS_GENOBJ-N-FIL_13
1002
{
1000
OWNER
1000
GEN
1002
}
  0
ARC
  5
6D3
330
1F
100
AcDbEntity
  8
AM_0
100
AcDbCircle
 10
1850.597301919108
 20
778.4131276633355
 30
0.0
 40
1.0
100
AcDbArc
 50
90.0
 51
149.9999999999905
1001
GENIUS_GENODEF_13
1002
{
1000
HIER
1070
     0
1002
}
1002
{
1000
MANEDIT
1070
     0
1002
}
1002
{
1000
NOSEL
1070
     0
1002
}
1002
{
1000
BEHIND
1070
     0
1002
}
1002
{
1000
REACTOR
1002
}
1001
GENIUS_GENOBJ-N-FIL_13
1002
{
1000
OWNER
1000
GEN
1002
}
  0
LINE
  5
6D4
330
1F
100
AcDbEntity
  8
AM_0
100
AcDbLine
 10
1853.865251111539
 20
779.4131276633355
 30
0.0
 11
1850.597301919108
 21
779.4131276633355
 31
0.0
  0
ARC
  5
6D5
330
1F
100
AcDbEntity
  8
AM_0
100
AcDbCircle
 10
1847.865251111538
 20
784.2131276633357
 30
0.0
 40
1.0
100
AcDbArc
 50
90.0
 51
180.0
  0
ARC
  5
6D6
330
1F
100
AcDbEntity
  8
AM_0
100
AcDbCircle
 10
1847.865251111538
 20
784.2131276633357
 30
0.0
 40
2.25
100
AcDbArc
 50
90.0
 51
180.0
  0
ARC
  5
6D7
330
1F
100
AcDbEntity
  8
AM_0
100
AcDbCircle
 10
1847.133200303969
 20
778.4131276633355
 30
0.0
 40
1.0
100
AcDbArc
 50
30.00000000000945
 51
90.0
1001
GENIUS_GENODEF_13
1002
{
1000
HIER
1070
     0
1002
}
1002
{
1000
MANEDIT
1070
     0
1002
}
1002
{
1000
NOSEL
1070
     0
1002
}
1002
{
1000
BEHIND
1070
     0
1002
}
1002
{
1000
REACTOR
1002
}
1001
GENIUS_GENOBJ-N-FIL_13
1002
{
1000
OWNER
1000
GEN
1002
}
  0
LINE
  5
6D8
330
1F
100
AcDbEntity
  8
AM_0
100
AcDbLine
 10
1847.133200303969
 20
779.4131276633355
 30
0.0
 11
1846.615251111539
 21
779.4131276633355
 31
0.0
  0
LINE
  5
6D9
330
1F
100
AcDbEntity
  8
AM_0
100
AcDbLine
 10
1846.865251111538
 20
780.2131276633357
 30
0.0
 11
1845.815251111538
 21
780.2131276633357
 31
0.0
  0
ARC
  5
6DA
330
1F
100
AcDbEntity
  8
AM_0
100
AcDbCircle
 10
1846.615251111539
 20
780.4131276633356
 30
0.0
 40
1.0
100
AcDbArc
 50
180.0
 51
270.0
1001
GENIUS_GENODEF_13
1002
{
1000
HIER
1070
     0
1002
}
1002
{
1000
MANEDIT
1070
     0
1002
}
1002
{
1000
NOSEL
1070
     0
1002
}
1002
{
1000
BEHIND
1070
     0
1002
}
1002
{
1000
REACTOR
1002
}
1001
GENIUS_GENOBJ-N-FIL_13
1002
{
1000
OWNER
1000
GEN
1002
}
  0
ARC
  5
6DB
330
1F
100
AcDbEntity
  8
AM_0
100
AcDbCircle
 10
1845.815251111538
 20
780.4131276633356
 30
0.0
 40
0.2
100
AcDbArc
 50
180.0
 51
270.0
  0
LINE
  5
6DC
330
1F
100
AcDbEntity
  8
AM_0
100
AcDbLine
 10
1846.865251111538
 20
779.4131276633355
 30
0.0
 11
1846.865251111538
 21
784.2131276633357
 31
0.0
  0
LINE
  5
6DD
330
1F
100
AcDbEntity
  8
AM_0
100
AcDbLine
 10
1845.615251111539
 20
784.2131276633357
 30
0.0
 11
1845.615251111539
 21
780.4131276633356
 31
0.0
  0
LINE
  5
6DE
330
1F
100
AcDbEntity
  8
AM_0
100
AcDbLine
 10
1849.615251111538
 20
785.2131276633357
 30
0.0
 11
1847.865251111538
 21
785.2131276633357
 31
0.0
  0
LINE
  5
6DF
330
1F
100
AcDbEntity
  8
AM_0
100
AcDbLine
 10
1849.615251111538
 20
786.4631276633357
 30
0.0
 11
1847.865251111538
 21
786.4631276633357
 31
0.0
  0
ARC
  5
6E0
330
1F
100
AcDbEntity
  8
AM_0
100
AcDbCircle
 10
1848.865251111539
 20
779.4131276633355
 30
0.0
 40
1.0
100
AcDbArc
 50
210.0000000000094
 51
329.9999999999906
  0
LINE
  5
6E1
330
1F
100
AcDbEntity
  8
AM_0
100
AcDbLine
 10
1850.615251111538
 20
787.4631276633357
 30
0.0
 11
1850.615251111538
 21
790.8376302426903
 31
0.0
  0
LINE
  5
6E2
330
1F
100
AcDbEntity
  8
AM_0
100
AcDbLine
 10
1851.865251111538
 20
790.6230680298507
 30
0.0
 11
1851.865251111538
 21
787.4631276633357
 31
0.0
  0
LINE
  5
6E3
330
1F
100
AcDbEntity
  8
AM_0
100
AcDbLine
 10
1854.865251111539
 20
793.5674358938594
 30
0.0
 11
1854.865251111539
 21
780.4131276633356
 31
0.0
  0
DIMENSION
  5
6E4
330
1F
100
AcDbEntity
  8
AM_5
100
AcDbDimension
  2
*D23
 10
1904.585251111536
 20
721.5984103439053
 30
0.0
 11
1946.385251111536
 21
726.0090705156851
 31
0.0
 70
    32
  1
EN ISO 228-1  G3/4
 71
     5
 42
26.43999999999869
 73
     0
 74
     0
 75
     0
  3
AM_DIN$0
100
AcDbAlignedDimension
 13
1878.145251111537
 23
762.3349308357583
 33
0.0
 14
1904.585251111536
 24
761.1275040465569
 34
0.0
100
AcDbRotatedDimension
1001
ACAD
1000
DSTYLE
1002
{
1070
    40
1040
2.0
1070
    42
1040
0.0
1070
   140
1040
3.0
1070
   147
1040
0.7
1070
   272
1070
     2
1070
   274
1070
     2
1002
}
  0
LINE
  5
6E5
330
1F
100
AcDbEntity
  8
AM_0
100
AcDbLine
 10
1714.3652511115
 20
880.8724286622705
 30
0.0
 11
1714.365251111499
 21
880.8014662049991
 31
0.0
  0
LINE
  5
6E6
330
1F
100
AcDbEntity
  8
AM_0
100
AcDbLine
 10
1715.615251111501
 20
880.8724286622705
 30
0.0
 11
1715.615251111499
 21
880.8014662049991
 31
0.0
  0
LINE
  5
6E7
330
1F
100
AcDbEntity
  8
AM_0
100
AcDbLine
 10
2067.115251111502
 20
880.8724286622705
 30
0.0
 11
2067.115251111501
 21
880.8014662049991
 31
0.0
  0
LINE
  5
6E8
330
1F
100
AcDbEntity
  8
AM_0
100
AcDbLine
 10
2068.365251111503
 20
880.8724286622705
 30
0.0
 11
2068.365251111501
 21
880.8014662049991
 31
0.0
  0
LINE
  5
723
330
1F
100
AcDbEntity
  8
UMRISS05
100
AcDbLine
 10
1879.615251111538
 20
792.9131276633356
 30
0.0
 11
1878.145251111537
 21
792.9131276633357
 31
0.0
  0
LINE
  5
724
330
1F
100
AcDbEntity
  8
KOPF03
 62
     1
100
AcDbLine
 10
1903.15759172754
 20
756.0200542003984
 30
0.0
 11
1903.15759172754
 21
777.9131276633355
 31
0.0
  0
LINE
  5
725
330
1F
100
AcDbEntity
  8
UMRISS05
100
AcDbLine
 10
1903.050665190478
 20
755.9131276633356
 30
0.0
 11
1904.585251111536
 21
757.4477135843943
 31
0.0
  0
LINE
  5
726
330
1F
100
AcDbEntity
  8
KOPF03
 62
     7
100
AcDbLine
 10
1904.585251111536
 20
757.4477135843943
 30
0.0
 11
1904.585251111536
 21
784.5832818162733
 31
0.0
  0
ARC
  5
727
330
1F
100
AcDbEntity
  8
AM_0
100
AcDbCircle
 10
1914.585251111536
 20
784.5832818162733
 30
0.0
 40
10.0
100
AcDbArc
 50
138.2667272492992
 51
180.0
1001
GENIUS_GENODEF_13
1002
{
1000
HIER
1070
     0
1002
}
1002
{
1000
MANEDIT
1070
     0
1002
}
1002
{
1000
NOSEL
1070
     0
1002
}
1002
{
1000
BEHIND
1070
     0
1002
}
1002
{
1000
OTHER
1070
     0
1002
}
1002
{
1000
REACTOR
1002
}
1001
GENIUS_GENOBJ-N-FIL_13
1002
{
1000
OWNER
1000
GEN
1002
}
  0
ARC
  5
728
330
1F
100
AcDbEntity
  8
AM_0
100
AcDbCircle
 10
1914.585251111536
 20
784.5832818162733
 30
0.0
 40
12.0
100
AcDbArc
 50
136.0401740549355
 51
180.0
1001
GENIUS_GENODEF_13
1002
{
1000
HIER
1070
     0
1002
}
1002
{
1000
MANEDIT
1070
     0
1002
}
1002
{
1000
NOSEL
1070
     0
1002
}
1002
{
1000
BEHIND
1070
     0
1002
}
1002
{
1000
OTHER
1070
     0
1002
}
1002
{
1000
REACTOR
1002
}
1001
GENIUS_GENOBJ-N-FIL_13
1002
{
1000
OWNER
1000
GEN
1002
}
  0
LINE
  5
729
330
1F
100
AcDbEntity
  8
KOPF03
 62
     7
100
AcDbLine
 10
1902.585251111536
 20
755.9131276633356
 30
0.0
 11
1902.585251111536
 21
784.5832818162733
 31
0.0
  0
LWPOLYLINE
  5
72A
330
1F
100
AcDbEntity
  8
KOPF03
 62
     7
100
AcDbPolyline
 90
        2
 70
     0
 43
0.0
 10
1903.15759172754
 20
777.9131276633355
 10
1904.585251111536
 20
777.9131276633355
  0
LINE
  5
72B
330
1F
100
AcDbEntity
  8
AM_0
100
AcDbLine
 10
1908.615251111537
 20
792.9131276633357
 30
0.0
 11
1907.122733666827
 21
791.2399201110442
 31
0.0
  0
LINE
  5
72C
330
1F
100
AcDbEntity
  8
AM_0
100
AcDbLine
 10
1908.615251111537
 20
792.9131276633357
 30
0.0
 11
1905.947330750466
 21
792.9131276633357
 31
0.0
  0
LINE
  5
72D
330
1F
100
AcDbEntity
  8
KOPF03
 62
     1
100
AcDbLine
 10
1879.572910495533
 20
756.0200542003984
 30
0.0
 11
1879.572910495533
 21
777.9131276633355
 31
0.0
  0
LINE
  5
72E
330
1F
100
AcDbEntity
  8
UMRISS05
100
AcDbLine
 10
1879.679837032596
 20
755.9131276633356
 30
0.0
 11
1878.145251111537
 21
757.4477135843943
 31
0.0
  0
LINE
  5
72F
330
1F
100
AcDbEntity
  8
KOPF03
 62
     7
100
AcDbLine
 10
1878.145251111537
 20
757.4477135843943
 30
0.0
 11
1878.145251111537
 21
784.5832818162733
 31
0.0
  0
ARC
  5
730
330
1F
100
AcDbEntity
  8
AM_0
100
AcDbCircle
 10
1868.145251111537
 20
784.5832818162733
 30
0.0
 40
10.0
100
AcDbArc
 50
0.0
 51
41.73327275070079
1001
GENIUS_GENODEF_13
1002
{
1000
HIER
1070
     0
1002
}
1002
{
1000
MANEDIT
1070
     0
1002
}
1002
{
1000
NOSEL
1070
     0
1002
}
1002
{
1000
BEHIND
1070
     0
1002
}
1002
{
1000
OTHER
1070
     0
1002
}
1002
{
1000
REACTOR
1002
}
1001
GENIUS_GENOBJ-N-FIL_13
1002
{
1000
OWNER
1000
GEN
1002
}
  0
ARC
  5
731
330
1F
100
AcDbEntity
  8
AM_0
100
AcDbCircle
 10
1868.145251111537
 20
784.5832818162733
 30
0.0
 40
12.0
100
AcDbArc
 50
0.0
 51
43.95982594506445
1001
GENIUS_GENODEF_13
1002
{
1000
HIER
1070
     0
1002
}
1002
{
1000
MANEDIT
1070
     0
1002
}
1002
{
1000
NOSEL
1070
     0
1002
}
1002
{
1000
BEHIND
1070
     0
1002
}
1002
{
1000
OTHER
1070
     0
1002
}
1002
{
1000
REACTOR
1002
}
1001
GENIUS_GENOBJ-N-FIL_13
1002
{
1000
OWNER
1000
GEN
1002
}
  0
LINE
  5
732
330
1F
100
AcDbEntity
  8
KOPF03
 62
     7
100
AcDbLine
 10
1880.145251111537
 20
755.9131276633356
 30
0.0
 11
1880.145251111537
 21
784.5832818162733
 31
0.0
  0
LINE
  5
733
330
1F
100
AcDbEntity
  8
KOPF03
 62
     7
100
AcDbLine
 10
1881.145251111538
 20
755.4131276633356
 30
0.0
 11
1881.145251111538
 21
794.9131276633355
 31
0.0
  0
ARC
  5
734
330
1F
100
AcDbEntity
  8
KOPF03
 62
     7
100
AcDbCircle
 10
1880.645251111537
 20
794.9131276633355
 30
0.0
 40
0.5
100
AcDbArc
 50
0.0
 51
90.0
1001
GENIUS_GENOBJ-N-FIL_13
1002
{
1000
OWNER
1000
GEN
1002
}
1001
GENIUS_GENODEF_13
1002
{
1000
HIER
1070
     0
1002
}
1002
{
1000
MANEDIT
1070
     0
1002
}
1002
{
1000
NOSEL
1070
     0
1002
}
1002
{
1000
BEHIND
1070
     0
1002
}
1002
{
1000
OTHER
1070
     0
1002
}
1002
{
1000
REACTOR
1002
}
  0
LWPOLYLINE
  5
735
330
1F
100
AcDbEntity
  8
KOPF03
 62
     7
100
AcDbPolyline
 90
        2
 70
     0
 43
0.0
 10
1880.145251111537
 20
755.9131276633356
 10
1879.679837032596
 20
755.9131276633356
  0
LINE
  5
736
330
1F
100
AcDbEntity
  8
KOPF03
 62
     7
100
AcDbLine
 10
1879.679837032596
 20
754.9131276633355
 30
0.0
 11
1880.645251111537
 21
754.9131276633355
 31
0.0
  0
ARC
  5
737
330
1F
100
AcDbEntity
  8
KOPF03
 62
     7
100
AcDbCircle
 10
1880.645251111537
 20
755.4131276633356
 30
0.0
 40
0.5
100
AcDbArc
 50
270.0
 51
0.0
1001
GENIUS_GENODEF_13
1002
{
1000
HIER
1070
     0
1002
}
1002
{
1000
MANEDIT
1070
     0
1002
}
1002
{
1000
NOSEL
1070
     0
1002
}
1002
{
1000
BEHIND
1070
     0
1002
}
1002
{
1000
OTHER
1070
     0
1002
}
1002
{
1000
REACTOR
1002
}
1001
GENIUS_GENOBJ-N-FIL_13
1002
{
1000
OWNER
1000
GEN
1002
}
  0
LINE
  5
738
330
1F
100
AcDbEntity
  8
AM_0
100
AcDbLine
 10
1874.115251111537
 20
792.9131276633357
 30
0.0
 11
1875.607768556247
 21
791.2399201110442
 31
0.0
  0
LINE
  5
739
330
1F
100
AcDbEntity
  8
AM_0
100
AcDbLine
 10
1874.115251111537
 20
792.9131276633357
 30
0.0
 11
1876.783171472607
 21
792.9131276633357
 31
0.0
  0
LINE
  5
73A
330
1F
100
AcDbEntity
  8
AM_0
100
AcDbLine
 10
1876.783171472607
 20
792.9131276633357
 30
0.0
 11
1879.615251111538
 21
792.9131276633356
 31
0.0
  0
LINE
  5
73B
330
1F
100
AcDbEntity
  8
AM_0
100
AcDbLine
 10
1853.615251111538
 20
777.9131276633355
 30
0.0
 11
1878.145251111537
 21
777.9151012421303
 31
0.0
  0
LINE
  5
73C
330
1F
100
AcDbEntity
  8
AM_0
100
AcDbLine
 10
1904.585251111536
 20
777.9172284913491
 30
0.0
 11
1928.941281800039
 21
777.9191880733179
 31
0.0
  0
ARC
  5
73D
330
1F
100
AcDbEntity
  8
0
100
AcDbCircle
 10
1858.615251111538
 20
790.4131276633356
 30
0.0
 40
2.5
100
AcDbArc
 50
90.0
 51
180.0
1001
GENIUS_GENODEF_13
1002
{
1000
HIER
1070
     0
1002
}
1002
{
1000
MANEDIT
1070
     0
1002
}
1002
{
1000
NOSEL
1070
     0
1002
}
1002
{
1000
BEHIND
1070
     0
1002
}
1002
{
1000
OTHER
1070
     0
1002
}
1002
{
1000
REACTOR
1002
}
1001
GENIUS_GENOBJ-N-FIL_13
1002
{
1000
OWNER
1000
GEN
1002
}
  0
ARC
  5
73E
330
1F
100
AcDbEntity
  8
0
100
AcDbCircle
 10
1853.615251111538
 20
780.4131276633356
 30
0.0
 40
2.5
100
AcDbArc
 50
270.0
 51
0.0
1001
GENIUS_GENODEF_13
1002
{
1000
HIER
1070
     0
1002
}
1002
{
1000
MANEDIT
1070
     0
1002
}
1002
{
1000
NOSEL
1070
     0
1002
}
1002
{
1000
BEHIND
1070
     0
1002
}
1002
{
1000
OTHER
1070
     0
1002
}
1002
{
1000
REACTOR
1002
}
1001
GENIUS_GENOBJ-N-FIL_13
1002
{
1000
OWNER
1000
GEN
1002
}
  0
HATCH
  5
73F
330
1F
100
AcDbEntity
  8
AM_5
100
AcDbHatch
 10
0.0
 20
0.0
 30
0.0
210
0.0
220
0.0
230
1.0
  2
ANSI31
 70
     0
 71
     0
 91
        1
 92
        5
 93
       32
 72
     1
 10
1853.615251111538
 20
777.9131276633355
 11
1853.615653390132
 21
777.9131276957011
 72
     2
 10
1853.615251111538
 20
780.4131276633356
 40
2.499999999999982
 50
270.0092195462879
 51
360.0000000000003
 73
     1
 72
     1
 10
1856.115251111538
 20
780.4131276633356
 11
1856.115251111538
 21
790.4131276633355
 72
     2
 10
1858.615251111538
 20
790.4131276633356
 40
2.5
 50
180.0
 51
270.0
 73
     0
 72
     1
 10
1858.615251111538
 20
792.9131276633357
 11
1879.615251111538
 21
792.9131276633357
 72
     1
 10
1879.615251111538
 20
792.9131276633357
 11
1879.615251111538
 21
794.4131276633356
 72
     1
 10
1879.615251111538
 20
794.4131276633356
 11
1858.615251111538
 21
794.4131276633356
 72
     2
 10
1858.615251111538
 20
790.4131276633356
 40
3.999999999999999
 50
90.0
 51
180.0
 73
     1
 72
     1
 10
1854.615251111538
 20
790.4131276633356
 11
1854.615251111538
 21
780.4131276633357
 72
     2
 10
1853.615251111538
 20
780.4131276633356
 40
0.9999999999999998
 50
360.0
 51
450.0
 73
     0
 72
     1
 10
1853.615251111538
 20
779.4131276633355
 11
1850.597301919107
 21
779.4131276633355
 72
     2
 10
1850.597301919106
 20
778.4131276633356
 40
0.9999999999999811
 50
90.0
 51
150.0000000000001
 73
     1
 72
     2
 10
1848.865251111538
 20
779.4131276633355
 40
0.9999999999999708
 50
30.00000000000053
 51
149.9999999999986
 73
     0
 72
     2
 10
1847.133200303969
 20
778.4131276633355
 40
0.999999999999995
 50
29.99999999999973
 51
90.00000000000161
 73
     1
 72
     1
 10
1847.133200303969
 20
779.4131276633355
 11
1846.515251111537
 21
779.4131276633355
 72
     2
 10
1846.515251111537
 20
780.4131276633356
 40
0.9999999999999998
 50
90.0
 51
180.0
 73
     0
 72
     1
 10
1845.515251111537
 20
780.4131276633356
 11
1845.515251111537
 21
781.1734616422401
 72
     2
 10
1846.386561325012
 20
781.2537887854431
 40
0.8750051074362518
 50
174.7327216494952
 51
179.9999846161292
 73
     0
 72
     1
 10
1845.511556217575
 20
781.2537885505049
 11
1845.511556217576
 21
784.5787885505051
 72
     2
 10
1847.480306217575
 20
784.5787885505051
 40
1.96875
 50
179.9999999999984
 51
269.9999999999934
 73
     0
 72
     1
 10
1847.480306217575
 20
786.547538550505
 11
1849.011556217576
 21
786.547538550505
 72
     2
 10
1849.011556217575
 20
787.4225385505051
 40
0.8749999999999962
 50
270.0000000000018
 51
272.3072262589337
 73
     1
 72
     1
 10
1849.046781803618
 20
786.5482478905481
 11
1849.046781803618
 21
787.054177735498
 72
     1
 10
1849.046781803618
 20
787.054177735498
 11
1848.046781803618
 21
787.642798258007
 72
     1
 10
1848.046781803618
 20
787.642798258007
 11
1847.833884258876
 21
787.6622608537213
 72
     2
 10
1847.515251111538
 20
784.1767948995888
 40
3.500000000000003
 50
84.77667230590105
 51
179.9999999999998
 73
     1
 72
     1
 10
1844.015251111538
 20
784.1767948995888
 11
1844.015251111538
 21
780.4131276633357
 72
     2
 10
1846.515251111538
 20
780.4131276633356
 40
2.500000000000007
 50
179.9999999999986
 51
268.3467744132885
 73
     1
 72
     2
 10
1846.414275320228
 20
776.9145845537584
 40
1.000000000000007
 50
271.6532255867144
 51
314.4493762462404
 73
     0
 72
     2
 10
1848.865251111537
 20
779.4131276633355
 40
2.499999999999972
 50
225.5506237537654
 51
314.4153085971957
 73
     1
 72
     2
 10
1851.314740854321
 20
776.9131276633356
 40
1.000000000000004
 50
225.5846914028055
 51
269.9999999999951
 73
     0
 72
     1
 10
1851.314740854321
 20
777.9131276633355
 11
1853.615251111538
 21
777.9131276633355
 97
        0
 75
     0
 76
     1
 52
0.0
 41
0.5
 77
     0
 78
     1
 53
45.0
 43
1598.77186186687
 44
857.2125424715768
 45
-1.122532015133643
 46
1.122532015133644
 79
     0
 47
0.0877722658561604
 98
        1
 10
1857.772191196646
 20
787.3453766541784
1001
ACAD
1010
0.0
1020
0.0
1030
0.0
  0
LINE
  5
740
330
1F
100
AcDbEntity
  8
0
100
AcDbLine
 10
1848.865251111538
 20
776.9131276633356
 30
0.0
 11
1878.145251111537
 21
776.9131276633356
 31
0.0
  0
ARC
  5
741
330
1F
100
AcDbEntity
  8
0
100
AcDbCircle
 10
1858.615251111538
 20
790.4131276633356
 30
0.0
 40
4.0
100
AcDbArc
 50
90.0
 51
180.0
1001
GENIUS_GENOBJ-N-FIL_13
1002
{
1000
OWNER
1000
GEN
1002
}
1001
GENIUS_GENODEF_13
1002
{
1000
HIER
1070
     0
1002
}
1002
{
1000
MANEDIT
1070
     0
1002
}
1002
{
1000
NOSEL
1070
     0
1002
}
1002
{
1000
BEHIND
1070
     0
1002
}
1002
{
1000
OTHER
1070
     0
1002
}
1002
{
1000
REACTOR
1002
}
  0
ARC
  5
742
330
1F
100
AcDbEntity
  8
0
100
AcDbCircle
 10
1858.615251111538
 20
790.4131276633356
 30
0.0
 40
5.0
100
AcDbArc
 50
90.0
 51
180.0
1001
GENIUS_GENOBJ-N-FIL_13
1002
{
1000
OWNER
1000
GEN
1002
}
1001
GENIUS_GENODEF_13
1002
{
1000
HIER
1070
     0
1002
}
1002
{
1000
MANEDIT
1070
     0
1002
}
1002
{
1000
NOSEL
1070
     0
1002
}
1002
{
1000
BEHIND
1070
     0
1002
}
1002
{
1000
OTHER
1070
     0
1002
}
1002
{
1000
REACTOR
1002
}
  0
ARC
  5
743
330
1F
100
AcDbEntity
  8
0
100
AcDbCircle
 10
1847.133200303969
 20
778.4131276633355
 30
0.0
 40
1.0
100
AcDbArc
 50
29.99999999999165
 51
90.0
1001
GENIUS_GENOBJ-N-FIL_13
1002
{
1000
OWNER
1000
GEN
1002
}
1001
GENIUS_GENODEF_13
1002
{
1000
HIER
1070
     0
1002
}
1002
{
1000
MANEDIT
1070
     0
1002
}
1002
{
1000
NOSEL
1070
     0
1002
}
1002
{
1000
BEHIND
1070
     0
1002
}
1002
{
1000
OTHER
1070
     0
1002
}
1002
{
1000
REACTOR
1002
}
  0
ARC
  5
744
330
1F
100
AcDbEntity
  8
0
100
AcDbCircle
 10
1850.597301919106
 20
778.4131276633355
 30
0.0
 40
1.0
100
AcDbArc
 50
90.0
 51
150.0000000000083
1001
GENIUS_GENOBJ-N-FIL_13
1002
{
1000
OWNER
1000
GEN
1002
}
1001
GENIUS_GENODEF_13
1002
{
1000
HIER
1070
     0
1002
}
1002
{
1000
MANEDIT
1070
     0
1002
}
1002
{
1000
NOSEL
1070
     0
1002
}
1002
{
1000
BEHIND
1070
     0
1002
}
1002
{
1000
OTHER
1070
     0
1002
}
1002
{
1000
REACTOR
1002
}
  0
ARC
  5
745
330
1F
100
AcDbEntity
  8
0
100
AcDbCircle
 10
1850.597301919106
 20
778.4131276633355
 30
0.0
 40
2.0
100
AcDbArc
 50
90.0
 51
150.0000000000083
1001
GENIUS_GENOBJ-N-FIL_13
1002
{
1000
OWNER
1000
GEN
1002
}
1001
GENIUS_GENODEF_13
1002
{
1000
HIER
1070
     0
1002
}
1002
{
1000
MANEDIT
1070
     0
1002
}
1002
{
1000
NOSEL
1070
     0
1002
}
1002
{
1000
BEHIND
1070
     0
1002
}
1002
{
1000
OTHER
1070
     0
1002
}
1002
{
1000
REACTOR
1002
}
  0
ARC
  5
746
330
1F
100
AcDbEntity
  8
0
100
AcDbCircle
 10
1846.515251111537
 20
780.4131276633356
 30
0.0
 40
2.5
100
AcDbArc
 50
180.0
 51
268.3467744132872
1001
GENIUS_GENODEF_13
1002
{
1000
HIER
1070
     0
1002
}
1002
{
1000
MANEDIT
1070
     0
1002
}
1002
{
1000
NOSEL
1070
     0
1002
}
1002
{
1000
BEHIND
1070
     0
1002
}
1002
{
1000
OTHER
1070
     0
1002
}
1002
{
1000
REACTOR
1002
}
1001
GENIUS_GENOBJ-N-FIL_13
1002
{
1000
OWNER
1000
GEN
1002
}
  0
ARC
  5
747
330
1F
100
AcDbEntity
  8
0
100
AcDbCircle
 10
1848.865251111538
 20
779.4131276633355
 30
0.0
 40
2.5
100
AcDbArc
 50
225.5506237537746
 51
314.4153085971888
  0
ARC
  5
748
330
1F
100
AcDbEntity
  8
0
100
AcDbCircle
 10
1846.414275320228
 20
776.9145845537583
 30
0.0
 40
1.0
100
AcDbArc
 50
45.55062375377459
 51
88.34677441328716
1001
GENIUS_GENOBJ-N-FIL_13
1002
{
1000
OWNER
1000
GEN
1002
}
1001
GENIUS_GENODEF_13
1002
{
1000
HIER
1070
     0
1002
}
1002
{
1000
MANEDIT
1070
     0
1002
}
1002
{
1000
NOSEL
1070
     0
1002
}
1002
{
1000
BEHIND
1070
     0
1002
}
1002
{
1000
OTHER
1070
     0
1002
}
1002
{
1000
REACTOR
1002
}
  0
LINE
  5
749
330
1F
100
AcDbEntity
  8
0
100
AcDbLine
 10
1851.314740854321
 20
777.9131276633355
 30
0.0
 11
1853.615251111538
 21
777.9131276633355
 31
0.0
  0
ARC
  5
74A
330
1F
100
AcDbEntity
  8
0
100
AcDbCircle
 10
1851.314740854321
 20
776.9131276633356
 30
0.0
 40
1.0
100
AcDbArc
 50
90.0
 51
134.4153085971887
1001
GENIUS_GENOBJ-N-FIL_13
1002
{
1000
OWNER
1000
GEN
1002
}
1001
GENIUS_GENODEF_13
1002
{
1000
HIER
1070
     0
1002
}
1002
{
1000
MANEDIT
1070
     0
1002
}
1002
{
1000
NOSEL
1070
     0
1002
}
1002
{
1000
BEHIND
1070
     0
1002
}
1002
{
1000
OTHER
1070
     0
1002
}
1002
{
1000
REACTOR
1002
}
  0
ARC
  5
74B
330
1F
100
AcDbEntity
  8
0
100
AcDbCircle
 10
1848.865251111538
 20
779.4131276633355
 30
0.0
 40
1.0
100
AcDbArc
 50
209.9999999999917
 51
330.0000000000084
  0
LINE
  5
74C
330
1F
100
AcDbEntity
  8
0
100
AcDbLine
 10
1854.615251111538
 20
790.4131276633356
 30
0.0
 11
1854.615251111538
 21
780.4131276633356
 31
0.0
  0
LINE
  5
74D
330
1F
100
AcDbEntity
  8
0
100
AcDbLine
 10
1853.615251111538
 20
790.4131276633356
 30
0.0
 11
1853.615251111538
 21
780.4131276633356
 31
0.0
  0
LINE
  5
74E
330
1F
100
AcDbEntity
  8
0
100
AcDbLine
 10
1844.015251111537
 20
780.4131276633356
 30
0.0
 11
1844.015251111537
 21
784.1767948995888
 31
0.0
  0
LINE
  5
74F
330
1F
100
AcDbEntity
  8
0
100
AcDbLine
 10
1845.515251111537
 20
784.5541777354982
 30
0.0
 11
1845.515251111537
 21
780.4131276633356
 31
0.0
  0
LINE
  5
750
330
1F
100
AcDbEntity
  8
0
100
AcDbLine
 10
1846.515251111537
 20
779.4131276633355
 30
0.0
 11
1847.133200303969
 21
779.4131276633355
 31
0.0
  0
LINE
  5
751
330
1F
100
AcDbEntity
  8
0
100
AcDbLine
 10
1847.133200303969
 20
779.4131276633355
 30
0.0
 11
1846.515251111537
 21
779.4131276633355
 31
0.0
  0
ARC
  5
752
330
1F
100
AcDbEntity
  8
0
100
AcDbCircle
 10
1846.515251111537
 20
780.4131276633356
 30
0.0
 40
1.0
100
AcDbArc
 50
180.0
 51
270.0
1001
GENIUS_GENODEF_13
1002
{
1000
HIER
1070
     0
1002
}
1002
{
1000
MANEDIT
1070
     0
1002
}
1002
{
1000
NOSEL
1070
     0
1002
}
1002
{
1000
BEHIND
1070
     0
1002
}
1002
{
1000
OTHER
1070
     0
1002
}
1002
{
1000
REACTOR
1002
}
1001
GENIUS_GENOBJ-N-FIL_13
1002
{
1000
OWNER
1000
GEN
1002
}
  0
LINE
  5
753
330
1F
100
AcDbEntity
  8
0
100
AcDbLine
 10
1853.615251111538
 20
779.4131276633355
 30
0.0
 11
1850.597301919106
 21
779.4131276633355
 31
0.0
  0
LINE
  5
754
330
1F
100
AcDbEntity
  8
0
100
AcDbLine
 10
1853.615251111538
 20
780.4131276633356
 30
0.0
 11
1850.597301919106
 21
780.4131276633356
 31
0.0
  0
ARC
  5
755
330
1F
100
AcDbEntity
  8
0
100
AcDbCircle
 10
1853.615251111538
 20
780.4131276633356
 30
0.0
 40
1.0
100
AcDbArc
 50
270.0
 51
0.0
1001
GENIUS_GENOBJ-N-FIL_13
1002
{
1000
OWNER
1000
GEN
1002
}
1001
GENIUS_GENODEF_13
1002
{
1000
HIER
1070
     0
1002
}
1002
{
1000
MANEDIT
1070
     0
1002
}
1002
{
1000
NOSEL
1070
     0
1002
}
1002
{
1000
BEHIND
1070
     0
1002
}
1002
{
1000
OTHER
1070
     0
1002
}
1002
{
1000
REACTOR
1002
}
  0
LINE
  5
756
330
1F
100
AcDbEntity
  8
0
100
AcDbLine
 10
1933.865251111538
 20
776.9131276633356
 30
0.0
 11
1904.585251111536
 21
776.9131276633356
 31
0.0
  0
LINE
  5
757
330
1F
100
AcDbEntity
  8
0
100
AcDbLine
 10
1905.947330750466
 20
792.9131276633357
 30
0.0
 11
1924.115251111538
 21
792.9131276633357
 31
0.0
  0
LINE
  5
758
330
1F
100
AcDbEntity
  8
0
100
AcDbLine
 10
1901.585251111538
 20
794.4131276633356
 30
0.0
 11
1924.115251111538
 21
794.4131276633356
 31
0.0
  0
LINE
  5
759
330
1F
100
AcDbEntity
  8
0
100
AcDbLine
 10
1879.615251111538
 20
794.4131276633356
 30
0.0
 11
1858.615251111538
 21
794.4131276633356
 31
0.0
  0
LINE
  5
75A
330
1F
100
AcDbEntity
  8
0
100
AcDbLine
 10
1880.645251111537
 20
795.4131276633355
 30
0.0
 11
1858.615251111538
 21
795.4131276633356
 31
0.0
  0
LINE
  5
75B
330
1F
100
AcDbEntity
  8
0
100
AcDbLine
 10
1879.615251111538
 20
792.9131276633357
 30
0.0
 11
1858.615251111538
 21
792.9131276633357
 31
0.0
  0
LINE
  5
75C
330
1F
100
AcDbEntity
  8
0
100
AcDbLine
 10
1856.115251111538
 20
790.4131276633356
 30
0.0
 11
1856.115251111538
 21
780.4131276633356
 31
0.0
  0
ARC
  5
75D
330
1F
100
AcDbEntity
  8
0
100
AcDbCircle
 10
1932.133200303969
 20
778.4131276633355
 30
0.0
 40
1.0
100
AcDbArc
 50
29.99999999999165
 51
90.0
1001
GENIUS_GENOBJ-N-FIL_13
1002
{
1000
OWNER
1000
GEN
1002
}
1001
GENIUS_GENODEF_13
1002
{
1000
HIER
1070
     0
1002
}
1002
{
1000
MANEDIT
1070
     0
1002
}
1002
{
1000
NOSEL
1070
     0
1002
}
1002
{
1000
BEHIND
1070
     0
1002
}
1002
{
1000
OTHER
1070
     0
1002
}
1002
{
1000
REACTOR
1002
}
  0
ARC
  5
75E
330
1F
100
AcDbEntity
  8
0
100
AcDbCircle
 10
1935.597301919106
 20
778.4131276633355
 30
0.0
 40
1.0
100
AcDbArc
 50
90.0
 51
150.0000000000083
1001
GENIUS_GENOBJ-N-FIL_13
1002
{
1000
OWNER
1000
GEN
1002
}
1001
GENIUS_GENODEF_13
1002
{
1000
HIER
1070
     0
1002
}
1002
{
1000
MANEDIT
1070
     0
1002
}
1002
{
1000
NOSEL
1070
     0
1002
}
1002
{
1000
BEHIND
1070
     0
1002
}
1002
{
1000
OTHER
1070
     0
1002
}
1002
{
1000
REACTOR
1002
}
  0
ARC
  5
75F
330
1F
100
AcDbEntity
  8
0
100
AcDbCircle
 10
1936.215251111538
 20
780.4131276633356
 30
0.0
 40
2.5
100
AcDbArc
 50
271.6532255866998
 51
0.0
1001
GENIUS_GENODEF_13
1002
{
1000
HIER
1070
     0
1002
}
1002
{
1000
MANEDIT
1070
     0
1002
}
1002
{
1000
NOSEL
1070
     0
1002
}
1002
{
1000
BEHIND
1070
     0
1002
}
1002
{
1000
OTHER
1070
     0
1002
}
1002
{
1000
REACTOR
1002
}
1001
GENIUS_GENOBJ-N-FIL_13
1002
{
1000
OWNER
1000
GEN
1002
}
  0
ARC
  5
760
330
1F
100
AcDbEntity
  8
0
100
AcDbCircle
 10
1929.115251111538
 20
780.4131276633356
 30
0.0
 40
2.5
100
AcDbArc
 50
180.0
 51
270.0
1001
GENIUS_GENODEF_13
1002
{
1000
HIER
1070
     0
1002
}
1002
{
1000
MANEDIT
1070
     0
1002
}
1002
{
1000
NOSEL
1070
     0
1002
}
1002
{
1000
BEHIND
1070
     0
1002
}
1002
{
1000
OTHER
1070
     0
1002
}
1002
{
1000
REACTOR
1002
}
1001
GENIUS_GENOBJ-N-FIL_13
1002
{
1000
OWNER
1000
GEN
1002
}
  0
LINE
  5
761
330
1F
100
AcDbEntity
  8
0
100
AcDbLine
 10
1931.415761368754
 20
777.9131276633355
 30
0.0
 11
1929.115251111538
 21
777.9131276633355
 31
0.0
  0
ARC
  5
762
330
1F
100
AcDbEntity
  8
0
100
AcDbCircle
 10
1933.865251111538
 20
779.4131276633355
 30
0.0
 40
2.5
100
AcDbArc
 50
225.5846914028112
 51
314.4493762462254
  0
ARC
  5
763
330
1F
100
AcDbEntity
  8
0
100
AcDbCircle
 10
1933.865251111538
 20
779.4131276633355
 30
0.0
 40
1.0
100
AcDbArc
 50
209.9999999999917
 51
330.0000000000084
  0
ARC
  5
764
330
1F
100
AcDbEntity
  8
0
100
AcDbCircle
 10
1931.415761368754
 20
776.9131276633356
 30
0.0
 40
1.0
100
AcDbArc
 50
45.5846914028112
 51
90.0
1001
GENIUS_GENOBJ-N-FIL_13
1002
{
1000
OWNER
1000
GEN
1002
}
1001
GENIUS_GENODEF_13
1002
{
1000
HIER
1070
     0
1002
}
1002
{
1000
MANEDIT
1070
     0
1002
}
1002
{
1000
NOSEL
1070
     0
1002
}
1002
{
1000
BEHIND
1070
     0
1002
}
1002
{
1000
OTHER
1070
     0
1002
}
1002
{
1000
REACTOR
1002
}
  0
ARC
  5
765
330
1F
100
AcDbEntity
  8
0
100
AcDbCircle
 10
1936.316226902847
 20
776.9145845537583
 30
0.0
 40
1.0
100
AcDbArc
 50
91.65322558669981
 51
134.4493762462254
1001
GENIUS_GENOBJ-N-FIL_13
1002
{
1000
OWNER
1000
GEN
1002
}
1001
GENIUS_GENODEF_13
1002
{
1000
HIER
1070
     0
1002
}
1002
{
1000
MANEDIT
1070
     0
1002
}
1002
{
1000
NOSEL
1070
     0
1002
}
1002
{
1000
BEHIND
1070
     0
1002
}
1002
{
1000
OTHER
1070
     0
1002
}
1002
{
1000
REACTOR
1002
}
  0
LINE
  5
766
330
1F
100
AcDbEntity
  8
0
100
AcDbLine
 10
1926.615251111538
 20
790.4131276633356
 30
0.0
 11
1926.615251111538
 21
780.4131276633356
 31
0.0
  0
LINE
  5
767
330
1F
100
AcDbEntity
  8
0
100
AcDbLine
 10
1928.115251111538
 20
790.4131276633356
 30
0.0
 11
1928.115251111538
 21
780.4131276633356
 31
0.0
  0
LINE
  5
768
330
1F
100
AcDbEntity
  8
0
100
AcDbLine
 10
1929.115251111538
 20
779.4131276633355
 30
0.0
 11
1932.133200303969
 21
779.4131276633355
 31
0.0
  0
ARC
  5
769
330
1F
100
AcDbEntity
  8
0
100
AcDbCircle
 10
1929.115251111538
 20
780.4131276633356
 30
0.0
 40
1.0
100
AcDbArc
 50
180.0
 51
270.0
1001
GENIUS_GENOBJ-N-FIL_13
1002
{
1000
OWNER
1000
GEN
1002
}
1001
GENIUS_GENODEF_13
1002
{
1000
HIER
1070
     0
1002
}
1002
{
1000
MANEDIT
1070
     0
1002
}
1002
{
1000
NOSEL
1070
     0
1002
}
1002
{
1000
BEHIND
1070
     0
1002
}
1002
{
1000
OTHER
1070
     0
1002
}
1002
{
1000
REACTOR
1002
}
  0
LINE
  5
76A
330
1F
100
AcDbEntity
  8
0
100
AcDbLine
 10
1935.597301919106
 20
779.4131276633355
 30
0.0
 11
1936.215251111538
 21
779.4131276633355
 31
0.0
  0
ARC
  5
76B
330
1F
100
AcDbEntity
  8
0
100
AcDbCircle
 10
1936.215251111538
 20
780.4131276633356
 30
0.0
 40
1.0
100
AcDbArc
 50
270.0
 51
0.0
1001
GENIUS_GENODEF_13
1002
{
1000
HIER
1070
     0
1002
}
1002
{
1000
MANEDIT
1070
     0
1002
}
1002
{
1000
NOSEL
1070
     0
1002
}
1002
{
1000
BEHIND
1070
     0
1002
}
1002
{
1000
OTHER
1070
     0
1002
}
1002
{
1000
REACTOR
1002
}
1001
GENIUS_GENOBJ-N-FIL_13
1002
{
1000
OWNER
1000
GEN
1002
}
  0
LINE
  5
76C
330
1F
100
AcDbEntity
  8
0
100
AcDbLine
 10
1936.215251111538
 20
779.4131276633355
 30
0.0
 11
1935.597301919106
 21
779.4131276633355
 31
0.0
  0
ARC
  5
76D
330
1F
100
AcDbEntity
  8
0
100
AcDbCircle
 10
1924.115251111538
 20
790.4131276633356
 30
0.0
 40
4.0
100
AcDbArc
 50
0.0
 51
90.0
1001
GENIUS_GENOBJ-N-FIL_13
1002
{
1000
OWNER
1000
GEN
1002
}
1001
GENIUS_GENODEF_13
1002
{
1000
HIER
1070
     0
1002
}
1002
{
1000
MANEDIT
1070
     0
1002
}
1002
{
1000
NOSEL
1070
     0
1002
}
1002
{
1000
BEHIND
1070
     0
1002
}
1002
{
1000
OTHER
1070
     0
1002
}
1002
{
1000
REACTOR
1002
}
  0
ARC
  5
76E
330
1F
100
AcDbEntity
  8
0
100
AcDbCircle
 10
1924.115251111538
 20
790.4131276633356
 30
0.0
 40
2.5
100
AcDbArc
 50
0.0
 51
90.0
1001
GENIUS_GENODEF_13
1002
{
1000
HIER
1070
     0
1002
}
1002
{
1000
MANEDIT
1070
     0
1002
}
1002
{
1000
NOSEL
1070
     0
1002
}
1002
{
1000
BEHIND
1070
     0
1002
}
1002
{
1000
OTHER
1070
     0
1002
}
1002
{
1000
REACTOR
1002
}
1001
GENIUS_GENOBJ-N-FIL_13
1002
{
1000
OWNER
1000
GEN
1002
}
  0
LINE
  5
76F
330
1F
100
AcDbEntity
  8
AM_0
100
AcDbLine
 10
1879.615251111538
 20
792.9131276633357
 30
0.0
 11
1879.615251111538
 21
794.4131276633356
 31
0.0
  0
LINE
  5
770
330
1F
100
AcDbEntity
  8
AM_0
100
AcDbLine
 10
1903.115251111538
 20
792.9131276633357
 30
0.0
 11
1903.115251111538
 21
794.4131276633356
 31
0.0
  0
LINE
  5
771
330
1F
100
AcDbEntity
  8
0
100
AcDbLine
 10
1844.015251111538
 20
780.4131276633356
 30
0.0
 11
1844.015251111538
 21
784.1767948995888
 31
0.0
  0
HATCH
  5
772
330
1F
100
AcDbEntity
  8
AM_8
100
AcDbHatch
 10
0.0
 20
0.0
 30
0.0
210
0.0
220
0.0
230
1.0
  2
_U
 70
     0
 71
     0
 91
        1
 92
        1
 93
       10
 72
     1
 10
1879.572910495533
 20
777.9131276633355
 11
1879.572910495533
 21
756.0200542003984
 72
     1
 10
1879.572910495533
 20
756.0200542003984
 11
1879.679837032596
 21
755.9131276633356
 72
     1
 10
1879.679837032596
 20
755.9131276633356
 11
1880.145251111537
 21
755.9131276633356
 72
     1
 10
1880.145251111537
 20
755.9131276633356
 11
1880.145251111537
 21
784.5832818162734
 72
     2
 10
1868.145251111537
 20
784.5832818162733
 40
12.0
 50
0.0
 51
43.95982594507651
 73
     1
 72
     1
 10
1876.783171472607
 20
792.9131276633354
 11
1874.115251111536
 21
792.9131276633356
 72
     1
 10
1874.115251111537
 20
792.9131276633357
 11
1875.607768556247
 21
791.2399201110444
 72
     2
 10
1868.145251111537
 20
784.5832818162736
 40
10.0
 50
318.2667272493121
 51
360.0000000000003
 73
     0
 72
     1
 10
1878.145251111537
 20
784.5832818162733
 11
1878.145251111537
 21
777.9131276633354
 72
     1
 10
1878.145251111537
 20
777.9131276633355
 11
1879.572910495533
 21
777.9131276633355
 97
        0
 75
     0
 76
     0
 52
135.0
 41
2.7
 77
     0
 78
     1
 53
135.0
 43
1766.933290855854
 44
555.1568856856821
 45
-1.909188309203678
 46
-1.909188309203678
 79
     0
 98
        1
 10
1766.933290855854
 20
555.1568856856821
1001
GENIUS_GENOBJ-N-HTC_13
1002
{
1000
OWNER
1000
GEN
1002
}
1001
GENIUS_GENODEF_13
1002
{
1000
HIER
1070
     0
1002
}
1002
{
1000
MANEDIT
1070
     0
1002
}
1002
{
1000
NOSEL
1070
     0
1002
}
1002
{
1000
BEHIND
1070
     0
1002
}
1002
{
1000
OTHER
1070
     0
1002
}
1002
{
1000
REACTOR
1002
}
1001
GENIUS_GENHATCH_13
1002
{
1000
DATA
1040
135.0
1042
2.7
1000
_U
1070
     0
1011
1878.993899187654
1021
781.4118103111454
1031
0.0
1002
}
1002
{
1000
UCS
1010
0.0
1020
0.0
1030
0.0
1010
1.0
1020
0.0
1030
0.0
1010
0.0
1020
1.0
1030
0.0
1002
}
  0
HATCH
  5
773
330
1F
100
AcDbEntity
  8
AM_8
100
AcDbHatch
 10
0.0
 20
0.0
 30
0.0
210
0.0
220
0.0
230
1.0
  2
_U
 70
     0
 71
     0
 91
        1
 92
        1
 93
       11
 72
     1
 10
1903.050665190478
 20
755.9131276633356
 11
1903.15759172754
 21
756.0200542003984
 72
     1
 10
1903.15759172754
 20
756.0200542003984
 11
1903.15759172754
 21
777.9131276633356
 72
     1
 10
1903.15759172754
 20
777.9131276633355
 11
1904.585251111536
 21
777.9131276633355
 72
     1
 10
1904.585251111536
 20
777.9131276633355
 11
1904.585251111536
 21
777.9172284913491
 72
     1
 10
1904.585251111536
 20
777.9172284913491
 11
1904.585251111536
 21
784.5832818162734
 72
     2
 10
1914.585251111536
 20
784.5832818162733
 40
10.0
 50
180.0
 51
221.7332727506877
 73
     0
 72
     1
 10
1907.122733666827
 20
791.2399201110442
 11
1908.615251111537
 21
792.9131276633357
 72
     1
 10
1908.615251111537
 20
792.9131276633357
 11
1905.947330750466
 21
792.9131276633357
 72
     2
 10
1914.585251111536
 20
784.5832818162736
 40
12.0
 50
136.0401740549229
 51
180.0000000000001
 73
     1
 72
     1
 10
1902.585251111536
 20
784.5832818162733
 11
1902.585251111536
 21
755.9131276633354
 72
     1
 10
1902.585251111536
 20
755.9131276633356
 11
1903.050665190478
 21
755.9131276633356
 97
        0
 75
     0
 76
     0
 52
135.0
 41
2.7
 77
     0
 78
     1
 53
135.0
 43
1766.933290855854
 44
555.1568856856821
 45
-1.909188309203678
 46
-1.909188309203678
 79
     0
 98
        1
 10
1766.933290855854
 20
555.1568856856821
1001
GENIUS_GENOBJ-N-HTC_13
1002
{
1000
OWNER
1000
GEN
1002
}
1001
GENIUS_GENODEF_13
1002
{
1000
HIER
1070
     0
1002
}
1002
{
1000
MANEDIT
1070
     0
1002
}
1002
{
1000
NOSEL
1070
     0
1002
}
1002
{
1000
BEHIND
1070
     0
1002
}
1002
{
1000
OTHER
1070
     0
1002
}
1002
{
1000
REACTOR
1002
}
1001
GENIUS_GENHATCH_13
1002
{
1000
DATA
1040
135.0
1042
2.7
1000
_U
1070
     0
1011
1903.493492334475
1021
780.6088596947469
1031
0.0
1002
}
1002
{
1000
UCS
1010
0.0
1020
0.0
1030
0.0
1010
1.0
1020
0.0
1030
0.0
1010
0.0
1020
1.0
1030
0.0
1002
}
  0
HATCH
  5
774
330
1F
100
AcDbEntity
  8
AM_8
100
AcDbHatch
 10
0.0
 20
0.0
 30
0.0
210
0.0
220
0.0
230
1.0
  2
_U
 70
     0
 71
     0
 91
        1
 92
        1
 93
        4
 72
     1
 10
1904.585251111536
 20
757.4477135843943
 11
1904.585251111536
 21
777.9131276633356
 72
     1
 10
1904.585251111536
 20
777.9131276633355
 11
1903.15759172754
 21
777.9131276633355
 72
     1
 10
1903.15759172754
 20
777.9131276633355
 11
1903.15759172754
 21
756.0200542003984
 72
     1
 10
1903.15759172754
 20
756.0200542003984
 11
1904.585251111536
 21
757.4477135843943
 97
        0
 75
     0
 76
     0
 52
135.0
 41
2.7
 77
     0
 78
     1
 53
135.0
 43
1766.933290855854
 44
555.1568856856821
 45
-1.909188309203678
 46
-1.909188309203678
 79
     0
 98
        1
 10
1766.933290855854
 20
555.1568856856821
1001
GENIUS_GENOBJ-N-HTC_13
1002
{
1000
OWNER
1000
GEN
1002
}
1001
GENIUS_GENODEF_13
1002
{
1000
HIER
1070
     0
1002
}
1002
{
1000
MANEDIT
1070
     0
1002
}
1002
{
1000
NOSEL
1070
     0
1002
}
1002
{
1000
BEHIND
1070
     0
1002
}
1002
{
1000
OTHER
1070
     0
1002
}
1002
{
1000
REACTOR
1002
}
1001
GENIUS_GENHATCH_13
1002
{
1000
DATA
1040
135.0
1042
2.7
1000
_U
1070
     0
1011
1903.76124791039
1021
763.4792486351955
1031
0.0
1002
}
1002
{
1000
UCS
1010
0.0
1020
0.0
1030
0.0
1010
1.0
1020
0.0
1030
0.0
1010
0.0
1020
1.0
1030
0.0
1002
}
  0
HATCH
  5
775
330
1F
100
AcDbEntity
  8
AM_8
100
AcDbHatch
 10
0.0
 20
0.0
 30
0.0
210
0.0
220
0.0
230
1.0
  2
_U
 70
     0
 71
     0
 91
        1
 92
        1
 93
        4
 72
     1
 10
1878.145251111537
 20
777.9131276633355
 11
1878.145251111537
 21
757.4477135843943
 72
     1
 10
1878.145251111537
 20
757.4477135843943
 11
1879.572910495533
 21
756.0200542003984
 72
     1
 10
1879.572910495533
 20
756.0200542003984
 11
1879.572910495533
 21
777.9131276633356
 72
     1
 10
1879.572910495533
 20
777.9131276633355
 11
1878.145251111537
 21
777.9131276633355
 97
        0
 75
     0
 76
     0
 52
135.0
 41
2.7
 77
     0
 78
     1
 53
135.0
 43
1766.933290855854
 44
555.1568856856821
 45
-1.909188309203678
 46
-1.909188309203678
 79
     0
 98
        1
 10
1766.933290855854
 20
555.1568856856821
1001
GENIUS_GENODEF_13
1002
{
1000
HIER
1070
     0
1002
}
1002
{
1000
MANEDIT
1070
     0
1002
}
1002
{
1000
NOSEL
1070
     0
1002
}
1002
{
1000
BEHIND
1070
     0
1002
}
1002
{
1000
OTHER
1070
     0
1002
}
1002
{
1000
REACTOR
1002
}
1001
GENIUS_GENOBJ-N-HTC_13
1002
{
1000
OWNER
1000
GEN
1002
}
1001
GENIUS_GENHATCH_13
1002
{
1000
DATA
1040
135.0
1042
2.7
1000
_U
1070
     0
1011
1878.860021960354
1021
762.4086478133308
1031
0.0
1002
}
1002
{
1000
UCS
1010
0.0
1020
0.0
1030
0.0
1010
1.0
1020
0.0
1030
0.0
1010
0.0
1020
1.0
1030
0.0
1002
}
  0
LINE
  5
776
330
1F
100
AcDbEntity
  8
KOPF03
 62
     7
100
AcDbLine
 10
1879.679837032596
 20
755.9131276633356
 30
0.0
 11
1879.679837032596
 21
754.9131276633355
 31
0.0
  0
LINE
  5
777
330
1F
100
AcDbEntity
  8
0
100
AcDbLine
 10
1848.865251111538
 20
779.4131276633355
 30
0.0
 11
1848.24249911595
 21
778.6307083691002
 31
0.0
  0
HATCH
  5
778
330
1F
100
AcDbEntity
  8
AM_8
100
AcDbHatch
 10
0.0
 20
0.0
 30
0.0
210
0.0
220
0.0
230
1.0
  2
SOLID
 70
     1
 71
     0
 91
        1
 92
        1
 93
       23
 72
     1
 10
1848.865251111538
 20
779.4131276633355
 11
1848.24249911595
 21
778.6307083691002
 72
     2
 10
1848.865251111538
 20
779.4131276633355
 40
1.000000000000007
 50
231.4826205400393
 51
330.0000000000039
 73
     1
 72
     2
 10
1850.597301919106
 20
778.4131276633355
 40
0.9999999999999873
 50
210.0000000000042
 51
269.9999999999984
 73
     0
 72
     1
 10
1850.597301919106
 20
779.4131276633355
 11
1853.615251111538
 21
779.4131276633355
 72
     2
 10
1853.615251111538
 20
780.4131276633356
 40
1.0
 50
270.0
 51
360.0
 73
     1
 72
     1
 10
1854.615251111538
 20
780.4131276633356
 11
1854.615251111538
 21
790.4131276633355
 72
     2
 10
1858.615251111538
 20
790.4131276633356
 40
4.0
 50
180.0
 51
270.0
 73
     0
 72
     1
 10
1858.615251111538
 20
794.4131276633356
 11
1879.615251111538
 21
794.4131276633356
 72
     1
 10
1879.615251111538
 20
794.4131276633356
 11
1879.615251111538
 21
792.9131276633357
 72
     1
 10
1879.615251111538
 20
792.9131276633357
 11
1876.783171472607
 21
792.9131276633357
 72
     2
 10
1868.145251111537
 20
784.5832818162733
 40
11.99999999999999
 50
316.0401740549228
 51
360.0
 73
     0
 72
     1
 10
1880.145251111537
 20
784.5832818162733
 11
1880.145251111537
 21
755.9131276633354
 72
     1
 10
1880.145251111537
 20
755.9131276633356
 11
1879.679837032596
 21
755.9131276633356
 72
     1
 10
1879.679837032596
 20
755.9131276633356
 11
1879.679837032596
 21
754.9131276633355
 72
     1
 10
1879.679837032596
 20
754.9131276633355
 11
1880.645251111537
 21
754.9131276633355
 72
     2
 10
1880.645251111537
 20
755.4131276633356
 40
0.5
 50
270.0
 51
360.0
 73
     1
 72
     1
 10
1881.145251111538
 20
755.4131276633356
 11
1881.145251111538
 21
794.9131276633354
 72
     2
 10
1880.645251111537
 20
794.9131276633355
 40
0.5
 50
0.0
 51
90.0
 73
     1
 72
     1
 10
1880.645251111537
 20
795.4131276633355
 11
1858.615251111538
 21
795.4131276633355
 72
     2
 10
1858.615251111538
 20
790.4131276633356
 40
5.0
 50
90.0
 51
180.0
 73
     1
 72
     1
 10
1853.615251111538
 20
790.4131276633356
 11
1853.615251111538
 21
780.4131276633357
 72
     1
 10
1853.615251111538
 20
780.4131276633356
 11
1850.597301919107
 21
780.4131276633356
 72
     2
 10
1850.597301919106
 20
778.4131276633355
 40
2.0
 50
89.99999999999959
 51
149.9999999999998
 73
     1
 97
        0
 75
     0
 76
     1
 98
        1
 10
1766.933290855854
 20
555.1568856856821
450
        0
451
        0
460
0.0
461
0.0
452
        0
462
0.0
453
        0
470

1001
GENIUS_GENOBJ-N-HTC_13
1002
{
1000
OWNER
1000
GEN
1002
}
1001
GENIUS_GENODEF_13
1002
{
1000
HIER
1070
     0
1002
}
1002
{
1000
MANEDIT
1070
     0
1002
}
1002
{
1000
NOSEL
1070
     0
1002
}
1002
{
1000
BEHIND
1070
     0
1002
}
1002
{
1000
OTHER
1070
     0
1002
}
1002
{
1000
REACTOR
1002
}
1001
GENIUS_GENHATCH_13
1002
{
1000
DATA
1040
0.0
1042
1.0
1000
SOLID
1070
     0
1011
1851.57863288101
1021
779.9668762834715
1031
0.0
1002
}
1002
{
1000
UCS
1010
0.0
1020
0.0
1030
0.0
1010
1.0
1020
0.0
1030
0.0
1010
0.0
1020
1.0
1030
0.0
1002
}
  0
LINE
  5
779
330
1F
100
AcDbEntity
  8
KOPF03
 62
     7
100
AcDbLine
 10
1901.585251111538
 20
755.4131276633356
 30
0.0
 11
1901.585251111538
 21
794.9131276633355
 31
0.0
  0
LINE
  5
77A
330
1F
100
AcDbEntity
  8
KOPF03
 62
     7
100
AcDbLine
 10
1903.05066519048
 20
754.9131276633355
 30
0.0
 11
1902.085251111538
 21
754.9131276633355
 31
0.0
  0
ARC
  5
77B
330
1F
100
AcDbEntity
  8
KOPF03
 62
     7
100
AcDbCircle
 10
1902.085251111538
 20
755.4131276633356
 30
0.0
 40
0.5
100
AcDbArc
 50
180.0
 51
270.0
1001
GENIUS_GENODEF_13
1002
{
1000
HIER
1070
     0
1002
}
1002
{
1000
MANEDIT
1070
     0
1002
}
1002
{
1000
NOSEL
1070
     0
1002
}
1002
{
1000
BEHIND
1070
     0
1002
}
1002
{
1000
OTHER
1070
     0
1002
}
1002
{
1000
REACTOR
1002
}
1001
GENIUS_GENOBJ-N-FIL_13
1002
{
1000
OWNER
1000
GEN
1002
}
  0
ARC
  5
77C
330
1F
100
AcDbEntity
  8
0
100
AcDbCircle
 10
1932.133200303969
 20
778.4131276633355
 30
0.0
 40
2.0
100
AcDbArc
 50
29.99999999999165
 51
90.0
1001
GENIUS_GENOBJ-N-FIL_13
1002
{
1000
OWNER
1000
GEN
1002
}
1001
GENIUS_GENODEF_13
1002
{
1000
HIER
1070
     0
1002
}
1002
{
1000
MANEDIT
1070
     0
1002
}
1002
{
1000
NOSEL
1070
     0
1002
}
1002
{
1000
BEHIND
1070
     0
1002
}
1002
{
1000
OTHER
1070
     0
1002
}
1002
{
1000
REACTOR
1002
}
  0
LINE
  5
77D
330
1F
100
AcDbEntity
  8
0
100
AcDbLine
 10
1928.115251111538
 20
790.4131276633356
 30
0.0
 11
1928.115251111538
 21
780.4131276633356
 31
0.0
  0
LINE
  5
77E
330
1F
100
AcDbEntity
  8
0
100
AcDbLine
 10
1929.115251111538
 20
790.4131276633356
 30
0.0
 11
1929.115251111538
 21
780.4131276633356
 31
0.0
  0
LINE
  5
77F
330
1F
100
AcDbEntity
  8
0
100
AcDbLine
 10
1929.115251111538
 20
780.4131276633356
 30
0.0
 11
1932.133200303969
 21
780.4131276633356
 31
0.0
  0
LINE
  5
780
330
1F
100
AcDbEntity
  8
0
100
AcDbLine
 10
1902.085251111538
 20
795.4131276633355
 30
0.0
 11
1924.115251111538
 21
795.4131276633356
 31
0.0
  0
LINE
  5
781
330
1F
100
AcDbEntity
  8
KOPF03
 62
     7
100
AcDbLine
 10
1903.05066519048
 20
755.9131276633356
 30
0.0
 11
1903.05066519048
 21
754.9131276633355
 31
0.0
  0
HATCH
  5
782
330
1F
100
AcDbEntity
  8
AM_8
100
AcDbHatch
 10
0.0
 20
0.0
 30
0.0
210
0.0
220
0.0
230
1.0
  2
SOLID
 70
     1
 71
     0
 91
        1
 92
        1
 93
       23
 72
     1
 10
1933.865251111538
 20
779.4131276633355
 11
1934.488003107125
 21
778.6307083691002
 72
     2
 10
1933.865251111538
 20
779.4131276633355
 40
1.000000000000007
 50
51.48262054003929
 51
150.0000000000039
 73
     0
 72
     2
 10
1932.133200303969
 20
778.4131276633355
 40
0.9999999999999873
 50
390.0000000000042
 51
449.9999999999984
 73
     1
 72
     1
 10
1932.133200303969
 20
779.4131276633355
 11
1929.115251111537
 21
779.4131276633355
 72
     2
 10
1929.115251111538
 20
780.4131276633356
 40
1.0
 50
90.0
 51
180.0
 73
     0
 72
     1
 10
1928.115251111538
 20
780.4131276633356
 11
1928.115251111538
 21
790.4131276633355
 72
     2
 10
1924.115251111538
 20
790.4131276633356
 40
4.0
 50
360.0
 51
450.0
 73
     1
 72
     1
 10
1924.115251111538
 20
794.4131276633356
 11
1903.115251111538
 21
794.4131276633356
 72
     1
 10
1903.115251111538
 20
794.4131276633356
 11
1903.115251111538
 21
792.9131276633357
 72
     1
 10
1903.115251111538
 20
792.9131276633357
 11
1905.947330750468
 21
792.9131276633357
 72
     2
 10
1914.585251111538
 20
784.5832818162733
 40
11.99999999999999
 50
496.0401740549228
 51
540.0
 73
     1
 72
     1
 10
1902.585251111538
 20
784.5832818162733
 11
1902.585251111538
 21
755.9131276633354
 72
     1
 10
1902.585251111538
 20
755.9131276633356
 11
1903.05066519048
 21
755.9131276633356
 72
     1
 10
1903.05066519048
 20
755.9131276633356
 11
1903.05066519048
 21
754.9131276633355
 72
     1
 10
1903.05066519048
 20
754.9131276633355
 11
1902.085251111538
 21
754.9131276633355
 72
     2
 10
1902.085251111538
 20
755.4131276633356
 40
0.5
 50
90.0
 51
180.0
 73
     0
 72
     1
 10
1901.585251111538
 20
755.4131276633356
 11
1901.585251111538
 21
794.9131276633354
 72
     2
 10
1902.085251111538
 20
794.9131276633355
 40
0.5
 50
-180.0
 51
-90.0
 73
     0
 72
     1
 10
1902.085251111538
 20
795.4131276633355
 11
1924.115251111538
 21
795.4131276633355
 72
     2
 10
1924.115251111538
 20
790.4131276633356
 40
5.0
 50
-90.0
 51
0.0
 73
     0
 72
     1
 10
1929.115251111538
 20
790.4131276633356
 11
1929.115251111538
 21
780.4131276633357
 72
     1
 10
1929.115251111538
 20
780.4131276633356
 11
1932.133200303969
 21
780.4131276633356
 72
     2
 10
1932.133200303969
 20
778.4131276633355
 40
2.0
 50
-90.0000000000004
 51
-30.00000000000015
 73
     0
 97
        0
 75
     0
 76
     1
 98
        1
 10
2015.797211367222
 20
555.1568856856821
450
        0
451
        0
460
0.0
461
0.0
452
        0
462
0.0
453
        0
470

1001
GENIUS_GENOBJ-N-HTC_13
1002
{
1000
OWNER
1000
GEN
1002
}
1001
GENIUS_GENODEF_13
1002
{
1000
HIER
1070
     0
1002
}
1002
{
1000
MANEDIT
1070
     0
1002
}
1002
{
1000
NOSEL
1070
     0
1002
}
1002
{
1000
BEHIND
1070
     0
1002
}
1002
{
1000
OTHER
1070
     0
1002
}
1002
{
1000
REACTOR
1002
}
1001
GENIUS_GENHATCH_13
1002
{
1000
DATA
1040
0.0
1042
-1.0
1000
SOLID
1070
     0
1011
1931.151869342065
1021
779.9668762834715
1031
0.0
1002
}
1002
{
1000
UCS
1010
0.0
1020
0.0
1030
0.0
1010
1.0
1020
0.0
1030
0.0
1010
0.0
1020
1.0
1030
0.0
1002
}
  0
LINE
  5
783
330
1F
100
AcDbEntity
  8
AM_0
100
AcDbLine
 10
1880.162544072067
 20
754.9131276633355
 30
0.0
 11
1902.567958151009
 21
754.9131276633355
 31
0.0
  0
LINE
  5
784
330
1F
100
AcDbEntity
  8
AM_0
100
AcDbLine
 10
1845.511556217575
 20
784.578788550505
 30
0.0
 11
1845.511556217575
 21
781.2537885505049
 31
0.0
  0
LINE
  5
785
330
1F
100
AcDbEntity
  8
AM_0
100
AcDbLine
 10
1849.011556217575
 20
786.547538550505
 30
0.0
 11
1847.480306217575
 21
786.547538550505
 31
0.0
  0
ARC
  5
786
330
1F
100
AcDbEntity
  8
AM_0
100
AcDbCircle
 10
1847.480306217575
 20
784.578788550505
 30
0.0
 40
1.96875
100
AcDbArc
 50
90.0
 51
180.0
  0
LINE
  5
787
330
1F
100
AcDbEntity
  8
0
100
AcDbLine
 10
1848.046781803618
 20
787.642798258007
 30
0.0
 11
1847.833884258876
 21
787.6622608537214
 31
0.0
  0
ARC
  5
788
330
1F
100
AcDbEntity
  8
0
100
AcDbCircle
 10
1847.515251111538
 20
784.1767948995888
 30
0.0
 40
3.5
100
AcDbArc
 50
84.77667230590508
 51
180.0
1001
GENIUS_GENODEF_13
1002
{
1000
HIER
1070
     0
1002
}
1002
{
1000
MANEDIT
1070
     0
1002
}
1002
{
1000
NOSEL
1070
     0
1002
}
1002
{
1000
BEHIND
1070
     0
1002
}
1002
{
1000
OTHER
1070
     0
1002
}
1002
{
1000
REACTOR
1002
}
1001
GENIUS_GENOBJ-N-FIL_13
1002
{
1000
OWNER
1000
GEN
1002
}
  0
LINE
  5
789
330
1F
100
AcDbEntity
  8
0
100
AcDbLine
 10
1849.046781803618
 20
787.054177735498
 30
0.0
 11
1848.046781803618
 21
787.642798258007
 31
0.0
  0
LINE
  5
78A
330
1F
100
AcDbEntity
  8
AM_0
100
AcDbLine
 10
1849.046781803618
 20
787.054177735498
 30
0.0
 11
1849.046781803618
 21
786.5541777354982
 31
0.0
  0
LINE
  5
78B
330
1F
100
AcDbEntity
  8
0
100
AcDbLine
 10
1938.715251111538
 20
780.4131276633356
 30
0.0
 11
1938.715251111538
 21
784.1767948995888
 31
0.0
  0
LINE
  5
78C
330
1F
100
AcDbEntity
  8
0
100
AcDbLine
 10
1937.2189460055
 20
784.578788550505
 30
0.0
 11
1937.215251111538
 21
780.4131276633356
 31
0.0
  0
LINE
  5
78D
330
1F
100
AcDbEntity
  8
0
100
AcDbLine
 10
1938.715251111538
 20
780.4131276633356
 30
0.0
 11
1938.715251111538
 21
784.1767948995888
 31
0.0
  0
LINE
  5
78E
330
1F
100
AcDbEntity
  8
AM_0
100
AcDbLine
 10
1933.7189460055
 20
786.547538550505
 30
0.0
 11
1935.2501960055
 21
786.547538550505
 31
0.0
  0
ARC
  5
78F
330
1F
100
AcDbEntity
  8
AM_0
100
AcDbCircle
 10
1935.2501960055
 20
784.578788550505
 30
0.0
 40
1.96875
100
AcDbArc
 50
0.0
 51
90.0
  0
LINE
  5
790
330
1F
100
AcDbEntity
  8
0
100
AcDbLine
 10
1934.683720419458
 20
787.642798258007
 30
0.0
 11
1934.896617964199
 21
787.6622608537214
 31
0.0
  0
ARC
  5
791
330
1F
100
AcDbEntity
  8
0
100
AcDbCircle
 10
1935.215251111538
 20
784.1767948995888
 30
0.0
 40
3.5
100
AcDbArc
 50
0.0
 51
95.22332769409493
1001
GENIUS_GENODEF_13
1002
{
1000
HIER
1070
     0
1002
}
1002
{
1000
MANEDIT
1070
     0
1002
}
1002
{
1000
NOSEL
1070
     0
1002
}
1002
{
1000
BEHIND
1070
     0
1002
}
1002
{
1000
OTHER
1070
     0
1002
}
1002
{
1000
REACTOR
1002
}
1001
GENIUS_GENOBJ-N-FIL_13
1002
{
1000
OWNER
1000
GEN
1002
}
  0
LINE
  5
792
330
1F
100
AcDbEntity
  8
0
100
AcDbLine
 10
1933.683720419458
 20
787.054177735498
 30
0.0
 11
1934.683720419458
 21
787.642798258007
 31
0.0
  0
LINE
  5
793
330
1F
100
AcDbEntity
  8
AM_0
100
AcDbLine
 10
1933.683720419458
 20
787.054177735498
 30
0.0
 11
1933.683720419458
 21
786.5541777354982
 31
0.0
  0
HATCH
  5
794
330
1F
100
AcDbEntity
  8
AM_5
100
AcDbHatch
 10
0.0
 20
0.0
 30
0.0
210
0.0
220
0.0
230
1.0
  2
ANSI31
 70
     0
 71
     0
 91
        1
 92
        5
 93
       32
 72
     1
 10
1929.115251111538
 20
777.9131276633355
 11
1929.114848832944
 21
777.9131276957011
 72
     2
 10
1929.115251111538
 20
780.4131276633356
 40
2.499999999999982
 50
90.0092195462879
 51
180.0000000000003
 73
     0
 72
     1
 10
1926.615251111538
 20
780.4131276633356
 11
1926.615251111538
 21
790.4131276633355
 72
     2
 10
1924.115251111538
 20
790.4131276633356
 40
2.5
 50
360.0
 51
450.0
 73
     1
 72
     1
 10
1924.115251111538
 20
792.9131276633357
 11
1903.115251111538
 21
792.9131276633357
 72
     1
 10
1903.115251111538
 20
792.9131276633357
 11
1903.115251111538
 21
794.4131276633356
 72
     1
 10
1903.115251111538
 20
794.4131276633356
 11
1924.115251111538
 21
794.4131276633356
 72
     2
 10
1924.115251111538
 20
790.4131276633356
 40
3.999999999999999
 50
-90.0
 51
0.0
 73
     0
 72
     1
 10
1928.115251111538
 20
790.4131276633356
 11
1928.115251111538
 21
780.4131276633357
 72
     2
 10
1929.115251111538
 20
780.4131276633356
 40
0.9999999999999998
 50
540.0
 51
630.0
 73
     1
 72
     1
 10
1929.115251111538
 20
779.4131276633355
 11
1932.133200303969
 21
779.4131276633355
 72
     2
 10
1932.133200303969
 20
778.4131276633356
 40
0.9999999999999811
 50
-90.0
 51
-29.99999999999984
 73
     0
 72
     2
 10
1933.865251111538
 20
779.4131276633355
 40
0.9999999999999708
 50
210.0000000000005
 51
329.9999999999986
 73
     1
 72
     2
 10
1935.597301919106
 20
778.4131276633355
 40
0.999999999999995
 50
-150.0000000000002
 51
-89.99999999999838
 73
     0
 72
     1
 10
1935.597301919106
 20
779.4131276633355
 11
1936.215251111538
 21
779.4131276633355
 72
     2
 10
1936.215251111538
 20
780.4131276633356
 40
0.9999999999999998
 50
270.0
 51
360.0
 73
     1
 72
     1
 10
1937.215251111538
 20
780.4131276633356
 11
1937.215251111538
 21
781.1734616422401
 72
     2
 10
1936.343940898064
 20
781.2537887854431
 40
0.8750051074362518
 50
354.7327216494953
 51
359.9999846161292
 73
     1
 72
     1
 10
1937.2189460055
 20
781.2537885505049
 11
1937.2189460055
 21
784.5787885505051
 72
     2
 10
1935.250196005499
 20
784.5787885505051
 40
1.96875
 50
359.9999999999984
 51
449.9999999999934
 73
     1
 72
     1
 10
1935.2501960055
 20
786.547538550505
 11
1933.7189460055
 21
786.547538550505
 72
     2
 10
1933.7189460055
 20
787.4225385505051
 40
0.8749999999999962
 50
90.00000000000182
 51
92.30722625893372
 73
     0
 72
     1
 10
1933.683720419458
 20
786.5482478905481
 11
1933.683720419458
 21
787.054177735498
 72
     1
 10
1933.683720419458
 20
787.054177735498
 11
1934.683720419458
 21
787.642798258007
 72
     1
 10
1934.683720419458
 20
787.642798258007
 11
1934.896617964199
 21
787.6622608537213
 72
     2
 10
1935.215251111538
 20
784.1767948995888
 40
3.500000000000003
 50
-95.22332769409894
 51
-0.000000000000229
 73
     0
 72
     1
 10
1938.715251111538
 20
784.1767948995888
 11
1938.715251111538
 21
780.4131276633357
 72
     2
 10
1936.215251111538
 20
780.4131276633356
 40
2.500000000000007
 50
-0.0000000000013231
 51
88.34677441328848
 73
     0
 72
     2
 10
1936.316226902847
 20
776.9145845537584
 40
1.000000000000007
 50
451.6532255867144
 51
494.4493762462403
 73
     1
 72
     2
 10
1933.865251111538
 20
779.4131276633355
 40
2.499999999999972
 50
45.55062375376541
 51
134.4153085971957
 73
     0
 72
     2
 10
1931.415761368755
 20
776.9131276633356
 40
1.000000000000004
 50
405.5846914028054
 51
449.9999999999951
 73
     1
 72
     1
 10
1931.415761368755
 20
777.9131276633355
 11
1929.115251111538
 21
777.9131276633355
 97
        0
 75
     0
 76
     1
 52
0.0
 41
0.5
 77
     0
 78
     1
 53
45.0
 43
1598.77186186687
 44
857.2125424715768
 45
-1.122532015133643
 46
1.122532015133644
 79
     0
 47
0.0877722658561604
 98
        1
 10
1924.958311026429
 20
787.3453766541784
1001
ACAD
1010
0.0
1020
0.0
1030
0.0
  0
LINE
  5
795
330
1F
100
AcDbEntity
  8
0
100
AcDbLine
 10
1904.585251111536
 20
757.4477135843943
 30
0.0
 11
1904.585251111536
 21
757.4477135843943
 31
0.0
  0
LINE
  5
796
330
1F
100
AcDbEntity
  8
0
100
AcDbLine
 10
1888.202075200371
 20
799.4631276633357
 30
0.0
 11
1870.257954488355
 21
799.4631276633355
 31
0.0
  0
LINE
  5
797
330
1F
100
AcDbEntity
  8
0
100
AcDbLine
 10
1891.365251111537
 20
805.4478182338987
 30
0.0
 11
1867.249783730276
 21
801.1956106821875
 31
0.0
  0
LINE
  5
798
330
1F
100
AcDbEntity
  8
0
100
AcDbLine
 10
1881.202075200371
 20
803.6557761110739
 30
0.0
 11
1881.202075200371
 21
799.4631276633355
 31
0.0
  0
LINE
  5
799
330
1F
100
AcDbEntity
  8
0
100
AcDbLine
 10
1880.202075200371
 20
803.4794491303653
 30
0.0
 11
1880.202075200371
 21
799.4631276633355
 31
0.0
  0
LINE
  5
79A
330
1F
100
AcDbEntity
  8
0
100
AcDbLine
 10
1884.202075200371
 20
804.1847570531992
 30
0.0
 11
1884.202075200371
 21
799.4631276633355
 31
0.0
  0
LINE
  5
79B
330
1F
100
AcDbEntity
  8
7
100
AcDbLine
 10
1878.702075200371
 20
807.1572412423261
 30
0.0
 11
1878.702075200371
 21
797.4245284880711
 31
0.0
  0
LINE
  5
79C
330
1F
100
AcDbEntity
  8
7
100
AcDbLine
 10
1874.702075200371
 20
807.1572412423261
 30
0.0
 11
1874.702075200371
 21
797.4245284880711
 31
0.0
  0
LINE
  5
79D
330
1F
100
AcDbEntity
  8
7
100
AcDbLine
 10
1882.702075200371
 20
807.1572412423261
 30
0.0
 11
1882.702075200371
 21
797.4245284880711
 31
0.0
  0
LINE
  5
79E
330
1F
100
AcDbEntity
  8
0
100
AcDbLine
 10
1881.052075200371
 20
795.4631276633355
 30
0.0
 11
1867.371203142407
 21
795.4631276633355
 31
0.0
  0
LINE
  5
79F
330
1F
100
AcDbEntity
  8
0
100
AcDbLine
 10
1881.052075200371
 20
796.9631276633355
 30
0.0
 11
1868.525903680786
 21
796.9631276633355
 31
0.0
  0
ARC
  5
7A0
330
1F
100
AcDbEntity
  8
0
100
AcDbCircle
 10
1867.371203142407
 20
795.9631276633355
 30
0.0
 40
0.5
100
AcDbArc
 50
270.0
 51
330.0000000000084
  0
ARC
  5
7A1
330
1F
100
AcDbEntity
  8
0
100
AcDbCircle
 10
1867.33660781911
 20
800.7032068056815
 30
0.0
 40
0.5
100
AcDbArc
 50
100.000000000005
 51
150.0000000000083
  0
ARC
  5
7A2
330
1F
100
AcDbEntity
  8
0
100
AcDbCircle
 10
1864.860019705094
 20
796.4136303627848
 30
0.0
 40
0.5
100
AcDbArc
 50
150.0000000000083
 51
259.999999999995
  0
LINE
  5
7A3
330
1F
100
AcDbEntity
  8
0
100
AcDbLine
 10
1867.371203142407
 20
795.4631276633355
 30
0.0
 11
1864.773195616261
 21
795.9212264862789
 31
0.0
  0
LINE
  5
7A4
330
1F
100
AcDbEntity
  8
0
100
AcDbLine
 10
1864.427007003202
 20
796.6636303627848
 30
0.0
 11
1866.903595117218
 21
800.9532068056815
 31
0.0
  0
ARC
  5
7A5
330
1F
100
AcDbEntity
  8
0
100
AcDbCircle
 10
1870.257954488355
 20
798.9631276633355
 30
0.0
 40
0.5
100
AcDbArc
 50
90.0
 51
150.0000000000083
  0
LINE
  5
7A6
330
1F
100
AcDbEntity
  8
0
100
AcDbLine
 10
1873.202075200371
 20
802.245160265406
 30
0.0
 11
1873.202075200371
 21
799.4631276633355
 31
0.0
  0
LINE
  5
7A7
330
1F
100
AcDbEntity
  8
0
100
AcDbLine
 10
1867.804215844299
 20
795.7131276633355
 30
0.0
 11
1869.824941786462
 21
799.2131276633354
 31
0.0
  0
LINE
  5
7A8
330
1F
100
AcDbEntity
  8
0
100
AcDbLine
 10
1873.879718220439
 20
795.4631276633355
 30
0.0
 11
1881.052075200371
 21
795.4631276633355
 31
0.0
  0
LINE
  5
7A9
330
1F
100
AcDbEntity
  8
0
100
AcDbLine
 10
1877.202075200371
 20
802.95046818824
 30
0.0
 11
1877.202075200371
 21
799.4631276633355
 31
0.0
  0
LINE
  5
7AA
330
1F
100
AcDbEntity
  8
0
100
AcDbLine
 10
1876.202075200371
 20
802.7741412075314
 30
0.0
 11
1876.202075200371
 21
799.4631276633355
 31
0.0
  0
LINE
  5
7AB
330
1F
100
AcDbEntity
  8
0
100
AcDbLine
 10
1902.678427022704
 20
793.8631276633356
 30
0.0
 11
1902.678427022704
 21
778.3512776270683
 31
0.0
  0
LINE
  5
7AC
330
1F
100
AcDbEntity
  8
0
100
AcDbLine
 10
1902.678427022704
 20
778.3512776270683
 30
0.0
 11
1901.606630252979
 21
775.413176052413
 31
0.0
  0
LINE
  5
7AD
330
1F
100
AcDbEntity
  8
0
100
AcDbLine
 10
1891.365251111537
 20
805.4478182338987
 30
0.0
 11
1915.480718492798
 21
801.1956106821875
 31
0.0
  0
LINE
  5
7AE
330
1F
100
AcDbEntity
  8
0
100
AcDbLine
 10
1901.678427022704
 20
796.9631276633355
 30
0.0
 11
1914.204598542289
 21
796.9631276633355
 31
0.0
  0
LINE
  5
7AF
330
1F
100
AcDbEntity
  8
0
100
AcDbLine
 10
1885.202075200371
 20
804.3610840339077
 30
0.0
 11
1885.202075200371
 21
799.4631276633355
 31
0.0
  0
LINE
  5
7B0
330
1F
100
AcDbEntity
  8
7
100
AcDbLine
 10
1886.702075200371
 20
807.1572412423261
 30
0.0
 11
1886.702075200371
 21
797.4245284880711
 31
0.0
  0
LINE
  5
7B1
330
1F
100
AcDbEntity
  8
0
100
AcDbLine
 10
1901.678427022704
 20
796.9631276633355
 30
0.0
 11
1901.678427022704
 21
793.8631276633356
 31
0.0
  0
LINE
  5
7B2
330
1F
100
AcDbEntity
  8
0
100
AcDbLine
 10
1901.678427022704
 20
793.8631276633356
 30
0.0
 11
1902.678427022704
 21
793.8631276633356
 31
0.0
  0
ARC
  5
7B3
330
1F
100
AcDbEntity
  8
0
100
AcDbCircle
 10
1915.393894403965
 20
800.7032068056815
 30
0.0
 40
0.5
100
AcDbArc
 50
29.99999999999165
 51
79.99999999999499
  0
ARC
  5
7B4
330
1F
100
AcDbEntity
  8
0
100
AcDbCircle
 10
1917.870482517981
 20
796.4136303627848
 30
0.0
 40
0.5
100
AcDbArc
 50
280.000000000005
 51
29.99999999999165
  0
LINE
  5
7B5
330
1F
100
AcDbEntity
  8
0
100
AcDbLine
 10
1918.303495219873
 20
796.6636303627848
 30
0.0
 11
1915.826907105857
 21
800.9532068056815
 31
0.0
  0
LINE
  5
7B6
330
1F
100
AcDbEntity
  8
0
 62
     7
100
AcDbLine
 10
1888.202075200371
 20
804.8900649760332
 30
0.0
 11
1888.202075200371
 21
775.413176052413
 31
0.0
  0
LINE
  5
7B7
330
1F
100
AcDbEntity
  8
0
100
AcDbLine
 10
1881.123871970096
 20
775.413176052413
 30
0.0
 11
1901.606630252979
 21
775.413176052413
 31
0.0
  0
LINE
  5
7B8
330
1F
100
AcDbEntity
  8
8
100
AcDbLine
 10
1888.202075200371
 20
803.7188777587223
 30
0.0
 11
1889.623983153988
 21
805.1407857123397
 31
0.0
1001
GENIUS_GENODEF_13
1002
{
1000
HIER
1070
     0
1002
}
1002
{
1000
MANEDIT
1070
     0
1002
}
1002
{
1000
NOSEL
1070
     0
1002
}
1002
{
1000
BEHIND
1070
     0
1002
}
1002
{
1000
OTHER
1070
     0
1002
}
1002
{
1000
REACTOR
1002
}
1001
GENIUS_GENOBJ-N-HTC_13
1002
{
1000
OWNER
1000
GEN
1002
}
1001
GENIUS_GENHATCH_13
1002
{
1000
DATA
1040
45.0
1042
2.299999999999999
1000
_U
1070
     1
1011
1898.924853607031
1021
785.017227739261
1031
0.0
1002
}
1002
{
1000
UCS
1010
0.0
1020
0.0
1030
0.0
1010
1.0
1020
0.0
1030
0.0
1010
0.0
1020
1.0
1030
0.0
1002
}
  0
LINE
  5
7B9
330
1F
100
AcDbEntity
  8
8
100
AcDbLine
 10
1888.202075200371
 20
797.2134953718062
 30
0.0
 11
1895.676252248204
 21
804.6876724196396
 31
0.0
1001
GENIUS_GENODEF_13
1002
{
1000
HIER
1070
     0
1002
}
1002
{
1000
MANEDIT
1070
     0
1002
}
1002
{
1000
NOSEL
1070
     0
1002
}
1002
{
1000
BEHIND
1070
     0
1002
}
1002
{
1000
OTHER
1070
     0
1002
}
1002
{
1000
REACTOR
1002
}
1001
GENIUS_GENOBJ-N-HTC_13
1002
{
1000
OWNER
1000
GEN
1002
}
1001
GENIUS_GENHATCH_13
1002
{
1000
DATA
1040
45.0
1042
2.299999999999999
1000
_U
1070
     1
1011
1898.924853607031
1021
785.017227739261
1031
0.0
1002
}
1002
{
1000
UCS
1010
0.0
1020
0.0
1030
0.0
1010
1.0
1020
0.0
1030
0.0
1010
0.0
1020
1.0
1030
0.0
1002
}
  0
LINE
  5
7BA
330
1F
100
AcDbEntity
  8
8
100
AcDbLine
 10
1888.202075200371
 20
790.7081129848899
 30
0.0
 11
1901.20650233479
 21
803.7125401193092
 31
0.0
1001
GENIUS_GENODEF_13
1002
{
1000
HIER
1070
     0
1002
}
1002
{
1000
MANEDIT
1070
     0
1002
}
1002
{
1000
NOSEL
1070
     0
1002
}
1002
{
1000
BEHIND
1070
     0
1002
}
1002
{
1000
OTHER
1070
     0
1002
}
1002
{
1000
REACTOR
1002
}
1001
GENIUS_GENOBJ-N-HTC_13
1002
{
1000
OWNER
1000
GEN
1002
}
1001
GENIUS_GENHATCH_13
1002
{
1000
DATA
1040
45.0
1042
2.299999999999999
1000
_U
1070
     1
1011
1898.924853607031
1021
785.017227739261
1031
0.0
1002
}
1002
{
1000
UCS
1010
0.0
1020
0.0
1030
0.0
1010
1.0
1020
0.0
1030
0.0
1010
0.0
1020
1.0
1030
0.0
1002
}
  0
LINE
  5
7BB
330
1F
100
AcDbEntity
  8
8
100
AcDbLine
 10
1888.202075200371
 20
784.2027305979736
 30
0.0
 11
1906.736752421376
 21
802.7374078189788
 31
0.0
1001
GENIUS_GENODEF_13
1002
{
1000
HIER
1070
     0
1002
}
1002
{
1000
MANEDIT
1070
     0
1002
}
1002
{
1000
NOSEL
1070
     0
1002
}
1002
{
1000
BEHIND
1070
     0
1002
}
1002
{
1000
OTHER
1070
     0
1002
}
1002
{
1000
REACTOR
1002
}
1001
GENIUS_GENOBJ-N-HTC_13
1002
{
1000
OWNER
1000
GEN
1002
}
1001
GENIUS_GENHATCH_13
1002
{
1000
DATA
1040
45.0
1042
2.299999999999999
1000
_U
1070
     1
1011
1898.924853607031
1021
785.017227739261
1031
0.0
1002
}
1002
{
1000
UCS
1010
0.0
1020
0.0
1030
0.0
1010
1.0
1020
0.0
1030
0.0
1010
0.0
1020
1.0
1030
0.0
1002
}
  0
LINE
  5
7BC
330
1F
100
AcDbEntity
  8
8
100
AcDbLine
 10
1888.202075200371
 20
777.6973482110575
 30
0.0
 11
1902.678427022704
 21
792.1737000333905
 31
0.0
1001
GENIUS_GENODEF_13
1002
{
1000
HIER
1070
     0
1002
}
1002
{
1000
MANEDIT
1070
     0
1002
}
1002
{
1000
NOSEL
1070
     0
1002
}
1002
{
1000
BEHIND
1070
     0
1002
}
1002
{
1000
OTHER
1070
     0
1002
}
1002
{
1000
REACTOR
1002
}
1001
GENIUS_GENOBJ-N-HTC_13
1002
{
1000
OWNER
1000
GEN
1002
}
1001
GENIUS_GENHATCH_13
1002
{
1000
DATA
1040
45.0
1042
2.299999999999999
1000
_U
1070
     1
1011
1898.924853607031
1021
785.017227739261
1031
0.0
1002
}
1002
{
1000
UCS
1010
0.0
1020
0.0
1030
0.0
1010
1.0
1020
0.0
1030
0.0
1010
0.0
1020
1.0
1030
0.0
1002
}
  0
LINE
  5
7BD
330
1F
100
AcDbEntity
  8
8
100
AcDbLine
 10
1907.467854652649
 20
796.9631276633355
 30
0.0
 11
1912.267002507962
 21
801.7622755186485
 31
0.0
1001
GENIUS_GENODEF_13
1002
{
1000
HIER
1070
     0
1002
}
1002
{
1000
MANEDIT
1070
     0
1002
}
1002
{
1000
NOSEL
1070
     0
1002
}
1002
{
1000
BEHIND
1070
     0
1002
}
1002
{
1000
OTHER
1070
     0
1002
}
1002
{
1000
REACTOR
1002
}
1001
GENIUS_GENOBJ-N-HTC_13
1002
{
1000
OWNER
1000
GEN
1002
}
1001
GENIUS_GENHATCH_13
1002
{
1000
DATA
1040
45.0
1042
2.299999999999999
1000
_U
1070
     1
1011
1898.924853607031
1021
785.017227739261
1031
0.0
1002
}
1002
{
1000
UCS
1010
0.0
1020
0.0
1030
0.0
1010
1.0
1020
0.0
1030
0.0
1010
0.0
1020
1.0
1030
0.0
1002
}
  0
LINE
  5
7BE
330
1F
100
AcDbEntity
  8
8
100
AcDbLine
 10
1892.423285428643
 20
775.413176052413
 30
0.0
 11
1902.678427022704
 21
785.6683176464742
 31
0.0
1001
GENIUS_GENODEF_13
1002
{
1000
HIER
1070
     0
1002
}
1002
{
1000
MANEDIT
1070
     0
1002
}
1002
{
1000
NOSEL
1070
     0
1002
}
1002
{
1000
BEHIND
1070
     0
1002
}
1002
{
1000
OTHER
1070
     0
1002
}
1002
{
1000
REACTOR
1002
}
1001
GENIUS_GENOBJ-N-HTC_13
1002
{
1000
OWNER
1000
GEN
1002
}
1001
GENIUS_GENHATCH_13
1002
{
1000
DATA
1040
45.0
1042
2.299999999999999
1000
_U
1070
     1
1011
1898.924853607031
1021
785.017227739261
1031
0.0
1002
}
1002
{
1000
UCS
1010
0.0
1020
0.0
1030
0.0
1010
1.0
1020
0.0
1030
0.0
1010
0.0
1020
1.0
1030
0.0
1002
}
  0
LINE
  5
7BF
330
1F
100
AcDbEntity
  8
8
100
AcDbLine
 10
1913.973237039565
 20
796.9631276633355
 30
0.0
 11
1916.608887100568
 21
799.5987777243389
 31
0.0
1001
GENIUS_GENODEF_13
1002
{
1000
HIER
1070
     0
1002
}
1002
{
1000
MANEDIT
1070
     0
1002
}
1002
{
1000
NOSEL
1070
     0
1002
}
1002
{
1000
BEHIND
1070
     0
1002
}
1002
{
1000
OTHER
1070
     0
1002
}
1002
{
1000
REACTOR
1002
}
1001
GENIUS_GENOBJ-N-HTC_13
1002
{
1000
OWNER
1000
GEN
1002
}
1001
GENIUS_GENHATCH_13
1002
{
1000
DATA
1040
45.0
1042
2.299999999999999
1000
_U
1070
     1
1011
1898.924853607031
1021
785.017227739261
1031
0.0
1002
}
1002
{
1000
UCS
1010
0.0
1020
0.0
1030
0.0
1010
1.0
1020
0.0
1030
0.0
1010
0.0
1020
1.0
1030
0.0
1002
}
  0
LINE
  5
7C0
330
1F
100
AcDbEntity
  8
8
100
AcDbLine
 10
1898.928667815559
 20
775.413176052413
 30
0.0
 11
1902.678427022704
 21
779.1629352595581
 31
0.0
1001
GENIUS_GENODEF_13
1002
{
1000
HIER
1070
     0
1002
}
1002
{
1000
MANEDIT
1070
     0
1002
}
1002
{
1000
NOSEL
1070
     0
1002
}
1002
{
1000
BEHIND
1070
     0
1002
}
1002
{
1000
OTHER
1070
     0
1002
}
1002
{
1000
REACTOR
1002
}
1001
GENIUS_GENOBJ-N-HTC_13
1002
{
1000
OWNER
1000
GEN
1002
}
1001
GENIUS_GENHATCH_13
1002
{
1000
DATA
1040
45.0
1042
2.299999999999999
1000
_U
1070
     1
1011
1898.924853607031
1021
785.017227739261
1031
0.0
1002
}
1002
{
1000
UCS
1010
0.0
1020
0.0
1030
0.0
1010
1.0
1020
0.0
1030
0.0
1010
0.0
1020
1.0
1030
0.0
1002
}
  0
LINE
  5
7C1
330
1F
100
AcDbEntity
  8
8
100
AcDbLine
 10
1893.751565081625
 20
775.413176052413
 30
0.0
 11
1888.202075200371
 21
780.9626659336676
 31
0.0
1001
GENIUS_GENODEF_13
1002
{
1000
HIER
1070
     0
1002
}
1002
{
1000
MANEDIT
1070
     0
1002
}
1002
{
1000
NOSEL
1070
     0
1002
}
1002
{
1000
BEHIND
1070
     0
1002
}
1002
{
1000
OTHER
1070
     0
1002
}
1002
{
1000
REACTOR
1002
}
1001
GENIUS_GENOBJ-N-HTC_13
1002
{
1000
OWNER
1000
GEN
1002
}
1001
GENIUS_GENHATCH_13
1002
{
1000
DATA
1040
45.0
1042
2.299999999999999
1000
_U
1070
     1
1011
1898.924853607031
1021
785.017227739261
1031
0.0
1002
}
1002
{
1000
UCS
1010
0.0
1020
0.0
1030
0.0
1010
1.0
1020
0.0
1030
0.0
1010
0.0
1020
1.0
1030
0.0
1002
}
  0
LINE
  5
7C2
330
1F
100
AcDbEntity
  8
8
100
AcDbLine
 10
1900.256947468542
 20
775.413176052413
 30
0.0
 11
1888.202075200371
 21
787.4680483205838
 31
0.0
1001
GENIUS_GENODEF_13
1002
{
1000
HIER
1070
     0
1002
}
1002
{
1000
MANEDIT
1070
     0
1002
}
1002
{
1000
NOSEL
1070
     0
1002
}
1002
{
1000
BEHIND
1070
     0
1002
}
1002
{
1000
OTHER
1070
     0
1002
}
1002
{
1000
REACTOR
1002
}
1001
GENIUS_GENOBJ-N-HTC_13
1002
{
1000
OWNER
1000
GEN
1002
}
1001
GENIUS_GENHATCH_13
1002
{
1000
DATA
1040
45.0
1042
2.299999999999999
1000
_U
1070
     1
1011
1898.924853607031
1021
785.017227739261
1031
0.0
1002
}
1002
{
1000
UCS
1010
0.0
1020
0.0
1030
0.0
1010
1.0
1020
0.0
1030
0.0
1010
0.0
1020
1.0
1030
0.0
1002
}
  0
LINE
  5
7C3
330
1F
100
AcDbEntity
  8
8
100
AcDbLine
 10
1902.678427022704
 20
779.4970788851669
 30
0.0
 11
1888.202075200371
 21
793.9734307075001
 31
0.0
1001
GENIUS_GENODEF_13
1002
{
1000
HIER
1070
     0
1002
}
1002
{
1000
MANEDIT
1070
     0
1002
}
1002
{
1000
NOSEL
1070
     0
1002
}
1002
{
1000
BEHIND
1070
     0
1002
}
1002
{
1000
OTHER
1070
     0
1002
}
1002
{
1000
REACTOR
1002
}
1001
GENIUS_GENOBJ-N-HTC_13
1002
{
1000
OWNER
1000
GEN
1002
}
1001
GENIUS_GENHATCH_13
1002
{
1000
DATA
1040
45.0
1042
2.299999999999999
1000
_U
1070
     1
1011
1898.924853607031
1021
785.017227739261
1031
0.0
1002
}
1002
{
1000
UCS
1010
0.0
1020
0.0
1030
0.0
1010
1.0
1020
0.0
1030
0.0
1010
0.0
1020
1.0
1030
0.0
1002
}
  0
LINE
  5
7C4
330
1F
100
AcDbEntity
  8
8
100
AcDbLine
 10
1902.678427022704
 20
786.0024612720832
 30
0.0
 11
1888.202075200371
 21
800.4788130944163
 31
0.0
1001
GENIUS_GENODEF_13
1002
{
1000
HIER
1070
     0
1002
}
1002
{
1000
MANEDIT
1070
     0
1002
}
1002
{
1000
NOSEL
1070
     0
1002
}
1002
{
1000
BEHIND
1070
     0
1002
}
1002
{
1000
OTHER
1070
     0
1002
}
1002
{
1000
REACTOR
1002
}
1001
GENIUS_GENOBJ-N-HTC_13
1002
{
1000
OWNER
1000
GEN
1002
}
1001
GENIUS_GENHATCH_13
1002
{
1000
DATA
1040
45.0
1042
2.299999999999999
1000
_U
1070
     1
1011
1898.924853607031
1021
785.017227739261
1031
0.0
1002
}
1002
{
1000
UCS
1010
0.0
1020
0.0
1030
0.0
1010
1.0
1020
0.0
1030
0.0
1010
0.0
1020
1.0
1030
0.0
1002
}
  0
LINE
  5
7C5
330
1F
100
AcDbEntity
  8
8
100
AcDbLine
 10
1902.678427022704
 20
792.5078436589993
 30
0.0
 11
1889.982303435923
 21
805.20396724578
 31
0.0
1001
GENIUS_GENODEF_13
1002
{
1000
HIER
1070
     0
1002
}
1002
{
1000
MANEDIT
1070
     0
1002
}
1002
{
1000
NOSEL
1070
     0
1002
}
1002
{
1000
BEHIND
1070
     0
1002
}
1002
{
1000
OTHER
1070
     0
1002
}
1002
{
1000
REACTOR
1002
}
1001
GENIUS_GENOBJ-N-HTC_13
1002
{
1000
OWNER
1000
GEN
1002
}
1001
GENIUS_GENHATCH_13
1002
{
1000
DATA
1040
45.0
1042
2.299999999999999
1000
_U
1070
     1
1011
1898.924853607031
1021
785.017227739261
1031
0.0
1002
}
1002
{
1000
UCS
1010
0.0
1020
0.0
1030
0.0
1010
1.0
1020
0.0
1030
0.0
1010
0.0
1020
1.0
1030
0.0
1002
}
  0
LINE
  5
7C6
330
1F
100
AcDbEntity
  8
8
100
AcDbLine
 10
1904.728525405284
 20
796.9631276633355
 30
0.0
 11
1897.288212783123
 21
804.4034402854961
 31
0.0
1001
GENIUS_GENODEF_13
1002
{
1000
HIER
1070
     0
1002
}
1002
{
1000
MANEDIT
1070
     0
1002
}
1002
{
1000
NOSEL
1070
     0
1002
}
1002
{
1000
BEHIND
1070
     0
1002
}
1002
{
1000
OTHER
1070
     0
1002
}
1002
{
1000
REACTOR
1002
}
1001
GENIUS_GENOBJ-N-HTC_13
1002
{
1000
OWNER
1000
GEN
1002
}
1001
GENIUS_GENHATCH_13
1002
{
1000
DATA
1040
45.0
1042
2.299999999999999
1000
_U
1070
     1
1011
1898.924853607031
1021
785.017227739261
1031
0.0
1002
}
1002
{
1000
UCS
1010
0.0
1020
0.0
1030
0.0
1010
1.0
1020
0.0
1030
0.0
1010
0.0
1020
1.0
1030
0.0
1002
}
  0
LINE
  5
7C7
330
1F
100
AcDbEntity
  8
8
100
AcDbLine
 10
1911.2339077922
 20
796.9631276633355
 30
0.0
 11
1905.186228421066
 21
803.0108070344693
 31
0.0
1001
GENIUS_GENODEF_13
1002
{
1000
HIER
1070
     0
1002
}
1002
{
1000
MANEDIT
1070
     0
1002
}
1002
{
1000
NOSEL
1070
     0
1002
}
1002
{
1000
BEHIND
1070
     0
1002
}
1002
{
1000
OTHER
1070
     0
1002
}
1002
{
1000
REACTOR
1002
}
1001
GENIUS_GENOBJ-N-HTC_13
1002
{
1000
OWNER
1000
GEN
1002
}
1001
GENIUS_GENHATCH_13
1002
{
1000
DATA
1040
45.0
1042
2.299999999999999
1000
_U
1070
     1
1011
1898.924853607031
1021
785.017227739261
1031
0.0
1002
}
1002
{
1000
UCS
1010
0.0
1020
0.0
1030
0.0
1010
1.0
1020
0.0
1030
0.0
1010
0.0
1020
1.0
1030
0.0
1002
}
  0
LINE
  5
7C8
330
1F
100
AcDbEntity
  8
8
100
AcDbLine
 10
1918.364688046092
 20
796.3377297963594
 30
0.0
 11
1913.084244059009
 21
801.6181737834427
 31
0.0
1001
GENIUS_GENODEF_13
1002
{
1000
HIER
1070
     0
1002
}
1002
{
1000
MANEDIT
1070
     0
1002
}
1002
{
1000
NOSEL
1070
     0
1002
}
1002
{
1000
BEHIND
1070
     0
1002
}
1002
{
1000
OTHER
1070
     0
1002
}
1002
{
1000
REACTOR
1002
}
1001
GENIUS_GENOBJ-N-HTC_13
1002
{
1000
OWNER
1000
GEN
1002
}
1001
GENIUS_GENHATCH_13
1002
{
1000
DATA
1040
45.0
1042
2.299999999999999
1000
_U
1070
     1
1011
1898.924853607031
1021
785.017227739261
1031
0.0
1002
}
1002
{
1000
UCS
1010
0.0
1020
0.0
1030
0.0
1010
1.0
1020
0.0
1030
0.0
1010
0.0
1020
1.0
1030
0.0
1002
}
  0
HATCH
  5
7C9
330
1F
100
AcDbEntity
  8
8
100
AcDbHatch
 10
0.0
 20
0.0
 30
0.0
210
0.0
220
0.0
230
1.0
  2
_U
 70
     0
 71
     0
 91
        1
 92
        1
 93
       10
 72
     1
 10
1864.773195616261
 20
795.9212264862786
 11
1867.371203142407
 21
795.4631276633355
 72
     2
 10
1867.371203142407
 20
795.9631276633355
 40
0.5
 50
270.0
 51
329.9999999999995
 73
     1
 72
     1
 10
1867.804215844299
 20
795.7131276633355
 11
1869.824941786462
 21
799.2131276633354
 72
     2
 10
1870.257954488355
 20
798.9631276633355
 40
0.5000000000000165
 50
209.9999999999989
 51
270.0000000000033
 73
     0
 72
     1
 10
1870.257954488355
 20
799.4631276633355
 11
1873.202075200371
 21
799.4631276633355
 72
     1
 10
1873.202075200371
 20
799.4631276633355
 11
1873.202075200371
 21
802.245160265406
 72
     1
 10
1873.202075200371
 20
802.245160265406
 11
1867.249783730276
 21
801.1956106821875
 72
     2
 10
1867.33660781911
 20
800.7032068056815
 40
0.4999999999998385
 50
100.0000000000084
 51
149.9999999999897
 73
     1
 72
     1
 10
1866.903595117218
 20
800.9532068056815
 11
1864.427007003202
 21
796.6636303627848
 72
     2
 10
1864.860019705094
 20
796.4136303627848
 40
0.500000000000041
 50
150.0000000000027
 51
260.0000000000014
 73
     1
 97
        0
 75
     0
 76
     0
 52
45.0
 41
3.679999999999999
 77
     1
 78
     2
 53
45.0
 43
1645.882894552317
 44
437.7974317592601
 45
-2.602152954766494
 46
2.602152954766494
 79
     0
 53
135.0
 43
1645.882894552317
 44
437.7974317592601
 45
-2.602152954766494
 46
-2.602152954766494
 79
     0
 98
        1
 10
1645.882894552317
 20
437.7974317592601
1001
GENIUS_GENODEF_13
1002
{
1000
HIER
1070
     0
1002
}
1002
{
1000
MANEDIT
1070
     0
1002
}
1002
{
1000
NOSEL
1070
     0
1002
}
1002
{
1000
BEHIND
1070
     0
1002
}
1002
{
1000
OTHER
1070
     0
1002
}
1002
{
1000
REACTOR
1002
}
1001
GENIUS_GENOBJ-N-HTC_13
1002
{
1000
OWNER
1000
GEN
1002
}
1001
GENIUS_GENHATCH_13
1002
{
1000
DATA
1040
45.0
1042
2.299999999999999
1000
_U
1070
     1
1011
1867.075164408195
1021
799.4971975452421
1031
0.0
1002
}
1002
{
1000
UCS
1010
0.0
1020
0.0
1030
0.0
1010
1.0
1020
0.0
1030
0.0
1010
0.0
1020
1.0
1030
0.0
1002
}
  0
HATCH
  5
7CA
330
1F
100
AcDbEntity
  8
8
100
AcDbHatch
 10
0.0
 20
0.0
 30
0.0
210
0.0
220
0.0
230
1.0
  2
_U
 70
     0
 71
     0
 91
        1
 92
        1
 93
        4
 72
     1
 10
1876.202075200371
 20
802.7741412075314
 11
1876.202075200371
 21
799.4631276633355
 72
     1
 10
1876.202075200371
 20
799.4631276633355
 11
1877.202075200371
 21
799.4631276633355
 72
     1
 10
1877.202075200371
 20
799.4631276633355
 11
1877.202075200371
 21
802.95046818824
 72
     1
 10
1877.202075200371
 20
802.95046818824
 11
1876.202075200371
 21
802.7741412075314
 97
        0
 75
     0
 76
     0
 52
45.0
 41
0.9199999999999999
 77
     1
 78
     2
 53
45.0
 43
1645.882894552317
 44
437.7974317592601
 45
-0.6505382386916237
 46
0.6505382386916237
 79
     0
 53
135.0
 43
1645.882894552317
 44
437.7974317592601
 45
-0.6505382386916238
 46
-0.6505382386916237
 79
     0
 98
        1
 10
1645.882894552317
 20
437.7974317592601
1001
GENIUS_GENODEF_13
1002
{
1000
HIER
1070
     0
1002
}
1002
{
1000
MANEDIT
1070
     0
1002
}
1002
{
1000
NOSEL
1070
     0
1002
}
1002
{
1000
BEHIND
1070
     0
1002
}
1002
{
1000
OTHER
1070
     0
1002
}
1002
{
1000
REACTOR
1002
}
1001
GENIUS_GENOBJ-N-HTC_13
1002
{
1000
OWNER
1000
GEN
1002
}
1001
GENIUS_GENHATCH_13
1002
{
1000
DATA
1040
45.0
1042
2.299999999999999
1000
_U
1070
     1
1011
1876.7609586347
1021
801.1545433755536
1031
0.0
1002
}
1002
{
1000
UCS
1010
0.0
1020
0.0
1030
0.0
1010
1.0
1020
0.0
1030
0.0
1010
0.0
1020
1.0
1030
0.0
1002
}
  0
HATCH
  5
7CB
330
1F
100
AcDbEntity
  8
8
100
AcDbHatch
 10
0.0
 20
0.0
 30
0.0
210
0.0
220
0.0
230
1.0
  2
_U
 70
     0
 71
     0
 91
        1
 92
        1
 93
        4
 72
     1
 10
1880.202075200371
 20
803.4794491303653
 11
1880.202075200371
 21
799.4631276633356
 72
     1
 10
1880.202075200371
 20
799.4631276633355
 11
1881.202075200371
 21
799.4631276633355
 72
     1
 10
1881.202075200371
 20
799.4631276633355
 11
1881.202075200371
 21
803.6557761110739
 72
     1
 10
1881.202075200371
 20
803.6557761110739
 11
1880.202075200371
 21
803.4794491303653
 97
        0
 75
     0
 76
     0
 52
45.0
 41
1.471999999999999
 77
     1
 78
     2
 53
45.0
 43
1645.882894552317
 44
437.7974317592601
 45
-1.040861181906597
 46
1.040861181906598
 79
     0
 53
135.0
 43
1645.882894552317
 44
437.7974317592601
 45
-1.040861181906598
 46
-1.040861181906597
 79
     0
 98
        1
 10
1645.882894552317
 20
437.7974317592601
1001
GENIUS_GENOBJ-N-HTC_13
1002
{
1000
OWNER
1000
GEN
1002
}
1001
GENIUS_GENODEF_13
1002
{
1000
HIER
1070
     0
1002
}
1002
{
1000
MANEDIT
1070
     0
1002
}
1002
{
1000
NOSEL
1070
     0
1002
}
1002
{
1000
BEHIND
1070
     0
1002
}
1002
{
1000
OTHER
1070
     0
1002
}
1002
{
1000
REACTOR
1002
}
1001
GENIUS_GENHATCH_13
1002
{
1000
DATA
1040
45.0
1042
2.299999999999999
1000
_U
1070
     1
1011
1880.774893406258
1021
800.7184007087351
1031
0.0
1002
}
1002
{
1000
UCS
1010
0.0
1020
0.0
1030
0.0
1010
1.0
1020
0.0
1030
0.0
1010
0.0
1020
1.0
1030
0.0
1002
}
  0
HATCH
  5
7CC
330
1F
100
AcDbEntity
  8
8
100
AcDbHatch
 10
0.0
 20
0.0
 30
0.0
210
0.0
220
0.0
230
1.0
  2
_U
 70
     0
 71
     0
 91
        1
 92
        1
 93
        4
 72
     1
 10
1885.202075200371
 20
799.4631276633357
 11
1885.202075200371
 21
804.3610840339077
 72
     1
 10
1885.202075200371
 20
804.3610840339077
 11
1884.202075200371
 21
804.1847570531992
 72
     1
 10
1884.202075200371
 20
804.1847570531992
 11
1884.202075200371
 21
799.4631276633355
 72
     1
 10
1884.202075200371
 20
799.4631276633355
 11
1885.202075200371
 21
799.4631276633357
 97
        0
 75
     0
 76
     0
 52
45.0
 41
1.471999999999999
 77
     1
 78
     2
 53
45.0
 43
1645.882894552317
 44
437.7974317592601
 45
-1.040861181906597
 46
1.040861181906598
 79
     0
 53
135.0
 43
1645.882894552317
 44
437.7974317592601
 45
-1.040861181906598
 46
-1.040861181906597
 79
     0
 98
        1
 10
1645.882894552317
 20
437.7974317592601
1001
GENIUS_GENOBJ-N-HTC_13
1002
{
1000
OWNER
1000
GEN
1002
}
1001
GENIUS_GENODEF_13
1002
{
1000
HIER
1070
     0
1002
}
1002
{
1000
MANEDIT
1070
     0
1002
}
1002
{
1000
NOSEL
1070
     0
1002
}
1002
{
1000
BEHIND
1070
     0
1002
}
1002
{
1000
OTHER
1070
     0
1002
}
1002
{
1000
REACTOR
1002
}
1001
GENIUS_GENHATCH_13
1002
{
1000
DATA
1040
45.0
1042
2.299999999999999
1000
_U
1070
     1
1011
1884.614309020358
1021
801.4162302077783
1031
0.0
1002
}
1002
{
1000
UCS
1010
0.0
1020
0.0
1030
0.0
1010
1.0
1020
0.0
1030
0.0
1010
0.0
1020
1.0
1030
0.0
1002
}
  0
LINE
  5
7CD
330
1F
100
AcDbEntity
  8
0
100
AcDbLine
 10
1901.678427022704
 20
795.4631276633355
 30
0.0
 11
1915.359299080669
 21
795.4631276633355
 31
0.0
  0
LINE
  5
7CE
330
1F
100
AcDbEntity
  8
0
100
AcDbLine
 10
1901.678427022704
 20
796.9631276633355
 30
0.0
 11
1914.204598542289
 21
796.9631276633355
 31
0.0
  0
ARC
  5
7CF
330
1F
100
AcDbEntity
  8
0
100
AcDbCircle
 10
1915.359299080669
 20
795.9631276633355
 30
0.0
 40
0.5
100
AcDbArc
 50
209.9999999999917
 51
270.0
  0
LINE
  5
7D0
330
1F
100
AcDbEntity
  8
0
100
AcDbLine
 10
1915.359299080669
 20
795.4631276633355
 30
0.0
 11
1917.957306606814
 21
795.9212264862789
 31
0.0
  0
LINE
  5
7D1
330
1F
100
AcDbEntity
  8
0
100
AcDbLine
 10
1914.926286378777
 20
795.7131276633355
 30
0.0
 11
1914.204598542289
 21
796.9631276633355
 31
0.0
  0
LINE
  5
7D2
330
1F
100
AcDbEntity
  8
0
100
AcDbLine
 10
1901.678427022704
 20
796.9631276633355
 30
0.0
 11
1901.678427022704
 21
793.8631276633356
 31
0.0
  0
LINE
  5
7D3
330
1F
100
AcDbEntity
  8
0
100
AcDbLine
 10
1908.850784002636
 20
795.4631276633355
 30
0.0
 11
1901.678427022704
 21
795.4631276633355
 31
0.0
  0
LINE
  5
7D4
330
1F
100
AcDbEntity
  8
0
100
AcDbLine
 10
1880.052075200371
 20
793.8631276633356
 30
0.0
 11
1880.052075200371
 21
778.3512776270683
 31
0.0
  0
LINE
  5
7D5
330
1F
100
AcDbEntity
  8
0
100
AcDbLine
 10
1880.052075200371
 20
778.3512776270683
 30
0.0
 11
1881.123871970096
 21
775.413176052413
 31
0.0
  0
LINE
  5
7D6
330
1F
100
AcDbEntity
  8
0
100
AcDbLine
 10
1881.052075200371
 20
793.8631276633356
 30
0.0
 11
1880.052075200371
 21
793.8631276633356
 31
0.0
  0
LINE
  5
7D7
330
1F
100
AcDbEntity
  8
0
100
AcDbLine
 10
1881.052074904053
 20
796.9631270985956
 30
0.0
 11
1881.052074904053
 21
793.8631270985958
 31
0.0
  0
LINE
  5
7D8
330
1F
100
AcDbEntity
  8
AM_7
  6
DASHDOT
100
AcDbLine
 10
1743.66537153146
 20
1022.163327177393
 30
0.0
 11
1764.465359324429
 21
1022.163327177394
 31
0.0
  0
LINE
  5
7D9
330
1F
100
AcDbEntity
  8
AM_7
  6
DASHDOT
100
AcDbLine
 10
1754.065365427945
 20
1011.763325651515
 30
0.0
 11
1754.065365427944
 21
1032.563328703272
 31
0.0
  0
LINE
  5
7DA
330
1F
100
AcDbEntity
  8
AM_7
  6
DASHDOT
 48
0.2925003051757812
100
AcDbLine
 10
1748.215359324428
 20
1040.163334806788
 30
0.0
 11
1759.915371531459
 21
1040.163334806788
 31
0.0
  0
LINE
  5
7DB
330
1F
100
AcDbEntity
  8
AM_7
  6
DASHDOT
 48
0.2925003051757812
100
AcDbLine
 10
1754.065365427944
 20
1034.313328703272
 30
0.0
 11
1754.065365427944
 21
1046.013340910304
 31
0.0
  0
ARC
  5
7DC
330
1F
100
AcDbEntity
  8
AM_3
100
AcDbCircle
 10
1754.065365427944
 20
1022.163334806788
 30
0.0
 40
7.999999999999999
100
AcDbArc
 50
124.2288655587314
 51
55.77113967758019
  0
LINE
  5
7DD
330
1F
100
AcDbEntity
  8
AM_3
 48
0.2846405029296875
100
AcDbLine
 10
1749.565365427944
 20
1040.163334806788
 30
0.0
 11
1749.565365427944
 21
1028.7777146896
 31
0.0
  0
LINE
  5
7DE
330
1F
100
AcDbEntity
  8
AM_3
 48
0.2846405029296875
100
AcDbLine
 10
1758.565365427944
 20
1028.7777146896
 30
0.0
 11
1758.565365427944
 21
1040.163334806788
 31
0.0
  0
ARC
  5
7DF
330
1F
100
AcDbEntity
  8
AM_3
100
AcDbCircle
 10
1754.065365427944
 20
1040.163334806788
 30
0.0
 40
4.499999999999999
100
AcDbArc
 50
0.0000050089569452
 51
180.0
  0
LINE
  5
7E0
330
1F
100
AcDbEntity
  8
AM_7
  6
DASHDOT
100
AcDbLine
 10
2039.065130691577
 20
1022.163327177415
 30
0.0
 11
2018.265142898608
 21
1022.163327177413
 31
0.0
  0
LINE
  5
7E1
330
1F
100
AcDbEntity
  8
AM_7
  6
DASHDOT
100
AcDbLine
 10
2028.665136795094
 20
1011.763325651535
 30
0.0
 11
2028.665136795091
 21
1032.563328703293
 31
0.0
  0
LINE
  5
7E2
330
1F
100
AcDbEntity
  8
AM_7
  6
DASHDOT
 48
0.2925003051757812
100
AcDbLine
 10
2034.515142898606
 20
1040.163334806809
 30
0.0
 11
2022.815130691575
 21
1040.163334806808
 31
0.0
  0
LINE
  5
7E3
330
1F
100
AcDbEntity
  8
AM_7
  6
DASHDOT
 48
0.2925003051757812
100
AcDbLine
 10
2028.665136795091
 20
1034.313328703293
 30
0.0
 11
2028.66513679509
 21
1046.013340910324
 31
0.0
  0
ARC
  5
7E4
330
1F
100
AcDbEntity
  8
AM_3
100
AcDbCircle
 10
2028.665136795093
 20
1022.163334806809
 30
0.0
 40
8.0
100
AcDbArc
 50
124.2288603224235
 51
55.77113444128304
  0
LINE
  5
7E5
330
1F
100
AcDbEntity
  8
AM_3
 48
0.2846405029296875
100
AcDbLine
 10
2033.165136795091
 20
1040.163334806809
 30
0.0
 11
2033.165136795092
 21
1028.777714689622
 31
0.0
  0
LINE
  5
7E6
330
1F
100
AcDbEntity
  8
AM_3
 48
0.2846405029296875
100
AcDbLine
 10
2024.165136795092
 20
1028.77771468962
 30
0.0
 11
2024.16513679509
 21
1040.163334806808
 31
0.0
  0
ARC
  5
7E7
330
1F
100
AcDbEntity
  8
AM_3
100
AcDbCircle
 10
2028.66513679509
 20
1040.163334806809
 30
0.0
 40
4.5
100
AcDbArc
 50
0.0000000000065138
 51
179.9999949910495
  0
LINE
  5
7E8
102
{ACAD_REACTORS
330
7F8
102
}
330
1F
100
AcDbEntity
  8
AM_7
  6
DASHDOT
100
AcDbLine
 10
2491.159725213653
 20
1149.631937783695
 30
0.0
 11
2470.359737420684
 21
1149.631937783695
 31
0.0
  0
LINE
  5
7E9
330
1F
100
AcDbEntity
  8
AM_7
  6
DASHDOT
100
AcDbLine
 10
2480.759731317169
 20
1139.231928628421
 30
0.0
 11
2480.759731317169
 21
1160.031931680179
 31
0.0
  0
LINE
  5
7EA
330
1F
100
AcDbEntity
  8
AM_7
  6
DASHDOT
 48
0.2925003051757812
100
AcDbLine
 10
2486.609737420685
 20
1167.631937783695
 30
0.0
 11
2474.909725213653
 21
1167.631937783695
 31
0.0
  0
LINE
  5
7EB
102
{ACAD_REACTORS
330
7F8
102
}
330
1F
100
AcDbEntity
  8
AM_7
  6
DASHDOT
 48
0.2925003051757812
100
AcDbLine
 10
2480.759731317169
 20
1161.781931680179
 30
0.0
 11
2480.759731317169
 21
1173.48194388721
 31
0.0
  0
ARC
  5
7EC
102
{ACAD_REACTORS
330
7F5
102
}
330
1F
100
AcDbEntity
  8
0
 62
     7
100
AcDbCircle
 10
2480.759731317169
 20
1149.631937783695
 30
0.0
 40
8.0
100
AcDbArc
 50
124.2288603223868
 51
55.7711344412683
  0
LINE
  5
7ED
330
1F
100
AcDbEntity
  8
0
 62
     7
 48
0.2846405029296875
100
AcDbLine
 10
2485.259731317169
 20
1167.631937783695
 30
0.0
 11
2485.259731317169
 21
1156.246317666507
 31
0.0
  0
LINE
  5
7EE
330
1F
100
AcDbEntity
  8
0
 62
     7
 48
0.2846405029296875
100
AcDbLine
 10
2476.259731317169
 20
1156.246317666507
 30
0.0
 11
2476.259731317169
 21
1167.631937783695
 31
0.0
  0
ARC
  5
7EF
102
{ACAD_REACTORS
330
7F2
102
}
330
1F
100
AcDbEntity
  8
0
 62
     7
100
AcDbCircle
 10
2480.759731317169
 20
1167.631937783695
 30
0.0
 40
4.5
100
AcDbArc
 50
0.0
 51
179.9999949910495
  0
DIMENSION
  5
7F0
102
{ACAD_XDICTIONARY
360
7F1
102
}
102
{ACAD_REACTORS
330
7F2
102
}
330
1F
100
AcDbEntity
  8
AM_5
100
AcDbDimension
  2
*D24
 10
2480.759731317169
 20
1167.631937783695
 30
0.0
 11
2500.972917943402
 21
1178.986313790253
 31
0.0
 70
   164
 71
     5
 42
4.500000000002728
 73
     0
 74
     0
 75
     0
  3
AM_DIN$4
100
AcDbRadialDimension
 15
2483.558486728019
 25
1171.1557096478
 35
0.0
 40
0.0
1001
ACAD
1000
DSTYLE
1002
{
1070
    40
1040
2.0
1002
}
  0
DIMENSION
  5
7F3
102
{ACAD_XDICTIONARY
360
7F4
102
}
102
{ACAD_REACTORS
330
7F5
102
}
330
1F
100
AcDbEntity
  8
AM_5
100
AcDbDimension
  2
*D25
 10
2480.759731317169
 20
1149.631937783695
 30
0.0
 11
2504.230933111425
 21
1141.573781352125
 31
0.0
 70
   164
 71
     5
 42
8.000000000001818
 73
     0
 74
     0
 75
     0
  3
AM_DIN$4
100
AcDbRadialDimension
 15
2487.928745441722
 25
1146.081552384617
 35
0.0
 40
0.0
1001
ACAD
1000
DSTYLE
1002
{
1070
    40
1040
2.0
1002
}
  0
DIMENSION
  5
7F6
102
{ACAD_XDICTIONARY
360
7F7
102
}
102
{ACAD_REACTORS
330
7F8
102
}
330
1F
100
AcDbEntity
  8
AM_5
100
AcDbDimension
  2
*D26
 10
2456.759731317167
 20
1167.631937783695
 30
0.0
 11
2450.259731317167
 21
1158.631937783695
 31
0.0
 70
    32
 71
     5
 42
18.0
 73
     0
 74
     0
 75
     0
  3
AM_DIN$0
100
AcDbAlignedDimension
 13
2480.759731317169
 23
1149.631937783695
 33
0.0
 14
2480.759731317169
 24
1167.631937783695
 34
0.0
 50
90.0
100
AcDbRotatedDimension
1001
ACAD
1000
DSTYLE
1002
{
1070
    40
1040
2.0
1002
}
  0
LINE
  5
7F9
330
1F
100
AcDbEntity
  8
AM_7
  6
DASHDOT
100
AcDbLine
 10
2195.859737420687
 20
1149.631937783695
 30
0.0
 11
2216.659725213656
 21
1149.631937783695
 31
0.0
  0
LINE
  5
7FA
330
1F
100
AcDbEntity
  8
AM_7
  6
DASHDOT
100
AcDbLine
 10
2206.259731317171
 20
1139.231928628421
 30
0.0
 11
2206.259731317171
 21
1160.031931680179
 31
0.0
  0
LINE
  5
7FB
330
1F
100
AcDbEntity
  8
AM_7
  6
DASHDOT
 48
0.2925003051757812
100
AcDbLine
 10
2200.409725213656
 20
1167.631937783695
 30
0.0
 11
2212.109737420687
 21
1167.631937783695
 31
0.0
  0
LINE
  5
7FC
330
1F
100
AcDbEntity
  8
AM_7
  6
DASHDOT
 48
0.2925003051757812
100
AcDbLine
 10
2206.259731317171
 20
1161.781931680179
 30
0.0
 11
2206.259731317171
 21
1173.48194388721
 31
0.0
  0
ARC
  5
7FD
330
1F
100
AcDbEntity
  8
0
 62
     7
100
AcDbCircle
 10
2206.259731317171
 20
1149.631937783695
 30
0.0
 40
8.000000000000001
100
AcDbArc
 50
124.2288655587317
 51
55.77113967761313
  0
LINE
  5
7FE
330
1F
100
AcDbEntity
  8
0
 62
     7
 48
0.2846405029296875
100
AcDbLine
 10
2201.759731317172
 20
1167.631937783695
 30
0.0
 11
2201.759731317172
 21
1156.246317666507
 31
0.0
  0
LINE
  5
7FF
330
1F
100
AcDbEntity
  8
0
 62
     7
 48
0.2846405029296875
100
AcDbLine
 10
2210.759731317172
 20
1156.246317666507
 30
0.0
 11
2210.759731317172
 21
1167.631937783695
 31
0.0
  0
ARC
  5
800
330
1F
100
AcDbEntity
  8
0
 62
     7
100
AcDbCircle
 10
2206.259731317171
 20
1167.631937783695
 30
0.0
 40
4.5
100
AcDbArc
 50
0.0000050089504314
 51
180.0
  0
LWPOLYLINE
  5
B83
330
1F
100
AcDbEntity
  8
AM_0
100
AcDbPolyline
 90
        4
 70
     1
 43
0.0
 10
1632.833620958816
 20
1251.891896700445
 10
2542.425199495697
 20
1251.891896700445
 10
2542.425199495697
 20
637.4675484479642
 10
1632.833620958816
 20
637.4675484479642
1001
GENIUS_GENREC_14
1002
{
1000
PYDIR
1011
1632.833620958816
1021
637.4675484479642
1031
0.0
1002
}
1002
{
1000
PXDIR
1011
2542.425199495697
1021
1251.891896700445
1031
0.0
1002
}
1002
{
1000
PORI
1011
1632.833620958816
1021
1251.891896700445
1031
0.0
1002
}
1002
{
1000
PINS
1011
1632.833620958816
1021
1251.891896700445
1031
0.0
1002
}
1002
{
1000
PINS2
1011
2542.425199495697
1021
637.4675484479642
1031
0.0
1002
}
1002
{
1000
C
1070
     1
1002
}
1001
GENIUS_GENODEF_13
1002
{
1000
HIER
1070
     0
1002
}
1002
{
1000
MANEDIT
1070
     0
1002
}
1002
{
1000
NOSEL
1070
     0
1002
}
1002
{
1000
BEHIND
1070
     0
1002
}
1002
{
1000
OTHER
1070
     0
1002
}
1002
{
1000
REACTOR
1002
}
1001
GENIUS_GENOBJ-N-REC_13
1002
{
1000
OWNER
1000
GEN
1002
}
  0
TEXT
  5
B84
330
1F
100
AcDbEntity
  8
0
100
AcDbText
 10
2169.211083126299
 20
703.3664316642584
 30
0.0
 40
14.0
  1
10 bar - 70°C
 72
     1
 11
2228.011083126299
 21
701.4997649975916
 31
0.0
100
AcDbText
 73
     1
  0
TEXT
  5
B85
330
1F
100
AcDbEntity
  8
0
100
AcDbText
 10
2161.511083126299
 20
729.9664316642584
 30
0.0
 40
14.0
  1
Typ refix S 33l
 72
     1
 11
2228.011083126299
 21
728.0997649975918
 31
0.0
100
AcDbText
 73
     1
  0
TEXT
  5
B86
330
1F
100
AcDbEntity
  8
0
100
AcDbText
 10
2125.558621006053
 20
756.5664316642584
 30
0.0
 40
14.0
  1
Druckausdehnungsgefäß
 72
     1
 11
2228.011083126299
 21
754.6997649975917
 31
0.0
100
AcDbText
 73
     1
  0
TEXT
  5
B98
330
1F
100
AcDbEntity
  8
AM_6
100
AcDbText
 10
2329.039082226299
 20
727.7147732900945
 30
0.0
 40
8.399999999999998
  1
Reflex Winkelmann GmbH
 41
0.95
 72
     1
 11
2389.687082226299
 21
727.7147732900945
 31
0.0
100
AcDbText
  0
TEXT
  5
B99
330
1F
100
AcDbEntity
  8
AM_6
100
AcDbText
 10
2358.157097654051
 20
715.9298686900943
 30
0.0
 40
8.399999999999998
  1
59227 Ahlen
 72
     1
 11
2389.823997326299
 21
715.9298686900943
 31
0.0
100
AcDbText
  0
LINE
  5
E8A
330
1F
100
AcDbEntity
  8
AM_0
 62
     7
100
AcDbLine
 10
2369.990513876299
 20
756.6738148900945
 30
0.0
 11
2369.990513876299
 21
758.9217151900944
 31
0.0
  0
LINE
  5
E8B
330
1F
100
AcDbEntity
  8
AM_0
 62
     7
100
AcDbLine
 10
2369.990513876299
 20
758.9217151900944
 30
0.0
 11
2368.3055410763
 21
758.9217151900944
 31
0.0
  0
SPLINE
  5
E8C
330
1F
100
AcDbEntity
  8
AM_0
 62
     7
100
AcDbSpline
210
0.0
220
0.0
230
1.0
 70
     8
 71
     3
 72
     8
 73
     4
 74
     0
 42
0.0000000001
 43
0.0000000001
 40
8.739716666666684
 40
8.739716666666684
 40
8.739716666666684
 40
8.739716666666684
 40
9.739716666666687
 40
9.739716666666687
 40
9.739716666666687
 40
9.739716666666687
 10
2368.3055412013
 20
758.9217150400947
 30
0.0
 10
2365.9077812013
 20
758.9217150400947
 30
0.0
 10
2364.8060562013
 20
757.4518487900945
 30
0.0
 10
2364.8060562013
 20
755.1390200400946
 30
0.0
  0
LINE
  5
E8D
330
1F
100
AcDbEntity
  8
AM_0
 62
     7
100
AcDbLine
 10
2364.8060562263
 20
755.1390201400947
 30
0.0
 11
2364.8060562263
 21
747.9024013900945
 31
0.0
  0
LINE
  5
E8E
330
1F
100
AcDbEntity
  8
AM_0
 62
     7
100
AcDbLine
 10
2364.8060562263
 20
747.9024013900945
 30
0.0
 11
2367.1823851763
 21
747.9024013900945
 31
0.0
  0
LINE
  5
E8F
330
1F
100
AcDbEntity
  8
AM_0
 62
     7
100
AcDbLine
 10
2367.1823851763
 20
747.9024013900945
 30
0.0
 11
2367.1823851763
 21
754.9229611900946
 31
0.0
  0
SPLINE
  5
E90
330
1F
100
AcDbEntity
  8
AM_0
 62
     7
100
AcDbSpline
210
0.0
220
0.0
230
1.0
 70
     8
 71
     3
 72
     8
 73
     4
 74
     0
 42
0.0000000001
 43
0.0000000001
 40
46.70306666666665
 40
46.70306666666665
 40
46.70306666666665
 40
46.70306666666665
 40
47.70306666666665
 40
47.70306666666665
 40
47.70306666666665
 40
47.70306666666665
 10
2367.1823849513
 20
754.9229612900945
 30
0.0
 10
2367.1823849513
 20
756.0035725400945
 30
0.0
 10
2367.6359337013
 20
756.6738150400945
 30
0.0
 10
2368.8024287013
 20
756.6738150400945
 30
0.0
  0
LINE
  5
E91
330
1F
100
AcDbEntity
  8
AM_0
 62
     7
100
AcDbLine
 10
2368.8024288263
 20
756.6738148900945
 30
0.0
 11
2369.990513876299
 21
756.6738148900945
 31
0.0
  0
LINE
  5
E92
330
1F
100
AcDbEntity
  8
AM_0
 62
     7
100
AcDbLine
 10
2378.9977822763
 20
752.5036747900945
 30
0.0
 11
2378.9977822763
 21
754.6636270900945
 31
0.0
  0
SPLINE
  5
E93
330
1F
100
AcDbEntity
  8
AM_0
 62
     7
100
AcDbSpline
210
0.0
220
0.0
230
1.0
 70
     8
 71
     3
 72
     8
 73
     4
 74
     0
 42
0.0000000001
 43
0.0000000001
 40
4.799894444444446
 40
4.799894444444446
 40
4.799894444444446
 40
4.799894444444446
 40
5.799894444444446
 40
5.799894444444446
 40
5.799894444444446
 40
5.799894444444446
 10
2378.997782326299
 20
754.6636272900944
 30
0.0
 10
2378.997782326299
 20
757.2144222900946
 30
0.0
 10
2377.7017473263
 20
758.9219372900946
 30
0.0
 10
2375.1525398263
 20
758.9219372900946
 30
0.0
  0
LINE
  5
E94
330
1F
100
AcDbEntity
  8
AM_0
 62
     7
100
AcDbLine
 10
2375.1525399263
 20
758.9219374900945
 30
0.0
 11
2374.699149626299
 21
758.9219374900945
 31
0.0
  0
SPLINE
  5
E95
330
1F
100
AcDbEntity
  8
AM_0
 62
     7
100
AcDbSpline
210
0.0
220
0.0
230
1.0
 70
     8
 71
     3
 72
     8
 73
     4
 74
     0
 42
0.0000000001
 43
0.0000000001
 40
6.807427777777782
 40
6.807427777777782
 40
6.807427777777782
 40
6.807427777777782
 40
7.807427777777782
 40
7.807427777777782
 40
7.807427777777782
 40
7.807427777777782
 10
2374.699149826299
 20
758.9219372900946
 30
0.0
 10
2372.1283523263
 20
758.9219372900946
 30
0.0
 10
2370.7891373263
 20
757.2144222900946
 30
0.0
 10
2370.7891373263
 20
754.6636272900944
 30
0.0
  0
LINE
  5
E96
330
1F
100
AcDbEntity
  8
AM_0
 62
     7
100
AcDbLine
 10
2370.789137426299
 20
754.6636270900945
 30
0.0
 11
2370.789137426299
 21
752.1580761400945
 31
0.0
  0
SPLINE
  5
E97
330
1F
100
AcDbEntity
  8
AM_0
 62
     7
100
AcDbSpline
210
0.0
220
0.0
230
1.0
 70
     8
 71
     3
 72
     8
 73
     4
 74
     0
 42
0.0000000001
 43
0.0000000001
 40
13.37531944444445
 40
13.37531944444445
 40
13.37531944444445
 40
13.37531944444445
 40
14.37531944444445
 40
14.37531944444445
 40
14.37531944444445
 40
14.37531944444445
 10
2370.7891373263
 20
752.1580760400946
 30
0.0
 10
2370.7891373263
 20
749.3281985400946
 30
0.0
 10
2372.366001076299
 20
747.9024647900945
 30
0.0
 10
2374.9796610763
 20
747.9024647900945
 30
0.0
  0
LINE
  5
E98
330
1F
100
AcDbEntity
  8
AM_0
 62
     7
100
AcDbLine
 10
2374.9796611763
 20
747.9024648400944
 30
0.0
 11
2378.4577147763
 21
747.9024648400944
 31
0.0
  0
LINE
  5
E99
330
1F
100
AcDbEntity
  8
AM_0
 62
     7
100
AcDbLine
 10
2378.4577147763
 20
747.9024648400944
 30
0.0
 11
2378.4577147763
 21
750.0195546400947
 31
0.0
  0
LINE
  5
E9A
330
1F
100
AcDbEntity
  8
AM_0
 62
     7
100
AcDbLine
 10
2378.4577147763
 20
750.0195546400947
 30
0.0
 11
2375.1958785263
 21
750.0195546400947
 31
0.0
  0
SPLINE
  5
E9B
330
1F
100
AcDbEntity
  8
AM_0
 62
     7
100
AcDbSpline
210
0.0
220
0.0
230
1.0
 70
     8
 71
     3
 72
     8
 73
     4
 74
     0
 42
0.0000000001
 43
0.0000000001
 40
34.05749722222223
 40
34.05749722222223
 40
34.05749722222223
 40
34.05749722222223
 40
35.05749722222223
 40
35.05749722222223
 40
35.05749722222223
 40
35.05749722222223
 10
2375.1958785763
 20
750.0195547900947
 30
0.0
 10
2373.835073576299
 20
750.0195547900947
 30
0.0
 10
2373.1651485763
 20
750.8618822900944
 30
0.0
 10
2373.1651485763
 20
752.0067872900946
 30
0.0
  0
LINE
  5
E9C
330
1F
100
AcDbEntity
  8
AM_0
 62
     7
100
AcDbLine
 10
2373.165148676299
 20
752.0067874900945
 30
0.0
 11
2373.165148676299
 21
752.5036747900945
 31
0.0
  0
LINE
  5
E9D
330
1F
100
AcDbEntity
  8
AM_0
 62
     7
100
AcDbLine
 10
2373.165148676299
 20
752.5036747900945
 30
0.0
 11
2378.9977822763
 21
752.5036747900945
 31
0.0
  0
LINE
  5
E9E
330
1F
100
AcDbEntity
  8
AM_0
 62
     7
100
AcDbLine
 10
2376.6214537763
 20
754.2750070900946
 30
0.0
 11
2373.165148676299
 21
754.2750070900946
 31
0.0
  0
LINE
  5
E9F
330
1F
100
AcDbEntity
  8
AM_0
 62
     7
100
AcDbLine
 10
2373.165148676299
 20
754.2750070900946
 30
0.0
 11
2373.165148676299
 21
754.8798448900946
 31
0.0
  0
SPLINE
  5
EA0
330
1F
100
AcDbEntity
  8
AM_0
 62
     7
100
AcDbSpline
210
0.0
220
0.0
230
1.0
 70
     8
 71
     3
 72
     8
 73
     4
 74
     0
 42
0.0000000001
 43
0.0000000001
 40
9.024761111111118
 40
9.024761111111118
 40
9.024761111111118
 40
9.024761111111118
 40
10.02476111111112
 40
10.02476111111112
 40
10.02476111111112
 40
10.02476111111112
 10
2373.1651485763
 20
754.8798447900946
 30
0.0
 10
2373.1651485763
 20
755.9604560400945
 30
0.0
 10
2373.575834826299
 20
756.9332760400946
 30
0.0
 10
2374.7207398263
 20
756.9332760400946
 30
0.0
  0
LINE
  5
EA1
330
1F
100
AcDbEntity
  8
AM_0
 62
     7
100
AcDbLine
 10
2374.7207397263
 20
756.9332758900944
 30
0.0
 11
2375.0877696263
 21
756.9332758900944
 31
0.0
  0
SPLINE
  5
EA2
330
1F
100
AcDbEntity
  8
AM_0
 62
     7
100
AcDbSpline
210
0.0
220
0.0
230
1.0
 70
     8
 71
     3
 72
     8
 73
     4
 74
     0
 42
0.0000000001
 43
0.0000000001
 40
10.84038333333334
 40
10.84038333333334
 40
10.84038333333334
 40
10.84038333333334
 40
11.84038333333335
 40
11.84038333333335
 40
11.84038333333335
 40
11.84038333333335
 10
2375.0877698263
 20
756.9332760400946
 30
0.0
 10
2376.2328335763
 20
756.9332760400946
 30
0.0
 10
2376.6214535763
 20
755.9604560400945
 30
0.0
 10
2376.6214535763
 20
754.8798447900946
 30
0.0
  0
LINE
  5
EA3
330
1F
100
AcDbEntity
  8
AM_0
 62
     7
100
AcDbLine
 10
2376.6214537763
 20
754.8798448900946
 30
0.0
 11
2376.6214537763
 21
754.2750070900946
 31
0.0
  0
LINE
  5
EA4
330
1F
100
AcDbEntity
  8
AM_0
 62
     7
100
AcDbLine
 10
2385.4236013763
 20
761.0386623400946
 30
0.0
 11
2385.4236013763
 21
763.2419532400946
 31
0.0
  0
LINE
  5
EA5
330
1F
100
AcDbEntity
  8
AM_0
 62
     7
100
AcDbLine
 10
2385.4236013763
 20
763.2419532400946
 30
0.0
 11
2383.8467374763
 21
763.2419532400946
 31
0.0
  0
SPLINE
  5
EA6
330
1F
100
AcDbEntity
  8
AM_0
 62
     7
100
AcDbSpline
210
0.0
220
0.0
230
1.0
 70
     8
 71
     3
 72
     8
 73
     4
 74
     0
 42
0.0000000001
 43
0.0000000001
 40
8.400344444444428
 40
8.400344444444428
 40
8.400344444444428
 40
8.400344444444428
 40
9.400344444444428
 40
9.400344444444428
 40
9.400344444444428
 40
9.400344444444428
 10
2383.8467375763
 20
763.2419534150946
 30
0.0
 10
2382.2481250763
 20
763.2419534150946
 30
0.0
 10
2380.9951113263
 20
762.4428059150947
 30
0.0
 10
2380.9951113263
 20
760.1314059150946
 30
0.0
  0
LINE
  5
EA7
330
1F
100
AcDbEntity
  8
AM_0
 62
     7
100
AcDbLine
 10
2380.9951113263
 20
760.1314060900946
 30
0.0
 11
2380.9951113263
 21
758.9217309400945
 31
0.0
  0
LINE
  5
EA8
330
1F
100
AcDbEntity
  8
AM_0
 62
     7
100
AcDbLine
 10
2380.9951113263
 20
758.9217309400945
 30
0.0
 11
2379.4831761263
 21
758.9217309400945
 31
0.0
  0
LINE
  5
EA9
330
1F
100
AcDbEntity
  8
AM_0
 62
     7
100
AcDbLine
 10
2379.4831761263
 20
758.9217309400945
 30
0.0
 11
2379.4831761263
 21
756.8251197400946
 31
0.0
  0
LINE
  5
EAA
330
1F
100
AcDbEntity
  8
AM_0
 62
     7
100
AcDbLine
 10
2379.4831761263
 20
756.8251197400946
 30
0.0
 11
2380.9951113263
 21
756.8251197400946
 31
0.0
  0
LINE
  5
EAB
330
1F
100
AcDbEntity
  8
AM_0
 62
     7
100
AcDbLine
 10
2380.9951113263
 20
756.8251197400946
 30
0.0
 11
2380.9951113263
 21
747.9025759900945
 31
0.0
  0
LINE
  5
EAC
330
1F
100
AcDbEntity
  8
AM_0
 62
     7
100
AcDbLine
 10
2380.9951113263
 20
747.9025759900945
 30
0.0
 11
2383.3714402763
 21
747.9025759900945
 31
0.0
  0
LINE
  5
EAD
330
1F
100
AcDbEntity
  8
AM_0
 62
     7
100
AcDbLine
 10
2383.3714402763
 20
747.9025759900945
 30
0.0
 11
2383.3714402763
 21
756.8251197400946
 31
0.0
  0
LINE
  5
EAE
330
1F
100
AcDbEntity
  8
AM_0
 62
     7
100
AcDbLine
 10
2383.3714402763
 20
756.8251197400946
 30
0.0
 11
2385.2075424263
 21
756.8251197400946
 31
0.0
  0
LINE
  5
EAF
330
1F
100
AcDbEntity
  8
AM_0
 62
     7
100
AcDbLine
 10
2385.2075424263
 20
756.8251197400946
 30
0.0
 11
2385.2075424263
 21
758.9217309400945
 31
0.0
  0
LINE
  5
EB0
330
1F
100
AcDbEntity
  8
AM_0
 62
     7
100
AcDbLine
 10
2385.2075424263
 20
758.9217309400945
 30
0.0
 11
2383.3714402763
 21
758.9217309400945
 31
0.0
  0
LINE
  5
EB1
330
1F
100
AcDbEntity
  8
AM_0
 62
     7
100
AcDbLine
 10
2383.3714402763
 20
758.9217309400945
 30
0.0
 11
2383.3714402763
 21
760.0450456900945
 31
0.0
  0
SPLINE
  5
EB2
330
1F
100
AcDbEntity
  8
AM_0
 62
     7
100
AcDbSpline
210
0.0
220
0.0
230
1.0
 70
     8
 71
     3
 72
     8
 73
     4
 74
     0
 42
0.0000000001
 43
0.0000000001
 40
83.7196861111111
 40
83.7196861111111
 40
83.7196861111111
 40
83.7196861111111
 40
84.7196861111111
 40
84.7196861111111
 40
84.7196861111111
 40
84.7196861111111
 10
2383.3714400763
 20
760.0450459150946
 30
0.0
 10
2383.3714400763
 20
760.8441934150945
 30
0.0
 10
2383.803557576299
 20
761.0386621650946
 30
0.0
 10
2384.3002863263
 20
761.0386621650946
 30
0.0
  0
LINE
  5
EB3
330
1F
100
AcDbEntity
  8
AM_0
 62
     7
100
AcDbLine
 10
2384.3002861763
 20
761.0386623400946
 30
0.0
 11
2385.4236013763
 21
761.0386623400946
 31
0.0
  0
LINE
  5
EB4
330
1F
100
AcDbEntity
  8
AM_0
 62
     7
100
AcDbLine
 10
2389.041545576299
 20
763.2418582900945
 30
0.0
 11
2386.6653754763
 21
763.2418582900945
 31
0.0
  0
LINE
  5
EB5
330
1F
100
AcDbEntity
  8
AM_0
 62
     7
100
AcDbLine
 10
2386.6653754763
 20
763.2418582900945
 30
0.0
 11
2386.6653754763
 21
747.9021633400946
 31
0.0
  0
LINE
  5
EB6
330
1F
100
AcDbEntity
  8
AM_0
 62
     7
100
AcDbLine
 10
2386.6653754763
 20
747.9021633400946
 30
0.0
 11
2389.041545576299
 21
747.9021633400946
 31
0.0
  0
LINE
  5
EB7
330
1F
100
AcDbEntity
  8
AM_0
 62
     7
100
AcDbLine
 10
2389.041545576299
 20
747.9021633400946
 30
0.0
 11
2389.041545576299
 21
763.2418582900945
 31
0.0
  0
LINE
  5
EB8
330
1F
100
AcDbEntity
  8
AM_0
 62
     7
100
AcDbLine
 10
2398.8928560263
 20
752.5035159400946
 30
0.0
 11
2398.8928560263
 21
754.6636270900945
 31
0.0
  0
SPLINE
  5
EB9
330
1F
100
AcDbEntity
  8
AM_0
 62
     7
100
AcDbSpline
210
0.0
220
0.0
230
1.0
 70
     8
 71
     3
 72
     8
 73
     4
 74
     0
 42
0.0000000001
 43
0.0000000001
 40
4.800247222222195
 40
4.800247222222195
 40
4.800247222222195
 40
4.800247222222195
 40
5.800247222222195
 40
5.800247222222195
 40
5.800247222222195
 40
5.800247222222195
 10
2398.8928562013
 20
754.6636272900944
 30
0.0
 10
2398.8928562013
 20
757.2141047900946
 30
0.0
 10
2397.5968212013
 20
758.9217785400945
 30
0.0
 10
2395.0476137013
 20
758.9217785400945
 30
0.0
  0
LINE
  5
EBA
330
1F
100
AcDbEntity
  8
AM_0
 62
     7
100
AcDbLine
 10
2395.0476136763
 20
758.9217786400946
 30
0.0
 11
2394.593906126299
 21
758.9217786400946
 31
0.0
  0
SPLINE
  5
EBB
330
1F
100
AcDbEntity
  8
AM_0
 62
     7
100
AcDbSpline
210
0.0
220
0.0
230
1.0
 70
     8
 71
     3
 72
     8
 73
     4
 74
     0
 42
0.0000000001
 43
0.0000000001
 40
6.808486111111078
 40
6.808486111111078
 40
6.808486111111078
 40
6.808486111111078
 40
7.808486111111077
 40
7.808486111111077
 40
7.808486111111077
 40
7.808486111111077
 10
2394.5939062013
 20
758.9217785400945
 30
0.0
 10
2392.0234262013
 20
758.9217785400945
 30
0.0
 10
2390.6840524513
 20
757.2141047900946
 30
0.0
 10
2390.6840524513
 20
754.6636272900944
 30
0.0
  0
LINE
  5
EBC
330
1F
100
AcDbEntity
  8
AM_0
 62
     7
100
AcDbLine
 10
2390.684052326299
 20
754.6636270900945
 30
0.0
 11
2390.684052326299
 21
752.1579172900946
 31
0.0
  0
SPLINE
  5
EBD
330
1F
100
AcDbEntity
  8
AM_0
 62
     7
100
AcDbSpline
210
0.0
220
0.0
230
1.0
 70
     8
 71
     3
 72
     8
 73
     4
 74
     0
 42
0.0000000001
 43
0.0000000001
 40
13.37673055555552
 40
13.37673055555552
 40
13.37673055555552
 40
13.37673055555552
 40
14.37673055555552
 40
14.37673055555552
 40
14.37673055555552
 40
14.37673055555552
 10
2390.6840524513
 20
752.1579172900946
 30
0.0
 10
2390.6840524513
 20
749.3280397900945
 30
0.0
 10
2392.2612337013
 20
747.9024647900945
 30
0.0
 10
2394.8747349513
 20
747.9024647900945
 30
0.0
  0
LINE
  5
EBE
330
1F
100
AcDbEntity
  8
AM_0
 62
     7
100
AcDbLine
 10
2394.8747349263
 20
747.9024648400944
 30
0.0
 11
2398.3527885263
 21
747.9024648400944
 31
0.0
  0
LINE
  5
EBF
330
1F
100
AcDbEntity
  8
AM_0
 62
     7
100
AcDbLine
 10
2398.3527885263
 20
747.9024648400944
 30
0.0
 11
2398.3527885263
 21
750.0195546400947
 31
0.0
  0
LINE
  5
EC0
330
1F
100
AcDbEntity
  8
AM_0
 62
     7
100
AcDbLine
 10
2398.3527885263
 20
750.0195546400947
 30
0.0
 11
2395.0909522763
 21
750.0195546400947
 31
0.0
  0
SPLINE
  5
EC1
330
1F
100
AcDbEntity
  8
AM_0
 62
     7
100
AcDbSpline
210
0.0
220
0.0
230
1.0
 70
     8
 71
     3
 72
     8
 73
     4
 74
     0
 42
0.0000000001
 43
0.0000000001
 40
34.05890833333331
 40
34.05890833333331
 40
34.05890833333331
 40
34.05890833333331
 40
35.05890833333331
 40
35.05890833333331
 40
35.05890833333331
 40
35.05890833333331
 10
2395.0909524513
 20
750.0195547900947
 30
0.0
 10
2393.7301474513
 20
750.0195547900947
 30
0.0
 10
2393.060381201299
 20
750.8617235400946
 30
0.0
 10
2393.060381201299
 20
752.0066285400945
 30
0.0
  0
LINE
  5
EC2
330
1F
100
AcDbEntity
  8
AM_0
 62
     7
100
AcDbLine
 10
2393.0603812763
 20
752.0066286400946
 30
0.0
 11
2393.0603812763
 21
752.5035159400946
 31
0.0
  0
LINE
  5
EC3
330
1F
100
AcDbEntity
  8
AM_0
 62
     7
100
AcDbLine
 10
2393.0603812763
 20
752.5035159400946
 30
0.0
 11
2398.8928560263
 21
752.5035159400946
 31
0.0
  0
LINE
  5
EC4
330
1F
100
AcDbEntity
  8
AM_0
 62
     7
100
AcDbLine
 10
2396.5165275263
 20
754.2748486900947
 30
0.0
 11
2393.0603812763
 21
754.2748486900947
 31
0.0
  0
LINE
  5
EC5
330
1F
100
AcDbEntity
  8
AM_0
 62
     7
100
AcDbLine
 10
2393.0603812763
 20
754.2748486900947
 30
0.0
 11
2393.0603812763
 21
754.8798448900946
 31
0.0
  0
SPLINE
  5
EC6
330
1F
100
AcDbEntity
  8
AM_0
 62
     7
100
AcDbSpline
210
0.0
220
0.0
230
1.0
 70
     8
 71
     3
 72
     8
 73
     4
 74
     0
 42
0.0000000001
 43
0.0000000001
 40
9.024761111111132
 40
9.024761111111132
 40
9.024761111111132
 40
9.024761111111132
 40
10.02476111111113
 40
10.02476111111113
 40
10.02476111111113
 40
10.02476111111113
 10
2393.060381201299
 20
754.8798447900946
 30
0.0
 10
2393.060381201299
 20
755.9604560400945
 30
0.0
 10
2393.470908701299
 20
756.9331172900946
 30
0.0
 10
2394.615654951299
 20
756.9331172900946
 30
0.0
  0
LINE
  5
EC7
330
1F
100
AcDbEntity
  8
AM_0
 62
     7
100
AcDbLine
 10
2394.615655076299
 20
756.9331174900945
 30
0.0
 11
2394.9828438263
 21
756.9331174900945
 31
0.0
  0
SPLINE
  5
EC8
330
1F
100
AcDbEntity
  8
AM_0
 62
     7
100
AcDbSpline
210
0.0
220
0.0
230
1.0
 70
     8
 71
     3
 72
     8
 73
     4
 74
     0
 42
0.0000000001
 43
0.0000000001
 40
10.84073611111112
 40
10.84073611111112
 40
10.84073611111112
 40
10.84073611111112
 40
11.84073611111112
 40
11.84073611111112
 40
11.84073611111112
 40
11.84073611111112
 10
2394.9828437013
 20
756.9331172900946
 30
0.0
 10
2396.1277487013
 20
756.9331172900946
 30
0.0
 10
2396.5165274513
 20
755.9604560400945
 30
0.0
 10
2396.5165274513
 20
754.8798447900946
 30
0.0
  0
LINE
  5
EC9
330
1F
100
AcDbEntity
  8
AM_0
 62
     7
100
AcDbLine
 10
2396.5165275263
 20
754.8798448900946
 30
0.0
 11
2396.5165275263
 21
754.2748486900947
 31
0.0
  0
SPLINE
  5
ECA
330
1F
100
AcDbEntity
  8
AM_0
 62
     7
100
AcDbSpline
210
0.0
220
0.0
230
1.0
 70
     8
 71
     3
 72
     8
 73
     4
 74
     0
 42
0.0000000001
 43
0.0000000001
 40
0.0
 40
0.0
 40
0.0
 40
0.0
 40
1.0
 40
1.0
 40
1.0
 40
1.0
 10
2406.7708249513
 20
753.4309811650945
 30
0.0
 10
2407.7418987013
 20
754.1667874150945
 30
0.0
 10
2408.24272000284
 20
755.3537611700124
 30
0.0
 10
2408.2425962013
 20
756.9120511650945
 30
0.0
  0
LINE
  5
ECB
330
1F
100
AcDbEntity
  8
AM_0
 62
     7
100
AcDbLine
 10
2408.242596026299
 20
756.9120511900948
 30
0.0
 11
2408.2424376263
 21
758.9102374900946
 31
0.0
  0
LINE
  5
ECC
330
1F
100
AcDbEntity
  8
AM_0
 62
     7
100
AcDbLine
 10
2408.2424376263
 20
758.9102374900946
 30
0.0
 11
2405.8565835263
 21
758.9102374900946
 31
0.0
  0
LINE
  5
ECD
330
1F
100
AcDbEntity
  8
AM_0
 62
     7
100
AcDbLine
 10
2405.8565835263
 20
758.9102374900946
 30
0.0
 11
2405.8565835263
 21
756.6950400400945
 31
0.0
  0
SPLINE
  5
ECE
330
1F
100
AcDbEntity
  8
AM_0
 62
     7
100
AcDbSpline
210
0.0
220
0.0
230
1.0
 70
     8
 71
     3
 72
     8
 73
     4
 74
     0
 42
0.0000000001
 43
0.0000000001
 40
15.66497223623581
 40
15.66497223623581
 40
15.66497223623581
 40
15.66497223623581
 40
16.66497223623581
 40
16.66497223623581
 40
16.66497223623581
 40
16.66497223623581
 10
2405.8565837013
 20
756.6950399150947
 30
0.0
 10
2405.8565837013
 20
755.6096661650946
 30
0.0
 10
2405.4444687013
 20
754.6420849150946
 30
0.0
 10
2404.2948012013
 20
754.6420849150946
 30
0.0
  0
LINE
  5
ECF
330
1F
100
AcDbEntity
  8
AM_0
 62
     7
100
AcDbLine
 10
2404.2948013763
 20
754.6420851400945
 30
0.0
 11
2403.926025026299
 21
754.6420851400945
 31
0.0
  0
SPLINE
  5
ED0
330
1F
100
AcDbEntity
  8
AM_0
 62
     7
100
AcDbSpline
210
0.0
220
0.0
230
1.0
 70
     8
 71
     3
 72
     8
 73
     4
 74
     0
 42
0.0000000001
 43
0.0000000001
 40
17.48447501401361
 40
17.48447501401361
 40
17.48447501401361
 40
17.48447501401361
 40
18.48447501401361
 40
18.48447501401361
 40
18.48447501401361
 40
18.48447501401361
 10
2403.926024951299
 20
754.6420849150946
 30
0.0
 10
2402.7763574513
 20
754.6420849150946
 30
0.0
 10
2402.385991201299
 20
755.6096661650946
 30
0.0
 10
2402.385991201299
 20
756.6950399150947
 30
0.0
  0
LINE
  5
ED1
330
1F
100
AcDbEntity
  8
AM_0
 62
     7
100
AcDbLine
 10
2402.385991376299
 20
756.6950400400945
 30
0.0
 11
2402.385991376299
 21
758.9102374900946
 31
0.0
  0
LINE
  5
ED2
330
1F
100
AcDbEntity
  8
AM_0
 62
     7
100
AcDbLine
 10
2402.385991376299
 20
758.9102374900946
 30
0.0
 11
2399.999820026299
 21
758.9102374900946
 31
0.0
  0
LINE
  5
ED3
330
1F
100
AcDbEntity
  8
AM_0
 62
     7
100
AcDbLine
 10
2399.999820026299
 20
758.9102374900946
 30
0.0
 11
2399.999820026299
 21
756.9120511900948
 31
0.0
  0
SPLINE
  5
ED4
330
1F
100
AcDbEntity
  8
AM_0
 62
     7
100
AcDbSpline
210
0.0
220
0.0
230
1.0
 70
     8
 71
     3
 72
     8
 73
     4
 74
     0
 42
0.0000000001
 43
0.0000000001
 40
33.1501527917914
 40
33.1501527917914
 40
33.1501527917914
 40
33.1501527917914
 40
34.1501527917914
 40
34.1501527917914
 40
34.1501527917914
 40
34.1501527917914
 10
2399.9998199513
 20
756.9120511650945
 30
0.0
 10
2399.9998199513
 20
755.3172486650945
 30
0.0
 10
2400.5049624513
 20
754.1059861650945
 30
0.0
 10
2401.5034999513
 20
753.3776411650945
 30
0.0
  0
SPLINE
  5
ED5
330
1F
100
AcDbEntity
  8
AM_0
 62
     7
100
AcDbSpline
210
0.0
220
0.0
230
1.0
 70
     8
 71
     3
 72
     8
 73
     4
 74
     0
 42
0.0000000001
 43
0.0000000001
 40
34.1501527917914
 40
34.1501527917914
 40
34.1501527917914
 40
34.1501527917914
 40
35.1501527917914
 40
35.1501527917914
 40
35.1501527917914
 40
35.1501527917914
 10
2401.5034999513
 20
753.3776411650945
 30
0.0
 10
2400.5324262013
 20
752.6421524150945
 30
0.0
 10
2400.031472859892
 20
751.3919961440775
 30
0.0
 10
2400.0317287013
 20
749.8348174150946
 30
0.0
  0
LINE
  5
ED6
330
1F
100
AcDbEntity
  8
AM_0
 62
     7
100
AcDbLine
 10
2400.031728626299
 20
749.8348174900947
 30
0.0
 11
2400.0320463263
 21
747.9023536900946
 31
0.0
  0
LINE
  5
ED7
330
1F
100
AcDbEntity
  8
AM_0
 62
     7
100
AcDbLine
 10
2400.0320463263
 20
747.9023536900946
 30
0.0
 11
2402.4177411263
 21
747.9023536900946
 31
0.0
  0
LINE
  5
ED8
330
1F
100
AcDbEntity
  8
AM_0
 62
     7
100
AcDbLine
 10
2402.4177411263
 20
747.9023536900946
 30
0.0
 11
2402.4177411263
 21
750.0518286400946
 31
0.0
  0
SPLINE
  5
ED9
330
1F
100
AcDbEntity
  8
AM_0
 62
     7
100
AcDbSpline
210
0.0
220
0.0
230
1.0
 70
     8
 71
     3
 72
     8
 73
     4
 74
     0
 42
0.0000000001
 43
0.0000000001
 40
49.52267229419653
 40
49.52267229419653
 40
49.52267229419653
 40
49.52267229419653
 40
50.52267229419655
 40
50.52267229419655
 40
50.52267229419655
 40
50.52267229419655
 10
2402.417741201299
 20
750.0518286650946
 30
0.0
 10
2402.417741201299
 20
751.1364086650945
 30
0.0
 10
2402.830014951299
 20
752.1663786650946
 30
0.0
 10
2403.9795237013
 20
752.1663786650946
 30
0.0
  0
LINE
  5
EDA
330
1F
100
AcDbEntity
  8
AM_0
 62
     7
100
AcDbLine
 10
2403.979523726299
 20
752.1663786400946
 30
0.0
 11
2404.348300076299
 21
752.1663786400946
 31
0.0
  0
SPLINE
  5
EDB
330
1F
100
AcDbEntity
  8
AM_0
 62
     7
100
AcDbSpline
210
0.0
220
0.0
230
1.0
 70
     8
 71
     3
 72
     8
 73
     4
 74
     0
 42
0.0000000001
 43
0.0000000001
 40
51.34217507197432
 40
51.34217507197432
 40
51.34217507197432
 40
51.34217507197432
 40
52.34217507197431
 40
52.34217507197431
 40
52.34217507197431
 40
52.34217507197431
 10
2404.348299951299
 20
752.1663786650946
 30
0.0
 10
2405.497967451299
 20
752.1663786650946
 30
0.0
 10
2405.8883337013
 20
751.1364086650945
 30
0.0
 10
2405.8883337013
 20
750.0518286650946
 30
0.0
  0
LINE
  5
EDC
330
1F
100
AcDbEntity
  8
AM_0
 62
     7
100
AcDbLine
 10
2405.888333726299
 20
750.0518286400946
 30
0.0
 11
2405.888333726299
 21
747.9023536900946
 31
0.0
  0
LINE
  5
EDD
330
1F
100
AcDbEntity
  8
AM_0
 62
     7
100
AcDbLine
 10
2405.888333726299
 20
747.9023536900946
 30
0.0
 11
2408.2743462263
 21
747.9023536900946
 31
0.0
  0
LINE
  5
EDE
330
1F
100
AcDbEntity
  8
AM_0
 62
     7
100
AcDbLine
 10
2408.2743462263
 20
747.9023536900946
 30
0.0
 11
2408.2743462263
 21
749.8348174900947
 31
0.0
  0
SPLINE
  5
EDF
330
1F
100
AcDbEntity
  8
AM_0
 62
     7
100
AcDbSpline
210
0.0
220
0.0
230
1.0
 70
     8
 71
     3
 72
     8
 73
     4
 74
     0
 42
0.0000000001
 43
0.0000000001
 40
66.71540007197433
 40
66.71540007197433
 40
66.71540007197433
 40
66.71540007197433
 40
67.71540007197433
 40
67.71540007197433
 40
67.71540007197433
 40
67.71540007197433
 10
2408.2743462013
 20
749.8348174150946
 30
0.0
 10
2408.2743462013
 20
751.4285086650946
 30
0.0
 10
2407.7693624513
 20
752.7026361650945
 30
0.0
 10
2406.7708249513
 20
753.4309811650945
 30
0.0
  0
ARC
  5
EE0
330
1F
100
AcDbEntity
  8
AM_0
 62
     7
100
AcDbCircle
 10
2362.2859653263
 20
746.3115060400947
 30
0.0
 40
2.2499658
100
AcDbArc
 50
180.0000480000022
 51
269.9999520000108
  0
LINE
  5
EE1
330
1F
100
AcDbEntity
  8
AM_0
 62
     7
100
AcDbLine
 10
2362.2859635263
 20
744.0615402400945
 30
0.0
 11
2410.886005826299
 21
744.0615402400945
 31
0.0
  0
ARC
  5
EE2
330
1F
100
AcDbEntity
  8
AM_0
 62
     7
100
AcDbCircle
 10
2410.886101226299
 20
746.3114088400945
 30
0.0
 40
2.2498686
100
AcDbArc
 50
269.9975760000107
 51
0.0024240000023689
  0
LINE
  5
EE3
330
1F
100
AcDbEntity
  8
AM_0
 62
     7
100
AcDbLine
 10
2413.1359698263
 20
746.3115042400946
 30
0.0
 11
2413.1359698263
 21
763.4114191900945
 31
0.0
  0
ARC
  5
EE4
330
1F
100
AcDbEntity
  8
AM_0
 62
     7
100
AcDbCircle
 10
2410.886004026299
 20
763.4114169400945
 30
0.0
 40
2.2499658
100
AcDbArc
 50
0.0000480000022254
 51
89.9999520000108
  0
LINE
  5
EE5
330
1F
100
AcDbEntity
  8
AM_0
 62
     7
100
AcDbLine
 10
2410.886005826299
 20
765.6613827400946
 30
0.0
 11
2362.2859635263
 21
765.6613827400946
 31
0.0
  0
ARC
  5
EE6
330
1F
100
AcDbEntity
  8
AM_0
 62
     7
100
AcDbCircle
 10
2362.2859950263
 20
763.4113872400945
 30
0.0
 40
2.249995499999999
100
AcDbArc
 50
90.00080599999776
 51
179.9991940000022
  0
LINE
  5
EE7
330
1F
100
AcDbEntity
  8
AM_0
 62
     7
100
AcDbLine
 10
2360.035999526299
 20
763.4114191900945
 30
0.0
 11
2360.035999526299
 21
746.3115042400946
 31
0.0
  0
ARC
  5
EE8
330
1F
100
AcDbEntity
  8
AM_0
 62
     7
100
AcDbCircle
 10
2361.071130476299
 20
743.7465973900945
 30
0.0
 40
3.284999099999999
100
AcDbArc
 50
179.9997459999952
 51
270.0002540000047
  0
ARC
  5
EEA
330
1F
100
AcDbEntity
  8
AM_0
 62
     7
100
AcDbCircle
 10
2422.001257376299
 20
743.7464956900945
 30
0.0
 40
3.284897399999999
100
AcDbArc
 50
269.9979729999884
 51
0.0020269999985906
  0
LINE
  5
EEB
330
1F
100
AcDbEntity
  8
AM_0
 62
     7
100
AcDbLine
 10
2425.286154776299
 20
743.7466122400945
 30
0.0
 11
2425.286154776299
 21
765.9763746400946
 31
0.0
  0
ARC
  5
EEC
330
1F
100
AcDbEntity
  8
AM_0
 62
     7
100
AcDbCircle
 10
2422.0011219263
 20
765.9765141400945
 30
0.0
 40
3.285032849999999
100
AcDbArc
 50
359.9975679999994
 51
89.99966300000256
  0
LINE
  5
EED
330
1F
100
AcDbEntity
  8
AM_0
 62
     7
100
AcDbLine
 10
2422.001141276299
 20
769.2615469900946
 30
0.0
 11
2361.0711448763
 21
769.2615469900946
 31
0.0
  0
ARC
  5
EEE
330
1F
100
AcDbEntity
  8
AM_0
 62
     7
100
AcDbCircle
 10
2361.0712659263
 20
765.9764124400945
 30
0.0
 40
3.285134549999999
100
AcDbArc
 50
90.00210900000949
 51
180.0006600000013
  0
LINE
  5
EEF
330
1F
100
AcDbEntity
  8
AM_0
 62
     7
100
AcDbLine
 10
2357.7861313763
 20
765.9763746400946
 30
0.0
 11
2357.7861313763
 21
743.7466122400945
 31
0.0
  0
LINE
  5
EF0
330
1F
100
AcDbEntity
  8
0
100
AcDbLine
 10
2361.071130476299
 20
740.4615982900944
 30
0.0
 11
2422.001141163776
 21
740.4615982921503
 31
0.0
  0
ENDSEC
  0
SECTION
  2
OBJECTS
  0
DICTIONARY
  5
C
330
0
100
AcDbDictionary
281
     1
  3
ACAD_COLOR
350
BE
  3
ACAD_GROUP
350
D
  3
ACAD_LAYOUT
350
1A
  3
ACAD_MATERIAL
350
BD
  3
ACAD_MLINESTYLE
350
17
  3
ACAD_PLOTSETTINGS
350
19
  3
ACAD_PLOTSTYLENAME
350
E
  3
ACAD_TABLESTYLE
350
11A
  3
ACAD_VISUALSTYLE
350
258
  3
AcDbVariableDictionary
350
94
  3
AcmDictionary
350
5B
  3
AMG
350
41
  3
AMGSNAPSETTINGS
350
1B3
  0
DICTIONARY
  5
362
330
2
100
AcDbDictionary
280
     1
281
     1
  3
ACAD_LAYERSTATES
360
363
  0
DICTIONARY
  5
8F
330
1F
100
AcDbDictionary
280
     1
281
     1
  0
DICTIONARY
  5
7F1
330
7F0
100
AcDbDictionary
280
     1
281
     1
  3
ACAD_DIMASSOC
360
7F2
  0
DICTIONARY
  5
7F4
330
7F3
100
AcDbDictionary
280
     1
281
     1
  3
ACAD_DIMASSOC
360
7F5
  0
DICTIONARY
  5
7F7
330
7F6
100
AcDbDictionary
280
     1
281
     1
  3
ACAD_DIMASSOC
360
7F8
  0
DICTIONARY
  5
BE
102
{ACAD_REACTORS
330
C
102
}
330
C
100
AcDbDictionary
281
     1
  0
DICTIONARY
  5
D
102
{ACAD_REACTORS
330
C
102
}
330
C
100
AcDbDictionary
281
     1
  0
DICTIONARY
  5
1A
102
{ACAD_REACTORS
330
C
102
}
330
C
100
AcDbDictionary
281
     1
  3
Layout1
350
1E
  3
Layout2
350
26
  3
Model
350
22
  0
DICTIONARY
  5
BD
102
{ACAD_REACTORS
330
C
102
}
330
C
100
AcDbDictionary
281
     1
  3
ByBlock
350
256
  3
ByLayer
350
255
  3
Global
350
257
  0
DICTIONARY
  5
17
102
{ACAD_REACTORS
330
C
102
}
330
C
100
AcDbDictionary
281
     1
  3
Standard
350
18
  0
DICTIONARY
  5
19
102
{ACAD_REACTORS
330
C
102
}
330
C
100
AcDbDictionary
281
     1
  0
ACDBDICTIONARYWDFLT
  5
E
102
{ACAD_REACTORS
330
C
102
}
330
C
100
AcDbDictionary
281
     1
  3
Normal
350
F
100
AcDbDictionaryWithDefault
340
F
  0
DICTIONARY
  5
11A
102
{ACAD_REACTORS
330
C
102
}
330
C
100
AcDbDictionary
281
     1
  3
Standard
350
11B
  0
DICTIONARY
  5
258
102
{ACAD_REACTORS
330
C
102
}
330
C
100
AcDbDictionary
281
     1
  3
2dWireframe
350
25E
  3
3D Hidden
350
260
  3
3dWireframe
350
25F
  3
Basic
350
25D
  3
Brighten
350
264
  3
ColorChange
350
268
  3
Conceptual
350
261
  3
Dim
350
263
  3
Facepattern
350
267
  3
Flat
350
259
  3
FlatWithEdges
350
25A
  3
Gouraud
350
25B
  3
GouraudWithEdges
350
25C
  3
Linepattern
350
266
  3
Realistic
350
262
  3
Thicken
350
265
  0
DICTIONARY
  5
94
102
{ACAD_REACTORS
330
C
102
}
330
C
100
AcDbDictionary
281
     1
  3
CTABLESTYLE
350
138
  3
DIMASSOC
350
96
  3
INDEXCTL
350
95
  0
DICTIONARY
  5
5B
102
{ACAD_REACTORS
330
C
102
}
330
C
100
AcDbDictionary
281
     1
  3
AcmBOM
350
1B0
  3
AcmStdDictionary
350
61
  3
AMDTSECTSYM_ARROWCOLOR
350
123
  0
DICTIONARY
  5
41
102
{ACAD_REACTORS
330
C
102
}
330
C
100
AcDbDictionary
281
     1
  0
DICTIONARY
  5
1B3
102
{ACAD_REACTORS
330
C
102
}
330
C
100
AcDbDictionary
281
     1
  0
DICTIONARY
  5
363
102
{ACAD_REACTORS
330
362
102
}
330
362
100
AcDbDictionary
281
     1
  0
DIMASSOC
  5
7F2
102
{ACAD_REACTORS
330
7F1
102
}
330
7F1
100
AcDbDimAssoc
330
7F0
 90
        2
 70
     0
 71
     0
  1
AcDbOsnapPointRef
 72
     3
331
7EF
 73
     2
 91
        0
 40
0.0
 10
0.0
 20
0.0
 30
0.0
 75
     0
  0
DIMASSOC
  5
7F5
102
{ACAD_REACTORS
330
7F4
102
}
330
7F4
100
AcDbDimAssoc
330
7F3
 90
        2
 70
     0
 71
     0
  1
AcDbOsnapPointRef
 72
     3
331
7EC
 73
     2
 91
        0
 40
0.0
 10
0.0
 20
0.0
 30
0.0
 75
     0
  0
DIMASSOC
  5
7F8
102
{ACAD_REACTORS
330
7F7
102
}
330
7F7
100
AcDbDimAssoc
330
7F6
 90
        3
 70
     0
 71
     0
  1
AcDbOsnapPointRef
 72
     2
331
7E8
 73
     0
 91
        0
 40
0.0
 10
0.0
 20
0.0
 30
0.0
 75
     0
  1
AcDbOsnapPointRef
 72
     2
331
7EB
 73
     0
 91
        0
 40
0.0
 10
0.0
 20
0.0
 30
0.0
 75
     0
  0
LAYOUT
  5
1E
102
{ACAD_REACTORS
330
1A
102
}
330
1A
100
AcDbPlotSettings
  1

  2

  4

  6

 40
0.0
 41
0.0
 42
0.0
 43
0.0
 44
0.0
 45
0.0
 46
0.0
 47
0.0
 48
0.0
 49
0.0
140
0.0
141
0.0
142
1.0
143
1.0
 70
   688
 72
     0
 73
     0
 74
     5
  7

 75
    16
147
1.0
 76
     0
 77
     2
 78
   300
148
0.0
149
0.0
100
AcDbLayout
  1
Layout1
 70
     1
 71
     1
 10
0.0
 20
0.0
 11
420.0
 21
297.0
 12
0.0
 22
0.0
 32
0.0
 14
1.000000000000000E+20
 24
1.000000000000000E+20
 34
1.000000000000000E+20
 15
-1.000000000000000E+20
 25
-1.000000000000000E+20
 35
-1.000000000000000E+20
146
0.0
 13
0.0
 23
0.0
 33
0.0
 16
1.0
 26
0.0
 36
0.0
 17
0.0
 27
1.0
 37
0.0
 76
     0
330
1B
  0
LAYOUT
  5
26
102
{ACAD_REACTORS
330
1A
102
}
330
1A
100
AcDbPlotSettings
  1

  2

  4

  6

 40
0.0
 41
0.0
 42
0.0
 43
0.0
 44
0.0
 45
0.0
 46
0.0
 47
0.0
 48
0.0
 49
0.0
140
0.0
141
0.0
142
1.0
143
1.0
 70
   688
 72
     0
 73
     0
 74
     5
  7

 75
    16
147
1.0
 76
     0
 77
     2
 78
   300
148
0.0
149
0.0
100
AcDbLayout
  1
Layout2
 70
     1
 71
     2
 10
0.0
 20
0.0
 11
12.0
 21
9.0
 12
0.0
 22
0.0
 32
0.0
 14
0.0
 24
0.0
 34
0.0
 15
0.0
 25
0.0
 35
0.0
146
0.0
 13
0.0
 23
0.0
 33
0.0
 16
1.0
 26
0.0
 36
0.0
 17
0.0
 27
1.0
 37
0.0
 76
     0
330
23
  0
LAYOUT
  5
22
102
{ACAD_REACTORS
330
1A
102
}
330
1A
100
AcDbPlotSettings
  1

  2
none_device
  4
ISO_A4_(210.00_x_297.00_MM)
  6

 40
7.5
 41
20.0
 42
7.5
 43
20.0
 44
210.0
 45
297.0
 46
0.0
 47
0.0
 48
0.0
 49
0.0
140
0.0
141
0.0
142
1.0
143
4.543964237702945
 70
 11952
 72
     1
 73
     1
 74
     0
  7

 75
     0
147
0.2200721545523249
 76
     0
 77
     2
 78
   300
148
-1503.694136699798
149
-635.4440861874971
100
AcDbLayout
  1
Model
 70
     1
 71
     0
 10
0.0
 20
0.0
 11
12.0
 21
9.0
 12
0.0
 22
0.0
 32
0.0
 14
0.0
 24
0.0
 34
0.0
 15
0.0
 25
0.0
 35
0.0
146
0.0
 13
0.0
 23
0.0
 33
0.0
 16
1.0
 26
0.0
 36
0.0
 17
0.0
 27
1.0
 37
0.0
 76
     0
330
1F
331
253
1001
ACAD_PSEXT
1000
Kein
1000
Kein
1000
Nicht anwendbar
1000
Das Layout wird erst geplottet, wenn ein neuer Plotter-Konfigurationsname ausgewählt wird.
1070
     0
  0
MATERIAL
  5
256
102
{ACAD_REACTORS
330
BD
102
}
330
BD
100
AcDbMaterial
  1
ByBlock
  0
MATERIAL
  5
255
102
{ACAD_REACTORS
330
BD
102
}
330
BD
100
AcDbMaterial
  1
ByLayer
  0
MATERIAL
  5
257
102
{ACAD_REACTORS
330
BD
102
}
330
BD
100
AcDbMaterial
  1
Global
  0
MLINESTYLE
  5
18
102
{ACAD_REACTORS
330
17
102
}
330
17
100
AcDbMlineStyle
  2
STANDARD
 70
     0
  3

 62
   256
 51
90.0
 52
90.0
 71
     2
 49
0.5
 62
   256
  6
BYLAYER
 49
-0.5
 62
   256
  6
BYLAYER
  0
ACDBPLACEHOLDER
  5
F
102
{ACAD_REACTORS
330
E
102
}
330
E
  0
TABLESTYLE
  5
11B
102
{ACAD_REACTORS
330
11A
102
}
330
11A
100
AcDbTableStyle
  3
Standard
 70
     0
 71
     0
 40
1.5
 41
1.5
280
     0
281
     0
  7
Standard
140
4.5
170
     2
 62
     0
 63
     7
283
     0
 90
        4
 91
        0
  1

274
    -2
284
     1
 64
     0
275
    -2
285
     1
 65
     0
276
    -2
286
     1
 66
     0
277
    -2
287
     1
 67
     0
278
    -2
288
     1
 68
     0
279
    -2
289
     1
 69
     0
  7
Standard
140
6.0
170
     5
 62
     0
 63
     7
283
     0
 90
        4
 91
        0
  1

274
    -2
284
     1
 64
     0
275
    -2
285
     1
 65
     0
276
    -2
286
     1
 66
     0
277
    -2
287
     1
 67
     0
278
    -2
288
     1
 68
     0
279
    -2
289
     1
 69
     0
  7
Standard
140
4.5
170
     5
 62
     0
 63
     7
283
     0
 90
        4
 91
        0
  1

274
    -2
284
     1
 64
     0
275
    -2
285
     1
 65
     0
276
    -2
286
     1
 66
     0
277
    -2
287
     1
 67
     0
278
    -2
288
     1
 68
     0
279
    -2
289
     1
 69
     0
  0
VISUALSTYLE
  5
25E
102
{ACAD_REACTORS
330
258
102
}
330
258
100
AcDbVisualStyle
  2
2dWireframe
 70
     4
 71
     0
 72
     2
 73
     0
 90
        0
 40
-0.6
 41
-30.0
 62
     5
 63
     7
421
 16777215
 74
     1
 91
        4
 64
     7
 65
   257
 75
     1
175
     1
 42
1.0
 92
        0
 66
   257
 43
1.0
 76
     1
 77
     6
 78
     2
 67
     7
 79
     5
170
     0
171
     0
290
     0
174
     0
 93
        1
 44
0.0
173
     0
291
     0
 45
0.0
  0
VISUALSTYLE
  5
260
102
{ACAD_REACTORS
330
258
102
}
330
258
100
AcDbVisualStyle
  2
3D Hidden
 70
     6
 71
     1
 72
     2
 73
     2
 90
        0
 40
-0.6
 41
-30.0
 62
     5
 63
     7
421
 16777215
 74
     2
 91
        2
 64
     7
 65
   257
 75
     2
175
     1
 42
40.0
 92
        0
 66
   257
 43
1.0
 76
     1
 77
     6
 78
     2
 67
     7
 79
     3
170
     0
171
     0
290
     0
174
     0
 93
        1
 44
0.0
173
     0
291
     0
 45
0.0
  0
VISUALSTYLE
  5
25F
102
{ACAD_REACTORS
330
258
102
}
330
258
100
AcDbVisualStyle
  2
3dWireframe
 70
     5
 71
     0
 72
     2
 73
     0
 90
        0
 40
-0.6
 41
-30.0
 62
     5
 63
     7
421
 16777215
 74
     1
 91
        4
 64
     7
 65
   257
 75
     1
175
     1
 42
1.0
 92
        0
 66
   257
 43
1.0
 76
     1
 77
     6
 78
     2
 67
     7
 79
     5
170
     0
171
     0
290
     0
174
     0
 93
        1
 44
0.0
173
     0
291
     0
 45
0.0
  0
VISUALSTYLE
  5
25D
102
{ACAD_REACTORS
330
258
102
}
330
258
100
AcDbVisualStyle
  2
Basic
 70
     7
 71
     1
 72
     0
 73
     1
 90
        0
 40
-0.6
 41
-30.0
 62
     5
 63
     7
421
 16777215
 74
     0
 91
        4
 64
     7
 65
   257
 75
     1
175
     1
 42
1.0
 92
        8
 66
     7
 43
1.0
 76
     1
 77
     6
 78
     2
 67
     7
 79
     5
170
     0
171
     0
290
     0
174
     0
 93
        1
 44
0.0
173
     0
291
     1
 45
0.0
  0
VISUALSTYLE
  5
264
102
{ACAD_REACTORS
330
258
102
}
330
258
100
AcDbVisualStyle
  2
Brighten
 70
    12
 71
     2
 72
     2
 73
     0
 90
        0
 40
-0.6
 41
-30.0
 62
     5
 63
     7
421
 16777215
 74
     1
 91
        4
 64
     7
 65
   257
 75
     1
175
     1
 42
1.0
 92
        8
 66
     7
 43
1.0
 76
     1
 77
     6
 78
     2
 67
     7
 79
     5
170
     0
171
     0
290
     0
174
     0
 93
        1
 44
50.0
173
     0
291
     1
 45
0.0
  0
VISUALSTYLE
  5
268
102
{ACAD_REACTORS
330
258
102
}
330
258
100
AcDbVisualStyle
  2
ColorChange
 70
    16
 71
     2
 72
     2
 73
     3
 90
        0
 40
-0.6
 41
-30.0
 62
     5
 63
     8
421
  8421504
 74
     1
 91
        4
 64
     7
 65
   257
 75
     1
175
     1
 42
1.0
 92
        8
 66
     8
424
  8421504
 43
1.0
 76
     1
 77
     6
 78
     2
 67
     7
 79
     5
170
     0
171
     0
290
     0
174
     0
 93
        1
 44
0.0
173
     0
291
     1
 45
0.0
  0
VISUALSTYLE
  5
261
102
{ACAD_REACTORS
330
258
102
}
330
258
100
AcDbVisualStyle
  2
Conceptual
 70
     9
 71
     3
 72
     2
 73
     0
 90
        0
 40
-0.6
 41
-30.0
 62
     5
 63
     7
421
 16777215
 74
     2
 91
        2
 64
     7
 65
   257
 75
     1
175
     1
 42
40.0
 92
        8
 66
     7
 43
1.0
 76
     1
 77
     6
 78
     2
 67
     7
 79
     3
170
     0
171
     0
290
     0
174
     0
 93
        1
 44
0.0
173
     0
291
     0
 45
0.0
  0
VISUALSTYLE
  5
263
102
{ACAD_REACTORS
330
258
102
}
330
258
100
AcDbVisualStyle
  2
Dim
 70
    11
 71
     2
 72
     2
 73
     0
 90
        0
 40
-0.6
 41
-30.0
 62
     5
 63
     7
421
 16777215
 74
     1
 91
        4
 64
     7
 65
   257
 75
     1
175
     1
 42
1.0
 92
        8
 66
     7
 43
1.0
 76
     1
 77
     6
 78
     2
 67
     7
 79
     5
170
     0
171
     0
290
     0
174
     0
 93
        1
 44
-50.0
173
     0
291
     1
 45
0.0
  0
VISUALSTYLE
  5
267
102
{ACAD_REACTORS
330
258
102
}
330
258
100
AcDbVisualStyle
  2
Facepattern
 70
    15
 71
     2
 72
     2
 73
     0
 90
        0
 40
-0.6
 41
-30.0
 62
     5
 63
     7
421
 16777215
 74
     1
 91
        4
 64
     7
 65
   257
 75
     1
175
     1
 42
1.0
 92
        8
 66
     7
 43
1.0
 76
     1
 77
     6
 78
     2
 67
     7
 79
     5
170
     0
171
     0
290
     0
174
     0
 93
        1
 44
0.0
173
     0
291
     1
 45
0.0
  0
VISUALSTYLE
  5
259
102
{ACAD_REACTORS
330
258
102
}
330
258
100
AcDbVisualStyle
  2
Flat
 70
     0
 71
     2
 72
     1
 73
     1
 90
        2
 40
-0.6
 41
30.0
 62
     5
 63
     7
421
 16777215
 74
     0
 91
        4
 64
     7
 65
   257
 75
     1
175
     1
 42
1.0
 92
        8
 66
     7
 43
1.0
 76
     1
 77
     6
 78
     2
 67
     7
 79
     5
170
     0
171
     0
290
     0
174
     0
 93
       13
 44
0.0
173
     0
291
     1
 45
0.0
  0
VISUALSTYLE
  5
25A
102
{ACAD_REACTORS
330
258
102
}
330
258
100
AcDbVisualStyle
  2
FlatWithEdges
 70
     1
 71
     2
 72
     1
 73
     1
 90
        2
 40
-0.6
 41
30.0
 62
     5
 63
     7
421
 16777215
 74
     1
 91
        4
 64
     7
 65
   257
 75
     1
175
     1
 42
1.0
 92
        0
 66
   257
 43
1.0
 76
     1
 77
     6
 78
     2
 67
     7
 79
     5
170
     0
171
     0
290
     0
174
     0
 93
       13
 44
0.0
173
     0
291
     1
 45
0.0
  0
VISUALSTYLE
  5
25B
102
{ACAD_REACTORS
330
258
102
}
330
258
100
AcDbVisualStyle
  2
Gouraud
 70
     2
 71
     2
 72
     2
 73
     1
 90
        2
 40
-0.6
 41
30.0
 62
     5
 63
     7
421
 16777215
 74
     0
 91
        4
 64
     7
 65
   257
 75
     1
175
     1
 42
1.0
 92
        0
 66
     7
 43
1.0
 76
     1
 77
     6
 78
     2
 67
     7
 79
     5
170
     0
171
     0
290
     0
174
     0
 93
       13
 44
0.0
173
     0
291
     1
 45
0.0
  0
VISUALSTYLE
  5
25C
102
{ACAD_REACTORS
330
258
102
}
330
258
100
AcDbVisualStyle
  2
GouraudWithEdges
 70
     3
 71
     2
 72
     2
 73
     1
 90
        2
 40
-0.6
 41
30.0
 62
     5
 63
     7
421
 16777215
 74
     1
 91
        4
 64
     7
 65
   257
 75
     1
175
     1
 42
1.0
 92
        0
 66
   257
 43
1.0
 76
     1
 77
     6
 78
     2
 67
     7
 79
     5
170
     0
171
     0
290
     0
174
     0
 93
       13
 44
0.0
173
     0
291
     1
 45
0.0
  0
VISUALSTYLE
  5
266
102
{ACAD_REACTORS
330
258
102
}
330
258
100
AcDbVisualStyle
  2
Linepattern
 70
    14
 71
     2
 72
     2
 73
     0
 90
        0
 40
-0.6
 41
-30.0
 62
     5
 63
     7
421
 16777215
 74
     1
 91
        4
 64
     7
 65
   257
 75
     7
175
     7
 42
1.0
 92
        8
 66
     7
 43
1.0
 76
     1
 77
     6
 78
     2
 67
     7
 79
     5
170
     0
171
     0
290
     0
174
     0
 93
        1
 44
0.0
173
     0
291
     1
 45
0.0
  0
VISUALSTYLE
  5
262
102
{ACAD_REACTORS
330
258
102
}
330
258
100
AcDbVisualStyle
  2
Realistic
 70
     8
 71
     2
 72
     2
 73
     0
 90
        0
 40
-0.6
 41
-30.0
 62
     5
 63
     7
421
 16777215
 74
     1
 91
        0
 64
     7
 65
   257
 75
     1
175
     1
 42
1.0
 92
        8
 66
     8
424
  7895160
 43
1.0
 76
     1
 77
     6
 78
     2
 67
     7
 79
     5
170
     0
171
     0
290
     0
174
     0
 93
       13
 44
0.0
173
     0
291
     0
 45
0.0
  0
VISUALSTYLE
  5
265
102
{ACAD_REACTORS
330
258
102
}
330
258
100
AcDbVisualStyle
  2
Thicken
 70
    13
 71
     2
 72
     2
 73
     0
 90
        0
 40
-0.6
 41
-30.0
 62
     5
 63
     7
421
 16777215
 74
     1
 91
        4
 64
     7
 65
   257
 75
     1
175
     1
 42
1.0
 92
       12
 66
     7
 43
1.0
 76
     1
 77
     6
 78
     2
 67
     7
 79
     5
170
     0
171
     0
290
     0
174
     0
 93
        1
 44
0.0
173
     0
291
     1
 45
0.0
  0
DICTIONARYVAR
  5
138
102
{ACAD_REACTORS
330
94
102
}
330
94
100
DictionaryVariables
280
     0
  1
STANDARD
  0
DICTIONARYVAR
  5
96
102
{ACAD_REACTORS
330
94
102
}
330
94
100
DictionaryVariables
280
     0
  1
2
  0
DICTIONARYVAR
  5
95
102
{ACAD_REACTORS
330
94
102
}
330
94
100
DictionaryVariables
280
     0
  1
1
  0
DICTIONARY
  5
1B0
102
{ACAD_REACTORS
330
5B
102
}
330
5B
100
AcDbDictionary
281
     1
  0
DICTIONARY
  5
61
102
{ACAD_REACTORS
330
5B
102
}
330
5B
100
AcDbDictionary
281
     1
  0
XRECORD
  5
123
102
{ACAD_REACTORS
330
5B
102
}
330
5B
100
AcDbXrecord
280
     1
 90
-1023410169
  0
ENDSEC
  0
EOF
