  0
SECTION
  2
HEADER
  9
$ACADVER
  1
AC1015
  9
$ACADMAINTVER
 70
    20
  9
$DWGCODEPAGE
  3
ANSI_1252
  9
$INSBASE
 10
0.0
 20
0.0
 30
0.0
  9
$EXTMIN
 10
-21.41978798803075
 20
470.932872981669
 30
-0.0000000000000053
  9
$EXTMAX
 10
585.2739215236783
 20
989.0294503322618
 30
0.0000000000000099
  9
$LIMMIN
 10
-182.9864404497793
 20
-2.624778689794775
  9
$LIMMAX
 10
626.9601670480072
 20
442.6145195992734
  9
$ORTHOMODE
 70
     1
  9
$REGENMODE
 70
     1
  9
$FILLMODE
 70
     1
  9
$QTEXTMODE
 70
     0
  9
$MIRRTEXT
 70
     0
  9
$LTSCALE
 40
1.0
  9
$ATTMODE
 70
     1
  9
$TEXTSIZE
 40
50.0
  9
$TRACEWID
 40
1.0
  9
$TEXTSTYLE
  7
STANDARD
  9
$CLAYER
  8
AM_4
  9
$CELTYPE
  6
ByLayer
  9
$CECOLOR
 62
   256
  9
$CELTSCALE
 40
1.0
  9
$DISPSILH
 70
     0
  9
$DIMSCALE
 40
1.0
  9
$DIMASZ
 40
2.5
  9
$DIMEXO
 40
0.0
  9
$DIMDLI
 40
10.0
  9
$DIMRND
 40
0.0
  9
$DIMDLE
 40
0.0
  9
$DIMEXE
 40
1.0
  9
$DIMTP
 40
5.0
  9
$DIMTM
 40
5.0
  9
$DIMTXT
 40
3.0
  9
$DIMCEN
 40
0.0
  9
$DIMTSZ
 40
0.0
  9
$DIMTOL
 70
     0
  9
$DIMLIM
 70
     0
  9
$DIMTIH
 70
     0
  9
$DIMTOH
 70
     0
  9
$DIMSE1
 70
     0
  9
$DIMSE2
 70
     0
  9
$DIMTAD
 70
     1
  9
$DIMZIN
 70
     8
  9
$DIMBLK
  1

  9
$DIMASO
 70
     1
  9
$DIMSHO
 70
     1
  9
$DIMPOST
  1

  9
$DIMAPOST
  1
"
  9
$DIMALT
 70
     0
  9
$DIMALTD
 70
     2
  9
$DIMALTF
 40
0.0393701
  9
$DIMLFAC
 40
1.0
  9
$DIMTOFL
 70
     1
  9
$DIMTVP
 40
0.0
  9
$DIMTIX
 70
     0
  9
$DIMSOXD
 70
     0
  9
$DIMSAH
 70
     0
  9
$DIMBLK1
  1

  9
$DIMBLK2
  1

  9
$DIMSTYLE
  2
AM_DIN
  9
$DIMCLRD
 70
   256
  9
$DIMCLRE
 70
   256
  9
$DIMCLRT
 70
     2
  9
$DIMTFAC
 40
0.71
  9
$DIMGAP
 40
0.7
  9
$DIMJUST
 70
     0
  9
$DIMSD1
 70
     0
  9
$DIMSD2
 70
     0
  9
$DIMTOLJ
 70
     0
  9
$DIMTZIN
 70
     8
  9
$DIMALTZ
 70
     0
  9
$DIMALTTZ
 70
     0
  9
$DIMUPT
 70
     0
  9
$DIMDEC
 70
     0
  9
$DIMTDEC
 70
     2
  9
$DIMALTU
 70
     2
  9
$DIMALTTD
 70
     2
  9
$DIMTXSTY
  7
STANDARD
  9
$DIMAUNIT
 70
     0
  9
$DIMADEC
 70
     0
  9
$DIMALTRND
 40
0.0
  9
$DIMAZIN
 70
     2
  9
$DIMDSEP
 70
    46
  9
$DIMATFIT
 70
     3
  9
$DIMFRAC
 70
     0
  9
$DIMLDRBLK
  1

  9
$DIMLUNIT
 70
     2
  9
$DIMLWD
 70
    -1
  9
$DIMLWE
 70
    -1
  9
$DIMTMOVE
 70
     0
  9
$LUNITS
 70
     2
  9
$LUPREC
 70
     2
  9
$SKETCHINC
 40
1.0
  9
$FILLETRAD
 40
2.0
  9
$AUNITS
 70
     0
  9
$AUPREC
 70
     0
  9
$MENU
  1
.
  9
$ELEVATION
 40
0.0
  9
$PELEVATION
 40
0.0
  9
$THICKNESS
 40
0.0
  9
$LIMCHECK
 70
     0
  9
$CHAMFERA
 40
2.5
  9
$CHAMFERB
 40
2.5
  9
$CHAMFERC
 40
20.0
  9
$CHAMFERD
 40
0.0
  9
$SKPOLY
 70
     0
  9
$TDCREATE
 40
2452908.547844861
  9
$TDUCREATE
 40
2452908.506178195
  9
$TDUPDATE
 40
2454175.396946250
  9
$TDUUPDATE
 40
2454175.355279584
  9
$TDINDWG
 40
3.5541104745
  9
$TDUSRTIMER
 40
3.5541101273
  9
$USRTIMER
 70
     1
  9
$ANGBASE
 50
0.0
  9
$ANGDIR
 70
     0
  9
$PDMODE
 70
     0
  9
$PDSIZE
 40
0.0
  9
$PLINEWID
 40
0.0
  9
$SPLFRAME
 70
     0
  9
$SPLINETYPE
 70
     6
  9
$SPLINESEGS
 70
     8
  9
$HANDSEED
  5
1960
  9
$SURFTAB1
 70
     6
  9
$SURFTAB2
 70
     6
  9
$SURFTYPE
 70
     6
  9
$SURFU
 70
     6
  9
$SURFV
 70
     6
  9
$UCSBASE
  2

  9
$UCSNAME
  2

  9
$UCSORG
 10
0.0
 20
0.0
 30
0.0
  9
$UCSXDIR
 10
1.0
 20
0.0
 30
0.0
  9
$UCSYDIR
 10
0.0
 20
1.0
 30
0.0
  9
$UCSORTHOREF
  2

  9
$UCSORTHOVIEW
 70
     0
  9
$UCSORGTOP
 10
0.0
 20
0.0
 30
0.0
  9
$UCSORGBOTTOM
 10
0.0
 20
0.0
 30
0.0
  9
$UCSORGLEFT
 10
0.0
 20
0.0
 30
0.0
  9
$UCSORGRIGHT
 10
0.0
 20
0.0
 30
0.0
  9
$UCSORGFRONT
 10
0.0
 20
0.0
 30
0.0
  9
$UCSORGBACK
 10
0.0
 20
0.0
 30
0.0
  9
$PUCSBASE
  2

  9
$PUCSNAME
  2

  9
$PUCSORG
 10
0.0
 20
0.0
 30
0.0
  9
$PUCSXDIR
 10
1.0
 20
0.0
 30
0.0
  9
$PUCSYDIR
 10
0.0
 20
1.0
 30
0.0
  9
$PUCSORTHOREF
  2

  9
$PUCSORTHOVIEW
 70
     0
  9
$PUCSORGTOP
 10
0.0
 20
0.0
 30
0.0
  9
$PUCSORGBOTTOM
 10
0.0
 20
0.0
 30
0.0
  9
$PUCSORGLEFT
 10
0.0
 20
0.0
 30
0.0
  9
$PUCSORGRIGHT
 10
0.0
 20
0.0
 30
0.0
  9
$PUCSORGFRONT
 10
0.0
 20
0.0
 30
0.0
  9
$PUCSORGBACK
 10
0.0
 20
0.0
 30
0.0
  9
$USERI1
 70
     0
  9
$USERI2
 70
     0
  9
$USERI3
 70
     0
  9
$USERI4
 70
     0
  9
$USERI5
 70
     0
  9
$USERR1
 40
0.0
  9
$USERR2
 40
0.0
  9
$USERR3
 40
0.0
  9
$USERR4
 40
0.0
  9
$USERR5
 40
0.0
  9
$WORLDVIEW
 70
     1
  9
$SHADEDGE
 70
     3
  9
$SHADEDIF
 70
    70
  9
$TILEMODE
 70
     1
  9
$MAXACTVP
 70
    64
  9
$PINSBASE
 10
0.0
 20
0.0
 30
0.0
  9
$PLIMCHECK
 70
     0
  9
$PEXTMIN
 10
1.000000000000000E+20
 20
1.000000000000000E+20
 30
1.000000000000000E+20
  9
$PEXTMAX
 10
-1.000000000000000E+20
 20
-1.000000000000000E+20
 30
-1.000000000000000E+20
  9
$PLIMMIN
 10
0.0
 20
0.0
  9
$PLIMMAX
 10
420.0
 20
297.0
  9
$UNITMODE
 70
     0
  9
$VISRETAIN
 70
     1
  9
$PLINEGEN
 70
     0
  9
$PSLTSCALE
 70
     1
  9
$TREEDEPTH
 70
  3020
  9
$CMLSTYLE
  2
Standard
  9
$CMLJUST
 70
     0
  9
$CMLSCALE
 40
20.0
  9
$PROXYGRAPHICS
 70
     1
  9
$MEASUREMENT
 70
     1
  9
$CELWEIGHT
370
    -1
  9
$ENDCAPS
280
     0
  9
$JOINSTYLE
280
     0
  9
$LWDISPLAY
290
     0
  9
$INSUNITS
 70
     4
  9
$HYPERLINKBASE
  1

  9
$STYLESHEET
  1
ganz_fein_1.ctb
  9
$XEDIT
290
     1
  9
$CEPSNTYPE
380
     0
  9
$PSTYLEMODE
290
     1
  9
$FINGERPRINTGUID
  2
{83AF6503-29F1-4AD5-97F6-8D05887D4836}
  9
$VERSIONGUID
  2
{0349A42D-3A14-4F9A-BB5A-E6C80EADEF42}
  9
$EXTNAMES
290
     1
  9
$PSVPSCALE
 40
0.0
  9
$OLESTARTUP
290
     0
  0
ENDSEC
  0
SECTION
  2
CLASSES
  0
CLASS
  1
ACDBDICTIONARYWDFLT
  2
AcDbDictionaryWithDefault
  3
ObjectDBX Classes
 90
        0
280
     0
281
     0
  0
CLASS
  1
ACDBPLACEHOLDER
  2
AcDbPlaceHolder
  3
ObjectDBX Classes
 90
        0
280
     0
281
     0
  0
CLASS
  1
LAYOUT
  2
AcDbLayout
  3
ObjectDBX Classes
 90
        0
280
     0
281
     0
  0
CLASS
  1
AMGSETTINGSOBJ
  2
AmgSettingsObj
  3
"AcadM|Product Description: AutoCAD Mechanical|Company: Autodesk"
 90
        0
280
     0
281
     0
  0
CLASS
  1
ACME_DOCUMENT
  2
AcMeDbDoc
  3
AcMeServices
 90
        0
280
     0
281
     0
  0
CLASS
  1
ACMESCOPE
  2
AcMeScope
  3
AcMeServices
 90
        0
280
     0
281
     0
  0
CLASS
  1
ACMECOMMANDHISTORY
  2
AcMeCommandHistory
  3
AcMeServices
 90
        0
280
     0
281
     0
  0
CLASS
  1
DICTIONARYVAR
  2
AcDbDictionaryVar
  3
ObjectDBX Classes
 90
        0
280
     0
281
     0
  0
CLASS
  1
ACIMSYSVARMAN
  2
AcImSysVarManager
  3
AcMeServices
 90
        0
280
     0
281
     0
  0
CLASS
  1
ACIMREALSYSVAR
  2
AcImRealSysVar
  3
AcMeServices
 90
        0
280
     0
281
     0
  0
CLASS
  1
ACIMINTSYSVAR
  2
AcImIntSysVar
  3
AcMeServices
 90
        0
280
     0
281
     0
  0
CLASS
  1
ACMEDRAWINGMAN
  2
AcMeDrawingMan
  3
AcMeServices
 90
        0
280
     0
281
     0
  0
CLASS
  1
ACMEVIEW
  2
AcMeView
  3
AcMeServices
 90
        0
280
     0
281
     0
  0
CLASS
  1
ACDBENTITYCACHE
  2
AcMeEntityCache
  3
AcMeServices
 90
        0
280
     0
281
     0
  0
CLASS
  1
GSMANAGER
  2
AcMeGSManager
  3
AcMeServices
 90
        0
280
     0
281
     0
  0
CLASS
  1
AMDTINTERNALREACTOR
  2
AmdtInternalReactor
  3
AcMeServices
 90
        0
280
     0
281
     0
  0
CLASS
  1
ACMESTATEMGR
  2
AcMeStateMgr
  3
AcMeServices
 90
        0
280
     0
281
     0
  0
CLASS
  1
ACGREFMASTER
  2
AcGrefMaster
  3
AcAttribServices
 90
        0
280
     0
281
     0
  0
CLASS
  1
ACME_DATABASE
  2
AcMeDbDatabase
  3
AcMeServices
 90
        0
280
     0
281
     0
  0
CLASS
  1
ACRFINSADJUSTERMGR
  2
AcRfInsAdjusterMgr
  3
AcMeServices
 90
        0
280
     0
281
     0
  0
CLASS
  1
ACGREFACADMASTER
  2
AcGrefacadMaster
  3
AcGrefServices
 90
        0
280
     0
281
     0
  0
CLASS
  1
AMIMASTER
  2
AmiMaster
  3
AmiServices
 90
        0
280
     0
281
     0
  0
CLASS
  1
ACIMSTRSYSVAR
  2
AcImStrSysVar
  3
AcMeServices
 90
        0
280
     0
281
     0
  0
CLASS
  1
ACMSTANDARDDIN
  2
AcmStandardDIN
  3
"Amdt_StdImp|Product Description: AutoCAD Mechanical|Company: Autodesk"
 90
        0
280
     0
281
     0
  0
CLASS
  1
AMGOBJPROPCFG
  2
AmgObjPropCfg
  3
"AmgLay|Product Description: AutoCAD Mechanical|Company: Autodesk"
 90
        1
280
     0
281
     0
  0
CLASS
  1
AMDTEDGESTANDARDDIN
  2
AmdtEdgeStdDIN
  3
"Amdt_StdImp|Product Description: AutoCAD Mechanical|Company: Autodesk"
 90
        0
280
     0
281
     0
  0
CLASS
  1
ACMSURFSTANDARDDIN
  2
AcmSurfTextStdDIN
  3
"Amdt_StdImp|Product Description: AutoCAD Mechanical|Company: Autodesk"
 90
        0
280
     0
281
     0
  0
CLASS
  1
ACMFCFSTANDARDDIN
  2
AcmFCFStdDIN
  3
"Amdt_StdImp|Product Description: AutoCAD Mechanical|Company: Autodesk"
 90
        0
280
     0
281
     0
  0
CLASS
  1
ACMWELDSTANDARDDIN
  2
AcmWeldingStdDIN
  3
"Amdt_StdImp|Product Description: AutoCAD Mechanical|Company: Autodesk"
 90
        0
280
     0
281
     0
  0
CLASS
  1
ACMIDSTANDARDDIN
  2
AcmIdStdDIN
  3
"Amdt_StdImp|Product Description: AutoCAD Mechanical|Company: Autodesk"
 90
        0
280
     0
281
     0
  0
CLASS
  1
ACMDATUMSTANDARDDIN
  2
AcmDatumStdDIN
  3
"Amdt_StdImp|Product Description: AutoCAD Mechanical|Company: Autodesk"
 90
        0
280
     0
281
     0
  0
CLASS
  1
ACMBOMSTANDARDDIN
  2
AcmBOMStdDIN
  3
"Amdt_StdImp|Product Description: AutoCAD Mechanical|Company: Autodesk"
 90
        0
280
     0
281
     0
  0
CLASS
  1
ACMDETAILSTANDARDDIN
  2
AmdtDetailSymStdDIN
  3
"Amdt_StdImp|Product Description: AutoCAD Mechanical|Company: Autodesk"
 90
        0
280
     0
281
     0
  0
CLASS
  1
ACMSECTIONSTANDARDDIN
  2
AmdtSectionSymStdDIN
  3
"Amdt_StdImp|Product Description: AutoCAD Mechanical|Company: Autodesk"
 90
        0
280
     0
281
     0
  0
CLASS
  1
ACMCENTERLINESTANDARDDIN
  2
AmdtCenterLineStdDIN
  3
"Amdt_StdImp|Product Description: AutoCAD Mechanical|Company: Autodesk"
 90
        0
280
     0
281
     0
  0
CLASS
  1
ACMTHREADLINESTANDARDDIN
  2
AmdtThreadLineStdDIN
  3
"Amdt_StdImp|Product Description: AutoCAD Mechanical|Company: Autodesk"
 90
        0
280
     0
281
     0
  0
CLASS
  1
ACAMGLAYSTD
  2
AcAmgLayStd
  3
"AmgLay|Product Description: AutoCAD Mechanical|Company: Autodesk"
 90
        0
280
     0
281
     0
  0
CLASS
  1
ACAMGDIMSTD
  2
AcAmgDimStd
  3
"AmgDim|Product Description: AutoCAD Mechanical|Company: Autodesk"
 90
        0
280
     0
281
     0
  0
CLASS
  1
ACAMGTITLESTD
  2
AcAmgTitleStd
  3
"AmgTitle|Product Description: AutoCAD Mechanical|Company: Autodesk"
 90
        0
280
     0
281
     0
  0
CLASS
  1
ACMDATADICTIONARY
  2
AcmDataDictionary
  3
"AcmSymBB|Product Description: AutoCAD Mechanical|Company: Autodesk"
 90
        0
280
     0
281
     0
  0
CLASS
  1
ACMDATAENTRYBLOCK
  2
AcmDataEntryBlock
  3
"AcmSymBB|Product Description: AutoCAD Mechanical|Company: Autodesk"
 90
    32768
280
     0
281
     0
  0
CLASS
  1
LAYER_INDEX
  2
AcDbLayerIndex
  3
ObjectDBX Classes
 90
    32768
280
     0
281
     0
  0
CLASS
  1
IDBUFFER
  2
AcDbIdBuffer
  3
ObjectDBX Classes
 90
    32768
280
     0
281
     0
  0
CLASS
  1
AM_DRAWING_MGR
  2
AcDmDwgMgr
  3
AcMechDwgViewMgmt
 90
        0
280
     0
281
     0
  0
CLASS
  1
AM_DWG_DOCUMENT
  2
AcDmDwgDocument
  3
AcMechDwgViewMgmt
 90
        0
280
     0
281
     0
  0
CLASS
  1
AM_DWG_SHEET
  2
AcDmSheet
  3
AcMechDwgViewMgmt
 90
        0
280
     0
281
     0
  0
CLASS
  1
AM_VIEWDIMPARMAP
  2
AcDmViewDimParMap
  3
AcMechDwgViewMgmt
 90
        0
280
     0
281
     0
  0
CLASS
  1
AM_DWGMGR_NAME
  2
AcDmDwgMgrName
  3
AcMechDwgViewMgmt
 90
        0
280
     0
281
     0
  0
CLASS
  1
AMDTMENUSTATEMGR
  2
AmdtMenuStateMgr
  3
McadcomServices
 90
        0
280
     0
281
     0
  0
CLASS
  1
AMDTMCOMMENUSTATE
  2
AmdtMcomMenuState
  3
McadcomServices
 90
        0
280
     0
281
     0
  0
CLASS
  1
ASAPP
  2
AcAsAppObject
  3
AutoSurfServices
 90
    32768
280
     1
281
     0
  0
CLASS
  1
IM_STATIC_MAN
  2
AcImStaticVarManager
  3
AcMeServices
 90
    32768
280
     0
281
     0
  0
CLASS
  1
ACIMDBLSTATICVAR
  2
AcImDblStaticVar
  3
AcMeServices
 90
    32768
280
     0
281
     0
  0
CLASS
  1
ACIMSTRSTATICVAR
  2
AcImStrStaticVar
  3
AcMeServices
 90
    32768
280
     0
281
     0
  0
CLASS
  1
ACIMINTSTATICVAR
  2
AcImIntStaticVar
  3
AcMeServices
 90
    32768
280
     0
281
     0
  0
CLASS
  1
ACASGREFMASTER
  2
AcAsGrefMaster
  3
AutoSurfResolverServices
 90
    32768
280
     1
281
     0
  0
CLASS
  1
ACADGREFMODULE
  2
AcAdGrefModule
  3
AdGrefServices
 90
    32768
280
     1
281
     0
  0
CLASS
  1
AMDTMAPISURFMOUDULE
  2
AmdtMApiSurfModule
  3
MApiSurfServices
 90
    32768
280
     1
281
     0
  0
CLASS
  1
MAPIAMMOUDLE
  2
MApiAmModule
  3
MApiAmServices
 90
        0
280
     0
281
     0
  0
CLASS
  1
AMDTADMENUSTATE
  2
AmdtAdMenuState
  3
DesignerServices
 90
        0
280
     0
281
     0
  0
CLASS
  1
ADAPPL
  2
AcAdAppl
  3
DesignerServices
 90
        0
280
     0
281
     0
  0
CLASS
  1
DEPMGR
  2
AcAdDepMgr
  3
DesignerServices
 90
        0
280
     0
281
     0
  0
CLASS
  1
PARAMMGR
  2
AcAdParamMgr
  3
DesignerServices
 90
        0
280
     0
281
     0
  0
CLASS
  1
PARAMSCOPE
  2
AcAdParamScope
  3
DesignerServices
 90
        0
280
     0
281
     0
  0
CLASS
  1
NAMEDAPPL
  2
AcAdNamedAppl
  3
DesignerServices
 90
        0
280
     0
281
     0
  0
CLASS
  1
ADHNTMPLT
  2
AdHoleNoteTemplateMgr
  3
DesignerServices
 90
    32768
280
     0
281
     0
  0
CLASS
  1
AM_HNTEMPLATE_MGR_NAME
  2
AdHoleNoteTemplateMgrName
  3
DesignerServices
 90
    32768
280
     0
281
     0
  0
CLASS
  1
AMDTDMMENUSTATE
  2
AmdtDmMenuState
  3
AcMechDwgViewMgmt
 90
        0
280
     0
281
     0
  0
CLASS
  1
MAPIADMODULE
  2
MApiAdModule
  3
MApiAdServices
 90
    32768
280
     1
281
     0
  0
CLASS
  1
AMDTAMMENUSTATE
  2
AmdtAmMenuState
  3
DesignerAssemblies
 90
        0
280
     0
281
     0
  0
CLASS
  1
ACAMPROJECT
  2
AcAmProject
  3
DesignerAssemblies
 90
        0
280
     0
281
     0
  0
CLASS
  1
ACAMGRCOMPDEF
  2
AcAmGrCompDef
  3
DesignerAssemblies
 90
        0
280
     0
281
     0
  0
CLASS
  1
ACCMCONTEXT
  2
AcCmContext
  3
DesignerAssemblies
 90
        0
280
     0
281
     0
  0
CLASS
  1
ACAMCOMPDEF
  2
AcAmCompDef
  3
DesignerAssemblies
 90
        0
280
     0
281
     0
  0
CLASS
  1
ACAMCOMPDEFMGR
  2
AcAmCompDefMgr
  3
DesignerAssemblies
 90
        0
280
     0
281
     0
  0
CLASS
  1
AMCONTEXTMGR
  2
AcAmContextMgr
  3
DesignerAssemblies
 90
        0
280
     0
281
     0
  0
CLASS
  1
ACAMCONTEXTMODELER
  2
AcAmContextModeler
  3
DesignerAssemblies
 90
        0
280
     0
281
     0
  0
CLASS
  1
CATALOGSTATE
  2
AcAmCatalogState
  3
DesignerAssemblies
 90
        0
280
     0
281
     0
  0
CLASS
  1
ACAMGRCOMPDEFSET
  2
AcAmGrCompDefSet
  3
DesignerAssemblies
 90
        0
280
     0
281
     0
  0
CLASS
  1
AMDTBROWSERDBTAB
  2
AmdtBrowserDbTab
  3
McadcomServices
 90
        0
280
     0
281
     0
  0
CLASS
  1
CBROWSERAPPOBJECT
  2
CBrowserAppObject
  3
McadcomServices
 90
        0
280
     0
281
     0
  0
CLASS
  1
DM_PLACEHOLDER
  2
AcDmSelsetPlaceholder
  3
AcMechDwgViewMgmt
 90
        0
280
     0
281
     0
  0
CLASS
  1
ACAMGFILTERDAT
  2
AcAmgFilterDat
  3
"AcadM|Product Description: AutoCAD Mechanical|Company: Autodesk"
 90
    32768
280
     0
281
     0
  0
CLASS
  1
AMDTFORMULAUPDATEDISPATCHER
  2
AmdtFormulaUpdateDispatcher
  3
AcMeServices
 90
    32768
280
     0
281
     0
  0
CLASS
  1
ACMNOTESTANDARDDIN
  2
AmdtNoteStdDIN
  3
"Amdt_StdImp|Product Description: AutoCAD Mechanical|Company: Autodesk"
 90
        0
280
     0
281
     0
  0
CLASS
  1
ACAMGHOLECHARTSTDDIN
  2
AcAmgHoleChartStdDIN
  3
ACMSYMBB_MODULE_NAME
 90
        0
280
     0
281
     0
  0
CLASS
  1
AMDTNOTE
  2
AmdtNote
  3
"AcmSymBB|Product Description: AutoCAD Mechanical|Company: Autodesk"
 90
    35839
280
     0
281
     1
  0
CLASS
  1
ACMPARTREF
  2
AcmPartRef
  3
"AcmSymBB|Product Description: AutoCAD Mechanical|Company: Autodesk"
 90
    35839
280
     0
281
     1
  0
CLASS
  1
ACDBLINERES
  2
AcDbLineRes
  3
AcGrefServices
 90
    32768
280
     0
281
     0
  0
CLASS
  1
ACRFINSADJ
  2
AcRfInsAdjuster
  3
AcMeServices
 90
    32768
280
     0
281
     0
  0
CLASS
  1
ACMDATAENTRYPART
  2
AcmDataEntryPart
  3
"AcmSymBB|Product Description: AutoCAD Mechanical|Company: Autodesk"
 90
    32768
280
     0
281
     0
  0
CLASS
  1
ACMPICKOBJ
  2
AcmPickEnt
  3
"AcmSymBB|Product Description: AutoCAD Mechanical|Company: Autodesk"
 90
    32768
280
     0
281
     1
  0
CLASS
  1
ACMDATAENTRY
  2
AcmDataEntry
  3
"AcmSymBB|Product Description: AutoCAD Mechanical|Company: Autodesk"
 90
    32768
280
     0
281
     0
  0
CLASS
  1
ACMBOM
  2
AcmBom
  3
"AcmSymBB|Product Description: AutoCAD Mechanical|Company: Autodesk"
 90
    32768
280
     0
281
     0
  0
CLASS
  1
ACMBOMROW
  2
AcmBomRow
  3
"AcmSymBB|Product Description: AutoCAD Mechanical|Company: Autodesk"
 90
    32768
280
     0
281
     0
  0
CLASS
  1
ACMPARTLIST
  2
AcmPartList
  3
"AcmSymBB|Product Description: AutoCAD Mechanical|Company: Autodesk"
 90
    35839
280
     0
281
     1
  0
CLASS
  1
ACDBCIRCARCRES
  2
AcDbCircArcRes
  3
AcGrefServices
 90
    32768
280
     0
281
     0
  0
CLASS
  1
ACMBALLOON
  2
AcmBalloon
  3
"AcmSymBB|Product Description: AutoCAD Mechanical|Company: Autodesk"
 90
    35839
280
     0
281
     1
  0
CLASS
  1
ACMSTANDARDISO
  2
AcmStandardISO
  3
"Amdt_StdImp|Product Description: AutoCAD Mechanical|Company: Autodesk"
 90
        0
280
     0
281
     0
  0
CLASS
  1
AMDTEDGESTANDARDISO
  2
AmdtEdgeStdISO
  3
"Amdt_StdImp|Product Description: AutoCAD Mechanical|Company: Autodesk"
 90
        0
280
     0
281
     0
  0
CLASS
  1
ACMSURFSTANDARDISO
  2
AcmSurfTextStdISO
  3
"Amdt_StdImp|Product Description: AutoCAD Mechanical|Company: Autodesk"
 90
        0
280
     0
281
     0
  0
CLASS
  1
ACMFCFSTANDARDISO
  2
AcmFCFStdISO
  3
"Amdt_StdImp|Product Description: AutoCAD Mechanical|Company: Autodesk"
 90
        0
280
     0
281
     0
  0
CLASS
  1
ACMWELDSTANDARDISO
  2
AcmWeldingStdISO
  3
"Amdt_StdImp|Product Description: AutoCAD Mechanical|Company: Autodesk"
 90
        0
280
     0
281
     0
  0
CLASS
  1
ACMIDSTANDARDISO
  2
AcmIdStdISO
  3
"Amdt_StdImp|Product Description: AutoCAD Mechanical|Company: Autodesk"
 90
        0
280
     0
281
     0
  0
CLASS
  1
ACMDATUMSTANDARDISO
  2
AcmDatumStdISO
  3
"Amdt_StdImp|Product Description: AutoCAD Mechanical|Company: Autodesk"
 90
        0
280
     0
281
     0
  0
CLASS
  1
ACMBOMSTANDARDISO
  2
AcmBOMStdISO
  3
"Amdt_StdImp|Product Description: AutoCAD Mechanical|Company: Autodesk"
 90
        0
280
     0
281
     0
  0
CLASS
  1
ACMDETAILSTANDARDISO
  2
AmdtDetailSymStdISO
  3
"Amdt_StdImp|Product Description: AutoCAD Mechanical|Company: Autodesk"
 90
        0
280
     0
281
     0
  0
CLASS
  1
ACMSECTIONSTANDARDISO
  2
AmdtSectionSymStdISO
  3
"Amdt_StdImp|Product Description: AutoCAD Mechanical|Company: Autodesk"
 90
        0
280
     0
281
     0
  0
CLASS
  1
ACMCENTERLINESTANDARDISO
  2
AmdtCenterLineStdISO
  3
"Amdt_StdImp|Product Description: AutoCAD Mechanical|Company: Autodesk"
 90
        0
280
     0
281
     0
  0
CLASS
  1
ACMNOTESTANDARDISO
  2
AmdtNoteStdISO
  3
"Amdt_StdImp|Product Description: AutoCAD Mechanical|Company: Autodesk"
 90
        0
280
     0
281
     0
  0
CLASS
  1
ACAMGHOLECHARTSTDISO
  2
AcAmgHoleChartStdISO
  3
ACMSYMBB_MODULE_NAME
 90
        0
280
     0
281
     0
  0
CLASS
  1
ACDBOPPOLYLINERES
  2
AcDbOpPolylineRes
  3
AcGrefServices
 90
    32768
280
     0
281
     0
  0
CLASS
  1
ACMSURFSYM
  2
AcmSurfaceTexture
  3
"AcmSymBB|Product Description: AutoCAD Mechanical|Company: Autodesk"
 90
    35839
280
     0
281
     1
  0
CLASS
  1
ACMWELDSYM
  2
AcmWelding
  3
"AcmSymBB|Product Description: AutoCAD Mechanical|Company: Autodesk"
 90
    35839
280
     0
281
     1
  0
CLASS
  1
STDPART2D
  2
AmgStdPart
  3
"g3vace|Class: AmgStdPart|Product Description: AutoCAD Mechanical|Company: Autodesk"
 90
    35839
280
     0
281
     1
  0
CLASS
  1
ACDBSTDPARTRES_LINE
  2
AcDbStdPartRes_Line
  3
"g3vace|Class: AcDbStdPartRes_Line|Product Description: AutoCAD Mechanical|Company: Autodesk"
 90
    32768
280
     0
281
     0
  0
CLASS
  1
ACDBSTDPARTRES_ARC
  2
AcDbStdPartRes_Arc
  3
"g3vace|Class: AcDbStdPartRes_Arc|Product Description: AutoCAD Mechanical|Company: Autodesk"
 90
    32768
280
     0
281
     0
  0
CLASS
  1
ACDBDIMENSIONRES
  2
AcDbDimensionRes
  3
L"AcDbDimensionRes|Product Description: AutoCAD Mechanical 2000|Company: Autodesk"
 90
    32768
280
     0
281
     0
  0
CLASS
  1
ACDBPOLYLINERES
  2
AcDbPolylineRes
  3
AcGrefServices
 90
    32768
280
     0
281
     0
  0
CLASS
  1
ACDBELLIPSERES
  2
AcDbEllipseRes
  3
AcGrefServices
 90
    32768
280
     0
281
     0
  0
CLASS
  1
ACMDIMBREAKPERSREACTOR
  2
AcmDimBreakPersReactor
  3
amgDimApp().moduleName()
 90
    35839
280
     0
281
     0
  0
CLASS
  1
AMDTACMWBLOCKBOMENTITY
  2
AmdtAcmWblockBomEntity
  3
"AcmSymBB|Product Description: AutoCAD Mechanical|Company: Autodesk"
 90
     3071
280
     0
281
     1
  0
CLASS
  1
ACMSTANDARDANSI
  2
AcmStandardANSI
  3
"Amdt_StdImp|Product Description: AutoCAD Mechanical|Company: Autodesk"
 90
    32768
280
     0
281
     0
  0
CLASS
  1
ACMSURFSTANDARDANSI
  2
AcmSurfTextStdANSI
  3
"Amdt_StdImp|Product Description: AutoCAD Mechanical|Company: Autodesk"
 90
    32768
280
     0
281
     0
  0
CLASS
  1
ACMFCFSTANDARDANSI
  2
AcmFCFStdANSI
  3
"Amdt_StdImp|Product Description: AutoCAD Mechanical|Company: Autodesk"
 90
    32768
280
     0
281
     0
  0
CLASS
  1
ACMWELDSTANDARDANSI
  2
AcmWeldingStdANSI
  3
"Amdt_StdImp|Product Description: AutoCAD Mechanical|Company: Autodesk"
 90
    32768
280
     0
281
     0
  0
CLASS
  1
ACMIDSTANDARDANSI
  2
AcmIdStdANSI
  3
"Amdt_StdImp|Product Description: AutoCAD Mechanical|Company: Autodesk"
 90
    32768
280
     0
281
     0
  0
CLASS
  1
ACMDATUMSTANDARDANSI
  2
AcmDatumStdANSI
  3
"Amdt_StdImp|Product Description: AutoCAD Mechanical|Company: Autodesk"
 90
    32768
280
     0
281
     0
  0
CLASS
  1
ACMBOMSTANDARDANSI
  2
AcmBOMStdANSI
  3
"Amdt_StdImp|Product Description: AutoCAD Mechanical|Company: Autodesk"
 90
    32768
280
     0
281
     0
  0
CLASS
  1
ACMDETAILSTANDARDANSI
  2
AmdtDetailSymStdANSI
  3
"Amdt_StdImp|Product Description: AutoCAD Mechanical|Company: Autodesk"
 90
    32768
280
     0
281
     0
  0
CLASS
  1
ACMSECTIONSTANDARDANSI
  2
AmdtSectionSymStdANSI
  3
"Amdt_StdImp|Product Description: AutoCAD Mechanical|Company: Autodesk"
 90
    32768
280
     0
281
     0
  0
CLASS
  1
ACMCENTERLINESTANDARDANSI
  2
AmdtCenterLineStdANSI
  3
"Amdt_StdImp|Product Description: AutoCAD Mechanical|Company: Autodesk"
 90
    32768
280
     0
281
     0
  0
CLASS
  1
ACMNOTESTANDARDANSI
  2
AmdtNoteStdANSI
  3
"Amdt_StdImp|Product Description: AutoCAD Mechanical|Company: Autodesk"
 90
    32768
280
     0
281
     0
  0
CLASS
  1
ACAMGHOLECHARTSTDANSI
  2
AcAmgHoleChartStdANSI
  3
ACMSYMBB_MODULE_NAME
 90
    32768
280
     0
281
     0
  0
CLASS
  1
ACMTHREADLINESTANDARDISO
  2
AmdtThreadLineStdISO
  3
"Amdt_StdImp|Product Description: AutoCAD Mechanical|Company: Autodesk"
 90
        0
280
     0
281
     0
  0
CLASS
  1
ACMTHREADLINESTANDARDANSI
  2
AmdtThreadLineStdANSI
  3
"Amdt_StdImp|Product Description: AutoCAD Mechanical|Company: Autodesk"
 90
    32768
280
     0
281
     0
  0
CLASS
  1
TABLESTYLE
  2
AcDbTableStyle
  3
ObjectDBX Classes
 90
     4095
280
     0
281
     0
  0
CLASS
  1
SORTENTSTABLE
  2
AcDbSortentsTable
  3
ObjectDBX Classes
 90
        0
280
     0
281
     0
  0
CLASS
  1
ACRFATTGENMGR
  2
AcRfAttGeneralMgr
  3
AcAttribServices
 90
    32768
280
     0
281
     0
  0
CLASS
  1
MATERIAL
  2
AcDbMaterial
  3
ObjectDBX Classes
 90
     1024
280
     0
281
     0
  0
CLASS
  1
VISUALSTYLE
  2
AcDbVisualStyle
  3
ObjectDBX Classes
 90
     4095
280
     0
281
     0
  0
CLASS
  1
AMDTNOTETEMPLATEDB
  2
AmdtNoteTemplateDB
  3
AMDT_STDIMP_MODULE_NAME
 90
        0
280
     0
281
     0
  0
CLASS
  1
ACMTAPERSTANDARDDIN
  2
AcmTaperStdDIN
  3
"Amdt_StdImp|Product Description: AutoCAD Mechanical|Company: Autodesk"
 90
        0
280
     0
281
     0
  0
CLASS
  1
ACMTAPERSTANDARDISO
  2
AcmTaperStdISO
  3
"Amdt_StdImp|Product Description: AutoCAD Mechanical|Company: Autodesk"
 90
        0
280
     0
281
     0
  0
ENDSEC
  0
SECTION
  2
TABLES
  0
TABLE
  2
VPORT
  5
1C
330
0
100
AcDbSymbolTable
 70
     1
  0
VPORT
  5
1820
330
1C
100
AcDbSymbolTableRecord
100
AcDbViewportTableRecord
  2
*Active
 70
     0
 10
0.0
 20
0.0
 11
1.0
 21
1.0
 12
2.121803609929187
 22
512.8800058959414
 13
-5403.981393923409
 23
2760.242742226442
 14
2.5
 24
2.5
 15
10.0
 25
10.0
 16
0.0
 26
0.0
 36
1.0
 17
279.8052631578947
 27
217.1011557610242
 37
0.0
 40
521.2947043712754
 41
1.599382080329557
 42
50.0
 43
0.0
 44
0.0
 50
0.0
 51
0.0
 71
     0
 72
  3000
 73
     1
 74
     2
 75
     0
 76
     0
 77
     0
 78
     0
281
     0
 65
     0
110
0.0
120
0.0
130
0.0
111
1.0
121
0.0
131
0.0
112
0.0
122
1.0
132
0.0
 79
     0
146
0.0
  0
ENDTAB
  0
TABLE
  2
LTYPE
  5
17
330
0
100
AcDbSymbolTable
 70
    18
  0
LTYPE
  5
18
330
17
100
AcDbSymbolTableRecord
100
AcDbLinetypeTableRecord
  2
ByBlock
 70
     0
  3

 72
    65
 73
     0
 40
0.0
  0
LTYPE
  5
19
330
17
100
AcDbSymbolTableRecord
100
AcDbLinetypeTableRecord
  2
ByLayer
 70
     0
  3

 72
    65
 73
     0
 40
0.0
  0
LTYPE
  5
A
330
17
100
AcDbSymbolTableRecord
100
AcDbLinetypeTableRecord
  2
Continuous
 70
     0
  3
Solid line
 72
    65
 73
     0
 40
0.0
  0
LTYPE
  5
394
330
17
100
AcDbSymbolTableRecord
100
AcDbLinetypeTableRecord
  2
Amconstr
 70
     0
  3
_______________________
 72
    65
 73
     2
 40
9999.0
 49
9999.0
 74
     0
 49
0.0
 74
     0
  0
LTYPE
  5
397
330
17
100
AcDbSymbolTableRecord
100
AcDbLinetypeTableRecord
  2
Amzigzag
 70
     0
  3
/\/-/\/-/\/-/\/-/\/-/\/
 72
    65
 73
     2
 40
11.0001
 49
0.0001
 74
     4
 75
   135
340
398
 46
0.04
 50
0.0
 44
0.0
 45
0.0
 49
-11.0
 74
     0
  0
LTYPE
  5
392
330
17
100
AcDbSymbolTableRecord
100
AcDbLinetypeTableRecord
  2
AM_DIN_F_W050
 70
     0
  3
__ __ __ __ __ __ __ __ __ __ __ __ __ __ __
 72
    65
 73
     2
 40
6.25
 49
4.75
 74
     0
 49
-1.5
 74
     0
  0
LTYPE
  5
D7
330
17
100
AcDbSymbolTableRecord
100
AcDbLinetypeTableRecord
  2
AM_DIN_G_W050
 70
     0
  3
____ . ____ . ____ . ____ . ____ . ____ . ____
 72
    65
 73
     4
 40
13.75
 49
9.75
 74
     0
 49
-1.5
 74
     0
 49
1.0
 74
     0
 49
-1.5
 74
     0
  0
LTYPE
  5
393
330
17
100
AcDbSymbolTableRecord
100
AcDbLinetypeTableRecord
  2
AM_DIN_K_W050
 70
     0
  3
_____ . . _____ . . _____ . . ____ .. ____
 72
    65
 73
     6
 40
16.25
 49
9.75
 74
     0
 49
-1.5
 74
     0
 49
1.0
 74
     0
 49
-1.5
 74
     0
 49
1.0
 74
     0
 49
-1.5
 74
     0
  0
LTYPE
  5
395
330
17
100
AcDbSymbolTableRecord
100
AcDbLinetypeTableRecord
  2
AM_DIN_G_W050x2
 70
     0
  3
__ . __ . __ . __ . __ . __
 72
    65
 73
     4
 40
6.875
 49
4.75
 74
     0
 49
-0.875
 74
     0
 49
0.375
 74
     0
 49
-0.875
 74
     0
  0
LTYPE
  5
396
330
17
100
AcDbSymbolTableRecord
100
AcDbLinetypeTableRecord
  2
AM_DIN_F_W050x2
 70
     0
  3
 _ _ _ _ _ _ _ _ _ _ _ _
 72
    65
 73
     2
 40
3.125
 49
2.25
 74
     0
 49
-0.875
 74
     0
  0
LTYPE
  5
3AB
330
17
100
AcDbSymbolTableRecord
100
AcDbLinetypeTableRecord
  2
ACDINWELD
 70
     0
  3
_ _ _ _ _
 72
    65
 73
     2
 40
2.0
 49
2.0
 74
     0
 49
-1.0
 74
     0
  0
LTYPE
  5
3AE
330
17
100
AcDbSymbolTableRecord
100
AcDbLinetypeTableRecord
  2
ACDINTGB
 70
     0
  3
__ . . __ . .
 72
    65
 73
     6
 40
9.0
 49
4.0
 74
     0
 49
-1.0
 74
     0
 49
1.0
 74
     0
 49
-1.0
 74
     0
 49
1.0
 74
     0
 49
-1.0
 74
     0
  0
LTYPE
  5
3AF
330
17
100
AcDbSymbolTableRecord
100
AcDbLinetypeTableRecord
  2
ACDINTGL
 70
     0
  3
_ _ _ _ _
 72
    65
 73
     2
 40
3.0
 49
2.0
 74
     0
 49
-1.0
 74
     0
  0
LTYPE
  5
3B3
330
17
100
AcDbSymbolTableRecord
100
AcDbLinetypeTableRecord
  2
CENTER
 70
     0
  3
__ . __
 72
    65
 73
     4
 40
7.0
 49
4.0
 74
     0
 49
-1.0
 74
     0
 49
1.0
 74
     0
 49
-1.0
 74
     0
  0
LTYPE
  5
3EC
330
17
100
AcDbSymbolTableRecord
100
AcDbLinetypeTableRecord
  2
HIDDEN
 70
     0
  3
Verdeckt
 72
    65
 73
     2
 40
9.525
 49
6.349999999999998
 74
     0
 49
-3.174999999999998
 74
     0
  0
LTYPE
  5
3ED
330
17
100
AcDbSymbolTableRecord
100
AcDbLinetypeTableRecord
  2
PHANTOM2
 70
     0
  3
Phantom (.5x) ___ _ _ ___ _ _ ___ _ _ ___ _ _
 72
    65
 73
     6
 40
31.75
 49
15.875
 74
     0
 49
-3.174999999999998
 74
     0
 49
3.174999999999998
 74
     0
 49
-3.174999999999998
 74
     0
 49
3.174999999999998
 74
     0
 49
-3.174999999999998
 74
     0
  0
LTYPE
  5
18E6
330
17
100
AcDbSymbolTableRecord
100
AcDbLinetypeTableRecord
  2
ACISOWELD
 70
     0
  3
_ _ _ _ _
 72
    65
 73
     2
 40
2.0
 49
2.0
 74
     0
 49
-1.0
 74
     0
  0
LTYPE
  5
18E9
330
17
100
AcDbSymbolTableRecord
100
AcDbLinetypeTableRecord
  2
ACISOTGB
 70
     0
  3
__ . . __ . .
 72
    65
 73
     6
 40
9.0
 49
4.0
 74
     0
 49
-1.0
 74
     0
 49
1.0
 74
     0
 49
-1.0
 74
     0
 49
1.0
 74
     0
 49
-1.0
 74
     0
  0
LTYPE
  5
18EA
330
17
100
AcDbSymbolTableRecord
100
AcDbLinetypeTableRecord
  2
ACISOTGL
 70
     0
  3
_ _ _ _ _
 72
    65
 73
     2
 40
3.0
 49
2.0
 74
     0
 49
-1.0
 74
     0
  0
ENDTAB
  0
TABLE
  2
LAYER
  5
13
330
0
100
AcDbSymbolTable
 70
     8
  0
LAYER
  5
6
330
13
100
AcDbSymbolTableRecord
100
AcDbLayerTableRecord
  2
0
 70
     0
 62
     7
  6
Continuous
370
    -3
390
7
  0
LAYER
  5
2A
330
13
100
AcDbSymbolTableRecord
100
AcDbLayerTableRecord
  2
AM_0
 70
     0
 62
     7
  6
Continuous
370
    50
390
7
  0
LAYER
  5
AE
330
13
100
AcDbSymbolTableRecord
100
AcDbLayerTableRecord
  2
AM_5
 70
     0
 62
     3
  6
Continuous
370
    25
390
7
  0
LAYER
  5
B9
330
13
100
AcDbSymbolTableRecord
100
AcDbLayerTableRecord
  2
DEFPOINTS
 70
     0
 62
     7
  6
Continuous
290
     0
370
    -3
390
7
  0
LAYER
  5
D6
330
13
100
AcDbSymbolTableRecord
100
AcDbLayerTableRecord
  2
AM_7
 70
     0
 62
     4
  6
AM_DIN_G_W050
370
    -3
390
7
  0
LAYER
  5
A4
330
13
100
AcDbSymbolTableRecord
100
AcDbLayerTableRecord
  2
AM_4
 70
     0
 62
     3
  6
Continuous
370
    25
390
7
  0
LAYER
  5
14A
330
13
100
AcDbSymbolTableRecord
100
AcDbLayerTableRecord
  2
AM_6
 70
     0
 62
     2
  6
Continuous
370
    35
390
7
  0
ENDTAB
  0
TABLE
  2
STYLE
  5
14
330
0
100
AcDbSymbolTable
 70
     8
  0
STYLE
  5
15
330
14
100
AcDbSymbolTableRecord
100
AcDbTextStyleTableRecord
  2
STANDARD
 70
     0
 40
0.0
 41
1.0
 50
0.0
 71
     0
 42
50.0
  3
ISOCP.SHX
  4

  0
STYLE
  5
398
330
14
100
AcDbSymbolTableRecord
100
AcDbTextStyleTableRecord
  2

 70
     1
 40
0.0
 41
1.0
 50
0.0
 71
     0
 42
2.5
  3
ltypeshp.shx
  4

  0
STYLE
  5
3A5
330
14
100
AcDbSymbolTableRecord
100
AcDbTextStyleTableRecord
  2
ACDINTS
 70
     0
 40
1.0
 41
1.0
 50
0.0
 71
     0
 42
2.5
  3
isocp.shx
  4

  0
STYLE
  5
3A9
330
14
100
AcDbSymbolTableRecord
100
AcDbTextStyleTableRecord
  2
ACDINGDT
 70
     0
 40
0.0
 41
1.0
 50
0.0
 71
     0
 42
2.5
  3
amgdt.shx
  4

  0
STYLE
  5
18E0
330
14
100
AcDbSymbolTableRecord
100
AcDbTextStyleTableRecord
  2
ACISOTS
 70
     0
 40
1.0
 41
1.0
 50
0.0
 71
     0
 42
2.5
  3
isocp.shx
  4

  0
STYLE
  5
18E4
330
14
100
AcDbSymbolTableRecord
100
AcDbTextStyleTableRecord
  2
ACISOGDT
 70
     0
 40
0.0
 41
1.0
 50
0.0
 71
     0
 42
2.5
  3
amgdt.shx
  4

  0
ENDTAB
  0
TABLE
  2
VIEW
  5
1A
330
0
100
AcDbSymbolTable
 70
     1
  0
VIEW
  5
E
330
1A
100
AcDbSymbolTableRecord
100
AcDbViewTableRecord
  2
AM_VIEW6
 70
     0
 40
445.2348449999998
 10
-57.81839965789473
 20
2.893714738975816
 41
848.9782729999998
 11
0.0
 21
0.0
 31
1.0
 12
279.8052631578947
 22
217.1011557610242
 32
0.0
 42
50.0
 43
0.0
 44
0.0
 50
0.0
 71
     0
281
     0
 72
     0
  0
ENDTAB
  0
TABLE
  2
UCS
  5
1B
330
0
100
AcDbSymbolTable
 70
     0
  0
ENDTAB
  0
TABLE
  2
APPID
  5
1E
330
0
100
AcDbSymbolTable
 70
    74
  0
APPID
  5
1F
330
1E
100
AcDbSymbolTableRecord
100
AcDbRegAppTableRecord
  2
ACAD
 70
     0
  0
APPID
  5
37
330
1E
100
AcDbSymbolTableRecord
100
AcDbRegAppTableRecord
  2
GENIUS_GENODEF_13
 70
     0
  0
APPID
  5
38
330
1E
100
AcDbSymbolTableRecord
100
AcDbRegAppTableRecord
  2
GENIUS_GENOBJ-N-FIL_13
 70
     0
  0
APPID
  5
7C
330
1E
100
AcDbSymbolTableRecord
100
AcDbRegAppTableRecord
  2
GENIUS_GENREC_14
 70
     0
  0
APPID
  5
7D
330
1E
100
AcDbSymbolTableRecord
100
AcDbRegAppTableRecord
  2
GENIUS_GENOBJ-N-REC_13
 70
     0
  0
APPID
  5
D8
330
1E
100
AcDbSymbolTableRecord
100
AcDbRegAppTableRecord
  2
GENIUS_GENOBJ-N-CEN_13
 70
     0
  0
APPID
  5
3FF
330
1E
100
AcDbSymbolTableRecord
100
AcDbRegAppTableRecord
  2
MCAD_NO_VIS
 70
     0
  0
APPID
  5
400
330
1E
100
AcDbSymbolTableRecord
100
AcDbRegAppTableRecord
  2
ACAD_TEMP_GRAPHIC
 70
     0
  0
APPID
  5
409
330
1E
100
AcDbSymbolTableRecord
100
AcDbRegAppTableRecord
  2
AD_DRAW
 70
     0
  0
APPID
  5
40C
330
1E
100
AcDbSymbolTableRecord
100
AcDbRegAppTableRecord
  2
ACATTRIBSERVICES
 70
     0
  0
APPID
  5
424
330
1E
100
AcDbSymbolTableRecord
100
AcDbRegAppTableRecord
  2
DESIGNERASSEMBLIES
 70
     0
  0
APPID
  5
42B
330
1E
100
AcDbSymbolTableRecord
100
AcDbRegAppTableRecord
  2
ACADM_DIM_EDIT
 70
     0
  0
APPID
  5
42C
330
1E
100
AcDbSymbolTableRecord
100
AcDbRegAppTableRecord
  2
AMDT_DM_ADJ
 70
     0
  0
APPID
  5
4DB
330
1E
100
AcDbSymbolTableRecord
100
AcDbRegAppTableRecord
  2
GENIUS_GENDTOL_13
 70
     0
  0
APPID
  5
4DC
330
1E
100
AcDbSymbolTableRecord
100
AcDbRegAppTableRecord
  2
GENIUS_GENOBJ-N-HTC_13
 70
     0
  0
APPID
  5
4DD
330
1E
100
AcDbSymbolTableRecord
100
AcDbRegAppTableRecord
  2
GENIUS_GENHATCH_13
 70
     0
  0
APPID
  5
983
330
1E
100
AcDbSymbolTableRecord
100
AcDbRegAppTableRecord
  2
GENIUS_GENTRA_14
 70
     0
  0
APPID
  5
FBD
330
1E
100
AcDbSymbolTableRecord
100
AcDbRegAppTableRecord
  2
GENIUS_GENOBJ-N-ZOO_13
 70
     0
  0
APPID
  5
FBE
330
1E
100
AcDbSymbolTableRecord
100
AcDbRegAppTableRecord
  2
GENIUS_GENZOO_16
 70
     0
  0
APPID
  5
1841
330
1E
100
AcDbSymbolTableRecord
100
AcDbRegAppTableRecord
  2
GENIUS_GENDIM_13
 70
     0
  0
APPID
  5
1842
330
1E
100
AcDbSymbolTableRecord
100
AcDbRegAppTableRecord
  2
GENIUS_GE3DTOL_13
 70
     0
  0
APPID
  5
1843
330
1E
100
AcDbSymbolTableRecord
100
AcDbRegAppTableRecord
  2
ASURF_PCURVE_APPNAME
 70
     0
  0
APPID
  5
1844
330
1E
100
AcDbSymbolTableRecord
100
AcDbRegAppTableRecord
  2
AMG_3D2D_5.0
 70
     0
  0
APPID
  5
1845
330
1E
100
AcDbSymbolTableRecord
100
AcDbRegAppTableRecord
  2
GENIUS_GENCFG_13
 70
     0
  0
APPID
  5
1846
330
1E
100
AcDbSymbolTableRecord
100
AcDbRegAppTableRecord
  2
GENIUS_GEVCFG0_13
 70
     0
  0
APPID
  5
1847
330
1E
100
AcDbSymbolTableRecord
100
AcDbRegAppTableRecord
  2
GENIUS_GENCFG0_13
 70
     0
  0
APPID
  5
1848
330
1E
100
AcDbSymbolTableRecord
100
AcDbRegAppTableRecord
  2
GENIUS_GENCFG1_13
 70
     0
  0
APPID
  5
1849
330
1E
100
AcDbSymbolTableRecord
100
AcDbRegAppTableRecord
  2
GENIUS_GENCFG2_13
 70
     0
  0
APPID
  5
184A
330
1E
100
AcDbSymbolTableRecord
100
AcDbRegAppTableRecord
  2
GENIUS_GENCFG3_13
 70
     0
  0
APPID
  5
184B
330
1E
100
AcDbSymbolTableRecord
100
AcDbRegAppTableRecord
  2
GENIUS_GENCFG4_13
 70
     0
  0
APPID
  5
184C
330
1E
100
AcDbSymbolTableRecord
100
AcDbRegAppTableRecord
  2
GENIUS_GEFCFG0_13
 70
     0
  0
APPID
  5
184D
330
1E
100
AcDbSymbolTableRecord
100
AcDbRegAppTableRecord
  2
GENIUS_GENBLKED_14
 70
     0
  0
APPID
  5
184E
330
1E
100
AcDbSymbolTableRecord
100
AcDbRegAppTableRecord
  2
GENIUS_GENBLLY_14
 70
     0
  0
APPID
  5
184F
330
1E
100
AcDbSymbolTableRecord
100
AcDbRegAppTableRecord
  2
GENIUS_GENOBJ-N-TIT_13
 70
     0
  0
APPID
  5
1850
330
1E
100
AcDbSymbolTableRecord
100
AcDbRegAppTableRecord
  2
GENIUS_GENTITLE_13
 70
     0
  0
APPID
  5
1851
330
1E
100
AcDbSymbolTableRecord
100
AcDbRegAppTableRecord
  2
GENIUS_GENOENT_13
 70
     0
  0
APPID
  5
1852
330
1E
100
AcDbSymbolTableRecord
100
AcDbRegAppTableRecord
  2
GENIUS_GENOREF_13
 70
     0
  0
APPID
  5
1853
330
1E
100
AcDbSymbolTableRecord
100
AcDbRegAppTableRecord
  2
GENIUS_GENOLIS_13
 70
     0
  0
APPID
  5
1854
330
1E
100
AcDbSymbolTableRecord
100
AcDbRegAppTableRecord
  2
GENIUS_GENZVEED_13
 70
     0
  0
APPID
  5
1855
330
1E
100
AcDbSymbolTableRecord
100
AcDbRegAppTableRecord
  2
GENIUS_GENOBJ-N-SDF_13
 70
     0
  0
APPID
  5
1856
330
1E
100
AcDbSymbolTableRecord
100
AcDbRegAppTableRecord
  2
GENIUS_GENSCREG_13
 70
     0
  0
APPID
  5
1857
330
1E
100
AcDbSymbolTableRecord
100
AcDbRegAppTableRecord
  2
GENIUS_GENSCREG_15
 70
     0
  0
APPID
  5
1858
330
1E
100
AcDbSymbolTableRecord
100
AcDbRegAppTableRecord
  2
DCO15
 70
     0
  0
APPID
  5
1859
330
1E
100
AcDbSymbolTableRecord
100
AcDbRegAppTableRecord
  2
GENIUS_GENBH_13
 70
     0
  0
APPID
  5
185A
330
1E
100
AcDbSymbolTableRecord
100
AcDbRegAppTableRecord
  2
GENIUS_GENOBJ-NBEHI-BHB_13
 70
     0
  0
APPID
  5
185B
330
1E
100
AcDbSymbolTableRecord
100
AcDbRegAppTableRecord
  2
GENIUS_GENHINW_13
 70
     0
  0
APPID
  5
185C
330
1E
100
AcDbSymbolTableRecord
100
AcDbRegAppTableRecord
  2
GENIUS_FIRSTVISTXT_14
 70
     0
  0
APPID
  5
185D
330
1E
100
AcDbSymbolTableRecord
100
AcDbRegAppTableRecord
  2
GENIUS_GENOBJ-N-LEADER_13
 70
     0
  0
APPID
  5
185E
330
1E
100
AcDbSymbolTableRecord
100
AcDbRegAppTableRecord
  2
GENIUS_SECONDVISTXT_14
 70
     0
  0
APPID
  5
185F
330
1E
100
AcDbSymbolTableRecord
100
AcDbRegAppTableRecord
  2
GENIUS_GENOBJ-N-HINW_13
 70
     0
  0
APPID
  5
1860
330
1E
100
AcDbSymbolTableRecord
100
AcDbRegAppTableRecord
  2
GENIUS_GEFWELD_13
 70
     0
  0
APPID
  5
1861
330
1E
100
AcDbSymbolTableRecord
100
AcDbRegAppTableRecord
  2
GENIUS_GENOBJ-F-WEL_13
 70
     0
  0
APPID
  5
1862
330
1E
100
AcDbSymbolTableRecord
100
AcDbRegAppTableRecord
  2
GENIUS_GENOBJ-NBEHI-BHF_13
 70
     0
  0
APPID
  5
1863
330
1E
100
AcDbSymbolTableRecord
100
AcDbRegAppTableRecord
  2
GENIUS_GENOBJ-F-SCPASSM_13
 70
     0
  0
APPID
  5
1864
330
1E
100
AcDbSymbolTableRecord
100
AcDbRegAppTableRecord
  2
GENIUS_GENIUS_GENBHEDTMP_13
 70
     0
  0
APPID
  5
1865
330
1E
100
AcDbSymbolTableRecord
100
AcDbRegAppTableRecord
  2
GEVID1032351709
 70
     0
  0
APPID
  5
1866
330
1E
100
AcDbSymbolTableRecord
100
AcDbRegAppTableRecord
  2
GEVDC
 70
     0
  0
APPID
  5
1867
330
1E
100
AcDbSymbolTableRecord
100
AcDbRegAppTableRecord
  2
GENIUS_GENDIMSH_14
 70
     0
  0
APPID
  5
1868
330
1E
100
AcDbSymbolTableRecord
100
AcDbRegAppTableRecord
  2
GEVID980252217
 70
     0
  0
APPID
  5
1869
330
1E
100
AcDbSymbolTableRecord
100
AcDbRegAppTableRecord
  2
GEVPT
 70
     0
  0
APPID
  5
186A
330
1E
100
AcDbSymbolTableRecord
100
AcDbRegAppTableRecord
  2
GEVIT
 70
     0
  0
APPID
  5
186B
330
1E
100
AcDbSymbolTableRecord
100
AcDbRegAppTableRecord
  2
VCC
 70
     0
  0
APPID
  5
186C
330
1E
100
AcDbSymbolTableRecord
100
AcDbRegAppTableRecord
  2
GENIUS_GENOBJ-F-PART_13
 70
     0
  0
APPID
  5
186D
330
1E
100
AcDbSymbolTableRecord
100
AcDbRegAppTableRecord
  2
GENIUS_GEFSTDP_13
 70
     0
  0
APPID
  5
186E
330
1E
100
AcDbSymbolTableRecord
100
AcDbRegAppTableRecord
  2
GENIUS_GEFPARTINS_13
 70
     0
  0
APPID
  5
186F
330
1E
100
AcDbSymbolTableRecord
100
AcDbRegAppTableRecord
  2
GEVID980252219
 70
     0
  0
APPID
  5
1870
330
1E
100
AcDbSymbolTableRecord
100
AcDbRegAppTableRecord
  2
GENBH
 70
     0
  0
APPID
  5
1871
330
1E
100
AcDbSymbolTableRecord
100
AcDbRegAppTableRecord
  2
GENIUS_GENOBJ-F-WELS_13
 70
     0
  0
APPID
  5
1872
330
1E
100
AcDbSymbolTableRecord
100
AcDbRegAppTableRecord
  2
GENIUS_GENOBJ-N-CRS_13
 70
     0
  0
APPID
  5
1873
330
1E
100
AcDbSymbolTableRecord
100
AcDbRegAppTableRecord
  2
GEVID1036052968
 70
     0
  0
APPID
  5
1874
330
1E
100
AcDbSymbolTableRecord
100
AcDbRegAppTableRecord
  2
GEVID1036052969
 70
     0
  0
APPID
  5
1875
330
1E
100
AcDbSymbolTableRecord
100
AcDbRegAppTableRecord
  2
GEVID1036052971
 70
     0
  0
APPID
  5
1876
330
1E
100
AcDbSymbolTableRecord
100
AcDbRegAppTableRecord
  2
GENIUS_GENOBJ-N-DIM_13
 70
     0
  0
APPID
  5
1929
330
1E
100
AcDbSymbolTableRecord
100
AcDbRegAppTableRecord
  2
ACAD_EXEMPT_FROM_CAD_STANDARDS
 70
     0
  0
ENDTAB
  0
TABLE
  2
DIMSTYLE
  5
20
330
0
100
AcDbSymbolTable
 70
    18
100
AcDbDimStyleTable
 71
     1
340
21
  0
DIMSTYLE
105
21
102
{ACAD_REACTORS
330
D98
330
15C5
330
15C6
330
15C7
102
}
330
20
100
AcDbSymbolTableRecord
100
AcDbDimStyleTableRecord
  2
AM_DIN
 70
     0
  4
"
 41
2.5
 42
0.0
 43
10.0
 44
1.0
 47
0.1
 48
0.1
 73
     0
 74
     0
 77
     1
 78
     8
 79
     2
140
3.0
141
0.0
143
0.0393701
146
0.71
147
0.7
172
     1
176
   256
177
   256
178
     2
271
     2
272
     2
283
     0
284
     8
340
15
371
    -1
372
    -1
  0
DIMSTYLE
105
3B9
330
20
100
AcDbSymbolTableRecord
100
AcDbDimStyleTableRecord
  2
AM_DIN$3
 70
     0
  4
"
 41
2.5
 42
1.0
 43
10.0
 44
1.0
 47
0.1
 48
0.1
 73
     0
 77
     1
 78
     8
 79
     2
140
3.5
141
0.0
143
0.0393701
146
0.71
147
1.5
176
   256
177
   256
178
     2
271
     2
272
     3
274
     4
283
     0
284
     8
288
     1
289
     0
340
15
371
    -1
372
    -1
  0
DIMSTYLE
105
3BA
330
20
100
AcDbSymbolTableRecord
100
AcDbDimStyleTableRecord
  2
AM_DIN$4
 70
     0
  4
"
 41
2.5
 42
1.0
 43
10.0
 44
1.0
 47
0.1
 48
0.1
 73
     0
 77
     1
 78
     8
 79
     2
140
3.5
141
0.0
143
0.0393701
146
0.71
147
1.5
176
   256
177
   256
178
     2
271
     2
272
     3
279
     1
283
     0
284
     8
288
     1
289
     0
340
15
371
    -1
372
    -1
  0
DIMSTYLE
105
3BB
330
20
100
AcDbSymbolTableRecord
100
AcDbDimStyleTableRecord
  2
AM_DIN$6
 70
     0
  4
"
 41
2.5
 42
1.0
 43
10.0
 44
1.0
 47
0.1
 48
0.1
 73
     0
 74
     0
 78
     8
 79
     2
140
3.5
141
0.0
143
0.0393701
146
0.71
147
1.5
172
     1
176
   256
177
   256
178
     2
271
     2
272
     3
283
     0
284
     8
340
15
371
    -1
372
    -1
  0
DIMSTYLE
105
3BC
330
20
100
AcDbSymbolTableRecord
100
AcDbDimStyleTableRecord
  2
AM_DIN$7
 70
     0
  4
"
 41
2.5
 42
1.0
 43
10.0
 44
1.0
 47
0.1
 48
0.1
 73
     0
 74
     0
 77
     1
 78
     8
 79
     2
140
5.0
141
0.0
143
0.0393701
146
0.71
147
1.5
172
     1
176
   256
177
   256
178
     2
271
     2
272
     3
274
     4
283
     0
284
     8
340
15
371
    -1
372
    -1
  0
DIMSTYLE
105
3BD
330
20
100
AcDbSymbolTableRecord
100
AcDbDimStyleTableRecord
  2
AM_DIN$SF
 70
     0
  4
"
 41
2.5
 42
1.0
 43
10.0
 44
1.0
 47
0.1
 48
0.1
 73
     0
 74
     0
 75
     1
 76
     1
 77
     1
 78
     8
 79
     2
140
3.5
141
0.0
143
0.0393701
146
0.71
147
1.5
172
     1
176
   256
177
   256
178
     2
271
     2
272
     3
274
     4
283
     0
284
     8
340
15
371
    -1
372
    -1
  0
DIMSTYLE
105
3BE
330
20
100
AcDbSymbolTableRecord
100
AcDbDimStyleTableRecord
  2
AM_DIN$SH
 70
     0
  4
"
 41
2.5
 42
1.0
 43
10.0
 44
1.0
 47
0.1
 48
0.1
 73
     0
 74
     0
 75
     1
 76
     1
 77
     1
 78
     8
 79
     2
140
3.5
141
0.0
143
0.0393701
144
2.0
146
0.71
147
1.5
172
     1
173
     1
176
   256
177
   256
178
     2
271
     2
272
     3
274
     4
283
     0
284
     8
340
15
343
3BF
371
    -1
372
    -1
  0
DIMSTYLE
105
18F2
330
20
100
AcDbSymbolTableRecord
100
AcDbDimStyleTableRecord
  2
AM_ISO
 70
     0
  4
"
 41
2.5
 42
1.0
 43
10.0
 44
1.0
 47
0.1
 48
0.1
 73
     0
 74
     0
 77
     1
 78
     8
 79
     2
140
3.5
141
0.0
143
0.0393701
146
0.71
147
1.5
172
     1
176
   256
177
   256
178
     2
271
     2
272
     3
274
     4
283
     0
284
     8
340
15
371
    -1
372
    -1
  0
DIMSTYLE
105
18F3
330
20
100
AcDbSymbolTableRecord
100
AcDbDimStyleTableRecord
  2
AM_ISO$3
 70
     0
  4
"
 41
2.5
 42
1.0
 43
10.0
 44
1.0
 47
0.1
 48
0.1
 73
     0
 77
     1
 78
     8
 79
     2
140
3.5
141
0.0
143
0.0393701
146
0.71
147
1.5
176
   256
177
   256
178
     2
271
     2
272
     3
274
     4
283
     0
284
     8
288
     1
289
     0
340
15
371
    -1
372
    -1
  0
DIMSTYLE
105
18F4
330
20
100
AcDbSymbolTableRecord
100
AcDbDimStyleTableRecord
  2
AM_ISO$4
 70
     0
  4
"
 41
2.5
 42
1.0
 43
10.0
 44
1.0
 47
0.1
 48
0.1
 73
     0
 77
     1
 78
     8
 79
     2
140
3.5
141
0.0
143
0.0393701
146
0.71
147
1.5
176
   256
177
   256
178
     2
271
     2
272
     3
274
     4
283
     0
284
     8
288
     1
289
     0
340
15
371
    -1
372
    -1
  0
DIMSTYLE
105
18F5
330
20
100
AcDbSymbolTableRecord
100
AcDbDimStyleTableRecord
  2
AM_ISO$6
 70
     0
  4
"
 41
2.5
 42
1.0
 43
10.0
 44
1.0
 47
0.1
 48
0.1
 73
     0
 74
     0
 78
     8
 79
     2
140
3.5
141
0.0
143
0.0393701
146
0.71
147
1.5
172
     1
176
   256
177
   256
178
     2
271
     2
272
     3
274
     4
283
     0
284
     8
340
15
371
    -1
372
    -1
  0
DIMSTYLE
105
18F6
330
20
100
AcDbSymbolTableRecord
100
AcDbDimStyleTableRecord
  2
AM_ISO$7
 70
     0
  4
"
 41
2.5
 42
1.0
 43
10.0
 44
1.0
 47
0.1
 48
0.1
 73
     0
 74
     0
 77
     1
 78
     8
 79
     2
140
5.0
141
0.0
143
0.0393701
146
0.71
147
1.5
172
     1
176
   256
177
   256
178
     2
271
     2
272
     3
274
     4
283
     0
284
     8
340
15
371
    -1
372
    -1
  0
DIMSTYLE
105
18F7
330
20
100
AcDbSymbolTableRecord
100
AcDbDimStyleTableRecord
  2
AM_ISO$SF
 70
     0
  4
"
 41
2.5
 42
1.0
 43
10.0
 44
1.0
 47
0.1
 48
0.1
 73
     0
 74
     0
 75
     1
 76
     1
 77
     1
 78
     8
 79
     2
140
3.5
141
0.0
143
0.0393701
146
0.71
147
1.5
172
     1
176
   256
177
   256
178
     2
271
     2
272
     3
274
     4
283
     0
284
     8
340
15
371
    -1
372
    -1
  0
DIMSTYLE
105
18F8
330
20
100
AcDbSymbolTableRecord
100
AcDbDimStyleTableRecord
  2
AM_ISO$SH
 70
     0
  4
"
 41
2.5
 42
1.0
 43
10.0
 44
1.0
 47
0.1
 48
0.1
 73
     0
 74
     0
 75
     1
 76
     1
 77
     1
 78
     8
 79
     2
140
3.5
141
0.0
143
0.0393701
144
2.0
146
0.71
147
1.5
172
     1
173
     1
176
   256
177
   256
178
     2
271
     2
272
     3
274
     4
283
     0
284
     8
340
15
343
3BF
371
    -1
372
    -1
  0
ENDTAB
  0
TABLE
  2
BLOCK_RECORD
  5
1
330
0
100
AcDbSymbolTable
 70
     9
  0
BLOCK_RECORD
  5
2
102
{ACAD_XDICTIONARY
360
3
102
}
330
1
100
AcDbSymbolTableRecord
100
AcDbBlockTableRecord
  2
*Model_Space
340
C
  0
BLOCK_RECORD
  5
F
330
1
100
AcDbSymbolTableRecord
100
AcDbBlockTableRecord
  2
*Paper_Space
340
12
  0
BLOCK_RECORD
  5
3BF
330
1
100
AcDbSymbolTableRecord
100
AcDbBlockTableRecord
  2
GENAXEH
340
0
  0
BLOCK_RECORD
  5
E92
330
1
100
AcDbSymbolTableRecord
100
AcDbBlockTableRecord
  2
*D1
340
0
  0
BLOCK_RECORD
  5
177D
330
1
100
AcDbSymbolTableRecord
100
AcDbBlockTableRecord
  2
*D2
340
0
  0
BLOCK_RECORD
  5
1789
330
1
100
AcDbSymbolTableRecord
100
AcDbBlockTableRecord
  2
*D3
340
0
  0
BLOCK_RECORD
  5
1795
330
1
100
AcDbSymbolTableRecord
100
AcDbBlockTableRecord
  2
*D4
340
0
  0
ENDTAB
  0
ENDSEC
  0
SECTION
  2
BLOCKS
  0
BLOCK
  5
5
330
2
100
AcDbEntity
  8
0
100
AcDbBlockBegin
  2
*Model_Space
 70
     0
 10
0.0
 20
0.0
 30
0.0
  3
*Model_Space
  1

  0
ENDBLK
  5
B
330
2
100
AcDbEntity
  8
0
100
AcDbBlockEnd
  0
BLOCK
  5
10
330
F
100
AcDbEntity
 67
     1
  8
0
100
AcDbBlockBegin
  2
*Paper_Space
 70
     0
 10
0.0
 20
0.0
 30
0.0
  3
*Paper_Space
  1

  0
ENDBLK
  5
11
330
F
100
AcDbEntity
 67
     1
  8
0
100
AcDbBlockEnd
  0
BLOCK
  5
18D4
330
3BF
100
AcDbEntity
  8
0
100
AcDbBlockBegin
  2
GENAXEH
 70
     0
 10
0.0
 20
0.0
 30
0.0
  3
GENAXEH
  1

  0
LINE
  5
18D5
330
3BF
100
AcDbEntity
  8
0
100
AcDbLine
 10
-1.0
 20
0.0
 30
0.0
 11
1.0
 21
0.0
 31
0.0
  0
ENDBLK
  5
18D6
330
3BF
100
AcDbEntity
  8
0
100
AcDbBlockEnd
  0
BLOCK
  5
E9D
330
E92
100
AcDbEntity
  8
0
100
AcDbBlockBegin
  2
*D1
 70
     1
 10
0.0
 20
0.0
 30
0.0
  3
*D1
  1

  0
LINE
  5
17EA
330
E92
100
AcDbEntity
  8
AM_5
100
AcDbLine
 10
163.3057344530633
 20
498.5519175548425
 30
0.0
 11
163.3057344530633
 21
470.9765935460787
 31
0.0
  0
LINE
  5
17EB
330
E92
100
AcDbEntity
  8
AM_5
100
AcDbLine
 10
189.7457344530629
 20
498.5519175548425
 30
0.0
 11
189.7457344530629
 21
470.9765935460787
 31
0.0
  0
LINE
  5
17EC
330
E92
100
AcDbEntity
  8
AM_5
100
AcDbLine
 10
168.3057344530633
 20
472.9765935460788
 30
0.0
 11
184.7457344530629
 21
472.9765935460788
 31
0.0
  0
LINE
  5
17ED
330
E92
100
AcDbEntity
  8
AM_5
100
AcDbLine
 10
189.7457344530629
 20
472.9765935460788
 30
0.0
 11
246.7457344530629
 21
472.9765935460788
 31
0.0
  0
SOLID
  5
17EE
330
E92
100
AcDbEntity
  8
AM_5
100
AcDbTrace
 10
168.3057344530633
 20
473.8099268794122
 30
0.0
 11
168.3057344530633
 21
472.1432602127453
 31
0.0
 12
163.3057344530633
 22
472.9765935460788
 32
0.0
 13
163.3057344530633
 23
472.9765935460788
 33
0.0
  0
SOLID
  5
17EF
330
E92
100
AcDbEntity
  8
AM_5
100
AcDbTrace
 10
184.7457344530629
 20
473.8099268794122
 30
0.0
 11
184.7457344530629
 21
472.1432602127453
 31
0.0
 12
189.7457344530629
 22
472.9765935460788
 32
0.0
 13
189.7457344530629
 23
472.9765935460788
 33
0.0
  0
MTEXT
  5
17F0
330
E92
100
AcDbEntity
  8
AM_5
 62
     2
100
AcDbMText
 10
220.745734453063
 20
477.3872537178585
 30
0.0
 40
6.0
 41
0.0
 71
     5
 72
     1
  1
ISO 228-G 3/4
 73
     1
 44
1.0
1001
ACAD
1000
MTEXTBEGIN
1070
    73
1070
     1
1070
    44
1040
1.0
1070
    74
1070
     0
1000
MTEXTEND
  0
POINT
  5
17F1
330
E92
100
AcDbEntity
  8
DEFPOINTS
 62
     0
100
AcDbPoint
 10
163.3057344530633
 20
498.5519175548425
 30
0.0
  0
POINT
  5
17F2
330
E92
100
AcDbEntity
  8
DEFPOINTS
 62
     0
100
AcDbPoint
 10
189.7457344530629
 20
498.5519175548425
 30
0.0
  0
POINT
  5
17F3
330
E92
100
AcDbEntity
  8
DEFPOINTS
 62
     0
100
AcDbPoint
 10
189.7457344530629
 20
472.9765935460788
 30
0.0
  0
ENDBLK
  5
E9E
330
E92
100
AcDbEntity
  8
0
100
AcDbBlockEnd
  0
BLOCK
  5
1787
330
177D
100
AcDbEntity
  8
0
100
AcDbBlockBegin
  2
*D2
 70
     1
 10
0.0
 20
0.0
 30
0.0
  3
*D2
  1

  0
LINE
  5
17F4
330
177D
100
AcDbEntity
  8
AM_5
100
AcDbLine
 10
175.9972875578791
 20
988.986584751591
 30
0.0
 11
-16.31049626660621
 21
988.986584751591
 31
0.0
  0
LINE
  5
17F5
330
177D
100
AcDbEntity
  8
AM_5
100
AcDbLine
 10
188.211148532005
 20
489.6329046937186
 30
0.0
 11
-16.31049626660632
 21
489.6329046937187
 31
0.0
  0
LINE
  5
17F6
330
177D
100
AcDbEntity
  8
AM_5
100
AcDbLine
 10
-14.31049626660621
 20
983.9865847515907
 30
0.0
 11
-14.31049626660631
 21
494.6329046937187
 31
0.0
  0
SOLID
  5
17F7
330
177D
100
AcDbEntity
  8
AM_5
100
AcDbTrace
 10
-15.14382959993954
 20
983.9865847515907
 30
0.0
 11
-13.47716293327287
 21
983.9865847515907
 31
0.0
 12
-14.3104962666062
 22
988.986584751591
 32
0.0
 13
-14.3104962666062
 23
988.986584751591
 33
0.0
  0
SOLID
  5
17F8
330
177D
100
AcDbEntity
  8
AM_5
100
AcDbTrace
 10
-15.14382959993965
 20
494.6329046937187
 30
0.0
 11
-13.47716293327298
 21
494.6329046937187
 31
0.0
 12
-14.31049626660632
 22
489.6329046937187
 32
0.0
 13
-14.31049626660632
 23
489.6329046937187
 33
0.0
  0
MTEXT
  5
17F9
330
177D
100
AcDbEntity
  8
AM_5
 62
     2
100
AcDbMText
 10
-18.71049626660638
 20
795.9979002069752
 30
0.0
 40
6.0
 41
0.0
 71
     5
 72
     1
  1
499 {}{\C2;%%p5}
 11
0.0000000000000001
 21
1.0
 31
0.0
 73
     1
 44
1.0
1001
ACAD
1000
MTEXTBEGIN
1070
    73
1070
     1
1070
    44
1040
1.0
1070
    74
1070
     0
1000
MTEXTEND
  0
POINT
  5
17FA
330
177D
100
AcDbEntity
  8
DEFPOINTS
 62
     0
100
AcDbPoint
 10
175.9972875578791
 20
988.986584751591
 30
0.0
  0
POINT
  5
17FB
330
177D
100
AcDbEntity
  8
DEFPOINTS
 62
     0
100
AcDbPoint
 10
188.211148532005
 20
489.6329046937186
 30
0.0
  0
POINT
  5
17FC
330
177D
100
AcDbEntity
  8
DEFPOINTS
 62
     0
100
AcDbPoint
 10
-14.31049626660632
 20
489.6329046937187
 30
0.0
  0
ENDBLK
  5
1788
330
177D
100
AcDbEntity
  8
0
100
AcDbBlockEnd
  0
BLOCK
  5
1793
330
1789
100
AcDbEntity
  8
0
100
AcDbBlockBegin
  2
*D3
 70
     1
 10
0.0
 20
0.0
 30
0.0
  3
*D3
  1

  0
LINE
  5
191F
330
1789
100
AcDbEntity
  8
AM_5
100
AcDbLine
 10
36.52573445306422
 20
855.2172913417342
 30
0.0
 11
36.52573445306422
 21
857.2172913417343
 31
0.0
  0
LINE
  5
1920
330
1789
100
AcDbEntity
  8
AM_5
100
AcDbLine
 10
316.5257344530642
 20
855.2172913417342
 30
0.0
 11
316.5257344530642
 21
857.2172913417343
 31
0.0
  0
LINE
  5
1921
330
1789
100
AcDbEntity
  8
AM_5
100
AcDbLine
 10
41.52573445306422
 20
855.2172913417342
 30
0.0
 11
311.5257344530641
 21
855.2172913417342
 31
0.0
  0
SOLID
  5
1922
330
1789
100
AcDbEntity
  8
AM_5
100
AcDbTrace
 10
41.52573445306422
 20
856.0506246750676
 30
0.0
 11
41.52573445306422
 21
854.3839580084009
 31
0.0
 12
36.52573445306422
 22
855.2172913417342
 32
0.0
 13
36.52573445306422
 23
855.2172913417342
 33
0.0
  0
SOLID
  5
1923
330
1789
100
AcDbEntity
  8
AM_5
100
AcDbTrace
 10
311.5257344530641
 20
856.0506246750676
 30
0.0
 11
311.5257344530641
 21
854.3839580084009
 31
0.0
 12
316.5257344530642
 22
855.2172913417342
 32
0.0
 13
316.5257344530642
 23
855.2172913417342
 33
0.0
  0
MTEXT
  5
1924
330
1789
100
AcDbEntity
  8
AM_5
 62
     2
100
AcDbMText
 10
120.9702680287224
 20
859.6178818929153
 30
0.0
 40
6.0
 41
0.0
 71
     5
 72
     1
  1
%%c280
 73
     1
 44
1.0
1001
ACAD
1000
MTEXTBEGIN
1070
    73
1070
     1
1070
    44
1040
1.0
1070
    74
1070
     0
1000
MTEXTEND
  0
POINT
  5
1925
330
1789
100
AcDbEntity
  8
DEFPOINTS
 62
     0
100
AcDbPoint
 10
36.52573445306422
 20
855.2172913417342
 30
0.0
  0
POINT
  5
1926
330
1789
100
AcDbEntity
  8
DEFPOINTS
 62
     0
100
AcDbPoint
 10
316.5257344530642
 20
855.2172913417342
 30
0.0
  0
POINT
  5
1927
330
1789
100
AcDbEntity
  8
DEFPOINTS
 62
     0
100
AcDbPoint
 10
316.5257344530642
 20
855.2172913417342
 30
0.0
  0
ENDBLK
  5
1794
330
1789
100
AcDbEntity
  8
0
100
AcDbBlockEnd
  0
BLOCK
  5
179F
330
1795
100
AcDbEntity
  8
0
100
AcDbBlockBegin
  2
*D4
 70
     1
 10
0.0
 20
0.0
 30
0.0
  3
*D4
  1

  0
LINE
  5
1806
330
1795
100
AcDbEntity
  8
AM_5
100
AcDbLine
 10
133.9904808314044
 20
514.2831118371772
 30
0.0
 11
7.346383605523683
 21
514.2831118371772
 31
0.0
  0
LINE
  5
1807
330
1795
100
AcDbEntity
  8
AM_5
100
AcDbLine
 10
169.5613447526433
 20
962.1691195753726
 30
0.0
 11
7.34638360552377
 21
962.1691195753726
 31
0.0
  0
LINE
  5
1808
330
1795
100
AcDbEntity
  8
AM_5
100
AcDbLine
 10
9.346383605523683
 20
519.2831118371773
 30
0.0
 11
9.346383605523783
 21
957.1691195753727
 31
0.0
  0
SOLID
  5
1809
330
1795
100
AcDbEntity
  8
AM_5
100
AcDbTrace
 10
8.513050272190351
 20
519.2831118371773
 30
0.0
 11
10.17971693885702
 21
519.2831118371773
 31
0.0
 12
9.346383605523683
 22
514.2831118371772
 32
0.0
 13
9.346383605523683
 23
514.2831118371772
 33
0.0
  0
SOLID
  5
180A
330
1795
100
AcDbEntity
  8
AM_5
100
AcDbTrace
 10
8.513050272190449
 20
957.1691195753727
 30
0.0
 11
10.17971693885711
 21
957.1691195753727
 31
0.0
 12
9.346383605523783
 22
962.1691195753726
 32
0.0
 13
9.346383605523783
 23
962.1691195753726
 33
0.0
  0
MTEXT
  5
180B
330
1795
100
AcDbEntity
  8
AM_5
 62
     2
100
AcDbMText
 10
4.946383605523615
 20
738.226115706275
 30
0.0
 40
6.0
 41
0.0
 71
     5
 72
     1
  1
448 {}{\C2;%%p3}
 11
0.0000000000000001
 21
1.0
 31
0.0
 73
     1
 44
1.0
1001
ACAD
1000
MTEXTBEGIN
1070
    73
1070
     1
1070
    44
1040
1.0
1070
    74
1070
     0
1000
MTEXTEND
  0
POINT
  5
180C
330
1795
100
AcDbEntity
  8
DEFPOINTS
 62
     0
100
AcDbPoint
 10
133.9904808314044
 20
514.2831118371772
 30
0.0
  0
POINT
  5
180D
330
1795
100
AcDbEntity
  8
DEFPOINTS
 62
     0
100
AcDbPoint
 10
169.5613447526433
 20
962.1691195753726
 30
0.0
  0
POINT
  5
180E
330
1795
100
AcDbEntity
  8
DEFPOINTS
 62
     0
100
AcDbPoint
 10
9.346383605523783
 20
962.1691195753726
 30
0.0
  0
ENDBLK
  5
17A0
330
1795
100
AcDbEntity
  8
0
100
AcDbBlockEnd
  0
ENDSEC
  0
SECTION
  2
ENTITIES
  0
LINE
  5
DA
330
2
100
AcDbEntity
  8
AM_7
100
AcDbLine
 10
462.0586032768883
 20
695.3361604559325
 30
0.0
 11
462.0586032768883
 21
597.8361604559323
 31
0.0
  0
LINE
  5
DB
330
2
100
AcDbEntity
  8
AM_7
100
AcDbLine
 10
510.8086032768882
 20
646.5861604559323
 30
0.0
 11
413.3086032768883
 21
646.5861604559323
 31
0.0
  0
TEXT
  5
DC
330
2
100
AcDbEntity
  8
AM_0
100
AcDbText
 10
482.6662422856093
 20
693.8315598026226
 30
0.0
 40
6.0
  1
Ansicht Y
100
AcDbText
  0
ARC
  5
DD
330
2
100
AcDbEntity
  8
AM_0
100
AcDbCircle
 10
471.1213461096508
 20
652.8204761639488
 30
0.0
 40
0.5
100
AcDbArc
 50
134.9999999999816
 51
214.5243183036213
1001
GENIUS_GENODEF_13
1002
{
1000
HIER
1070
     0
1002
}
1002
{
1000
MANEDIT
1070
     0
1002
}
1002
{
1000
NOSEL
1070
     0
1002
}
1002
{
1000
BEHIND
1070
     0
1002
}
1002
{
1000
REACTOR
1002
}
1001
GENIUS_GENOBJ-N-FIL_13
1002
{
1000
OWNER
1000
GEN
1002
}
  0
ARC
  5
DE
330
2
100
AcDbEntity
  8
AM_0
100
AcDbCircle
 10
470.7956540180289
 20
653.9089976347002
 30
0.0
 40
0.5
100
AcDbArc
 50
314.9999999999816
 51
39.96758650449111
1001
GENIUS_GENODEF_13
1002
{
1000
HIER
1070
     0
1002
}
1002
{
1000
MANEDIT
1070
     0
1002
}
1002
{
1000
NOSEL
1070
     0
1002
}
1002
{
1000
BEHIND
1070
     0
1002
}
1002
{
1000
REACTOR
1002
}
1001
GENIUS_GENOBJ-N-FIL_13
1002
{
1000
OWNER
1000
GEN
1002
}
  0
LINE
  5
DF
330
2
100
AcDbEntity
  8
AM_0
100
AcDbLine
 10
470.4677326770182
 20
652.8739695125025
 30
0.0
 11
471.1492074086222
 21
653.5554442441068
 31
0.0
  0
ARC
  5
E0
330
2
100
AcDbEntity
  8
AM_0
100
AcDbCircle
 10
462.0586032768883
 20
646.5861604559323
 30
0.0
 40
9.9
100
AcDbArc
 50
37.23178237611068
 51
51.73972325596603
  0
ARC
  5
E1
330
2
100
AcDbEntity
  8
AM_0
100
AcDbCircle
 10
462.0586032768883
 20
646.5861604559323
 30
0.0
 40
10.05
100
AcDbArc
 50
37.34842550162968
 51
51.63867430242146
  0
LINE
  5
E2
330
2
100
AcDbEntity
  8
AM_0
100
AcDbLine
 10
468.9453323166885
 20
655.1160031830034
 30
0.0
 11
470.7130992696551
 21
653.3482362300373
 31
0.0
  0
ARC
  5
E3
330
2
100
AcDbEntity
  8
AM_0
100
AcDbCircle
 10
462.0586032768883
 20
646.5861604559323
 30
0.0
 40
10.05
100
AcDbArc
 50
82.89860346108119
 51
97.18829522215731
  0
ARC
  5
E4
330
2
100
AcDbEntity
  8
AM_0
100
AcDbCircle
 10
462.0586032768883
 20
646.5861604559323
 30
0.0
 40
9.9
100
AcDbArc
 50
82.79043939252966
 51
97.29779710635805
  0
LINE
  5
E5
330
2
100
AcDbEntity
  8
AM_0
100
AcDbLine
 10
460.8010412001198
 20
657.4539451134681
 30
0.0
 11
463.3010412001199
 21
657.4539451134681
 31
0.0
  0
LINE
  5
E6
330
2
100
AcDbEntity
  8
AM_0
100
AcDbLine
 10
452.9679991451543
 20
653.5554442441068
 30
0.0
 11
453.6494738767592
 21
652.8739695125025
 31
0.0
  0
ARC
  5
E7
330
2
100
AcDbEntity
  8
AM_0
100
AcDbCircle
 10
452.9958604441258
 20
652.8204761639488
 30
0.0
 40
0.5
100
AcDbArc
 50
325.4756816963787
 51
45.00000000001842
1001
GENIUS_GENODEF_13
1002
{
1000
HIER
1070
     0
1002
}
1002
{
1000
MANEDIT
1070
     0
1002
}
1002
{
1000
NOSEL
1070
     0
1002
}
1002
{
1000
BEHIND
1070
     0
1002
}
1002
{
1000
REACTOR
1002
}
1001
GENIUS_GENOBJ-N-FIL_13
1002
{
1000
OWNER
1000
GEN
1002
}
  0
ARC
  5
E8
330
2
100
AcDbEntity
  8
AM_0
100
AcDbCircle
 10
453.3215525357485
 20
653.9089976347002
 30
0.0
 40
0.5
100
AcDbArc
 50
140.0324134955089
 51
225.0000000000184
1001
GENIUS_GENODEF_13
1002
{
1000
HIER
1070
     0
1002
}
1002
{
1000
MANEDIT
1070
     0
1002
}
1002
{
1000
NOSEL
1070
     0
1002
}
1002
{
1000
BEHIND
1070
     0
1002
}
1002
{
1000
REACTOR
1002
}
1001
GENIUS_GENOBJ-N-FIL_13
1002
{
1000
OWNER
1000
GEN
1002
}
  0
ARC
  5
E9
330
2
100
AcDbEntity
  8
AM_0
100
AcDbCircle
 10
462.0586032768883
 20
646.5861604559323
 30
0.0
 40
9.9
100
AcDbArc
 50
128.3225967221485
 51
142.83068882227
  0
ARC
  5
EA
330
2
100
AcDbEntity
  8
AM_0
100
AcDbCircle
 10
462.0586032768883
 20
646.5861604559323
 30
0.0
 40
10.05
100
AcDbArc
 50
128.4227029481157
 51
142.7130961940401
  0
LINE
  5
EB
330
2
100
AcDbEntity
  8
AM_0
100
AcDbLine
 10
453.3889831305846
 20
653.3482362300373
 30
0.0
 11
455.1567500835512
 21
655.1160031830034
 31
0.0
  0
ARC
  5
EC
330
2
100
AcDbEntity
  8
AM_0
100
AcDbCircle
 10
462.0586032768883
 20
646.5861604559323
 30
0.0
 40
11.89999999999999
100
AcDbArc
 50
39.96758650449111
 51
140.0324134955089
  0
ARC
  5
ED
330
2
100
AcDbEntity
  8
AM_0
100
AcDbCircle
 10
462.0586032768883
 20
646.5861604559323
 30
0.0
 40
10.05
100
AcDbArc
 50
352.094833338462
 51
6.385783707882474
  0
ARC
  5
EE
330
2
100
AcDbEntity
  8
AM_0
100
AcDbCircle
 10
462.0586032768883
 20
646.5861604559323
 30
0.0
 40
9.9
100
AcDbArc
 50
351.974274537491
 51
6.482949894126956
  0
LINE
  5
EF
330
2
100
AcDbEntity
  8
AM_0
100
AcDbLine
 10
473.0510412001199
 20
647.7039451134681
 30
0.0
 11
473.0510412001199
 21
645.2039451134679
 31
0.0
  0
ARC
  5
F0
330
2
100
AcDbEntity
  8
AM_0
100
AcDbCircle
 10
462.0586032768883
 20
646.5861604559323
 30
0.0
 40
11.89999999999999
100
AcDbArc
 50
354.9675865044938
 51
5.032413495506061
  0
ARC
  5
F1
330
2
100
AcDbEntity
  8
AM_0
100
AcDbCircle
 10
473.4146589301513
 20
645.5861604559324
 30
0.0
 40
0.5
100
AcDbArc
 50
270.0
 51
354.9675865044938
1001
GENIUS_GENODEF_13
1002
{
1000
HIER
1070
     0
1002
}
1002
{
1000
MANEDIT
1070
     0
1002
}
1002
{
1000
NOSEL
1070
     0
1002
}
1002
{
1000
BEHIND
1070
     0
1002
}
1002
{
1000
REACTOR
1002
}
1001
GENIUS_GENOBJ-N-FIL_13
1002
{
1000
OWNER
1000
GEN
1002
}
  0
LINE
  5
F2
330
2
100
AcDbEntity
  8
AM_0
100
AcDbLine
 10
472.4509081223017
 20
645.0861604559328
 30
0.0
 11
473.4146589301513
 21
645.0861604559325
 31
0.0
  0
ARC
  5
F3
330
2
100
AcDbEntity
  8
AM_0
100
AcDbCircle
 10
472.8752571032805
 20
644.5861604559325
 30
0.0
 40
0.5
100
AcDbArc
 50
90.0
 51
169.5243183036205
1001
GENIUS_GENODEF_13
1002
{
1000
HIER
1070
     0
1002
}
1002
{
1000
MANEDIT
1070
     0
1002
}
1002
{
1000
NOSEL
1070
     0
1002
}
1002
{
1000
BEHIND
1070
     0
1002
}
1002
{
1000
REACTOR
1002
}
1001
GENIUS_GENOBJ-N-FIL_13
1002
{
1000
OWNER
1000
GEN
1002
}
  0
ARC
  5
F4
330
2
100
AcDbEntity
  8
AM_0
100
AcDbCircle
 10
473.4146589301513
 20
647.5861604559325
 30
0.0
 40
0.5
100
AcDbArc
 50
5.032413495506061
 51
90.0
1001
GENIUS_GENODEF_13
1002
{
1000
HIER
1070
     0
1002
}
1002
{
1000
MANEDIT
1070
     0
1002
}
1002
{
1000
NOSEL
1070
     0
1002
}
1002
{
1000
BEHIND
1070
     0
1002
}
1002
{
1000
REACTOR
1002
}
1001
GENIUS_GENOBJ-N-FIL_13
1002
{
1000
OWNER
1000
GEN
1002
}
  0
LINE
  5
F5
330
2
100
AcDbEntity
  8
AM_0
100
AcDbLine
 10
472.4509081223017
 20
648.0861604559328
 30
0.0
 11
473.4146589301513
 21
648.0861604559325
 31
0.0
  0
ARC
  5
F6
330
2
100
AcDbEntity
  8
AM_0
100
AcDbCircle
 10
472.8752571032805
 20
648.5861604559325
 30
0.0
 40
0.5
100
AcDbArc
 50
190.4756816963794
 51
270.0
1001
GENIUS_GENODEF_13
1002
{
1000
HIER
1070
     0
1002
}
1002
{
1000
MANEDIT
1070
     0
1002
}
1002
{
1000
NOSEL
1070
     0
1002
}
1002
{
1000
BEHIND
1070
     0
1002
}
1002
{
1000
REACTOR
1002
}
1001
GENIUS_GENOBJ-N-FIL_13
1002
{
1000
OWNER
1000
GEN
1002
}
  0
LINE
  5
F7
330
2
100
AcDbEntity
  8
AM_0
100
AcDbLine
 10
465.0688081530866
 20
645.2039451134679
 30
0.0
 11
473.0218136072184
 21
645.2039451134679
 31
0.0
  0
LINE
  5
F8
330
2
100
AcDbEntity
  8
AM_0
100
AcDbLine
 10
465.0688081530866
 20
647.7039451134681
 30
0.0
 11
473.0519220414556
 21
647.7039451134681
 31
0.0
  0
ARC
  5
F9
330
2
100
AcDbEntity
  8
AM_0
100
AcDbCircle
 10
471.1213461096508
 20
640.3518447479166
 30
0.0
 40
0.5
100
AcDbArc
 50
145.4756816963787
 51
225.0000000000184
1001
GENIUS_GENODEF_13
1002
{
1000
HIER
1070
     0
1002
}
1002
{
1000
MANEDIT
1070
     0
1002
}
1002
{
1000
NOSEL
1070
     0
1002
}
1002
{
1000
BEHIND
1070
     0
1002
}
1002
{
1000
REACTOR
1002
}
1001
GENIUS_GENOBJ-N-FIL_13
1002
{
1000
OWNER
1000
GEN
1002
}
  0
ARC
  5
FA
330
2
100
AcDbEntity
  8
AM_0
100
AcDbCircle
 10
470.7956540180289
 20
639.2633232771652
 30
0.0
 40
0.5
100
AcDbArc
 50
320.0324134955089
 51
45.00000000001842
1001
GENIUS_GENODEF_13
1002
{
1000
HIER
1070
     0
1002
}
1002
{
1000
MANEDIT
1070
     0
1002
}
1002
{
1000
NOSEL
1070
     0
1002
}
1002
{
1000
BEHIND
1070
     0
1002
}
1002
{
1000
REACTOR
1002
}
1001
GENIUS_GENOBJ-N-FIL_13
1002
{
1000
OWNER
1000
GEN
1002
}
  0
LINE
  5
FB
330
2
100
AcDbEntity
  8
AM_0
100
AcDbLine
 10
470.4677326770182
 20
640.2983513993627
 30
0.0
 11
471.1492074086222
 21
639.6168766677584
 31
0.0
  0
ARC
  5
FC
330
2
100
AcDbEntity
  8
AM_0
100
AcDbCircle
 10
462.0586032768883
 20
646.5861604559323
 30
0.0
 40
9.9
100
AcDbArc
 50
307.1693111777298
 51
321.6774032778515
  0
ARC
  5
FD
330
2
100
AcDbEntity
  8
AM_0
100
AcDbCircle
 10
462.0586032768883
 20
646.5861604559323
 30
0.0
 40
10.05
100
AcDbArc
 50
307.2869038059599
 51
321.5772970518843
  0
LINE
  5
FE
330
2
100
AcDbEntity
  8
AM_0
100
AcDbLine
 10
470.7130992696551
 20
639.5596539968993
 30
0.0
 11
468.9453323166885
 21
637.7918870439327
 31
0.0
  0
LINE
  5
FF
330
2
100
AcDbEntity
  8
AM_0
100
AcDbLine
 10
465.0688081530866
 20
645.2039451134679
 30
0.0
 11
470.6436122967028
 21
639.6291409698517
 31
0.0
  0
ARC
  5
100
330
2
100
AcDbEntity
  8
AM_0
100
AcDbCircle
 10
462.0586032768883
 20
646.5861604559323
 30
0.0
 40
10.5
100
AcDbArc
 50
323.2132107017195
 51
351.7867892982498
  0
LINE
  5
101
330
2
100
AcDbEntity
  8
AM_0
100
AcDbLine
 10
463.3010412001199
 20
643.4361781605018
 30
0.0
 11
463.3010412001199
 21
635.6062311297976
 31
0.0
  0
LINE
  5
102
330
2
100
AcDbEntity
  8
AM_0
100
AcDbLine
 10
460.8010412001198
 20
643.4361781605018
 30
0.0
 11
460.8010412001198
 21
635.6079530602293
 31
0.0
  0
ARC
  5
103
330
2
100
AcDbEntity
  8
AM_0
100
AcDbCircle
 10
462.0586032768883
 20
646.5861604559323
 30
0.0
 40
10.05
100
AcDbArc
 50
262.8117047778427
 51
277.1013965389188
  0
ARC
  5
104
330
2
100
AcDbEntity
  8
AM_0
100
AcDbCircle
 10
462.0586032768883
 20
646.5861604559323
 30
0.0
 40
9.9
100
AcDbArc
 50
262.702202893642
 51
277.2095606074703
  0
LINE
  5
105
330
2
100
AcDbEntity
  8
AM_0
100
AcDbLine
 10
463.3010412001199
 20
635.4539451134679
 30
0.0
 11
460.8010412001198
 21
635.4539451134679
 31
0.0
  0
ARC
  5
106
330
2
100
AcDbEntity
  8
AM_0
100
AcDbCircle
 10
462.0586032768883
 20
646.5861604559323
 30
0.0
 40
10.05
100
AcDbArc
 50
218.3613256975785
 51
232.6515744984074
  0
ARC
  5
107
330
2
100
AcDbEntity
  8
AM_0
100
AcDbCircle
 10
462.0586032768883
 20
646.5861604559323
 30
0.0
 40
9.9
100
AcDbArc
 50
218.2602767440131
 51
232.7682176238893
  0
LINE
  5
108
330
2
100
AcDbEntity
  8
AM_0
100
AcDbLine
 10
455.1567500835512
 20
637.7918870439327
 30
0.0
 11
453.3889831305846
 21
639.5596539968993
 31
0.0
  0
LINE
  5
109
330
2
100
AcDbEntity
  8
AM_0
100
AcDbLine
 10
452.9679991451543
 20
639.6168766677584
 30
0.0
 11
453.6494738767592
 21
640.2983513993627
 31
0.0
  0
ARC
  5
10A
330
2
100
AcDbEntity
  8
AM_0
100
AcDbCircle
 10
453.3215525357485
 20
639.2633232771652
 30
0.0
 40
0.5
100
AcDbArc
 50
134.9999999999816
 51
219.9675865044911
1001
GENIUS_GENODEF_13
1002
{
1000
HIER
1070
     0
1002
}
1002
{
1000
MANEDIT
1070
     0
1002
}
1002
{
1000
NOSEL
1070
     0
1002
}
1002
{
1000
BEHIND
1070
     0
1002
}
1002
{
1000
REACTOR
1002
}
1001
GENIUS_GENOBJ-N-FIL_13
1002
{
1000
OWNER
1000
GEN
1002
}
  0
ARC
  5
10B
330
2
100
AcDbEntity
  8
AM_0
100
AcDbCircle
 10
452.9958604441258
 20
640.3518447479166
 30
0.0
 40
0.5
100
AcDbArc
 50
314.9999999999816
 51
34.52431830362133
1001
GENIUS_GENODEF_13
1002
{
1000
HIER
1070
     0
1002
}
1002
{
1000
MANEDIT
1070
     0
1002
}
1002
{
1000
NOSEL
1070
     0
1002
}
1002
{
1000
BEHIND
1070
     0
1002
}
1002
{
1000
REACTOR
1002
}
1001
GENIUS_GENOBJ-N-FIL_13
1002
{
1000
OWNER
1000
GEN
1002
}
  0
LINE
  5
10C
330
2
100
AcDbEntity
  8
AM_0
100
AcDbLine
 10
460.8010412001198
 20
643.4361781605018
 30
0.0
 11
455.2487875721185
 21
637.8839245325004
 31
0.0
  0
LINE
  5
10D
330
2
100
AcDbEntity
  8
AM_0
100
AcDbLine
 10
459.0332742471531
 20
645.2039451134679
 30
0.0
 11
453.4668280095107
 21
639.6374988758249
 31
0.0
  0
CIRCLE
  5
10E
330
2
100
AcDbEntity
  8
AM_0
100
AcDbCircle
 10
462.0586032768883
 20
646.5861604559323
 30
0.0
 40
3.25
  0
LINE
  5
10F
330
2
100
AcDbEntity
  8
AM_0
100
AcDbLine
 10
463.3010412001199
 20
643.4361781605018
 30
0.0
 11
468.8599306141362
 21
637.8772887464854
 31
0.0
  0
ARC
  5
110
330
2
100
AcDbEntity
  8
AM_0
100
AcDbCircle
 10
462.0586032768883
 20
646.5861604559323
 30
0.0
 40
11.89999999999999
100
AcDbArc
 50
219.9675865044911
 51
320.0324134955089
  0
ARC
  5
111
330
2
100
AcDbEntity
  8
AM_0
100
AcDbCircle
 10
462.0586032768883
 20
646.5861604559323
 30
0.0
 40
11.89999999999999
100
AcDbArc
 50
174.9675865044939
 51
185.032413495506
  0
LINE
  5
112
330
2
100
AcDbEntity
  8
AM_0
100
AcDbLine
 10
451.0510412001198
 20
645.2039451134679
 30
0.0
 11
451.0510412001198
 21
647.7039451134681
 31
0.0
  0
ARC
  5
113
330
2
100
AcDbEntity
  8
AM_0
100
AcDbCircle
 10
462.0586032768883
 20
646.5861604559323
 30
0.0
 40
10.05
100
AcDbArc
 50
173.6142162921175
 51
187.9051666615381
  0
ARC
  5
114
330
2
100
AcDbEntity
  8
AM_0
100
AcDbCircle
 10
462.0586032768883
 20
646.5861604559323
 30
0.0
 40
9.9
100
AcDbArc
 50
173.517050105873
 51
188.0257254625082
  0
ARC
  5
115
330
2
100
AcDbEntity
  8
AM_0
100
AcDbCircle
 10
451.241949450496
 20
644.5861604559325
 30
0.0
 40
0.5
100
AcDbArc
 50
10.47568169637944
 51
90.0
1001
GENIUS_GENODEF_13
1002
{
1000
HIER
1070
     0
1002
}
1002
{
1000
MANEDIT
1070
     0
1002
}
1002
{
1000
NOSEL
1070
     0
1002
}
1002
{
1000
BEHIND
1070
     0
1002
}
1002
{
1000
REACTOR
1002
}
1001
GENIUS_GENOBJ-N-FIL_13
1002
{
1000
OWNER
1000
GEN
1002
}
  0
LINE
  5
116
330
2
100
AcDbEntity
  8
AM_0
100
AcDbLine
 10
450.7025476236253
 20
645.0861604559325
 30
0.0
 11
451.6662984314756
 21
645.0861604559328
 31
0.0
  0
ARC
  5
117
330
2
100
AcDbEntity
  8
AM_0
100
AcDbCircle
 10
450.7025476236253
 20
645.5861604559324
 30
0.0
 40
0.5
100
AcDbArc
 50
185.032413495506
 51
270.0
1001
GENIUS_GENODEF_13
1002
{
1000
HIER
1070
     0
1002
}
1002
{
1000
MANEDIT
1070
     0
1002
}
1002
{
1000
NOSEL
1070
     0
1002
}
1002
{
1000
BEHIND
1070
     0
1002
}
1002
{
1000
REACTOR
1002
}
1001
GENIUS_GENOBJ-N-FIL_13
1002
{
1000
OWNER
1000
GEN
1002
}
  0
ARC
  5
118
330
2
100
AcDbEntity
  8
AM_0
100
AcDbCircle
 10
451.241949450496
 20
648.5861604559325
 30
0.0
 40
0.5
100
AcDbArc
 50
270.0
 51
349.5243183036205
1001
GENIUS_GENODEF_13
1002
{
1000
HIER
1070
     0
1002
}
1002
{
1000
MANEDIT
1070
     0
1002
}
1002
{
1000
NOSEL
1070
     0
1002
}
1002
{
1000
BEHIND
1070
     0
1002
}
1002
{
1000
REACTOR
1002
}
1001
GENIUS_GENOBJ-N-FIL_13
1002
{
1000
OWNER
1000
GEN
1002
}
  0
LINE
  5
119
330
2
100
AcDbEntity
  8
AM_0
100
AcDbLine
 10
450.7025476236253
 20
648.0861604559325
 30
0.0
 11
451.6662984314756
 21
648.0861604559328
 31
0.0
  0
ARC
  5
11A
330
2
100
AcDbEntity
  8
AM_0
100
AcDbCircle
 10
450.7025476236253
 20
647.5861604559325
 30
0.0
 40
0.5
100
AcDbArc
 50
90.0
 51
174.9675865044939
1001
GENIUS_GENODEF_13
1002
{
1000
HIER
1070
     0
1002
}
1002
{
1000
MANEDIT
1070
     0
1002
}
1002
{
1000
NOSEL
1070
     0
1002
}
1002
{
1000
BEHIND
1070
     0
1002
}
1002
{
1000
REACTOR
1002
}
1001
GENIUS_GENOBJ-N-FIL_13
1002
{
1000
OWNER
1000
GEN
1002
}
  0
ARC
  5
11B
330
2
100
AcDbEntity
  8
AM_0
100
AcDbCircle
 10
462.0586032768883
 20
646.5861604559323
 30
0.0
 40
10.5
100
AcDbArc
 50
188.2132107017501
 51
216.7867892982805
  0
LINE
  5
11C
330
2
100
AcDbEntity
  8
AM_0
100
AcDbLine
 10
459.0332742471531
 20
645.2039451134679
 30
0.0
 11
451.0953929465581
 21
645.2039451134679
 31
0.0
  0
LINE
  5
11D
330
2
100
AcDbEntity
  8
AM_0
100
AcDbLine
 10
459.0332742471531
 20
647.7039451134681
 30
0.0
 11
451.0652845123217
 21
647.7039451134681
 31
0.0
  0
CIRCLE
  5
11E
330
2
100
AcDbEntity
  8
AM_0
100
AcDbCircle
 10
462.0586032768883
 20
646.5861604559323
 30
0.0
 40
30.5
  0
CIRCLE
  5
11F
330
2
100
AcDbEntity
  8
AM_0
100
AcDbCircle
 10
462.0586032768883
 20
646.5861604559323
 30
0.0
 40
11.05
  0
CIRCLE
  5
120
330
2
100
AcDbEntity
  8
AM_0
100
AcDbCircle
 10
462.0586032768883
 20
646.5861604559323
 30
0.0
 40
11.06378007031087
  0
CIRCLE
  5
121
330
2
100
AcDbEntity
  8
AM_0
100
AcDbCircle
 10
462.0586032768883
 20
646.5861604559323
 30
0.0
 40
11.2183595565167
  0
CIRCLE
  5
122
330
2
100
AcDbEntity
  8
AM_0
100
AcDbCircle
 10
462.0586032768883
 20
646.5861604559323
 30
0.0
 40
13.22
  0
ARC
  5
123
330
2
100
AcDbEntity
  8
AM_4
100
AcDbCircle
 10
462.0586032768883
 20
646.5861604559323
 30
0.0
 40
12.22868355035245
100
AcDbArc
 50
117.6001690583654
 51
108.1824097904022
  0
ARC
  5
124
330
2
100
AcDbEntity
  8
AM_0
100
AcDbCircle
 10
462.0586032768883
 20
646.5861604559323
 30
0.0
 40
10.5
100
AcDbArc
 50
143.2132107017195
 51
171.7867892982497
  0
LINE
  5
125
330
2
100
AcDbEntity
  8
AM_0
100
AcDbLine
 10
463.3010412001199
 20
649.5893001474748
 30
0.0
 11
463.3010412001199
 21
657.5660897820672
 31
0.0
  0
LINE
  5
126
330
2
100
AcDbEntity
  8
AM_0
100
AcDbLine
 10
460.8010412001198
 20
649.5829983933377
 30
0.0
 11
460.8010412001198
 21
657.5643678516359
 31
0.0
  0
LINE
  5
127
330
2
100
AcDbEntity
  8
AM_0
100
AcDbLine
 10
460.7234906663738
 20
649.5492626001803
 30
0.0
 11
455.1015837908074
 21
655.1711694757466
 31
0.0
  0
LINE
  5
128
330
2
100
AcDbEntity
  8
AM_0
100
AcDbLine
 10
459.0332742471531
 20
647.7039451134681
 30
0.0
 11
453.3497315674416
 21
653.38748779318
 31
0.0
  0
LINE
  5
129
330
2
100
AcDbEntity
  8
AM_0
100
AcDbLine
 10
463.3832743691159
 20
649.5539452354302
 30
0.0
 11
469.0072648569961
 21
655.1779357233109
 31
0.0
  0
LINE
  5
12A
330
2
100
AcDbEntity
  8
AM_0
100
AcDbLine
 10
465.0688081530866
 20
647.7039451134681
 30
0.0
 11
470.7608392003208
 21
653.3959761607027
 31
0.0
  0
ARC
  5
12B
330
2
100
AcDbEntity
  8
AM_0
100
AcDbCircle
 10
462.0586032768883
 20
646.5861604559323
 30
0.0
 40
10.5
100
AcDbArc
 50
8.21321070175024
 51
36.78678929828052
  0
CIRCLE
  5
12C
330
2
100
AcDbEntity
  8
AM_0
100
AcDbCircle
 10
462.0586032768883
 20
646.5861604559323
 30
0.0
 40
43.74999999999992
  0
CIRCLE
  5
12D
330
2
100
AcDbEntity
  8
AM_4
100
AcDbCircle
 10
462.0586032768883
 20
646.5861604559323
 30
0.0
 40
37.26794919243094
  0
CIRCLE
  5
12E
330
2
100
AcDbEntity
  8
AM_4
100
AcDbCircle
 10
462.0586032768883
 20
646.5861604559323
 30
0.0
 40
39.73205080756871
  0
TEXT
  5
149
330
2
100
AcDbEntity
  8
AM_6
100
AcDbText
 10
504.9077688344649
 20
492.6553249040498
 30
0.0
 40
6.0
  1
D- 59227 Ahlen
 72
     1
 11
532.6269828860707
 21
492.6553249040498
 31
0.0
100
AcDbText
  0
TEXT
  5
14B
330
2
100
AcDbEntity
  8
AM_6
100
AcDbText
 10
478.9349358860707
 20
501.0731139040498
 30
0.0
 40
6.0
  1
Reflex Winkelmann GmbH+Co.KG
 41
0.95
 72
     1
 11
532.5291858860707
 21
501.0731139040498
 31
0.0
100
AcDbText
  0
TEXT
  5
14C
330
2
100
AcDbEntity
  8
0
100
AcDbText
 10
375.5463298860703
 20
485.9014237079975
 30
0.0
 40
10.0
  1
10bar  - 120°C
 72
     1
 11
417.0463298860703
 21
482.9014237079975
 31
0.0
100
AcDbText
 73
     1
  0
TEXT
  5
14D
330
2
100
AcDbEntity
  8
0
100
AcDbText
 10
343.8659998001804
 20
523.9014237079975
 30
0.0
 40
10.0
  1
Druckausdehnungsgefäß
 72
     1
 11
417.0463298860703
 21
520.9014237079975
 31
0.0
100
AcDbText
 73
     1
  0
TEXT
  5
14E
330
2
100
AcDbEntity
  8
0
100
AcDbText
 10
368.5463298860704
 20
504.9014237079975
 30
0.0
 40
10.0
  1
Typ reflex S 25l
 72
     1
 11
417.0463298860703
 21
501.9014237079976
 31
0.0
100
AcDbText
 73
     1
  0
HATCH
  5
14F
330
2
100
AcDbEntity
  8
AM_4
100
AcDbHatch
 10
0.0
 20
0.0
 30
0.0
210
0.0
220
0.0
230
1.0
  2
SOLID
 70
     1
 71
     0
 91
        2
 92
        7
 72
     0
 73
     1
 93
        4
 10
559.1192203119361
 20
528.774969981294
 10
558.9151066211607
 20
528.774969981294
 10
558.9151066211607
 20
514.519551490769
 10
559.1192203119361
 20
514.519551490769
 97
        0
 92
        7
 72
     0
 73
     1
 93
       42
 10
558.9949771958128
 20
513.9012940795803
 10
559.0985131259153
 20
514.1911946838695
 10
559.1192203119361
 20
514.519551490769
 10
558.9151066211607
 20
514.519551490769
 10
558.9151066211607
 20
514.448555424412
 10
558.9091902822986
 20
514.377559358054
 10
558.9003157740046
 20
514.306563291706
 10
558.888483096278
 20
514.2355672253422
 10
558.8707340796843
 20
514.1675293284065
 10
558.8529850630989
 20
514.1024496009256
 10
558.8293197076461
 20
514.0373698734305
 10
558.8056543521966
 20
513.9722901459387
 10
558.7760726578784
 20
513.9101685878748
 10
558.7464909635635
 20
513.8480470298126
 10
558.7109929303863
 20
513.7918418106107
 10
558.675494897208
 20
513.7326784219834
 10
558.6340805251664
 20
513.6794313722129
 10
558.592666153125
 20
513.6232261530157
 10
558.5482936116535
 20
513.5729372726826
 10
558.5009629007447
 20
513.5256065617758
 10
558.4506740204143
 20
513.4782758508723
 10
558.4003851400762
 20
513.4339033093985
 10
558.3441799208761
 20
513.3924889373576
 10
558.2879747016765
 20
513.3510745653151
 10
558.2317694824728
 20
513.3155765321365
 10
558.1726060938486
 20
513.2800784989591
 10
558.1104845357863
 20
513.2504968046425
 10
558.045404808292
 20
513.2209151103295
 10
557.9803250807988
 20
513.197249754877
 10
557.9152453533056
 20
513.1735843994245
 10
557.8472074563781
 20
513.1558353828348
 10
557.7762113900234
 20
513.1410445356777
 10
557.7052153236661
 20
513.1262536885205
 10
557.6342192573104
 20
513.1173791802258
 10
557.5602650215227
 20
513.1114628413625
 10
557.486310785734
 20
513.1114628413625
 10
557.486310785734
 20
512.9073491505874
 10
557.8146675926335
 20
512.9280563366081
 10
558.1252753829439
 20
513.0315922667116
 10
558.394468801212
 20
513.1765425688564
 10
558.6429550334615
 20
513.3836144290638
 10
558.8500268936668
 20
513.6113934752906
 97
        0
 75
     0
 76
     1
 47
0.013813
 98
        2
 10
559.0568745681863
 20
525.3138128957925
 10
558.8227765681863
 20
513.8213318957926
  0
LINE
  5
150
330
2
100
AcDbEntity
  8
AM_4
100
AcDbLine
 10
558.9151065681863
 20
514.4485558957923
 30
0.0
 11
558.9151065681863
 21
528.8459658957926
 31
0.0
  0
LINE
  5
151
330
2
100
AcDbEntity
  8
AM_4
100
AcDbLine
 10
559.1192205681863
 20
528.7749698957924
 30
0.0
 11
559.1192205681863
 21
514.5195518957924
 31
0.0
  0
LINE
  5
152
330
2
100
AcDbEntity
  8
AM_4
100
AcDbLine
 10
559.3233335681863
 20
528.7749698957924
 30
0.0
 11
559.3233335681863
 21
514.5195518957924
 31
0.0
  0
LINE
  5
153
330
2
100
AcDbEntity
  8
AM_4
100
AcDbLine
 10
558.9468575681864
 20
528.7749698957924
 30
0.0
 11
558.9468575681864
 21
514.5195518957924
 31
0.0
  0
LINE
  5
154
330
2
100
AcDbEntity
  8
AM_4
100
AcDbLine
 10
511.9157105681863
 20
514.5195518957924
 30
0.0
 11
511.9157105681863
 21
528.7749698957924
 31
0.0
  0
LINE
  5
155
330
2
100
AcDbEntity
  8
AM_4
100
AcDbLine
 10
512.3239385681863
 20
514.4485558957923
 30
0.0
 11
512.3239385681863
 21
528.8459658957926
 31
0.0
  0
LINE
  5
156
330
2
100
AcDbEntity
  8
AM_4
100
AcDbLine
 10
512.1198245681863
 20
514.5195518957924
 30
0.0
 11
512.1198245681863
 21
528.7749698957924
 31
0.0
  0
LINE
  5
157
330
2
100
AcDbEntity
  8
AM_4
100
AcDbLine
 10
512.2921875681863
 20
514.5195518957924
 30
0.0
 11
512.2921875681863
 21
528.7749698957924
 31
0.0
  0
HATCH
  5
158
330
2
100
AcDbEntity
  8
AM_4
100
AcDbHatch
 10
0.0
 20
0.0
 30
0.0
210
0.0
220
0.0
230
1.0
  2
SOLID
 70
     1
 71
     0
 91
        3
 92
        7
 72
     0
 73
     1
 93
        4
 10
557.486310785734
 20
530.6119931982715
 10
513.7527339100508
 20
530.6119931982715
 10
513.7527339100508
 20
530.4078795074963
 10
557.486310785734
 20
530.4078795074963
 97
        0
 92
        7
 72
     0
 73
     1
 93
        4
 10
512.1198243838481
 20
528.774969981294
 10
511.9157106930729
 20
528.774969981294
 10
511.9157106930729
 20
514.519551490769
 10
512.1198243838481
 20
514.519551490769
 97
        0
 92
        7
 72
     0
 73
     1
 93
       42
 10
512.4984700710816
 20
529.4494326116803
 10
512.5339681042617
 20
529.5085960003123
 10
512.56946613744
 20
529.5677593889428
 10
512.6108805094851
 20
529.6239646081478
 10
512.6522948815233
 20
529.6772116579121
 10
512.6996255924265
 20
529.730458707675
 10
512.7469563033321
 20
529.7807475880127
 10
512.7972451836683
 20
529.8280782989161
 10
512.8504922334358
 20
529.8724508403901
 10
512.9037392832028
 20
529.916823381863
 10
512.959944502402
 20
529.9582377539045
 10
513.0191078910323
 20
529.9937357870826
 10
513.0782712796614
 20
530.0292338202609
 10
513.1403928377251
 20
530.0617736840079
 10
513.2025143957869
 20
530.0913553783233
 10
513.2675941232803
 20
530.1150207337752
 10
513.3326738507758
 20
530.1386860892275
 10
513.4007117476989
 20
530.1593932752478
 10
513.4687496446245
 20
530.1741841224049
 10
513.5397457109814
 20
530.1889749695637
 10
513.610741777338
 20
530.1978494778579
 10
513.681737843694
 20
530.2037658167209
 10
513.7527339100508
 20
530.2037658167209
 10
513.7527339100508
 20
530.4078795074963
 10
513.4243771031516
 20
530.366465135455
 10
513.1344764988609
 20
530.2836363913718
 10
512.8445758945725
 20
530.1179789032064
 10
512.6167968483446
 20
529.9316142290198
 10
512.4097249881381
 20
529.683127996772
 10
512.2647746859936
 20
529.4139345785037
 10
512.1612387558891
 20
529.1033267881925
 10
512.1198243838481
 20
528.774969981294
 10
512.3239380746239
 20
528.7749699812938
 10
512.3239380746239
 20
528.8459660476517
 10
512.3298544134873
 20
528.9169621140076
 10
512.3387289217815
 20
528.9879581803631
 10
512.3535197689351
 20
529.0589542467281
 10
512.3683106160972
 20
529.1269921436459
 10
512.3890178021213
 20
529.1920718711463
 10
512.4097249881381
 20
529.2601097680641
 10
512.4363485130236
 20
529.3251894955576
 10
512.4659302073385
 20
529.3873110536178
 97
        0
 75
     0
 76
     1
 47
0.005631
 98
        3
 10
516.0098515681863
 20
530.4795908957925
 10
511.9907405681863
 20
528.4231008957926
 10
512.3300845681861
 20
529.3877418957925
  0
HATCH
  5
159
330
2
100
AcDbEntity
  8
AM_4
100
AcDbHatch
 10
0.0
 20
0.0
 30
0.0
210
0.0
220
0.0
230
1.0
  2
SOLID
 70
     1
 71
     0
 91
       13
 92
        7
 72
     0
 73
     1
 93
        4
 10
512.3239380746231
 20
528.774969981294
 10
512.1198243838481
 20
528.774969981294
 10
512.1198243838481
 20
514.519551490769
 10
512.3239380746239
 20
514.519551490769
 97
        0
 92
        7
 72
     0
 73
     1
 93
        4
 10
557.486310785733
 20
513.1114628413625
 10
513.7527339100508
 20
513.1114628413625
 10
513.7527339100508
 20
512.9073491505874
 10
557.486310785734
 20
512.9073491505874
 97
        0
 92
        7
 72
     0
 73
     1
 93
        4
 10
557.486310785734
 20
530.4078795074963
 10
513.7527339100508
 20
530.4078795074963
 10
513.7527339100508
 20
530.2037658167209
 10
557.486310785734
 20
530.2037658167209
 97
        0
 92
        7
 72
     0
 73
     1
 93
        4
 10
559.3233340027116
 20
528.774969981294
 10
559.1192203119361
 20
528.774969981294
 10
559.1192203119361
 20
514.519551490769
 10
559.3233340027116
 20
514.519551490769
 97
        0
 92
        7
 72
     0
 73
     1
 93
       42
 10
513.1344764988621
 20
530.2836363913723
 10
513.4243771031516
 20
530.366465135455
 10
513.7527339100508
 20
530.4078795074963
 10
513.7527339100508
 20
530.6119931982715
 10
513.6610306576733
 20
530.6090350288401
 10
513.5693274052978
 20
530.6001605205456
 10
513.4776241529187
 20
530.5883278428192
 10
513.385920900542
 20
530.5735369956614
 10
513.2971758175962
 20
530.5528298096414
 10
513.2113889040814
 20
530.5262062847577
 10
513.1256019905646
 20
530.4966245904413
 10
513.0427732464835
 20
530.4640847266953
 10
512.9629026718329
 20
530.4285866935162
 10
512.8830320971822
 20
530.387172321476
 10
512.8061196919611
 20
530.3427997800033
 10
512.7321654561841
 20
530.2925108996666
 10
512.6611693898161
 20
530.2422220193318
 10
512.5901733234647
 20
530.1860168001304
 10
512.5221354265367
 20
530.129811580933
 10
512.4600138684725
 20
530.0676900228697
 10
512.3978923104116
 20
530.0026102953751
 10
512.3416870912143
 20
529.9375305678851
 10
512.2854818720136
 20
529.8665345015288
 10
512.2351929916776
 20
529.7955384351674
 10
512.1849041113406
 20
529.7215841993809
 10
512.1405315698685
 20
529.6446717941599
 10
512.0991171978276
 20
529.5648012195116
 10
512.0636191646501
 20
529.4849306448638
 10
512.0310793009023
 20
529.4021019007804
 10
512.0014976065852
 20
529.3163149872599
 10
511.9748740817031
 20
529.2305280737471
 10
511.9541668956833
 20
529.1417829908038
 10
511.9393760485258
 20
529.0500797384249
 10
511.9275433707992
 20
528.9583764860464
 10
511.918668862505
 20
528.8666732336719
 10
511.9157106930729
 20
528.774969981294
 10
512.1198243838481
 20
528.774969981294
 10
512.1612387558891
 20
529.1033267881926
 10
512.2647746859918
 20
529.4139345785029
 10
512.4097249881381
 20
529.6831279967731
 10
512.6167968483457
 20
529.9316142290202
 10
512.8445758945715
 20
530.1179789032071
 97
        0
 92
        7
 72
     0
 73
     1
 93
       42
 10
513.2025143957873
 20
530.0913553783233
 10
513.2675941232803
 20
530.1150207337752
 10
513.3326738507758
 20
530.1386860892275
 10
513.4007117476989
 20
530.1593932752478
 10
513.4687496446245
 20
530.1741841224049
 10
513.5397457109814
 20
530.1889749695637
 10
513.610741777338
 20
530.1978494778579
 10
513.681737843694
 20
530.2037658167209
 10
513.7527339100508
 20
530.2037658167209
 10
513.7527339100508
 20
530.4078795074963
 10
513.4243771031516
 20
530.366465135455
 10
513.1344764988609
 20
530.2836363913718
 10
512.8445758945725
 20
530.1179789032064
 10
512.6167968483446
 20
529.9316142290198
 10
512.4097249881381
 20
529.683127996772
 10
512.2647746859936
 20
529.4139345785037
 10
512.1612387558891
 20
529.1033267881925
 10
512.1198243838481
 20
528.774969981294
 10
512.3239380746239
 20
528.7749699812938
 10
512.3239380746239
 20
528.8459660476517
 10
512.3298544134873
 20
528.9169621140076
 10
512.3387289217815
 20
528.9879581803631
 10
512.3535197689351
 20
529.0589542467281
 10
512.3683106160972
 20
529.1269921436459
 10
512.3890178021213
 20
529.1920718711463
 10
512.4097249881381
 20
529.2601097680641
 10
512.4363485130236
 20
529.3251894955576
 10
512.4659302073385
 20
529.3873110536178
 10
512.4984700710821
 20
529.449432611681
 10
512.5339681042617
 20
529.5085960003123
 10
512.56946613744
 20
529.5677593889428
 10
512.6108805094851
 20
529.6239646081478
 10
512.6522948815233
 20
529.6772116579121
 10
512.6996255924265
 20
529.730458707675
 10
512.7469563033321
 20
529.7807475880127
 10
512.7972451836683
 20
529.8280782989161
 10
512.8504922334358
 20
529.8724508403901
 10
512.9037392832028
 20
529.916823381863
 10
512.959944502402
 20
529.9582377539045
 10
513.0191078910323
 20
529.9937357870826
 10
513.0782712796614
 20
530.0292338202609
 10
513.1403928377251
 20
530.0617736840079
 97
        0
 92
        7
 72
     0
 73
     1
 93
        4
 10
557.486310785734
 20
512.9073491505874
 10
513.7527339100508
 20
512.9073491505874
 10
513.7527339100508
 20
512.7032354598123
 10
557.486310785734
 20
512.7032354598123
 97
        0
 92
       22
 72
     0
 73
     1
 93
       42
 10
558.8500268936676
 20
513.6113934752902
 10
558.9949771958121
 20
513.90129407958
 10
559.0985131259153
 20
514.1911946838697
 10
559.1192203119361
 20
514.519551490769
 10
558.9151066211607
 20
514.519551490769
 10
558.9151066211607
 20
514.4485554244116
 10
558.9091902822977
 20
514.377559358054
 10
558.9003157740042
 20
514.3065632916979
 10
558.888483096278
 20
514.2355672253426
 10
558.8707340796843
 20
514.1675293284015
 10
558.8529850630989
 20
514.102449600924
 10
558.8293197076461
 20
514.0373698734305
 10
558.8056543521966
 20
513.9722901459387
 10
558.7760726578784
 20
513.9101685878748
 10
558.7464909635635
 20
513.8480470298126
 10
558.7109929303863
 20
513.7918418106107
 10
558.675494897208
 20
513.7326784219834
 10
558.6340805251664
 20
513.6794313722129
 10
558.592666153125
 20
513.6232261530157
 10
558.5482936116535
 20
513.5729372726826
 10
558.5009629007447
 20
513.5256065617758
 10
558.4506740204143
 20
513.4782758508723
 10
558.4003851400762
 20
513.4339033093985
 10
558.3441799208761
 20
513.3924889373576
 10
558.2879747016765
 20
513.3510745653151
 10
558.2317694824728
 20
513.3155765321365
 10
558.1726060938486
 20
513.2800784989591
 10
558.1104845357863
 20
513.2504968046425
 10
558.045404808292
 20
513.2209151103295
 10
557.9803250807988
 20
513.197249754877
 10
557.9152453533056
 20
513.1735843994245
 10
557.8472074563781
 20
513.1558353828348
 10
557.7762113900234
 20
513.1410445356777
 10
557.7052153236661
 20
513.1262536885205
 10
557.6342192573104
 20
513.1173791802258
 10
557.5602650215227
 20
513.1114628413625
 10
557.486310785734
 20
513.1114628413625
 10
557.486310785734
 20
512.9073491505874
 10
557.8146675926335
 20
512.9280563366081
 10
558.1252753829439
 20
513.0315922667116
 10
558.394468801212
 20
513.1765425688564
 10
558.6429550334615
 20
513.3836144290638
 97
        0
 92
        7
 72
     0
 73
     1
 93
       42
 10
558.9032739434352
 20
513.365865412474
 10
558.9594791626351
 20
513.4339033093998
 10
559.0097680429708
 20
513.5048993757544
 10
559.0570987538749
 20
513.5788536115438
 10
559.101471295344
 20
513.6557660167593
 10
559.1428856673888
 20
513.7326784219846
 10
559.1783837005684
 20
513.812548996633
 10
559.2109235643151
 20
513.8953777407167
 10
559.2405052586289
 20
513.9811646542336
 10
559.2641706140799
 20
514.0669515677411
 10
559.2848778001024
 20
514.1556966506932
 10
559.3026268166907
 20
514.2444417336371
 10
559.3115013249853
 20
514.3361449860144
 10
559.3203758332804
 20
514.4278482383935
 10
559.3233340027116
 20
514.519551490769
 10
559.1192203119361
 20
514.519551490769
 10
559.0985131259153
 20
514.1911946838702
 10
558.9949771958121
 20
513.9012940795796
 10
558.8500268936668
 20
513.6113934752906
 10
558.6429550334599
 20
513.3836144290624
 10
558.394468801212
 20
513.176542568856
 10
558.1252753829428
 20
513.0315922667112
 10
557.8146675926335
 20
512.9280563366081
 10
557.486310785734
 20
512.9073491505874
 10
557.486310785734
 20
512.7032354598123
 10
557.5780140381112
 20
512.7061936292434
 10
557.6726754599197
 20
512.7150681375382
 10
557.7673368817293
 20
512.7239426458328
 10
557.8560819646748
 20
512.7416916624217
 10
557.944827047619
 20
512.7594406790108
 10
558.0335721305671
 20
512.7860642038951
 10
558.1193590440712
 20
512.8156458982096
 10
558.2021877881635
 20
512.8452275925251
 10
558.2850165322427
 20
512.8836837951333
 10
558.361928937469
 20
512.9221399977462
 10
558.4388413426842
 20
512.9665125392183
 10
558.515753747906
 20
513.0138432501215
 10
558.5867498142597
 20
513.0641321304576
 10
558.6577458806166
 20
513.1173791802256
 10
558.7228256081118
 20
513.1765425688562
 10
558.7879053356045
 20
513.2357059574875
 10
558.8470687242371
 20
513.2978275155492
 97
        0
 92
        7
 72
     0
 73
     1
 93
       42
 10
558.6429550334599
 20
529.9316142290207
 10
558.3944688012127
 20
530.1179789032063
 10
558.1252753829428
 20
530.2836363913723
 10
557.8146675926335
 20
530.366465135455
 10
557.486310785733
 20
530.4078795074963
 10
557.486310785734
 20
530.2037658167209
 10
557.5602650215219
 20
530.2037658167209
 10
557.6342192573108
 20
530.1978494778579
 10
557.7052153236661
 20
530.1860168001316
 10
557.7762113900234
 20
530.1741841224058
 10
557.8442492869482
 20
530.159393275248
 10
557.9122871838735
 20
530.1386860892273
 10
557.9803250807993
 20
530.115020733775
 10
558.045404808292
 20
530.0913553783233
 10
558.1075263663554
 20
530.0617736840079
 10
558.169647924415
 20
530.0292338202615
 10
558.2288113130478
 20
529.9937357870826
 10
558.287974701678
 20
529.958237753904
 10
558.3441799208745
 20
529.9168233818634
 10
558.3974269706449
 20
529.8754090098213
 10
558.450674020409
 20
529.8280782989173
 10
558.5009629007479
 20
529.7807475880124
 10
558.5453354422194
 20
529.7304587076787
 10
558.5926661531239
 20
529.680169827341
 10
558.6340805251669
 20
529.6239646081422
 10
558.6725367277764
 20
529.5677593889428
 10
558.7109929303854
 20
529.511554169744
 10
558.7435327941317
 20
529.4494326116813
 10
558.7760726578801
 20
529.39026922305
 10
558.8056543521953
 20
529.325189495556
 10
558.8293197076461
 20
529.2601097680641
 10
558.8529850630989
 20
529.1950300405684
 10
558.8707340796883
 20
529.1269921436453
 10
558.888483096278
 20
529.0589542467196
 10
558.9003157740014
 20
528.9879581803679
 10
558.9091902822977
 20
528.9199202834417
 10
558.9151066211607
 20
528.8459660476505
 10
558.9151066211607
 20
528.774969981294
 10
559.1192203119361
 20
528.774969981294
 10
559.0985131259153
 20
529.1033267881942
 10
558.9949771958128
 20
529.4139345785031
 10
558.8500268936676
 20
529.683127996772
 97
        0
 92
        7
 72
     0
 73
     1
 93
       42
 10
558.7257837775418
 20
530.1268534115025
 10
558.6577458806194
 20
530.1860168001308
 10
558.589707983693
 20
530.2422220193313
 10
558.5157537479043
 20
530.2925108996666
 10
558.4417995121167
 20
530.3427997800029
 10
558.3648871068968
 20
530.387172321476
 10
558.285016532247
 20
530.4285866935162
 10
558.2051459575956
 20
530.4640847266949
 10
558.1193590440805
 20
530.496624590442
 10
558.0335721305658
 20
530.5262062847573
 10
557.9477852170521
 20
530.5528298096414
 10
557.8560819646743
 20
530.5735369956621
 10
557.7673368817278
 20
530.5883278428193
 10
557.6726754599197
 20
530.6001605205456
 10
557.5809722075426
 20
530.60903502884
 10
557.486310785734
 20
530.6119931982715
 10
557.486310785734
 20
530.4078795074963
 10
557.8146675926335
 20
530.366465135455
 10
558.1252753829428
 20
530.2836363913723
 10
558.3944688012127
 20
530.1179789032068
 10
558.6429550334599
 20
529.9316142290207
 10
558.8500268936676
 20
529.6831279967729
 10
558.9949771958128
 20
529.4139345785031
 10
559.0985131259153
 20
529.1033267881929
 10
559.1192203119361
 20
528.774969981294
 10
559.3233340027116
 20
528.774969981294
 10
559.3203758332804
 20
528.8666732336698
 10
559.3115013249853
 20
528.9583764860481
 10
559.3026268166907
 20
529.0500797384249
 10
559.2848778001008
 20
529.1388248213799
 10
559.2641706140799
 20
529.2275699043186
 10
559.2405052586289
 20
529.3133568178315
 10
559.2109235643142
 20
529.3991437313443
 10
559.1783837005662
 20
529.4819724754273
 10
559.1428856673888
 20
529.5648012195113
 10
559.1014712953478
 20
529.6417136247311
 10
559.0600569233063
 20
529.7186260299504
 10
559.0097680429708
 20
529.7955384351703
 10
558.9594791626317
 20
529.8665345015251
 10
558.9062321128657
 20
529.9375305678835
 10
558.8470687242355
 20
530.0026102953771
 10
558.7879053356045
 20
530.0676900228705
 97
        0
 92
       23
 72
     0
 73
     1
 93
       42
 10
512.7469563033321
 20
513.5256065617762
 10
512.6966674229966
 20
513.5758954421119
 10
512.6522948815252
 20
513.6261843224469
 10
512.6108805094843
 20
513.6794313722162
 10
512.5694661374405
 20
513.7356365914143
 10
512.5310099348288
 20
513.7918418106147
 10
512.4955119016515
 20
513.8510051992443
 10
512.4659302073385
 20
513.9131267573032
 10
512.436348513022
 20
513.9722901459356
 10
512.4097249881351
 20
514.0373698734333
 10
512.3860596326854
 20
514.1024496009231
 10
512.3683106160956
 20
514.1704874978509
 10
512.3535197689383
 20
514.2385253947741
 10
512.3387289217815
 20
514.3065632916983
 10
512.3298544134857
 20
514.3775593580552
 10
512.3239380746239
 20
514.4485554244132
 10
512.3239380746239
 20
514.519551490769
 10
512.1198243838481
 20
514.519551490769
 10
512.1612387558891
 20
514.1911946838687
 10
512.2647746859918
 20
513.9012940795812
 10
512.4097249881381
 20
513.6113934752906
 10
512.6167968483446
 20
513.3836144290637
 10
512.8445758945715
 20
513.1765425688562
 10
513.1344764988609
 20
513.0315922667116
 10
513.4243771031507
 20
512.9280563366081
 10
513.7527339100508
 20
512.9073491505874
 10
513.7527339100508
 20
513.1114628413625
 10
513.681737843694
 20
513.1114628413625
 10
513.6077836079058
 20
513.1173791802256
 10
513.5367875415489
 20
513.1262536885205
 10
513.4687496446233
 20
513.1380863662463
 10
513.4007117476989
 20
513.1558353828356
 10
513.3326738507758
 20
513.1735843994245
 10
513.2675941232803
 20
513.197249754877
 10
513.2025143957869
 20
513.2209151103293
 10
513.137434668293
 20
513.2504968046442
 10
513.0782712796608
 20
513.2800784989601
 10
513.016149721602
 20
513.3155765321375
 10
512.959944502402
 20
513.3540327347481
 10
512.9007811137709
 20
513.3924889373576
 10
512.8475340640036
 20
513.4339033093985
 10
512.7942870142365
 20
513.4782758508718
 97
        0
 92
        7
 72
     0
 73
     1
 93
       42
 10
512.6167968483435
 20
513.3836144290637
 10
512.4097249881381
 20
513.6113934752906
 10
512.2647746859918
 20
513.9012940795812
 10
512.1612387558891
 20
514.1911946838693
 10
512.1198243838481
 20
514.519551490769
 10
511.9157106930729
 20
514.519551490769
 10
511.918668862505
 20
514.4278482383924
 10
511.9275433707992
 20
514.3361449860126
 10
511.9393760485253
 20
514.2444417336363
 10
511.9541668956833
 20
514.1556966506908
 10
511.9748740817031
 20
514.0669515677433
 10
512.001497606588
 20
513.9811646542304
 10
512.0310793009012
 20
513.8953777407196
 10
512.0636191646484
 20
513.8125489966356
 10
512.1020753672612
 20
513.7326784219783
 10
512.1434897392994
 20
513.6528078473332
 10
512.1878622807757
 20
513.5788536115406
 10
512.2351929916789
 20
513.5048993757544
 10
512.2854818720136
 20
513.4339033093998
 10
512.3416870912117
 20
513.3658654124753
 10
512.400850479841
 20
513.2978275155492
 10
512.4600138684739
 20
513.2357059574875
 10
512.5250935959683
 20
513.1765425688585
 10
512.5931314928933
 20
513.1173791802248
 10
512.6611693898176
 20
513.0641321304583
 10
512.732165456173
 20
513.0138432501227
 10
512.8090778613896
 20
512.9665125392192
 10
512.8830320971817
 20
512.9221399977454
 10
512.9629026718328
 20
512.8836837951356
 10
513.045731415915
 20
512.8452275925257
 10
513.1285601599926
 20
512.8156458982118
 10
513.2143470735136
 20
512.7860642038946
 10
513.3001339870282
 20
512.7594406790108
 10
513.3888790699736
 20
512.7416916624217
 10
513.4776241529191
 20
512.7239426458328
 10
513.5693274052961
 20
512.7150681375382
 10
513.6610306576733
 20
512.7061936292439
 10
513.7527339100508
 20
512.7032354598123
 10
513.7527339100508
 20
512.9073491505874
 10
513.4243771031507
 20
512.9280563366081
 10
513.1344764988621
 20
513.0315922667116
 10
512.8445758945715
 20
513.1765425688562
 97
        0
 75
     0
 76
     1
 47
0.02498
 98
       13
 10
512.1976015681863
 20
523.3912738957924
 10
521.3433625681862
 20
512.9545258957923
 10
531.9459775681862
 20
530.2682008957924
 10
559.2213965681863
 20
524.1194178957925
 10
512.5102755681863
 20
530.1091568957924
 10
512.8395505681863
 20
530.0621368957925
 10
541.8160135681863
 20
512.8051608957925
 10
558.6091905681865
 20
513.5575098957924
 10
558.8443905681863
 20
513.3224008957925
 10
558.6091905681865
 20
529.8740488957925
 10
558.7032695681863
 20
530.1091568957924
 10
512.6513925681863
 20
513.4634658957923
 10
512.6043545681863
 20
513.2283568957924
  0
LINE
  5
15A
330
2
100
AcDbEntity
  8
AM_4
100
AcDbLine
 10
513.6817375681864
 20
513.1114628957924
 30
0.0
 11
557.5602645681863
 21
513.1114628957924
 31
0.0
  0
LINE
  5
15B
330
2
100
AcDbEntity
  8
AM_4
100
AcDbLine
 10
513.7527335681864
 20
512.7032358957924
 30
0.0
 11
557.4863105681863
 21
512.7032358957924
 31
0.0
  0
LINE
  5
15C
330
2
100
AcDbEntity
  8
AM_4
100
AcDbLine
 10
557.4863105681863
 20
512.9073488957924
 30
0.0
 11
513.7527335681864
 21
512.9073488957924
 31
0.0
  0
LINE
  5
15D
330
2
100
AcDbEntity
  8
AM_4
100
AcDbLine
 10
557.6342195681863
 20
513.1173788957925
 30
0.0
 11
513.7527335681864
 21
513.1114628957924
 31
0.0
  0
LINE
  5
15E
330
2
100
AcDbEntity
  8
AM_4
100
AcDbLine
 10
557.6515265681863
 20
512.7091538957925
 30
0.0
 11
513.7527885681863
 21
512.7032358957924
 31
0.0
  0
LINE
  5
15F
330
2
100
AcDbEntity
  8
AM_4
100
AcDbLine
 10
557.6356485681863
 20
513.0856288957923
 30
0.0
 11
513.7527385681863
 21
513.0797118957924
 31
0.0
  0
ARC
  5
160
330
2
100
AcDbEntity
  8
AM_4
100
AcDbCircle
 10
513.7525405681863
 20
514.5438328957924
 30
0.0
 40
1.840596999999999
100
AcDbArc
 50
186.6660749999994
 51
270.0077249999996
  0
ARC
  5
161
330
2
100
AcDbEntity
  8
AM_4
100
AcDbCircle
 10
513.7525405681863
 20
514.5438328957924
 30
0.0
 40
1.46412
100
AcDbArc
 50
186.6660749999994
 51
270.0077249999996
  0
LINE
  5
162
330
2
100
AcDbEntity
  8
AM_4
100
AcDbLine
 10
512.0310795681863
 20
513.8953778957924
 30
0.0
 11
512.0636195681863
 21
513.8125488957926
 31
0.0
  0
LINE
  5
163
330
2
100
AcDbEntity
  8
AM_4
100
AcDbLine
 10
512.3239385681863
 20
514.5195518957924
 30
0.0
 11
511.9157105681863
 21
514.5195518957924
 31
0.0
  0
LINE
  5
164
330
2
100
AcDbEntity
  8
AM_4
100
AcDbLine
 10
511.9157105681863
 20
514.5195518957924
 30
0.0
 11
511.9186685681863
 21
514.4278478957923
 31
0.0
  0
LINE
  5
165
330
2
100
AcDbEntity
  8
AM_4
100
AcDbLine
 10
511.9186685681863
 20
514.4278478957923
 30
0.0
 11
511.9275435681863
 21
514.3361448957924
 31
0.0
  0
LINE
  5
166
330
2
100
AcDbEntity
  8
AM_4
100
AcDbLine
 10
511.9275435681863
 20
514.3361448957924
 30
0.0
 11
511.9393755681863
 21
514.2444418957924
 31
0.0
  0
LINE
  5
167
330
2
100
AcDbEntity
  8
AM_4
100
AcDbLine
 10
511.9393755681863
 20
514.2444418957924
 30
0.0
 11
511.9541665681863
 21
514.1556968957925
 31
0.0
  0
LINE
  5
168
330
2
100
AcDbEntity
  8
AM_4
100
AcDbLine
 10
511.9541665681863
 20
514.1556968957925
 30
0.0
 11
511.9748745681863
 21
514.0669518957925
 31
0.0
  0
LINE
  5
169
330
2
100
AcDbEntity
  8
AM_4
100
AcDbLine
 10
511.9748745681863
 20
514.0669518957925
 30
0.0
 11
512.0014975681863
 21
513.9811648957925
 31
0.0
  0
LINE
  5
16A
330
2
100
AcDbEntity
  8
AM_4
100
AcDbLine
 10
512.0014975681863
 20
513.9811648957925
 30
0.0
 11
512.0310795681863
 21
513.8953778957924
 31
0.0
  0
LINE
  5
16B
330
2
100
AcDbEntity
  8
AM_4
100
AcDbLine
 10
511.9157105681863
 20
514.5195518957924
 30
0.0
 11
511.9157105681863
 21
514.5195518957924
 31
0.0
  0
ARC
  5
16C
330
2
100
AcDbEntity
  8
AM_4
100
AcDbCircle
 10
513.7525405681863
 20
514.5438328957924
 30
0.0
 40
1.43237
100
AcDbArc
 50
186.6660749999994
 51
270.0077249999996
  0
LINE
  5
16D
330
2
100
AcDbEntity
  8
AM_4
100
AcDbLine
 10
512.4600135681864
 20
513.2357058957924
 30
0.0
 11
512.5250935681862
 21
513.1765428957923
 31
0.0
  0
LINE
  5
16E
330
2
100
AcDbEntity
  8
AM_4
100
AcDbLine
 10
512.6167965681863
 20
513.3836148957924
 30
0.0
 11
512.4097245681863
 21
513.6113938957925
 31
0.0
  0
LINE
  5
16F
330
2
100
AcDbEntity
  8
AM_4
100
AcDbLine
 10
512.4955115681863
 20
513.8510048957924
 30
0.0
 11
512.4659305681863
 21
513.9131268957925
 31
0.0
  0
LINE
  5
170
330
2
100
AcDbEntity
  8
AM_4
100
AcDbLine
 10
512.2854815681863
 20
513.4339028957924
 30
0.0
 11
512.3416875681863
 21
513.3658658957926
 31
0.0
  0
LINE
  5
171
330
2
100
AcDbEntity
  8
AM_4
100
AcDbLine
 10
512.3416875681863
 20
513.3658658957926
 30
0.0
 11
512.4008505681863
 21
513.2978278957924
 31
0.0
  0
LINE
  5
172
330
2
100
AcDbEntity
  8
AM_4
100
AcDbLine
 10
512.4008505681863
 20
513.2978278957924
 30
0.0
 11
512.4600135681864
 21
513.2357058957924
 31
0.0
  0
LINE
  5
173
330
2
100
AcDbEntity
  8
AM_4
100
AcDbLine
 10
512.0636195681863
 20
513.8125488957926
 30
0.0
 11
512.1020755681863
 21
513.7326788957924
 31
0.0
  0
LINE
  5
174
330
2
100
AcDbEntity
  8
AM_4
100
AcDbLine
 10
512.4097245681863
 20
513.6113938957925
 30
0.0
 11
512.2647745681863
 21
513.9012938957923
 31
0.0
  0
LINE
  5
175
330
2
100
AcDbEntity
  8
AM_4
100
AcDbLine
 10
512.1020755681863
 20
513.7326788957924
 30
0.0
 11
512.1434895681864
 21
513.6528078957923
 31
0.0
  0
LINE
  5
176
330
2
100
AcDbEntity
  8
AM_4
100
AcDbLine
 10
512.1434895681864
 20
513.6528078957923
 30
0.0
 11
512.1878625681863
 21
513.5788538957926
 31
0.0
  0
LINE
  5
177
330
2
100
AcDbEntity
  8
AM_4
100
AcDbLine
 10
512.1878625681863
 20
513.5788538957926
 30
0.0
 11
512.2351925681863
 21
513.5048988957925
 31
0.0
  0
LINE
  5
178
330
2
100
AcDbEntity
  8
AM_4
100
AcDbLine
 10
512.2351925681863
 20
513.5048988957925
 30
0.0
 11
512.2854815681863
 21
513.4339028957924
 31
0.0
  0
LINE
  5
179
330
2
100
AcDbEntity
  8
AM_4
100
AcDbLine
 10
512.4659305681863
 20
513.9131268957925
 30
0.0
 11
512.4363485681863
 21
513.9722898957924
 31
0.0
  0
LINE
  5
17A
330
2
100
AcDbEntity
  8
AM_4
100
AcDbLine
 10
512.4363485681863
 20
513.9722898957924
 30
0.0
 11
512.4097245681863
 21
514.0373698957923
 31
0.0
  0
LINE
  5
17B
330
2
100
AcDbEntity
  8
AM_4
100
AcDbLine
 10
512.4097245681863
 20
514.0373698957923
 30
0.0
 11
512.3860595681864
 21
514.1024498957924
 31
0.0
  0
LINE
  5
17C
330
2
100
AcDbEntity
  8
AM_4
100
AcDbLine
 10
512.3860595681864
 20
514.1024498957924
 30
0.0
 11
512.3683105681863
 21
514.1704878957924
 31
0.0
  0
LINE
  5
17D
330
2
100
AcDbEntity
  8
AM_4
100
AcDbLine
 10
512.3683105681863
 20
514.1704878957924
 30
0.0
 11
512.3535195681863
 21
514.2385248957923
 31
0.0
  0
LINE
  5
17E
330
2
100
AcDbEntity
  8
AM_4
100
AcDbLine
 10
512.3535195681863
 20
514.2385248957923
 30
0.0
 11
512.3387285681863
 21
514.3065628957924
 31
0.0
  0
LINE
  5
17F
330
2
100
AcDbEntity
  8
AM_4
100
AcDbLine
 10
512.3387285681863
 20
514.3065628957924
 30
0.0
 11
512.3298545681863
 21
514.3775588957923
 31
0.0
  0
LINE
  5
180
330
2
100
AcDbEntity
  8
AM_4
100
AcDbLine
 10
512.3298545681863
 20
514.3775588957923
 30
0.0
 11
512.3239385681863
 21
514.4485558957923
 31
0.0
  0
LINE
  5
181
330
2
100
AcDbEntity
  8
AM_4
100
AcDbLine
 10
512.2647745681863
 20
513.9012938957923
 30
0.0
 11
512.1612385681864
 21
514.1911948957925
 31
0.0
  0
LINE
  5
182
330
2
100
AcDbEntity
  8
AM_4
100
AcDbLine
 10
512.1612385681864
 20
514.1911948957925
 30
0.0
 11
512.1198245681863
 21
514.5195518957924
 31
0.0
  0
ARC
  5
183
330
2
100
AcDbEntity
  8
AM_4
100
AcDbCircle
 10
513.2739975681864
 20
514.4879038957924
 30
0.0
 40
0.9823199999999999
100
AcDbArc
 50
178.153772999999
 51
186.6660749999994
  0
LINE
  5
184
330
2
100
AcDbEntity
  8
AM_4
100
AcDbLine
 10
512.9599445681862
 20
513.3540328957924
 30
0.0
 11
512.9007815681863
 21
513.3924888957924
 31
0.0
  0
LINE
  5
185
330
2
100
AcDbEntity
  8
AM_4
100
AcDbLine
 10
512.5250935681862
 20
513.1765428957923
 30
0.0
 11
512.5931315681863
 21
513.1173788957925
 31
0.0
  0
LINE
  5
186
330
2
100
AcDbEntity
  8
AM_4
100
AcDbLine
 10
512.5931315681863
 20
513.1173788957925
 30
0.0
 11
512.6611695681863
 21
513.0641318957924
 31
0.0
  0
LINE
  5
187
330
2
100
AcDbEntity
  8
AM_4
100
AcDbLine
 10
512.6611695681863
 20
513.0641318957924
 30
0.0
 11
512.7321655681863
 21
513.0138428957924
 31
0.0
  0
LINE
  5
188
330
2
100
AcDbEntity
  8
AM_4
100
AcDbLine
 10
512.7321655681863
 20
513.0138428957924
 30
0.0
 11
512.8090775681863
 21
512.9665128957924
 31
0.0
  0
LINE
  5
189
330
2
100
AcDbEntity
  8
AM_4
100
AcDbLine
 10
512.8090775681863
 20
512.9665128957924
 30
0.0
 11
512.8830325681863
 21
512.9221398957923
 31
0.0
  0
LINE
  5
18A
330
2
100
AcDbEntity
  8
AM_4
100
AcDbLine
 10
512.8830325681863
 20
512.9221398957923
 30
0.0
 11
512.9629025681863
 21
512.8836838957925
 31
0.0
  0
LINE
  5
18B
330
2
100
AcDbEntity
  8
AM_4
100
AcDbLine
 10
512.9629025681863
 20
512.8836838957925
 30
0.0
 11
513.0457315681865
 21
512.8452278957925
 31
0.0
  0
LINE
  5
18C
330
2
100
AcDbEntity
  8
AM_4
100
AcDbLine
 10
513.0457315681865
 20
512.8452278957925
 30
0.0
 11
513.1285605681863
 21
512.8156458957923
 31
0.0
  0
LINE
  5
18D
330
2
100
AcDbEntity
  8
AM_4
100
AcDbLine
 10
513.1285605681863
 20
512.8156458957923
 30
0.0
 11
513.2143475681863
 21
512.7860638957923
 31
0.0
  0
LINE
  5
18E
330
2
100
AcDbEntity
  8
AM_4
100
AcDbLine
 10
513.2143475681863
 20
512.7860638957923
 30
0.0
 11
513.3001335681862
 21
512.7594408957924
 31
0.0
  0
LINE
  5
18F
330
2
100
AcDbEntity
  8
AM_4
100
AcDbLine
 10
513.3001335681862
 20
512.7594408957924
 30
0.0
 11
513.4776245681863
 21
512.7239428957924
 31
0.0
  0
LINE
  5
190
330
2
100
AcDbEntity
  8
AM_4
100
AcDbLine
 10
513.4776245681863
 20
512.7239428957924
 30
0.0
 11
513.6610305681863
 21
512.7061938957925
 31
0.0
  0
LINE
  5
191
330
2
100
AcDbEntity
  8
AM_4
100
AcDbLine
 10
513.6610305681863
 20
512.7061938957925
 30
0.0
 11
513.7527335681864
 21
512.7032358957924
 31
0.0
  0
LINE
  5
192
330
2
100
AcDbEntity
  8
AM_4
100
AcDbLine
 10
513.6817375681864
 20
513.1114628957924
 30
0.0
 11
513.6077835681864
 21
513.1173788957925
 31
0.0
  0
LINE
  5
193
330
2
100
AcDbEntity
  8
AM_4
100
AcDbLine
 10
513.6077835681864
 20
513.1173788957925
 30
0.0
 11
513.5367875681863
 21
513.1262538957924
 31
0.0
  0
LINE
  5
194
330
2
100
AcDbEntity
  8
AM_4
100
AcDbLine
 10
513.5367875681863
 20
513.1262538957924
 30
0.0
 11
513.4687495681864
 21
513.1380858957924
 31
0.0
  0
LINE
  5
195
330
2
100
AcDbEntity
  8
AM_4
100
AcDbLine
 10
513.3326735681865
 20
513.1735848957925
 30
0.0
 11
513.4687495681864
 21
513.1380858957924
 31
0.0
  0
LINE
  5
196
330
2
100
AcDbEntity
  8
AM_4
100
AcDbLine
 10
513.2025145681863
 20
513.2209148957923
 30
0.0
 11
513.3326735681865
 21
513.1735848957925
 31
0.0
  0
LINE
  5
197
330
2
100
AcDbEntity
  8
AM_4
100
AcDbLine
 10
513.2025145681863
 20
513.2209148957923
 30
0.0
 11
513.1374345681863
 21
513.2504968957923
 31
0.0
  0
LINE
  5
198
330
2
100
AcDbEntity
  8
AM_4
100
AcDbLine
 10
513.1374345681863
 20
513.2504968957923
 30
0.0
 11
513.0782715681863
 21
513.2800788957925
 31
0.0
  0
LINE
  5
199
330
2
100
AcDbEntity
  8
AM_4
100
AcDbLine
 10
513.0782715681863
 20
513.2800788957925
 30
0.0
 11
513.0161495681863
 21
513.3155768957927
 31
0.0
  0
LINE
  5
19A
330
2
100
AcDbEntity
  8
AM_4
100
AcDbLine
 10
513.0161495681863
 20
513.3155768957927
 30
0.0
 11
512.9599445681862
 21
513.3540328957924
 31
0.0
  0
LINE
  5
19B
330
2
100
AcDbEntity
  8
AM_4
100
AcDbLine
 10
513.7527335681864
 20
513.1114628957924
 30
0.0
 11
513.7527335681864
 21
512.7032358957924
 31
0.0
  0
LINE
  5
19C
330
2
100
AcDbEntity
  8
AM_4
100
AcDbLine
 10
513.7527335681864
 20
512.7032358957924
 30
0.0
 11
513.7527335681864
 21
512.7032358957924
 31
0.0
  0
LINE
  5
19D
330
2
100
AcDbEntity
  8
AM_4
100
AcDbLine
 10
513.7527335681864
 20
512.9073488957924
 30
0.0
 11
513.4243775681863
 21
512.9280558957924
 31
0.0
  0
LINE
  5
19E
330
2
100
AcDbEntity
  8
AM_4
100
AcDbLine
 10
513.4243775681863
 20
512.9280558957924
 30
0.0
 11
513.1344765681863
 21
513.0315918957924
 31
0.0
  0
LINE
  5
19F
330
2
100
AcDbEntity
  8
AM_4
100
AcDbLine
 10
513.1344765681863
 20
513.0315918957924
 30
0.0
 11
512.8445755681863
 21
513.1765428957923
 31
0.0
  0
LINE
  5
1A0
330
2
100
AcDbEntity
  8
AM_4
100
AcDbLine
 10
512.8445755681863
 20
513.1765428957923
 30
0.0
 11
512.6167965681863
 21
513.3836148957924
 31
0.0
  0
LINE
  5
1A1
330
2
100
AcDbEntity
  8
AM_4
100
AcDbLine
 10
512.5694665681863
 20
513.7356368957925
 30
0.0
 11
512.5310095681864
 21
513.7918418957926
 31
0.0
  0
LINE
  5
1A2
330
2
100
AcDbEntity
  8
AM_4
100
AcDbLine
 10
512.8475335681863
 20
513.4339028957924
 30
0.0
 11
512.7942865681863
 21
513.4782758957924
 31
0.0
  0
LINE
  5
1A3
330
2
100
AcDbEntity
  8
AM_4
100
AcDbLine
 10
512.6966675681862
 20
513.5758958957924
 30
0.0
 11
512.7942865681863
 21
513.4782758957924
 31
0.0
  0
LINE
  5
1A4
330
2
100
AcDbEntity
  8
AM_4
100
AcDbLine
 10
512.6966675681862
 20
513.5758958957924
 30
0.0
 11
512.6522945681863
 21
513.6261838957924
 31
0.0
  0
LINE
  5
1A5
330
2
100
AcDbEntity
  8
AM_4
100
AcDbLine
 10
512.6522945681863
 20
513.6261838957924
 30
0.0
 11
512.6108805681862
 21
513.6794308957925
 31
0.0
  0
LINE
  5
1A6
330
2
100
AcDbEntity
  8
AM_4
100
AcDbLine
 10
512.6108805681862
 20
513.6794308957925
 30
0.0
 11
512.5694665681863
 21
513.7356368957925
 31
0.0
  0
LINE
  5
1A7
330
2
100
AcDbEntity
  8
AM_4
100
AcDbLine
 10
512.9007815681863
 20
513.3924888957924
 30
0.0
 11
512.8475335681863
 21
513.4339028957924
 31
0.0
  0
LINE
  5
1A8
330
2
100
AcDbEntity
  8
AM_4
100
AcDbLine
 10
512.5310095681864
 20
513.7918418957926
 30
0.0
 11
512.4955115681863
 21
513.8510048957924
 31
0.0
  0
LINE
  5
1A9
330
2
100
AcDbEntity
  8
AM_4
100
AcDbLine
 10
558.9032735681865
 20
513.3658658957926
 30
0.0
 11
558.9594795681863
 21
513.4339028957924
 31
0.0
  0
LINE
  5
1AA
330
2
100
AcDbEntity
  8
AM_4
100
AcDbLine
 10
558.2879745681863
 20
513.3510748957925
 30
0.0
 11
558.4003855681864
 21
513.4339028957924
 31
0.0
  0
LINE
  5
1AB
330
2
100
AcDbEntity
  8
AM_4
100
AcDbLine
 10
558.8500265681862
 20
513.6113938957925
 30
0.0
 11
558.6429545681864
 21
513.3836148957924
 31
0.0
  0
LINE
  5
1AC
330
2
100
AcDbEntity
  8
AM_4
100
AcDbLine
 10
557.9448265681864
 20
512.7594408957924
 30
0.0
 11
558.0335725681862
 21
512.7860638957923
 31
0.0
  0
LINE
  5
1AD
330
2
100
AcDbEntity
  8
AM_4
100
AcDbLine
 10
558.0335725681862
 20
512.7860638957923
 30
0.0
 11
558.1193585681863
 21
512.8156458957923
 31
0.0
  0
LINE
  5
1AE
330
2
100
AcDbEntity
  8
AM_4
100
AcDbLine
 10
558.1193585681863
 20
512.8156458957923
 30
0.0
 11
558.2021875681863
 21
512.8452278957925
 31
0.0
  0
LINE
  5
1AF
330
2
100
AcDbEntity
  8
AM_4
100
AcDbLine
 10
558.2021875681863
 20
512.8452278957925
 30
0.0
 11
558.2850165681864
 21
512.8836838957925
 31
0.0
  0
LINE
  5
1B0
330
2
100
AcDbEntity
  8
AM_4
100
AcDbLine
 10
558.2850165681864
 20
512.8836838957925
 30
0.0
 11
558.3619285681863
 21
512.9221398957923
 31
0.0
  0
LINE
  5
1B1
330
2
100
AcDbEntity
  8
AM_4
100
AcDbLine
 10
558.3619285681863
 20
512.9221398957923
 30
0.0
 11
558.4388415681863
 21
512.9665128957924
 31
0.0
  0
LINE
  5
1B2
330
2
100
AcDbEntity
  8
AM_4
100
AcDbLine
 10
558.4388415681863
 20
512.9665128957924
 30
0.0
 11
558.5157535681863
 21
513.0138428957924
 31
0.0
  0
LINE
  5
1B3
330
2
100
AcDbEntity
  8
AM_4
100
AcDbLine
 10
558.5157535681863
 20
513.0138428957924
 30
0.0
 11
558.5867495681863
 21
513.0641318957924
 31
0.0
  0
LINE
  5
1B4
330
2
100
AcDbEntity
  8
AM_4
100
AcDbLine
 10
558.5867495681863
 20
513.0641318957924
 30
0.0
 11
558.6577455681863
 21
513.1173788957925
 31
0.0
  0
LINE
  5
1B5
330
2
100
AcDbEntity
  8
AM_4
100
AcDbLine
 10
558.6577455681863
 20
513.1173788957925
 30
0.0
 11
558.7879055681863
 21
513.2357058957924
 31
0.0
  0
LINE
  5
1B6
330
2
100
AcDbEntity
  8
AM_4
100
AcDbLine
 10
558.7879055681863
 20
513.2357058957924
 30
0.0
 11
558.8470685681864
 21
513.2978278957924
 31
0.0
  0
LINE
  5
1B7
330
2
100
AcDbEntity
  8
AM_4
100
AcDbLine
 10
558.8470685681864
 20
513.2978278957924
 30
0.0
 11
558.9032735681865
 21
513.3658658957926
 31
0.0
  0
LINE
  5
1B8
330
2
100
AcDbEntity
  8
AM_4
100
AcDbLine
 10
558.2879745681863
 20
513.3510748957925
 30
0.0
 11
558.2317695681863
 21
513.3155768957927
 31
0.0
  0
LINE
  5
1B9
330
2
100
AcDbEntity
  8
AM_4
100
AcDbLine
 10
558.2317695681863
 20
513.3155768957927
 30
0.0
 11
558.1726065681863
 21
513.2800788957925
 31
0.0
  0
LINE
  5
1BA
330
2
100
AcDbEntity
  8
AM_4
100
AcDbLine
 10
558.1726065681863
 20
513.2800788957925
 30
0.0
 11
558.1104845681863
 21
513.2504968957923
 31
0.0
  0
LINE
  5
1BB
330
2
100
AcDbEntity
  8
AM_4
100
AcDbLine
 10
558.1104845681863
 20
513.2504968957923
 30
0.0
 11
558.0454045681863
 21
513.2209148957923
 31
0.0
  0
LINE
  5
1BC
330
2
100
AcDbEntity
  8
AM_4
100
AcDbLine
 10
557.9152455681863
 20
513.1735848957925
 30
0.0
 11
558.0454045681863
 21
513.2209148957923
 31
0.0
  0
LINE
  5
1BD
330
2
100
AcDbEntity
  8
AM_4
100
AcDbLine
 10
557.9152455681863
 20
513.1735848957925
 30
0.0
 11
557.8472075681863
 21
513.1558348957923
 31
0.0
  0
LINE
  5
1BE
330
2
100
AcDbEntity
  8
AM_4
100
AcDbLine
 10
558.6429545681864
 20
513.3836148957924
 30
0.0
 11
558.3944685681863
 21
513.1765428957923
 31
0.0
  0
LINE
  5
1BF
330
2
100
AcDbEntity
  8
AM_4
100
AcDbLine
 10
558.3944685681863
 20
513.1765428957923
 30
0.0
 11
558.1252755681863
 21
513.0315918957924
 31
0.0
  0
LINE
  5
1C0
330
2
100
AcDbEntity
  8
AM_4
100
AcDbLine
 10
558.1252755681863
 20
513.0315918957924
 30
0.0
 11
557.8146675681863
 21
512.9280558957924
 31
0.0
  0
LINE
  5
1C1
330
2
100
AcDbEntity
  8
AM_4
100
AcDbLine
 10
559.3233335681863
 20
514.5195518957924
 30
0.0
 11
559.3233335681863
 21
514.5195518957924
 31
0.0
  0
LINE
  5
1C2
330
2
100
AcDbEntity
  8
AM_4
100
AcDbLine
 10
559.1783835681862
 20
513.8125488957926
 30
0.0
 11
559.2109235681863
 21
513.8953778957924
 31
0.0
  0
LINE
  5
1C3
330
2
100
AcDbEntity
  8
AM_4
100
AcDbLine
 10
559.2109235681863
 20
513.8953778957924
 30
0.0
 11
559.2405055681863
 21
513.9811648957925
 31
0.0
  0
LINE
  5
1C4
330
2
100
AcDbEntity
  8
AM_4
100
AcDbLine
 10
559.2405055681863
 20
513.9811648957925
 30
0.0
 11
559.2641705681863
 21
514.0669518957925
 31
0.0
  0
LINE
  5
1C5
330
2
100
AcDbEntity
  8
AM_4
100
AcDbLine
 10
559.2641705681863
 20
514.0669518957925
 30
0.0
 11
559.2848775681862
 21
514.1556968957925
 31
0.0
  0
LINE
  5
1C6
330
2
100
AcDbEntity
  8
AM_4
100
AcDbLine
 10
559.2848775681862
 20
514.1556968957925
 30
0.0
 11
559.3026265681864
 21
514.2444418957924
 31
0.0
  0
LINE
  5
1C7
330
2
100
AcDbEntity
  8
AM_4
100
AcDbLine
 10
559.3026265681864
 20
514.2444418957924
 30
0.0
 11
559.3203755681863
 21
514.4278478957923
 31
0.0
  0
LINE
  5
1C8
330
2
100
AcDbEntity
  8
AM_4
100
AcDbLine
 10
559.3203755681863
 20
514.4278478957923
 30
0.0
 11
559.3233335681863
 21
514.5195518957924
 31
0.0
  0
LINE
  5
1C9
330
2
100
AcDbEntity
  8
AM_4
100
AcDbLine
 10
559.3233335681863
 20
514.5195518957924
 30
0.0
 11
558.9151065681863
 21
514.5195518957924
 31
0.0
  0
LINE
  5
1CA
330
2
100
AcDbEntity
  8
AM_4
100
AcDbLine
 10
558.9151065681863
 20
514.4485558957923
 30
0.0
 11
558.9091905681863
 21
514.3775588957923
 31
0.0
  0
LINE
  5
1CB
330
2
100
AcDbEntity
  8
AM_4
100
AcDbLine
 10
558.9091905681863
 20
514.3775588957923
 30
0.0
 11
558.9003155681863
 21
514.3065628957924
 31
0.0
  0
LINE
  5
1CC
330
2
100
AcDbEntity
  8
AM_4
100
AcDbLine
 10
558.9003155681863
 20
514.3065628957924
 30
0.0
 11
558.8884835681863
 21
514.2355668957924
 31
0.0
  0
LINE
  5
1CD
330
2
100
AcDbEntity
  8
AM_4
100
AcDbLine
 10
558.8884835681863
 20
514.2355668957924
 30
0.0
 11
558.8707345681863
 21
514.1675288957924
 31
0.0
  0
LINE
  5
1CE
330
2
100
AcDbEntity
  8
AM_4
100
AcDbLine
 10
558.8707345681863
 20
514.1675288957924
 30
0.0
 11
558.8529845681863
 21
514.1024498957924
 31
0.0
  0
LINE
  5
1CF
330
2
100
AcDbEntity
  8
AM_4
100
AcDbLine
 10
558.8056545681864
 20
513.9722898957924
 30
0.0
 11
558.8529845681863
 21
514.1024498957924
 31
0.0
  0
LINE
  5
1D0
330
2
100
AcDbEntity
  8
AM_4
100
AcDbLine
 10
558.7464905681863
 20
513.8480468957924
 30
0.0
 11
558.8056545681864
 21
513.9722898957924
 31
0.0
  0
LINE
  5
1D1
330
2
100
AcDbEntity
  8
AM_4
100
AcDbLine
 10
558.7464905681863
 20
513.8480468957924
 30
0.0
 11
558.7109925681864
 21
513.7918418957926
 31
0.0
  0
LINE
  5
1D2
330
2
100
AcDbEntity
  8
AM_4
100
AcDbLine
 10
559.1192205681863
 20
514.5195518957924
 30
0.0
 11
559.0985135681863
 21
514.1911948957925
 31
0.0
  0
LINE
  5
1D3
330
2
100
AcDbEntity
  8
AM_4
100
AcDbLine
 10
559.0985135681863
 20
514.1911948957925
 30
0.0
 11
558.9949775681863
 21
513.9012938957923
 31
0.0
  0
LINE
  5
1D4
330
2
100
AcDbEntity
  8
AM_4
100
AcDbLine
 10
559.1428855681863
 20
513.7326788957924
 30
0.0
 11
559.1783835681862
 21
513.8125488957926
 31
0.0
  0
LINE
  5
1D5
330
2
100
AcDbEntity
  8
AM_4
100
AcDbLine
 10
558.7109925681864
 20
513.7918418957926
 30
0.0
 11
558.6754945681863
 21
513.7326788957924
 31
0.0
  0
LINE
  5
1D6
330
2
100
AcDbEntity
  8
AM_4
100
AcDbLine
 10
558.9949775681863
 20
513.9012938957923
 30
0.0
 11
558.8500265681862
 21
513.6113938957925
 31
0.0
  0
LINE
  5
1D7
330
2
100
AcDbEntity
  8
AM_4
100
AcDbLine
 10
558.9594795681863
 20
513.4339028957924
 30
0.0
 11
559.0097675681863
 21
513.5048988957925
 31
0.0
  0
LINE
  5
1D8
330
2
100
AcDbEntity
  8
AM_4
100
AcDbLine
 10
559.0097675681863
 20
513.5048988957925
 30
0.0
 11
559.0570985681863
 21
513.5788538957926
 31
0.0
  0
LINE
  5
1D9
330
2
100
AcDbEntity
  8
AM_4
100
AcDbLine
 10
559.0570985681863
 20
513.5788538957926
 30
0.0
 11
559.1014715681863
 21
513.6557658957924
 31
0.0
  0
LINE
  5
1DA
330
2
100
AcDbEntity
  8
AM_4
100
AcDbLine
 10
559.1014715681863
 20
513.6557658957924
 30
0.0
 11
559.1428855681863
 21
513.7326788957924
 31
0.0
  0
LINE
  5
1DB
330
2
100
AcDbEntity
  8
AM_4
100
AcDbLine
 10
558.6754945681863
 20
513.7326788957924
 30
0.0
 11
558.6340805681864
 21
513.6794308957925
 31
0.0
  0
LINE
  5
1DC
330
2
100
AcDbEntity
  8
AM_4
100
AcDbLine
 10
558.6340805681864
 20
513.6794308957925
 30
0.0
 11
558.5926665681864
 21
513.6232258957924
 31
0.0
  0
LINE
  5
1DD
330
2
100
AcDbEntity
  8
AM_4
100
AcDbLine
 10
558.5926665681864
 20
513.6232258957924
 30
0.0
 11
558.5482935681863
 21
513.5729368957925
 31
0.0
  0
LINE
  5
1DE
330
2
100
AcDbEntity
  8
AM_4
100
AcDbLine
 10
558.5482935681863
 20
513.5729368957925
 30
0.0
 11
558.5009625681863
 21
513.5256068957925
 31
0.0
  0
LINE
  5
1DF
330
2
100
AcDbEntity
  8
AM_4
100
AcDbLine
 10
558.5009625681863
 20
513.5256068957925
 30
0.0
 11
558.4506735681863
 21
513.4782758957924
 31
0.0
  0
LINE
  5
1E0
330
2
100
AcDbEntity
  8
AM_4
100
AcDbLine
 10
558.4506735681863
 20
513.4782758957924
 30
0.0
 11
558.4003855681864
 21
513.4339028957924
 31
0.0
  0
ARC
  5
1E1
330
2
100
AcDbEntity
  8
AM_4
100
AcDbCircle
 10
557.5071925681863
 20
514.5195518957924
 30
0.0
 40
1.816141999999999
100
AcDbArc
 50
274.5582889999987
 51
0.0
  0
LINE
  5
1E2
330
2
100
AcDbEntity
  8
AM_4
100
AcDbLine
 10
557.7673365681865
 20
512.7239428957924
 30
0.0
 11
557.9448265681864
 21
512.7594408957924
 31
0.0
  0
LINE
  5
1E3
330
2
100
AcDbEntity
  8
AM_4
100
AcDbLine
 10
557.7052155681863
 20
513.1262538957924
 30
0.0
 11
557.8472075681863
 21
513.1558348957923
 31
0.0
  0
LINE
  5
1E4
330
2
100
AcDbEntity
  8
AM_4
100
AcDbLine
 10
557.4863105681863
 20
512.7032358957924
 30
0.0
 11
557.5780135681863
 21
512.7061938957925
 31
0.0
  0
LINE
  5
1E5
330
2
100
AcDbEntity
  8
AM_4
100
AcDbLine
 10
557.6342195681863
 20
513.1173788957925
 30
0.0
 11
557.5602645681863
 21
513.1114628957924
 31
0.0
  0
LINE
  5
1E6
330
2
100
AcDbEntity
  8
AM_4
100
AcDbLine
 10
557.4863105681863
 20
512.7032358957924
 30
0.0
 11
557.4863105681863
 21
512.7032358957924
 31
0.0
  0
LINE
  5
1E7
330
2
100
AcDbEntity
  8
AM_4
100
AcDbLine
 10
557.4863105681863
 20
512.7032358957924
 30
0.0
 11
557.4863105681863
 21
513.1114628957924
 31
0.0
  0
LINE
  5
1E8
330
2
100
AcDbEntity
  8
AM_4
100
AcDbLine
 10
557.5780135681863
 20
512.7061938957925
 30
0.0
 11
557.7673365681865
 21
512.7239428957924
 31
0.0
  0
LINE
  5
1E9
330
2
100
AcDbEntity
  8
AM_4
100
AcDbLine
 10
557.7052155681863
 20
513.1262538957924
 30
0.0
 11
557.6342195681863
 21
513.1173788957925
 31
0.0
  0
ARC
  5
1EA
330
2
100
AcDbEntity
  8
AM_4
100
AcDbCircle
 10
557.5071925681863
 20
514.5195518957924
 30
0.0
 40
1.407913999999998
100
AcDbArc
 50
275.1764690000012
 51
0.0
  0
ARC
  5
1EB
330
2
100
AcDbEntity
  8
AM_4
100
AcDbCircle
 10
557.5071925681863
 20
514.5195518957924
 30
0.0
 40
1.439664999999999
100
AcDbArc
 50
275.1191170000013
 51
0.0
  0
LINE
  5
1EC
330
2
100
AcDbEntity
  8
AM_4
100
AcDbLine
 10
557.8146675681863
 20
512.9280558957924
 30
0.0
 11
557.4863105681863
 21
512.9073488957924
 31
0.0
  0
LINE
  5
1ED
330
2
100
AcDbEntity
  8
AM_4
100
AcDbLine
 10
542.8305725681862
 20
522.5331538957926
 30
0.0
 11
542.5344605681863
 21
522.6139118957925
 31
0.0
  0
LINE
  5
1EE
330
2
100
AcDbEntity
  8
AM_4
100
AcDbLine
 10
542.1845085681862
 20
524.8982098957924
 30
0.0
 11
542.8844115681863
 21
524.8443708957925
 31
0.0
  0
LINE
  5
1EF
330
2
100
AcDbEntity
  8
AM_4
100
AcDbLine
 10
540.6270325681863
 20
520.1373318957925
 30
0.0
 11
543.2343635681863
 21
522.3177988957925
 31
0.0
  0
LINE
  5
1F0
330
2
100
AcDbEntity
  8
AM_4
100
AcDbLine
 10
542.9382505681863
 20
516.1840348957923
 30
0.0
 11
542.4806215681863
 21
516.1840348957923
 31
0.0
  0
LINE
  5
1F1
330
2
100
AcDbEntity
  8
AM_4
100
AcDbLine
 10
542.7767345681863
 20
518.4721788957926
 30
0.0
 11
543.3151215681863
 21
518.4721788957926
 31
0.0
  0
LINE
  5
1F2
330
2
100
AcDbEntity
  8
AM_4
100
AcDbLine
 10
513.6817375681864
 20
530.2037658957925
 30
0.0
 11
557.5602645681863
 21
530.2037658957925
 31
0.0
  0
LINE
  5
1F3
330
2
100
AcDbEntity
  8
AM_4
100
AcDbLine
 10
513.7527335681864
 20
530.4078798957926
 30
0.0
 11
557.4863105681863
 21
530.4078798957926
 31
0.0
  0
LINE
  5
1F4
330
2
100
AcDbEntity
  8
AM_4
100
AcDbLine
 10
513.7527335681864
 20
530.6119928957923
 30
0.0
 11
557.4863105681863
 21
530.6119928957923
 31
0.0
  0
LINE
  5
1F5
330
2
100
AcDbEntity
  8
AM_4
100
AcDbLine
 10
513.7527335681864
 20
530.2355168957924
 30
0.0
 11
557.4863105681863
 21
530.2355168957924
 31
0.0
  0
HATCH
  5
1F6
330
2
100
AcDbEntity
  8
AM_4
100
AcDbHatch
 10
0.0
 20
0.0
 30
0.0
210
0.0
220
0.0
230
1.0
  2
SOLID
 70
     1
 71
     0
 91
        8
 92
        7
 72
     0
 73
     1
 93
       23
 10
519.7568514495664
 20
521.644815315651
 10
519.8106901332204
 20
521.9409280757465
 10
519.9183675005266
 20
522.1562828103615
 10
520.0798835514878
 20
522.3177988613217
 10
520.2413996024504
 20
522.4523955704572
 10
520.5644317043713
 20
522.5331535959378
 10
520.7259477553341
 20
522.5600729377648
 10
521.0220605154303
 20
522.5600729377648
 10
521.0220605154303
 20
524.7905326891358
 10
520.0529642096616
 20
524.7905326891358
 10
519.5145773731244
 20
524.7636133473088
 10
519.0569485620675
 20
524.7097746636551
 10
518.6800777764874
 20
524.5751779545209
 10
518.3301263327407
 20
524.4405812453861
 10
518.0647785347311
 20
524.2521458525998
 10
517.8225044582923
 20
524.0637104598107
 10
517.634069065504
 20
523.8483557251949
 10
517.4725530145424
 20
523.633000990579
 10
517.2841176217541
 20
523.1792177997831
 10
517.1764402544466
 20
522.8023470142074
 10
517.1495209126186
 20
522.4523955704586
 10
517.1495209126186
 20
516.2917119123609
 10
519.7568514495664
 20
516.2917119123609
 97
        0
 92
        7
 72
     0
 73
     1
 93
       54
 10
529.3324458994171
 20
522.0755247848805
 10
529.0901718229746
 20
522.6139116214186
 10
528.7402203792246
 20
523.152298457957
 10
528.3364302518216
 20
523.6060816487524
 10
527.8249627571105
 20
524.036791117983
 10
527.2596565787461
 20
524.3867425617326
 10
526.6405117167265
 20
524.6559359800012
 10
525.9713737913165
 20
524.8443713727896
 10
525.2714709038175
 20
524.8982100564433
 10
524.7600034091068
 20
524.8712907146162
 10
524.3023745980487
 20
524.7905326891362
 10
523.8716651288183
 20
524.6828553218286
 10
523.4678750014161
 20
524.5213392708664
 10
523.09100421584
 20
524.3329038780784
 10
522.7679721139168
 20
524.1175491434643
 10
522.4718593538208
 20
523.8483557251946
 10
522.1757465937248
 20
523.5791623069273
 10
521.9373181375457
 20
523.2868951670918
 10
521.7488827447566
 20
522.9638630651684
 10
521.5604473519678
 20
522.6139116214174
 10
521.4258506428341
 20
522.2639601776701
 10
521.2374152500447
 20
521.5371379483427
 10
521.1566572245633
 20
520.7833963771913
 10
521.1835765663923
 20
520.2180901988275
 10
521.264334591872
 20
519.7104683243757
 10
521.3989313010057
 20
519.2259201714927
 10
521.587366693794
 20
518.7682913604338
 10
521.8027214284107
 20
518.3645012330307
 10
522.0449955048506
 20
517.9876304474559
 10
522.3372626446848
 20
517.6376790037059
 10
522.6602947466091
 20
517.3146469017827
 10
523.0371655321849
 20
517.045453483514
 10
523.4140363177579
 20
516.8300987489007
 10
523.8178264451661
 20
516.6147440142832
 10
524.2216165725683
 20
516.453227963322
 10
524.6792453836298
 20
516.3455505960135
 10
525.1099548528566
 20
516.2378732287073
 10
525.5675836639129
 20
516.1840345450533
 10
526.0213668547118
 20
516.1840345450533
 10
526.6405117167265
 20
516.2109538868803
 10
527.2058178950921
 20
516.2917119123609
 10
527.6903660479774
 20
516.3993892796691
 10
528.1210755172065
 20
516.5339859888031
 10
528.7133010373961
 20
516.8031794070716
 10
528.9017364301867
 20
516.9108567743792
 10
528.9017364301867
 20
519.5489522734145
 10
528.3095109099938
 20
519.1451621460116
 10
527.7172853898031
 20
518.8221300440885
 10
527.044301844129
 20
518.579855967646
 10
526.7212697422086
 20
518.4990979421658
 10
526.3982376402869
 20
518.472178600339
 10
525.8636964240088
 20
518.472178600339
 10
525.4868256384333
 20
518.5529366258191
 10
525.3253095874717
 20
518.5798559676466
 97
        0
 92
       22
 72
     0
 73
     1
 93
       15
 10
523.7101490778573
 20
520.1373321733443
 10
523.6293910523766
 20
520.3257675661332
 10
523.5755523687242
 20
520.5411223007423
 10
523.5217136850701
 20
520.8103157190176
 10
523.5486330268964
 20
521.1333478209403
 10
523.6293910523766
 20
521.4832992646894
 10
523.8178264451661
 20
521.8601700502662
 10
524.1408585470881
 20
522.2370408358423
 10
524.5177293326629
 20
522.5062342541108
 10
524.9215194600678
 20
522.6408309632456
 10
525.2983902456436
 20
522.6677503050724
 10
525.6214223475675
 20
522.6139116214186
 10
525.9175351076628
 20
522.5331535959382
 10
526.1290442220172
 20
522.4254762286302
 10
526.3174796148048
 20
522.3177988613229
 97
        0
 92
        7
 72
     0
 73
     1
 93
       27
 10
532.5050826147278
 20
522.0755247848809
 10
533.6626143132841
 20
522.0755247848809
 10
533.6626143132841
 20
524.0906298016365
 10
532.5050826147278
 20
524.0906298016365
 10
532.5050826147278
 20
524.9789680819234
 10
532.5589212983825
 20
525.2750808420195
 10
532.6665986656887
 20
525.4904355766349
 10
532.8281147166526
 20
525.6519516275963
 10
532.9896307676119
 20
525.7865483367306
 10
533.3395822113605
 20
525.8673063622112
 10
533.4741789204963
 20
525.8942257040381
 10
533.7664460603308
 20
525.8942257040381
 10
533.7664460603308
 20
527.9631694044476
 10
532.8011953748236
 20
527.9631694044476
 10
532.2897278801129
 20
527.9362500626208
 10
531.8320990690574
 20
527.8554920371401
 10
531.4283089416554
 20
527.7208953280064
 10
531.0783574979035
 20
527.5862986188715
 10
530.8091640796332
 20
527.3978632260833
 10
530.5668900031919
 20
527.2132734535566
 10
530.3784546104041
 20
526.9979187189409
 10
530.2438579012715
 20
526.7825639843271
 10
530.0285031666546
 20
526.3518545150961
 10
529.9208257993472
 20
525.9480643876918
 10
529.8939064575201
 20
525.5981129439402
 10
529.8939064575201
 20
516.3186312541879
 10
532.5050826147278
 20
516.3186312541879
 97
        0
 92
        7
 72
     0
 73
     1
 93
        4
 10
537.3467185233078
 20
527.9631694044476
 10
534.6278649987916
 20
527.9631694044476
 10
534.6278649987916
 20
516.3186312541879
 10
537.3467185233078
 20
516.3186312541879
 97
        0
 92
        7
 72
     0
 73
     1
 93
       54
 10
546.2454838072241
 20
522.0755247848805
 10
546.003209730782
 20
522.6139116214193
 10
545.6532582870326
 20
523.152298457957
 10
545.2494681596298
 20
523.6060816487524
 10
544.7418462851785
 20
524.0367911179832
 10
544.1765401068161
 20
524.3867425617319
 10
543.5573952447965
 20
524.6559359800012
 10
542.8844116991237
 20
524.8443713727896
 10
542.1845088116251
 20
524.8982100564433
 10
541.6730413169146
 20
524.8712907146162
 10
541.2192581261164
 20
524.7905326891362
 10
540.7885486568877
 20
524.6828553218283
 10
540.3847585294819
 20
524.5213392708664
 10
540.0078877439069
 20
524.3329038780781
 10
539.6848556419846
 20
524.1175491434631
 10
539.388742881891
 20
523.8483557251946
 10
539.0926301217951
 20
523.5791623069258
 10
538.8772753871797
 20
523.2868951670909
 10
538.6619206525647
 20
522.9638630651692
 10
538.4734852597754
 20
522.6139116214193
 10
538.338888550641
 20
522.2639601776701
 10
538.1504531578533
 20
521.5371379483436
 10
538.0696951323714
 20
520.7833963771897
 10
538.0966144741986
 20
520.2180901988266
 10
538.1773724996799
 20
519.7104683243764
 10
538.3119692088143
 20
519.2259201714923
 10
538.5004046016031
 20
518.7682913604341
 10
538.7157593362188
 20
518.3645012330273
 10
538.9580334126602
 20
517.9876304474546
 10
539.2541461727549
 20
517.6376790037055
 10
539.6040976165048
 20
517.3146469017832
 10
539.9540490602546
 20
517.0454534835138
 10
540.3309198458294
 20
516.8300987488986
 10
540.7347099732344
 20
516.6147440142832
 10
541.1385001006379
 20
516.4532279633223
 10
541.592283291436
 20
516.3455505960135
 10
542.0229927606625
 20
516.2378732287073
 10
542.4806215717211
 20
516.1840345450533
 10
542.9382503827762
 20
516.1840345450533
 10
543.5573952447952
 20
516.2109538868803
 10
544.1227014231619
 20
516.2917119123609
 10
544.6341689178708
 20
516.3993892796683
 10
545.0379590452761
 20
516.5339859888027
 10
545.6263389452036
 20
516.8031794070722
 10
545.8147743379936
 20
516.9108567743792
 10
545.8147743379949
 20
519.5489522734141
 10
545.2225488178036
 20
519.1451621460116
 10
544.6341689178724
 20
518.8221300440881
 10
543.9611853722006
 20
518.5798559676468
 10
543.6381532702767
 20
518.4990979421658
 10
543.3151211683544
 20
518.472178600339
 10
542.776734331817
 20
518.472178600339
 10
542.3998635462408
 20
518.5529366258198
 10
542.2383474952796
 20
518.5798559676468
 97
        0
 92
       22
 72
     0
 73
     1
 93
       15
 10
540.4385972131377
 20
520.8103157190171
 10
540.4655165549642
 20
521.1333478209394
 10
540.5462745804467
 20
521.4832992646894
 10
540.734709973234
 20
521.8601700502651
 10
541.0577420751576
 20
522.2370408358423
 10
541.4307672404711
 20
522.5062342541112
 10
541.8345573678752
 20
522.6408309632456
 10
542.2114281534512
 20
522.6677503050724
 10
542.5344602553751
 20
522.6139116214186
 10
542.8305730154696
 20
522.5331535959382
 10
543.0459277500856
 20
522.4254762286301
 10
543.234363142874
 20
522.3177988613229
 10
540.6270326059269
 20
520.137332173345
 10
540.5462745804467
 20
520.3257675661323
 10
540.4924358967925
 20
520.5411223007433
 97
        0
 92
        7
 72
     0
 73
     1
 93
       66
 10
553.1560634162112
 20
520.5411223007486
 10
552.9407086815969
 20
520.6757190098831
 10
552.75611890907
 20
520.7833963771903
 10
553.1291440743851
 20
521.0256704536318
 10
553.3983374926541
 20
521.3487025555536
 10
553.6136922272699
 20
521.6986539993053
 10
553.7482889364048
 20
522.0486054430542
 10
553.8559663037111
 20
522.6408309632454
 10
553.8559663037111
 20
522.9100243815146
 10
553.8559663037111
 20
524.7097746636551
 10
551.3293937922444
 20
524.7097746636551
 10
551.329393792246
 20
523.1792177997852
 10
551.3024744504183
 20
522.990782406996
 10
551.1947970831113
 20
522.6139116214195
 10
551.0871197158031
 20
522.4254762286307
 10
550.8986843230143
 20
522.2370408358423
 10
550.6294909047463
 20
522.1024441267076
 10
550.3064588028236
 20
522.0755247848809
 10
549.9834267009004
 20
522.1024441267076
 10
549.7142332826318
 20
522.2370408358423
 10
549.5527172316708
 20
522.3985568868032
 10
549.4450398643627
 20
522.6139116214186
 10
549.3642818388823
 20
522.9907824069957
 10
549.3642818388823
 20
523.1522984579563
 10
549.3642818388823
 20
524.7097746636551
 10
546.7838706437616
 20
524.7097746636551
 10
546.7838706437616
 20
522.8831050396869
 10
546.8377093274161
 20
522.3177988613237
 10
546.9723060365496
 20
521.8870893920933
 10
547.1338220875117
 20
521.5102186065162
 10
547.3491768221266
 20
521.2410251882489
 10
547.564531556743
 20
521.0256704536318
 10
547.7260476077036
 20
520.8910737444977
 10
547.9144830004923
 20
520.7833963771903
 10
547.6722089240505
 20
520.6757190098833
 10
547.4837735312631
 20
520.5411223007489
 10
547.1876607711654
 20
520.2180901988266
 10
546.9453866947242
 20
519.8412194132491
 10
546.8107899855878
 20
519.4681942479345
 10
546.7031126182813
 20
519.1182428041851
 10
546.6492739346278
 20
518.8221300440875
 10
546.6223545928005
 20
518.552936625818
 10
546.6223545928005
 20
516.3186312541879
 10
549.3104431552294
 20
516.3186312541879
 10
549.3104431552283
 20
518.3645012330325
 10
549.3373624970558
 20
518.5798559676495
 10
549.3642818388833
 20
518.7682913604342
 10
549.418120522536
 20
519.0105654368767
 10
549.5527172316696
 20
519.2259201714913
 10
549.7411526244591
 20
519.4412749061068
 10
550.0103460427283
 20
519.5758716152416
 10
550.3872168283049
 20
519.6297102988951
 10
550.7371682720531
 20
519.5758716152416
 10
551.0063616903223
 20
519.4412749061066
 10
551.1678777412839
 20
519.2259201714916
 10
551.275555108592
 20
518.9836460950511
 10
551.329393792246
 20
518.7682913604328
 10
551.3563131340723
 20
518.5529366258198
 10
551.3563131340723
 20
518.3645012330316
 10
551.3563131340723
 20
516.3186312541879
 10
554.0174823546737
 20
516.3186312541879
 10
554.0174823546737
 20
518.5798559676477
 10
553.9636436710196
 20
519.1720814878383
 10
553.8021276200588
 20
519.656629640721
 10
553.6136922272683
 20
520.0296548060381
 10
553.3714181508277
 20
520.3257675661335
 97
        0
 75
     0
 76
     1
 47
0.04298
 98
        8
 10
518.5892905681863
 20
521.2178228957924
 10
523.9553425681862
 20
518.7987608957923
 10
523.9553425681862
 20
518.7987608957923
 10
531.3205175681863
 20
519.8505258957924
 10
536.1604865681863
 20
520.3764088957924
 10
539.4222055681863
 20
520.9022908957924
 10
539.4222055681863
 20
520.9022908957924
 10
548.6812775681864
 20
520.4815858957926
  0
LINE
  5
1F7
330
2
100
AcDbEntity
  8
AM_4
100
AcDbLine
 10
546.2454835681864
 20
522.0755248957924
 30
0.0
 11
542.2383475681863
 21
518.5798558957924
 31
0.0
  0
LINE
  5
1F8
330
2
100
AcDbEntity
  8
AM_4
100
AcDbLine
 10
518.3301265681863
 20
524.4405808957924
 30
0.0
 11
518.0647785681863
 21
524.2521458957924
 31
0.0
  0
LINE
  5
1F9
330
2
100
AcDbEntity
  8
AM_4
100
AcDbLine
 10
517.1495205681862
 20
516.2917118957924
 30
0.0
 11
519.7568515681863
 21
516.2917118957924
 31
0.0
  0
LINE
  5
1FA
330
2
100
AcDbEntity
  8
AM_4
100
AcDbLine
 10
517.8225045681863
 20
524.0637108957924
 30
0.0
 11
517.6340685681863
 21
523.8483558957924
 31
0.0
  0
LINE
  5
1FB
330
2
100
AcDbEntity
  8
AM_4
100
AcDbLine
 10
517.4725525681862
 20
523.6330008957925
 30
0.0
 11
517.2841175681863
 21
523.1792178957923
 31
0.0
  0
LINE
  5
1FC
330
2
100
AcDbEntity
  8
AM_4
100
AcDbLine
 10
517.2841175681863
 20
523.1792178957923
 30
0.0
 11
517.1764405681862
 21
522.8023468957924
 31
0.0
  0
LINE
  5
1FD
330
2
100
AcDbEntity
  8
AM_4
100
AcDbLine
 10
517.1764405681862
 20
522.8023468957924
 30
0.0
 11
517.1495205681862
 21
522.4523958957925
 31
0.0
  0
LINE
  5
1FE
330
2
100
AcDbEntity
  8
AM_4
100
AcDbLine
 10
517.6340685681863
 20
523.8483558957924
 30
0.0
 11
517.4725525681862
 21
523.6330008957925
 31
0.0
  0
LINE
  5
1FF
330
2
100
AcDbEntity
  8
AM_4
100
AcDbLine
 10
517.1495205681862
 20
522.4523958957925
 30
0.0
 11
517.1495205681862
 21
516.2917118957924
 31
0.0
  0
ARC
  5
200
330
2
100
AcDbEntity
  8
AM_4
100
AcDbCircle
 10
513.7527335681864
 20
528.7749698957924
 30
0.0
 40
1.428795999999999
100
AcDbArc
 50
90.0
 51
180.0
  0
ARC
  5
201
330
2
100
AcDbEntity
  8
AM_4
100
AcDbCircle
 10
513.7527335681864
 20
528.7749698957924
 30
0.0
 40
1.837022999999999
100
AcDbArc
 50
90.0
 51
180.0
  0
ARC
  5
202
330
2
100
AcDbEntity
  8
AM_4
100
AcDbCircle
 10
513.7527335681864
 20
528.7749698957924
 30
0.0
 40
1.460545999999999
100
AcDbArc
 50
90.0
 51
180.0
  0
LINE
  5
203
330
2
100
AcDbEntity
  8
AM_4
100
AcDbLine
 10
511.9157105681863
 20
528.7749698957924
 30
0.0
 11
512.3239385681863
 21
528.7749698957924
 31
0.0
  0
LINE
  5
204
330
2
100
AcDbEntity
  8
AM_4
100
AcDbLine
 10
512.0636195681863
 20
529.4849308957926
 30
0.0
 11
512.0310795681863
 21
529.4021018957923
 31
0.0
  0
LINE
  5
205
330
2
100
AcDbEntity
  8
AM_4
100
AcDbLine
 10
511.9275435681863
 20
528.9583768957924
 30
0.0
 11
511.9186685681863
 21
528.8666728957925
 31
0.0
  0
LINE
  5
206
330
2
100
AcDbEntity
  8
AM_4
100
AcDbLine
 10
511.9157105681863
 20
528.7749698957924
 30
0.0
 11
511.9157105681863
 21
528.7749698957924
 31
0.0
  0
LINE
  5
207
330
2
100
AcDbEntity
  8
AM_4
100
AcDbLine
 10
511.9186685681863
 20
528.8666728957925
 30
0.0
 11
511.9157105681863
 21
528.7749698957924
 31
0.0
  0
LINE
  5
208
330
2
100
AcDbEntity
  8
AM_4
100
AcDbLine
 10
512.0310795681863
 20
529.4021018957923
 30
0.0
 11
512.0014975681863
 21
529.3163148957924
 31
0.0
  0
LINE
  5
209
330
2
100
AcDbEntity
  8
AM_4
100
AcDbLine
 10
512.0014975681863
 20
529.3163148957924
 30
0.0
 11
511.9748745681863
 21
529.2305278957924
 31
0.0
  0
LINE
  5
20A
330
2
100
AcDbEntity
  8
AM_4
100
AcDbLine
 10
511.9748745681863
 20
529.2305278957924
 30
0.0
 11
511.9541665681863
 21
529.1417828957925
 31
0.0
  0
LINE
  5
20B
330
2
100
AcDbEntity
  8
AM_4
100
AcDbLine
 10
511.9541665681863
 20
529.1417828957925
 30
0.0
 11
511.9393755681863
 21
529.0500798957926
 31
0.0
  0
LINE
  5
20C
330
2
100
AcDbEntity
  8
AM_4
100
AcDbLine
 10
511.9393755681863
 20
529.0500798957926
 30
0.0
 11
511.9275435681863
 21
528.9583768957924
 31
0.0
  0
LINE
  5
20D
330
2
100
AcDbEntity
  8
AM_4
100
AcDbLine
 10
512.3298545681863
 20
528.9169618957925
 30
0.0
 11
512.3387285681863
 21
528.9879578957924
 31
0.0
  0
LINE
  5
20E
330
2
100
AcDbEntity
  8
AM_4
100
AcDbLine
 10
512.1198245681863
 20
528.7749698957924
 30
0.0
 11
512.1612385681864
 21
529.1033268957924
 31
0.0
  0
LINE
  5
20F
330
2
100
AcDbEntity
  8
AM_4
100
AcDbLine
 10
512.3239385681863
 20
528.8459658957926
 30
0.0
 11
512.3298545681863
 21
528.9169618957925
 31
0.0
  0
LINE
  5
210
330
2
100
AcDbEntity
  8
AM_4
100
AcDbLine
 10
512.5221355681865
 20
530.1298118957925
 30
0.0
 11
512.4600135681864
 21
530.0676898957926
 31
0.0
  0
LINE
  5
211
330
2
100
AcDbEntity
  8
AM_4
100
AcDbLine
 10
512.4659305681863
 20
529.3873108957924
 30
0.0
 11
512.4984705681863
 21
529.4494328957925
 31
0.0
  0
LINE
  5
212
330
2
100
AcDbEntity
  8
AM_4
100
AcDbLine
 10
512.4097245681863
 20
529.6831278957925
 30
0.0
 11
512.6167965681863
 21
529.9316138957926
 31
0.0
  0
LINE
  5
213
330
2
100
AcDbEntity
  8
AM_4
100
AcDbLine
 10
512.4600135681864
 20
530.0676898957926
 30
0.0
 11
512.3978925681861
 21
530.0026098957925
 31
0.0
  0
LINE
  5
214
330
2
100
AcDbEntity
  8
AM_4
100
AcDbLine
 10
512.3978925681861
 20
530.0026098957925
 30
0.0
 11
512.3416875681863
 21
529.9375308957925
 31
0.0
  0
LINE
  5
215
330
2
100
AcDbEntity
  8
AM_4
100
AcDbLine
 10
512.3416875681863
 20
529.9375308957925
 30
0.0
 11
512.2854815681863
 21
529.8665348957926
 31
0.0
  0
LINE
  5
216
330
2
100
AcDbEntity
  8
AM_4
100
AcDbLine
 10
512.2854815681863
 20
529.8665348957926
 30
0.0
 11
512.2351925681863
 21
529.7955388957924
 31
0.0
  0
LINE
  5
217
330
2
100
AcDbEntity
  8
AM_4
100
AcDbLine
 10
512.2351925681863
 20
529.7955388957924
 30
0.0
 11
512.1849045681861
 21
529.7215838957924
 31
0.0
  0
LINE
  5
218
330
2
100
AcDbEntity
  8
AM_4
100
AcDbLine
 10
512.1849045681861
 20
529.7215838957924
 30
0.0
 11
512.1405315681863
 21
529.6446718957923
 31
0.0
  0
LINE
  5
219
330
2
100
AcDbEntity
  8
AM_4
100
AcDbLine
 10
512.1405315681863
 20
529.6446718957923
 30
0.0
 11
512.0991175681863
 21
529.5648008957924
 31
0.0
  0
LINE
  5
21A
330
2
100
AcDbEntity
  8
AM_4
100
AcDbLine
 10
512.0991175681863
 20
529.5648008957924
 30
0.0
 11
512.0636195681863
 21
529.4849308957926
 31
0.0
  0
LINE
  5
21B
330
2
100
AcDbEntity
  8
AM_4
100
AcDbLine
 10
512.3387285681863
 20
528.9879578957924
 30
0.0
 11
512.3535195681863
 21
529.0589538957926
 31
0.0
  0
LINE
  5
21C
330
2
100
AcDbEntity
  8
AM_4
100
AcDbLine
 10
512.3535195681863
 20
529.0589538957926
 30
0.0
 11
512.3683105681863
 21
529.1269918957924
 31
0.0
  0
LINE
  5
21D
330
2
100
AcDbEntity
  8
AM_4
100
AcDbLine
 10
512.3683105681863
 20
529.1269918957924
 30
0.0
 11
512.3890175681863
 21
529.1920718957924
 31
0.0
  0
LINE
  5
21E
330
2
100
AcDbEntity
  8
AM_4
100
AcDbLine
 10
512.3890175681863
 20
529.1920718957924
 30
0.0
 11
512.4097245681863
 21
529.2601098957923
 31
0.0
  0
LINE
  5
21F
330
2
100
AcDbEntity
  8
AM_4
100
AcDbLine
 10
512.4097245681863
 20
529.2601098957923
 30
0.0
 11
512.4363485681863
 21
529.3251898957925
 31
0.0
  0
LINE
  5
220
330
2
100
AcDbEntity
  8
AM_4
100
AcDbLine
 10
512.4363485681863
 20
529.3251898957925
 30
0.0
 11
512.4659305681863
 21
529.3873108957924
 31
0.0
  0
LINE
  5
221
330
2
100
AcDbEntity
  8
AM_4
100
AcDbLine
 10
512.1612385681864
 20
529.1033268957924
 30
0.0
 11
512.2647745681863
 21
529.4139348957924
 31
0.0
  0
LINE
  5
222
330
2
100
AcDbEntity
  8
AM_4
100
AcDbLine
 10
512.2647745681863
 20
529.4139348957924
 30
0.0
 11
512.4097245681863
 21
529.6831278957925
 31
0.0
  0
LINE
  5
223
330
2
100
AcDbEntity
  8
AM_4
100
AcDbLine
 10
513.7527335681864
 20
530.6119928957923
 30
0.0
 11
513.6610305681863
 21
530.6090348957924
 31
0.0
  0
LINE
  5
224
330
2
100
AcDbEntity
  8
AM_4
100
AcDbLine
 10
513.6610305681863
 20
530.6090348957924
 30
0.0
 11
513.5693275681865
 21
530.6001608957926
 31
0.0
  0
LINE
  5
225
330
2
100
AcDbEntity
  8
AM_4
100
AcDbLine
 10
513.5693275681865
 20
530.6001608957926
 30
0.0
 11
513.4776245681863
 21
530.5883278957923
 31
0.0
  0
LINE
  5
226
330
2
100
AcDbEntity
  8
AM_4
100
AcDbLine
 10
513.4776245681863
 20
530.5883278957923
 30
0.0
 11
513.3859205681862
 21
530.5735368957924
 31
0.0
  0
LINE
  5
227
330
2
100
AcDbEntity
  8
AM_4
100
AcDbLine
 10
513.3859205681862
 20
530.5735368957924
 30
0.0
 11
513.2971755681864
 21
530.5528298957924
 31
0.0
  0
LINE
  5
228
330
2
100
AcDbEntity
  8
AM_4
100
AcDbLine
 10
513.2971755681864
 20
530.5528298957924
 30
0.0
 11
513.2113885681863
 21
530.5262058957923
 31
0.0
  0
LINE
  5
229
330
2
100
AcDbEntity
  8
AM_4
100
AcDbLine
 10
513.2113885681863
 20
530.5262058957923
 30
0.0
 11
513.1256015681863
 21
530.4966248957923
 31
0.0
  0
LINE
  5
22A
330
2
100
AcDbEntity
  8
AM_4
100
AcDbLine
 10
513.1256015681863
 20
530.4966248957923
 30
0.0
 11
513.0427735681863
 21
530.4640848957924
 31
0.0
  0
LINE
  5
22B
330
2
100
AcDbEntity
  8
AM_4
100
AcDbLine
 10
513.0427735681863
 20
530.4640848957924
 30
0.0
 11
512.9629025681863
 21
530.4285868957925
 31
0.0
  0
LINE
  5
22C
330
2
100
AcDbEntity
  8
AM_4
100
AcDbLine
 10
512.9629025681863
 20
530.4285868957925
 30
0.0
 11
512.8830325681863
 21
530.3871718957926
 31
0.0
  0
LINE
  5
22D
330
2
100
AcDbEntity
  8
AM_4
100
AcDbLine
 10
512.8830325681863
 20
530.3871718957926
 30
0.0
 11
512.8061195681863
 21
530.3427998957925
 31
0.0
  0
LINE
  5
22E
330
2
100
AcDbEntity
  8
AM_4
100
AcDbLine
 10
512.8061195681863
 20
530.3427998957925
 30
0.0
 11
512.7321655681863
 21
530.2925108957926
 31
0.0
  0
LINE
  5
22F
330
2
100
AcDbEntity
  8
AM_4
100
AcDbLine
 10
512.7321655681863
 20
530.2925108957926
 30
0.0
 11
512.6611695681863
 21
530.2422218957924
 31
0.0
  0
LINE
  5
230
330
2
100
AcDbEntity
  8
AM_4
100
AcDbLine
 10
512.6611695681863
 20
530.2422218957924
 30
0.0
 11
512.5901735681862
 21
530.1860168957923
 31
0.0
  0
LINE
  5
231
330
2
100
AcDbEntity
  8
AM_4
100
AcDbLine
 10
512.5901735681862
 20
530.1860168957923
 30
0.0
 11
512.5221355681865
 21
530.1298118957925
 31
0.0
  0
LINE
  5
232
330
2
100
AcDbEntity
  8
AM_4
100
AcDbLine
 10
512.4984705681863
 20
529.4494328957925
 30
0.0
 11
512.5694665681863
 21
529.5677588957925
 31
0.0
  0
LINE
  5
233
330
2
100
AcDbEntity
  8
AM_4
100
AcDbLine
 10
512.5694665681863
 20
529.5677588957925
 30
0.0
 11
512.6108805681862
 21
529.6239648957923
 31
0.0
  0
LINE
  5
234
330
2
100
AcDbEntity
  8
AM_4
100
AcDbLine
 10
512.6108805681862
 20
529.6239648957923
 30
0.0
 11
512.6522945681863
 21
529.6772118957924
 31
0.0
  0
LINE
  5
235
330
2
100
AcDbEntity
  8
AM_4
100
AcDbLine
 10
512.6522945681863
 20
529.6772118957924
 30
0.0
 11
512.6996255681863
 21
529.7304588957926
 31
0.0
  0
LINE
  5
236
330
2
100
AcDbEntity
  8
AM_4
100
AcDbLine
 10
512.6996255681863
 20
529.7304588957926
 30
0.0
 11
512.7469565681862
 21
529.7807478957925
 31
0.0
  0
LINE
  5
237
330
2
100
AcDbEntity
  8
AM_4
100
AcDbLine
 10
512.7469565681862
 20
529.7807478957925
 30
0.0
 11
512.7972455681863
 21
529.8280778957924
 31
0.0
  0
LINE
  5
238
330
2
100
AcDbEntity
  8
AM_4
100
AcDbLine
 10
512.7972455681863
 20
529.8280778957924
 30
0.0
 11
512.9037395681863
 21
529.9168228957925
 31
0.0
  0
LINE
  5
239
330
2
100
AcDbEntity
  8
AM_4
100
AcDbLine
 10
512.9037395681863
 20
529.9168228957925
 30
0.0
 11
512.9599445681862
 21
529.9582378957924
 31
0.0
  0
LINE
  5
23A
330
2
100
AcDbEntity
  8
AM_4
100
AcDbLine
 10
512.9599445681862
 20
529.9582378957924
 30
0.0
 11
513.0782715681863
 21
530.0292338957924
 31
0.0
  0
LINE
  5
23B
330
2
100
AcDbEntity
  8
AM_4
100
AcDbLine
 10
513.0782715681863
 20
530.0292338957924
 30
0.0
 11
513.1403925681864
 21
530.0617738957924
 31
0.0
  0
LINE
  5
23C
330
2
100
AcDbEntity
  8
AM_4
100
AcDbLine
 10
513.1403925681864
 20
530.0617738957924
 30
0.0
 11
513.2025145681863
 21
530.0913548957923
 31
0.0
  0
LINE
  5
23D
330
2
100
AcDbEntity
  8
AM_4
100
AcDbLine
 10
513.2025145681863
 20
530.0913548957923
 30
0.0
 11
513.3326735681865
 21
530.1386858957925
 31
0.0
  0
LINE
  5
23E
330
2
100
AcDbEntity
  8
AM_4
100
AcDbLine
 10
513.3326735681865
 20
530.1386858957925
 30
0.0
 11
513.4007115681863
 21
530.1593928957925
 31
0.0
  0
LINE
  5
23F
330
2
100
AcDbEntity
  8
AM_4
100
AcDbLine
 10
513.4007115681863
 20
530.1593928957925
 30
0.0
 11
513.4687495681864
 21
530.1741838957926
 31
0.0
  0
LINE
  5
240
330
2
100
AcDbEntity
  8
AM_4
100
AcDbLine
 10
513.4687495681864
 20
530.1741838957926
 30
0.0
 11
513.5397455681864
 21
530.1889748957925
 31
0.0
  0
LINE
  5
241
330
2
100
AcDbEntity
  8
AM_4
100
AcDbLine
 10
513.5397455681864
 20
530.1889748957925
 30
0.0
 11
513.6107415681863
 21
530.1978498957923
 31
0.0
  0
LINE
  5
242
330
2
100
AcDbEntity
  8
AM_4
100
AcDbLine
 10
513.6107415681863
 20
530.1978498957923
 30
0.0
 11
513.6817375681864
 21
530.2037658957925
 31
0.0
  0
LINE
  5
243
330
2
100
AcDbEntity
  8
AM_4
100
AcDbLine
 10
513.7527335681864
 20
530.6119928957923
 30
0.0
 11
513.7527335681864
 21
530.6119928957923
 31
0.0
  0
LINE
  5
244
330
2
100
AcDbEntity
  8
AM_4
100
AcDbLine
 10
513.7527335681864
 20
530.6119928957923
 30
0.0
 11
513.7527335681864
 21
530.2037658957925
 31
0.0
  0
LINE
  5
245
330
2
100
AcDbEntity
  8
AM_4
100
AcDbLine
 10
512.6167965681863
 20
529.9316138957926
 30
0.0
 11
512.8445755681863
 21
530.1179788957925
 31
0.0
  0
LINE
  5
246
330
2
100
AcDbEntity
  8
AM_4
100
AcDbLine
 10
512.8445755681863
 20
530.1179788957925
 30
0.0
 11
513.1344765681863
 21
530.2836358957924
 31
0.0
  0
LINE
  5
247
330
2
100
AcDbEntity
  8
AM_4
100
AcDbLine
 10
513.1344765681863
 20
530.2836358957924
 30
0.0
 11
513.4243775681863
 21
530.3664648957924
 31
0.0
  0
LINE
  5
248
330
2
100
AcDbEntity
  8
AM_4
100
AcDbLine
 10
513.4243775681863
 20
530.3664648957924
 30
0.0
 11
513.7527335681864
 21
530.4078798957926
 31
0.0
  0
LINE
  5
249
330
2
100
AcDbEntity
  8
AM_4
100
AcDbLine
 10
513.7527335681864
 20
530.4078798957926
 30
0.0
 11
513.7527335681864
 21
530.4078798957926
 31
0.0
  0
LINE
  5
24A
330
2
100
AcDbEntity
  8
AM_4
100
AcDbLine
 10
518.0647785681863
 20
524.2521458957924
 30
0.0
 11
517.8225045681863
 21
524.0637108957924
 31
0.0
  0
LINE
  5
24B
330
2
100
AcDbEntity
  8
AM_4
100
AcDbLine
 10
530.3784545681863
 20
526.9979188957925
 30
0.0
 11
530.5668895681862
 21
527.2132738957926
 31
0.0
  0
LINE
  5
24C
330
2
100
AcDbEntity
  8
AM_4
100
AcDbLine
 10
532.5050825681863
 20
516.3186308957924
 30
0.0
 11
529.8939065681865
 21
516.3186308957924
 31
0.0
  0
LINE
  5
24D
330
2
100
AcDbEntity
  8
AM_4
100
AcDbLine
 10
527.8249625681864
 20
524.0367908957924
 30
0.0
 11
528.3364305681863
 21
523.6060818957923
 31
0.0
  0
LINE
  5
24E
330
2
100
AcDbEntity
  8
AM_4
100
AcDbLine
 10
522.1757465681863
 20
523.5791618957923
 30
0.0
 11
522.7679725681863
 21
524.1175488957924
 31
0.0
  0
LINE
  5
24F
330
2
100
AcDbEntity
  8
AM_4
100
AcDbLine
 10
521.0220605681865
 20
522.5600728957926
 30
0.0
 11
521.0220605681865
 21
524.7905328957926
 31
0.0
  0
LINE
  5
250
330
2
100
AcDbEntity
  8
AM_4
100
AcDbLine
 10
529.8939065681865
 20
516.3186308957924
 30
0.0
 11
529.8939065681865
 21
525.5981128957925
 31
0.0
  0
LINE
  5
251
330
2
100
AcDbEntity
  8
AM_4
100
AcDbLine
 10
524.5177295681863
 20
522.5062338957924
 30
0.0
 11
524.1408585681863
 21
522.2370408957925
 31
0.0
  0
LINE
  5
252
330
2
100
AcDbEntity
  8
AM_4
100
AcDbLine
 10
523.7101495681863
 20
520.1373318957925
 30
0.0
 11
526.3174795681862
 21
522.3177988957925
 31
0.0
  0
LINE
  5
253
330
2
100
AcDbEntity
  8
AM_4
100
AcDbLine
 10
524.6792455681863
 20
516.3455508957923
 30
0.0
 11
524.2216165681863
 21
516.4532278957924
 31
0.0
  0
LINE
  5
254
330
2
100
AcDbEntity
  8
AM_4
100
AcDbLine
 10
521.2374155681863
 20
521.5371378957923
 30
0.0
 11
521.4258505681863
 21
522.2639598957925
 31
0.0
  0
LINE
  5
255
330
2
100
AcDbEntity
  8
AM_4
100
AcDbLine
 10
521.4258505681863
 20
522.2639598957925
 30
0.0
 11
521.5604475681863
 21
522.6139118957925
 31
0.0
  0
LINE
  5
256
330
2
100
AcDbEntity
  8
AM_4
100
AcDbLine
 10
521.5604475681863
 20
522.6139118957925
 30
0.0
 11
521.7488825681863
 21
522.9638628957924
 31
0.0
  0
LINE
  5
257
330
2
100
AcDbEntity
  8
AM_4
100
AcDbLine
 10
521.7488825681863
 20
522.9638628957924
 30
0.0
 11
521.9373185681863
 21
523.2868948957924
 31
0.0
  0
LINE
  5
258
330
2
100
AcDbEntity
  8
AM_4
100
AcDbLine
 10
521.9373185681863
 20
523.2868948957924
 30
0.0
 11
522.1757465681863
 21
523.5791618957923
 31
0.0
  0
LINE
  5
259
330
2
100
AcDbEntity
  8
AM_4
100
AcDbLine
 10
524.1408585681863
 20
522.2370408957925
 30
0.0
 11
523.8178265681863
 21
521.8601698957924
 31
0.0
  0
LINE
  5
25A
330
2
100
AcDbEntity
  8
AM_4
100
AcDbLine
 10
523.8178265681863
 20
521.8601698957924
 30
0.0
 11
523.6293905681862
 21
521.4832988957924
 31
0.0
  0
LINE
  5
25B
330
2
100
AcDbEntity
  8
AM_4
100
AcDbLine
 10
523.6293905681862
 20
521.4832988957924
 30
0.0
 11
523.5486325681863
 21
521.1333478957924
 31
0.0
  0
LINE
  5
25C
330
2
100
AcDbEntity
  8
AM_4
100
AcDbLine
 10
520.7259475681864
 20
522.5600728957926
 30
0.0
 11
521.0220605681865
 21
522.5600728957926
 31
0.0
  0
LINE
  5
25D
330
2
100
AcDbEntity
  8
AM_4
100
AcDbLine
 10
521.2643345681863
 20
519.7104678957924
 30
0.0
 11
521.1835765681863
 21
520.2180898957927
 31
0.0
  0
LINE
  5
25E
330
2
100
AcDbEntity
  8
AM_4
100
AcDbLine
 10
521.1835765681863
 20
520.2180898957927
 30
0.0
 11
521.1566575681863
 21
520.7833958957924
 31
0.0
  0
LINE
  5
25F
330
2
100
AcDbEntity
  8
AM_4
100
AcDbLine
 10
523.5217135681863
 20
520.8103158957924
 30
0.0
 11
523.5755525681865
 21
520.5411218957926
 31
0.0
  0
LINE
  5
260
330
2
100
AcDbEntity
  8
AM_4
100
AcDbLine
 10
523.5755525681865
 20
520.5411218957926
 30
0.0
 11
523.6293905681862
 21
520.3257678957924
 31
0.0
  0
LINE
  5
261
330
2
100
AcDbEntity
  8
AM_4
100
AcDbLine
 10
523.6293905681862
 20
520.3257678957924
 30
0.0
 11
523.7101495681863
 21
520.1373318957925
 31
0.0
  0
LINE
  5
262
330
2
100
AcDbEntity
  8
AM_4
100
AcDbLine
 10
523.7101495681863
 20
520.1373318957925
 30
0.0
 11
523.7101495681863
 21
520.1373318957925
 31
0.0
  0
LINE
  5
263
330
2
100
AcDbEntity
  8
AM_4
100
AcDbLine
 10
521.1566575681863
 20
520.7833958957924
 30
0.0
 11
521.2374155681863
 21
521.5371378957923
 31
0.0
  0
LINE
  5
264
330
2
100
AcDbEntity
  8
AM_4
100
AcDbLine
 10
523.5486325681863
 20
521.1333478957924
 30
0.0
 11
523.5217135681863
 21
520.8103158957924
 31
0.0
  0
LINE
  5
265
330
2
100
AcDbEntity
  8
AM_4
100
AcDbLine
 10
519.8106905681863
 20
521.9409278957924
 30
0.0
 11
519.9183675681863
 21
522.1562828957925
 31
0.0
  0
LINE
  5
266
330
2
100
AcDbEntity
  8
AM_4
100
AcDbLine
 10
519.7568515681863
 20
521.6448148957924
 30
0.0
 11
519.8106905681863
 21
521.9409278957924
 31
0.0
  0
LINE
  5
267
330
2
100
AcDbEntity
  8
AM_4
100
AcDbLine
 10
519.7568515681863
 20
521.6448148957924
 30
0.0
 11
519.7568515681863
 21
521.6448148957924
 31
0.0
  0
LINE
  5
268
330
2
100
AcDbEntity
  8
AM_4
100
AcDbLine
 10
519.9183675681863
 20
522.1562828957925
 30
0.0
 11
520.0798835681863
 21
522.3177988957925
 31
0.0
  0
LINE
  5
269
330
2
100
AcDbEntity
  8
AM_4
100
AcDbLine
 10
520.0798835681863
 20
522.3177988957925
 30
0.0
 11
520.2413995681864
 21
522.4523958957925
 31
0.0
  0
LINE
  5
26A
330
2
100
AcDbEntity
  8
AM_4
100
AcDbLine
 10
520.2413995681864
 20
522.4523958957925
 30
0.0
 11
520.5644315681865
 21
522.5331538957926
 31
0.0
  0
LINE
  5
26B
330
2
100
AcDbEntity
  8
AM_4
100
AcDbLine
 10
520.5644315681865
 20
522.5331538957926
 30
0.0
 11
520.7259475681864
 21
522.5600728957926
 31
0.0
  0
LINE
  5
26C
330
2
100
AcDbEntity
  8
AM_4
100
AcDbLine
 10
521.5873665681863
 20
518.7682908957924
 30
0.0
 11
521.3989315681863
 21
519.2259198957924
 31
0.0
  0
LINE
  5
26D
330
2
100
AcDbEntity
  8
AM_4
100
AcDbLine
 10
521.8027215681863
 20
518.3645008957925
 30
0.0
 11
521.5873665681863
 21
518.7682908957924
 31
0.0
  0
LINE
  5
26E
330
2
100
AcDbEntity
  8
AM_4
100
AcDbLine
 10
523.8178265681863
 20
516.6147438957924
 30
0.0
 11
523.4140365681865
 21
516.8300988957923
 31
0.0
  0
LINE
  5
26F
330
2
100
AcDbEntity
  8
AM_4
100
AcDbLine
 10
523.4140365681865
 20
516.8300988957923
 30
0.0
 11
523.0371655681863
 21
517.0454538957924
 31
0.0
  0
LINE
  5
270
330
2
100
AcDbEntity
  8
AM_4
100
AcDbLine
 10
523.0371655681863
 20
517.0454538957924
 30
0.0
 11
522.6602945681865
 21
517.3146468957924
 31
0.0
  0
LINE
  5
271
330
2
100
AcDbEntity
  8
AM_4
100
AcDbLine
 10
522.6602945681865
 20
517.3146468957924
 30
0.0
 11
522.3372625681864
 21
517.6376788957924
 31
0.0
  0
LINE
  5
272
330
2
100
AcDbEntity
  8
AM_4
100
AcDbLine
 10
522.3372625681864
 20
517.6376788957924
 30
0.0
 11
522.0449955681863
 21
517.9876308957926
 31
0.0
  0
LINE
  5
273
330
2
100
AcDbEntity
  8
AM_4
100
AcDbLine
 10
522.0449955681863
 20
517.9876308957926
 30
0.0
 11
521.8027215681863
 21
518.3645008957925
 31
0.0
  0
LINE
  5
274
330
2
100
AcDbEntity
  8
AM_4
100
AcDbLine
 10
524.2216165681863
 20
516.4532278957924
 30
0.0
 11
523.8178265681863
 21
516.6147438957924
 31
0.0
  0
LINE
  5
275
330
2
100
AcDbEntity
  8
AM_4
100
AcDbLine
 10
519.7568515681863
 20
516.2917118957924
 30
0.0
 11
519.7568515681863
 21
521.6448148957924
 31
0.0
  0
LINE
  5
276
330
2
100
AcDbEntity
  8
AM_4
100
AcDbLine
 10
521.3989315681863
 20
519.2259198957924
 30
0.0
 11
521.2643345681863
 21
519.7104678957924
 31
0.0
  0
LINE
  5
277
330
2
100
AcDbEntity
  8
AM_4
100
AcDbLine
 10
528.7402205681863
 20
523.1522988957926
 30
0.0
 11
529.0901715681862
 21
522.6139118957925
 31
0.0
  0
LINE
  5
278
330
2
100
AcDbEntity
  8
AM_4
100
AcDbLine
 10
529.0901715681862
 20
522.6139118957925
 30
0.0
 11
529.3324455681863
 21
522.0755248957924
 31
0.0
  0
LINE
  5
279
330
2
100
AcDbEntity
  8
AM_4
100
AcDbLine
 10
528.3364305681863
 20
523.6060818957923
 30
0.0
 11
528.7402205681863
 21
523.1522988957926
 31
0.0
  0
LINE
  5
27A
330
2
100
AcDbEntity
  8
AM_4
100
AcDbLine
 10
526.3174795681862
 20
522.3177988957925
 30
0.0
 11
526.1290445681863
 21
522.4254758957925
 31
0.0
  0
LINE
  5
27B
330
2
100
AcDbEntity
  8
AM_4
100
AcDbLine
 10
526.1290445681863
 20
522.4254758957925
 30
0.0
 11
525.9175355681864
 21
522.5331538957926
 31
0.0
  0
LINE
  5
27C
330
2
100
AcDbEntity
  8
AM_4
100
AcDbLine
 10
525.9175355681864
 20
522.5331538957926
 30
0.0
 11
525.6214225681863
 21
522.6139118957925
 31
0.0
  0
LINE
  5
27D
330
2
100
AcDbEntity
  8
AM_4
100
AcDbLine
 10
525.6214225681863
 20
522.6139118957925
 30
0.0
 11
525.2983905681864
 21
522.6677498957924
 31
0.0
  0
LINE
  5
27E
330
2
100
AcDbEntity
  8
AM_4
100
AcDbLine
 10
525.2983905681864
 20
522.6677498957924
 30
0.0
 11
524.9215195681863
 21
522.6408308957924
 31
0.0
  0
LINE
  5
27F
330
2
100
AcDbEntity
  8
AM_4
100
AcDbLine
 10
524.9215195681863
 20
522.6408308957924
 30
0.0
 11
524.5177295681863
 21
522.5062338957924
 31
0.0
  0
LINE
  5
280
330
2
100
AcDbEntity
  8
AM_4
100
AcDbLine
 10
528.9017365681863
 20
519.5489518957924
 30
0.0
 11
528.9017365681863
 21
516.9108568957924
 31
0.0
  0
LINE
  5
281
330
2
100
AcDbEntity
  8
AM_4
100
AcDbLine
 10
528.3095105681864
 20
519.1451618957925
 30
0.0
 11
528.9017365681863
 21
519.5489518957924
 31
0.0
  0
LINE
  5
282
330
2
100
AcDbEntity
  8
AM_4
100
AcDbLine
 10
529.8939065681865
 20
516.3186308957924
 30
0.0
 11
529.8939065681865
 21
516.3186308957924
 31
0.0
  0
LINE
  5
283
330
2
100
AcDbEntity
  8
AM_4
100
AcDbLine
 10
528.9017365681863
 20
516.9108568957924
 30
0.0
 11
528.7133005681863
 21
516.8031798957923
 31
0.0
  0
LINE
  5
284
330
2
100
AcDbEntity
  8
AM_4
100
AcDbLine
 10
528.1210755681863
 20
516.5339858957925
 30
0.0
 11
527.6903655681864
 21
516.3993888957924
 31
0.0
  0
LINE
  5
285
330
2
100
AcDbEntity
  8
AM_4
100
AcDbLine
 10
527.6903655681864
 20
516.3993888957924
 30
0.0
 11
527.2058175681864
 21
516.2917118957924
 31
0.0
  0
LINE
  5
286
330
2
100
AcDbEntity
  8
AM_4
100
AcDbLine
 10
527.0443015681864
 20
518.5798558957924
 30
0.0
 11
527.7172855681863
 21
518.8221298957925
 31
0.0
  0
LINE
  5
287
330
2
100
AcDbEntity
  8
AM_4
100
AcDbLine
 10
527.7172855681863
 20
518.8221298957925
 30
0.0
 11
528.3095105681864
 21
519.1451618957925
 31
0.0
  0
LINE
  5
288
330
2
100
AcDbEntity
  8
AM_4
100
AcDbLine
 10
528.7133005681863
 20
516.8031798957923
 30
0.0
 11
528.1210755681863
 21
516.5339858957925
 31
0.0
  0
LINE
  5
289
330
2
100
AcDbEntity
  8
AM_4
100
AcDbLine
 10
528.9017365681863
 20
519.5489518957924
 30
0.0
 11
528.9017365681863
 21
519.5489518957924
 31
0.0
  0
LINE
  5
28A
330
2
100
AcDbEntity
  8
AM_4
100
AcDbLine
 10
525.3253095681863
 20
518.5798558957924
 30
0.0
 11
525.4868255681863
 21
518.5529368957924
 31
0.0
  0
LINE
  5
28B
330
2
100
AcDbEntity
  8
AM_4
100
AcDbLine
 10
526.6405115681862
 20
516.2109538957925
 30
0.0
 11
526.0213665681862
 21
516.1840348957923
 31
0.0
  0
LINE
  5
28C
330
2
100
AcDbEntity
  8
AM_4
100
AcDbLine
 10
526.0213665681862
 20
516.1840348957923
 30
0.0
 11
525.5675835681863
 21
516.1840348957923
 31
0.0
  0
LINE
  5
28D
330
2
100
AcDbEntity
  8
AM_4
100
AcDbLine
 10
525.5675835681863
 20
516.1840348957923
 30
0.0
 11
525.1099545681864
 21
516.2378728957925
 31
0.0
  0
LINE
  5
28E
330
2
100
AcDbEntity
  8
AM_4
100
AcDbLine
 10
525.4868255681863
 20
518.5529368957924
 30
0.0
 11
525.8636965681863
 21
518.4721788957926
 31
0.0
  0
LINE
  5
28F
330
2
100
AcDbEntity
  8
AM_4
100
AcDbLine
 10
525.8636965681863
 20
518.4721788957926
 30
0.0
 11
526.3982375681863
 21
518.4721788957926
 31
0.0
  0
LINE
  5
290
330
2
100
AcDbEntity
  8
AM_4
100
AcDbLine
 10
526.3982375681863
 20
518.4721788957926
 30
0.0
 11
526.7212695681863
 21
518.4990978957925
 31
0.0
  0
LINE
  5
291
330
2
100
AcDbEntity
  8
AM_4
100
AcDbLine
 10
525.1099545681864
 20
516.2378728957925
 30
0.0
 11
524.6792455681863
 21
516.3455508957923
 31
0.0
  0
LINE
  5
292
330
2
100
AcDbEntity
  8
AM_4
100
AcDbLine
 10
526.7212695681863
 20
518.4990978957925
 30
0.0
 11
527.0443015681864
 21
518.5798558957924
 31
0.0
  0
LINE
  5
293
330
2
100
AcDbEntity
  8
AM_4
100
AcDbLine
 10
527.2058175681864
 20
516.2917118957924
 30
0.0
 11
526.6405115681862
 21
516.2109538957925
 31
0.0
  0
LINE
  5
294
330
2
100
AcDbEntity
  8
AM_4
100
AcDbLine
 10
529.3324455681863
 20
522.0755248957924
 30
0.0
 11
525.3253095681863
 21
518.5798558957924
 31
0.0
  0
LINE
  5
295
330
2
100
AcDbEntity
  8
AM_4
100
AcDbLine
 10
524.3023745681863
 20
524.7905328957926
 30
0.0
 11
524.7600035681863
 21
524.8712908957924
 31
0.0
  0
LINE
  5
296
330
2
100
AcDbEntity
  8
AM_4
100
AcDbLine
 10
523.4678745681862
 20
524.5213388957925
 30
0.0
 11
523.8716655681863
 21
524.6828548957925
 31
0.0
  0
LINE
  5
297
330
2
100
AcDbEntity
  8
AM_4
100
AcDbLine
 10
522.7679725681863
 20
524.1175488957924
 30
0.0
 11
523.0910045681863
 21
524.3329038957925
 31
0.0
  0
LINE
  5
298
330
2
100
AcDbEntity
  8
AM_4
100
AcDbLine
 10
523.0910045681863
 20
524.3329038957925
 30
0.0
 11
523.4678745681862
 21
524.5213388957925
 31
0.0
  0
LINE
  5
299
330
2
100
AcDbEntity
  8
AM_4
100
AcDbLine
 10
523.8716655681863
 20
524.6828548957925
 30
0.0
 11
524.3023745681863
 21
524.7905328957926
 31
0.0
  0
LINE
  5
29A
330
2
100
AcDbEntity
  8
AM_4
100
AcDbLine
 10
520.0529645681863
 20
524.7905328957926
 30
0.0
 11
519.5145775681863
 21
524.7636128957926
 31
0.0
  0
LINE
  5
29B
330
2
100
AcDbEntity
  8
AM_4
100
AcDbLine
 10
519.5145775681863
 20
524.7636128957926
 30
0.0
 11
519.0569485681863
 21
524.7097748957925
 31
0.0
  0
LINE
  5
29C
330
2
100
AcDbEntity
  8
AM_4
100
AcDbLine
 10
519.0569485681863
 20
524.7097748957925
 30
0.0
 11
518.6800775681863
 21
524.5751778957924
 31
0.0
  0
LINE
  5
29D
330
2
100
AcDbEntity
  8
AM_4
100
AcDbLine
 10
518.6800775681863
 20
524.5751778957924
 30
0.0
 11
518.3301265681863
 21
524.4405808957924
 31
0.0
  0
LINE
  5
29E
330
2
100
AcDbEntity
  8
AM_4
100
AcDbLine
 10
521.0220605681865
 20
524.7905328957926
 30
0.0
 11
520.0529645681863
 21
524.7905328957926
 31
0.0
  0
LINE
  5
29F
330
2
100
AcDbEntity
  8
AM_4
100
AcDbLine
 10
530.0285035681865
 20
526.3518548957923
 30
0.0
 11
530.2438575681862
 21
526.7825638957924
 31
0.0
  0
LINE
  5
2A0
330
2
100
AcDbEntity
  8
AM_4
100
AcDbLine
 10
530.2438575681862
 20
526.7825638957924
 30
0.0
 11
530.3784545681863
 21
526.9979188957925
 31
0.0
  0
LINE
  5
2A1
330
2
100
AcDbEntity
  8
AM_4
100
AcDbLine
 10
529.8939065681865
 20
525.5981128957925
 30
0.0
 11
529.9208255681864
 21
525.9480638957923
 31
0.0
  0
LINE
  5
2A2
330
2
100
AcDbEntity
  8
AM_4
100
AcDbLine
 10
529.9208255681864
 20
525.9480638957923
 30
0.0
 11
530.0285035681865
 21
526.3518548957923
 31
0.0
  0
LINE
  5
2A3
330
2
100
AcDbEntity
  8
AM_4
100
AcDbLine
 10
527.2596565681863
 20
524.3867428957925
 30
0.0
 11
527.8249625681864
 21
524.0367908957924
 31
0.0
  0
LINE
  5
2A4
330
2
100
AcDbEntity
  8
AM_4
100
AcDbLine
 10
525.2714705681864
 20
524.8982098957924
 30
0.0
 11
525.9713735681863
 21
524.8443708957925
 31
0.0
  0
LINE
  5
2A5
330
2
100
AcDbEntity
  8
AM_4
100
AcDbLine
 10
525.9713735681863
 20
524.8443708957925
 30
0.0
 11
526.6405115681862
 21
524.6559358957926
 31
0.0
  0
LINE
  5
2A6
330
2
100
AcDbEntity
  8
AM_4
100
AcDbLine
 10
524.7600035681863
 20
524.8712908957924
 30
0.0
 11
525.2714705681864
 21
524.8982098957924
 31
0.0
  0
LINE
  5
2A7
330
2
100
AcDbEntity
  8
AM_4
100
AcDbLine
 10
526.6405115681862
 20
524.6559358957926
 30
0.0
 11
527.2596565681863
 21
524.3867428957925
 31
0.0
  0
LINE
  5
2A8
330
2
100
AcDbEntity
  8
AM_4
100
AcDbLine
 10
533.6626145681862
 20
524.0906298957924
 30
0.0
 11
533.6626145681862
 21
522.0755248957924
 31
0.0
  0
LINE
  5
2A9
330
2
100
AcDbEntity
  8
AM_4
100
AcDbLine
 10
539.0926305681863
 20
523.5791618957923
 30
0.0
 11
539.6848555681863
 21
524.1175488957924
 31
0.0
  0
LINE
  5
2AA
330
2
100
AcDbEntity
  8
AM_4
100
AcDbLine
 10
534.6278645681864
 20
527.9631698957923
 30
0.0
 11
534.6278645681864
 21
516.3186308957924
 31
0.0
  0
LINE
  5
2AB
330
2
100
AcDbEntity
  8
AM_4
100
AcDbLine
 10
537.3467185681863
 20
516.3186308957924
 30
0.0
 11
537.3467185681863
 21
527.9631698957923
 31
0.0
  0
LINE
  5
2AC
330
2
100
AcDbEntity
  8
AM_4
100
AcDbLine
 10
534.6278645681864
 20
516.3186308957924
 30
0.0
 11
537.3467185681863
 21
516.3186308957924
 31
0.0
  0
LINE
  5
2AD
330
2
100
AcDbEntity
  8
AM_4
100
AcDbLine
 10
533.6626145681862
 20
522.0755248957924
 30
0.0
 11
532.5050825681863
 21
522.0755248957924
 31
0.0
  0
LINE
  5
2AE
330
2
100
AcDbEntity
  8
AM_4
100
AcDbLine
 10
532.5050825681863
 20
522.0755248957924
 30
0.0
 11
532.5050825681863
 21
516.3186308957924
 31
0.0
  0
LINE
  5
2AF
330
2
100
AcDbEntity
  8
AM_4
100
AcDbLine
 10
541.8345575681863
 20
522.6408308957924
 30
0.0
 11
541.4307675681863
 21
522.5062338957924
 31
0.0
  0
LINE
  5
2B0
330
2
100
AcDbEntity
  8
AM_4
100
AcDbLine
 10
541.4307675681863
 20
522.5062338957924
 30
0.0
 11
541.0577425681863
 21
522.2370408957925
 31
0.0
  0
LINE
  5
2B1
330
2
100
AcDbEntity
  8
AM_4
100
AcDbLine
 10
542.5344605681863
 20
522.6139118957925
 30
0.0
 11
542.2114285681863
 21
522.6677498957924
 31
0.0
  0
LINE
  5
2B2
330
2
100
AcDbEntity
  8
AM_4
100
AcDbLine
 10
542.2114285681863
 20
522.6677498957924
 30
0.0
 11
541.8345575681863
 21
522.6408308957924
 31
0.0
  0
LINE
  5
2B3
330
2
100
AcDbEntity
  8
AM_4
100
AcDbLine
 10
540.7347095681863
 20
521.8601698957924
 30
0.0
 11
540.5462745681863
 21
521.4832988957924
 31
0.0
  0
LINE
  5
2B4
330
2
100
AcDbEntity
  8
AM_4
100
AcDbLine
 10
540.5462745681863
 20
521.4832988957924
 30
0.0
 11
540.4655165681863
 21
521.1333478957924
 31
0.0
  0
LINE
  5
2B5
330
2
100
AcDbEntity
  8
AM_4
100
AcDbLine
 10
540.4385975681861
 20
520.8103158957924
 30
0.0
 11
540.4924355681863
 21
520.5411218957926
 31
0.0
  0
LINE
  5
2B6
330
2
100
AcDbEntity
  8
AM_4
100
AcDbLine
 10
540.4924355681863
 20
520.5411218957926
 30
0.0
 11
540.5462745681863
 21
520.3257678957924
 31
0.0
  0
LINE
  5
2B7
330
2
100
AcDbEntity
  8
AM_4
100
AcDbLine
 10
540.5462745681863
 20
520.3257678957924
 30
0.0
 11
540.6270325681863
 21
520.1373318957925
 31
0.0
  0
LINE
  5
2B8
330
2
100
AcDbEntity
  8
AM_4
100
AcDbLine
 10
540.6270325681863
 20
520.1373318957925
 30
0.0
 11
540.6270325681863
 21
520.1373318957925
 31
0.0
  0
LINE
  5
2B9
330
2
100
AcDbEntity
  8
AM_4
100
AcDbLine
 10
540.4655165681863
 20
521.1333478957924
 30
0.0
 11
540.4385975681861
 21
520.8103158957924
 31
0.0
  0
LINE
  5
2BA
330
2
100
AcDbEntity
  8
AM_4
100
AcDbLine
 10
541.0577425681863
 20
522.2370408957925
 30
0.0
 11
540.7347095681863
 21
521.8601698957924
 31
0.0
  0
LINE
  5
2BB
330
2
100
AcDbEntity
  8
AM_4
100
AcDbLine
 10
538.1504535681862
 20
521.5371378957923
 30
0.0
 11
538.3388885681863
 21
522.2639598957925
 31
0.0
  0
LINE
  5
2BC
330
2
100
AcDbEntity
  8
AM_4
100
AcDbLine
 10
538.3388885681863
 20
522.2639598957925
 30
0.0
 11
538.4734855681863
 21
522.6139118957925
 31
0.0
  0
LINE
  5
2BD
330
2
100
AcDbEntity
  8
AM_4
100
AcDbLine
 10
538.4734855681863
 20
522.6139118957925
 30
0.0
 11
538.6619205681864
 21
522.9638628957924
 31
0.0
  0
LINE
  5
2BE
330
2
100
AcDbEntity
  8
AM_4
100
AcDbLine
 10
538.6619205681864
 20
522.9638628957924
 30
0.0
 11
538.8772755681863
 21
523.2868948957924
 31
0.0
  0
LINE
  5
2BF
330
2
100
AcDbEntity
  8
AM_4
100
AcDbLine
 10
538.8772755681863
 20
523.2868948957924
 30
0.0
 11
539.0926305681863
 21
523.5791618957923
 31
0.0
  0
LINE
  5
2C0
330
2
100
AcDbEntity
  8
AM_4
100
AcDbLine
 10
538.1773725681863
 20
519.7104678957924
 30
0.0
 11
538.0966145681863
 21
520.2180898957927
 31
0.0
  0
LINE
  5
2C1
330
2
100
AcDbEntity
  8
AM_4
100
AcDbLine
 10
538.0966145681863
 20
520.2180898957927
 30
0.0
 11
538.0696955681863
 21
520.7833958957924
 31
0.0
  0
LINE
  5
2C2
330
2
100
AcDbEntity
  8
AM_4
100
AcDbLine
 10
538.0696955681863
 20
520.7833958957924
 30
0.0
 11
538.1504535681862
 21
521.5371378957923
 31
0.0
  0
LINE
  5
2C3
330
2
100
AcDbEntity
  8
AM_4
100
AcDbLine
 10
542.2383475681863
 20
518.5798558957924
 30
0.0
 11
542.3998635681863
 21
518.5529368957924
 31
0.0
  0
LINE
  5
2C4
330
2
100
AcDbEntity
  8
AM_4
100
AcDbLine
 10
542.0229925681864
 20
516.2378728957925
 30
0.0
 11
541.5922835681863
 21
516.3455508957923
 31
0.0
  0
LINE
  5
2C5
330
2
100
AcDbEntity
  8
AM_4
100
AcDbLine
 10
541.5922835681863
 20
516.3455508957923
 30
0.0
 11
541.1385005681863
 21
516.4532278957924
 31
0.0
  0
LINE
  5
2C6
330
2
100
AcDbEntity
  8
AM_4
100
AcDbLine
 10
542.3998635681863
 20
518.5529368957924
 30
0.0
 11
542.7767345681863
 21
518.4721788957926
 31
0.0
  0
LINE
  5
2C7
330
2
100
AcDbEntity
  8
AM_4
100
AcDbLine
 10
542.4806215681863
 20
516.1840348957923
 30
0.0
 11
542.0229925681864
 21
516.2378728957925
 31
0.0
  0
LINE
  5
2C8
330
2
100
AcDbEntity
  8
AM_4
100
AcDbLine
 10
540.7347095681863
 20
516.6147438957924
 30
0.0
 11
540.3309195681863
 21
516.8300988957923
 31
0.0
  0
LINE
  5
2C9
330
2
100
AcDbEntity
  8
AM_4
100
AcDbLine
 10
540.3309195681863
 20
516.8300988957923
 30
0.0
 11
539.9540485681862
 21
517.0454538957924
 31
0.0
  0
LINE
  5
2CA
330
2
100
AcDbEntity
  8
AM_4
100
AcDbLine
 10
539.9540485681862
 20
517.0454538957924
 30
0.0
 11
539.6040975681863
 21
517.3146468957924
 31
0.0
  0
LINE
  5
2CB
330
2
100
AcDbEntity
  8
AM_4
100
AcDbLine
 10
539.6040975681863
 20
517.3146468957924
 30
0.0
 11
539.2541465681863
 21
517.6376788957924
 31
0.0
  0
LINE
  5
2CC
330
2
100
AcDbEntity
  8
AM_4
100
AcDbLine
 10
541.1385005681863
 20
516.4532278957924
 30
0.0
 11
540.7347095681863
 21
516.6147438957924
 31
0.0
  0
LINE
  5
2CD
330
2
100
AcDbEntity
  8
AM_4
100
AcDbLine
 10
538.5004045681863
 20
518.7682908957924
 30
0.0
 11
538.3119695681862
 21
519.2259198957924
 31
0.0
  0
LINE
  5
2CE
330
2
100
AcDbEntity
  8
AM_4
100
AcDbLine
 10
538.7157595681863
 20
518.3645008957925
 30
0.0
 11
538.5004045681863
 21
518.7682908957924
 31
0.0
  0
LINE
  5
2CF
330
2
100
AcDbEntity
  8
AM_4
100
AcDbLine
 10
538.9580335681863
 20
517.9876308957926
 30
0.0
 11
538.7157595681863
 21
518.3645008957925
 31
0.0
  0
LINE
  5
2D0
330
2
100
AcDbEntity
  8
AM_4
100
AcDbLine
 10
539.2541465681863
 20
517.6376788957924
 30
0.0
 11
538.9580335681863
 21
517.9876308957926
 31
0.0
  0
LINE
  5
2D1
330
2
100
AcDbEntity
  8
AM_4
100
AcDbLine
 10
538.3119695681862
 20
519.2259198957924
 30
0.0
 11
538.1773725681863
 21
519.7104678957924
 31
0.0
  0
LINE
  5
2D2
330
2
100
AcDbEntity
  8
AM_4
100
AcDbLine
 10
537.3467185681863
 20
527.9631698957923
 30
0.0
 11
534.6278645681864
 21
527.9631698957923
 31
0.0
  0
LINE
  5
2D3
330
2
100
AcDbEntity
  8
AM_4
100
AcDbLine
 10
534.6278645681864
 20
527.9631698957923
 30
0.0
 11
534.6278645681864
 21
527.9631698957923
 31
0.0
  0
LINE
  5
2D4
330
2
100
AcDbEntity
  8
AM_4
100
AcDbLine
 10
533.7664455681863
 20
525.8942258957923
 30
0.0
 11
533.4741785681862
 21
525.8942258957923
 31
0.0
  0
LINE
  5
2D5
330
2
100
AcDbEntity
  8
AM_4
100
AcDbLine
 10
533.4741785681862
 20
525.8942258957923
 30
0.0
 11
533.3395825681862
 21
525.8673058957924
 31
0.0
  0
LINE
  5
2D6
330
2
100
AcDbEntity
  8
AM_4
100
AcDbLine
 10
533.7664455681863
 20
527.9631698957923
 30
0.0
 11
533.7664455681863
 21
525.8942258957923
 31
0.0
  0
LINE
  5
2D7
330
2
100
AcDbEntity
  8
AM_4
100
AcDbLine
 10
532.5589215681863
 20
525.2750808957925
 30
0.0
 11
532.5050825681863
 21
524.9789678957925
 31
0.0
  0
LINE
  5
2D8
330
2
100
AcDbEntity
  8
AM_4
100
AcDbLine
 10
532.5050825681863
 20
524.9789678957925
 30
0.0
 11
532.5050825681863
 21
524.0906298957924
 31
0.0
  0
LINE
  5
2D9
330
2
100
AcDbEntity
  8
AM_4
100
AcDbLine
 10
532.2897275681863
 20
527.9362498957924
 30
0.0
 11
532.8011955681863
 21
527.9631698957923
 31
0.0
  0
LINE
  5
2DA
330
2
100
AcDbEntity
  8
AM_4
100
AcDbLine
 10
532.9896305681863
 20
525.7865478957923
 30
0.0
 11
532.8281145681865
 21
525.6519518957924
 31
0.0
  0
LINE
  5
2DB
330
2
100
AcDbEntity
  8
AM_4
100
AcDbLine
 10
532.8281145681865
 20
525.6519518957924
 30
0.0
 11
532.6665985681865
 21
525.4904358957924
 31
0.0
  0
LINE
  5
2DC
330
2
100
AcDbEntity
  8
AM_4
100
AcDbLine
 10
532.6665985681865
 20
525.4904358957924
 30
0.0
 11
532.5589215681863
 21
525.2750808957925
 31
0.0
  0
LINE
  5
2DD
330
2
100
AcDbEntity
  8
AM_4
100
AcDbLine
 10
530.8091645681863
 20
527.3978628957925
 30
0.0
 11
531.0783575681863
 21
527.5862988957924
 31
0.0
  0
LINE
  5
2DE
330
2
100
AcDbEntity
  8
AM_4
100
AcDbLine
 10
530.5668895681862
 20
527.2132738957926
 30
0.0
 11
530.8091645681863
 21
527.3978628957925
 31
0.0
  0
LINE
  5
2DF
330
2
100
AcDbEntity
  8
AM_4
100
AcDbLine
 10
531.0783575681863
 20
527.5862988957924
 30
0.0
 11
531.4283085681863
 21
527.7208948957924
 31
0.0
  0
LINE
  5
2E0
330
2
100
AcDbEntity
  8
AM_4
100
AcDbLine
 10
531.4283085681863
 20
527.7208948957924
 30
0.0
 11
531.8320995681863
 21
527.8554918957925
 31
0.0
  0
LINE
  5
2E1
330
2
100
AcDbEntity
  8
AM_4
100
AcDbLine
 10
531.8320995681863
 20
527.8554918957925
 30
0.0
 11
532.2897275681863
 21
527.9362498957924
 31
0.0
  0
LINE
  5
2E2
330
2
100
AcDbEntity
  8
AM_4
100
AcDbLine
 10
532.5050825681863
 20
524.0906298957924
 30
0.0
 11
533.6626145681862
 21
524.0906298957924
 31
0.0
  0
LINE
  5
2E3
330
2
100
AcDbEntity
  8
AM_4
100
AcDbLine
 10
532.8011955681863
 20
527.9631698957923
 30
0.0
 11
533.7664455681863
 21
527.9631698957923
 31
0.0
  0
LINE
  5
2E4
330
2
100
AcDbEntity
  8
AM_4
100
AcDbLine
 10
533.3395825681862
 20
525.8673058957924
 30
0.0
 11
532.9896305681863
 21
525.7865478957923
 31
0.0
  0
LINE
  5
2E5
330
2
100
AcDbEntity
  8
AM_4
100
AcDbLine
 10
541.6730415681863
 20
524.8712908957924
 30
0.0
 11
542.1845085681862
 21
524.8982098957924
 31
0.0
  0
LINE
  5
2E6
330
2
100
AcDbEntity
  8
AM_4
100
AcDbLine
 10
541.2192585681863
 20
524.7905328957926
 30
0.0
 11
541.6730415681863
 21
524.8712908957924
 31
0.0
  0
LINE
  5
2E7
330
2
100
AcDbEntity
  8
AM_4
100
AcDbLine
 10
539.6848555681863
 20
524.1175488957924
 30
0.0
 11
540.0078875681863
 21
524.3329038957925
 31
0.0
  0
LINE
  5
2E8
330
2
100
AcDbEntity
  8
AM_4
100
AcDbLine
 10
540.0078875681863
 20
524.3329038957925
 30
0.0
 11
540.3847585681863
 21
524.5213388957925
 31
0.0
  0
LINE
  5
2E9
330
2
100
AcDbEntity
  8
AM_4
100
AcDbLine
 10
540.3847585681863
 20
524.5213388957925
 30
0.0
 11
540.7885485681863
 21
524.6828548957925
 31
0.0
  0
LINE
  5
2EA
330
2
100
AcDbEntity
  8
AM_4
100
AcDbLine
 10
540.7885485681863
 20
524.6828548957925
 30
0.0
 11
541.2192585681863
 21
524.7905328957926
 31
0.0
  0
LINE
  5
2EB
330
2
100
AcDbEntity
  8
AM_4
100
AcDbLine
 10
553.8559665681863
 20
522.6408308957924
 30
0.0
 11
553.8559665681863
 21
524.7097748957925
 31
0.0
  0
LINE
  5
2EC
330
2
100
AcDbEntity
  8
AM_4
100
AcDbLine
 10
546.7838705681863
 20
522.8831048957925
 30
0.0
 11
546.7838705681863
 21
524.7097748957925
 31
0.0
  0
LINE
  5
2ED
330
2
100
AcDbEntity
  8
AM_4
100
AcDbLine
 10
551.3293935681863
 20
523.1792178957923
 30
0.0
 11
551.3293935681863
 21
524.7097748957925
 31
0.0
  0
LINE
  5
2EE
330
2
100
AcDbEntity
  8
AM_4
100
AcDbLine
 10
549.3642815681863
 20
522.9907828957926
 30
0.0
 11
549.3642815681863
 21
524.7097748957925
 31
0.0
  0
LINE
  5
2EF
330
2
100
AcDbEntity
  8
AM_4
100
AcDbLine
 10
544.7418465681863
 20
524.0367908957924
 30
0.0
 11
545.2494685681863
 21
523.6060818957923
 31
0.0
  0
LINE
  5
2F0
330
2
100
AcDbEntity
  8
AM_4
100
AcDbLine
 10
549.3104435681863
 20
516.3186308957924
 30
0.0
 11
546.6223545681863
 21
516.3186308957924
 31
0.0
  0
LINE
  5
2F1
330
2
100
AcDbEntity
  8
AM_4
100
AcDbLine
 10
547.3491765681862
 20
521.2410248957925
 30
0.0
 11
547.1338225681863
 21
521.5102188957923
 31
0.0
  0
LINE
  5
2F2
330
2
100
AcDbEntity
  8
AM_4
100
AcDbLine
 10
547.1338225681863
 20
521.5102188957923
 30
0.0
 11
546.9723055681863
 21
521.8870888957924
 31
0.0
  0
LINE
  5
2F3
330
2
100
AcDbEntity
  8
AM_4
100
AcDbLine
 10
546.9723055681863
 20
521.8870888957924
 30
0.0
 11
546.8377095681863
 21
522.3177988957925
 31
0.0
  0
LINE
  5
2F4
330
2
100
AcDbEntity
  8
AM_4
100
AcDbLine
 10
545.6532585681863
 20
523.1522988957926
 30
0.0
 11
546.0032095681863
 21
522.6139118957925
 31
0.0
  0
LINE
  5
2F5
330
2
100
AcDbEntity
  8
AM_4
100
AcDbLine
 10
546.0032095681863
 20
522.6139118957925
 30
0.0
 11
546.2454835681864
 21
522.0755248957924
 31
0.0
  0
LINE
  5
2F6
330
2
100
AcDbEntity
  8
AM_4
100
AcDbLine
 10
546.8377095681863
 20
522.3177988957925
 30
0.0
 11
546.7838705681863
 21
522.8831048957925
 31
0.0
  0
LINE
  5
2F7
330
2
100
AcDbEntity
  8
AM_4
100
AcDbLine
 10
546.9453865681863
 20
519.8412198957925
 30
0.0
 11
547.1876605681862
 21
520.2180898957927
 31
0.0
  0
LINE
  5
2F8
330
2
100
AcDbEntity
  8
AM_4
100
AcDbLine
 10
547.1876605681862
 20
520.2180898957927
 30
0.0
 11
547.4837735681863
 21
520.5411218957926
 31
0.0
  0
LINE
  5
2F9
330
2
100
AcDbEntity
  8
AM_4
100
AcDbLine
 10
547.4837735681863
 20
520.5411218957926
 30
0.0
 11
547.6722085681863
 21
520.6757188957924
 31
0.0
  0
LINE
  5
2FA
330
2
100
AcDbEntity
  8
AM_4
100
AcDbLine
 10
547.6722085681863
 20
520.6757188957924
 30
0.0
 11
547.9144825681864
 21
520.7833958957924
 31
0.0
  0
LINE
  5
2FB
330
2
100
AcDbEntity
  8
AM_4
100
AcDbLine
 10
547.9144825681864
 20
520.7833958957924
 30
0.0
 11
547.7260475681863
 21
520.8910738957923
 31
0.0
  0
LINE
  5
2FC
330
2
100
AcDbEntity
  8
AM_4
100
AcDbLine
 10
547.7260475681863
 20
520.8910738957923
 30
0.0
 11
547.5645315681863
 21
521.0256708957926
 31
0.0
  0
LINE
  5
2FD
330
2
100
AcDbEntity
  8
AM_4
100
AcDbLine
 10
547.5645315681863
 20
521.0256708957926
 30
0.0
 11
547.3491765681862
 21
521.2410248957925
 31
0.0
  0
LINE
  5
2FE
330
2
100
AcDbEntity
  8
AM_4
100
AcDbLine
 10
545.8147745681863
 20
519.5489518957924
 30
0.0
 11
545.8147745681863
 21
516.9108568957924
 31
0.0
  0
LINE
  5
2FF
330
2
100
AcDbEntity
  8
AM_4
100
AcDbLine
 10
546.7031125681863
 20
519.1182428957923
 30
0.0
 11
546.8107895681863
 21
519.4681938957923
 31
0.0
  0
LINE
  5
300
330
2
100
AcDbEntity
  8
AM_4
100
AcDbLine
 10
546.6223545681863
 20
518.5529368957924
 30
0.0
 11
546.6492735681863
 21
518.8221298957925
 31
0.0
  0
LINE
  5
301
330
2
100
AcDbEntity
  8
AM_4
100
AcDbLine
 10
546.6223545681863
 20
516.3186308957924
 30
0.0
 11
546.6223545681863
 21
518.5529368957924
 31
0.0
  0
LINE
  5
302
330
2
100
AcDbEntity
  8
AM_4
100
AcDbLine
 10
545.8147745681863
 20
516.9108568957924
 30
0.0
 11
545.6263385681864
 21
516.8031798957923
 31
0.0
  0
LINE
  5
303
330
2
100
AcDbEntity
  8
AM_4
100
AcDbLine
 10
546.6492735681863
 20
518.8221298957925
 30
0.0
 11
546.7031125681863
 21
519.1182428957923
 31
0.0
  0
LINE
  5
304
330
2
100
AcDbEntity
  8
AM_4
100
AcDbLine
 10
545.8147745681863
 20
519.5489518957924
 30
0.0
 11
545.8147745681863
 21
519.5489518957924
 31
0.0
  0
LINE
  5
305
330
2
100
AcDbEntity
  8
AM_4
100
AcDbLine
 10
546.8107895681863
 20
519.4681938957923
 30
0.0
 11
546.9453865681863
 21
519.8412198957925
 31
0.0
  0
LINE
  5
306
330
2
100
AcDbEntity
  8
AM_4
100
AcDbLine
 10
543.0459275681863
 20
522.4254758957925
 30
0.0
 11
542.8305725681862
 21
522.5331538957926
 31
0.0
  0
LINE
  5
307
330
2
100
AcDbEntity
  8
AM_4
100
AcDbLine
 10
543.2343635681863
 20
522.3177988957925
 30
0.0
 11
543.0459275681863
 21
522.4254758957925
 31
0.0
  0
LINE
  5
308
330
2
100
AcDbEntity
  8
AM_4
100
AcDbLine
 10
543.6381535681863
 20
518.4990978957925
 30
0.0
 11
543.9611855681865
 21
518.5798558957924
 31
0.0
  0
LINE
  5
309
330
2
100
AcDbEntity
  8
AM_4
100
AcDbLine
 10
545.0379585681863
 20
516.5339858957925
 30
0.0
 11
544.6341685681864
 21
516.3993888957924
 31
0.0
  0
LINE
  5
30A
330
2
100
AcDbEntity
  8
AM_4
100
AcDbLine
 10
544.6341685681864
 20
516.3993888957924
 30
0.0
 11
544.1227015681863
 21
516.2917118957924
 31
0.0
  0
LINE
  5
30B
330
2
100
AcDbEntity
  8
AM_4
100
AcDbLine
 10
544.1227015681863
 20
516.2917118957924
 30
0.0
 11
543.5573955681864
 21
516.2109538957925
 31
0.0
  0
LINE
  5
30C
330
2
100
AcDbEntity
  8
AM_4
100
AcDbLine
 10
543.3151215681863
 20
518.4721788957926
 30
0.0
 11
543.6381535681863
 21
518.4990978957925
 31
0.0
  0
LINE
  5
30D
330
2
100
AcDbEntity
  8
AM_4
100
AcDbLine
 10
543.9611855681865
 20
518.5798558957924
 30
0.0
 11
544.6341685681864
 21
518.8221298957925
 31
0.0
  0
LINE
  5
30E
330
2
100
AcDbEntity
  8
AM_4
100
AcDbLine
 10
544.6341685681864
 20
518.8221298957925
 30
0.0
 11
545.2225485681863
 21
519.1451618957925
 31
0.0
  0
LINE
  5
30F
330
2
100
AcDbEntity
  8
AM_4
100
AcDbLine
 10
543.5573955681864
 20
516.2109538957925
 30
0.0
 11
542.9382505681863
 21
516.1840348957923
 31
0.0
  0
LINE
  5
310
330
2
100
AcDbEntity
  8
AM_4
100
AcDbLine
 10
545.2225485681863
 20
519.1451618957925
 30
0.0
 11
545.8147745681863
 21
519.5489518957924
 31
0.0
  0
LINE
  5
311
330
2
100
AcDbEntity
  8
AM_4
100
AcDbLine
 10
545.6263385681864
 20
516.8031798957923
 30
0.0
 11
545.0379585681863
 21
516.5339858957925
 31
0.0
  0
LINE
  5
312
330
2
100
AcDbEntity
  8
AM_4
100
AcDbLine
 10
545.2494685681863
 20
523.6060818957923
 30
0.0
 11
545.6532585681863
 21
523.1522988957926
 31
0.0
  0
LINE
  5
313
330
2
100
AcDbEntity
  8
AM_4
100
AcDbLine
 10
553.8559665681863
 20
522.6408308957924
 30
0.0
 11
553.7482885681863
 21
522.0486058957924
 31
0.0
  0
LINE
  5
314
330
2
100
AcDbEntity
  8
AM_4
100
AcDbLine
 10
553.7482885681863
 20
522.0486058957924
 30
0.0
 11
553.6136925681863
 21
521.6986538957923
 31
0.0
  0
LINE
  5
315
330
2
100
AcDbEntity
  8
AM_4
100
AcDbLine
 10
553.6136925681863
 20
521.6986538957923
 30
0.0
 11
553.3983375681863
 21
521.3487028957923
 31
0.0
  0
LINE
  5
316
330
2
100
AcDbEntity
  8
AM_4
100
AcDbLine
 10
553.3714185681863
 20
520.3257678957924
 30
0.0
 11
553.6136925681863
 21
520.0296548957924
 31
0.0
  0
LINE
  5
317
330
2
100
AcDbEntity
  8
AM_4
100
AcDbLine
 10
553.6136925681863
 20
520.0296548957924
 30
0.0
 11
553.8021275681863
 21
519.6566298957924
 31
0.0
  0
LINE
  5
318
330
2
100
AcDbEntity
  8
AM_4
100
AcDbLine
 10
553.1291445681865
 20
521.0256708957926
 30
0.0
 11
552.7561185681864
 21
520.7833958957924
 31
0.0
  0
LINE
  5
319
330
2
100
AcDbEntity
  8
AM_4
100
AcDbLine
 10
552.7561185681864
 20
520.7833958957924
 30
0.0
 11
552.9407085681863
 21
520.6757188957924
 31
0.0
  0
LINE
  5
31A
330
2
100
AcDbEntity
  8
AM_4
100
AcDbLine
 10
552.9407085681863
 20
520.6757188957924
 30
0.0
 11
553.1560635681863
 21
520.5411218957926
 31
0.0
  0
LINE
  5
31B
330
2
100
AcDbEntity
  8
AM_4
100
AcDbLine
 10
553.1560635681863
 20
520.5411218957926
 30
0.0
 11
553.3714185681863
 21
520.3257678957924
 31
0.0
  0
LINE
  5
31C
330
2
100
AcDbEntity
  8
AM_4
100
AcDbLine
 10
553.3983375681863
 20
521.3487028957923
 30
0.0
 11
553.1291445681865
 21
521.0256708957926
 31
0.0
  0
LINE
  5
31D
330
2
100
AcDbEntity
  8
AM_4
100
AcDbLine
 10
551.1947975681863
 20
522.6139118957925
 30
0.0
 11
551.3024745681863
 21
522.9907828957926
 31
0.0
  0
LINE
  5
31E
330
2
100
AcDbEntity
  8
AM_4
100
AcDbLine
 10
551.3024745681863
 20
522.9907828957926
 30
0.0
 11
551.3293935681863
 21
523.1792178957923
 31
0.0
  0
LINE
  5
31F
330
2
100
AcDbEntity
  8
AM_4
100
AcDbLine
 10
550.6294905681864
 20
522.1024438957925
 30
0.0
 11
550.8986845681863
 21
522.2370408957925
 31
0.0
  0
LINE
  5
320
330
2
100
AcDbEntity
  8
AM_4
100
AcDbLine
 10
550.8986845681863
 20
522.2370408957925
 30
0.0
 11
551.0871195681864
 21
522.4254758957925
 31
0.0
  0
LINE
  5
321
330
2
100
AcDbEntity
  8
AM_4
100
AcDbLine
 10
551.0871195681864
 20
522.4254758957925
 30
0.0
 11
551.1947975681863
 21
522.6139118957925
 31
0.0
  0
LINE
  5
322
330
2
100
AcDbEntity
  8
AM_4
100
AcDbLine
 10
549.3642815681863
 20
522.9907828957926
 30
0.0
 11
549.4450395681862
 21
522.6139118957925
 31
0.0
  0
LINE
  5
323
330
2
100
AcDbEntity
  8
AM_4
100
AcDbLine
 10
549.4450395681862
 20
522.6139118957925
 30
0.0
 11
549.5527175681863
 21
522.3985568957925
 31
0.0
  0
LINE
  5
324
330
2
100
AcDbEntity
  8
AM_4
100
AcDbLine
 10
549.5527175681863
 20
522.3985568957925
 30
0.0
 11
549.7142335681863
 21
522.2370408957925
 31
0.0
  0
LINE
  5
325
330
2
100
AcDbEntity
  8
AM_4
100
AcDbLine
 10
549.7142335681863
 20
522.2370408957925
 30
0.0
 11
549.9834265681863
 21
522.1024438957925
 31
0.0
  0
LINE
  5
326
330
2
100
AcDbEntity
  8
AM_4
100
AcDbLine
 10
549.9834265681863
 20
522.1024438957925
 30
0.0
 11
550.3064585681864
 21
522.0755248957924
 31
0.0
  0
LINE
  5
327
330
2
100
AcDbEntity
  8
AM_4
100
AcDbLine
 10
550.3064585681864
 20
522.0755248957924
 30
0.0
 11
550.6294905681864
 21
522.1024438957925
 31
0.0
  0
LINE
  5
328
330
2
100
AcDbEntity
  8
AM_4
100
AcDbLine
 10
554.0174825681863
 20
518.5798558957924
 30
0.0
 11
554.0174825681863
 21
516.3186308957924
 31
0.0
  0
LINE
  5
329
330
2
100
AcDbEntity
  8
AM_4
100
AcDbLine
 10
553.9636435681862
 20
519.1720818957924
 30
0.0
 11
554.0174825681863
 21
518.5798558957924
 31
0.0
  0
LINE
  5
32A
330
2
100
AcDbEntity
  8
AM_4
100
AcDbLine
 10
551.2755555681862
 20
518.9836458957925
 30
0.0
 11
551.1678775681863
 21
519.2259198957924
 31
0.0
  0
LINE
  5
32B
330
2
100
AcDbEntity
  8
AM_4
100
AcDbLine
 10
549.5527175681863
 20
519.2259198957924
 30
0.0
 11
549.4181205681863
 21
519.0105658957924
 31
0.0
  0
LINE
  5
32C
330
2
100
AcDbEntity
  8
AM_4
100
AcDbLine
 10
551.3563135681863
 20
518.5529368957924
 30
0.0
 11
551.3293935681863
 21
518.7682908957924
 31
0.0
  0
LINE
  5
32D
330
2
100
AcDbEntity
  8
AM_4
100
AcDbLine
 10
551.3563135681863
 20
516.3186308957924
 30
0.0
 11
551.3563135681863
 21
518.5529368957924
 31
0.0
  0
LINE
  5
32E
330
2
100
AcDbEntity
  8
AM_4
100
AcDbLine
 10
551.3293935681863
 20
518.7682908957924
 30
0.0
 11
551.2755555681862
 21
518.9836458957925
 31
0.0
  0
LINE
  5
32F
330
2
100
AcDbEntity
  8
AM_4
100
AcDbLine
 10
549.3373625681863
 20
518.5798558957924
 30
0.0
 11
549.3104435681863
 21
518.3645008957925
 31
0.0
  0
LINE
  5
330
330
2
100
AcDbEntity
  8
AM_4
100
AcDbLine
 10
549.3104435681863
 20
518.3645008957925
 30
0.0
 11
549.3104435681863
 21
516.3186308957924
 31
0.0
  0
LINE
  5
331
330
2
100
AcDbEntity
  8
AM_4
100
AcDbLine
 10
549.4181205681863
 20
519.0105658957924
 30
0.0
 11
549.3642815681863
 21
518.7682908957924
 31
0.0
  0
LINE
  5
332
330
2
100
AcDbEntity
  8
AM_4
100
AcDbLine
 10
549.3642815681863
 20
518.7682908957924
 30
0.0
 11
549.3373625681863
 21
518.5798558957924
 31
0.0
  0
LINE
  5
333
330
2
100
AcDbEntity
  8
AM_4
100
AcDbLine
 10
551.1678775681863
 20
519.2259198957924
 30
0.0
 11
551.0063615681863
 21
519.4412748957923
 31
0.0
  0
LINE
  5
334
330
2
100
AcDbEntity
  8
AM_4
100
AcDbLine
 10
551.0063615681863
 20
519.4412748957923
 30
0.0
 11
550.7371685681863
 21
519.5758718957923
 31
0.0
  0
LINE
  5
335
330
2
100
AcDbEntity
  8
AM_4
100
AcDbLine
 10
550.0103455681863
 20
519.5758718957923
 30
0.0
 11
549.7411525681862
 21
519.4412748957923
 31
0.0
  0
LINE
  5
336
330
2
100
AcDbEntity
  8
AM_4
100
AcDbLine
 10
549.7411525681862
 20
519.4412748957923
 30
0.0
 11
549.5527175681863
 21
519.2259198957924
 31
0.0
  0
LINE
  5
337
330
2
100
AcDbEntity
  8
AM_4
100
AcDbLine
 10
554.0174825681863
 20
516.3186308957924
 30
0.0
 11
551.3563135681863
 21
516.3186308957924
 31
0.0
  0
LINE
  5
338
330
2
100
AcDbEntity
  8
AM_4
100
AcDbLine
 10
553.8021275681863
 20
519.6566298957924
 30
0.0
 11
553.9636435681862
 21
519.1720818957924
 31
0.0
  0
LINE
  5
339
330
2
100
AcDbEntity
  8
AM_4
100
AcDbLine
 10
550.3872165681863
 20
519.6297098957924
 30
0.0
 11
550.0103455681863
 21
519.5758718957923
 31
0.0
  0
LINE
  5
33A
330
2
100
AcDbEntity
  8
AM_4
100
AcDbLine
 10
550.7371685681863
 20
519.5758718957923
 30
0.0
 11
550.3872165681863
 21
519.6297098957924
 31
0.0
  0
LINE
  5
33B
330
2
100
AcDbEntity
  8
AM_4
100
AcDbLine
 10
546.7838705681863
 20
524.7097748957925
 30
0.0
 11
549.3642815681863
 21
524.7097748957925
 31
0.0
  0
LINE
  5
33C
330
2
100
AcDbEntity
  8
AM_4
100
AcDbLine
 10
546.7838705681863
 20
524.7097748957925
 30
0.0
 11
546.7838705681863
 21
524.7097748957925
 31
0.0
  0
LINE
  5
33D
330
2
100
AcDbEntity
  8
AM_4
100
AcDbLine
 10
543.5573955681864
 20
524.6559358957926
 30
0.0
 11
544.1765405681864
 21
524.3867428957925
 31
0.0
  0
LINE
  5
33E
330
2
100
AcDbEntity
  8
AM_4
100
AcDbLine
 10
544.1765405681864
 20
524.3867428957925
 30
0.0
 11
544.7418465681863
 21
524.0367908957924
 31
0.0
  0
LINE
  5
33F
330
2
100
AcDbEntity
  8
AM_4
100
AcDbLine
 10
542.8844115681863
 20
524.8443708957925
 30
0.0
 11
543.5573955681864
 21
524.6559358957926
 31
0.0
  0
LINE
  5
340
330
2
100
AcDbEntity
  8
AM_4
100
AcDbLine
 10
551.3293935681863
 20
524.7097748957925
 30
0.0
 11
553.8559665681863
 21
524.7097748957925
 31
0.0
  0
LINE
  5
341
330
2
100
AcDbEntity
  8
AM_4
100
AcDbLine
 10
557.7762115681863
 20
530.1741838957926
 30
0.0
 11
557.8442495681863
 21
530.1593928957925
 31
0.0
  0
LINE
  5
342
330
2
100
AcDbEntity
  8
AM_4
100
AcDbLine
 10
557.5809725681863
 20
530.6090348957924
 30
0.0
 11
557.4863105681863
 21
530.6119928957923
 31
0.0
  0
LINE
  5
343
330
2
100
AcDbEntity
  8
AM_4
100
AcDbLine
 10
557.5602645681863
 20
530.2037658957925
 30
0.0
 11
557.6342195681863
 21
530.1978498957923
 31
0.0
  0
LINE
  5
344
330
2
100
AcDbEntity
  8
AM_4
100
AcDbLine
 10
557.4863105681863
 20
530.2037658957925
 30
0.0
 11
557.4863105681863
 21
530.6119928957923
 31
0.0
  0
LINE
  5
345
330
2
100
AcDbEntity
  8
AM_4
100
AcDbLine
 10
557.4863105681863
 20
530.6119928957923
 30
0.0
 11
557.4863105681863
 21
530.6119928957923
 31
0.0
  0
LINE
  5
346
330
2
100
AcDbEntity
  8
AM_4
100
AcDbLine
 10
557.6726755681863
 20
530.6001608957926
 30
0.0
 11
557.5809725681863
 21
530.6090348957924
 31
0.0
  0
LINE
  5
347
330
2
100
AcDbEntity
  8
AM_4
100
AcDbLine
 10
557.6342195681863
 20
530.1978498957923
 30
0.0
 11
557.7762115681863
 21
530.1741838957926
 31
0.0
  0
ARC
  5
348
330
2
100
AcDbEntity
  8
AM_4
100
AcDbCircle
 10
557.4863105681863
 20
528.7749698957924
 30
0.0
 40
1.428795999999999
100
AcDbArc
 50
0.0
 51
90.0
  0
ARC
  5
349
330
2
100
AcDbEntity
  8
AM_4
100
AcDbCircle
 10
557.4863105681863
 20
528.7749698957924
 30
0.0
 40
1.837022999999999
100
AcDbArc
 50
0.0
 51
90.0
  0
ARC
  5
34A
330
2
100
AcDbEntity
  8
AM_4
100
AcDbCircle
 10
557.4863105681863
 20
528.7749698957924
 30
0.0
 40
1.460545999999999
100
AcDbArc
 50
0.0
 51
90.0
  0
LINE
  5
34B
330
2
100
AcDbEntity
  8
AM_4
100
AcDbLine
 10
557.4863105681863
 20
530.4078798957926
 30
0.0
 11
557.8146675681863
 21
530.3664648957924
 31
0.0
  0
LINE
  5
34C
330
2
100
AcDbEntity
  8
AM_4
100
AcDbLine
 10
559.3026265681864
 20
529.0500798957926
 30
0.0
 11
559.3203755681863
 21
528.8666728957925
 31
0.0
  0
LINE
  5
34D
330
2
100
AcDbEntity
  8
AM_4
100
AcDbLine
 10
558.9003155681863
 20
528.9879578957924
 30
0.0
 11
558.9091905681863
 21
528.9199198957923
 31
0.0
  0
LINE
  5
34E
330
2
100
AcDbEntity
  8
AM_4
100
AcDbLine
 10
559.0985135681863
 20
529.1033268957924
 30
0.0
 11
559.1192205681863
 21
528.7749698957924
 31
0.0
  0
LINE
  5
34F
330
2
100
AcDbEntity
  8
AM_4
100
AcDbLine
 10
559.3233335681863
 20
528.7749698957924
 30
0.0
 11
559.3203755681863
 21
528.8666728957925
 31
0.0
  0
LINE
  5
350
330
2
100
AcDbEntity
  8
AM_4
100
AcDbLine
 10
558.9091905681863
 20
528.9199198957923
 30
0.0
 11
558.9151065681863
 21
528.8459658957926
 31
0.0
  0
LINE
  5
351
330
2
100
AcDbEntity
  8
AM_4
100
AcDbLine
 10
558.9151065681863
 20
528.7749698957924
 30
0.0
 11
559.3233335681863
 21
528.7749698957924
 31
0.0
  0
LINE
  5
352
330
2
100
AcDbEntity
  8
AM_4
100
AcDbLine
 10
559.3233335681863
 20
528.7749698957924
 30
0.0
 11
559.3233335681863
 21
528.7749698957924
 31
0.0
  0
LINE
  5
353
330
2
100
AcDbEntity
  8
AM_4
100
AcDbLine
 10
559.3026265681864
 20
529.0500798957926
 30
0.0
 11
559.2848775681862
 21
529.1388248957924
 31
0.0
  0
LINE
  5
354
330
2
100
AcDbEntity
  8
AM_4
100
AcDbLine
 10
559.2848775681862
 20
529.1388248957924
 30
0.0
 11
559.2641705681863
 21
529.2275698957925
 31
0.0
  0
LINE
  5
355
330
2
100
AcDbEntity
  8
AM_4
100
AcDbLine
 10
559.2641705681863
 20
529.2275698957925
 30
0.0
 11
559.2405055681863
 21
529.3133568957925
 31
0.0
  0
LINE
  5
356
330
2
100
AcDbEntity
  8
AM_4
100
AcDbLine
 10
559.2405055681863
 20
529.3133568957925
 30
0.0
 11
559.2109235681863
 21
529.3991438957926
 31
0.0
  0
LINE
  5
357
330
2
100
AcDbEntity
  8
AM_4
100
AcDbLine
 10
559.2109235681863
 20
529.3991438957926
 30
0.0
 11
559.1783835681862
 21
529.4819728957924
 31
0.0
  0
LINE
  5
358
330
2
100
AcDbEntity
  8
AM_4
100
AcDbLine
 10
559.1783835681862
 20
529.4819728957924
 30
0.0
 11
559.1428855681863
 21
529.5648008957924
 31
0.0
  0
LINE
  5
359
330
2
100
AcDbEntity
  8
AM_4
100
AcDbLine
 10
559.1428855681863
 20
529.5648008957924
 30
0.0
 11
559.1014715681863
 21
529.6417138957925
 31
0.0
  0
LINE
  5
35A
330
2
100
AcDbEntity
  8
AM_4
100
AcDbLine
 10
559.1014715681863
 20
529.6417138957925
 30
0.0
 11
559.0600565681865
 21
529.7186258957926
 31
0.0
  0
LINE
  5
35B
330
2
100
AcDbEntity
  8
AM_4
100
AcDbLine
 10
559.0600565681865
 20
529.7186258957926
 30
0.0
 11
559.0097675681863
 21
529.7955388957924
 31
0.0
  0
LINE
  5
35C
330
2
100
AcDbEntity
  8
AM_4
100
AcDbLine
 10
559.0097675681863
 20
529.7955388957924
 30
0.0
 11
558.9594795681863
 21
529.8665348957926
 31
0.0
  0
LINE
  5
35D
330
2
100
AcDbEntity
  8
AM_4
100
AcDbLine
 10
558.9594795681863
 20
529.8665348957926
 30
0.0
 11
558.9062325681863
 21
529.9375308957925
 31
0.0
  0
LINE
  5
35E
330
2
100
AcDbEntity
  8
AM_4
100
AcDbLine
 10
558.7879055681863
 20
530.0676898957926
 30
0.0
 11
558.9062325681863
 21
529.9375308957925
 31
0.0
  0
LINE
  5
35F
330
2
100
AcDbEntity
  8
AM_4
100
AcDbLine
 10
558.7879055681863
 20
530.0676898957926
 30
0.0
 11
558.7257835681863
 21
530.1268538957924
 31
0.0
  0
LINE
  5
360
330
2
100
AcDbEntity
  8
AM_4
100
AcDbLine
 10
558.7257835681863
 20
530.1268538957924
 30
0.0
 11
558.6577455681863
 21
530.1860168957923
 31
0.0
  0
LINE
  5
361
330
2
100
AcDbEntity
  8
AM_4
100
AcDbLine
 10
558.6577455681863
 20
530.1860168957923
 30
0.0
 11
558.5897075681863
 21
530.2422218957924
 31
0.0
  0
LINE
  5
362
330
2
100
AcDbEntity
  8
AM_4
100
AcDbLine
 10
558.4417995681863
 20
530.3427998957925
 30
0.0
 11
558.5897075681863
 21
530.2422218957924
 31
0.0
  0
LINE
  5
363
330
2
100
AcDbEntity
  8
AM_4
100
AcDbLine
 10
558.4417995681863
 20
530.3427998957925
 30
0.0
 11
558.3648875681863
 21
530.3871718957926
 31
0.0
  0
LINE
  5
364
330
2
100
AcDbEntity
  8
AM_4
100
AcDbLine
 10
558.3648875681863
 20
530.3871718957926
 30
0.0
 11
558.2850165681864
 21
530.4285868957925
 31
0.0
  0
LINE
  5
365
330
2
100
AcDbEntity
  8
AM_4
100
AcDbLine
 10
558.2850165681864
 20
530.4285868957925
 30
0.0
 11
558.2051455681863
 21
530.4640848957924
 31
0.0
  0
LINE
  5
366
330
2
100
AcDbEntity
  8
AM_4
100
AcDbLine
 10
558.2051455681863
 20
530.4640848957924
 30
0.0
 11
558.1193585681863
 21
530.4966248957923
 31
0.0
  0
LINE
  5
367
330
2
100
AcDbEntity
  8
AM_4
100
AcDbLine
 10
558.1193585681863
 20
530.4966248957923
 30
0.0
 11
558.0335725681862
 21
530.5262058957923
 31
0.0
  0
LINE
  5
368
330
2
100
AcDbEntity
  8
AM_4
100
AcDbLine
 10
558.0335725681862
 20
530.5262058957923
 30
0.0
 11
557.9477855681862
 21
530.5528298957924
 31
0.0
  0
LINE
  5
369
330
2
100
AcDbEntity
  8
AM_4
100
AcDbLine
 10
557.9477855681862
 20
530.5528298957924
 30
0.0
 11
557.8560815681863
 21
530.5735368957924
 31
0.0
  0
LINE
  5
36A
330
2
100
AcDbEntity
  8
AM_4
100
AcDbLine
 10
557.8442495681863
 20
530.1593928957925
 30
0.0
 11
557.9122875681863
 21
530.1386858957925
 31
0.0
  0
LINE
  5
36B
330
2
100
AcDbEntity
  8
AM_4
100
AcDbLine
 10
557.9122875681863
 20
530.1386858957925
 30
0.0
 11
557.9803255681863
 21
530.1150208957924
 31
0.0
  0
LINE
  5
36C
330
2
100
AcDbEntity
  8
AM_4
100
AcDbLine
 10
557.9803255681863
 20
530.1150208957924
 30
0.0
 11
558.0454045681863
 21
530.0913548957923
 31
0.0
  0
LINE
  5
36D
330
2
100
AcDbEntity
  8
AM_4
100
AcDbLine
 10
558.0454045681863
 20
530.0913548957923
 30
0.0
 11
558.1075265681863
 21
530.0617738957924
 31
0.0
  0
LINE
  5
36E
330
2
100
AcDbEntity
  8
AM_4
100
AcDbLine
 10
558.1075265681863
 20
530.0617738957924
 30
0.0
 11
558.1696475681862
 21
530.0292338957924
 31
0.0
  0
LINE
  5
36F
330
2
100
AcDbEntity
  8
AM_4
100
AcDbLine
 10
558.1696475681862
 20
530.0292338957924
 30
0.0
 11
558.2288115681863
 21
529.9937358957925
 31
0.0
  0
LINE
  5
370
330
2
100
AcDbEntity
  8
AM_4
100
AcDbLine
 10
558.2288115681863
 20
529.9937358957925
 30
0.0
 11
558.2879745681863
 21
529.9582378957924
 31
0.0
  0
LINE
  5
371
330
2
100
AcDbEntity
  8
AM_4
100
AcDbLine
 10
558.2879745681863
 20
529.9582378957924
 30
0.0
 11
558.3441795681863
 21
529.9168228957925
 31
0.0
  0
LINE
  5
372
330
2
100
AcDbEntity
  8
AM_4
100
AcDbLine
 10
558.3441795681863
 20
529.9168228957925
 30
0.0
 11
558.3974265681863
 21
529.8754088957925
 31
0.0
  0
LINE
  5
373
330
2
100
AcDbEntity
  8
AM_4
100
AcDbLine
 10
558.3974265681863
 20
529.8754088957925
 30
0.0
 11
558.4506735681863
 21
529.8280778957924
 31
0.0
  0
LINE
  5
374
330
2
100
AcDbEntity
  8
AM_4
100
AcDbLine
 10
558.4506735681863
 20
529.8280778957924
 30
0.0
 11
558.5009625681863
 21
529.7807478957925
 31
0.0
  0
LINE
  5
375
330
2
100
AcDbEntity
  8
AM_4
100
AcDbLine
 10
558.5009625681863
 20
529.7807478957925
 30
0.0
 11
558.5453355681863
 21
529.7304588957926
 31
0.0
  0
LINE
  5
376
330
2
100
AcDbEntity
  8
AM_4
100
AcDbLine
 10
558.5453355681863
 20
529.7304588957926
 30
0.0
 11
558.5926665681864
 21
529.6801698957924
 31
0.0
  0
LINE
  5
377
330
2
100
AcDbEntity
  8
AM_4
100
AcDbLine
 10
558.5926665681864
 20
529.6801698957924
 30
0.0
 11
558.6340805681864
 21
529.6239648957923
 31
0.0
  0
LINE
  5
378
330
2
100
AcDbEntity
  8
AM_4
100
AcDbLine
 10
558.6340805681864
 20
529.6239648957923
 30
0.0
 11
558.6725365681863
 21
529.5677588957925
 31
0.0
  0
LINE
  5
379
330
2
100
AcDbEntity
  8
AM_4
100
AcDbLine
 10
558.6725365681863
 20
529.5677588957925
 30
0.0
 11
558.7109925681864
 21
529.5115538957924
 31
0.0
  0
LINE
  5
37A
330
2
100
AcDbEntity
  8
AM_4
100
AcDbLine
 10
558.7109925681864
 20
529.5115538957924
 30
0.0
 11
558.7435325681862
 21
529.4494328957925
 31
0.0
  0
LINE
  5
37B
330
2
100
AcDbEntity
  8
AM_4
100
AcDbLine
 10
558.7435325681862
 20
529.4494328957925
 30
0.0
 11
558.7760725681863
 21
529.3902688957923
 31
0.0
  0
LINE
  5
37C
330
2
100
AcDbEntity
  8
AM_4
100
AcDbLine
 10
558.7760725681863
 20
529.3902688957923
 30
0.0
 11
558.8056545681864
 21
529.3251898957925
 31
0.0
  0
LINE
  5
37D
330
2
100
AcDbEntity
  8
AM_4
100
AcDbLine
 10
558.8056545681864
 20
529.3251898957925
 30
0.0
 11
558.8529845681863
 21
529.1950298957925
 31
0.0
  0
LINE
  5
37E
330
2
100
AcDbEntity
  8
AM_4
100
AcDbLine
 10
558.8529845681863
 20
529.1950298957925
 30
0.0
 11
558.8707345681863
 21
529.1269918957924
 31
0.0
  0
LINE
  5
37F
330
2
100
AcDbEntity
  8
AM_4
100
AcDbLine
 10
558.8707345681863
 20
529.1269918957924
 30
0.0
 11
558.8884835681863
 21
529.0589538957926
 31
0.0
  0
LINE
  5
380
330
2
100
AcDbEntity
  8
AM_4
100
AcDbLine
 10
558.8884835681863
 20
529.0589538957926
 30
0.0
 11
558.9003155681863
 21
528.9879578957924
 31
0.0
  0
LINE
  5
381
330
2
100
AcDbEntity
  8
AM_4
100
AcDbLine
 10
557.8146675681863
 20
530.3664648957924
 30
0.0
 11
558.1252755681863
 21
530.2836358957924
 31
0.0
  0
LINE
  5
382
330
2
100
AcDbEntity
  8
AM_4
100
AcDbLine
 10
558.1252755681863
 20
530.2836358957924
 30
0.0
 11
558.3944685681863
 21
530.1179788957925
 31
0.0
  0
LINE
  5
383
330
2
100
AcDbEntity
  8
AM_4
100
AcDbLine
 10
558.3944685681863
 20
530.1179788957925
 30
0.0
 11
558.6429545681864
 21
529.9316138957926
 31
0.0
  0
LINE
  5
384
330
2
100
AcDbEntity
  8
AM_4
100
AcDbLine
 10
558.6429545681864
 20
529.9316138957926
 30
0.0
 11
558.8500265681862
 21
529.6831278957925
 31
0.0
  0
LINE
  5
385
330
2
100
AcDbEntity
  8
AM_4
100
AcDbLine
 10
558.8500265681862
 20
529.6831278957925
 30
0.0
 11
558.9949775681863
 21
529.4139348957924
 31
0.0
  0
LINE
  5
386
330
2
100
AcDbEntity
  8
AM_4
100
AcDbLine
 10
558.9949775681863
 20
529.4139348957924
 30
0.0
 11
559.0985135681863
 21
529.1033268957924
 31
0.0
  0
LINE
  5
387
330
2
100
AcDbEntity
  8
AM_4
100
AcDbLine
 10
557.7673365681865
 20
530.5883278957923
 30
0.0
 11
557.6726755681863
 21
530.6001608957926
 31
0.0
  0
LINE
  5
388
330
2
100
AcDbEntity
  8
AM_4
100
AcDbLine
 10
557.8560815681863
 20
530.5735368957924
 30
0.0
 11
557.7673365681865
 21
530.5883278957923
 31
0.0
  0
AMDTACMWBLOCKBOMENTITY
  5
812
330
2
100
AcDbEntity
  8
AM_5
 92
        8
310
0800000000000000
  0
AMDTACMWBLOCKBOMENTITY
  5
813
330
2
100
AcDbEntity
  8
AM_5
 92
        8
310
0800000000000000
  0
AMDTACMWBLOCKBOMENTITY
  5
814
330
2
100
AcDbEntity
  8
AM_5
 92
        8
310
0800000000000000
  0
AMDTACMWBLOCKBOMENTITY
  5
815
330
2
100
AcDbEntity
  8
AM_5
 92
        8
310
0800000000000000
  0
AMDTACMWBLOCKBOMENTITY
  5
816
330
2
100
AcDbEntity
  8
AM_5
 92
        8
310
0800000000000000
  0
AMDTACMWBLOCKBOMENTITY
  5
817
330
2
100
AcDbEntity
  8
AM_5
 92
        8
310
0800000000000000
  0
AMDTACMWBLOCKBOMENTITY
  5
818
330
2
100
AcDbEntity
  8
AM_5
 92
        8
310
0800000000000000
  0
LWPOLYLINE
  5
C1F
330
2
100
AcDbEntity
  8
AM_0
100
AcDbPolyline
 90
        2
 70
     0
 43
1.0
 10
115.0115714136581
 20
504.6110290246896
 10
115.0115714136581
 20
491.7834054152788
  0
MTEXT
  5
D93
330
2
100
AcDbEntity
  8
AM_6
 62
     7
100
AcDbMText
 10
122.7406974895301
 20
491.1173267967504
 30
0.0
 40
5.0
 41
0.0
 71
     8
 72
     5
  1
Y
 73
     1
 44
1.0
1001
ACAD
1000
MTEXTBEGIN
1070
    73
1070
     1
1070
    44
1040
1.0
1070
    74
1070
     0
1000
MTEXTEND
  0
LINE
  5
D94
330
2
100
AcDbEntity
  8
AM_0
100
AcDbLine
 10
117.5080467237566
 20
502.1136157935168
 30
0.0
 11
112.4014533185171
 21
502.1136157935168
 31
0.0
  0
SOLID
  5
D95
330
2
100
AcDbEntity
  8
AM_0
100
AcDbTrace
 10
115.0114896434323
 20
512.8979000782053
 30
0.0
 11
117.5080467237566
 21
502.1136157935168
 31
0.0
 12
112.4014533185171
 22
502.1136157935168
 32
0.0
 13
112.4014533185171
 23
502.1136157935168
 33
0.0
  0
LINE
  5
D96
330
2
100
AcDbEntity
  8
AM_0
100
AcDbLine
 10
112.4014533185171
 20
502.1136157935168
 30
0.0
 11
115.0114896434323
 21
512.8979000782053
 31
0.0
  0
LINE
  5
D97
330
2
100
AcDbEntity
  8
AM_0
100
AcDbLine
 10
115.0114896434323
 20
512.8979000782053
 30
0.0
 11
117.5080467237566
 21
502.1136157935168
 31
0.0
  0
DIMENSION
  5
D98
330
2
100
AcDbEntity
  8
AM_5
100
AcDbDimension
  2
*D1
 10
189.7457344530629
 20
472.9765935460788
 30
0.0
 11
220.745734453063
 21
477.3872537178585
 31
0.0
 70
    32
  1
ISO 228-G 3/4
 71
     5
 42
26.4399999999996
  3
AM_DIN
100
AcDbAlignedDimension
 13
163.3057344530633
 23
498.5519175548425
 33
0.0
 14
189.7457344530629
 24
498.5519175548425
 34
0.0
100
AcDbRotatedDimension
1001
ACAD
1000
DSTYLE
1002
{
1070
    40
1040
2.0
1002
}
  0
AMDTACMWBLOCKBOMENTITY
  5
DFD
330
2
100
AcDbEntity
  8
AM_5
 92
        8
310
0800000000000000
  0
AMDTACMWBLOCKBOMENTITY
  5
DFE
330
2
100
AcDbEntity
  8
AM_5
 92
        8
310
0800000000000000
  0
AMDTACMWBLOCKBOMENTITY
  5
DFF
330
2
100
AcDbEntity
  8
AM_5
 92
        8
310
0800000000000000
  0
AMDTACMWBLOCKBOMENTITY
  5
E00
330
2
100
AcDbEntity
  8
AM_5
 92
        8
310
0800000000000000
  0
AMDTACMWBLOCKBOMENTITY
  5
E01
330
2
100
AcDbEntity
  8
AM_5
 92
        8
310
0800000000000000
  0
AMDTACMWBLOCKBOMENTITY
  5
E02
330
2
100
AcDbEntity
  8
AM_5
 92
        8
310
0800000000000000
  0
AMDTACMWBLOCKBOMENTITY
  5
E03
330
2
100
AcDbEntity
  8
AM_5
 92
        8
310
0800000000000000
  0
AMDTACMWBLOCKBOMENTITY
  5
E0A
330
2
100
AcDbEntity
  8
AM_5
 92
        8
310
0800000000000000
370
    25
  0
AMDTACMWBLOCKBOMENTITY
  5
124C
330
2
100
AcDbEntity
  8
AM_5
 92
        8
310
0800000000000000
  0
AMDTACMWBLOCKBOMENTITY
  5
124D
330
2
100
AcDbEntity
  8
AM_5
 92
        8
310
0800000000000000
  0
AMDTACMWBLOCKBOMENTITY
  5
124E
330
2
100
AcDbEntity
  8
AM_5
 92
        8
310
0800000000000000
  0
AMDTACMWBLOCKBOMENTITY
  5
124F
330
2
100
AcDbEntity
  8
AM_5
 92
        8
310
0800000000000000
  0
AMDTACMWBLOCKBOMENTITY
  5
1250
330
2
100
AcDbEntity
  8
AM_5
 92
        8
310
0800000000000000
  0
DIMENSION
  5
15C5
330
2
100
AcDbEntity
  8
AM_5
100
AcDbDimension
  2
*D2
 10
-14.31049626660632
 20
489.6329046937187
 30
0.0
 11
-14.31049626660638
 21
795.9979002069752
 31
0.0
 70
   160
  1
<> {}{\C2;%%p5}
 71
     5
 42
499.3536800578723
  3
AM_DIN
100
AcDbAlignedDimension
 13
175.9972875578791
 23
988.986584751591
 33
0.0
 14
188.211148532005
 24
489.6329046937186
 34
0.0
 50
90.0
100
AcDbRotatedDimension
1001
GENIUS_GENDTOL_13
1000
TolPm
1000
h7
1000
{$3%%p$P}
1040
378.0
1001
ACAD
1000
DSTYLE
1002
{
1070
    40
1040
2.0
1070
    47
1040
5.0
1070
    48
1040
5.0
1070
   271
1070
     0
1002
}
  0
DIMENSION
  5
15C6
330
2
100
AcDbEntity
  8
AM_5
100
AcDbDimension
  2
*D3
 10
316.5257344530642
 20
855.2172913417342
 30
0.0
 11
120.9702680287224
 21
855.2172913417342
 31
0.0
 70
   160
  1
%%c<>
 71
     5
 42
279.9999999999999
  3
AM_DIN
100
AcDbAlignedDimension
 13
36.52573445306422
 23
855.2172913417342
 33
0.0
 14
316.5257344530642
 24
855.2172913417342
 34
0.0
100
AcDbRotatedDimension
1001
GENIUS_GENDTOL_13
1000

1000
h7
1000

1040
0.0
1000
%%c<>
1001
ACAD
1000
DSTYLE
1002
{
1070
    40
1040
2.0
1002
}
  0
DIMENSION
  5
15C7
330
2
100
AcDbEntity
  8
AM_5
100
AcDbDimension
  2
*D4
 10
9.346383605523783
 20
962.1691195753726
 30
0.0
 11
4.946383605523615
 21
738.226115706275
 31
0.0
 70
    32
  1
<> {}{\C2;%%p3}
 71
     5
 42
447.8860077381951
  3
AM_DIN
100
AcDbAlignedDimension
 13
133.9904808314044
 23
514.2831118371772
 33
0.0
 14
169.5613447526433
 24
962.1691195753726
 34
0.0
 50
90.0
100
AcDbRotatedDimension
1001
GENIUS_GENDTOL_13
1000
TolPm
1000
h7
1000
{$3%%p$P}
1040
326.0
1001
ACAD
1000
DSTYLE
1002
{
1070
    40
1040
2.0
1070
    47
1040
3.0
1070
    48
1040
3.0
1070
   271
1070
     0
1002
}
  0
LINE
  5
15C9
330
2
100
AcDbEntity
  8
AM_0
100
AcDbLine
 10
173.1548952207935
 20
988.986584751591
 30
0.0
 11
179.8965736853346
 21
988.986584751591
 31
0.0
  0
ARC
  5
15CA
330
2
100
AcDbEntity
  8
AM_0
100
AcDbCircle
 10
196.3230276989301
 20
963.2553598621033
 30
0.0
 40
1.0
100
AcDbArc
 50
270.0
 51
30.00000000000782
  0
POINT
  5
15CC
330
2
100
AcDbEntity
  8
DEFPOINTS
  6
ByBlock
 62
     0
100
AcDbPoint
 10
193.4901646693137
 20
961.6652772387295
 30
0.0
  0
LINE
  5
15F1
330
2
100
AcDbEntity
  8
AM_0
100
AcDbLine
 10
184.1272127453734
 20
986.3791310013727
 30
0.0
 11
197.1890531027142
 21
963.7553598621034
 31
0.0
  0
ARC
  5
15F8
330
2
100
AcDbEntity
  8
AM_0
100
AcDbCircle
 10
179.7368001858689
 20
983.9865847515907
 30
0.0
 40
5.0
100
AcDbArc
 50
28.58808396743589
 51
90.0
  0
LINE
  5
15FB
330
2
100
AcDbEntity
  8
AM_0
100
AcDbLine
 10
315.4097090492791
 20
749.4678948716807
 30
0.0
 11
316.3582662077946
 21
751.1108440641116
 31
0.0
  0
LINE
  5
15FC
330
2
100
AcDbEntity
  8
AM_0
100
AcDbLine
 10
315.2823700985422
 20
749.0829046937185
 30
0.0
 11
316.5257344530632
 21
749.0829046937185
 31
0.0
  0
ARC
  5
15FD
330
2
100
AcDbEntity
  8
AM_0
100
AcDbCircle
 10
316.2757344530632
 20
748.9678948716807
 30
0.0
 40
1.0
100
AcDbArc
 50
149.9999999999922
 51
173.3958084310494
1001
GENIUS_GENODEF_13
1002
{
1000
HIER
1070
     0
1002
}
1002
{
1000
MANEDIT
1070
     0
1002
}
1002
{
1000
NOSEL
1070
     0
1002
}
1002
{
1000
BEHIND
1070
     0
1002
}
1002
{
1000
REACTOR
1002
}
1001
GENIUS_GENOBJ-N-FIL_13
1002
{
1000
OWNER
1000
GEN
1002
}
  0
ARC
  5
15FE
330
2
100
AcDbEntity
  8
AM_0
100
AcDbCircle
 10
315.2757344530631
 20
751.7358440641118
 30
0.0
 40
1.25
100
AcDbArc
 50
329.9999999999922
 51
0.0
1001
GENIUS_GENODEF_13
1002
{
1000
HIER
1070
     0
1002
}
1002
{
1000
MANEDIT
1070
     0
1002
}
1002
{
1000
NOSEL
1070
     0
1002
}
1002
{
1000
BEHIND
1070
     0
1002
}
1002
{
1000
REACTOR
1002
}
1001
GENIUS_GENOBJ-N-FIL_13
1002
{
1000
OWNER
1000
GEN
1002
}
  0
LINE
  5
160C
330
2
100
AcDbEntity
  8
AM_0
100
AcDbLine
 10
316.525734453064
 20
907.3644495846062
 30
0.0
 11
316.5257344530632
 21
751.7358440641118
 31
0.0
  0
ARC
  5
160F
330
2
100
AcDbEntity
  8
AM_0
100
AcDbCircle
 10
287.275734453064
 20
907.3644495846062
 30
0.0
 40
29.25
100
AcDbArc
 50
0.0
 51
63.92902895485479
1001
GENIUS_GENODEF_13
1002
{
1000
HIER
1070
     0
1002
}
1002
{
1000
MANEDIT
1070
     0
1002
}
1002
{
1000
NOSEL
1070
     0
1002
}
1002
{
1000
BEHIND
1070
     0
1002
}
1002
{
1000
REACTOR
1002
}
1001
GENIUS_GENOBJ-N-FIL_13
1002
{
1000
OWNER
1000
GEN
1002
}
  0
ARC
  5
1614
330
2
100
AcDbEntity
  8
AM_0
100
AcDbCircle
 10
156.728441207198
 20
963.2553598621033
 30
0.0
 40
1.0
100
AcDbArc
 50
149.9999999999922
 51
270.0
  0
LINE
  5
1615
330
2
100
AcDbEntity
  8
AM_0
100
AcDbLine
 10
156.728441207198
 20
962.2553598621033
 30
0.0
 11
196.3230276989301
 21
962.2553598621033
 31
0.0
  0
LINE
  5
1617
330
2
100
AcDbEntity
  8
AM_0
100
AcDbLine
 10
168.9242561607547
 20
986.3791310013727
 30
0.0
 11
155.862415803413
 21
963.7553598621034
 31
0.0
  0
LINE
  5
161C
330
2
100
AcDbEntity
  8
AM_0
100
AcDbLine
 10
37.64175985684814
 20
749.4678948716807
 30
0.0
 11
36.69320269833349
 21
751.1108440641116
 31
0.0
  0
LINE
  5
161D
330
2
100
AcDbEntity
  8
AM_0
100
AcDbLine
 10
36.52573445306314
 20
749.0829046937185
 30
0.0
 11
315.2823700985412
 21
749.0829046937185
 31
0.0
  0
ARC
  5
161E
330
2
100
AcDbEntity
  8
AM_0
100
AcDbCircle
 10
36.77573445306314
 20
748.9678948716807
 30
0.0
 40
1.0
100
AcDbArc
 50
6.6041915689508
 51
30.00000000000782
1001
GENIUS_GENODEF_13
1002
{
1000
HIER
1070
     0
1002
}
1002
{
1000
MANEDIT
1070
     0
1002
}
1002
{
1000
NOSEL
1070
     0
1002
}
1002
{
1000
BEHIND
1070
     0
1002
}
1002
{
1000
REACTOR
1002
}
1001
GENIUS_GENOBJ-N-FIL_13
1002
{
1000
OWNER
1000
GEN
1002
}
  0
ARC
  5
161F
330
2
100
AcDbEntity
  8
AM_0
100
AcDbCircle
 10
37.77573445306314
 20
751.7358440641118
 30
0.0
 40
1.25
100
AcDbArc
 50
180.0
 51
210.0000000000078
1001
GENIUS_GENODEF_13
1002
{
1000
HIER
1070
     0
1002
}
1002
{
1000
MANEDIT
1070
     0
1002
}
1002
{
1000
NOSEL
1070
     0
1002
}
1002
{
1000
BEHIND
1070
     0
1002
}
1002
{
1000
REACTOR
1002
}
1001
GENIUS_GENOBJ-N-FIL_13
1002
{
1000
OWNER
1000
GEN
1002
}
  0
LINE
  5
1620
330
2
100
AcDbEntity
  8
AM_0
100
AcDbLine
 10
36.52573445306405
 20
907.3644495846062
 30
0.0
 11
36.52573445306314
 21
751.7358440641118
 31
0.0
  0
ARC
  5
1621
330
2
100
AcDbEntity
  8
AM_0
100
AcDbCircle
 10
65.77573445306405
 20
907.3644495846062
 30
0.0
 40
29.25
100
AcDbArc
 50
116.0709710451452
 51
180.0
1001
GENIUS_GENODEF_13
1002
{
1000
HIER
1070
     0
1002
}
1002
{
1000
MANEDIT
1070
     0
1002
}
1002
{
1000
NOSEL
1070
     0
1002
}
1002
{
1000
BEHIND
1070
     0
1002
}
1002
{
1000
REACTOR
1002
}
1001
GENIUS_GENOBJ-N-FIL_13
1002
{
1000
OWNER
1000
GEN
1002
}
  0
ARC
  5
1626
330
2
100
AcDbEntity
  8
AM_0
100
AcDbCircle
 10
176.525734453064
 20
681.005359862103
 30
0.0
 40
281.25
100
AcDbArc
 50
63.92902895485479
 51
116.0709710451452
  0
ARC
  5
1628
330
2
100
AcDbEntity
  8
AM_0
100
AcDbCircle
 10
173.3146687202583
 20
983.9865847515907
 30
0.0
 40
5.0
100
AcDbArc
 50
90.0
 51
151.411916032564
  0
ARC
  5
162C
330
2
100
AcDbEntity
  8
AM_0
100
AcDbCircle
 10
287.2757344530631
 20
582.0624780005735
 30
0.0
 40
29.25
100
AcDbArc
 50
296.0709710451452
 51
0.0
1001
GENIUS_GENODEF_13
1002
{
1000
HIER
1070
     0
1002
}
1002
{
1000
MANEDIT
1070
     0
1002
}
1002
{
1000
NOSEL
1070
     0
1002
}
1002
{
1000
BEHIND
1070
     0
1002
}
1002
{
1000
REACTOR
1002
}
1001
GENIUS_GENOBJ-N-FIL_13
1002
{
1000
OWNER
1000
GEN
1002
}
  0
ARC
  5
162F
330
2
100
AcDbEntity
  8
AM_0
100
AcDbCircle
 10
218.2757344530632
 20
528.7074279303229
 30
0.0
 40
1.0
100
AcDbArc
 50
97.68615262813732
 51
180.0
  0
ARC
  5
163E
330
2
100
AcDbEntity
  8
AM_0
100
AcDbCircle
 10
221.275734453064
 20
518.2829046937181
 30
0.0
 40
3.0
100
AcDbArc
 50
279.7084601536537
 51
0.0
1001
GENIUS_GENODEF_13
1002
{
1000
HIER
1070
     0
1002
}
1002
{
1000
MANEDIT
1070
     0
1002
}
1002
{
1000
NOSEL
1070
     0
1002
}
1002
{
1000
BEHIND
1070
     0
1002
}
1002
{
1000
REACTOR
1002
}
1001
GENIUS_GENOBJ-N-FIL_13
1002
{
1000
OWNER
1000
GEN
1002
}
  0
ARC
  5
1640
330
2
100
AcDbEntity
  8
AM_0
100
AcDbCircle
 10
222.1189090744341
 20
513.3545117956352
 30
0.0
 40
2.0
100
AcDbArc
 50
99.70846015365374
 51
128.2165177954928
1001
GENIUS_GENODEF_13
1002
{
1000
HIER
1070
     0
1002
}
1002
{
1000
MANEDIT
1070
     0
1002
}
1002
{
1000
NOSEL
1070
     0
1002
}
1002
{
1000
BEHIND
1070
     0
1002
}
1002
{
1000
REACTOR
1002
}
1001
GENIUS_GENOBJ-N-FIL_13
1002
{
1000
OWNER
1000
GEN
1002
}
  0
LINE
  5
1647
330
2
100
AcDbEntity
  8
AM_0
100
AcDbLine
 10
224.2757344530631
 20
522.0829046937185
 30
0.0
 11
224.2757344530631
 21
518.2829046937181
 31
0.0
  0
ARC
  5
1652
330
2
100
AcDbEntity
  8
AM_0
100
AcDbCircle
 10
219.0257344530631
 20
517.2829046937181
 30
0.0
 40
3.0
100
AcDbArc
 50
269.3266899246718
 51
308.2165177954928
  0
ARC
  5
1660
330
2
100
AcDbEntity
  8
AM_0
100
AcDbCircle
 10
181.9979869878437
 20
785.1512447084147
 30
0.0
 40
257.9971365087093
100
AcDbArc
 50
278.0533192879987
 51
297.2506243086705
  0
LINE
  5
1664
330
2
100
AcDbEntity
  8
AM_0
100
AcDbLine
 10
217.2757344530631
 20
526.3329046937185
 30
0.0
 11
217.2757344530631
 21
528.7074279303229
 31
0.0
  0
ARC
  5
1666
330
2
100
AcDbEntity
  8
AM_0
100
AcDbCircle
 10
220.0257344530631
 20
522.0829046937185
 30
0.0
 40
4.25
100
AcDbArc
 50
0.0
 51
90.0
  0
ARC
  5
166A
330
2
100
AcDbEntity
  8
AM_0
100
AcDbCircle
 10
134.7757344530631
 20
528.7074279303229
 30
0.0
 40
1.0
100
AcDbArc
 50
0.0
 51
82.31384737186266
  0
ARC
  5
167A
330
2
100
AcDbEntity
  8
AM_0
100
AcDbCircle
 10
65.77573445306313
 20
582.0624780005735
 30
0.0
 40
29.25
100
AcDbArc
 50
180.0
 51
243.9290289548548
1001
GENIUS_GENODEF_13
1002
{
1000
HIER
1070
     0
1002
}
1002
{
1000
MANEDIT
1070
     0
1002
}
1002
{
1000
NOSEL
1070
     0
1002
}
1002
{
1000
BEHIND
1070
     0
1002
}
1002
{
1000
REACTOR
1002
}
1001
GENIUS_GENOBJ-N-FIL_13
1002
{
1000
OWNER
1000
GEN
1002
}
  0
ARC
  5
1687
330
2
100
AcDbEntity
  8
AM_0
100
AcDbCircle
 10
131.775734453064
 20
518.2829046937181
 30
0.0
 40
3.0
100
AcDbArc
 50
180.0
 51
260.2915398463462
1001
GENIUS_GENODEF_13
1002
{
1000
HIER
1070
     0
1002
}
1002
{
1000
MANEDIT
1070
     0
1002
}
1002
{
1000
NOSEL
1070
     0
1002
}
1002
{
1000
BEHIND
1070
     0
1002
}
1002
{
1000
REACTOR
1002
}
1001
GENIUS_GENOBJ-N-FIL_13
1002
{
1000
OWNER
1000
GEN
1002
}
  0
ARC
  5
168B
330
2
100
AcDbEntity
  8
AM_0
100
AcDbCircle
 10
130.932559831694
 20
513.3545117956352
 30
0.0
 40
2.0
100
AcDbArc
 50
51.78348220450716
 51
80.29153984634627
1001
GENIUS_GENODEF_13
1002
{
1000
HIER
1070
     0
1002
}
1002
{
1000
MANEDIT
1070
     0
1002
}
1002
{
1000
NOSEL
1070
     0
1002
}
1002
{
1000
BEHIND
1070
     0
1002
}
1002
{
1000
REACTOR
1002
}
1001
GENIUS_GENOBJ-N-FIL_13
1002
{
1000
OWNER
1000
GEN
1002
}
  0
LINE
  5
1693
330
2
100
AcDbEntity
  8
AM_0
100
AcDbLine
 10
128.775734453064
 20
522.0829046937185
 30
0.0
 11
128.775734453064
 21
518.2829046937181
 31
0.0
  0
LINE
  5
1695
330
2
100
AcDbEntity
  8
AM_0
100
AcDbLine
 10
220.0257344530631
 20
526.3329046937185
 30
0.0
 11
133.0257344530631
 21
526.3329046937185
 31
0.0
  0
ARC
  5
1698
330
2
100
AcDbEntity
  8
AM_0
100
AcDbCircle
 10
134.025734453064
 20
517.2829046937181
 30
0.0
 40
3.0
100
AcDbArc
 50
231.7834822045071
 51
270.6733100753282
  0
LINE
  5
1699
330
2
100
AcDbEntity
  8
AM_0
100
AcDbLine
 10
219.0609880747228
 20
514.2831118371765
 30
0.0
 11
133.9904808314044
 21
514.2831118371765
 31
0.0
  0
ARC
  5
169D
330
2
100
AcDbEntity
  8
AM_0
100
AcDbCircle
 10
171.0534819182834
 20
785.1512447084147
 30
0.0
 40
257.9971365087093
100
AcDbArc
 50
242.7493756913296
 51
261.9495159879408
  0
ARC
  5
169F
330
2
100
AcDbEntity
  8
AM_0
100
AcDbCircle
 10
133.0257344530631
 20
522.0829046937185
 30
0.0
 40
4.25
100
AcDbArc
 50
90.0
 51
180.0
  0
LINE
  5
16A0
330
2
100
AcDbEntity
  8
AM_0
100
AcDbLine
 10
135.7757344530631
 20
526.3329046937185
 30
0.0
 11
135.7757344530631
 21
528.7074279303229
 31
0.0
  0
LINE
  5
16A9
330
2
100
AcDbEntity
  8
AM_0
100
AcDbLine
 10
316.5257344530632
 20
582.0624780005735
 30
0.0
 11
316.5257344530632
 21
749.0829046937185
 31
0.0
  0
LINE
  5
16AA
330
2
100
AcDbEntity
  8
AM_0
100
AcDbLine
 10
36.52573445306314
 20
582.0624780005735
 30
0.0
 11
36.52573445306314
 21
749.0829046937185
 31
0.0
  0
AMDTACMWBLOCKBOMENTITY
  5
16B8
330
2
100
AcDbEntity
  8
AM_5
 92
        8
310
0800000000000000
  0
AMDTACMWBLOCKBOMENTITY
  5
16B9
330
2
100
AcDbEntity
  8
AM_5
 92
        8
310
0800000000000000
  0
AMDTACMWBLOCKBOMENTITY
  5
16BA
330
2
100
AcDbEntity
  8
AM_5
 92
        8
310
0800000000000000
  0
AMDTACMWBLOCKBOMENTITY
  5
16BB
330
2
100
AcDbEntity
  8
AM_5
 92
        8
310
0800000000000000
  0
AMDTACMWBLOCKBOMENTITY
  5
16BC
330
2
100
AcDbEntity
  8
AM_5
 92
        8
310
0800000000000000
  0
LWPOLYLINE
  5
174A
330
2
100
AcDbEntity
  8
AM_0
100
AcDbPolyline
 90
        2
 70
     0
 43
0.0
 10
164.840320374123
 20
489.6329046937186
 10
188.211148532005
 20
489.6329046937186
  0
LINE
  5
174C
330
2
100
AcDbEntity
  8
AM_0
100
AcDbLine
 10
188.211148532005
 20
489.6329046937186
 30
0.0
 11
189.7457344530634
 21
491.1674906147768
 31
0.0
  0
LINE
  5
174F
330
2
100
AcDbEntity
  8
AM_4
100
AcDbLine
 10
188.3180750690675
 20
489.739831230781
 30
0.0
 11
188.3180750690675
 21
514.2831118371765
 31
0.0
  0
LINE
  5
1751
330
2
100
AcDbEntity
  8
AM_0
100
AcDbLine
 10
189.7457344530643
 20
491.1674906147768
 30
0.0
 11
189.7457344530643
 21
514.2831118371765
 31
0.0
  0
LINE
  5
1753
330
2
100
AcDbEntity
  8
AM_0
100
AcDbLine
 10
164.840320374123
 20
489.6329046937186
 30
0.0
 11
163.3057344530638
 21
491.1674906147768
 31
0.0
  0
LINE
  5
1756
330
2
100
AcDbEntity
  8
AM_4
100
AcDbLine
 10
164.7333938370597
 20
489.739831230781
 30
0.0
 11
164.7333938370597
 21
514.2831118371765
 31
0.0
  0
LINE
  5
1757
330
2
100
AcDbEntity
  8
AM_0
100
AcDbLine
 10
163.3057344530638
 20
491.1674906147768
 30
0.0
 11
163.3057344530638
 21
514.2831118371765
 31
0.0
  0
LINE
  5
192F
330
2
100
AcDbEntity
  8
AM_0
100
AcDbLine
 10
163.3057344530633
 20
491.1674906147773
 30
0.0
 11
189.7457344530629
 21
491.1674906147764
 31
0.0
  0
LINE
  5
1930
330
2
100
AcDbEntity
  8
AM_4
100
AcDbLine
 10
137.856823377276
 20
529.2647248996604
 30
0.0
 11
215.2444413790272
 21
529.2647248996604
 31
0.0
  0
ENDSEC
  0
SECTION
  2
OBJECTS
  0
DICTIONARY
  5
9
330
0
100
AcDbDictionary
281
     1
  3
ACAD_COLOR
350
28
  3
ACAD_GROUP
350
24
  3
ACAD_LAYOUT
350
D
  3
ACAD_MATERIAL
350
27
  3
ACAD_MLINESTYLE
350
25
  3
ACAD_PLOTSETTINGS
350
26
  3
ACAD_PLOTSTYLENAME
350
8
  3
ACAD_TABLESTYLE
350
29
  3
ACAD_VISUALSTYLE
350
182C
  3
AcDbVariableDictionary
350
3F4
  3
AcmDictionary
350
3A2
  3
AMG
350
391
  3
AMGSNAPSETTINGS
350
432
  3
DWGPROPS
350
1953
  0
DICTIONARY
  5
3
330
2
100
AcDbDictionary
280
     1
281
     1
  3
ACAD_SORTENTS
360
38F
  0
DICTIONARY
  5
28
102
{ACAD_REACTORS
330
9
102
}
330
9
100
AcDbDictionary
281
     1
  0
DICTIONARY
  5
24
102
{ACAD_REACTORS
330
9
102
}
330
9
100
AcDbDictionary
281
     1
  0
DICTIONARY
  5
D
102
{ACAD_REACTORS
330
9
102
}
330
9
100
AcDbDictionary
281
     1
  3
Layout1
350
12
  3
Model
350
C
  0
DICTIONARY
  5
27
102
{ACAD_REACTORS
330
9
102
}
330
9
100
AcDbDictionary
281
     1
  3
ByBlock
350
182A
  3
ByLayer
350
1829
  3
Global
350
182B
  0
DICTIONARY
  5
25
102
{ACAD_REACTORS
330
9
102
}
330
9
100
AcDbDictionary
281
     1
  3
Standard
350
2B
  0
DICTIONARY
  5
26
102
{ACAD_REACTORS
330
9
102
}
330
9
100
AcDbDictionary
281
     1
  0
ACDBDICTIONARYWDFLT
  5
8
102
{ACAD_REACTORS
330
9
102
}
330
9
100
AcDbDictionary
281
     1
  3
Normal
350
7
100
AcDbDictionaryWithDefault
340
7
  0
DICTIONARY
  5
29
102
{ACAD_REACTORS
330
9
102
}
330
9
100
AcDbDictionary
281
     1
  3
Standard
350
2C
  0
DICTIONARY
  5
182C
102
{ACAD_REACTORS
330
9
102
}
330
9
100
AcDbDictionary
281
     1
  3
2dWireframe
350
1832
  3
3D Hidden
350
1834
  3
3dWireframe
350
1833
  3
Basic
350
1831
  3
Brighten
350
1838
  3
ColorChange
350
183C
  3
Conceptual
350
1835
  3
Dim
350
1837
  3
Facepattern
350
183B
  3
Flat
350
182D
  3
FlatWithEdges
350
182E
  3
Gouraud
350
182F
  3
GouraudWithEdges
350
1830
  3
Linepattern
350
183A
  3
Realistic
350
1836
  3
Thicken
350
1839
  0
DICTIONARY
  5
3F4
102
{ACAD_REACTORS
330
9
102
}
330
9
100
AcDbDictionary
281
     1
  3
CTABLESTYLE
350
3F5
  3
DIMASSOC
350
181E
  3
HIDETEXT
350
181D
  3
INDEXCTL
350
1952
  3
PROJECTNAME
350
181F
  3
SORTENTS
350
1951
  0
DICTIONARY
  5
3A2
102
{ACAD_REACTORS
330
9
102
}
330
9
100
AcDbDictionary
281
     1
  3
AcmStdDictionary
350
3A3
  3
AMDTSECTSYM_ARROWCOLOR
350
427
  0
DICTIONARY
  5
391
102
{ACAD_REACTORS
330
9
102
}
330
9
100
AcDbDictionary
281
     1
  0
DICTIONARY
  5
432
102
{ACAD_REACTORS
330
9
102
}
330
9
100
AcDbDictionary
281
     1
  0
XRECORD
  5
1953
102
{ACAD_REACTORS
330
9
102
}
330
9
100
AcDbXrecord
280
     1
  1
DWGPROPS COOKIE
  2

  3

  4

  6

  7

  8
Schieman
  9

300
=
301
=
302
=
303
=
304
=
305
=
306
=
307
=
308
=
309
=
 40
3.554110300925926
 41
2452908.547844861
 42
2454175.39694625
  1

 90
        0
  0
SORTENTSTABLE
  5
38F
102
{ACAD_REACTORS
330
3
102
}
330
3
100
AcDbSortentsTable
330
2
  0
LAYOUT
  5
12
102
{ACAD_XDICTIONARY
360
1956
102
}
102
{ACAD_REACTORS
330
D
102
}
330
D
100
AcDbPlotSettings
  1

  2
none_device
  4
Letter_(8.50_x_11.00_Inches)
  6

 40
6.349999904632567
 41
6.349999904632567
 42
6.350006103515625
 43
6.350006103515625
 44
215.8999938964844
 45
279.3999938964844
 46
0.0
 47
0.0
 48
0.0
 49
0.0
140
0.0
141
0.0
142
1.0
143
1.0
 70
 15024
 72
     1
 73
     1
 74
     5
  7
ganz_fein_1.ctb
 75
    16
147
1.0
148
0.0
149
0.0
100
AcDbLayout
  1
Layout1
 70
     1
 71
     1
 10
0.0
 20
0.0
 11
420.0
 21
297.0
 12
0.0
 22
0.0
 32
0.0
 14
1.000000000000000E+20
 24
1.000000000000000E+20
 34
1.000000000000000E+20
 15
-1.000000000000000E+20
 25
-1.000000000000000E+20
 35
-1.000000000000000E+20
146
0.0
 13
0.0
 23
0.0
 33
0.0
 16
1.0
 26
0.0
 36
0.0
 17
0.0
 27
1.0
 37
0.0
 76
     0
330
F
  0
LAYOUT
  5
C
102
{ACAD_XDICTIONARY
360
1954
102
}
102
{ACAD_REACTORS
330
D
102
}
330
D
100
AcDbPlotSettings
  1

  2
FinePrint pdfFactory
  4
A4
  6
AM_VIEW6
 40
7.143749713897705
 41
7.143725872039794
 42
7.143753051757812
 43
7.14373779296875
 44
210.0156707763672
 45
297.0106506347656
 46
1.0
 47
1.0
 48
-269.8052631578948
 49
-207.1011557610241
140
324.1947368421053
141
212.8988442389758
142
1.0
143
2.145833194417956
 70
 11952
 72
     1
 73
     1
 74
     4
  7
ganz_fein_1.ctb
 75
     0
147
0.4660194476445518
148
269.8052631578948
149
207.1011557610241
100
AcDbLayout
  1
Model
 70
     1
 71
     0
 10
0.0
 20
0.0
 11
12.0
 21
9.0
 12
0.0
 22
0.0
 32
0.0
 14
0.0
 24
0.0
 34
0.0
 15
0.0
 25
0.0
 35
0.0
146
0.0
 13
0.0
 23
0.0
 33
0.0
 16
1.0
 26
0.0
 36
0.0
 17
0.0
 27
1.0
 37
0.0
 76
     0
330
2
331
1820
  0
MATERIAL
  5
182A
102
{ACAD_XDICTIONARY
360
195C
102
}
102
{ACAD_REACTORS
330
27
102
}
330
27
100
AcDbMaterial
  1
ByBlock
  0
MATERIAL
  5
1829
102
{ACAD_XDICTIONARY
360
195A
102
}
102
{ACAD_REACTORS
330
27
102
}
330
27
100
AcDbMaterial
  1
ByLayer
  0
MATERIAL
  5
182B
102
{ACAD_XDICTIONARY
360
195E
102
}
102
{ACAD_REACTORS
330
27
102
}
330
27
100
AcDbMaterial
  1
Global
  0
MLINESTYLE
  5
2B
102
{ACAD_REACTORS
330
25
102
}
330
25
100
AcDbMlineStyle
  2
STANDARD
 70
     0
  3

 62
   256
 51
90.0
 52
90.0
 71
     2
 49
0.5
 62
   256
  6
BYLAYER
 49
-0.5
 62
   256
  6
BYLAYER
  0
ACDBPLACEHOLDER
  5
7
102
{ACAD_REACTORS
330
8
102
}
330
8
  0
TABLESTYLE
  5
2C
102
{ACAD_XDICTIONARY
360
1958
102
}
102
{ACAD_REACTORS
330
29
102
}
330
29
100
AcDbTableStyle
  3
Standard
 70
     0
 71
     0
 40
1.5
 41
1.5
280
     0
281
     0
  7
STANDARD
140
4.5
170
     2
 62
     0
 63
     7
283
     0
274
    -2
284
     1
 64
     0
275
    -2
285
     1
 65
     0
276
    -2
286
     1
 66
     0
277
    -2
287
     1
 67
     0
278
    -2
288
     1
 68
     0
279
    -2
289
     1
 69
     0
  7
STANDARD
140
6.0
170
     5
 62
     0
 63
     7
283
     0
274
    -2
284
     1
 64
     0
275
    -2
285
     1
 65
     0
276
    -2
286
     1
 66
     0
277
    -2
287
     1
 67
     0
278
    -2
288
     1
 68
     0
279
    -2
289
     1
 69
     0
  7
STANDARD
140
4.5
170
     5
 62
     0
 63
     7
283
     0
274
    -2
284
     1
 64
     0
275
    -2
285
     1
 65
     0
276
    -2
286
     1
 66
     0
277
    -2
287
     1
 67
     0
278
    -2
288
     1
 68
     0
279
    -2
289
     1
 69
     0
  0
VISUALSTYLE
  5
1832
102
{ACAD_REACTORS
330
182C
102
}
330
182C
100
AcDbVisualStyle
  2
2dWireframe
 70
     4
 71
     0
 72
     2
 73
     0
 90
        0
 40
-0.6
 41
-30.0
 62
     5
 63
     7
 74
     1
 91
        4
 64
     7
 65
   257
 75
     1
175
     1
 42
1.0
 92
        0
 66
   257
 43
1.0
 76
     1
 77
     6
 78
     2
 67
     7
 79
     5
170
     0
171
     0
290
     0
174
     0
 93
        1
 44
0.0
173
     0
291
     0
 45
0.0
1001
ACAD
1000
AcDbSavedByObjectVersion
1070
     0
  0
VISUALSTYLE
  5
1834
102
{ACAD_REACTORS
330
182C
102
}
330
182C
100
AcDbVisualStyle
  2
3D Hidden
 70
     6
 71
     1
 72
     2
 73
     2
 90
        0
 40
-0.6
 41
-30.0
 62
     5
 63
     7
 74
     2
 91
        2
 64
     7
 65
   257
 75
     2
175
     1
 42
40.0
 92
        0
 66
   257
 43
1.0
 76
     1
 77
     6
 78
     2
 67
     7
 79
     3
170
     0
171
     0
290
     0
174
     0
 93
        1
 44
0.0
173
     0
291
     0
 45
0.0
1001
ACAD
1000
AcDbSavedByObjectVersion
1070
     0
  0
VISUALSTYLE
  5
1833
102
{ACAD_REACTORS
330
182C
102
}
330
182C
100
AcDbVisualStyle
  2
3dWireframe
 70
     5
 71
     0
 72
     2
 73
     0
 90
        0
 40
-0.6
 41
-30.0
 62
     5
 63
     7
 74
     1
 91
        4
 64
     7
 65
   257
 75
     1
175
     1
 42
1.0
 92
        0
 66
   257
 43
1.0
 76
     1
 77
     6
 78
     2
 67
     7
 79
     5
170
     0
171
     0
290
     0
174
     0
 93
        1
 44
0.0
173
     0
291
     0
 45
0.0
1001
ACAD
1000
AcDbSavedByObjectVersion
1070
     0
  0
VISUALSTYLE
  5
1831
102
{ACAD_REACTORS
330
182C
102
}
330
182C
100
AcDbVisualStyle
  2
Basic
 70
     7
 71
     1
 72
     0
 73
     1
 90
        0
 40
-0.6
 41
-30.0
 62
     5
 63
     7
 74
     0
 91
        4
 64
     7
 65
   257
 75
     1
175
     1
 42
1.0
 92
        8
 66
     7
 43
1.0
 76
     1
 77
     6
 78
     2
 67
     7
 79
     5
170
     0
171
     0
290
     0
174
     0
 93
        1
 44
0.0
173
     0
291
     1
 45
0.0
1001
ACAD
1000
AcDbSavedByObjectVersion
1070
     0
  0
VISUALSTYLE
  5
1838
102
{ACAD_REACTORS
330
182C
102
}
330
182C
100
AcDbVisualStyle
  2
Brighten
 70
    12
 71
     2
 72
     2
 73
     0
 90
        0
 40
-0.6
 41
-30.0
 62
     5
 63
     7
 74
     1
 91
        4
 64
     7
 65
   257
 75
     1
175
     1
 42
1.0
 92
        8
 66
     7
 43
1.0
 76
     1
 77
     6
 78
     2
 67
     7
 79
     5
170
     0
171
     0
290
     0
174
     0
 93
        1
 44
50.0
173
     0
291
     1
 45
0.0
1001
ACAD
1000
AcDbSavedByObjectVersion
1070
     0
  0
VISUALSTYLE
  5
183C
102
{ACAD_REACTORS
330
182C
102
}
330
182C
100
AcDbVisualStyle
  2
ColorChange
 70
    16
 71
     2
 72
     2
 73
     3
 90
        0
 40
-0.6
 41
-30.0
 62
     5
 63
     8
 74
     1
 91
        4
 64
     7
 65
   257
 75
     1
175
     1
 42
1.0
 92
        8
 66
     8
 43
1.0
 76
     1
 77
     6
 78
     2
 67
     7
 79
     5
170
     0
171
     0
290
     0
174
     0
 93
        1
 44
0.0
173
     0
291
     1
 45
0.0
1001
ACAD
1000
AcDbSavedByObjectVersion
1070
     0
  0
VISUALSTYLE
  5
1835
102
{ACAD_REACTORS
330
182C
102
}
330
182C
100
AcDbVisualStyle
  2
Conceptual
 70
     9
 71
     3
 72
     2
 73
     0
 90
        0
 40
-0.6
 41
-30.0
 62
     5
 63
     7
 74
     2
 91
        2
 64
     7
 65
   257
 75
     1
175
     1
 42
40.0
 92
        8
 66
     7
 43
1.0
 76
     1
 77
     6
 78
     2
 67
     7
 79
     3
170
     0
171
     0
290
     0
174
     0
 93
        1
 44
0.0
173
     0
291
     0
 45
0.0
1001
ACAD
1000
AcDbSavedByObjectVersion
1070
     0
  0
VISUALSTYLE
  5
1837
102
{ACAD_REACTORS
330
182C
102
}
330
182C
100
AcDbVisualStyle
  2
Dim
 70
    11
 71
     2
 72
     2
 73
     0
 90
        0
 40
-0.6
 41
-30.0
 62
     5
 63
     7
 74
     1
 91
        4
 64
     7
 65
   257
 75
     1
175
     1
 42
1.0
 92
        8
 66
     7
 43
1.0
 76
     1
 77
     6
 78
     2
 67
     7
 79
     5
170
     0
171
     0
290
     0
174
     0
 93
        1
 44
-50.0
173
     0
291
     1
 45
0.0
1001
ACAD
1000
AcDbSavedByObjectVersion
1070
     0
  0
VISUALSTYLE
  5
183B
102
{ACAD_REACTORS
330
182C
102
}
330
182C
100
AcDbVisualStyle
  2
Facepattern
 70
    15
 71
     2
 72
     2
 73
     0
 90
        0
 40
-0.6
 41
-30.0
 62
     5
 63
     7
 74
     1
 91
        4
 64
     7
 65
   257
 75
     1
175
     1
 42
1.0
 92
        8
 66
     7
 43
1.0
 76
     1
 77
     6
 78
     2
 67
     7
 79
     5
170
     0
171
     0
290
     0
174
     0
 93
        1
 44
0.0
173
     0
291
     1
 45
0.0
1001
ACAD
1000
AcDbSavedByObjectVersion
1070
     0
  0
VISUALSTYLE
  5
182D
102
{ACAD_REACTORS
330
182C
102
}
330
182C
100
AcDbVisualStyle
  2
Flat
 70
     0
 71
     2
 72
     1
 73
     1
 90
        2
 40
-0.6
 41
30.0
 62
     5
 63
     7
 74
     0
 91
        4
 64
     7
 65
   257
 75
     1
175
     1
 42
1.0
 92
        8
 66
     7
 43
1.0
 76
     1
 77
     6
 78
     2
 67
     7
 79
     5
170
     0
171
     0
290
     0
174
     0
 93
       13
 44
0.0
173
     0
291
     1
 45
0.0
1001
ACAD
1000
AcDbSavedByObjectVersion
1070
     0
  0
VISUALSTYLE
  5
182E
102
{ACAD_REACTORS
330
182C
102
}
330
182C
100
AcDbVisualStyle
  2
FlatWithEdges
 70
     1
 71
     2
 72
     1
 73
     1
 90
        2
 40
-0.6
 41
30.0
 62
     5
 63
     7
 74
     1
 91
        4
 64
     7
 65
   257
 75
     1
175
     1
 42
1.0
 92
        0
 66
   257
 43
1.0
 76
     1
 77
     6
 78
     2
 67
     7
 79
     5
170
     0
171
     0
290
     0
174
     0
 93
       13
 44
0.0
173
     0
291
     1
 45
0.0
1001
ACAD
1000
AcDbSavedByObjectVersion
1070
     0
  0
VISUALSTYLE
  5
182F
102
{ACAD_REACTORS
330
182C
102
}
330
182C
100
AcDbVisualStyle
  2
Gouraud
 70
     2
 71
     2
 72
     2
 73
     1
 90
        2
 40
-0.6
 41
30.0
 62
     5
 63
     7
 74
     0
 91
        4
 64
     7
 65
   257
 75
     1
175
     1
 42
1.0
 92
        0
 66
     7
 43
1.0
 76
     1
 77
     6
 78
     2
 67
     7
 79
     5
170
     0
171
     0
290
     0
174
     0
 93
       13
 44
0.0
173
     0
291
     1
 45
0.0
1001
ACAD
1000
AcDbSavedByObjectVersion
1070
     0
  0
VISUALSTYLE
  5
1830
102
{ACAD_REACTORS
330
182C
102
}
330
182C
100
AcDbVisualStyle
  2
GouraudWithEdges
 70
     3
 71
     2
 72
     2
 73
     1
 90
        2
 40
-0.6
 41
30.0
 62
     5
 63
     7
 74
     1
 91
        4
 64
     7
 65
   257
 75
     1
175
     1
 42
1.0
 92
        0
 66
   257
 43
1.0
 76
     1
 77
     6
 78
     2
 67
     7
 79
     5
170
     0
171
     0
290
     0
174
     0
 93
       13
 44
0.0
173
     0
291
     1
 45
0.0
1001
ACAD
1000
AcDbSavedByObjectVersion
1070
     0
  0
VISUALSTYLE
  5
183A
102
{ACAD_REACTORS
330
182C
102
}
330
182C
100
AcDbVisualStyle
  2
Linepattern
 70
    14
 71
     2
 72
     2
 73
     0
 90
        0
 40
-0.6
 41
-30.0
 62
     5
 63
     7
 74
     1
 91
        4
 64
     7
 65
   257
 75
     7
175
     7
 42
1.0
 92
        8
 66
     7
 43
1.0
 76
     1
 77
     6
 78
     2
 67
     7
 79
     5
170
     0
171
     0
290
     0
174
     0
 93
        1
 44
0.0
173
     0
291
     1
 45
0.0
1001
ACAD
1000
AcDbSavedByObjectVersion
1070
     0
  0
VISUALSTYLE
  5
1836
102
{ACAD_REACTORS
330
182C
102
}
330
182C
100
AcDbVisualStyle
  2
Realistic
 70
     8
 71
     2
 72
     2
 73
     0
 90
        0
 40
-0.6
 41
-30.0
 62
     5
 63
     7
 74
     1
 91
        0
 64
     7
 65
   257
 75
     1
175
     1
 42
1.0
 92
        8
 66
     8
 43
1.0
 76
     1
 77
     6
 78
     2
 67
     7
 79
     5
170
     0
171
     0
290
     0
174
     0
 93
       13
 44
0.0
173
     0
291
     0
 45
0.0
1001
ACAD
1000
AcDbSavedByObjectVersion
1070
     0
  0
VISUALSTYLE
  5
1839
102
{ACAD_REACTORS
330
182C
102
}
330
182C
100
AcDbVisualStyle
  2
Thicken
 70
    13
 71
     2
 72
     2
 73
     0
 90
        0
 40
-0.6
 41
-30.0
 62
     5
 63
     7
 74
     1
 91
        4
 64
     7
 65
   257
 75
     1
175
     1
 42
1.0
 92
       12
 66
     7
 43
1.0
 76
     1
 77
     6
 78
     2
 67
     7
 79
     5
170
     0
171
     0
290
     0
174
     0
 93
        1
 44
0.0
173
     0
291
     1
 45
0.0
1001
ACAD
1000
AcDbSavedByObjectVersion
1070
     0
  0
DICTIONARYVAR
  5
3F5
102
{ACAD_REACTORS
330
3F4
102
}
330
3F4
100
DictionaryVariables
280
     0
  1
STANDARD
  0
DICTIONARYVAR
  5
181E
102
{ACAD_REACTORS
330
3F4
102
}
330
3F4
100
DictionaryVariables
280
     0
  1
1
  0
DICTIONARYVAR
  5
181D
102
{ACAD_REACTORS
330
3F4
102
}
330
3F4
100
DictionaryVariables
280
     0
  1
1
  0
DICTIONARYVAR
  5
1952
102
{ACAD_REACTORS
330
3F4
102
}
330
3F4
100
DictionaryVariables
280
     0
  1
0
  0
DICTIONARYVAR
  5
181F
102
{ACAD_REACTORS
330
3F4
102
}
330
3F4
100
DictionaryVariables
280
     0
  1

  0
DICTIONARYVAR
  5
1951
102
{ACAD_REACTORS
330
3F4
102
}
330
3F4
100
DictionaryVariables
280
     0
  1
127
  0
DICTIONARY
  5
3A3
102
{ACAD_REACTORS
330
3A2
102
}
330
3A2
100
AcDbDictionary
281
     1
  0
XRECORD
  5
427
102
{ACAD_REACTORS
330
3A2
102
}
330
3A2
100
AcDbXrecord
280
     1
 90
-1023410169
  0
DICTIONARY
  5
1956
330
12
100
AcDbDictionary
280
     1
281
     1
  3
ACAD_XREC_ROUNDTRIP
360
1957
  0
DICTIONARY
  5
1954
330
C
100
AcDbDictionary
280
     1
281
     1
  3
ACAD_XREC_ROUNDTRIP
360
1955
  0
DICTIONARY
  5
195C
330
182A
100
AcDbDictionary
280
     1
281
     1
  3
ACAD_XREC_ROUNDTRIP
360
195D
  0
DICTIONARY
  5
195A
330
1829
100
AcDbDictionary
280
     1
281
     1
  3
ACAD_XREC_ROUNDTRIP
360
195B
  0
DICTIONARY
  5
195E
330
182B
100
AcDbDictionary
280
     1
281
     1
  3
ACAD_XREC_ROUNDTRIP
360
195F
  0
DICTIONARY
  5
1958
330
2C
100
AcDbDictionary
280
     1
281
     1
  3
ACAD_XREC_ROUNDTRIP
360
1959
  0
XRECORD
  5
1957
102
{ACAD_REACTORS
330
1956
102
}
330
1956
100
AcDbXrecord
280
     1
102
SHADEPLOT
 70
     0
102
SHADEPLOTRESLEVEL
 70
     2
102
SHADEPLOTCUSTOMDPI
 70
   300
  0
XRECORD
  5
1955
102
{ACAD_REACTORS
330
1954
102
}
330
1954
100
AcDbXrecord
280
     1
102
SHADEPLOT
 70
     0
102
SHADEPLOTRESLEVEL
 70
     2
102
SHADEPLOTCUSTOMDPI
 70
   300
  0
XRECORD
  5
195D
102
{ACAD_REACTORS
330
195C
102
}
330
195C
100
AcDbXrecord
280
     1
102
MATERIAL
148
0.0
149
0.0
149
0.0
 93
        0
 94
       63
282
     0
 72
     1
 77
     1
171
     1
175
     1
179
     1
273
     0
  0
XRECORD
  5
195B
102
{ACAD_REACTORS
330
195A
102
}
330
195A
100
AcDbXrecord
280
     1
102
MATERIAL
148
0.0
149
0.0
149
0.0
 93
        0
 94
       63
282
     0
 72
     1
 77
     1
171
     1
175
     1
179
     1
273
     0
  0
XRECORD
  5
195F
102
{ACAD_REACTORS
330
195E
102
}
330
195E
100
AcDbXrecord
280
     1
102
MATERIAL
148
0.0
149
0.0
149
0.0
 93
        0
 94
       63
282
     0
 72
     1
 77
     1
171
     1
175
     1
179
     1
273
     0
  0
XRECORD
  5
1959
102
{ACAD_REACTORS
330
1958
102
}
330
1958
100
AcDbXrecord
280
     1
102
ACAD_ROUNDTRIP_PRE2007_TABLESTYLE
 90
        4
 91
        0
  1

 92
        4
 93
        0
  2

 94
        4
 95
        0
  3

  0
ENDSEC
  0
EOF
