  0
SECTION
  2
HEADER
  9
$ACADVER
  1
AC1015
  9
$ACADMAINTVER
 70
    20
  9
$DWGCODEPAGE
  3
ANSI_1252
  9
$INSBASE
 10
0.0
 20
0.0
 30
0.0
  9
$EXTMIN
 10
-0.5334084673891084
 20
475.7080478899068
 30
-0.0000000000000058
  9
$EXTMAX
 10
536.0240857900948
 20
799.4305921403227
 30
0.0000000000000104
  9
$LIMMIN
 10
-182.9864404497793
 20
-2.624778689794775
  9
$LIMMAX
 10
626.9601670480072
 20
442.6145195992734
  9
$ORTHOMODE
 70
     1
  9
$REGENMODE
 70
     1
  9
$FILLMODE
 70
     1
  9
$QTEXTMODE
 70
     0
  9
$MIRRTEXT
 70
     0
  9
$LTSCALE
 40
1.0
  9
$ATTMODE
 70
     1
  9
$TEXTSIZE
 40
50.0
  9
$TRACEWID
 40
1.0
  9
$TEXTSTYLE
  7
STANDARD
  9
$CLAYER
  8
AM_4
  9
$CELTYPE
  6
ByLayer
  9
$CECOLOR
 62
   256
  9
$CELTSCALE
 40
1.0
  9
$DISPSILH
 70
     0
  9
$DIMSCALE
 40
1.0
  9
$DIMASZ
 40
2.5
  9
$DIMEXO
 40
0.0
  9
$DIMDLI
 40
10.0
  9
$DIMRND
 40
0.0
  9
$DIMDLE
 40
0.0
  9
$DIMEXE
 40
1.0
  9
$DIMTP
 40
5.0
  9
$DIMTM
 40
5.0
  9
$DIMTXT
 40
3.0
  9
$DIMCEN
 40
0.0
  9
$DIMTSZ
 40
0.0
  9
$DIMTOL
 70
     0
  9
$DIMLIM
 70
     0
  9
$DIMTIH
 70
     0
  9
$DIMTOH
 70
     0
  9
$DIMSE1
 70
     0
  9
$DIMSE2
 70
     0
  9
$DIMTAD
 70
     1
  9
$DIMZIN
 70
     8
  9
$DIMBLK
  1

  9
$DIMASO
 70
     1
  9
$DIMSHO
 70
     1
  9
$DIMPOST
  1

  9
$DIMAPOST
  1
"
  9
$DIMALT
 70
     0
  9
$DIMALTD
 70
     2
  9
$DIMALTF
 40
0.0393701
  9
$DIMLFAC
 40
1.0
  9
$DIMTOFL
 70
     1
  9
$DIMTVP
 40
0.0
  9
$DIMTIX
 70
     0
  9
$DIMSOXD
 70
     0
  9
$DIMSAH
 70
     0
  9
$DIMBLK1
  1

  9
$DIMBLK2
  1

  9
$DIMSTYLE
  2
AM_DIN
  9
$DIMCLRD
 70
   256
  9
$DIMCLRE
 70
   256
  9
$DIMCLRT
 70
     2
  9
$DIMTFAC
 40
0.71
  9
$DIMGAP
 40
0.7
  9
$DIMJUST
 70
     0
  9
$DIMSD1
 70
     0
  9
$DIMSD2
 70
     0
  9
$DIMTOLJ
 70
     0
  9
$DIMTZIN
 70
     8
  9
$DIMALTZ
 70
     0
  9
$DIMALTTZ
 70
     0
  9
$DIMUPT
 70
     0
  9
$DIMDEC
 70
     0
  9
$DIMTDEC
 70
     2
  9
$DIMALTU
 70
     2
  9
$DIMALTTD
 70
     2
  9
$DIMTXSTY
  7
STANDARD
  9
$DIMAUNIT
 70
     0
  9
$DIMADEC
 70
     0
  9
$DIMALTRND
 40
0.0
  9
$DIMAZIN
 70
     2
  9
$DIMDSEP
 70
    46
  9
$DIMATFIT
 70
     3
  9
$DIMFRAC
 70
     0
  9
$DIMLDRBLK
  1

  9
$DIMLUNIT
 70
     2
  9
$DIMLWD
 70
    -1
  9
$DIMLWE
 70
    -1
  9
$DIMTMOVE
 70
     0
  9
$LUNITS
 70
     2
  9
$LUPREC
 70
     2
  9
$SKETCHINC
 40
1.0
  9
$FILLETRAD
 40
28.0
  9
$AUNITS
 70
     0
  9
$AUPREC
 70
     0
  9
$MENU
  1
.
  9
$ELEVATION
 40
0.0
  9
$PELEVATION
 40
0.0
  9
$THICKNESS
 40
0.0
  9
$LIMCHECK
 70
     0
  9
$CHAMFERA
 40
2.5
  9
$CHAMFERB
 40
2.5
  9
$CHAMFERC
 40
20.0
  9
$CHAMFERD
 40
0.0
  9
$SKPOLY
 70
     0
  9
$TDCREATE
 40
2452908.547844861
  9
$TDUCREATE
 40
2452908.506178195
  9
$TDUPDATE
 40
2454175.378198959
  9
$TDUUPDATE
 40
2454175.336532292
  9
$TDINDWG
 40
3.5516737847
  9
$TDUSRTIMER
 40
3.5516734375
  9
$USRTIMER
 70
     1
  9
$ANGBASE
 50
0.0
  9
$ANGDIR
 70
     0
  9
$PDMODE
 70
     0
  9
$PDSIZE
 40
0.0
  9
$PLINEWID
 40
0.0
  9
$SPLFRAME
 70
     0
  9
$SPLINETYPE
 70
     6
  9
$SPLINESEGS
 70
     8
  9
$HANDSEED
  5
1092
  9
$SURFTAB1
 70
     6
  9
$SURFTAB2
 70
     6
  9
$SURFTYPE
 70
     6
  9
$SURFU
 70
     6
  9
$SURFV
 70
     6
  9
$UCSBASE
  2

  9
$UCSNAME
  2

  9
$UCSORG
 10
0.0
 20
0.0
 30
0.0
  9
$UCSXDIR
 10
1.0
 20
0.0
 30
0.0
  9
$UCSYDIR
 10
0.0
 20
1.0
 30
0.0
  9
$UCSORTHOREF
  2

  9
$UCSORTHOVIEW
 70
     0
  9
$UCSORGTOP
 10
0.0
 20
0.0
 30
0.0
  9
$UCSORGBOTTOM
 10
0.0
 20
0.0
 30
0.0
  9
$UCSORGLEFT
 10
0.0
 20
0.0
 30
0.0
  9
$UCSORGRIGHT
 10
0.0
 20
0.0
 30
0.0
  9
$UCSORGFRONT
 10
0.0
 20
0.0
 30
0.0
  9
$UCSORGBACK
 10
0.0
 20
0.0
 30
0.0
  9
$PUCSBASE
  2

  9
$PUCSNAME
  2

  9
$PUCSORG
 10
0.0
 20
0.0
 30
0.0
  9
$PUCSXDIR
 10
1.0
 20
0.0
 30
0.0
  9
$PUCSYDIR
 10
0.0
 20
1.0
 30
0.0
  9
$PUCSORTHOREF
  2

  9
$PUCSORTHOVIEW
 70
     0
  9
$PUCSORGTOP
 10
0.0
 20
0.0
 30
0.0
  9
$PUCSORGBOTTOM
 10
0.0
 20
0.0
 30
0.0
  9
$PUCSORGLEFT
 10
0.0
 20
0.0
 30
0.0
  9
$PUCSORGRIGHT
 10
0.0
 20
0.0
 30
0.0
  9
$PUCSORGFRONT
 10
0.0
 20
0.0
 30
0.0
  9
$PUCSORGBACK
 10
0.0
 20
0.0
 30
0.0
  9
$USERI1
 70
     0
  9
$USERI2
 70
     0
  9
$USERI3
 70
     0
  9
$USERI4
 70
     0
  9
$USERI5
 70
     0
  9
$USERR1
 40
0.0
  9
$USERR2
 40
0.0
  9
$USERR3
 40
0.0
  9
$USERR4
 40
0.0
  9
$USERR5
 40
0.0
  9
$WORLDVIEW
 70
     1
  9
$SHADEDGE
 70
     3
  9
$SHADEDIF
 70
    70
  9
$TILEMODE
 70
     1
  9
$MAXACTVP
 70
    64
  9
$PINSBASE
 10
0.0
 20
0.0
 30
0.0
  9
$PLIMCHECK
 70
     0
  9
$PEXTMIN
 10
1.000000000000000E+20
 20
1.000000000000000E+20
 30
1.000000000000000E+20
  9
$PEXTMAX
 10
-1.000000000000000E+20
 20
-1.000000000000000E+20
 30
-1.000000000000000E+20
  9
$PLIMMIN
 10
0.0
 20
0.0
  9
$PLIMMAX
 10
420.0
 20
297.0
  9
$UNITMODE
 70
     0
  9
$VISRETAIN
 70
     1
  9
$PLINEGEN
 70
     0
  9
$PSLTSCALE
 70
     1
  9
$TREEDEPTH
 70
  3020
  9
$CMLSTYLE
  2
Standard
  9
$CMLJUST
 70
     0
  9
$CMLSCALE
 40
20.0
  9
$PROXYGRAPHICS
 70
     1
  9
$MEASUREMENT
 70
     1
  9
$CELWEIGHT
370
    -1
  9
$ENDCAPS
280
     0
  9
$JOINSTYLE
280
     0
  9
$LWDISPLAY
290
     0
  9
$INSUNITS
 70
     4
  9
$HYPERLINKBASE
  1

  9
$STYLESHEET
  1
ganz_fein_1.ctb
  9
$XEDIT
290
     1
  9
$CEPSNTYPE
380
     0
  9
$PSTYLEMODE
290
     1
  9
$FINGERPRINTGUID
  2
{83AF6503-29F1-4AD5-97F6-8D05887D4836}
  9
$VERSIONGUID
  2
{B1FF2BD8-64C2-491C-9B7A-4D733B56E233}
  9
$EXTNAMES
290
     1
  9
$PSVPSCALE
 40
0.0
  9
$OLESTARTUP
290
     0
  0
ENDSEC
  0
SECTION
  2
CLASSES
  0
CLASS
  1
ACDBDICTIONARYWDFLT
  2
AcDbDictionaryWithDefault
  3
ObjectDBX Classes
 90
        0
280
     0
281
     0
  0
CLASS
  1
ACDBPLACEHOLDER
  2
AcDbPlaceHolder
  3
ObjectDBX Classes
 90
        0
280
     0
281
     0
  0
CLASS
  1
LAYOUT
  2
AcDbLayout
  3
ObjectDBX Classes
 90
        0
280
     0
281
     0
  0
CLASS
  1
AMGSETTINGSOBJ
  2
AmgSettingsObj
  3
"AcadM|Product Description: AutoCAD Mechanical|Company: Autodesk"
 90
        0
280
     0
281
     0
  0
CLASS
  1
ACME_DOCUMENT
  2
AcMeDbDoc
  3
AcMeServices
 90
        0
280
     0
281
     0
  0
CLASS
  1
ACMESCOPE
  2
AcMeScope
  3
AcMeServices
 90
        0
280
     0
281
     0
  0
CLASS
  1
ACMECOMMANDHISTORY
  2
AcMeCommandHistory
  3
AcMeServices
 90
        0
280
     0
281
     0
  0
CLASS
  1
DICTIONARYVAR
  2
AcDbDictionaryVar
  3
ObjectDBX Classes
 90
        0
280
     0
281
     0
  0
CLASS
  1
ACIMSYSVARMAN
  2
AcImSysVarManager
  3
AcMeServices
 90
        0
280
     0
281
     0
  0
CLASS
  1
ACIMREALSYSVAR
  2
AcImRealSysVar
  3
AcMeServices
 90
        0
280
     0
281
     0
  0
CLASS
  1
ACIMINTSYSVAR
  2
AcImIntSysVar
  3
AcMeServices
 90
        0
280
     0
281
     0
  0
CLASS
  1
ACMEDRAWINGMAN
  2
AcMeDrawingMan
  3
AcMeServices
 90
        0
280
     0
281
     0
  0
CLASS
  1
ACMEVIEW
  2
AcMeView
  3
AcMeServices
 90
        0
280
     0
281
     0
  0
CLASS
  1
ACDBENTITYCACHE
  2
AcMeEntityCache
  3
AcMeServices
 90
        0
280
     0
281
     0
  0
CLASS
  1
GSMANAGER
  2
AcMeGSManager
  3
AcMeServices
 90
        0
280
     0
281
     0
  0
CLASS
  1
AMDTINTERNALREACTOR
  2
AmdtInternalReactor
  3
AcMeServices
 90
        0
280
     0
281
     0
  0
CLASS
  1
ACMESTATEMGR
  2
AcMeStateMgr
  3
AcMeServices
 90
        0
280
     0
281
     0
  0
CLASS
  1
ACGREFMASTER
  2
AcGrefMaster
  3
AcAttribServices
 90
        0
280
     0
281
     0
  0
CLASS
  1
ACME_DATABASE
  2
AcMeDbDatabase
  3
AcMeServices
 90
        0
280
     0
281
     0
  0
CLASS
  1
ACRFINSADJUSTERMGR
  2
AcRfInsAdjusterMgr
  3
AcMeServices
 90
        0
280
     0
281
     0
  0
CLASS
  1
ACGREFACADMASTER
  2
AcGrefacadMaster
  3
AcGrefServices
 90
        0
280
     0
281
     0
  0
CLASS
  1
AMIMASTER
  2
AmiMaster
  3
AmiServices
 90
        0
280
     0
281
     0
  0
CLASS
  1
ACIMSTRSYSVAR
  2
AcImStrSysVar
  3
AcMeServices
 90
        0
280
     0
281
     0
  0
CLASS
  1
ACMSTANDARDDIN
  2
AcmStandardDIN
  3
"Amdt_StdImp|Product Description: AutoCAD Mechanical|Company: Autodesk"
 90
        0
280
     0
281
     0
  0
CLASS
  1
AMGOBJPROPCFG
  2
AmgObjPropCfg
  3
"AmgLay|Product Description: AutoCAD Mechanical|Company: Autodesk"
 90
        1
280
     0
281
     0
  0
CLASS
  1
AMDTEDGESTANDARDDIN
  2
AmdtEdgeStdDIN
  3
"Amdt_StdImp|Product Description: AutoCAD Mechanical|Company: Autodesk"
 90
        0
280
     0
281
     0
  0
CLASS
  1
ACMSURFSTANDARDDIN
  2
AcmSurfTextStdDIN
  3
"Amdt_StdImp|Product Description: AutoCAD Mechanical|Company: Autodesk"
 90
        0
280
     0
281
     0
  0
CLASS
  1
ACMFCFSTANDARDDIN
  2
AcmFCFStdDIN
  3
"Amdt_StdImp|Product Description: AutoCAD Mechanical|Company: Autodesk"
 90
        0
280
     0
281
     0
  0
CLASS
  1
ACMWELDSTANDARDDIN
  2
AcmWeldingStdDIN
  3
"Amdt_StdImp|Product Description: AutoCAD Mechanical|Company: Autodesk"
 90
        0
280
     0
281
     0
  0
CLASS
  1
ACMIDSTANDARDDIN
  2
AcmIdStdDIN
  3
"Amdt_StdImp|Product Description: AutoCAD Mechanical|Company: Autodesk"
 90
        0
280
     0
281
     0
  0
CLASS
  1
ACMDATUMSTANDARDDIN
  2
AcmDatumStdDIN
  3
"Amdt_StdImp|Product Description: AutoCAD Mechanical|Company: Autodesk"
 90
        0
280
     0
281
     0
  0
CLASS
  1
ACMBOMSTANDARDDIN
  2
AcmBOMStdDIN
  3
"Amdt_StdImp|Product Description: AutoCAD Mechanical|Company: Autodesk"
 90
        0
280
     0
281
     0
  0
CLASS
  1
ACMDETAILSTANDARDDIN
  2
AmdtDetailSymStdDIN
  3
"Amdt_StdImp|Product Description: AutoCAD Mechanical|Company: Autodesk"
 90
        0
280
     0
281
     0
  0
CLASS
  1
ACMSECTIONSTANDARDDIN
  2
AmdtSectionSymStdDIN
  3
"Amdt_StdImp|Product Description: AutoCAD Mechanical|Company: Autodesk"
 90
        0
280
     0
281
     0
  0
CLASS
  1
ACMCENTERLINESTANDARDDIN
  2
AmdtCenterLineStdDIN
  3
"Amdt_StdImp|Product Description: AutoCAD Mechanical|Company: Autodesk"
 90
        0
280
     0
281
     0
  0
CLASS
  1
ACMTHREADLINESTANDARDDIN
  2
AmdtThreadLineStdDIN
  3
"Amdt_StdImp|Product Description: AutoCAD Mechanical|Company: Autodesk"
 90
        0
280
     0
281
     0
  0
CLASS
  1
ACAMGLAYSTD
  2
AcAmgLayStd
  3
"AmgLay|Product Description: AutoCAD Mechanical|Company: Autodesk"
 90
        0
280
     0
281
     0
  0
CLASS
  1
ACAMGDIMSTD
  2
AcAmgDimStd
  3
"AmgDim|Product Description: AutoCAD Mechanical|Company: Autodesk"
 90
        0
280
     0
281
     0
  0
CLASS
  1
ACAMGTITLESTD
  2
AcAmgTitleStd
  3
"AmgTitle|Product Description: AutoCAD Mechanical|Company: Autodesk"
 90
        0
280
     0
281
     0
  0
CLASS
  1
ACMDATADICTIONARY
  2
AcmDataDictionary
  3
"AcmSymBB|Product Description: AutoCAD Mechanical|Company: Autodesk"
 90
        0
280
     0
281
     0
  0
CLASS
  1
ACMDATAENTRYBLOCK
  2
AcmDataEntryBlock
  3
"AcmSymBB|Product Description: AutoCAD Mechanical|Company: Autodesk"
 90
    32768
280
     0
281
     0
  0
CLASS
  1
LAYER_INDEX
  2
AcDbLayerIndex
  3
ObjectDBX Classes
 90
    32768
280
     0
281
     0
  0
CLASS
  1
IDBUFFER
  2
AcDbIdBuffer
  3
ObjectDBX Classes
 90
    32768
280
     0
281
     0
  0
CLASS
  1
AM_DRAWING_MGR
  2
AcDmDwgMgr
  3
AcMechDwgViewMgmt
 90
        0
280
     0
281
     0
  0
CLASS
  1
AM_DWG_DOCUMENT
  2
AcDmDwgDocument
  3
AcMechDwgViewMgmt
 90
        0
280
     0
281
     0
  0
CLASS
  1
AM_DWG_SHEET
  2
AcDmSheet
  3
AcMechDwgViewMgmt
 90
        0
280
     0
281
     0
  0
CLASS
  1
AM_VIEWDIMPARMAP
  2
AcDmViewDimParMap
  3
AcMechDwgViewMgmt
 90
        0
280
     0
281
     0
  0
CLASS
  1
AM_DWGMGR_NAME
  2
AcDmDwgMgrName
  3
AcMechDwgViewMgmt
 90
        0
280
     0
281
     0
  0
CLASS
  1
AMDTMENUSTATEMGR
  2
AmdtMenuStateMgr
  3
McadcomServices
 90
        0
280
     0
281
     0
  0
CLASS
  1
AMDTMCOMMENUSTATE
  2
AmdtMcomMenuState
  3
McadcomServices
 90
        0
280
     0
281
     0
  0
CLASS
  1
ASAPP
  2
AcAsAppObject
  3
AutoSurfServices
 90
    32768
280
     1
281
     0
  0
CLASS
  1
IM_STATIC_MAN
  2
AcImStaticVarManager
  3
AcMeServices
 90
    32768
280
     0
281
     0
  0
CLASS
  1
ACIMDBLSTATICVAR
  2
AcImDblStaticVar
  3
AcMeServices
 90
    32768
280
     0
281
     0
  0
CLASS
  1
ACIMSTRSTATICVAR
  2
AcImStrStaticVar
  3
AcMeServices
 90
    32768
280
     0
281
     0
  0
CLASS
  1
ACIMINTSTATICVAR
  2
AcImIntStaticVar
  3
AcMeServices
 90
    32768
280
     0
281
     0
  0
CLASS
  1
ACASGREFMASTER
  2
AcAsGrefMaster
  3
AutoSurfResolverServices
 90
    32768
280
     1
281
     0
  0
CLASS
  1
ACADGREFMODULE
  2
AcAdGrefModule
  3
AdGrefServices
 90
    32768
280
     1
281
     0
  0
CLASS
  1
AMDTMAPISURFMOUDULE
  2
AmdtMApiSurfModule
  3
MApiSurfServices
 90
    32768
280
     1
281
     0
  0
CLASS
  1
MAPIAMMOUDLE
  2
MApiAmModule
  3
MApiAmServices
 90
        0
280
     0
281
     0
  0
CLASS
  1
AMDTADMENUSTATE
  2
AmdtAdMenuState
  3
DesignerServices
 90
        0
280
     0
281
     0
  0
CLASS
  1
ADAPPL
  2
AcAdAppl
  3
DesignerServices
 90
        0
280
     0
281
     0
  0
CLASS
  1
DEPMGR
  2
AcAdDepMgr
  3
DesignerServices
 90
        0
280
     0
281
     0
  0
CLASS
  1
PARAMMGR
  2
AcAdParamMgr
  3
DesignerServices
 90
        0
280
     0
281
     0
  0
CLASS
  1
PARAMSCOPE
  2
AcAdParamScope
  3
DesignerServices
 90
        0
280
     0
281
     0
  0
CLASS
  1
NAMEDAPPL
  2
AcAdNamedAppl
  3
DesignerServices
 90
        0
280
     0
281
     0
  0
CLASS
  1
ADHNTMPLT
  2
AdHoleNoteTemplateMgr
  3
DesignerServices
 90
    32768
280
     0
281
     0
  0
CLASS
  1
AM_HNTEMPLATE_MGR_NAME
  2
AdHoleNoteTemplateMgrName
  3
DesignerServices
 90
    32768
280
     0
281
     0
  0
CLASS
  1
AMDTDMMENUSTATE
  2
AmdtDmMenuState
  3
AcMechDwgViewMgmt
 90
        0
280
     0
281
     0
  0
CLASS
  1
MAPIADMODULE
  2
MApiAdModule
  3
MApiAdServices
 90
    32768
280
     1
281
     0
  0
CLASS
  1
AMDTAMMENUSTATE
  2
AmdtAmMenuState
  3
DesignerAssemblies
 90
        0
280
     0
281
     0
  0
CLASS
  1
ACAMPROJECT
  2
AcAmProject
  3
DesignerAssemblies
 90
        0
280
     0
281
     0
  0
CLASS
  1
ACAMGRCOMPDEF
  2
AcAmGrCompDef
  3
DesignerAssemblies
 90
        0
280
     0
281
     0
  0
CLASS
  1
ACCMCONTEXT
  2
AcCmContext
  3
DesignerAssemblies
 90
        0
280
     0
281
     0
  0
CLASS
  1
ACAMCOMPDEF
  2
AcAmCompDef
  3
DesignerAssemblies
 90
        0
280
     0
281
     0
  0
CLASS
  1
ACAMCOMPDEFMGR
  2
AcAmCompDefMgr
  3
DesignerAssemblies
 90
        0
280
     0
281
     0
  0
CLASS
  1
AMCONTEXTMGR
  2
AcAmContextMgr
  3
DesignerAssemblies
 90
        0
280
     0
281
     0
  0
CLASS
  1
ACAMCONTEXTMODELER
  2
AcAmContextModeler
  3
DesignerAssemblies
 90
        0
280
     0
281
     0
  0
CLASS
  1
CATALOGSTATE
  2
AcAmCatalogState
  3
DesignerAssemblies
 90
        0
280
     0
281
     0
  0
CLASS
  1
ACAMGRCOMPDEFSET
  2
AcAmGrCompDefSet
  3
DesignerAssemblies
 90
        0
280
     0
281
     0
  0
CLASS
  1
AMDTBROWSERDBTAB
  2
AmdtBrowserDbTab
  3
McadcomServices
 90
        0
280
     0
281
     0
  0
CLASS
  1
CBROWSERAPPOBJECT
  2
CBrowserAppObject
  3
McadcomServices
 90
        0
280
     0
281
     0
  0
CLASS
  1
DM_PLACEHOLDER
  2
AcDmSelsetPlaceholder
  3
AcMechDwgViewMgmt
 90
        0
280
     0
281
     0
  0
CLASS
  1
ACAMGFILTERDAT
  2
AcAmgFilterDat
  3
"AcadM|Product Description: AutoCAD Mechanical|Company: Autodesk"
 90
    32768
280
     0
281
     0
  0
CLASS
  1
AMDTFORMULAUPDATEDISPATCHER
  2
AmdtFormulaUpdateDispatcher
  3
AcMeServices
 90
    32768
280
     0
281
     0
  0
CLASS
  1
ACMNOTESTANDARDDIN
  2
AmdtNoteStdDIN
  3
"Amdt_StdImp|Product Description: AutoCAD Mechanical|Company: Autodesk"
 90
        0
280
     0
281
     0
  0
CLASS
  1
ACAMGHOLECHARTSTDDIN
  2
AcAmgHoleChartStdDIN
  3
ACMSYMBB_MODULE_NAME
 90
        0
280
     0
281
     0
  0
CLASS
  1
AMDTNOTE
  2
AmdtNote
  3
"AcmSymBB|Product Description: AutoCAD Mechanical|Company: Autodesk"
 90
    35839
280
     0
281
     1
  0
CLASS
  1
ACMPARTREF
  2
AcmPartRef
  3
"AcmSymBB|Product Description: AutoCAD Mechanical|Company: Autodesk"
 90
    35839
280
     0
281
     1
  0
CLASS
  1
ACDBLINERES
  2
AcDbLineRes
  3
AcGrefServices
 90
    32768
280
     0
281
     0
  0
CLASS
  1
ACRFINSADJ
  2
AcRfInsAdjuster
  3
AcMeServices
 90
    32768
280
     0
281
     0
  0
CLASS
  1
ACMDATAENTRYPART
  2
AcmDataEntryPart
  3
"AcmSymBB|Product Description: AutoCAD Mechanical|Company: Autodesk"
 90
    32768
280
     0
281
     0
  0
CLASS
  1
ACMPICKOBJ
  2
AcmPickEnt
  3
"AcmSymBB|Product Description: AutoCAD Mechanical|Company: Autodesk"
 90
    32768
280
     0
281
     1
  0
CLASS
  1
ACMDATAENTRY
  2
AcmDataEntry
  3
"AcmSymBB|Product Description: AutoCAD Mechanical|Company: Autodesk"
 90
    32768
280
     0
281
     0
  0
CLASS
  1
ACMBOM
  2
AcmBom
  3
"AcmSymBB|Product Description: AutoCAD Mechanical|Company: Autodesk"
 90
    32768
280
     0
281
     0
  0
CLASS
  1
ACMBOMROW
  2
AcmBomRow
  3
"AcmSymBB|Product Description: AutoCAD Mechanical|Company: Autodesk"
 90
    32768
280
     0
281
     0
  0
CLASS
  1
ACMPARTLIST
  2
AcmPartList
  3
"AcmSymBB|Product Description: AutoCAD Mechanical|Company: Autodesk"
 90
    35839
280
     0
281
     1
  0
CLASS
  1
ACDBCIRCARCRES
  2
AcDbCircArcRes
  3
AcGrefServices
 90
    32768
280
     0
281
     0
  0
CLASS
  1
ACMBALLOON
  2
AcmBalloon
  3
"AcmSymBB|Product Description: AutoCAD Mechanical|Company: Autodesk"
 90
    35839
280
     0
281
     1
  0
CLASS
  1
ACMSTANDARDISO
  2
AcmStandardISO
  3
"Amdt_StdImp|Product Description: AutoCAD Mechanical|Company: Autodesk"
 90
        0
280
     0
281
     0
  0
CLASS
  1
AMDTEDGESTANDARDISO
  2
AmdtEdgeStdISO
  3
"Amdt_StdImp|Product Description: AutoCAD Mechanical|Company: Autodesk"
 90
        0
280
     0
281
     0
  0
CLASS
  1
ACMSURFSTANDARDISO
  2
AcmSurfTextStdISO
  3
"Amdt_StdImp|Product Description: AutoCAD Mechanical|Company: Autodesk"
 90
        0
280
     0
281
     0
  0
CLASS
  1
ACMFCFSTANDARDISO
  2
AcmFCFStdISO
  3
"Amdt_StdImp|Product Description: AutoCAD Mechanical|Company: Autodesk"
 90
        0
280
     0
281
     0
  0
CLASS
  1
ACMWELDSTANDARDISO
  2
AcmWeldingStdISO
  3
"Amdt_StdImp|Product Description: AutoCAD Mechanical|Company: Autodesk"
 90
        0
280
     0
281
     0
  0
CLASS
  1
ACMIDSTANDARDISO
  2
AcmIdStdISO
  3
"Amdt_StdImp|Product Description: AutoCAD Mechanical|Company: Autodesk"
 90
        0
280
     0
281
     0
  0
CLASS
  1
ACMDATUMSTANDARDISO
  2
AcmDatumStdISO
  3
"Amdt_StdImp|Product Description: AutoCAD Mechanical|Company: Autodesk"
 90
        0
280
     0
281
     0
  0
CLASS
  1
ACMBOMSTANDARDISO
  2
AcmBOMStdISO
  3
"Amdt_StdImp|Product Description: AutoCAD Mechanical|Company: Autodesk"
 90
        0
280
     0
281
     0
  0
CLASS
  1
ACMDETAILSTANDARDISO
  2
AmdtDetailSymStdISO
  3
"Amdt_StdImp|Product Description: AutoCAD Mechanical|Company: Autodesk"
 90
        0
280
     0
281
     0
  0
CLASS
  1
ACMSECTIONSTANDARDISO
  2
AmdtSectionSymStdISO
  3
"Amdt_StdImp|Product Description: AutoCAD Mechanical|Company: Autodesk"
 90
        0
280
     0
281
     0
  0
CLASS
  1
ACMCENTERLINESTANDARDISO
  2
AmdtCenterLineStdISO
  3
"Amdt_StdImp|Product Description: AutoCAD Mechanical|Company: Autodesk"
 90
        0
280
     0
281
     0
  0
CLASS
  1
ACMNOTESTANDARDISO
  2
AmdtNoteStdISO
  3
"Amdt_StdImp|Product Description: AutoCAD Mechanical|Company: Autodesk"
 90
        0
280
     0
281
     0
  0
CLASS
  1
ACAMGHOLECHARTSTDISO
  2
AcAmgHoleChartStdISO
  3
ACMSYMBB_MODULE_NAME
 90
        0
280
     0
281
     0
  0
CLASS
  1
ACDBOPPOLYLINERES
  2
AcDbOpPolylineRes
  3
AcGrefServices
 90
    32768
280
     0
281
     0
  0
CLASS
  1
ACMSURFSYM
  2
AcmSurfaceTexture
  3
"AcmSymBB|Product Description: AutoCAD Mechanical|Company: Autodesk"
 90
    35839
280
     0
281
     1
  0
CLASS
  1
ACMWELDSYM
  2
AcmWelding
  3
"AcmSymBB|Product Description: AutoCAD Mechanical|Company: Autodesk"
 90
    35839
280
     0
281
     1
  0
CLASS
  1
STDPART2D
  2
AmgStdPart
  3
"g3vace|Class: AmgStdPart|Product Description: AutoCAD Mechanical|Company: Autodesk"
 90
    35839
280
     0
281
     1
  0
CLASS
  1
ACDBSTDPARTRES_LINE
  2
AcDbStdPartRes_Line
  3
"g3vace|Class: AcDbStdPartRes_Line|Product Description: AutoCAD Mechanical|Company: Autodesk"
 90
    32768
280
     0
281
     0
  0
CLASS
  1
ACDBSTDPARTRES_ARC
  2
AcDbStdPartRes_Arc
  3
"g3vace|Class: AcDbStdPartRes_Arc|Product Description: AutoCAD Mechanical|Company: Autodesk"
 90
    32768
280
     0
281
     0
  0
CLASS
  1
ACDBDIMENSIONRES
  2
AcDbDimensionRes
  3
L"AcDbDimensionRes|Product Description: AutoCAD Mechanical 2000|Company: Autodesk"
 90
    32768
280
     0
281
     0
  0
CLASS
  1
ACDBPOLYLINERES
  2
AcDbPolylineRes
  3
AcGrefServices
 90
    32768
280
     0
281
     0
  0
CLASS
  1
ACDBELLIPSERES
  2
AcDbEllipseRes
  3
AcGrefServices
 90
    32768
280
     0
281
     0
  0
CLASS
  1
ACMDIMBREAKPERSREACTOR
  2
AcmDimBreakPersReactor
  3
amgDimApp().moduleName()
 90
    35839
280
     0
281
     0
  0
CLASS
  1
AMDTACMWBLOCKBOMENTITY
  2
AmdtAcmWblockBomEntity
  3
"AcmSymBB|Product Description: AutoCAD Mechanical|Company: Autodesk"
 90
     3071
280
     0
281
     1
  0
CLASS
  1
ACMSTANDARDANSI
  2
AcmStandardANSI
  3
"Amdt_StdImp|Product Description: AutoCAD Mechanical|Company: Autodesk"
 90
    32768
280
     0
281
     0
  0
CLASS
  1
ACMSURFSTANDARDANSI
  2
AcmSurfTextStdANSI
  3
"Amdt_StdImp|Product Description: AutoCAD Mechanical|Company: Autodesk"
 90
    32768
280
     0
281
     0
  0
CLASS
  1
ACMFCFSTANDARDANSI
  2
AcmFCFStdANSI
  3
"Amdt_StdImp|Product Description: AutoCAD Mechanical|Company: Autodesk"
 90
    32768
280
     0
281
     0
  0
CLASS
  1
ACMWELDSTANDARDANSI
  2
AcmWeldingStdANSI
  3
"Amdt_StdImp|Product Description: AutoCAD Mechanical|Company: Autodesk"
 90
    32768
280
     0
281
     0
  0
CLASS
  1
ACMIDSTANDARDANSI
  2
AcmIdStdANSI
  3
"Amdt_StdImp|Product Description: AutoCAD Mechanical|Company: Autodesk"
 90
    32768
280
     0
281
     0
  0
CLASS
  1
ACMDATUMSTANDARDANSI
  2
AcmDatumStdANSI
  3
"Amdt_StdImp|Product Description: AutoCAD Mechanical|Company: Autodesk"
 90
    32768
280
     0
281
     0
  0
CLASS
  1
ACMBOMSTANDARDANSI
  2
AcmBOMStdANSI
  3
"Amdt_StdImp|Product Description: AutoCAD Mechanical|Company: Autodesk"
 90
    32768
280
     0
281
     0
  0
CLASS
  1
ACMDETAILSTANDARDANSI
  2
AmdtDetailSymStdANSI
  3
"Amdt_StdImp|Product Description: AutoCAD Mechanical|Company: Autodesk"
 90
    32768
280
     0
281
     0
  0
CLASS
  1
ACMSECTIONSTANDARDANSI
  2
AmdtSectionSymStdANSI
  3
"Amdt_StdImp|Product Description: AutoCAD Mechanical|Company: Autodesk"
 90
    32768
280
     0
281
     0
  0
CLASS
  1
ACMCENTERLINESTANDARDANSI
  2
AmdtCenterLineStdANSI
  3
"Amdt_StdImp|Product Description: AutoCAD Mechanical|Company: Autodesk"
 90
    32768
280
     0
281
     0
  0
CLASS
  1
ACMNOTESTANDARDANSI
  2
AmdtNoteStdANSI
  3
"Amdt_StdImp|Product Description: AutoCAD Mechanical|Company: Autodesk"
 90
    32768
280
     0
281
     0
  0
CLASS
  1
ACAMGHOLECHARTSTDANSI
  2
AcAmgHoleChartStdANSI
  3
ACMSYMBB_MODULE_NAME
 90
    32768
280
     0
281
     0
  0
CLASS
  1
ACMTHREADLINESTANDARDISO
  2
AmdtThreadLineStdISO
  3
"Amdt_StdImp|Product Description: AutoCAD Mechanical|Company: Autodesk"
 90
        0
280
     0
281
     0
  0
CLASS
  1
ACMTHREADLINESTANDARDANSI
  2
AmdtThreadLineStdANSI
  3
"Amdt_StdImp|Product Description: AutoCAD Mechanical|Company: Autodesk"
 90
    32768
280
     0
281
     0
  0
CLASS
  1
TABLESTYLE
  2
AcDbTableStyle
  3
ObjectDBX Classes
 90
     4095
280
     0
281
     0
  0
CLASS
  1
SORTENTSTABLE
  2
AcDbSortentsTable
  3
ObjectDBX Classes
 90
        0
280
     0
281
     0
  0
CLASS
  1
ACRFATTGENMGR
  2
AcRfAttGeneralMgr
  3
AcAttribServices
 90
    32768
280
     0
281
     0
  0
CLASS
  1
MATERIAL
  2
AcDbMaterial
  3
ObjectDBX Classes
 90
     1024
280
     0
281
     0
  0
CLASS
  1
VISUALSTYLE
  2
AcDbVisualStyle
  3
ObjectDBX Classes
 90
     4095
280
     0
281
     0
  0
CLASS
  1
AMDTNOTETEMPLATEDB
  2
AmdtNoteTemplateDB
  3
AMDT_STDIMP_MODULE_NAME
 90
        0
280
     0
281
     0
  0
CLASS
  1
ACMTAPERSTANDARDDIN
  2
AcmTaperStdDIN
  3
"Amdt_StdImp|Product Description: AutoCAD Mechanical|Company: Autodesk"
 90
        0
280
     0
281
     0
  0
CLASS
  1
ACMTAPERSTANDARDISO
  2
AcmTaperStdISO
  3
"Amdt_StdImp|Product Description: AutoCAD Mechanical|Company: Autodesk"
 90
        0
280
     0
281
     0
  0
ENDSEC
  0
SECTION
  2
TABLES
  0
TABLE
  2
VPORT
  5
1C
330
0
100
AcDbSymbolTable
 70
     1
  0
VPORT
  5
F5B
330
1C
100
AcDbSymbolTableRecord
100
AcDbViewportTableRecord
  2
*Active
 70
     0
 10
0.0
 20
0.0
 11
1.0
 21
1.0
 12
-12.05992449654178
 22
420.4681642540905
 13
-5403.981393923409
 23
2760.242742226442
 14
2.5
 24
2.5
 15
10.0
 25
10.0
 16
0.0
 26
0.0
 36
1.0
 17
279.8052631578947
 27
217.1011557610242
 37
0.0
 40
336.7727778782068
 41
1.599382080329557
 42
50.0
 43
0.0
 44
0.0
 50
0.0
 51
0.0
 71
     0
 72
  3000
 73
     1
 74
     2
 75
     0
 76
     0
 77
     0
 78
     0
281
     0
 65
     0
110
0.0
120
0.0
130
0.0
111
1.0
121
0.0
131
0.0
112
0.0
122
1.0
132
0.0
 79
     0
146
0.0
  0
ENDTAB
  0
TABLE
  2
LTYPE
  5
17
330
0
100
AcDbSymbolTable
 70
    18
  0
LTYPE
  5
18
330
17
100
AcDbSymbolTableRecord
100
AcDbLinetypeTableRecord
  2
ByBlock
 70
     0
  3

 72
    65
 73
     0
 40
0.0
  0
LTYPE
  5
19
330
17
100
AcDbSymbolTableRecord
100
AcDbLinetypeTableRecord
  2
ByLayer
 70
     0
  3

 72
    65
 73
     0
 40
0.0
  0
LTYPE
  5
A
330
17
100
AcDbSymbolTableRecord
100
AcDbLinetypeTableRecord
  2
Continuous
 70
     0
  3
Solid line
 72
    65
 73
     0
 40
0.0
  0
LTYPE
  5
394
330
17
100
AcDbSymbolTableRecord
100
AcDbLinetypeTableRecord
  2
Amconstr
 70
     0
  3
_______________________
 72
    65
 73
     2
 40
9999.0
 49
9999.0
 74
     0
 49
0.0
 74
     0
  0
LTYPE
  5
397
330
17
100
AcDbSymbolTableRecord
100
AcDbLinetypeTableRecord
  2
Amzigzag
 70
     0
  3
/\/-/\/-/\/-/\/-/\/-/\/
 72
    65
 73
     2
 40
11.0001
 49
0.0001
 74
     4
 75
   135
340
398
 46
0.04
 50
0.0
 44
0.0
 45
0.0
 49
-11.0
 74
     0
  0
LTYPE
  5
392
330
17
100
AcDbSymbolTableRecord
100
AcDbLinetypeTableRecord
  2
AM_DIN_F_W050
 70
     0
  3
__ __ __ __ __ __ __ __ __ __ __ __ __ __ __
 72
    65
 73
     2
 40
6.25
 49
4.75
 74
     0
 49
-1.5
 74
     0
  0
LTYPE
  5
D7
330
17
100
AcDbSymbolTableRecord
100
AcDbLinetypeTableRecord
  2
AM_DIN_G_W050
 70
     0
  3
____ . ____ . ____ . ____ . ____ . ____ . ____
 72
    65
 73
     4
 40
13.75
 49
9.75
 74
     0
 49
-1.5
 74
     0
 49
1.0
 74
     0
 49
-1.5
 74
     0
  0
LTYPE
  5
393
330
17
100
AcDbSymbolTableRecord
100
AcDbLinetypeTableRecord
  2
AM_DIN_K_W050
 70
     0
  3
_____ . . _____ . . _____ . . ____ .. ____
 72
    65
 73
     6
 40
16.25
 49
9.75
 74
     0
 49
-1.5
 74
     0
 49
1.0
 74
     0
 49
-1.5
 74
     0
 49
1.0
 74
     0
 49
-1.5
 74
     0
  0
LTYPE
  5
395
330
17
100
AcDbSymbolTableRecord
100
AcDbLinetypeTableRecord
  2
AM_DIN_G_W050x2
 70
     0
  3
__ . __ . __ . __ . __ . __
 72
    65
 73
     4
 40
6.875
 49
4.75
 74
     0
 49
-0.875
 74
     0
 49
0.375
 74
     0
 49
-0.875
 74
     0
  0
LTYPE
  5
396
330
17
100
AcDbSymbolTableRecord
100
AcDbLinetypeTableRecord
  2
AM_DIN_F_W050x2
 70
     0
  3
 _ _ _ _ _ _ _ _ _ _ _ _
 72
    65
 73
     2
 40
3.125
 49
2.25
 74
     0
 49
-0.875
 74
     0
  0
LTYPE
  5
3AB
330
17
100
AcDbSymbolTableRecord
100
AcDbLinetypeTableRecord
  2
ACDINWELD
 70
     0
  3
_ _ _ _ _
 72
    65
 73
     2
 40
2.0
 49
2.0
 74
     0
 49
-1.0
 74
     0
  0
LTYPE
  5
3AE
330
17
100
AcDbSymbolTableRecord
100
AcDbLinetypeTableRecord
  2
ACDINTGB
 70
     0
  3
__ . . __ . .
 72
    65
 73
     6
 40
9.0
 49
4.0
 74
     0
 49
-1.0
 74
     0
 49
1.0
 74
     0
 49
-1.0
 74
     0
 49
1.0
 74
     0
 49
-1.0
 74
     0
  0
LTYPE
  5
3AF
330
17
100
AcDbSymbolTableRecord
100
AcDbLinetypeTableRecord
  2
ACDINTGL
 70
     0
  3
_ _ _ _ _
 72
    65
 73
     2
 40
3.0
 49
2.0
 74
     0
 49
-1.0
 74
     0
  0
LTYPE
  5
3B3
330
17
100
AcDbSymbolTableRecord
100
AcDbLinetypeTableRecord
  2
CENTER
 70
     0
  3
__ . __
 72
    65
 73
     4
 40
7.0
 49
4.0
 74
     0
 49
-1.0
 74
     0
 49
1.0
 74
     0
 49
-1.0
 74
     0
  0
LTYPE
  5
3EC
330
17
100
AcDbSymbolTableRecord
100
AcDbLinetypeTableRecord
  2
HIDDEN
 70
     0
  3
Verdeckt
 72
    65
 73
     2
 40
9.525
 49
6.349999999999998
 74
     0
 49
-3.174999999999998
 74
     0
  0
LTYPE
  5
3ED
330
17
100
AcDbSymbolTableRecord
100
AcDbLinetypeTableRecord
  2
PHANTOM2
 70
     0
  3
Phantom (.5x) ___ _ _ ___ _ _ ___ _ _ ___ _ _
 72
    65
 73
     6
 40
31.75
 49
15.875
 74
     0
 49
-3.174999999999998
 74
     0
 49
3.174999999999998
 74
     0
 49
-3.174999999999998
 74
     0
 49
3.174999999999998
 74
     0
 49
-3.174999999999998
 74
     0
  0
LTYPE
  5
1021
330
17
100
AcDbSymbolTableRecord
100
AcDbLinetypeTableRecord
  2
ACISOWELD
 70
     0
  3
_ _ _ _ _
 72
    65
 73
     2
 40
2.0
 49
2.0
 74
     0
 49
-1.0
 74
     0
  0
LTYPE
  5
1024
330
17
100
AcDbSymbolTableRecord
100
AcDbLinetypeTableRecord
  2
ACISOTGB
 70
     0
  3
__ . . __ . .
 72
    65
 73
     6
 40
9.0
 49
4.0
 74
     0
 49
-1.0
 74
     0
 49
1.0
 74
     0
 49
-1.0
 74
     0
 49
1.0
 74
     0
 49
-1.0
 74
     0
  0
LTYPE
  5
1025
330
17
100
AcDbSymbolTableRecord
100
AcDbLinetypeTableRecord
  2
ACISOTGL
 70
     0
  3
_ _ _ _ _
 72
    65
 73
     2
 40
3.0
 49
2.0
 74
     0
 49
-1.0
 74
     0
  0
ENDTAB
  0
TABLE
  2
LAYER
  5
13
330
0
100
AcDbSymbolTable
 70
     8
  0
LAYER
  5
6
330
13
100
AcDbSymbolTableRecord
100
AcDbLayerTableRecord
  2
0
 70
     0
 62
     7
  6
Continuous
370
    -3
390
7
  0
LAYER
  5
2A
330
13
100
AcDbSymbolTableRecord
100
AcDbLayerTableRecord
  2
AM_0
 70
     0
 62
     7
  6
Continuous
370
    50
390
7
  0
LAYER
  5
AE
330
13
100
AcDbSymbolTableRecord
100
AcDbLayerTableRecord
  2
AM_5
 70
     0
 62
     3
  6
Continuous
370
    25
390
7
  0
LAYER
  5
B9
330
13
100
AcDbSymbolTableRecord
100
AcDbLayerTableRecord
  2
DEFPOINTS
 70
     0
 62
     7
  6
Continuous
290
     0
370
    -3
390
7
  0
LAYER
  5
D6
330
13
100
AcDbSymbolTableRecord
100
AcDbLayerTableRecord
  2
AM_7
 70
     0
 62
     4
  6
AM_DIN_G_W050
370
    -3
390
7
  0
LAYER
  5
A4
330
13
100
AcDbSymbolTableRecord
100
AcDbLayerTableRecord
  2
AM_4
 70
     0
 62
     3
  6
Continuous
370
    25
390
7
  0
LAYER
  5
14A
330
13
100
AcDbSymbolTableRecord
100
AcDbLayerTableRecord
  2
AM_6
 70
     0
 62
     2
  6
Continuous
370
    35
390
7
  0
ENDTAB
  0
TABLE
  2
STYLE
  5
14
330
0
100
AcDbSymbolTable
 70
     8
  0
STYLE
  5
15
330
14
100
AcDbSymbolTableRecord
100
AcDbTextStyleTableRecord
  2
STANDARD
 70
     0
 40
0.0
 41
1.0
 50
0.0
 71
     0
 42
50.0
  3
ISOCP.SHX
  4

  0
STYLE
  5
398
330
14
100
AcDbSymbolTableRecord
100
AcDbTextStyleTableRecord
  2

 70
     1
 40
0.0
 41
1.0
 50
0.0
 71
     0
 42
2.5
  3
ltypeshp.shx
  4

  0
STYLE
  5
3A5
330
14
100
AcDbSymbolTableRecord
100
AcDbTextStyleTableRecord
  2
ACDINTS
 70
     0
 40
1.0
 41
1.0
 50
0.0
 71
     0
 42
2.5
  3
isocp.shx
  4

  0
STYLE
  5
3A9
330
14
100
AcDbSymbolTableRecord
100
AcDbTextStyleTableRecord
  2
ACDINGDT
 70
     0
 40
0.0
 41
1.0
 50
0.0
 71
     0
 42
2.5
  3
amgdt.shx
  4

  0
STYLE
  5
101B
330
14
100
AcDbSymbolTableRecord
100
AcDbTextStyleTableRecord
  2
ACISOTS
 70
     0
 40
1.0
 41
1.0
 50
0.0
 71
     0
 42
2.5
  3
isocp.shx
  4

  0
STYLE
  5
101F
330
14
100
AcDbSymbolTableRecord
100
AcDbTextStyleTableRecord
  2
ACISOGDT
 70
     0
 40
0.0
 41
1.0
 50
0.0
 71
     0
 42
2.5
  3
amgdt.shx
  4

  0
ENDTAB
  0
TABLE
  2
VIEW
  5
1A
330
0
100
AcDbSymbolTable
 70
     1
  0
VIEW
  5
E
330
1A
100
AcDbSymbolTableRecord
100
AcDbViewTableRecord
  2
AM_VIEW6
 70
     0
 40
445.2348449999998
 10
-57.81839965789473
 20
2.893714738975816
 41
848.9782729999998
 11
0.0
 21
0.0
 31
1.0
 12
279.8052631578947
 22
217.1011557610242
 32
0.0
 42
50.0
 43
0.0
 44
0.0
 50
0.0
 71
     0
281
     0
 72
     0
  0
ENDTAB
  0
TABLE
  2
UCS
  5
1B
330
0
100
AcDbSymbolTable
 70
     0
  0
ENDTAB
  0
TABLE
  2
APPID
  5
1E
330
0
100
AcDbSymbolTable
 70
    72
  0
APPID
  5
1F
330
1E
100
AcDbSymbolTableRecord
100
AcDbRegAppTableRecord
  2
ACAD
 70
     0
  0
APPID
  5
37
330
1E
100
AcDbSymbolTableRecord
100
AcDbRegAppTableRecord
  2
GENIUS_GENODEF_13
 70
     0
  0
APPID
  5
38
330
1E
100
AcDbSymbolTableRecord
100
AcDbRegAppTableRecord
  2
GENIUS_GENOBJ-N-FIL_13
 70
     0
  0
APPID
  5
7C
330
1E
100
AcDbSymbolTableRecord
100
AcDbRegAppTableRecord
  2
GENIUS_GENREC_14
 70
     0
  0
APPID
  5
7D
330
1E
100
AcDbSymbolTableRecord
100
AcDbRegAppTableRecord
  2
GENIUS_GENOBJ-N-REC_13
 70
     0
  0
APPID
  5
D8
330
1E
100
AcDbSymbolTableRecord
100
AcDbRegAppTableRecord
  2
GENIUS_GENOBJ-N-CEN_13
 70
     0
  0
APPID
  5
3FF
330
1E
100
AcDbSymbolTableRecord
100
AcDbRegAppTableRecord
  2
MCAD_NO_VIS
 70
     0
  0
APPID
  5
400
330
1E
100
AcDbSymbolTableRecord
100
AcDbRegAppTableRecord
  2
ACAD_TEMP_GRAPHIC
 70
     0
  0
APPID
  5
409
330
1E
100
AcDbSymbolTableRecord
100
AcDbRegAppTableRecord
  2
AD_DRAW
 70
     0
  0
APPID
  5
40C
330
1E
100
AcDbSymbolTableRecord
100
AcDbRegAppTableRecord
  2
ACATTRIBSERVICES
 70
     0
  0
APPID
  5
424
330
1E
100
AcDbSymbolTableRecord
100
AcDbRegAppTableRecord
  2
DESIGNERASSEMBLIES
 70
     0
  0
APPID
  5
42B
330
1E
100
AcDbSymbolTableRecord
100
AcDbRegAppTableRecord
  2
ACADM_DIM_EDIT
 70
     0
  0
APPID
  5
42C
330
1E
100
AcDbSymbolTableRecord
100
AcDbRegAppTableRecord
  2
AMDT_DM_ADJ
 70
     0
  0
APPID
  5
4DB
330
1E
100
AcDbSymbolTableRecord
100
AcDbRegAppTableRecord
  2
GENIUS_GENDTOL_13
 70
     0
  0
APPID
  5
4DC
330
1E
100
AcDbSymbolTableRecord
100
AcDbRegAppTableRecord
  2
GENIUS_GENOBJ-N-HTC_13
 70
     0
  0
APPID
  5
4DD
330
1E
100
AcDbSymbolTableRecord
100
AcDbRegAppTableRecord
  2
GENIUS_GENHATCH_13
 70
     0
  0
APPID
  5
983
330
1E
100
AcDbSymbolTableRecord
100
AcDbRegAppTableRecord
  2
GENIUS_GENTRA_14
 70
     0
  0
APPID
  5
F7C
330
1E
100
AcDbSymbolTableRecord
100
AcDbRegAppTableRecord
  2
GENIUS_GENDIM_13
 70
     0
  0
APPID
  5
F7D
330
1E
100
AcDbSymbolTableRecord
100
AcDbRegAppTableRecord
  2
GENIUS_GE3DTOL_13
 70
     0
  0
APPID
  5
F7E
330
1E
100
AcDbSymbolTableRecord
100
AcDbRegAppTableRecord
  2
ASURF_PCURVE_APPNAME
 70
     0
  0
APPID
  5
F7F
330
1E
100
AcDbSymbolTableRecord
100
AcDbRegAppTableRecord
  2
AMG_3D2D_5.0
 70
     0
  0
APPID
  5
F80
330
1E
100
AcDbSymbolTableRecord
100
AcDbRegAppTableRecord
  2
GENIUS_GENCFG_13
 70
     0
  0
APPID
  5
F81
330
1E
100
AcDbSymbolTableRecord
100
AcDbRegAppTableRecord
  2
GENIUS_GEVCFG0_13
 70
     0
  0
APPID
  5
F82
330
1E
100
AcDbSymbolTableRecord
100
AcDbRegAppTableRecord
  2
GENIUS_GENCFG0_13
 70
     0
  0
APPID
  5
F83
330
1E
100
AcDbSymbolTableRecord
100
AcDbRegAppTableRecord
  2
GENIUS_GENCFG1_13
 70
     0
  0
APPID
  5
F84
330
1E
100
AcDbSymbolTableRecord
100
AcDbRegAppTableRecord
  2
GENIUS_GENCFG2_13
 70
     0
  0
APPID
  5
F85
330
1E
100
AcDbSymbolTableRecord
100
AcDbRegAppTableRecord
  2
GENIUS_GENCFG3_13
 70
     0
  0
APPID
  5
F86
330
1E
100
AcDbSymbolTableRecord
100
AcDbRegAppTableRecord
  2
GENIUS_GENCFG4_13
 70
     0
  0
APPID
  5
F87
330
1E
100
AcDbSymbolTableRecord
100
AcDbRegAppTableRecord
  2
GENIUS_GEFCFG0_13
 70
     0
  0
APPID
  5
F88
330
1E
100
AcDbSymbolTableRecord
100
AcDbRegAppTableRecord
  2
GENIUS_GENBLKED_14
 70
     0
  0
APPID
  5
F89
330
1E
100
AcDbSymbolTableRecord
100
AcDbRegAppTableRecord
  2
GENIUS_GENBLLY_14
 70
     0
  0
APPID
  5
F8A
330
1E
100
AcDbSymbolTableRecord
100
AcDbRegAppTableRecord
  2
GENIUS_GENOBJ-N-TIT_13
 70
     0
  0
APPID
  5
F8B
330
1E
100
AcDbSymbolTableRecord
100
AcDbRegAppTableRecord
  2
GENIUS_GENTITLE_13
 70
     0
  0
APPID
  5
F8C
330
1E
100
AcDbSymbolTableRecord
100
AcDbRegAppTableRecord
  2
GENIUS_GENOENT_13
 70
     0
  0
APPID
  5
F8D
330
1E
100
AcDbSymbolTableRecord
100
AcDbRegAppTableRecord
  2
GENIUS_GENOREF_13
 70
     0
  0
APPID
  5
F8E
330
1E
100
AcDbSymbolTableRecord
100
AcDbRegAppTableRecord
  2
GENIUS_GENOLIS_13
 70
     0
  0
APPID
  5
F8F
330
1E
100
AcDbSymbolTableRecord
100
AcDbRegAppTableRecord
  2
GENIUS_GENZVEED_13
 70
     0
  0
APPID
  5
F90
330
1E
100
AcDbSymbolTableRecord
100
AcDbRegAppTableRecord
  2
GENIUS_GENOBJ-N-SDF_13
 70
     0
  0
APPID
  5
F91
330
1E
100
AcDbSymbolTableRecord
100
AcDbRegAppTableRecord
  2
GENIUS_GENSCREG_13
 70
     0
  0
APPID
  5
F92
330
1E
100
AcDbSymbolTableRecord
100
AcDbRegAppTableRecord
  2
GENIUS_GENSCREG_15
 70
     0
  0
APPID
  5
F93
330
1E
100
AcDbSymbolTableRecord
100
AcDbRegAppTableRecord
  2
DCO15
 70
     0
  0
APPID
  5
F94
330
1E
100
AcDbSymbolTableRecord
100
AcDbRegAppTableRecord
  2
GENIUS_GENBH_13
 70
     0
  0
APPID
  5
F95
330
1E
100
AcDbSymbolTableRecord
100
AcDbRegAppTableRecord
  2
GENIUS_GENOBJ-NBEHI-BHB_13
 70
     0
  0
APPID
  5
F96
330
1E
100
AcDbSymbolTableRecord
100
AcDbRegAppTableRecord
  2
GENIUS_GENHINW_13
 70
     0
  0
APPID
  5
F97
330
1E
100
AcDbSymbolTableRecord
100
AcDbRegAppTableRecord
  2
GENIUS_FIRSTVISTXT_14
 70
     0
  0
APPID
  5
F98
330
1E
100
AcDbSymbolTableRecord
100
AcDbRegAppTableRecord
  2
GENIUS_GENOBJ-N-LEADER_13
 70
     0
  0
APPID
  5
F99
330
1E
100
AcDbSymbolTableRecord
100
AcDbRegAppTableRecord
  2
GENIUS_SECONDVISTXT_14
 70
     0
  0
APPID
  5
F9A
330
1E
100
AcDbSymbolTableRecord
100
AcDbRegAppTableRecord
  2
GENIUS_GENOBJ-N-HINW_13
 70
     0
  0
APPID
  5
F9B
330
1E
100
AcDbSymbolTableRecord
100
AcDbRegAppTableRecord
  2
GENIUS_GEFWELD_13
 70
     0
  0
APPID
  5
F9C
330
1E
100
AcDbSymbolTableRecord
100
AcDbRegAppTableRecord
  2
GENIUS_GENOBJ-F-WEL_13
 70
     0
  0
APPID
  5
F9D
330
1E
100
AcDbSymbolTableRecord
100
AcDbRegAppTableRecord
  2
GENIUS_GENOBJ-NBEHI-BHF_13
 70
     0
  0
APPID
  5
F9E
330
1E
100
AcDbSymbolTableRecord
100
AcDbRegAppTableRecord
  2
GENIUS_GENOBJ-F-SCPASSM_13
 70
     0
  0
APPID
  5
F9F
330
1E
100
AcDbSymbolTableRecord
100
AcDbRegAppTableRecord
  2
GENIUS_GENIUS_GENBHEDTMP_13
 70
     0
  0
APPID
  5
FA0
330
1E
100
AcDbSymbolTableRecord
100
AcDbRegAppTableRecord
  2
GEVID1032351709
 70
     0
  0
APPID
  5
FA1
330
1E
100
AcDbSymbolTableRecord
100
AcDbRegAppTableRecord
  2
GEVDC
 70
     0
  0
APPID
  5
FA2
330
1E
100
AcDbSymbolTableRecord
100
AcDbRegAppTableRecord
  2
GENIUS_GENDIMSH_14
 70
     0
  0
APPID
  5
FA3
330
1E
100
AcDbSymbolTableRecord
100
AcDbRegAppTableRecord
  2
GEVID980252217
 70
     0
  0
APPID
  5
FA4
330
1E
100
AcDbSymbolTableRecord
100
AcDbRegAppTableRecord
  2
GEVPT
 70
     0
  0
APPID
  5
FA5
330
1E
100
AcDbSymbolTableRecord
100
AcDbRegAppTableRecord
  2
GEVIT
 70
     0
  0
APPID
  5
FA6
330
1E
100
AcDbSymbolTableRecord
100
AcDbRegAppTableRecord
  2
VCC
 70
     0
  0
APPID
  5
FA7
330
1E
100
AcDbSymbolTableRecord
100
AcDbRegAppTableRecord
  2
GENIUS_GENOBJ-F-PART_13
 70
     0
  0
APPID
  5
FA8
330
1E
100
AcDbSymbolTableRecord
100
AcDbRegAppTableRecord
  2
GENIUS_GEFSTDP_13
 70
     0
  0
APPID
  5
FA9
330
1E
100
AcDbSymbolTableRecord
100
AcDbRegAppTableRecord
  2
GENIUS_GEFPARTINS_13
 70
     0
  0
APPID
  5
FAA
330
1E
100
AcDbSymbolTableRecord
100
AcDbRegAppTableRecord
  2
GEVID980252219
 70
     0
  0
APPID
  5
FAB
330
1E
100
AcDbSymbolTableRecord
100
AcDbRegAppTableRecord
  2
GENBH
 70
     0
  0
APPID
  5
FAC
330
1E
100
AcDbSymbolTableRecord
100
AcDbRegAppTableRecord
  2
GENIUS_GENOBJ-F-WELS_13
 70
     0
  0
APPID
  5
FAD
330
1E
100
AcDbSymbolTableRecord
100
AcDbRegAppTableRecord
  2
GENIUS_GENOBJ-N-CRS_13
 70
     0
  0
APPID
  5
FAE
330
1E
100
AcDbSymbolTableRecord
100
AcDbRegAppTableRecord
  2
GEVID1036052968
 70
     0
  0
APPID
  5
FAF
330
1E
100
AcDbSymbolTableRecord
100
AcDbRegAppTableRecord
  2
GEVID1036052969
 70
     0
  0
APPID
  5
FB0
330
1E
100
AcDbSymbolTableRecord
100
AcDbRegAppTableRecord
  2
GEVID1036052971
 70
     0
  0
APPID
  5
FB1
330
1E
100
AcDbSymbolTableRecord
100
AcDbRegAppTableRecord
  2
GENIUS_GENOBJ-N-DIM_13
 70
     0
  0
APPID
  5
105B
330
1E
100
AcDbSymbolTableRecord
100
AcDbRegAppTableRecord
  2
ACAD_EXEMPT_FROM_CAD_STANDARDS
 70
     0
  0
ENDTAB
  0
TABLE
  2
DIMSTYLE
  5
20
330
0
100
AcDbSymbolTable
 70
    18
100
AcDbDimStyleTable
 71
     1
340
21
  0
DIMSTYLE
105
21
102
{ACAD_REACTORS
330
D98
330
C18
330
C1A
330
C1B
102
}
330
20
100
AcDbSymbolTableRecord
100
AcDbDimStyleTableRecord
  2
AM_DIN
 70
     0
  4
"
 41
2.5
 42
0.0
 43
10.0
 44
1.0
 47
0.1
 48
0.1
 73
     0
 74
     0
 77
     1
 78
     8
 79
     2
140
3.0
141
0.0
143
0.0393701
146
0.71
147
0.7
172
     1
176
   256
177
   256
178
     2
271
     2
272
     2
283
     0
284
     8
340
15
371
    -1
372
    -1
  0
DIMSTYLE
105
3B9
330
20
100
AcDbSymbolTableRecord
100
AcDbDimStyleTableRecord
  2
AM_DIN$3
 70
     0
  4
"
 41
2.5
 42
1.0
 43
10.0
 44
1.0
 47
0.1
 48
0.1
 73
     0
 77
     1
 78
     8
 79
     2
140
3.5
141
0.0
143
0.0393701
146
0.71
147
1.5
176
   256
177
   256
178
     2
271
     2
272
     3
274
     4
283
     0
284
     8
288
     1
289
     0
340
15
371
    -1
372
    -1
  0
DIMSTYLE
105
3BA
330
20
100
AcDbSymbolTableRecord
100
AcDbDimStyleTableRecord
  2
AM_DIN$4
 70
     0
  4
"
 41
2.5
 42
1.0
 43
10.0
 44
1.0
 47
0.1
 48
0.1
 73
     0
 77
     1
 78
     8
 79
     2
140
3.5
141
0.0
143
0.0393701
146
0.71
147
1.5
176
   256
177
   256
178
     2
271
     2
272
     3
279
     1
283
     0
284
     8
288
     1
289
     0
340
15
371
    -1
372
    -1
  0
DIMSTYLE
105
3BB
330
20
100
AcDbSymbolTableRecord
100
AcDbDimStyleTableRecord
  2
AM_DIN$6
 70
     0
  4
"
 41
2.5
 42
1.0
 43
10.0
 44
1.0
 47
0.1
 48
0.1
 73
     0
 74
     0
 78
     8
 79
     2
140
3.5
141
0.0
143
0.0393701
146
0.71
147
1.5
172
     1
176
   256
177
   256
178
     2
271
     2
272
     3
283
     0
284
     8
340
15
371
    -1
372
    -1
  0
DIMSTYLE
105
3BC
330
20
100
AcDbSymbolTableRecord
100
AcDbDimStyleTableRecord
  2
AM_DIN$7
 70
     0
  4
"
 41
2.5
 42
1.0
 43
10.0
 44
1.0
 47
0.1
 48
0.1
 73
     0
 74
     0
 77
     1
 78
     8
 79
     2
140
5.0
141
0.0
143
0.0393701
146
0.71
147
1.5
172
     1
176
   256
177
   256
178
     2
271
     2
272
     3
274
     4
283
     0
284
     8
340
15
371
    -1
372
    -1
  0
DIMSTYLE
105
3BD
330
20
100
AcDbSymbolTableRecord
100
AcDbDimStyleTableRecord
  2
AM_DIN$SF
 70
     0
  4
"
 41
2.5
 42
1.0
 43
10.0
 44
1.0
 47
0.1
 48
0.1
 73
     0
 74
     0
 75
     1
 76
     1
 77
     1
 78
     8
 79
     2
140
3.5
141
0.0
143
0.0393701
146
0.71
147
1.5
172
     1
176
   256
177
   256
178
     2
271
     2
272
     3
274
     4
283
     0
284
     8
340
15
371
    -1
372
    -1
  0
DIMSTYLE
105
3BE
330
20
100
AcDbSymbolTableRecord
100
AcDbDimStyleTableRecord
  2
AM_DIN$SH
 70
     0
  4
"
 41
2.5
 42
1.0
 43
10.0
 44
1.0
 47
0.1
 48
0.1
 73
     0
 74
     0
 75
     1
 76
     1
 77
     1
 78
     8
 79
     2
140
3.5
141
0.0
143
0.0393701
144
2.0
146
0.71
147
1.5
172
     1
173
     1
176
   256
177
   256
178
     2
271
     2
272
     3
274
     4
283
     0
284
     8
340
15
343
3BF
371
    -1
372
    -1
  0
DIMSTYLE
105
102D
330
20
100
AcDbSymbolTableRecord
100
AcDbDimStyleTableRecord
  2
AM_ISO
 70
     0
  4
"
 41
2.5
 42
1.0
 43
10.0
 44
1.0
 47
0.1
 48
0.1
 73
     0
 74
     0
 77
     1
 78
     8
 79
     2
140
3.5
141
0.0
143
0.0393701
146
0.71
147
1.5
172
     1
176
   256
177
   256
178
     2
271
     2
272
     3
274
     4
283
     0
284
     8
340
15
371
    -1
372
    -1
  0
DIMSTYLE
105
102E
330
20
100
AcDbSymbolTableRecord
100
AcDbDimStyleTableRecord
  2
AM_ISO$3
 70
     0
  4
"
 41
2.5
 42
1.0
 43
10.0
 44
1.0
 47
0.1
 48
0.1
 73
     0
 77
     1
 78
     8
 79
     2
140
3.5
141
0.0
143
0.0393701
146
0.71
147
1.5
176
   256
177
   256
178
     2
271
     2
272
     3
274
     4
283
     0
284
     8
288
     1
289
     0
340
15
371
    -1
372
    -1
  0
DIMSTYLE
105
102F
330
20
100
AcDbSymbolTableRecord
100
AcDbDimStyleTableRecord
  2
AM_ISO$4
 70
     0
  4
"
 41
2.5
 42
1.0
 43
10.0
 44
1.0
 47
0.1
 48
0.1
 73
     0
 77
     1
 78
     8
 79
     2
140
3.5
141
0.0
143
0.0393701
146
0.71
147
1.5
176
   256
177
   256
178
     2
271
     2
272
     3
274
     4
283
     0
284
     8
288
     1
289
     0
340
15
371
    -1
372
    -1
  0
DIMSTYLE
105
1030
330
20
100
AcDbSymbolTableRecord
100
AcDbDimStyleTableRecord
  2
AM_ISO$6
 70
     0
  4
"
 41
2.5
 42
1.0
 43
10.0
 44
1.0
 47
0.1
 48
0.1
 73
     0
 74
     0
 78
     8
 79
     2
140
3.5
141
0.0
143
0.0393701
146
0.71
147
1.5
172
     1
176
   256
177
   256
178
     2
271
     2
272
     3
274
     4
283
     0
284
     8
340
15
371
    -1
372
    -1
  0
DIMSTYLE
105
1031
330
20
100
AcDbSymbolTableRecord
100
AcDbDimStyleTableRecord
  2
AM_ISO$7
 70
     0
  4
"
 41
2.5
 42
1.0
 43
10.0
 44
1.0
 47
0.1
 48
0.1
 73
     0
 74
     0
 77
     1
 78
     8
 79
     2
140
5.0
141
0.0
143
0.0393701
146
0.71
147
1.5
172
     1
176
   256
177
   256
178
     2
271
     2
272
     3
274
     4
283
     0
284
     8
340
15
371
    -1
372
    -1
  0
DIMSTYLE
105
1032
330
20
100
AcDbSymbolTableRecord
100
AcDbDimStyleTableRecord
  2
AM_ISO$SF
 70
     0
  4
"
 41
2.5
 42
1.0
 43
10.0
 44
1.0
 47
0.1
 48
0.1
 73
     0
 74
     0
 75
     1
 76
     1
 77
     1
 78
     8
 79
     2
140
3.5
141
0.0
143
0.0393701
146
0.71
147
1.5
172
     1
176
   256
177
   256
178
     2
271
     2
272
     3
274
     4
283
     0
284
     8
340
15
371
    -1
372
    -1
  0
DIMSTYLE
105
1033
330
20
100
AcDbSymbolTableRecord
100
AcDbDimStyleTableRecord
  2
AM_ISO$SH
 70
     0
  4
"
 41
2.5
 42
1.0
 43
10.0
 44
1.0
 47
0.1
 48
0.1
 73
     0
 74
     0
 75
     1
 76
     1
 77
     1
 78
     8
 79
     2
140
3.5
141
0.0
143
0.0393701
144
2.0
146
0.71
147
1.5
172
     1
173
     1
176
   256
177
   256
178
     2
271
     2
272
     3
274
     4
283
     0
284
     8
340
15
343
3BF
371
    -1
372
    -1
  0
ENDTAB
  0
TABLE
  2
BLOCK_RECORD
  5
1
330
0
100
AcDbSymbolTable
 70
    11
  0
BLOCK_RECORD
  5
2
102
{ACAD_XDICTIONARY
360
3
102
}
330
1
100
AcDbSymbolTableRecord
100
AcDbBlockTableRecord
  2
*Model_Space
340
C
  0
BLOCK_RECORD
  5
F
330
1
100
AcDbSymbolTableRecord
100
AcDbBlockTableRecord
  2
*Paper_Space
340
12
  0
BLOCK_RECORD
  5
3BF
330
1
100
AcDbSymbolTableRecord
100
AcDbBlockTableRecord
  2
GENAXEH
340
0
  0
BLOCK_RECORD
  5
E92
330
1
100
AcDbSymbolTableRecord
100
AcDbBlockTableRecord
  2
*D3
340
0
  0
BLOCK_RECORD
  5
EAB
330
1
100
AcDbSymbolTableRecord
100
AcDbBlockTableRecord
  2
*D4
340
0
  0
BLOCK_RECORD
  5
EC3
330
1
100
AcDbSymbolTableRecord
100
AcDbBlockTableRecord
  2
*D5
340
0
  0
BLOCK_RECORD
  5
ECF
330
1
100
AcDbSymbolTableRecord
100
AcDbBlockTableRecord
  2
*D6
340
0
  0
ENDTAB
  0
ENDSEC
  0
SECTION
  2
BLOCKS
  0
BLOCK
  5
5
330
2
100
AcDbEntity
  8
0
100
AcDbBlockBegin
  2
*Model_Space
 70
     0
 10
0.0
 20
0.0
 30
0.0
  3
*Model_Space
  1

  0
ENDBLK
  5
B
330
2
100
AcDbEntity
  8
0
100
AcDbBlockEnd
  0
BLOCK
  5
10
330
F
100
AcDbEntity
 67
     1
  8
0
100
AcDbBlockBegin
  2
*Paper_Space
 70
     0
 10
0.0
 20
0.0
 30
0.0
  3
*Paper_Space
  1

  0
ENDBLK
  5
11
330
F
100
AcDbEntity
 67
     1
  8
0
100
AcDbBlockEnd
  0
BLOCK
  5
100F
330
3BF
100
AcDbEntity
  8
0
100
AcDbBlockBegin
  2
GENAXEH
 70
     0
 10
0.0
 20
0.0
 30
0.0
  3
GENAXEH
  1

  0
LINE
  5
1010
330
3BF
100
AcDbEntity
  8
0
100
AcDbLine
 10
-1.0
 20
0.0
 30
0.0
 11
1.0
 21
0.0
 31
0.0
  0
ENDBLK
  5
1011
330
3BF
100
AcDbEntity
  8
0
100
AcDbBlockEnd
  0
BLOCK
  5
E9D
330
E92
100
AcDbEntity
  8
0
100
AcDbBlockBegin
  2
*D3
 70
     1
 10
0.0
 20
0.0
 30
0.0
  3
*D3
  1

  0
LINE
  5
F40
330
E92
100
AcDbEntity
  8
AM_5
100
AcDbLine
 10
165.195793727927
 20
502.3049967761807
 30
0.0
 11
165.195793727927
 21
475.729672767417
 31
0.0
  0
LINE
  5
F41
330
E92
100
AcDbEntity
  8
AM_5
100
AcDbLine
 10
191.6357937279266
 20
502.3049967761807
 30
0.0
 11
191.6357937279266
 21
475.729672767417
 31
0.0
  0
LINE
  5
F42
330
E92
100
AcDbEntity
  8
AM_5
100
AcDbLine
 10
167.695793727927
 20
476.729672767417
 30
0.0
 11
189.1357937279266
 21
476.729672767417
 31
0.0
  0
LINE
  5
F43
330
E92
100
AcDbEntity
  8
AM_5
100
AcDbLine
 10
191.6357937279266
 20
476.729672767417
 30
0.0
 11
224.2357937279266
 21
476.729672767417
 31
0.0
  0
SOLID
  5
F44
330
E92
100
AcDbEntity
  8
AM_5
100
AcDbTrace
 10
167.695793727927
 20
477.1463394340837
 30
0.0
 11
167.695793727927
 21
476.3130061007502
 31
0.0
 12
165.195793727927
 22
476.729672767417
 32
0.0
 13
165.195793727927
 23
476.729672767417
 33
0.0
  0
SOLID
  5
F45
330
E92
100
AcDbEntity
  8
AM_5
100
AcDbTrace
 10
189.1357937279266
 20
477.1463394340837
 30
0.0
 11
189.1357937279266
 21
476.3130061007502
 31
0.0
 12
191.6357937279266
 22
476.729672767417
 32
0.0
 13
191.6357937279266
 23
476.729672767417
 33
0.0
  0
MTEXT
  5
F46
330
E92
100
AcDbEntity
  8
AM_5
 62
     2
100
AcDbMText
 10
209.1857937279266
 20
479.1858912009551
 30
0.0
 40
3.5
 41
0.0
 71
     5
 72
     1
  1
ISO 228-G 3/4
 73
     1
 44
1.0
1001
ACAD
1000
MTEXTBEGIN
1070
    73
1070
     1
1070
    44
1040
1.0
1070
    74
1070
     0
1000
MTEXTEND
  0
POINT
  5
F47
330
E92
100
AcDbEntity
  8
DEFPOINTS
 62
     0
100
AcDbPoint
 10
165.195793727927
 20
502.3049967761807
 30
0.0
  0
POINT
  5
F48
330
E92
100
AcDbEntity
  8
DEFPOINTS
 62
     0
100
AcDbPoint
 10
191.6357937279266
 20
502.3049967761807
 30
0.0
  0
POINT
  5
F49
330
E92
100
AcDbEntity
  8
DEFPOINTS
 62
     0
100
AcDbPoint
 10
191.6357937279266
 20
476.729672767417
 30
0.0
  0
ENDBLK
  5
E9E
330
E92
100
AcDbEntity
  8
0
100
AcDbBlockEnd
  0
BLOCK
  5
EB5
330
EAB
100
AcDbEntity
  8
0
100
AcDbBlockBegin
  2
*D4
 70
     1
 10
0.0
 20
0.0
 30
0.0
  3
*D4
  1

  0
LINE
  5
F25
330
EAB
100
AcDbEntity
  8
AM_5
100
AcDbLine
 10
177.8873468327409
 20
799.4187257661987
 30
0.0
 11
2.7138820276787
 21
799.4187257661987
 31
0.0
  0
LINE
  5
F26
330
EAB
100
AcDbEntity
  8
AM_5
100
AcDbLine
 10
189.6357937279266
 20
489.0958984769598
 30
0.0
 11
2.71388202767863
 21
489.0958984769599
 31
0.0
  0
LINE
  5
F27
330
EAB
100
AcDbEntity
  8
AM_5
100
AcDbLine
 10
3.713882027678686
 20
796.9187257661985
 30
0.0
 11
3.713882027678618
 21
491.5958984769599
 31
0.0
  0
SOLID
  5
F28
330
EAB
100
AcDbEntity
  8
AM_5
100
AcDbTrace
 10
3.29721536101202
 20
796.9187257661985
 30
0.0
 11
4.130548694345352
 21
796.9187257661985
 31
0.0
 12
3.713882027678688
 22
799.4187257661987
 32
0.0
 13
3.713882027678688
 23
799.4187257661987
 33
0.0
  0
SOLID
  5
F29
330
EAB
100
AcDbEntity
  8
AM_5
100
AcDbTrace
 10
3.297215361011953
 20
491.5958984769599
 30
0.0
 11
4.130548694345286
 21
491.5958984769599
 31
0.0
 12
3.713882027678618
 22
489.0958984769599
 32
0.0
 13
3.713882027678618
 23
489.0958984769599
 33
0.0
  0
MTEXT
  5
F2A
330
EAB
100
AcDbEntity
  8
AM_5
 62
     2
100
AcDbMText
 10
1.26388202767855
 20
656.3791533583271
 30
0.0
 40
3.5
 41
0.0
 71
     5
 72
     1
  1
310 {}{\C2;%%p5}
 11
0.0000000000000001
 21
1.0
 31
0.0
 73
     1
 44
1.0
1001
ACAD
1000
MTEXTBEGIN
1070
    73
1070
     1
1070
    44
1040
1.0
1070
    74
1070
     0
1000
MTEXTEND
  0
POINT
  5
F2B
330
EAB
100
AcDbEntity
  8
DEFPOINTS
 62
     0
100
AcDbPoint
 10
177.8873468327409
 20
799.4187257661987
 30
0.0
  0
POINT
  5
F2C
330
EAB
100
AcDbEntity
  8
DEFPOINTS
 62
     0
100
AcDbPoint
 10
189.6357937279266
 20
489.0958984769598
 30
0.0
  0
POINT
  5
F2D
330
EAB
100
AcDbEntity
  8
DEFPOINTS
 62
     0
100
AcDbPoint
 10
3.713882027678618
 20
489.0958984769599
 30
0.0
  0
ENDBLK
  5
EB6
330
EAB
100
AcDbEntity
  8
0
100
AcDbBlockEnd
  0
BLOCK
  5
ECD
330
EC3
100
AcDbEntity
  8
0
100
AcDbBlockBegin
  2
*D5
 70
     1
 10
0.0
 20
0.0
 30
0.0
  3
*D5
  1

  0
LINE
  5
F2E
330
EC3
100
AcDbEntity
  8
AM_5
100
AcDbLine
 10
135.8805401062667
 20
513.7461056204183
 30
0.0
 11
20.23644288038651
 21
513.7461056204183
 31
0.0
  0
LINE
  5
F2F
330
EC3
100
AcDbEntity
  8
AM_5
100
AcDbLine
 10
171.4514040275056
 20
772.6012605899797
 30
0.0
 11
20.23644288038656
 21
772.6012605899797
 31
0.0
  0
LINE
  5
F30
330
EC3
100
AcDbEntity
  8
AM_5
100
AcDbLine
 10
21.23644288038651
 20
516.2461056204183
 30
0.0
 11
21.23644288038656
 21
770.1012605899798
 31
0.0
  0
SOLID
  5
F31
330
EC3
100
AcDbEntity
  8
AM_5
100
AcDbTrace
 10
20.81977621371984
 20
516.2461056204183
 30
0.0
 11
21.65310954705317
 21
516.2461056204183
 31
0.0
 12
21.23644288038651
 22
513.7461056204183
 32
0.0
 13
21.23644288038651
 23
513.7461056204183
 33
0.0
  0
SOLID
  5
F32
330
EC3
100
AcDbEntity
  8
AM_5
100
AcDbTrace
 10
20.8197762137199
 20
770.1012605899798
 30
0.0
 11
21.65310954705323
 21
770.1012605899798
 31
0.0
 12
21.23644288038656
 22
772.6012605899797
 32
0.0
 13
21.23644288038656
 23
772.6012605899797
 33
0.0
  0
MTEXT
  5
F33
330
EC3
100
AcDbEntity
  8
AM_5
 62
     2
100
AcDbMText
 10
18.78609839219745
 20
643.1736831051993
 30
0.0
 40
3.5
 41
0.0
 71
     5
 72
     1
  1
259 {}{\C2;%%p3}
 11
0.0000000000000001
 21
1.0
 31
0.0
 73
     1
 44
1.0
1001
ACAD
1000
MTEXTBEGIN
1070
    73
1070
     1
1070
    44
1040
1.0
1070
    74
1070
     0
1000
MTEXTEND
  0
POINT
  5
F34
330
EC3
100
AcDbEntity
  8
DEFPOINTS
 62
     0
100
AcDbPoint
 10
135.8805401062667
 20
513.7461056204183
 30
0.0
  0
POINT
  5
F35
330
EC3
100
AcDbEntity
  8
DEFPOINTS
 62
     0
100
AcDbPoint
 10
171.4514040275056
 20
772.6012605899797
 30
0.0
  0
POINT
  5
F36
330
EC3
100
AcDbEntity
  8
DEFPOINTS
 62
     0
100
AcDbPoint
 10
21.23644288038656
 20
772.6012605899797
 30
0.0
  0
ENDBLK
  5
ECE
330
EC3
100
AcDbEntity
  8
0
100
AcDbBlockEnd
  0
BLOCK
  5
ED9
330
ECF
100
AcDbEntity
  8
0
100
AcDbBlockBegin
  2
*D6
 70
     1
 10
0.0
 20
0.0
 30
0.0
  3
*D6
  1

  0
LINE
  5
F37
330
ECF
100
AcDbEntity
  8
AM_5
100
AcDbLine
 10
38.41579372792637
 20
719.3539528502762
 30
0.0
 11
38.41579372792637
 21
713.7424712618082
 31
0.0
  0
LINE
  5
F38
330
ECF
100
AcDbEntity
  8
AM_5
100
AcDbLine
 10
318.4157937279264
 20
717.796590599214
 30
0.0
 11
318.4157937279264
 21
713.7424712618082
 31
0.0
  0
LINE
  5
F39
330
ECF
100
AcDbEntity
  8
AM_5
100
AcDbLine
 10
40.91579372792637
 20
714.7424712618082
 30
0.0
 11
315.9157937279264
 21
714.7424712618082
 31
0.0
  0
SOLID
  5
F3A
330
ECF
100
AcDbEntity
  8
AM_5
100
AcDbTrace
 10
40.91579372792637
 20
715.159137928475
 30
0.0
 11
40.91579372792637
 21
714.3258045951418
 31
0.0
 12
38.41579372792637
 22
714.7424712618082
 32
0.0
 13
38.41579372792637
 23
714.7424712618082
 33
0.0
  0
SOLID
  5
F3B
330
ECF
100
AcDbEntity
  8
AM_5
100
AcDbTrace
 10
315.9157937279264
 20
715.159137928475
 30
0.0
 11
315.9157937279264
 21
714.3258045951418
 31
0.0
 12
318.4157937279264
 22
714.7424712618082
 32
0.0
 13
318.4157937279264
 23
714.7424712618082
 33
0.0
  0
MTEXT
  5
F3C
330
ECF
100
AcDbEntity
  8
AM_5
 62
     2
100
AcDbMText
 10
134.3624680845627
 20
717.1928157499974
 30
0.0
 40
3.5
 41
0.0
 71
     5
 72
     1
  1
%%c280
 73
     1
 44
1.0
1001
ACAD
1000
MTEXTBEGIN
1070
    73
1070
     1
1070
    44
1040
1.0
1070
    74
1070
     0
1000
MTEXTEND
  0
POINT
  5
F3D
330
ECF
100
AcDbEntity
  8
DEFPOINTS
 62
     0
100
AcDbPoint
 10
38.41579372792637
 20
719.3539528502762
 30
0.0
  0
POINT
  5
F3E
330
ECF
100
AcDbEntity
  8
DEFPOINTS
 62
     0
100
AcDbPoint
 10
318.4157937279264
 20
717.796590599214
 30
0.0
  0
POINT
  5
F3F
330
ECF
100
AcDbEntity
  8
DEFPOINTS
 62
     0
100
AcDbPoint
 10
318.4157937279264
 20
714.7424712618082
 30
0.0
  0
ENDBLK
  5
EDA
330
ECF
100
AcDbEntity
  8
0
100
AcDbBlockEnd
  0
ENDSEC
  0
SECTION
  2
ENTITIES
  0
LINE
  5
DA
330
2
100
AcDbEntity
  8
AM_7
100
AcDbLine
 10
412.7854926660942
 20
693.6943670313906
 30
0.0
 11
412.7854926660942
 21
596.1943670313906
 31
0.0
  0
LINE
  5
DB
330
2
100
AcDbEntity
  8
AM_7
100
AcDbLine
 10
461.5354926660942
 20
644.9443670313906
 30
0.0
 11
364.0354926660943
 21
644.9443670313906
 31
0.0
  0
TEXT
  5
DC
330
2
100
AcDbEntity
  8
AM_0
100
AcDbText
 10
433.3931316748152
 20
692.1897663780807
 30
0.0
 40
6.0
  1
Ansicht Y
100
AcDbText
  0
ARC
  5
DD
330
2
100
AcDbEntity
  8
AM_0
100
AcDbCircle
 10
421.8482354988569
 20
651.1786827394067
 30
0.0
 40
0.5
100
AcDbArc
 50
134.9999999999816
 51
214.5243183036213
1001
GENIUS_GENODEF_13
1002
{
1000
HIER
1070
     0
1002
}
1002
{
1000
MANEDIT
1070
     0
1002
}
1002
{
1000
NOSEL
1070
     0
1002
}
1002
{
1000
BEHIND
1070
     0
1002
}
1002
{
1000
REACTOR
1002
}
1001
GENIUS_GENOBJ-N-FIL_13
1002
{
1000
OWNER
1000
GEN
1002
}
  0
ARC
  5
DE
330
2
100
AcDbEntity
  8
AM_0
100
AcDbCircle
 10
421.5225434072348
 20
652.2672042101581
 30
0.0
 40
0.5
100
AcDbArc
 50
314.9999999999816
 51
39.96758650449111
1001
GENIUS_GENODEF_13
1002
{
1000
HIER
1070
     0
1002
}
1002
{
1000
MANEDIT
1070
     0
1002
}
1002
{
1000
NOSEL
1070
     0
1002
}
1002
{
1000
BEHIND
1070
     0
1002
}
1002
{
1000
REACTOR
1002
}
1001
GENIUS_GENOBJ-N-FIL_13
1002
{
1000
OWNER
1000
GEN
1002
}
  0
LINE
  5
DF
330
2
100
AcDbEntity
  8
AM_0
100
AcDbLine
 10
421.1946220662244
 20
651.2321760879606
 30
0.0
 11
421.8760967978282
 21
651.9136508195648
 31
0.0
  0
ARC
  5
E0
330
2
100
AcDbEntity
  8
AM_0
100
AcDbCircle
 10
412.7854926660942
 20
644.9443670313906
 30
0.0
 40
9.9
100
AcDbArc
 50
37.23178237611068
 51
51.73972325596603
  0
ARC
  5
E1
330
2
100
AcDbEntity
  8
AM_0
100
AcDbCircle
 10
412.7854926660942
 20
644.9443670313906
 30
0.0
 40
10.05
100
AcDbArc
 50
37.34842550162968
 51
51.63867430242146
  0
LINE
  5
E2
330
2
100
AcDbEntity
  8
AM_0
100
AcDbLine
 10
419.6722217058946
 20
653.4742097584613
 30
0.0
 11
421.4399886588611
 21
651.7064428054952
 31
0.0
  0
ARC
  5
E3
330
2
100
AcDbEntity
  8
AM_0
100
AcDbCircle
 10
412.7854926660942
 20
644.9443670313906
 30
0.0
 40
10.05
100
AcDbArc
 50
82.89860346108119
 51
97.18829522215731
  0
ARC
  5
E4
330
2
100
AcDbEntity
  8
AM_0
100
AcDbCircle
 10
412.7854926660942
 20
644.9443670313906
 30
0.0
 40
9.9
100
AcDbArc
 50
82.79043939252966
 51
97.29779710635805
  0
LINE
  5
E5
330
2
100
AcDbEntity
  8
AM_0
100
AcDbLine
 10
411.5279305893258
 20
655.8121516889261
 30
0.0
 11
414.0279305893258
 21
655.8121516889261
 31
0.0
  0
LINE
  5
E6
330
2
100
AcDbEntity
  8
AM_0
100
AcDbLine
 10
403.6948885343603
 20
651.9136508195648
 30
0.0
 11
404.3763632659651
 21
651.2321760879606
 31
0.0
  0
ARC
  5
E7
330
2
100
AcDbEntity
  8
AM_0
100
AcDbCircle
 10
403.7227498333318
 20
651.1786827394067
 30
0.0
 40
0.5
100
AcDbArc
 50
325.4756816963787
 51
45.00000000001842
1001
GENIUS_GENODEF_13
1002
{
1000
HIER
1070
     0
1002
}
1002
{
1000
MANEDIT
1070
     0
1002
}
1002
{
1000
NOSEL
1070
     0
1002
}
1002
{
1000
BEHIND
1070
     0
1002
}
1002
{
1000
REACTOR
1002
}
1001
GENIUS_GENOBJ-N-FIL_13
1002
{
1000
OWNER
1000
GEN
1002
}
  0
ARC
  5
E8
330
2
100
AcDbEntity
  8
AM_0
100
AcDbCircle
 10
404.0484419249546
 20
652.2672042101581
 30
0.0
 40
0.5
100
AcDbArc
 50
140.0324134955089
 51
225.0000000000184
1001
GENIUS_GENODEF_13
1002
{
1000
HIER
1070
     0
1002
}
1002
{
1000
MANEDIT
1070
     0
1002
}
1002
{
1000
NOSEL
1070
     0
1002
}
1002
{
1000
BEHIND
1070
     0
1002
}
1002
{
1000
REACTOR
1002
}
1001
GENIUS_GENOBJ-N-FIL_13
1002
{
1000
OWNER
1000
GEN
1002
}
  0
ARC
  5
E9
330
2
100
AcDbEntity
  8
AM_0
100
AcDbCircle
 10
412.7854926660942
 20
644.9443670313906
 30
0.0
 40
9.9
100
AcDbArc
 50
128.3225967221485
 51
142.83068882227
  0
ARC
  5
EA
330
2
100
AcDbEntity
  8
AM_0
100
AcDbCircle
 10
412.7854926660942
 20
644.9443670313906
 30
0.0
 40
10.05
100
AcDbArc
 50
128.4227029481157
 51
142.7130961940401
  0
LINE
  5
EB
330
2
100
AcDbEntity
  8
AM_0
100
AcDbLine
 10
404.1158725197906
 20
651.7064428054952
 30
0.0
 11
405.8836394727571
 21
653.4742097584613
 31
0.0
  0
ARC
  5
EC
330
2
100
AcDbEntity
  8
AM_0
100
AcDbCircle
 10
412.7854926660942
 20
644.9443670313906
 30
0.0
 40
11.89999999999999
100
AcDbArc
 50
39.96758650449111
 51
140.0324134955089
  0
ARC
  5
ED
330
2
100
AcDbEntity
  8
AM_0
100
AcDbCircle
 10
412.7854926660942
 20
644.9443670313906
 30
0.0
 40
10.05
100
AcDbArc
 50
352.094833338462
 51
6.385783707882474
  0
ARC
  5
EE
330
2
100
AcDbEntity
  8
AM_0
100
AcDbCircle
 10
412.7854926660942
 20
644.9443670313906
 30
0.0
 40
9.9
100
AcDbArc
 50
351.974274537491
 51
6.482949894126956
  0
LINE
  5
EF
330
2
100
AcDbEntity
  8
AM_0
100
AcDbLine
 10
423.7779305893258
 20
646.0621516889261
 30
0.0
 11
423.7779305893258
 21
643.5621516889263
 31
0.0
  0
ARC
  5
F0
330
2
100
AcDbEntity
  8
AM_0
100
AcDbCircle
 10
412.7854926660942
 20
644.9443670313906
 30
0.0
 40
11.89999999999999
100
AcDbArc
 50
354.9675865044938
 51
5.032413495506061
  0
ARC
  5
F1
330
2
100
AcDbEntity
  8
AM_0
100
AcDbCircle
 10
424.1415483193573
 20
643.9443670313906
 30
0.0
 40
0.5
100
AcDbArc
 50
270.0
 51
354.9675865044938
1001
GENIUS_GENODEF_13
1002
{
1000
HIER
1070
     0
1002
}
1002
{
1000
MANEDIT
1070
     0
1002
}
1002
{
1000
NOSEL
1070
     0
1002
}
1002
{
1000
BEHIND
1070
     0
1002
}
1002
{
1000
REACTOR
1002
}
1001
GENIUS_GENOBJ-N-FIL_13
1002
{
1000
OWNER
1000
GEN
1002
}
  0
LINE
  5
F2
330
2
100
AcDbEntity
  8
AM_0
100
AcDbLine
 10
423.1777975115077
 20
643.444367031391
 30
0.0
 11
424.1415483193573
 21
643.4443670313905
 31
0.0
  0
ARC
  5
F3
330
2
100
AcDbEntity
  8
AM_0
100
AcDbCircle
 10
423.6021464924864
 20
642.9443670313905
 30
0.0
 40
0.5
100
AcDbArc
 50
90.0
 51
169.5243183036205
1001
GENIUS_GENODEF_13
1002
{
1000
HIER
1070
     0
1002
}
1002
{
1000
MANEDIT
1070
     0
1002
}
1002
{
1000
NOSEL
1070
     0
1002
}
1002
{
1000
BEHIND
1070
     0
1002
}
1002
{
1000
REACTOR
1002
}
1001
GENIUS_GENOBJ-N-FIL_13
1002
{
1000
OWNER
1000
GEN
1002
}
  0
ARC
  5
F4
330
2
100
AcDbEntity
  8
AM_0
100
AcDbCircle
 10
424.1415483193573
 20
645.9443670313905
 30
0.0
 40
0.5
100
AcDbArc
 50
5.032413495506061
 51
90.0
1001
GENIUS_GENODEF_13
1002
{
1000
HIER
1070
     0
1002
}
1002
{
1000
MANEDIT
1070
     0
1002
}
1002
{
1000
NOSEL
1070
     0
1002
}
1002
{
1000
BEHIND
1070
     0
1002
}
1002
{
1000
REACTOR
1002
}
1001
GENIUS_GENOBJ-N-FIL_13
1002
{
1000
OWNER
1000
GEN
1002
}
  0
LINE
  5
F5
330
2
100
AcDbEntity
  8
AM_0
100
AcDbLine
 10
423.1777975115077
 20
646.444367031391
 30
0.0
 11
424.1415483193573
 21
646.4443670313905
 31
0.0
  0
ARC
  5
F6
330
2
100
AcDbEntity
  8
AM_0
100
AcDbCircle
 10
423.6021464924864
 20
646.9443670313905
 30
0.0
 40
0.5
100
AcDbArc
 50
190.4756816963794
 51
270.0
1001
GENIUS_GENODEF_13
1002
{
1000
HIER
1070
     0
1002
}
1002
{
1000
MANEDIT
1070
     0
1002
}
1002
{
1000
NOSEL
1070
     0
1002
}
1002
{
1000
BEHIND
1070
     0
1002
}
1002
{
1000
REACTOR
1002
}
1001
GENIUS_GENOBJ-N-FIL_13
1002
{
1000
OWNER
1000
GEN
1002
}
  0
LINE
  5
F7
330
2
100
AcDbEntity
  8
AM_0
100
AcDbLine
 10
415.7956975422925
 20
643.5621516889263
 30
0.0
 11
423.7487029964245
 21
643.5621516889263
 31
0.0
  0
LINE
  5
F8
330
2
100
AcDbEntity
  8
AM_0
100
AcDbLine
 10
415.7956975422925
 20
646.0621516889261
 30
0.0
 11
423.7788114306616
 21
646.0621516889261
 31
0.0
  0
ARC
  5
F9
330
2
100
AcDbEntity
  8
AM_0
100
AcDbCircle
 10
421.8482354988569
 20
638.7100513233748
 30
0.0
 40
0.5
100
AcDbArc
 50
145.4756816963787
 51
225.0000000000184
1001
GENIUS_GENODEF_13
1002
{
1000
HIER
1070
     0
1002
}
1002
{
1000
MANEDIT
1070
     0
1002
}
1002
{
1000
NOSEL
1070
     0
1002
}
1002
{
1000
BEHIND
1070
     0
1002
}
1002
{
1000
REACTOR
1002
}
1001
GENIUS_GENOBJ-N-FIL_13
1002
{
1000
OWNER
1000
GEN
1002
}
  0
ARC
  5
FA
330
2
100
AcDbEntity
  8
AM_0
100
AcDbCircle
 10
421.5225434072348
 20
637.6215298526232
 30
0.0
 40
0.5
100
AcDbArc
 50
320.0324134955089
 51
45.00000000001842
1001
GENIUS_GENODEF_13
1002
{
1000
HIER
1070
     0
1002
}
1002
{
1000
MANEDIT
1070
     0
1002
}
1002
{
1000
NOSEL
1070
     0
1002
}
1002
{
1000
BEHIND
1070
     0
1002
}
1002
{
1000
REACTOR
1002
}
1001
GENIUS_GENOBJ-N-FIL_13
1002
{
1000
OWNER
1000
GEN
1002
}
  0
LINE
  5
FB
330
2
100
AcDbEntity
  8
AM_0
100
AcDbLine
 10
421.1946220662244
 20
638.656557974821
 30
0.0
 11
421.8760967978282
 21
637.9750832432166
 31
0.0
  0
ARC
  5
FC
330
2
100
AcDbEntity
  8
AM_0
100
AcDbCircle
 10
412.7854926660942
 20
644.9443670313906
 30
0.0
 40
9.9
100
AcDbArc
 50
307.1693111777298
 51
321.6774032778515
  0
ARC
  5
FD
330
2
100
AcDbEntity
  8
AM_0
100
AcDbCircle
 10
412.7854926660942
 20
644.9443670313906
 30
0.0
 40
10.05
100
AcDbArc
 50
307.2869038059599
 51
321.5772970518843
  0
LINE
  5
FE
330
2
100
AcDbEntity
  8
AM_0
100
AcDbLine
 10
421.4399886588611
 20
637.9178605723573
 30
0.0
 11
419.6722217058946
 21
636.1500936193907
 31
0.0
  0
LINE
  5
FF
330
2
100
AcDbEntity
  8
AM_0
100
AcDbLine
 10
415.7956975422925
 20
643.5621516889263
 30
0.0
 11
421.3705016859089
 21
637.9873475453097
 31
0.0
  0
ARC
  5
100
330
2
100
AcDbEntity
  8
AM_0
100
AcDbCircle
 10
412.7854926660942
 20
644.9443670313906
 30
0.0
 40
10.5
100
AcDbArc
 50
323.2132107017195
 51
351.7867892982498
  0
LINE
  5
101
330
2
100
AcDbEntity
  8
AM_0
100
AcDbLine
 10
414.0279305893258
 20
641.7943847359598
 30
0.0
 11
414.0279305893258
 21
633.9644377052557
 31
0.0
  0
LINE
  5
102
330
2
100
AcDbEntity
  8
AM_0
100
AcDbLine
 10
411.5279305893258
 20
641.7943847359598
 30
0.0
 11
411.5279305893258
 21
633.9661596356875
 31
0.0
  0
ARC
  5
103
330
2
100
AcDbEntity
  8
AM_0
100
AcDbCircle
 10
412.7854926660942
 20
644.9443670313906
 30
0.0
 40
10.05
100
AcDbArc
 50
262.8117047778427
 51
277.1013965389188
  0
ARC
  5
104
330
2
100
AcDbEntity
  8
AM_0
100
AcDbCircle
 10
412.7854926660942
 20
644.9443670313906
 30
0.0
 40
9.9
100
AcDbArc
 50
262.702202893642
 51
277.2095606074703
  0
LINE
  5
105
330
2
100
AcDbEntity
  8
AM_0
100
AcDbLine
 10
414.0279305893258
 20
633.8121516889263
 30
0.0
 11
411.5279305893258
 21
633.8121516889263
 31
0.0
  0
ARC
  5
106
330
2
100
AcDbEntity
  8
AM_0
100
AcDbCircle
 10
412.7854926660942
 20
644.9443670313906
 30
0.0
 40
10.05
100
AcDbArc
 50
218.3613256975785
 51
232.6515744984074
  0
ARC
  5
107
330
2
100
AcDbEntity
  8
AM_0
100
AcDbCircle
 10
412.7854926660942
 20
644.9443670313906
 30
0.0
 40
9.9
100
AcDbArc
 50
218.2602767440131
 51
232.7682176238893
  0
LINE
  5
108
330
2
100
AcDbEntity
  8
AM_0
100
AcDbLine
 10
405.8836394727571
 20
636.1500936193907
 30
0.0
 11
404.1158725197906
 21
637.9178605723573
 31
0.0
  0
LINE
  5
109
330
2
100
AcDbEntity
  8
AM_0
100
AcDbLine
 10
403.6948885343603
 20
637.9750832432166
 30
0.0
 11
404.3763632659651
 21
638.656557974821
 31
0.0
  0
ARC
  5
10A
330
2
100
AcDbEntity
  8
AM_0
100
AcDbCircle
 10
404.0484419249546
 20
637.6215298526232
 30
0.0
 40
0.5
100
AcDbArc
 50
134.9999999999816
 51
219.9675865044911
1001
GENIUS_GENODEF_13
1002
{
1000
HIER
1070
     0
1002
}
1002
{
1000
MANEDIT
1070
     0
1002
}
1002
{
1000
NOSEL
1070
     0
1002
}
1002
{
1000
BEHIND
1070
     0
1002
}
1002
{
1000
REACTOR
1002
}
1001
GENIUS_GENOBJ-N-FIL_13
1002
{
1000
OWNER
1000
GEN
1002
}
  0
ARC
  5
10B
330
2
100
AcDbEntity
  8
AM_0
100
AcDbCircle
 10
403.7227498333318
 20
638.7100513233748
 30
0.0
 40
0.5
100
AcDbArc
 50
314.9999999999816
 51
34.52431830362133
1001
GENIUS_GENODEF_13
1002
{
1000
HIER
1070
     0
1002
}
1002
{
1000
MANEDIT
1070
     0
1002
}
1002
{
1000
NOSEL
1070
     0
1002
}
1002
{
1000
BEHIND
1070
     0
1002
}
1002
{
1000
REACTOR
1002
}
1001
GENIUS_GENOBJ-N-FIL_13
1002
{
1000
OWNER
1000
GEN
1002
}
  0
LINE
  5
10C
330
2
100
AcDbEntity
  8
AM_0
100
AcDbLine
 10
411.5279305893258
 20
641.7943847359598
 30
0.0
 11
405.9756769613244
 21
636.2421311079586
 31
0.0
  0
LINE
  5
10D
330
2
100
AcDbEntity
  8
AM_0
100
AcDbLine
 10
409.7601636363591
 20
643.5621516889263
 30
0.0
 11
404.1937173987166
 21
637.9957054512831
 31
0.0
  0
CIRCLE
  5
10E
330
2
100
AcDbEntity
  8
AM_0
100
AcDbCircle
 10
412.7854926660942
 20
644.9443670313906
 30
0.0
 40
3.25
  0
LINE
  5
10F
330
2
100
AcDbEntity
  8
AM_0
100
AcDbLine
 10
414.0279305893258
 20
641.7943847359598
 30
0.0
 11
419.5868200033422
 21
636.2354953219435
 31
0.0
  0
ARC
  5
110
330
2
100
AcDbEntity
  8
AM_0
100
AcDbCircle
 10
412.7854926660942
 20
644.9443670313906
 30
0.0
 40
11.89999999999999
100
AcDbArc
 50
219.9675865044911
 51
320.0324134955089
  0
ARC
  5
111
330
2
100
AcDbEntity
  8
AM_0
100
AcDbCircle
 10
412.7854926660942
 20
644.9443670313906
 30
0.0
 40
11.89999999999999
100
AcDbArc
 50
174.9675865044939
 51
185.032413495506
  0
LINE
  5
112
330
2
100
AcDbEntity
  8
AM_0
100
AcDbLine
 10
401.7779305893259
 20
643.5621516889263
 30
0.0
 11
401.7779305893259
 21
646.0621516889261
 31
0.0
  0
ARC
  5
113
330
2
100
AcDbEntity
  8
AM_0
100
AcDbCircle
 10
412.7854926660942
 20
644.9443670313906
 30
0.0
 40
10.05
100
AcDbArc
 50
173.6142162921175
 51
187.9051666615381
  0
ARC
  5
114
330
2
100
AcDbEntity
  8
AM_0
100
AcDbCircle
 10
412.7854926660942
 20
644.9443670313906
 30
0.0
 40
9.9
100
AcDbArc
 50
173.517050105873
 51
188.0257254625082
  0
ARC
  5
115
330
2
100
AcDbEntity
  8
AM_0
100
AcDbCircle
 10
401.9688388397021
 20
642.9443670313905
 30
0.0
 40
0.5
100
AcDbArc
 50
10.47568169637944
 51
90.0
1001
GENIUS_GENODEF_13
1002
{
1000
HIER
1070
     0
1002
}
1002
{
1000
MANEDIT
1070
     0
1002
}
1002
{
1000
NOSEL
1070
     0
1002
}
1002
{
1000
BEHIND
1070
     0
1002
}
1002
{
1000
REACTOR
1002
}
1001
GENIUS_GENOBJ-N-FIL_13
1002
{
1000
OWNER
1000
GEN
1002
}
  0
LINE
  5
116
330
2
100
AcDbEntity
  8
AM_0
100
AcDbLine
 10
401.4294370128313
 20
643.4443670313905
 30
0.0
 11
402.3931878206816
 21
643.444367031391
 31
0.0
  0
ARC
  5
117
330
2
100
AcDbEntity
  8
AM_0
100
AcDbCircle
 10
401.4294370128313
 20
643.9443670313906
 30
0.0
 40
0.5
100
AcDbArc
 50
185.032413495506
 51
270.0
1001
GENIUS_GENODEF_13
1002
{
1000
HIER
1070
     0
1002
}
1002
{
1000
MANEDIT
1070
     0
1002
}
1002
{
1000
NOSEL
1070
     0
1002
}
1002
{
1000
BEHIND
1070
     0
1002
}
1002
{
1000
REACTOR
1002
}
1001
GENIUS_GENOBJ-N-FIL_13
1002
{
1000
OWNER
1000
GEN
1002
}
  0
ARC
  5
118
330
2
100
AcDbEntity
  8
AM_0
100
AcDbCircle
 10
401.9688388397021
 20
646.9443670313905
 30
0.0
 40
0.5
100
AcDbArc
 50
270.0
 51
349.5243183036205
1001
GENIUS_GENODEF_13
1002
{
1000
HIER
1070
     0
1002
}
1002
{
1000
MANEDIT
1070
     0
1002
}
1002
{
1000
NOSEL
1070
     0
1002
}
1002
{
1000
BEHIND
1070
     0
1002
}
1002
{
1000
REACTOR
1002
}
1001
GENIUS_GENOBJ-N-FIL_13
1002
{
1000
OWNER
1000
GEN
1002
}
  0
LINE
  5
119
330
2
100
AcDbEntity
  8
AM_0
100
AcDbLine
 10
401.4294370128313
 20
646.4443670313905
 30
0.0
 11
402.3931878206816
 21
646.444367031391
 31
0.0
  0
ARC
  5
11A
330
2
100
AcDbEntity
  8
AM_0
100
AcDbCircle
 10
401.4294370128313
 20
645.9443670313905
 30
0.0
 40
0.5
100
AcDbArc
 50
90.0
 51
174.9675865044939
1001
GENIUS_GENODEF_13
1002
{
1000
HIER
1070
     0
1002
}
1002
{
1000
MANEDIT
1070
     0
1002
}
1002
{
1000
NOSEL
1070
     0
1002
}
1002
{
1000
BEHIND
1070
     0
1002
}
1002
{
1000
REACTOR
1002
}
1001
GENIUS_GENOBJ-N-FIL_13
1002
{
1000
OWNER
1000
GEN
1002
}
  0
ARC
  5
11B
330
2
100
AcDbEntity
  8
AM_0
100
AcDbCircle
 10
412.7854926660942
 20
644.9443670313906
 30
0.0
 40
10.5
100
AcDbArc
 50
188.2132107017501
 51
216.7867892982805
  0
LINE
  5
11C
330
2
100
AcDbEntity
  8
AM_0
100
AcDbLine
 10
409.7601636363591
 20
643.5621516889263
 30
0.0
 11
401.8222823357641
 21
643.5621516889263
 31
0.0
  0
LINE
  5
11D
330
2
100
AcDbEntity
  8
AM_0
100
AcDbLine
 10
409.7601636363591
 20
646.0621516889261
 30
0.0
 11
401.7921739015276
 21
646.0621516889261
 31
0.0
  0
CIRCLE
  5
11E
330
2
100
AcDbEntity
  8
AM_0
100
AcDbCircle
 10
412.7854926660942
 20
644.9443670313906
 30
0.0
 40
30.5
  0
CIRCLE
  5
11F
330
2
100
AcDbEntity
  8
AM_0
100
AcDbCircle
 10
412.7854926660942
 20
644.9443670313906
 30
0.0
 40
11.05
  0
CIRCLE
  5
120
330
2
100
AcDbEntity
  8
AM_0
100
AcDbCircle
 10
412.7854926660942
 20
644.9443670313906
 30
0.0
 40
11.06378007031087
  0
CIRCLE
  5
121
330
2
100
AcDbEntity
  8
AM_0
100
AcDbCircle
 10
412.7854926660942
 20
644.9443670313906
 30
0.0
 40
11.2183595565167
  0
CIRCLE
  5
122
330
2
100
AcDbEntity
  8
AM_0
100
AcDbCircle
 10
412.7854926660942
 20
644.9443670313906
 30
0.0
 40
13.22
  0
ARC
  5
123
330
2
100
AcDbEntity
  8
AM_4
100
AcDbCircle
 10
412.7854926660942
 20
644.9443670313906
 30
0.0
 40
12.22868355035245
100
AcDbArc
 50
117.6001690583654
 51
108.1824097904022
  0
ARC
  5
124
330
2
100
AcDbEntity
  8
AM_0
100
AcDbCircle
 10
412.7854926660942
 20
644.9443670313906
 30
0.0
 40
10.5
100
AcDbArc
 50
143.2132107017195
 51
171.7867892982497
  0
LINE
  5
125
330
2
100
AcDbEntity
  8
AM_0
100
AcDbLine
 10
414.0279305893258
 20
647.947506722933
 30
0.0
 11
414.0279305893258
 21
655.9242963575253
 31
0.0
  0
LINE
  5
126
330
2
100
AcDbEntity
  8
AM_0
100
AcDbLine
 10
411.5279305893258
 20
647.941204968796
 30
0.0
 11
411.5279305893258
 21
655.9225744270941
 31
0.0
  0
LINE
  5
127
330
2
100
AcDbEntity
  8
AM_0
100
AcDbLine
 10
411.4503800555799
 20
647.9074691756383
 30
0.0
 11
405.8284731800135
 21
653.5293760512047
 31
0.0
  0
LINE
  5
128
330
2
100
AcDbEntity
  8
AM_0
100
AcDbLine
 10
409.7601636363591
 20
646.0621516889261
 30
0.0
 11
404.0766209566477
 21
651.7456943686381
 31
0.0
  0
LINE
  5
129
330
2
100
AcDbEntity
  8
AM_0
100
AcDbLine
 10
414.1101637583218
 20
647.9121518108882
 30
0.0
 11
419.7341542462021
 21
653.5361422987691
 31
0.0
  0
LINE
  5
12A
330
2
100
AcDbEntity
  8
AM_0
100
AcDbLine
 10
415.7956975422925
 20
646.0621516889261
 30
0.0
 11
421.4877285895267
 21
651.7541827361607
 31
0.0
  0
ARC
  5
12B
330
2
100
AcDbEntity
  8
AM_0
100
AcDbCircle
 10
412.7854926660942
 20
644.9443670313906
 30
0.0
 40
10.5
100
AcDbArc
 50
8.21321070175024
 51
36.78678929828052
  0
CIRCLE
  5
12C
330
2
100
AcDbEntity
  8
AM_0
100
AcDbCircle
 10
412.7854926660942
 20
644.9443670313906
 30
0.0
 40
43.74999999999992
  0
CIRCLE
  5
12D
330
2
100
AcDbEntity
  8
AM_4
100
AcDbCircle
 10
412.7854926660942
 20
644.9443670313906
 30
0.0
 40
37.26794919243094
  0
CIRCLE
  5
12E
330
2
100
AcDbEntity
  8
AM_4
100
AcDbCircle
 10
412.7854926660942
 20
644.9443670313906
 30
0.0
 40
39.73205080756871
  0
TEXT
  5
149
330
2
100
AcDbEntity
  8
AM_6
100
AcDbText
 10
455.6346582236709
 20
491.0135314795079
 30
0.0
 40
6.0
  1
D- 59227 Ahlen
 72
     1
 11
483.3538722752765
 21
491.0135314795079
 31
0.0
100
AcDbText
  0
TEXT
  5
14B
330
2
100
AcDbEntity
  8
AM_6
100
AcDbText
 10
429.6618252752767
 20
499.4313204795079
 30
0.0
 40
6.0
  1
Reflex Winkelmann GmbH+Co.KG
 41
0.95
 72
     1
 11
483.2560752752767
 21
499.4313204795079
 31
0.0
100
AcDbText
  0
TEXT
  5
14C
330
2
100
AcDbEntity
  8
0
100
AcDbText
 10
326.2732192752764
 20
484.2596302834556
 30
0.0
 40
10.0
  1
10 bar - 120°C
 72
     1
 11
367.7732192752764
 21
481.2596302834556
 31
0.0
100
AcDbText
 73
     1
  0
TEXT
  5
14D
330
2
100
AcDbEntity
  8
0
100
AcDbText
 10
294.5928891893864
 20
522.2596302834556
 30
0.0
 40
10.0
  1
Druckausdehnungsgefäß
 72
     1
 11
367.7732192752764
 21
519.2596302834556
 31
0.0
100
AcDbText
 73
     1
  0
TEXT
  5
14E
330
2
100
AcDbEntity
  8
0
100
AcDbText
 10
320.2732192752764
 20
503.2596302834556
 30
0.0
 40
10.0
  1
Typ reflex S 12l
 72
     1
 11
367.7732192752764
 21
500.2596302834556
 31
0.0
100
AcDbText
 73
     1
  0
HATCH
  5
14F
330
2
100
AcDbEntity
  8
AM_4
100
AcDbHatch
 10
0.0
 20
0.0
 30
0.0
210
0.0
220
0.0
230
1.0
  2
SOLID
 70
     1
 71
     0
 91
        2
 92
        7
 72
     0
 73
     1
 93
        4
 10
509.8461097011421
 20
527.1331765567521
 10
509.6419960103668
 20
527.1331765567521
 10
509.6419960103668
 20
512.8777580662272
 10
509.8461097011421
 20
512.8777580662272
 97
        0
 92
        7
 72
     0
 73
     1
 93
       42
 10
509.7218665850189
 20
512.2595006550385
 10
509.8254025151215
 20
512.5494012593276
 10
509.8461097011421
 20
512.8777580662272
 10
509.6419960103668
 20
512.8777580662272
 10
509.6419960103668
 20
512.80676199987
 10
509.6360796715046
 20
512.7357659335122
 10
509.6272051632107
 20
512.6647698671639
 10
509.615372485484
 20
512.5937738008003
 10
509.5976234688904
 20
512.5257359038648
 10
509.5798744523049
 20
512.4606561763836
 10
509.5562090968521
 20
512.3955764488886
 10
509.5325437414026
 20
512.3304967213966
 10
509.5029620470845
 20
512.268375163333
 10
509.4733803527697
 20
512.2062536052707
 10
509.4378823195922
 20
512.1500483860687
 10
509.4023842864141
 20
512.0908849974417
 10
509.3609699143724
 20
512.0376379476708
 10
509.3195555423309
 20
511.9814327284736
 10
509.2751830008594
 20
511.9311438481409
 10
509.2278522899507
 20
511.8838131372339
 10
509.1775634096205
 20
511.8364824263303
 10
509.1272745292821
 20
511.7921098848564
 10
509.0710693100819
 20
511.7506955128156
 10
509.0148640908823
 20
511.7092811407733
 10
508.9586588716788
 20
511.6737831075946
 10
508.8994954830545
 20
511.6382850744173
 10
508.8373739249924
 20
511.6087033801004
 10
508.772294197498
 20
511.5791216857878
 10
508.7072144700049
 20
511.5554563303351
 10
508.6421347425116
 20
511.5317909748828
 10
508.5740968455841
 20
511.5140419582931
 10
508.5031007792296
 20
511.499251111136
 10
508.4321047128723
 20
511.4844602639784
 10
508.3611086465163
 20
511.4755857556838
 10
508.2871544107287
 20
511.4696694168205
 10
508.2132001749401
 20
511.4696694168205
 10
508.2132001749401
 20
511.2655557260453
 10
508.5415569818395
 20
511.2862629120662
 10
508.8521647721501
 20
511.3897988421697
 10
509.1213581904179
 20
511.5347491443146
 10
509.3698444226677
 20
511.7418210045221
 10
509.5769162828728
 20
511.9696000507485
 97
        0
 75
     0
 76
     1
 47
0.013813
 98
        2
 10
509.7837639573923
 20
523.6720194712505
 10
509.5496659573923
 20
512.1795384712505
  0
LINE
  5
150
330
2
100
AcDbEntity
  8
AM_4
100
AcDbLine
 10
509.6419959573923
 20
512.8067624712506
 30
0.0
 11
509.6419959573923
 21
527.2041724712505
 31
0.0
  0
LINE
  5
151
330
2
100
AcDbEntity
  8
AM_4
100
AcDbLine
 10
509.8461099573923
 20
527.1331764712506
 30
0.0
 11
509.8461099573923
 21
512.8777584712507
 31
0.0
  0
LINE
  5
152
330
2
100
AcDbEntity
  8
AM_4
100
AcDbLine
 10
510.0502229573923
 20
527.1331764712506
 30
0.0
 11
510.0502229573923
 21
512.8777584712507
 31
0.0
  0
LINE
  5
153
330
2
100
AcDbEntity
  8
AM_4
100
AcDbLine
 10
509.6737469573922
 20
527.1331764712506
 30
0.0
 11
509.6737469573922
 21
512.8777584712507
 31
0.0
  0
LINE
  5
154
330
2
100
AcDbEntity
  8
AM_4
100
AcDbLine
 10
462.6425999573923
 20
512.8777584712507
 30
0.0
 11
462.6425999573923
 21
527.1331764712506
 31
0.0
  0
LINE
  5
155
330
2
100
AcDbEntity
  8
AM_4
100
AcDbLine
 10
463.0508279573923
 20
512.8067624712506
 30
0.0
 11
463.0508279573923
 21
527.2041724712505
 31
0.0
  0
LINE
  5
156
330
2
100
AcDbEntity
  8
AM_4
100
AcDbLine
 10
462.8467139573923
 20
512.8777584712507
 30
0.0
 11
462.8467139573923
 21
527.1331764712506
 31
0.0
  0
LINE
  5
157
330
2
100
AcDbEntity
  8
AM_4
100
AcDbLine
 10
463.0190769573923
 20
512.8777584712507
 30
0.0
 11
463.0190769573923
 21
527.1331764712506
 31
0.0
  0
HATCH
  5
158
330
2
100
AcDbEntity
  8
AM_4
100
AcDbHatch
 10
0.0
 20
0.0
 30
0.0
210
0.0
220
0.0
230
1.0
  2
SOLID
 70
     1
 71
     0
 91
        3
 92
        7
 72
     0
 73
     1
 93
        4
 10
508.2132001749401
 20
528.9701997737296
 10
464.4796232992569
 20
528.9701997737296
 10
464.4796232992569
 20
528.7660860829545
 10
508.2132001749401
 20
528.7660860829545
 97
        0
 92
        7
 72
     0
 73
     1
 93
        4
 10
462.8467137730543
 20
527.1331765567521
 10
462.642600082279
 20
527.1331765567521
 10
462.642600082279
 20
512.8777580662272
 10
462.8467137730543
 20
512.8777580662272
 97
        0
 92
        7
 72
     0
 73
     1
 93
       42
 10
463.2253594602876
 20
527.8076391871385
 10
463.2608574934677
 20
527.8668025757703
 10
463.2963555266461
 20
527.925965964401
 10
463.3377698986913
 20
527.9821711836058
 10
463.3791842707295
 20
528.0354182333702
 10
463.4265149816325
 20
528.088665283133
 10
463.4738456925382
 20
528.1389541634706
 10
463.5241345728744
 20
528.1862848743741
 10
463.5773816226418
 20
528.2306574158483
 10
463.6306286724089
 20
528.275029957321
 10
463.6868338916082
 20
528.3164443293626
 10
463.7459972802383
 20
528.3519423625405
 10
463.8051606688673
 20
528.3874403957192
 10
463.8672822269311
 20
528.419980259466
 10
463.9294037849929
 20
528.4495619537813
 10
463.9944835124863
 20
528.4732273092332
 10
464.0595632399817
 20
528.4968926646857
 10
464.1276011369049
 20
528.5175998507058
 10
464.1956390338306
 20
528.5323906978629
 10
464.2666351001873
 20
528.5471815450216
 10
464.337631166544
 20
528.5560560533159
 10
464.4086272328999
 20
528.5619723921792
 10
464.4796232992569
 20
528.5619723921792
 10
464.4796232992569
 20
528.7660860829545
 10
464.1512664923576
 20
528.7246717109129
 10
463.8613658880671
 20
528.64184296683
 10
463.5714652837787
 20
528.4761854786646
 10
463.3436862375506
 20
528.2898208044778
 10
463.1366143773441
 20
528.0413345722299
 10
462.9916640751996
 20
527.7721411539618
 10
462.8881281450952
 20
527.4615333636504
 10
462.8467137730543
 20
527.1331765567521
 10
463.0508274638298
 20
527.1331765567517
 10
463.0508274638298
 20
527.2041726231098
 10
463.0567438026933
 20
527.2751686894658
 10
463.0656183109874
 20
527.3461647558213
 10
463.0804091581413
 20
527.4171608221862
 10
463.0952000053031
 20
527.4851987191039
 10
463.1159071913273
 20
527.5502784466043
 10
463.1366143773441
 20
527.6183163435222
 10
463.1632379022296
 20
527.6833960710157
 10
463.1928195965445
 20
527.7455176290759
 97
        0
 75
     0
 76
     1
 47
0.005631
 98
        3
 10
466.7367409573923
 20
528.8377974712505
 10
462.7176299573924
 20
526.7813074712505
 10
463.0569739573923
 20
527.7459484712506
  0
HATCH
  5
159
330
2
100
AcDbEntity
  8
AM_4
100
AcDbHatch
 10
0.0
 20
0.0
 30
0.0
210
0.0
220
0.0
230
1.0
  2
SOLID
 70
     1
 71
     0
 91
       13
 92
        7
 72
     0
 73
     1
 93
        4
 10
463.0508274638292
 20
527.1331765567521
 10
462.8467137730543
 20
527.1331765567521
 10
462.8467137730543
 20
512.8777580662272
 10
463.0508274638298
 20
512.8777580662272
 97
        0
 92
        7
 72
     0
 73
     1
 93
        4
 10
508.2132001749389
 20
511.4696694168205
 10
464.4796232992569
 20
511.4696694168205
 10
464.4796232992569
 20
511.2655557260453
 10
508.2132001749401
 20
511.2655557260453
 97
        0
 92
        7
 72
     0
 73
     1
 93
        4
 10
508.2132001749401
 20
528.7660860829545
 10
464.4796232992569
 20
528.7660860829545
 10
464.4796232992569
 20
528.5619723921792
 10
508.2132001749401
 20
528.5619723921792
 97
        0
 92
        7
 72
     0
 73
     1
 93
        4
 10
510.0502233919177
 20
527.1331765567521
 10
509.8461097011421
 20
527.1331765567521
 10
509.8461097011421
 20
512.8777580662272
 10
510.0502233919177
 20
512.8777580662272
 97
        0
 92
        7
 72
     0
 73
     1
 93
       42
 10
463.8613658880681
 20
528.6418429668302
 10
464.1512664923576
 20
528.7246717109129
 10
464.4796232992569
 20
528.7660860829545
 10
464.4796232992569
 20
528.9701997737296
 10
464.3879200468791
 20
528.9672416042983
 10
464.2962167945038
 20
528.9583670960038
 10
464.2045135421247
 20
528.9465344182773
 10
464.112810289748
 20
528.9317435711195
 10
464.0240652068022
 20
528.9110363850994
 10
463.9382782932877
 20
528.884412860216
 10
463.8524913797708
 20
528.8548311658995
 10
463.7696626356895
 20
528.8222913021534
 10
463.6897920610389
 20
528.7867932689741
 10
463.6099214863881
 20
528.7453788969343
 10
463.5330090811672
 20
528.7010063554617
 10
463.4590548453901
 20
528.6507174751245
 10
463.3880587790221
 20
528.6004285947898
 10
463.3170627126705
 20
528.5442233755885
 10
463.2490248157426
 20
528.4880181563911
 10
463.1869032576788
 20
528.425896598328
 10
463.1247816996177
 20
528.3608168708332
 10
463.0685764804205
 20
528.2957371433432
 10
463.0123712612197
 20
528.2247410769868
 10
462.9620823808837
 20
528.1537450106257
 10
462.9117935005466
 20
528.0797907748389
 10
462.8674209590744
 20
528.0028783696178
 10
462.8260065870335
 20
527.9230077949697
 10
462.7905085538562
 20
527.8431372203218
 10
462.7579686901083
 20
527.7603084762386
 10
462.7283869957913
 20
527.6745215627181
 10
462.701763470909
 20
527.5887346492051
 10
462.6810562848894
 20
527.4999895662618
 10
462.6662654377318
 20
527.4082863138828
 10
462.6544327600051
 20
527.3165830615043
 10
462.6455582517109
 20
527.2248798091299
 10
462.642600082279
 20
527.1331765567521
 10
462.8467137730543
 20
527.1331765567521
 10
462.8881281450952
 20
527.4615333636509
 10
462.9916640751979
 20
527.772141153961
 10
463.1366143773441
 20
528.0413345722312
 10
463.3436862375516
 20
528.2898208044785
 10
463.5714652837775
 20
528.476185478665
 97
        0
 92
        7
 72
     0
 73
     1
 93
       42
 10
463.9294037849935
 20
528.4495619537813
 10
463.9944835124863
 20
528.4732273092332
 10
464.0595632399817
 20
528.4968926646857
 10
464.1276011369049
 20
528.5175998507058
 10
464.1956390338306
 20
528.5323906978629
 10
464.2666351001873
 20
528.5471815450216
 10
464.337631166544
 20
528.5560560533159
 10
464.4086272328999
 20
528.5619723921792
 10
464.4796232992569
 20
528.5619723921792
 10
464.4796232992569
 20
528.7660860829545
 10
464.1512664923576
 20
528.7246717109129
 10
463.8613658880671
 20
528.64184296683
 10
463.5714652837787
 20
528.4761854786646
 10
463.3436862375506
 20
528.2898208044778
 10
463.1366143773441
 20
528.0413345722299
 10
462.9916640751996
 20
527.7721411539618
 10
462.8881281450952
 20
527.4615333636504
 10
462.8467137730543
 20
527.1331765567521
 10
463.0508274638298
 20
527.1331765567517
 10
463.0508274638298
 20
527.2041726231098
 10
463.0567438026933
 20
527.2751686894658
 10
463.0656183109874
 20
527.3461647558213
 10
463.0804091581413
 20
527.4171608221862
 10
463.0952000053031
 20
527.4851987191039
 10
463.1159071913273
 20
527.5502784466043
 10
463.1366143773441
 20
527.6183163435222
 10
463.1632379022296
 20
527.6833960710157
 10
463.1928195965445
 20
527.7455176290759
 10
463.2253594602881
 20
527.8076391871389
 10
463.2608574934677
 20
527.8668025757703
 10
463.2963555266461
 20
527.925965964401
 10
463.3377698986913
 20
527.9821711836058
 10
463.3791842707295
 20
528.0354182333702
 10
463.4265149816325
 20
528.088665283133
 10
463.4738456925382
 20
528.1389541634706
 10
463.5241345728744
 20
528.1862848743741
 10
463.5773816226418
 20
528.2306574158483
 10
463.6306286724089
 20
528.275029957321
 10
463.6868338916082
 20
528.3164443293626
 10
463.7459972802383
 20
528.3519423625405
 10
463.8051606688673
 20
528.3874403957192
 10
463.8672822269311
 20
528.419980259466
 97
        0
 92
        7
 72
     0
 73
     1
 93
        4
 10
508.2132001749401
 20
511.2655557260453
 10
464.4796232992569
 20
511.2655557260453
 10
464.4796232992569
 20
511.0614420352702
 10
508.2132001749401
 20
511.0614420352702
 97
        0
 92
       22
 72
     0
 73
     1
 93
       42
 10
509.5769162828736
 20
511.9696000507483
 10
509.7218665850181
 20
512.2595006550381
 10
509.8254025151215
 20
512.5494012593278
 10
509.8461097011421
 20
512.8777580662272
 10
509.6419960103668
 20
512.8777580662272
 10
509.6419960103668
 20
512.8067619998699
 10
509.6360796715038
 20
512.7357659335122
 10
509.6272051632102
 20
512.6647698671559
 10
509.615372485484
 20
512.5937738008007
 10
509.5976234688904
 20
512.5257359038596
 10
509.5798744523049
 20
512.4606561763821
 10
509.5562090968521
 20
512.3955764488886
 10
509.5325437414026
 20
512.3304967213966
 10
509.5029620470845
 20
512.268375163333
 10
509.4733803527697
 20
512.2062536052707
 10
509.4378823195922
 20
512.1500483860687
 10
509.4023842864141
 20
512.0908849974417
 10
509.3609699143724
 20
512.0376379476708
 10
509.3195555423309
 20
511.9814327284736
 10
509.2751830008594
 20
511.9311438481409
 10
509.2278522899507
 20
511.8838131372339
 10
509.1775634096205
 20
511.8364824263303
 10
509.1272745292821
 20
511.7921098848564
 10
509.0710693100819
 20
511.7506955128156
 10
509.0148640908823
 20
511.7092811407733
 10
508.9586588716788
 20
511.6737831075946
 10
508.8994954830545
 20
511.6382850744173
 10
508.8373739249924
 20
511.6087033801004
 10
508.772294197498
 20
511.5791216857878
 10
508.7072144700049
 20
511.5554563303351
 10
508.6421347425116
 20
511.5317909748828
 10
508.5740968455841
 20
511.5140419582931
 10
508.5031007792296
 20
511.499251111136
 10
508.4321047128723
 20
511.4844602639784
 10
508.3611086465163
 20
511.4755857556838
 10
508.2871544107287
 20
511.4696694168205
 10
508.2132001749401
 20
511.4696694168205
 10
508.2132001749401
 20
511.2655557260453
 10
508.5415569818395
 20
511.2862629120662
 10
508.8521647721501
 20
511.3897988421697
 10
509.1213581904179
 20
511.5347491443146
 10
509.3698444226677
 20
511.7418210045221
 97
        0
 92
        7
 72
     0
 73
     1
 93
       42
 10
509.6301633326412
 20
511.7240719879321
 10
509.6863685518412
 20
511.7921098848578
 10
509.7366574321767
 20
511.8631059512126
 10
509.7839881430809
 20
511.9370601870021
 10
509.82836068455
 20
512.0139725922174
 10
509.8697750565948
 20
512.0908849974425
 10
509.9052730897746
 20
512.1707555720911
 10
509.9378129535213
 20
512.2535843161748
 10
509.9673946478348
 20
512.3393712296919
 10
509.9910600032861
 20
512.4251581431994
 10
510.0117671893086
 20
512.5139032261513
 10
510.0295162058967
 20
512.6026483090953
 10
510.0383907141913
 20
512.6943515614724
 10
510.0472652224863
 20
512.7860548138515
 10
510.0502233919177
 20
512.8777580662272
 10
509.8461097011421
 20
512.8777580662272
 10
509.8254025151215
 20
512.5494012593281
 10
509.7218665850181
 20
512.2595006550376
 10
509.5769162828728
 20
511.9696000507485
 10
509.3698444226657
 20
511.7418210045205
 10
509.1213581904179
 20
511.5347491443141
 10
508.8521647721488
 20
511.3897988421695
 10
508.5415569818395
 20
511.2862629120662
 10
508.2132001749401
 20
511.2655557260453
 10
508.2132001749401
 20
511.0614420352702
 10
508.3049034273171
 20
511.0644002047016
 10
508.3995648491256
 20
511.0732747129962
 10
508.4942262709353
 20
511.0821492212909
 10
508.5829713538807
 20
511.0998982378799
 10
508.671716436825
 20
511.1176472544689
 10
508.7604615197731
 20
511.1442707793534
 10
508.8462484332771
 20
511.1738524736677
 10
508.9290771773695
 20
511.2034341679833
 10
509.0119059214486
 20
511.2418903705916
 10
509.0888183266748
 20
511.2803465732041
 10
509.1657307318901
 20
511.3247191146765
 10
509.2426431371119
 20
511.3720498255796
 10
509.3136392034656
 20
511.4223387059158
 10
509.3846352698228
 20
511.4755857556835
 10
509.449714997318
 20
511.5347491443143
 10
509.5147947248107
 20
511.5939125329456
 10
509.5739581134431
 20
511.6560340910073
 97
        0
 92
        7
 72
     0
 73
     1
 93
       42
 10
509.3698444226657
 20
528.2898208044788
 10
509.1213581904186
 20
528.4761854786644
 10
508.8521647721488
 20
528.6418429668302
 10
508.5415569818395
 20
528.7246717109129
 10
508.2132001749389
 20
528.7660860829545
 10
508.2132001749401
 20
528.5619723921792
 10
508.2871544107278
 20
528.5619723921792
 10
508.3611086465168
 20
528.5560560533159
 10
508.4321047128723
 20
528.5442233755897
 10
508.5031007792296
 20
528.5323906978638
 10
508.5711386761544
 20
528.5175998507061
 10
508.6391765730795
 20
528.4968926646853
 10
508.7072144700051
 20
528.473227309233
 10
508.772294197498
 20
528.4495619537813
 10
508.8344157555614
 20
528.419980259466
 10
508.8965373136209
 20
528.3874403957196
 10
508.9557007022538
 20
528.3519423625405
 10
509.0148640908839
 20
528.316444329362
 10
509.0710693100804
 20
528.2750299573216
 10
509.1243163598508
 20
528.2336155852792
 10
509.1775634096149
 20
528.1862848743753
 10
509.2278522899539
 20
528.1389541634705
 10
509.2722248314253
 20
528.0886652831368
 10
509.3195555423299
 20
528.0383764027991
 10
509.3609699143731
 20
527.9821711836005
 10
509.3994261169823
 20
527.925965964401
 10
509.4378823195913
 20
527.8697607452021
 10
509.4704221833376
 20
527.8076391871393
 10
509.5029620470861
 20
527.7484757985081
 10
509.5325437414015
 20
527.683396071014
 10
509.5562090968521
 20
527.6183163435222
 10
509.5798744523049
 20
527.5532366160265
 10
509.5976234688944
 20
527.4851987191034
 10
509.615372485484
 20
527.4171608221778
 10
509.6272051632076
 20
527.3461647558262
 10
509.6360796715038
 20
527.2781268589
 10
509.6419960103668
 20
527.2041726231085
 10
509.6419960103668
 20
527.1331765567521
 10
509.8461097011421
 20
527.1331765567521
 10
509.8254025151215
 20
527.4615333636525
 10
509.7218665850189
 20
527.7721411539612
 10
509.5769162828736
 20
528.0413345722299
 97
        0
 92
        7
 72
     0
 73
     1
 93
       42
 10
509.4526731667479
 20
528.4850599869606
 10
509.3846352698253
 20
528.5442233755889
 10
509.3165973728988
 20
528.6004285947893
 10
509.2426431371103
 20
528.6507174751249
 10
509.1686889013226
 20
528.701006355461
 10
509.0917764961028
 20
528.7453788969339
 10
509.011905921453
 20
528.7867932689741
 10
508.9320353468016
 20
528.8222913021532
 10
508.8462484332865
 20
528.8548311659001
 10
508.760461519772
 20
528.8844128602154
 10
508.674674606258
 20
528.9110363850994
 10
508.5829713538804
 20
528.9317435711202
 10
508.4942262709338
 20
528.9465344182775
 10
508.3995648491256
 20
528.9583670960038
 10
508.3078615967486
 20
528.9672416042981
 10
508.2132001749401
 20
528.9701997737296
 10
508.2132001749401
 20
528.7660860829545
 10
508.5415569818395
 20
528.7246717109129
 10
508.8521647721488
 20
528.6418429668302
 10
509.1213581904186
 20
528.4761854786649
 10
509.3698444226657
 20
528.2898208044788
 10
509.5769162828736
 20
528.0413345722308
 10
509.7218665850189
 20
527.7721411539612
 10
509.8254025151215
 20
527.4615333636511
 10
509.8461097011421
 20
527.1331765567521
 10
510.0502233919177
 20
527.1331765567521
 10
510.0472652224863
 20
527.2248798091281
 10
510.0383907141913
 20
527.3165830615063
 10
510.0295162058967
 20
527.4082863138832
 10
510.011767189307
 20
527.4970313968379
 10
509.9910600032861
 20
527.5857764797766
 10
509.9673946478348
 20
527.6715633932894
 10
509.93781295352
 20
527.7573503068023
 10
509.9052730897722
 20
527.8401790508853
 10
509.8697750565948
 20
527.9230077949695
 10
509.828360684554
 20
527.999920200189
 10
509.7869463125124
 20
528.0768326054085
 10
509.7366574321767
 20
528.1537450106283
 10
509.6863685518377
 20
528.2247410769834
 10
509.6331215020716
 20
528.2957371433416
 10
509.5739581134416
 20
528.3608168708354
 10
509.5147947248107
 20
528.4258965983284
 97
        0
 92
       23
 72
     0
 73
     1
 93
       42
 10
463.4738456925382
 20
511.8838131372345
 10
463.4235568122026
 20
511.93410201757
 10
463.3791842707313
 20
511.9843908979048
 10
463.3377698986903
 20
512.0376379476745
 10
463.2963555266464
 20
512.0938431668723
 10
463.257899324035
 20
512.1500483860728
 10
463.2224012908576
 20
512.2092117747023
 10
463.1928195965445
 20
512.2713333327611
 10
463.1632379022279
 20
512.3304967213938
 10
463.1366143773409
 20
512.3955764488916
 10
463.1129490218913
 20
512.4606561763813
 10
463.0952000053015
 20
512.5286940733091
 10
463.0804091581445
 20
512.5967319702322
 10
463.0656183109874
 20
512.6647698671563
 10
463.0567438026916
 20
512.7357659335133
 10
463.0508274638298
 20
512.8067619998715
 10
463.0508274638298
 20
512.8777580662272
 10
462.8467137730543
 20
512.8777580662272
 10
462.8881281450952
 20
512.5494012593268
 10
462.9916640751979
 20
512.2595006550393
 10
463.1366143773441
 20
511.9696000507485
 10
463.3436862375506
 20
511.7418210045218
 10
463.5714652837775
 20
511.5347491443143
 10
463.8613658880671
 20
511.3897988421697
 10
464.1512664923568
 20
511.2862629120662
 10
464.4796232992569
 20
511.2655557260453
 10
464.4796232992569
 20
511.4696694168205
 10
464.4086272328999
 20
511.4696694168205
 10
464.334672997112
 20
511.4755857556835
 10
464.2636769307548
 20
511.4844602639784
 10
464.1956390338293
 20
511.4962929417044
 10
464.1276011369049
 20
511.5140419582935
 10
464.0595632399817
 20
511.5317909748824
 10
463.9944835124863
 20
511.5554563303351
 10
463.9294037849929
 20
511.5791216857873
 10
463.8643240574991
 20
511.6087033801021
 10
463.8051606688669
 20
511.6382850744184
 10
463.7430391108079
 20
511.6737831075957
 10
463.6868338916082
 20
511.7122393102062
 10
463.6276705029768
 20
511.7506955128156
 10
463.5744234532096
 20
511.7921098848564
 10
463.5211764034424
 20
511.8364824263299
 97
        0
 92
        7
 72
     0
 73
     1
 93
       42
 10
463.3436862375495
 20
511.7418210045218
 10
463.1366143773441
 20
511.9696000507485
 10
462.9916640751979
 20
512.2595006550393
 10
462.8881281450952
 20
512.5494012593272
 10
462.8467137730543
 20
512.8777580662272
 10
462.642600082279
 20
512.8777580662272
 10
462.6455582517109
 20
512.7860548138507
 10
462.6544327600051
 20
512.6943515614707
 10
462.6662654377311
 20
512.6026483090944
 10
462.6810562848894
 20
512.5139032261489
 10
462.701763470909
 20
512.4251581432015
 10
462.7283869957939
 20
512.3393712296887
 10
462.7579686901071
 20
512.2535843161776
 10
462.7905085538546
 20
512.1707555720938
 10
462.8289647564671
 20
512.0908849974362
 10
462.8703791285054
 20
512.0110144227915
 10
462.9147516699818
 20
511.9370601869984
 10
462.9620823808846
 20
511.8631059512126
 10
463.0123712612197
 20
511.7921098848578
 10
463.0685764804177
 20
511.7240719879333
 10
463.1277398690469
 20
511.6560340910073
 10
463.1869032576799
 20
511.5939125329456
 10
463.2519829851743
 20
511.5347491443166
 10
463.3200208820995
 20
511.4755857556828
 10
463.3880587790236
 20
511.4223387059166
 10
463.459054845379
 20
511.3720498255807
 10
463.5359672505955
 20
511.3247191146773
 10
463.6099214863876
 20
511.2803465732033
 10
463.6897920610386
 20
511.2418903705936
 10
463.7726208051209
 20
511.2034341679836
 10
463.8554495491986
 20
511.1738524736701
 10
463.9412364627196
 20
511.1442707793528
 10
464.0270233762342
 20
511.1176472544689
 10
464.1157684591798
 20
511.0998982378799
 10
464.2045135421251
 20
511.0821492212909
 10
464.2962167945023
 20
511.0732747129962
 10
464.3879200468791
 20
511.064400204702
 10
464.4796232992569
 20
511.0614420352702
 10
464.4796232992569
 20
511.2655557260453
 10
464.1512664923568
 20
511.2862629120662
 10
463.8613658880681
 20
511.3897988421697
 10
463.5714652837775
 20
511.5347491443143
 97
        0
 75
     0
 76
     1
 47
0.02498
 98
       13
 10
462.9244909573923
 20
521.7494804712506
 10
472.0702519573923
 20
511.3127324712506
 10
482.6728669573923
 20
528.6264074712505
 10
509.9482859573923
 20
522.4776244712505
 10
463.2371649573923
 20
528.4673634712507
 10
463.5664399573923
 20
528.4203434712505
 10
492.5429029573924
 20
511.1633674712505
 10
509.3360799573924
 20
511.9157164712507
 10
509.5712799573923
 20
511.6806074712505
 10
509.3360799573924
 20
528.2322554712505
 10
509.4301589573923
 20
528.4673634712507
 10
463.3782819573923
 20
511.8216724712506
 10
463.3312439573924
 20
511.5865634712505
  0
LINE
  5
15A
330
2
100
AcDbEntity
  8
AM_4
100
AcDbLine
 10
464.4086269573923
 20
511.4696694712505
 30
0.0
 11
508.2871539573924
 21
511.4696694712505
 31
0.0
  0
LINE
  5
15B
330
2
100
AcDbEntity
  8
AM_4
100
AcDbLine
 10
464.4796229573923
 20
511.0614424712506
 30
0.0
 11
508.2131999573923
 21
511.0614424712506
 31
0.0
  0
LINE
  5
15C
330
2
100
AcDbEntity
  8
AM_4
100
AcDbLine
 10
508.2131999573923
 20
511.2655554712506
 30
0.0
 11
464.4796229573923
 21
511.2655554712506
 31
0.0
  0
LINE
  5
15D
330
2
100
AcDbEntity
  8
AM_4
100
AcDbLine
 10
508.3611089573923
 20
511.4755854712505
 30
0.0
 11
464.4796229573923
 21
511.4696694712505
 31
0.0
  0
LINE
  5
15E
330
2
100
AcDbEntity
  8
AM_4
100
AcDbLine
 10
508.3784159573923
 20
511.0673604712506
 30
0.0
 11
464.4796779573924
 21
511.0614424712506
 31
0.0
  0
LINE
  5
15F
330
2
100
AcDbEntity
  8
AM_4
100
AcDbLine
 10
508.3625379573923
 20
511.4438354712506
 30
0.0
 11
464.4796279573923
 21
511.4379184712507
 31
0.0
  0
ARC
  5
160
330
2
100
AcDbEntity
  8
AM_4
100
AcDbCircle
 10
464.4794299573923
 20
512.9020394712506
 30
0.0
 40
1.840596999999999
100
AcDbArc
 50
186.6660749999994
 51
270.0077249999996
  0
ARC
  5
161
330
2
100
AcDbEntity
  8
AM_4
100
AcDbCircle
 10
464.4794299573923
 20
512.9020394712506
 30
0.0
 40
1.46412
100
AcDbArc
 50
186.6660749999994
 51
270.0077249999996
  0
LINE
  5
162
330
2
100
AcDbEntity
  8
AM_4
100
AcDbLine
 10
462.7579689573923
 20
512.2535844712506
 30
0.0
 11
462.7905089573923
 21
512.1707554712505
 31
0.0
  0
LINE
  5
163
330
2
100
AcDbEntity
  8
AM_4
100
AcDbLine
 10
463.0508279573923
 20
512.8777584712507
 30
0.0
 11
462.6425999573923
 21
512.8777584712507
 31
0.0
  0
LINE
  5
164
330
2
100
AcDbEntity
  8
AM_4
100
AcDbLine
 10
462.6425999573923
 20
512.8777584712507
 30
0.0
 11
462.6455579573923
 21
512.7860544712506
 31
0.0
  0
LINE
  5
165
330
2
100
AcDbEntity
  8
AM_4
100
AcDbLine
 10
462.6455579573923
 20
512.7860544712506
 30
0.0
 11
462.6544329573923
 21
512.6943514712507
 31
0.0
  0
LINE
  5
166
330
2
100
AcDbEntity
  8
AM_4
100
AcDbLine
 10
462.6544329573923
 20
512.6943514712507
 30
0.0
 11
462.6662649573923
 21
512.6026484712506
 31
0.0
  0
LINE
  5
167
330
2
100
AcDbEntity
  8
AM_4
100
AcDbLine
 10
462.6662649573923
 20
512.6026484712506
 30
0.0
 11
462.6810559573923
 21
512.5139034712506
 31
0.0
  0
LINE
  5
168
330
2
100
AcDbEntity
  8
AM_4
100
AcDbLine
 10
462.6810559573923
 20
512.5139034712506
 30
0.0
 11
462.7017639573923
 21
512.4251584712506
 31
0.0
  0
LINE
  5
169
330
2
100
AcDbEntity
  8
AM_4
100
AcDbLine
 10
462.7017639573923
 20
512.4251584712506
 30
0.0
 11
462.7283869573923
 21
512.3393714712506
 31
0.0
  0
LINE
  5
16A
330
2
100
AcDbEntity
  8
AM_4
100
AcDbLine
 10
462.7283869573923
 20
512.3393714712506
 30
0.0
 11
462.7579689573923
 21
512.2535844712506
 31
0.0
  0
LINE
  5
16B
330
2
100
AcDbEntity
  8
AM_4
100
AcDbLine
 10
462.6425999573923
 20
512.8777584712507
 30
0.0
 11
462.6425999573923
 21
512.8777584712507
 31
0.0
  0
ARC
  5
16C
330
2
100
AcDbEntity
  8
AM_4
100
AcDbCircle
 10
464.4794299573923
 20
512.9020394712506
 30
0.0
 40
1.43237
100
AcDbArc
 50
186.6660749999994
 51
270.0077249999996
  0
LINE
  5
16D
330
2
100
AcDbEntity
  8
AM_4
100
AcDbLine
 10
463.1869029573923
 20
511.5939124712506
 30
0.0
 11
463.2519829573923
 21
511.5347494712506
 31
0.0
  0
LINE
  5
16E
330
2
100
AcDbEntity
  8
AM_4
100
AcDbLine
 10
463.3436859573923
 20
511.7418214712507
 30
0.0
 11
463.1366139573923
 21
511.9696004712506
 31
0.0
  0
LINE
  5
16F
330
2
100
AcDbEntity
  8
AM_4
100
AcDbLine
 10
463.2224009573923
 20
512.2092114712505
 30
0.0
 11
463.1928199573923
 21
512.2713334712506
 31
0.0
  0
LINE
  5
170
330
2
100
AcDbEntity
  8
AM_4
100
AcDbLine
 10
463.0123709573925
 20
511.7921094712507
 30
0.0
 11
463.0685769573923
 21
511.7240724712506
 31
0.0
  0
LINE
  5
171
330
2
100
AcDbEntity
  8
AM_4
100
AcDbLine
 10
463.0685769573923
 20
511.7240724712506
 30
0.0
 11
463.1277399573924
 21
511.6560344712507
 31
0.0
  0
LINE
  5
172
330
2
100
AcDbEntity
  8
AM_4
100
AcDbLine
 10
463.1277399573924
 20
511.6560344712507
 30
0.0
 11
463.1869029573923
 21
511.5939124712506
 31
0.0
  0
LINE
  5
173
330
2
100
AcDbEntity
  8
AM_4
100
AcDbLine
 10
462.7905089573923
 20
512.1707554712505
 30
0.0
 11
462.8289649573924
 21
512.0908854712507
 31
0.0
  0
LINE
  5
174
330
2
100
AcDbEntity
  8
AM_4
100
AcDbLine
 10
463.1366139573923
 20
511.9696004712506
 30
0.0
 11
462.9916639573923
 21
512.2595004712506
 31
0.0
  0
LINE
  5
175
330
2
100
AcDbEntity
  8
AM_4
100
AcDbLine
 10
462.8289649573924
 20
512.0908854712507
 30
0.0
 11
462.8703789573925
 21
512.0110144712506
 31
0.0
  0
LINE
  5
176
330
2
100
AcDbEntity
  8
AM_4
100
AcDbLine
 10
462.8703789573925
 20
512.0110144712506
 30
0.0
 11
462.9147519573924
 21
511.9370604712506
 31
0.0
  0
LINE
  5
177
330
2
100
AcDbEntity
  8
AM_4
100
AcDbLine
 10
462.9147519573924
 20
511.9370604712506
 30
0.0
 11
462.9620819573923
 21
511.8631054712506
 31
0.0
  0
LINE
  5
178
330
2
100
AcDbEntity
  8
AM_4
100
AcDbLine
 10
462.9620819573923
 20
511.8631054712506
 30
0.0
 11
463.0123709573925
 21
511.7921094712507
 31
0.0
  0
LINE
  5
179
330
2
100
AcDbEntity
  8
AM_4
100
AcDbLine
 10
463.1928199573923
 20
512.2713334712506
 30
0.0
 11
463.1632379573924
 21
512.3304964712506
 31
0.0
  0
LINE
  5
17A
330
2
100
AcDbEntity
  8
AM_4
100
AcDbLine
 10
463.1632379573924
 20
512.3304964712506
 30
0.0
 11
463.1366139573923
 21
512.3955764712506
 31
0.0
  0
LINE
  5
17B
330
2
100
AcDbEntity
  8
AM_4
100
AcDbLine
 10
463.1366139573923
 20
512.3955764712506
 30
0.0
 11
463.1129489573923
 21
512.4606564712506
 31
0.0
  0
LINE
  5
17C
330
2
100
AcDbEntity
  8
AM_4
100
AcDbLine
 10
463.1129489573923
 20
512.4606564712506
 30
0.0
 11
463.0951999573923
 21
512.5286944712505
 31
0.0
  0
LINE
  5
17D
330
2
100
AcDbEntity
  8
AM_4
100
AcDbLine
 10
463.0951999573923
 20
512.5286944712505
 30
0.0
 11
463.0804089573923
 21
512.5967314712505
 31
0.0
  0
LINE
  5
17E
330
2
100
AcDbEntity
  8
AM_4
100
AcDbLine
 10
463.0804089573923
 20
512.5967314712505
 30
0.0
 11
463.0656179573923
 21
512.6647694712507
 31
0.0
  0
LINE
  5
17F
330
2
100
AcDbEntity
  8
AM_4
100
AcDbLine
 10
463.0656179573923
 20
512.6647694712507
 30
0.0
 11
463.0567439573924
 21
512.7357654712506
 31
0.0
  0
LINE
  5
180
330
2
100
AcDbEntity
  8
AM_4
100
AcDbLine
 10
463.0567439573924
 20
512.7357654712506
 30
0.0
 11
463.0508279573923
 21
512.8067624712506
 31
0.0
  0
LINE
  5
181
330
2
100
AcDbEntity
  8
AM_4
100
AcDbLine
 10
462.9916639573923
 20
512.2595004712506
 30
0.0
 11
462.8881279573923
 21
512.5494014712507
 31
0.0
  0
LINE
  5
182
330
2
100
AcDbEntity
  8
AM_4
100
AcDbLine
 10
462.8881279573923
 20
512.5494014712507
 30
0.0
 11
462.8467139573923
 21
512.8777584712507
 31
0.0
  0
ARC
  5
183
330
2
100
AcDbEntity
  8
AM_4
100
AcDbCircle
 10
464.0008869573923
 20
512.8461104712506
 30
0.0
 40
0.9823199999999999
100
AcDbArc
 50
178.153772999999
 51
186.6660749999994
  0
LINE
  5
184
330
2
100
AcDbEntity
  8
AM_4
100
AcDbLine
 10
463.6868339573923
 20
511.7122394712506
 30
0.0
 11
463.6276709573923
 21
511.7506954712506
 31
0.0
  0
LINE
  5
185
330
2
100
AcDbEntity
  8
AM_4
100
AcDbLine
 10
463.2519829573923
 20
511.5347494712506
 30
0.0
 11
463.3200209573923
 21
511.4755854712505
 31
0.0
  0
LINE
  5
186
330
2
100
AcDbEntity
  8
AM_4
100
AcDbLine
 10
463.3200209573923
 20
511.4755854712505
 30
0.0
 11
463.3880589573923
 21
511.4223384712507
 31
0.0
  0
LINE
  5
187
330
2
100
AcDbEntity
  8
AM_4
100
AcDbLine
 10
463.3880589573923
 20
511.4223384712507
 30
0.0
 11
463.4590549573923
 21
511.3720494712506
 31
0.0
  0
LINE
  5
188
330
2
100
AcDbEntity
  8
AM_4
100
AcDbLine
 10
463.4590549573923
 20
511.3720494712506
 30
0.0
 11
463.5359669573923
 21
511.3247194712505
 31
0.0
  0
LINE
  5
189
330
2
100
AcDbEntity
  8
AM_4
100
AcDbLine
 10
463.5359669573923
 20
511.3247194712505
 30
0.0
 11
463.6099219573924
 21
511.2803464712506
 31
0.0
  0
LINE
  5
18A
330
2
100
AcDbEntity
  8
AM_4
100
AcDbLine
 10
463.6099219573924
 20
511.2803464712506
 30
0.0
 11
463.6897919573923
 21
511.2418904712505
 31
0.0
  0
LINE
  5
18B
330
2
100
AcDbEntity
  8
AM_4
100
AcDbLine
 10
463.6897919573923
 20
511.2418904712505
 30
0.0
 11
463.7726209573925
 21
511.2034344712506
 31
0.0
  0
LINE
  5
18C
330
2
100
AcDbEntity
  8
AM_4
100
AcDbLine
 10
463.7726209573925
 20
511.2034344712506
 30
0.0
 11
463.8554499573923
 21
511.1738524712506
 31
0.0
  0
LINE
  5
18D
330
2
100
AcDbEntity
  8
AM_4
100
AcDbLine
 10
463.8554499573923
 20
511.1738524712506
 30
0.0
 11
463.9412369573923
 21
511.1442704712506
 31
0.0
  0
LINE
  5
18E
330
2
100
AcDbEntity
  8
AM_4
100
AcDbLine
 10
463.9412369573923
 20
511.1442704712506
 30
0.0
 11
464.0270229573923
 21
511.1176474712506
 31
0.0
  0
LINE
  5
18F
330
2
100
AcDbEntity
  8
AM_4
100
AcDbLine
 10
464.0270229573923
 20
511.1176474712506
 30
0.0
 11
464.2045139573923
 21
511.0821494712507
 31
0.0
  0
LINE
  5
190
330
2
100
AcDbEntity
  8
AM_4
100
AcDbLine
 10
464.2045139573923
 20
511.0821494712507
 30
0.0
 11
464.3879199573923
 21
511.0644004712506
 31
0.0
  0
LINE
  5
191
330
2
100
AcDbEntity
  8
AM_4
100
AcDbLine
 10
464.3879199573923
 20
511.0644004712506
 30
0.0
 11
464.4796229573923
 21
511.0614424712506
 31
0.0
  0
LINE
  5
192
330
2
100
AcDbEntity
  8
AM_4
100
AcDbLine
 10
464.4086269573923
 20
511.4696694712505
 30
0.0
 11
464.3346729573923
 21
511.4755854712505
 31
0.0
  0
LINE
  5
193
330
2
100
AcDbEntity
  8
AM_4
100
AcDbLine
 10
464.3346729573923
 20
511.4755854712505
 30
0.0
 11
464.2636769573924
 21
511.4844604712506
 31
0.0
  0
LINE
  5
194
330
2
100
AcDbEntity
  8
AM_4
100
AcDbLine
 10
464.2636769573924
 20
511.4844604712506
 30
0.0
 11
464.1956389573923
 21
511.4962924712506
 31
0.0
  0
LINE
  5
195
330
2
100
AcDbEntity
  8
AM_4
100
AcDbLine
 10
464.0595629573923
 20
511.5317914712504
 30
0.0
 11
464.1956389573923
 21
511.4962924712506
 31
0.0
  0
LINE
  5
196
330
2
100
AcDbEntity
  8
AM_4
100
AcDbLine
 10
463.9294039573925
 20
511.5791214712506
 30
0.0
 11
464.0595629573923
 21
511.5317914712504
 31
0.0
  0
LINE
  5
197
330
2
100
AcDbEntity
  8
AM_4
100
AcDbLine
 10
463.9294039573925
 20
511.5791214712506
 30
0.0
 11
463.8643239573923
 21
511.6087034712506
 31
0.0
  0
LINE
  5
198
330
2
100
AcDbEntity
  8
AM_4
100
AcDbLine
 10
463.8643239573923
 20
511.6087034712506
 30
0.0
 11
463.8051609573923
 21
511.6382854712504
 31
0.0
  0
LINE
  5
199
330
2
100
AcDbEntity
  8
AM_4
100
AcDbLine
 10
463.8051609573923
 20
511.6382854712504
 30
0.0
 11
463.7430389573923
 21
511.6737834712505
 31
0.0
  0
LINE
  5
19A
330
2
100
AcDbEntity
  8
AM_4
100
AcDbLine
 10
463.7430389573923
 20
511.6737834712505
 30
0.0
 11
463.6868339573923
 21
511.7122394712506
 31
0.0
  0
LINE
  5
19B
330
2
100
AcDbEntity
  8
AM_4
100
AcDbLine
 10
464.4796229573923
 20
511.4696694712505
 30
0.0
 11
464.4796229573923
 21
511.0614424712506
 31
0.0
  0
LINE
  5
19C
330
2
100
AcDbEntity
  8
AM_4
100
AcDbLine
 10
464.4796229573923
 20
511.0614424712506
 30
0.0
 11
464.4796229573923
 21
511.0614424712506
 31
0.0
  0
LINE
  5
19D
330
2
100
AcDbEntity
  8
AM_4
100
AcDbLine
 10
464.4796229573923
 20
511.2655554712506
 30
0.0
 11
464.1512669573923
 21
511.2862624712506
 31
0.0
  0
LINE
  5
19E
330
2
100
AcDbEntity
  8
AM_4
100
AcDbLine
 10
464.1512669573923
 20
511.2862624712506
 30
0.0
 11
463.8613659573923
 21
511.3897984712506
 31
0.0
  0
LINE
  5
19F
330
2
100
AcDbEntity
  8
AM_4
100
AcDbLine
 10
463.8613659573923
 20
511.3897984712506
 30
0.0
 11
463.5714649573923
 21
511.5347494712506
 31
0.0
  0
LINE
  5
1A0
330
2
100
AcDbEntity
  8
AM_4
100
AcDbLine
 10
463.5714649573923
 20
511.5347494712506
 30
0.0
 11
463.3436859573923
 21
511.7418214712507
 31
0.0
  0
LINE
  5
1A1
330
2
100
AcDbEntity
  8
AM_4
100
AcDbLine
 10
463.2963559573923
 20
512.0938434712505
 30
0.0
 11
463.2578989573923
 21
512.1500484712505
 31
0.0
  0
LINE
  5
1A2
330
2
100
AcDbEntity
  8
AM_4
100
AcDbLine
 10
463.5744229573923
 20
511.7921094712507
 30
0.0
 11
463.5211759573923
 21
511.8364824712506
 31
0.0
  0
LINE
  5
1A3
330
2
100
AcDbEntity
  8
AM_4
100
AcDbLine
 10
463.4235569573923
 20
511.9341024712506
 30
0.0
 11
463.5211759573923
 21
511.8364824712506
 31
0.0
  0
LINE
  5
1A4
330
2
100
AcDbEntity
  8
AM_4
100
AcDbLine
 10
463.4235569573923
 20
511.9341024712506
 30
0.0
 11
463.3791839573923
 21
511.9843904712507
 31
0.0
  0
LINE
  5
1A5
330
2
100
AcDbEntity
  8
AM_4
100
AcDbLine
 10
463.3791839573923
 20
511.9843904712507
 30
0.0
 11
463.3377699573923
 21
512.0376374712504
 31
0.0
  0
LINE
  5
1A6
330
2
100
AcDbEntity
  8
AM_4
100
AcDbLine
 10
463.3377699573923
 20
512.0376374712504
 30
0.0
 11
463.2963559573923
 21
512.0938434712505
 31
0.0
  0
LINE
  5
1A7
330
2
100
AcDbEntity
  8
AM_4
100
AcDbLine
 10
463.6276709573923
 20
511.7506954712506
 30
0.0
 11
463.5744229573923
 21
511.7921094712507
 31
0.0
  0
LINE
  5
1A8
330
2
100
AcDbEntity
  8
AM_4
100
AcDbLine
 10
463.2578989573923
 20
512.1500484712505
 30
0.0
 11
463.2224009573923
 21
512.2092114712505
 31
0.0
  0
LINE
  5
1A9
330
2
100
AcDbEntity
  8
AM_4
100
AcDbLine
 10
509.6301629573924
 20
511.7240724712506
 30
0.0
 11
509.6863689573923
 21
511.7921094712507
 31
0.0
  0
LINE
  5
1AA
330
2
100
AcDbEntity
  8
AM_4
100
AcDbLine
 10
509.0148639573923
 20
511.7092814712504
 30
0.0
 11
509.1272749573923
 21
511.7921094712507
 31
0.0
  0
LINE
  5
1AB
330
2
100
AcDbEntity
  8
AM_4
100
AcDbLine
 10
509.5769159573923
 20
511.9696004712506
 30
0.0
 11
509.3698439573923
 21
511.7418214712507
 31
0.0
  0
LINE
  5
1AC
330
2
100
AcDbEntity
  8
AM_4
100
AcDbLine
 10
508.6717159573923
 20
511.1176474712506
 30
0.0
 11
508.7604619573923
 21
511.1442704712506
 31
0.0
  0
LINE
  5
1AD
330
2
100
AcDbEntity
  8
AM_4
100
AcDbLine
 10
508.7604619573923
 20
511.1442704712506
 30
0.0
 11
508.8462479573923
 21
511.1738524712506
 31
0.0
  0
LINE
  5
1AE
330
2
100
AcDbEntity
  8
AM_4
100
AcDbLine
 10
508.8462479573923
 20
511.1738524712506
 30
0.0
 11
508.9290769573923
 21
511.2034344712506
 31
0.0
  0
LINE
  5
1AF
330
2
100
AcDbEntity
  8
AM_4
100
AcDbLine
 10
508.9290769573923
 20
511.2034344712506
 30
0.0
 11
509.0119059573923
 21
511.2418904712505
 31
0.0
  0
LINE
  5
1B0
330
2
100
AcDbEntity
  8
AM_4
100
AcDbLine
 10
509.0119059573923
 20
511.2418904712505
 30
0.0
 11
509.0888179573923
 21
511.2803464712506
 31
0.0
  0
LINE
  5
1B1
330
2
100
AcDbEntity
  8
AM_4
100
AcDbLine
 10
509.0888179573923
 20
511.2803464712506
 30
0.0
 11
509.1657309573923
 21
511.3247194712505
 31
0.0
  0
LINE
  5
1B2
330
2
100
AcDbEntity
  8
AM_4
100
AcDbLine
 10
509.1657309573923
 20
511.3247194712505
 30
0.0
 11
509.2426429573923
 21
511.3720494712506
 31
0.0
  0
LINE
  5
1B3
330
2
100
AcDbEntity
  8
AM_4
100
AcDbLine
 10
509.2426429573923
 20
511.3720494712506
 30
0.0
 11
509.3136389573923
 21
511.4223384712507
 31
0.0
  0
LINE
  5
1B4
330
2
100
AcDbEntity
  8
AM_4
100
AcDbLine
 10
509.3136389573923
 20
511.4223384712507
 30
0.0
 11
509.3846349573923
 21
511.4755854712505
 31
0.0
  0
LINE
  5
1B5
330
2
100
AcDbEntity
  8
AM_4
100
AcDbLine
 10
509.3846349573923
 20
511.4755854712505
 30
0.0
 11
509.5147949573923
 21
511.5939124712506
 31
0.0
  0
LINE
  5
1B6
330
2
100
AcDbEntity
  8
AM_4
100
AcDbLine
 10
509.5147949573923
 20
511.5939124712506
 30
0.0
 11
509.5739579573923
 21
511.6560344712507
 31
0.0
  0
LINE
  5
1B7
330
2
100
AcDbEntity
  8
AM_4
100
AcDbLine
 10
509.5739579573923
 20
511.6560344712507
 30
0.0
 11
509.6301629573924
 21
511.7240724712506
 31
0.0
  0
LINE
  5
1B8
330
2
100
AcDbEntity
  8
AM_4
100
AcDbLine
 10
509.0148639573923
 20
511.7092814712504
 30
0.0
 11
508.9586589573923
 21
511.6737834712505
 31
0.0
  0
LINE
  5
1B9
330
2
100
AcDbEntity
  8
AM_4
100
AcDbLine
 10
508.9586589573923
 20
511.6737834712505
 30
0.0
 11
508.8994959573923
 21
511.6382854712504
 31
0.0
  0
LINE
  5
1BA
330
2
100
AcDbEntity
  8
AM_4
100
AcDbLine
 10
508.8994959573923
 20
511.6382854712504
 30
0.0
 11
508.8373739573923
 21
511.6087034712506
 31
0.0
  0
LINE
  5
1BB
330
2
100
AcDbEntity
  8
AM_4
100
AcDbLine
 10
508.8373739573923
 20
511.6087034712506
 30
0.0
 11
508.7722939573922
 21
511.5791214712506
 31
0.0
  0
LINE
  5
1BC
330
2
100
AcDbEntity
  8
AM_4
100
AcDbLine
 10
508.6421349573923
 20
511.5317914712504
 30
0.0
 11
508.7722939573922
 21
511.5791214712506
 31
0.0
  0
LINE
  5
1BD
330
2
100
AcDbEntity
  8
AM_4
100
AcDbLine
 10
508.6421349573923
 20
511.5317914712504
 30
0.0
 11
508.5740969573923
 21
511.5140414712506
 31
0.0
  0
LINE
  5
1BE
330
2
100
AcDbEntity
  8
AM_4
100
AcDbLine
 10
509.3698439573923
 20
511.7418214712507
 30
0.0
 11
509.1213579573923
 21
511.5347494712506
 31
0.0
  0
LINE
  5
1BF
330
2
100
AcDbEntity
  8
AM_4
100
AcDbLine
 10
509.1213579573923
 20
511.5347494712506
 30
0.0
 11
508.8521649573923
 21
511.3897984712506
 31
0.0
  0
LINE
  5
1C0
330
2
100
AcDbEntity
  8
AM_4
100
AcDbLine
 10
508.8521649573923
 20
511.3897984712506
 30
0.0
 11
508.5415569573923
 21
511.2862624712506
 31
0.0
  0
LINE
  5
1C1
330
2
100
AcDbEntity
  8
AM_4
100
AcDbLine
 10
510.0502229573923
 20
512.8777584712507
 30
0.0
 11
510.0502229573923
 21
512.8777584712507
 31
0.0
  0
LINE
  5
1C2
330
2
100
AcDbEntity
  8
AM_4
100
AcDbLine
 10
509.9052729573923
 20
512.1707554712505
 30
0.0
 11
509.9378129573923
 21
512.2535844712506
 31
0.0
  0
LINE
  5
1C3
330
2
100
AcDbEntity
  8
AM_4
100
AcDbLine
 10
509.9378129573923
 20
512.2535844712506
 30
0.0
 11
509.9673949573923
 21
512.3393714712506
 31
0.0
  0
LINE
  5
1C4
330
2
100
AcDbEntity
  8
AM_4
100
AcDbLine
 10
509.9673949573923
 20
512.3393714712506
 30
0.0
 11
509.9910599573923
 21
512.4251584712506
 31
0.0
  0
LINE
  5
1C5
330
2
100
AcDbEntity
  8
AM_4
100
AcDbLine
 10
509.9910599573923
 20
512.4251584712506
 30
0.0
 11
510.0117669573923
 21
512.5139034712506
 31
0.0
  0
LINE
  5
1C6
330
2
100
AcDbEntity
  8
AM_4
100
AcDbLine
 10
510.0117669573923
 20
512.5139034712506
 30
0.0
 11
510.0295159573923
 21
512.6026484712506
 31
0.0
  0
LINE
  5
1C7
330
2
100
AcDbEntity
  8
AM_4
100
AcDbLine
 10
510.0295159573923
 20
512.6026484712506
 30
0.0
 11
510.0472649573923
 21
512.7860544712506
 31
0.0
  0
LINE
  5
1C8
330
2
100
AcDbEntity
  8
AM_4
100
AcDbLine
 10
510.0472649573923
 20
512.7860544712506
 30
0.0
 11
510.0502229573923
 21
512.8777584712507
 31
0.0
  0
LINE
  5
1C9
330
2
100
AcDbEntity
  8
AM_4
100
AcDbLine
 10
510.0502229573923
 20
512.8777584712507
 30
0.0
 11
509.6419959573923
 21
512.8777584712507
 31
0.0
  0
LINE
  5
1CA
330
2
100
AcDbEntity
  8
AM_4
100
AcDbLine
 10
509.6419959573923
 20
512.8067624712506
 30
0.0
 11
509.6360799573923
 21
512.7357654712506
 31
0.0
  0
LINE
  5
1CB
330
2
100
AcDbEntity
  8
AM_4
100
AcDbLine
 10
509.6360799573923
 20
512.7357654712506
 30
0.0
 11
509.6272049573923
 21
512.6647694712507
 31
0.0
  0
LINE
  5
1CC
330
2
100
AcDbEntity
  8
AM_4
100
AcDbLine
 10
509.6272049573923
 20
512.6647694712507
 30
0.0
 11
509.6153729573924
 21
512.5937734712506
 31
0.0
  0
LINE
  5
1CD
330
2
100
AcDbEntity
  8
AM_4
100
AcDbLine
 10
509.6153729573924
 20
512.5937734712506
 30
0.0
 11
509.5976239573923
 21
512.5257354712506
 31
0.0
  0
LINE
  5
1CE
330
2
100
AcDbEntity
  8
AM_4
100
AcDbLine
 10
509.5976239573923
 20
512.5257354712506
 30
0.0
 11
509.5798739573923
 21
512.4606564712506
 31
0.0
  0
LINE
  5
1CF
330
2
100
AcDbEntity
  8
AM_4
100
AcDbLine
 10
509.5325439573923
 20
512.3304964712506
 30
0.0
 11
509.5798739573923
 21
512.4606564712506
 31
0.0
  0
LINE
  5
1D0
330
2
100
AcDbEntity
  8
AM_4
100
AcDbLine
 10
509.4733799573925
 20
512.2062534712506
 30
0.0
 11
509.5325439573923
 21
512.3304964712506
 31
0.0
  0
LINE
  5
1D1
330
2
100
AcDbEntity
  8
AM_4
100
AcDbLine
 10
509.4733799573925
 20
512.2062534712506
 30
0.0
 11
509.4378819573923
 21
512.1500484712505
 31
0.0
  0
LINE
  5
1D2
330
2
100
AcDbEntity
  8
AM_4
100
AcDbLine
 10
509.8461099573923
 20
512.8777584712507
 30
0.0
 11
509.8254029573923
 21
512.5494014712507
 31
0.0
  0
LINE
  5
1D3
330
2
100
AcDbEntity
  8
AM_4
100
AcDbLine
 10
509.8254029573923
 20
512.5494014712507
 30
0.0
 11
509.7218669573924
 21
512.2595004712506
 31
0.0
  0
LINE
  5
1D4
330
2
100
AcDbEntity
  8
AM_4
100
AcDbLine
 10
509.8697749573923
 20
512.0908854712507
 30
0.0
 11
509.9052729573923
 21
512.1707554712505
 31
0.0
  0
LINE
  5
1D5
330
2
100
AcDbEntity
  8
AM_4
100
AcDbLine
 10
509.4378819573923
 20
512.1500484712505
 30
0.0
 11
509.4023839573924
 21
512.0908854712507
 31
0.0
  0
LINE
  5
1D6
330
2
100
AcDbEntity
  8
AM_4
100
AcDbLine
 10
509.7218669573924
 20
512.2595004712506
 30
0.0
 11
509.5769159573923
 21
511.9696004712506
 31
0.0
  0
LINE
  5
1D7
330
2
100
AcDbEntity
  8
AM_4
100
AcDbLine
 10
509.6863689573923
 20
511.7921094712507
 30
0.0
 11
509.7366569573924
 21
511.8631054712506
 31
0.0
  0
LINE
  5
1D8
330
2
100
AcDbEntity
  8
AM_4
100
AcDbLine
 10
509.7366569573924
 20
511.8631054712506
 30
0.0
 11
509.7839879573923
 21
511.9370604712506
 31
0.0
  0
LINE
  5
1D9
330
2
100
AcDbEntity
  8
AM_4
100
AcDbLine
 10
509.7839879573923
 20
511.9370604712506
 30
0.0
 11
509.8283609573924
 21
512.0139724712506
 31
0.0
  0
LINE
  5
1DA
330
2
100
AcDbEntity
  8
AM_4
100
AcDbLine
 10
509.8283609573924
 20
512.0139724712506
 30
0.0
 11
509.8697749573923
 21
512.0908854712507
 31
0.0
  0
LINE
  5
1DB
330
2
100
AcDbEntity
  8
AM_4
100
AcDbLine
 10
509.4023839573924
 20
512.0908854712507
 30
0.0
 11
509.3609699573923
 21
512.0376374712504
 31
0.0
  0
LINE
  5
1DC
330
2
100
AcDbEntity
  8
AM_4
100
AcDbLine
 10
509.3609699573923
 20
512.0376374712504
 30
0.0
 11
509.3195559573923
 21
511.9814324712506
 31
0.0
  0
LINE
  5
1DD
330
2
100
AcDbEntity
  8
AM_4
100
AcDbLine
 10
509.3195559573923
 20
511.9814324712506
 30
0.0
 11
509.2751829573924
 21
511.9311434712506
 31
0.0
  0
LINE
  5
1DE
330
2
100
AcDbEntity
  8
AM_4
100
AcDbLine
 10
509.2751829573924
 20
511.9311434712506
 30
0.0
 11
509.2278519573923
 21
511.8838134712506
 31
0.0
  0
LINE
  5
1DF
330
2
100
AcDbEntity
  8
AM_4
100
AcDbLine
 10
509.2278519573923
 20
511.8838134712506
 30
0.0
 11
509.1775629573923
 21
511.8364824712506
 31
0.0
  0
LINE
  5
1E0
330
2
100
AcDbEntity
  8
AM_4
100
AcDbLine
 10
509.1775629573923
 20
511.8364824712506
 30
0.0
 11
509.1272749573923
 21
511.7921094712507
 31
0.0
  0
ARC
  5
1E1
330
2
100
AcDbEntity
  8
AM_4
100
AcDbCircle
 10
508.2340819573923
 20
512.8777584712507
 30
0.0
 40
1.816141999999999
100
AcDbArc
 50
274.5582889999987
 51
0.0
  0
LINE
  5
1E2
330
2
100
AcDbEntity
  8
AM_4
100
AcDbLine
 10
508.4942259573923
 20
511.0821494712507
 30
0.0
 11
508.6717159573923
 21
511.1176474712506
 31
0.0
  0
LINE
  5
1E3
330
2
100
AcDbEntity
  8
AM_4
100
AcDbLine
 10
508.4321049573923
 20
511.4844604712506
 30
0.0
 11
508.5740969573923
 21
511.5140414712506
 31
0.0
  0
LINE
  5
1E4
330
2
100
AcDbEntity
  8
AM_4
100
AcDbLine
 10
508.2131999573923
 20
511.0614424712506
 30
0.0
 11
508.3049029573923
 21
511.0644004712506
 31
0.0
  0
LINE
  5
1E5
330
2
100
AcDbEntity
  8
AM_4
100
AcDbLine
 10
508.3611089573923
 20
511.4755854712505
 30
0.0
 11
508.2871539573924
 21
511.4696694712505
 31
0.0
  0
LINE
  5
1E6
330
2
100
AcDbEntity
  8
AM_4
100
AcDbLine
 10
508.2131999573923
 20
511.0614424712506
 30
0.0
 11
508.2131999573923
 21
511.0614424712506
 31
0.0
  0
LINE
  5
1E7
330
2
100
AcDbEntity
  8
AM_4
100
AcDbLine
 10
508.2131999573923
 20
511.0614424712506
 30
0.0
 11
508.2131999573923
 21
511.4696694712505
 31
0.0
  0
LINE
  5
1E8
330
2
100
AcDbEntity
  8
AM_4
100
AcDbLine
 10
508.3049029573923
 20
511.0644004712506
 30
0.0
 11
508.4942259573923
 21
511.0821494712507
 31
0.0
  0
LINE
  5
1E9
330
2
100
AcDbEntity
  8
AM_4
100
AcDbLine
 10
508.4321049573923
 20
511.4844604712506
 30
0.0
 11
508.3611089573923
 21
511.4755854712505
 31
0.0
  0
ARC
  5
1EA
330
2
100
AcDbEntity
  8
AM_4
100
AcDbCircle
 10
508.2340819573923
 20
512.8777584712507
 30
0.0
 40
1.407913999999998
100
AcDbArc
 50
275.1764690000012
 51
0.0
  0
ARC
  5
1EB
330
2
100
AcDbEntity
  8
AM_4
100
AcDbCircle
 10
508.2340819573923
 20
512.8777584712507
 30
0.0
 40
1.439664999999999
100
AcDbArc
 50
275.1191170000013
 51
0.0
  0
LINE
  5
1EC
330
2
100
AcDbEntity
  8
AM_4
100
AcDbLine
 10
508.5415569573923
 20
511.2862624712506
 30
0.0
 11
508.2131999573923
 21
511.2655554712506
 31
0.0
  0
LINE
  5
1ED
330
2
100
AcDbEntity
  8
AM_4
100
AcDbLine
 10
493.5574619573923
 20
520.8913604712506
 30
0.0
 11
493.2613499573923
 21
520.9721184712504
 31
0.0
  0
LINE
  5
1EE
330
2
100
AcDbEntity
  8
AM_4
100
AcDbLine
 10
492.9113979573923
 20
523.2564164712506
 30
0.0
 11
493.6113009573923
 21
523.2025774712504
 31
0.0
  0
LINE
  5
1EF
330
2
100
AcDbEntity
  8
AM_4
100
AcDbLine
 10
491.3539219573923
 20
518.4955384712504
 30
0.0
 11
493.9612529573923
 21
520.6760054712506
 31
0.0
  0
LINE
  5
1F0
330
2
100
AcDbEntity
  8
AM_4
100
AcDbLine
 10
493.6651399573923
 20
514.5422414712506
 30
0.0
 11
493.2075109573923
 21
514.5422414712506
 31
0.0
  0
LINE
  5
1F1
330
2
100
AcDbEntity
  8
AM_4
100
AcDbLine
 10
493.5036239573923
 20
516.8303854712505
 30
0.0
 11
494.0420109573923
 21
516.8303854712505
 31
0.0
  0
LINE
  5
1F2
330
2
100
AcDbEntity
  8
AM_4
100
AcDbLine
 10
464.4086269573923
 20
528.5619724712505
 30
0.0
 11
508.2871539573924
 21
528.5619724712505
 31
0.0
  0
LINE
  5
1F3
330
2
100
AcDbEntity
  8
AM_4
100
AcDbLine
 10
464.4796229573923
 20
528.7660864712505
 30
0.0
 11
508.2131999573923
 21
528.7660864712505
 31
0.0
  0
LINE
  5
1F4
330
2
100
AcDbEntity
  8
AM_4
100
AcDbLine
 10
464.4796229573923
 20
528.9701994712506
 30
0.0
 11
508.2131999573923
 21
528.9701994712506
 31
0.0
  0
LINE
  5
1F5
330
2
100
AcDbEntity
  8
AM_4
100
AcDbLine
 10
464.4796229573923
 20
528.5937234712506
 30
0.0
 11
508.2131999573923
 21
528.5937234712506
 31
0.0
  0
HATCH
  5
1F6
330
2
100
AcDbEntity
  8
AM_4
100
AcDbHatch
 10
0.0
 20
0.0
 30
0.0
210
0.0
220
0.0
230
1.0
  2
SOLID
 70
     1
 71
     0
 91
        8
 92
        7
 72
     0
 73
     1
 93
       23
 10
470.4837408387723
 20
520.0030218911091
 10
470.5375795224263
 20
520.2991346512048
 10
470.6452568897326
 20
520.5144893858196
 10
470.8067729406938
 20
520.6760054367797
 10
470.9682889916565
 20
520.8106021459155
 10
471.2913210935773
 20
520.891360171396
 10
471.4528371445402
 20
520.918279513223
 10
471.7489499046363
 20
520.918279513223
 10
471.7489499046363
 20
523.1487392645939
 10
470.7798535988676
 20
523.1487392645939
 10
470.2414667623306
 20
523.1218199227669
 10
469.7838379512734
 20
523.0679812391131
 10
469.4069671656936
 20
522.9333845299789
 10
469.0570157219466
 20
522.7987878208441
 10
468.791667923937
 20
522.610352428058
 10
468.5493938474983
 20
522.4219170352689
 10
468.3609584547099
 20
522.2065623006528
 10
468.1994424037484
 20
521.9912075660371
 10
468.0110070109601
 20
521.5374243752413
 10
467.9033296436527
 20
521.1605535896653
 10
467.8764103018246
 20
520.8106021459168
 10
467.8764103018246
 20
514.6499184878191
 10
470.4837408387723
 20
514.6499184878191
 97
        0
 92
        7
 72
     0
 73
     1
 93
       54
 10
480.0593352886233
 20
520.4337313603388
 10
479.8170612121806
 20
520.9721181968768
 10
479.4671097684306
 20
521.5105050334151
 10
479.0633196410277
 20
521.9642882242107
 10
478.5518521463166
 20
522.3949976934411
 10
477.9865459679521
 20
522.7449491371908
 10
477.3674011059324
 20
523.0141425554593
 10
476.6982631805225
 20
523.2025779482476
 10
475.9983602930235
 20
523.2564166319015
 10
475.4868927983128
 20
523.2294972900745
 10
475.0292639872546
 20
523.1487392645941
 10
474.5985545180245
 20
523.0410618972865
 10
474.1947643906222
 20
522.8795458463245
 10
473.8178936050459
 20
522.6911104535363
 10
473.4948615031228
 20
522.4757557189223
 10
473.1987487430267
 20
522.2065623006526
 10
472.9026359829307
 20
521.9373688823853
 10
472.6642075267516
 20
521.6451017425498
 10
472.4757721339626
 20
521.3220696406265
 10
472.2873367411737
 20
520.9721181968753
 10
472.1527400320401
 20
520.6221667531282
 10
471.9643046392507
 20
519.8953445238007
 10
471.8835466137695
 20
519.1416029526496
 10
471.9104659555982
 20
518.5762967742856
 10
471.991223981078
 20
518.0686748998339
 10
472.1258206902117
 20
517.5841267469508
 10
472.314256083
 20
517.126497935892
 10
472.5296108176165
 20
516.722707808489
 10
472.7718848940566
 20
516.345837022914
 10
473.0641520338908
 20
515.9958855791638
 10
473.3871841358151
 20
515.6728534772407
 10
473.7640549213907
 20
515.4036600589721
 10
474.1409257069638
 20
515.1883053243587
 10
474.544715834372
 20
514.9729505897413
 10
474.9485059617743
 20
514.8114345387802
 10
475.4061347728359
 20
514.7037571714718
 10
475.8368442420627
 20
514.5960798041653
 10
476.2944730531191
 20
514.5422411205117
 10
476.7482562439179
 20
514.5422411205117
 10
477.3674011059324
 20
514.5691604623387
 10
477.9327072842983
 20
514.6499184878191
 10
478.4172554371836
 20
514.7575958551271
 10
478.8479649064125
 20
514.8921925642611
 10
479.4401904266021
 20
515.1613859825298
 10
479.6286258193926
 20
515.2690633498373
 10
479.6286258193926
 20
517.9071588488726
 10
479.0364002991998
 20
517.5033687214696
 10
478.444174779009
 20
517.1803366195468
 10
477.7711912333351
 20
516.9380625431041
 10
477.4481591314146
 20
516.8573045176239
 10
477.1251270294929
 20
516.8303851757971
 10
476.5905858132149
 20
516.8303851757971
 10
476.2137150276393
 20
516.9111432012774
 10
476.0521989766778
 20
516.9380625431045
 97
        0
 92
       22
 72
     0
 73
     1
 93
       15
 10
474.4370384670633
 20
518.4955387488023
 10
474.3562804415827
 20
518.6839741415913
 10
474.3024417579301
 20
518.8993288762004
 10
474.2486030742762
 20
519.1685222944758
 10
474.2755224161022
 20
519.4915543963984
 10
474.3562804415827
 20
519.8415058401474
 10
474.544715834372
 20
520.2183766257243
 10
474.8677479362941
 20
520.5952474113002
 10
475.2446187218691
 20
520.864440829569
 10
475.6484088492737
 20
520.9990375387039
 10
476.0252796348496
 20
521.0259568805304
 10
476.3483117367735
 20
520.9721181968768
 10
476.6444244968687
 20
520.8913601713963
 10
476.8559336112232
 20
520.7836828040885
 10
477.0443690040108
 20
520.6760054367808
 97
        0
 92
        7
 72
     0
 73
     1
 93
       27
 10
483.2319720039339
 20
520.4337313603391
 10
484.3895037024902
 20
520.4337313603391
 10
484.3895037024902
 20
522.4488363770944
 10
483.2319720039339
 20
522.4488363770944
 10
483.2319720039339
 20
523.3371746573815
 10
483.2858106875884
 20
523.6332874174776
 10
483.3934880548946
 20
523.848642152093
 10
483.5550041058588
 20
524.0101582030542
 10
483.7165201568181
 20
524.1447549121889
 10
484.0664716005666
 20
524.2255129376693
 10
484.2010683097022
 20
524.2524322794961
 10
484.4933354495368
 20
524.2524322794961
 10
484.4933354495368
 20
526.3213759799056
 10
483.5280847640298
 20
526.3213759799056
 10
483.0166172693187
 20
526.2944566380788
 10
482.5589884582634
 20
526.2136986125981
 10
482.1551983308616
 20
526.0791019034646
 10
481.8052468871095
 20
525.9445051943296
 10
481.5360534688392
 20
525.7560698015415
 10
481.2937793923979
 20
525.5714800290149
 10
481.1053439996101
 20
525.356125294399
 10
480.9707472904775
 20
525.1407705597852
 10
480.7553925558607
 20
524.7100610905541
 10
480.647715188553
 20
524.3062709631499
 10
480.620795846726
 20
523.9563195193983
 10
480.620795846726
 20
514.6768378296461
 10
483.2319720039339
 20
514.6768378296461
 97
        0
 92
        7
 72
     0
 73
     1
 93
        4
 10
488.0736079125138
 20
526.3213759799056
 10
485.3547543879978
 20
526.3213759799056
 10
485.3547543879978
 20
514.6768378296461
 10
488.0736079125138
 20
514.6768378296461
 97
        0
 92
        7
 72
     0
 73
     1
 93
       54
 10
496.9723731964302
 20
520.4337313603388
 10
496.730099119988
 20
520.9721181968773
 10
496.3801476762386
 20
521.5105050334151
 10
495.9763575488358
 20
521.9642882242107
 10
495.4687356743845
 20
522.3949976934412
 10
494.9034294960221
 20
522.74494913719
 10
494.2842846340026
 20
523.0141425554593
 10
493.6113010883298
 20
523.2025779482476
 10
492.9113982008312
 20
523.2564166319015
 10
492.3999307061206
 20
523.2294972900745
 10
491.9461475153223
 20
523.1487392645941
 10
491.5154380460939
 20
523.0410618972863
 10
491.1116479186879
 20
522.8795458463245
 10
490.7347771331131
 20
522.6911104535362
 10
490.4117450311907
 20
522.4757557189214
 10
490.1156322710971
 20
522.2065623006526
 10
489.8195195110012
 20
521.9373688823838
 10
489.6041647763856
 20
521.6451017425491
 10
489.3888100417706
 20
521.3220696406273
 10
489.2003746489813
 20
520.9721181968773
 10
489.0657779398471
 20
520.6221667531282
 10
488.8773425470593
 20
519.8953445238019
 10
488.7965845215773
 20
519.141602952648
 10
488.8235038634046
 20
518.5762967742848
 10
488.9042618888858
 20
518.0686748998343
 10
489.0388585980201
 20
517.5841267469503
 10
489.2272939908091
 20
517.126497935892
 10
489.4426487254246
 20
516.7227078084854
 10
489.6849228018663
 20
516.3458370229128
 10
489.9810355619607
 20
515.9958855791638
 10
490.3309870057109
 20
515.6728534772412
 10
490.6809384494606
 20
515.4036600589718
 10
491.0578092350354
 20
515.1883053243568
 10
491.4615993624405
 20
514.9729505897413
 10
491.8653894898438
 20
514.8114345387804
 10
492.319172680642
 20
514.7037571714718
 10
492.7498821498685
 20
514.5960798041653
 10
493.2075109609271
 20
514.5422411205117
 10
493.6651397719821
 20
514.5422411205117
 10
494.2842846340012
 20
514.5691604623387
 10
494.8495908123681
 20
514.6499184878191
 10
495.3610583070768
 20
514.7575958551263
 10
495.7648484344821
 20
514.892192564261
 10
496.3532283344096
 20
515.1613859825304
 10
496.5416637271996
 20
515.2690633498373
 10
496.5416637272006
 20
517.9071588488723
 10
495.9494382070096
 20
517.5033687214696
 10
495.3610583070784
 20
517.1803366195462
 10
494.6880747614065
 20
516.9380625431048
 10
494.3650426594826
 20
516.8573045176239
 10
494.0420105575602
 20
516.8303851757971
 10
493.503623721023
 20
516.8303851757971
 10
493.1267529354468
 20
516.9111432012778
 10
492.9652368844856
 20
516.9380625431048
 97
        0
 92
       22
 72
     0
 73
     1
 93
       15
 10
491.1654866023439
 20
519.1685222944752
 10
491.1924059441701
 20
519.4915543963976
 10
491.2731639696527
 20
519.8415058401474
 10
491.46159936244
 20
520.2183766257233
 10
491.7846314643638
 20
520.5952474113002
 10
492.1576566296771
 20
520.8644408295691
 10
492.5614467570811
 20
520.9990375387039
 10
492.9383175426574
 20
521.0259568805304
 10
493.2613496445811
 20
520.9721181968768
 10
493.5574624046758
 20
520.8913601713963
 10
493.7728171392917
 20
520.7836828040882
 10
493.9612525320799
 20
520.6760054367808
 10
491.3539219951331
 20
518.4955387488031
 10
491.2731639696527
 20
518.6839741415905
 10
491.2193252859987
 20
518.8993288762015
 97
        0
 92
        7
 72
     0
 73
     1
 93
       66
 10
503.8829528054174
 20
518.8993288762067
 10
503.6675980708028
 20
519.0339255853412
 10
503.4830082982761
 20
519.1416029526484
 10
503.8560334635911
 20
519.38387702909
 10
504.1252268818602
 20
519.7069091310116
 10
504.3405816164759
 20
520.0568605747633
 10
504.4751783256109
 20
520.4068120185123
 10
504.5828556929173
 20
520.9990375387036
 10
504.5828556929173
 20
521.2682309569726
 10
504.5828556929173
 20
523.0679812391131
 10
502.0562831814507
 20
523.0679812391131
 10
502.056283181452
 20
521.5374243752433
 10
502.0293638396243
 20
521.3489889824541
 10
501.9216864723173
 20
520.9721181968775
 10
501.8140091050089
 20
520.7836828040888
 10
501.6255737122204
 20
520.5952474113002
 10
501.3563802939524
 20
520.4606507021658
 10
501.0333481920296
 20
520.4337313603391
 10
500.7103160901062
 20
520.4606507021658
 10
500.4411226718378
 20
520.5952474113002
 10
500.279606620877
 20
520.7567634622613
 10
500.1719292535686
 20
520.9721181968768
 10
500.0911712280884
 20
521.3489889824536
 10
500.0911712280884
 20
521.5105050334146
 10
500.0911712280884
 20
523.0679812391131
 10
497.5107600329676
 20
523.0679812391131
 10
497.5107600329676
 20
521.2413116151451
 10
497.5645987166223
 20
520.6760054367816
 10
497.6991954257557
 20
520.2452959675516
 10
497.8607114767176
 20
519.8684251819742
 10
498.0760662113326
 20
519.5992317637069
 10
498.2914209459488
 20
519.38387702909
 10
498.4529369969098
 20
519.2492803199558
 10
498.6413723896983
 20
519.1416029526484
 10
498.3990983132565
 20
519.0339255853415
 10
498.210662920469
 20
518.8993288762071
 10
497.9145501603714
 20
518.5762967742848
 10
497.6722760839302
 20
518.1994259887073
 10
497.5376793747937
 20
517.8264008233926
 10
497.4300020074873
 20
517.476449379643
 10
497.376163323834
 20
517.1803366195456
 10
497.3492439820065
 20
516.9111432012763
 10
497.3492439820065
 20
514.6768378296461
 10
500.0373325444355
 20
514.6768378296461
 10
500.0373325444342
 20
516.7227078084905
 10
500.0642518862616
 20
516.9380625431077
 10
500.0911712280895
 20
517.1264979358924
 10
500.145009911742
 20
517.3687720123348
 10
500.2796066208757
 20
517.5841267469494
 10
500.4680420136652
 20
517.799481481565
 10
500.7372354319343
 20
517.9340781906996
 10
501.1141062175108
 20
517.9879168743533
 10
501.4640576612593
 20
517.9340781906996
 10
501.7332510795283
 20
517.7994814815646
 10
501.8947671304901
 20
517.5841267469499
 10
502.002444497798
 20
517.341852670509
 10
502.056283181452
 20
517.126497935891
 10
502.0832025232784
 20
516.9111432012778
 10
502.0832025232784
 20
516.7227078084899
 10
502.0832025232784
 20
514.6768378296461
 10
504.7443717438798
 20
514.6768378296461
 10
504.7443717438798
 20
516.9380625431058
 10
504.6905330602258
 20
517.5302880632963
 10
504.5290170092648
 20
518.0148362161791
 10
504.3405816164743
 20
518.3878613814962
 10
504.0983075400337
 20
518.6839741415916
 97
        0
 75
     0
 76
     1
 47
0.04298
 98
        8
 10
469.3161799573925
 20
519.5760294712506
 10
474.6822319573923
 20
517.1569674712506
 10
474.6822319573923
 20
517.1569674712506
 10
482.0474069573923
 20
518.2087324712506
 10
486.8873759573923
 20
518.7346154712506
 10
490.1490949573923
 20
519.2604974712507
 10
490.1490949573923
 20
519.2604974712507
 10
499.4081669573922
 20
518.8397924712505
  0
LINE
  5
1F7
330
2
100
AcDbEntity
  8
AM_4
100
AcDbLine
 10
496.9723729573923
 20
520.4337314712506
 30
0.0
 11
492.9652369573923
 21
516.9380624712506
 31
0.0
  0
LINE
  5
1F8
330
2
100
AcDbEntity
  8
AM_4
100
AcDbLine
 10
469.0570159573923
 20
522.7987874712506
 30
0.0
 11
468.7916679573923
 21
522.6103524712506
 31
0.0
  0
LINE
  5
1F9
330
2
100
AcDbEntity
  8
AM_4
100
AcDbLine
 10
467.8764099573923
 20
514.6499184712507
 30
0.0
 11
470.4837409573923
 21
514.6499184712507
 31
0.0
  0
LINE
  5
1FA
330
2
100
AcDbEntity
  8
AM_4
100
AcDbLine
 10
468.5493939573923
 20
522.4219174712506
 30
0.0
 11
468.3609579573923
 21
522.2065624712506
 31
0.0
  0
LINE
  5
1FB
330
2
100
AcDbEntity
  8
AM_4
100
AcDbLine
 10
468.1994419573923
 20
521.9912074712506
 30
0.0
 11
468.0110069573923
 21
521.5374244712505
 31
0.0
  0
LINE
  5
1FC
330
2
100
AcDbEntity
  8
AM_4
100
AcDbLine
 10
468.0110069573923
 20
521.5374244712505
 30
0.0
 11
467.9033299573923
 21
521.1605534712506
 31
0.0
  0
LINE
  5
1FD
330
2
100
AcDbEntity
  8
AM_4
100
AcDbLine
 10
467.9033299573923
 20
521.1605534712506
 30
0.0
 11
467.8764099573923
 21
520.8106024712504
 31
0.0
  0
LINE
  5
1FE
330
2
100
AcDbEntity
  8
AM_4
100
AcDbLine
 10
468.3609579573923
 20
522.2065624712506
 30
0.0
 11
468.1994419573923
 21
521.9912074712506
 31
0.0
  0
LINE
  5
1FF
330
2
100
AcDbEntity
  8
AM_4
100
AcDbLine
 10
467.8764099573923
 20
520.8106024712504
 30
0.0
 11
467.8764099573923
 21
514.6499184712507
 31
0.0
  0
ARC
  5
200
330
2
100
AcDbEntity
  8
AM_4
100
AcDbCircle
 10
464.4796229573923
 20
527.1331764712506
 30
0.0
 40
1.428795999999999
100
AcDbArc
 50
90.0
 51
180.0
  0
ARC
  5
201
330
2
100
AcDbEntity
  8
AM_4
100
AcDbCircle
 10
464.4796229573923
 20
527.1331764712506
 30
0.0
 40
1.837022999999999
100
AcDbArc
 50
90.0
 51
180.0
  0
ARC
  5
202
330
2
100
AcDbEntity
  8
AM_4
100
AcDbCircle
 10
464.4796229573923
 20
527.1331764712506
 30
0.0
 40
1.460545999999999
100
AcDbArc
 50
90.0
 51
180.0
  0
LINE
  5
203
330
2
100
AcDbEntity
  8
AM_4
100
AcDbLine
 10
462.6425999573923
 20
527.1331764712506
 30
0.0
 11
463.0508279573923
 21
527.1331764712506
 31
0.0
  0
LINE
  5
204
330
2
100
AcDbEntity
  8
AM_4
100
AcDbLine
 10
462.7905089573923
 20
527.8431374712506
 30
0.0
 11
462.7579689573923
 21
527.7603084712506
 31
0.0
  0
LINE
  5
205
330
2
100
AcDbEntity
  8
AM_4
100
AcDbLine
 10
462.6544329573923
 20
527.3165834712506
 30
0.0
 11
462.6455579573923
 21
527.2248794712505
 31
0.0
  0
LINE
  5
206
330
2
100
AcDbEntity
  8
AM_4
100
AcDbLine
 10
462.6425999573923
 20
527.1331764712506
 30
0.0
 11
462.6425999573923
 21
527.1331764712506
 31
0.0
  0
LINE
  5
207
330
2
100
AcDbEntity
  8
AM_4
100
AcDbLine
 10
462.6455579573923
 20
527.2248794712505
 30
0.0
 11
462.6425999573923
 21
527.1331764712506
 31
0.0
  0
LINE
  5
208
330
2
100
AcDbEntity
  8
AM_4
100
AcDbLine
 10
462.7579689573923
 20
527.7603084712506
 30
0.0
 11
462.7283869573923
 21
527.6745214712506
 31
0.0
  0
LINE
  5
209
330
2
100
AcDbEntity
  8
AM_4
100
AcDbLine
 10
462.7283869573923
 20
527.6745214712506
 30
0.0
 11
462.7017639573923
 21
527.5887344712506
 31
0.0
  0
LINE
  5
20A
330
2
100
AcDbEntity
  8
AM_4
100
AcDbLine
 10
462.7017639573923
 20
527.5887344712506
 30
0.0
 11
462.6810559573923
 21
527.4999894712506
 31
0.0
  0
LINE
  5
20B
330
2
100
AcDbEntity
  8
AM_4
100
AcDbLine
 10
462.6810559573923
 20
527.4999894712506
 30
0.0
 11
462.6662649573923
 21
527.4082864712505
 31
0.0
  0
LINE
  5
20C
330
2
100
AcDbEntity
  8
AM_4
100
AcDbLine
 10
462.6662649573923
 20
527.4082864712505
 30
0.0
 11
462.6544329573923
 21
527.3165834712506
 31
0.0
  0
LINE
  5
20D
330
2
100
AcDbEntity
  8
AM_4
100
AcDbLine
 10
463.0567439573924
 20
527.2751684712504
 30
0.0
 11
463.0656179573923
 21
527.3461644712506
 31
0.0
  0
LINE
  5
20E
330
2
100
AcDbEntity
  8
AM_4
100
AcDbLine
 10
462.8467139573923
 20
527.1331764712506
 30
0.0
 11
462.8881279573923
 21
527.4615334712506
 31
0.0
  0
LINE
  5
20F
330
2
100
AcDbEntity
  8
AM_4
100
AcDbLine
 10
463.0508279573923
 20
527.2041724712505
 30
0.0
 11
463.0567439573924
 21
527.2751684712504
 31
0.0
  0
LINE
  5
210
330
2
100
AcDbEntity
  8
AM_4
100
AcDbLine
 10
463.2490249573923
 20
528.4880184712505
 30
0.0
 11
463.1869029573923
 21
528.4258964712506
 31
0.0
  0
LINE
  5
211
330
2
100
AcDbEntity
  8
AM_4
100
AcDbLine
 10
463.1928199573923
 20
527.7455174712506
 30
0.0
 11
463.2253599573923
 21
527.8076394712505
 31
0.0
  0
LINE
  5
212
330
2
100
AcDbEntity
  8
AM_4
100
AcDbLine
 10
463.1366139573923
 20
528.0413344712505
 30
0.0
 11
463.3436859573923
 21
528.2898204712506
 31
0.0
  0
LINE
  5
213
330
2
100
AcDbEntity
  8
AM_4
100
AcDbLine
 10
463.1869029573923
 20
528.4258964712506
 30
0.0
 11
463.1247819573923
 21
528.3608164712505
 31
0.0
  0
LINE
  5
214
330
2
100
AcDbEntity
  8
AM_4
100
AcDbLine
 10
463.1247819573923
 20
528.3608164712505
 30
0.0
 11
463.0685769573923
 21
528.2957374712506
 31
0.0
  0
LINE
  5
215
330
2
100
AcDbEntity
  8
AM_4
100
AcDbLine
 10
463.0685769573923
 20
528.2957374712506
 30
0.0
 11
463.0123709573925
 21
528.2247414712506
 31
0.0
  0
LINE
  5
216
330
2
100
AcDbEntity
  8
AM_4
100
AcDbLine
 10
463.0123709573925
 20
528.2247414712506
 30
0.0
 11
462.9620819573923
 21
528.1537454712506
 31
0.0
  0
LINE
  5
217
330
2
100
AcDbEntity
  8
AM_4
100
AcDbLine
 10
462.9620819573923
 20
528.1537454712506
 30
0.0
 11
462.9117939573923
 21
528.0797904712506
 31
0.0
  0
LINE
  5
218
330
2
100
AcDbEntity
  8
AM_4
100
AcDbLine
 10
462.9117939573923
 20
528.0797904712506
 30
0.0
 11
462.8674209573923
 21
528.0028784712506
 31
0.0
  0
LINE
  5
219
330
2
100
AcDbEntity
  8
AM_4
100
AcDbLine
 10
462.8674209573923
 20
528.0028784712506
 30
0.0
 11
462.8260069573923
 21
527.9230074712505
 31
0.0
  0
LINE
  5
21A
330
2
100
AcDbEntity
  8
AM_4
100
AcDbLine
 10
462.8260069573923
 20
527.9230074712505
 30
0.0
 11
462.7905089573923
 21
527.8431374712506
 31
0.0
  0
LINE
  5
21B
330
2
100
AcDbEntity
  8
AM_4
100
AcDbLine
 10
463.0656179573923
 20
527.3461644712506
 30
0.0
 11
463.0804089573923
 21
527.4171604712505
 31
0.0
  0
LINE
  5
21C
330
2
100
AcDbEntity
  8
AM_4
100
AcDbLine
 10
463.0804089573923
 20
527.4171604712505
 30
0.0
 11
463.0951999573923
 21
527.4851984712507
 31
0.0
  0
LINE
  5
21D
330
2
100
AcDbEntity
  8
AM_4
100
AcDbLine
 10
463.0951999573923
 20
527.4851984712507
 30
0.0
 11
463.1159069573923
 21
527.5502784712506
 31
0.0
  0
LINE
  5
21E
330
2
100
AcDbEntity
  8
AM_4
100
AcDbLine
 10
463.1159069573923
 20
527.5502784712506
 30
0.0
 11
463.1366139573923
 21
527.6183164712506
 31
0.0
  0
LINE
  5
21F
330
2
100
AcDbEntity
  8
AM_4
100
AcDbLine
 10
463.1366139573923
 20
527.6183164712506
 30
0.0
 11
463.1632379573924
 21
527.6833964712506
 31
0.0
  0
LINE
  5
220
330
2
100
AcDbEntity
  8
AM_4
100
AcDbLine
 10
463.1632379573924
 20
527.6833964712506
 30
0.0
 11
463.1928199573923
 21
527.7455174712506
 31
0.0
  0
LINE
  5
221
330
2
100
AcDbEntity
  8
AM_4
100
AcDbLine
 10
462.8881279573923
 20
527.4615334712506
 30
0.0
 11
462.9916639573923
 21
527.7721414712506
 31
0.0
  0
LINE
  5
222
330
2
100
AcDbEntity
  8
AM_4
100
AcDbLine
 10
462.9916639573923
 20
527.7721414712506
 30
0.0
 11
463.1366139573923
 21
528.0413344712505
 31
0.0
  0
LINE
  5
223
330
2
100
AcDbEntity
  8
AM_4
100
AcDbLine
 10
464.4796229573923
 20
528.9701994712506
 30
0.0
 11
464.3879199573923
 21
528.9672414712506
 31
0.0
  0
LINE
  5
224
330
2
100
AcDbEntity
  8
AM_4
100
AcDbLine
 10
464.3879199573923
 20
528.9672414712506
 30
0.0
 11
464.2962169573923
 21
528.9583674712506
 31
0.0
  0
LINE
  5
225
330
2
100
AcDbEntity
  8
AM_4
100
AcDbLine
 10
464.2962169573923
 20
528.9583674712506
 30
0.0
 11
464.2045139573923
 21
528.9465344712506
 31
0.0
  0
LINE
  5
226
330
2
100
AcDbEntity
  8
AM_4
100
AcDbLine
 10
464.2045139573923
 20
528.9465344712506
 30
0.0
 11
464.1128099573923
 21
528.9317434712505
 31
0.0
  0
LINE
  5
227
330
2
100
AcDbEntity
  8
AM_4
100
AcDbLine
 10
464.1128099573923
 20
528.9317434712505
 30
0.0
 11
464.0240649573923
 21
528.9110364712505
 31
0.0
  0
LINE
  5
228
330
2
100
AcDbEntity
  8
AM_4
100
AcDbLine
 10
464.0240649573923
 20
528.9110364712505
 30
0.0
 11
463.9382779573923
 21
528.8844124712506
 31
0.0
  0
LINE
  5
229
330
2
100
AcDbEntity
  8
AM_4
100
AcDbLine
 10
463.9382779573923
 20
528.8844124712506
 30
0.0
 11
463.8524909573924
 21
528.8548314712506
 31
0.0
  0
LINE
  5
22A
330
2
100
AcDbEntity
  8
AM_4
100
AcDbLine
 10
463.8524909573924
 20
528.8548314712506
 30
0.0
 11
463.7696629573923
 21
528.8222914712506
 31
0.0
  0
LINE
  5
22B
330
2
100
AcDbEntity
  8
AM_4
100
AcDbLine
 10
463.7696629573923
 20
528.8222914712506
 30
0.0
 11
463.6897919573923
 21
528.7867934712505
 31
0.0
  0
LINE
  5
22C
330
2
100
AcDbEntity
  8
AM_4
100
AcDbLine
 10
463.6897919573923
 20
528.7867934712505
 30
0.0
 11
463.6099219573924
 21
528.7453784712506
 31
0.0
  0
LINE
  5
22D
330
2
100
AcDbEntity
  8
AM_4
100
AcDbLine
 10
463.6099219573924
 20
528.7453784712506
 30
0.0
 11
463.5330089573923
 21
528.7010064712506
 31
0.0
  0
LINE
  5
22E
330
2
100
AcDbEntity
  8
AM_4
100
AcDbLine
 10
463.5330089573923
 20
528.7010064712506
 30
0.0
 11
463.4590549573923
 21
528.6507174712506
 31
0.0
  0
LINE
  5
22F
330
2
100
AcDbEntity
  8
AM_4
100
AcDbLine
 10
463.4590549573923
 20
528.6507174712506
 30
0.0
 11
463.3880589573923
 21
528.6004284712507
 31
0.0
  0
LINE
  5
230
330
2
100
AcDbEntity
  8
AM_4
100
AcDbLine
 10
463.3880589573923
 20
528.6004284712507
 30
0.0
 11
463.3170629573923
 21
528.5442234712506
 31
0.0
  0
LINE
  5
231
330
2
100
AcDbEntity
  8
AM_4
100
AcDbLine
 10
463.3170629573923
 20
528.5442234712506
 30
0.0
 11
463.2490249573923
 21
528.4880184712505
 31
0.0
  0
LINE
  5
232
330
2
100
AcDbEntity
  8
AM_4
100
AcDbLine
 10
463.2253599573923
 20
527.8076394712505
 30
0.0
 11
463.2963559573923
 21
527.9259654712506
 31
0.0
  0
LINE
  5
233
330
2
100
AcDbEntity
  8
AM_4
100
AcDbLine
 10
463.2963559573923
 20
527.9259654712506
 30
0.0
 11
463.3377699573923
 21
527.9821714712506
 31
0.0
  0
LINE
  5
234
330
2
100
AcDbEntity
  8
AM_4
100
AcDbLine
 10
463.3377699573923
 20
527.9821714712506
 30
0.0
 11
463.3791839573923
 21
528.0354184712506
 31
0.0
  0
LINE
  5
235
330
2
100
AcDbEntity
  8
AM_4
100
AcDbLine
 10
463.3791839573923
 20
528.0354184712506
 30
0.0
 11
463.4265149573923
 21
528.0886654712507
 31
0.0
  0
LINE
  5
236
330
2
100
AcDbEntity
  8
AM_4
100
AcDbLine
 10
463.4265149573923
 20
528.0886654712507
 30
0.0
 11
463.4738459573923
 21
528.1389544712506
 31
0.0
  0
LINE
  5
237
330
2
100
AcDbEntity
  8
AM_4
100
AcDbLine
 10
463.4738459573923
 20
528.1389544712506
 30
0.0
 11
463.5241349573923
 21
528.1862844712505
 31
0.0
  0
LINE
  5
238
330
2
100
AcDbEntity
  8
AM_4
100
AcDbLine
 10
463.5241349573923
 20
528.1862844712505
 30
0.0
 11
463.6306289573923
 21
528.2750294712506
 31
0.0
  0
LINE
  5
239
330
2
100
AcDbEntity
  8
AM_4
100
AcDbLine
 10
463.6306289573923
 20
528.2750294712506
 30
0.0
 11
463.6868339573923
 21
528.3164444712506
 31
0.0
  0
LINE
  5
23A
330
2
100
AcDbEntity
  8
AM_4
100
AcDbLine
 10
463.6868339573923
 20
528.3164444712506
 30
0.0
 11
463.8051609573923
 21
528.3874404712507
 31
0.0
  0
LINE
  5
23B
330
2
100
AcDbEntity
  8
AM_4
100
AcDbLine
 10
463.8051609573923
 20
528.3874404712507
 30
0.0
 11
463.8672819573923
 21
528.4199804712506
 31
0.0
  0
LINE
  5
23C
330
2
100
AcDbEntity
  8
AM_4
100
AcDbLine
 10
463.8672819573923
 20
528.4199804712506
 30
0.0
 11
463.9294039573925
 21
528.4495614712506
 31
0.0
  0
LINE
  5
23D
330
2
100
AcDbEntity
  8
AM_4
100
AcDbLine
 10
463.9294039573925
 20
528.4495614712506
 30
0.0
 11
464.0595629573923
 21
528.4968924712505
 31
0.0
  0
LINE
  5
23E
330
2
100
AcDbEntity
  8
AM_4
100
AcDbLine
 10
464.0595629573923
 20
528.4968924712505
 30
0.0
 11
464.1276009573923
 21
528.5175994712504
 31
0.0
  0
LINE
  5
23F
330
2
100
AcDbEntity
  8
AM_4
100
AcDbLine
 10
464.1276009573923
 20
528.5175994712504
 30
0.0
 11
464.1956389573923
 21
528.5323904712506
 31
0.0
  0
LINE
  5
240
330
2
100
AcDbEntity
  8
AM_4
100
AcDbLine
 10
464.1956389573923
 20
528.5323904712506
 30
0.0
 11
464.2666349573923
 21
528.5471814712506
 31
0.0
  0
LINE
  5
241
330
2
100
AcDbEntity
  8
AM_4
100
AcDbLine
 10
464.2666349573923
 20
528.5471814712506
 30
0.0
 11
464.3376309573922
 21
528.5560564712506
 31
0.0
  0
LINE
  5
242
330
2
100
AcDbEntity
  8
AM_4
100
AcDbLine
 10
464.3376309573922
 20
528.5560564712506
 30
0.0
 11
464.4086269573923
 21
528.5619724712505
 31
0.0
  0
LINE
  5
243
330
2
100
AcDbEntity
  8
AM_4
100
AcDbLine
 10
464.4796229573923
 20
528.9701994712506
 30
0.0
 11
464.4796229573923
 21
528.9701994712506
 31
0.0
  0
LINE
  5
244
330
2
100
AcDbEntity
  8
AM_4
100
AcDbLine
 10
464.4796229573923
 20
528.9701994712506
 30
0.0
 11
464.4796229573923
 21
528.5619724712505
 31
0.0
  0
LINE
  5
245
330
2
100
AcDbEntity
  8
AM_4
100
AcDbLine
 10
463.3436859573923
 20
528.2898204712506
 30
0.0
 11
463.5714649573923
 21
528.4761854712505
 31
0.0
  0
LINE
  5
246
330
2
100
AcDbEntity
  8
AM_4
100
AcDbLine
 10
463.5714649573923
 20
528.4761854712505
 30
0.0
 11
463.8613659573923
 21
528.6418424712507
 31
0.0
  0
LINE
  5
247
330
2
100
AcDbEntity
  8
AM_4
100
AcDbLine
 10
463.8613659573923
 20
528.6418424712507
 30
0.0
 11
464.1512669573923
 21
528.7246714712506
 31
0.0
  0
LINE
  5
248
330
2
100
AcDbEntity
  8
AM_4
100
AcDbLine
 10
464.1512669573923
 20
528.7246714712506
 30
0.0
 11
464.4796229573923
 21
528.7660864712505
 31
0.0
  0
LINE
  5
249
330
2
100
AcDbEntity
  8
AM_4
100
AcDbLine
 10
464.4796229573923
 20
528.7660864712505
 30
0.0
 11
464.4796229573923
 21
528.7660864712505
 31
0.0
  0
LINE
  5
24A
330
2
100
AcDbEntity
  8
AM_4
100
AcDbLine
 10
468.7916679573923
 20
522.6103524712506
 30
0.0
 11
468.5493939573923
 21
522.4219174712506
 31
0.0
  0
LINE
  5
24B
330
2
100
AcDbEntity
  8
AM_4
100
AcDbLine
 10
481.1053439573923
 20
525.3561254712506
 30
0.0
 11
481.2937789573923
 21
525.5714804712506
 31
0.0
  0
LINE
  5
24C
330
2
100
AcDbEntity
  8
AM_4
100
AcDbLine
 10
483.2319719573924
 20
514.6768374712507
 30
0.0
 11
480.6207959573923
 21
514.6768374712507
 31
0.0
  0
LINE
  5
24D
330
2
100
AcDbEntity
  8
AM_4
100
AcDbLine
 10
478.5518519573923
 20
522.3949974712505
 30
0.0
 11
479.0633199573924
 21
521.9642884712506
 31
0.0
  0
LINE
  5
24E
330
2
100
AcDbEntity
  8
AM_4
100
AcDbLine
 10
472.9026359573923
 20
521.9373684712506
 30
0.0
 11
473.4948619573923
 21
522.4757554712506
 31
0.0
  0
LINE
  5
24F
330
2
100
AcDbEntity
  8
AM_4
100
AcDbLine
 10
471.7489499573924
 20
520.9182794712505
 30
0.0
 11
471.7489499573924
 21
523.1487394712505
 31
0.0
  0
LINE
  5
250
330
2
100
AcDbEntity
  8
AM_4
100
AcDbLine
 10
480.6207959573923
 20
514.6768374712507
 30
0.0
 11
480.6207959573923
 21
523.9563194712506
 31
0.0
  0
LINE
  5
251
330
2
100
AcDbEntity
  8
AM_4
100
AcDbLine
 10
475.2446189573923
 20
520.8644404712506
 30
0.0
 11
474.8677479573923
 21
520.5952474712505
 31
0.0
  0
LINE
  5
252
330
2
100
AcDbEntity
  8
AM_4
100
AcDbLine
 10
474.4370389573925
 20
518.4955384712504
 30
0.0
 11
477.0443689573923
 21
520.6760054712506
 31
0.0
  0
LINE
  5
253
330
2
100
AcDbEntity
  8
AM_4
100
AcDbLine
 10
475.4061349573923
 20
514.7037574712506
 30
0.0
 11
474.9485059573923
 21
514.8114344712507
 31
0.0
  0
LINE
  5
254
330
2
100
AcDbEntity
  8
AM_4
100
AcDbLine
 10
471.9643049573924
 20
519.8953444712506
 30
0.0
 11
472.1527399573923
 21
520.6221664712505
 31
0.0
  0
LINE
  5
255
330
2
100
AcDbEntity
  8
AM_4
100
AcDbLine
 10
472.1527399573923
 20
520.6221664712505
 30
0.0
 11
472.2873369573924
 21
520.9721184712504
 31
0.0
  0
LINE
  5
256
330
2
100
AcDbEntity
  8
AM_4
100
AcDbLine
 10
472.2873369573924
 20
520.9721184712504
 30
0.0
 11
472.4757719573923
 21
521.3220694712506
 31
0.0
  0
LINE
  5
257
330
2
100
AcDbEntity
  8
AM_4
100
AcDbLine
 10
472.4757719573923
 20
521.3220694712506
 30
0.0
 11
472.6642079573923
 21
521.6451014712506
 31
0.0
  0
LINE
  5
258
330
2
100
AcDbEntity
  8
AM_4
100
AcDbLine
 10
472.6642079573923
 20
521.6451014712506
 30
0.0
 11
472.9026359573923
 21
521.9373684712506
 31
0.0
  0
LINE
  5
259
330
2
100
AcDbEntity
  8
AM_4
100
AcDbLine
 10
474.8677479573923
 20
520.5952474712505
 30
0.0
 11
474.5447159573923
 21
520.2183764712506
 31
0.0
  0
LINE
  5
25A
330
2
100
AcDbEntity
  8
AM_4
100
AcDbLine
 10
474.5447159573923
 20
520.2183764712506
 30
0.0
 11
474.3562799573923
 21
519.8415054712507
 31
0.0
  0
LINE
  5
25B
330
2
100
AcDbEntity
  8
AM_4
100
AcDbLine
 10
474.3562799573923
 20
519.8415054712507
 30
0.0
 11
474.2755219573925
 21
519.4915544712507
 31
0.0
  0
LINE
  5
25C
330
2
100
AcDbEntity
  8
AM_4
100
AcDbLine
 10
471.4528369573923
 20
520.9182794712505
 30
0.0
 11
471.7489499573924
 21
520.9182794712505
 31
0.0
  0
LINE
  5
25D
330
2
100
AcDbEntity
  8
AM_4
100
AcDbLine
 10
471.9912239573923
 20
518.0686744712505
 30
0.0
 11
471.9104659573924
 21
518.5762964712506
 31
0.0
  0
LINE
  5
25E
330
2
100
AcDbEntity
  8
AM_4
100
AcDbLine
 10
471.9104659573924
 20
518.5762964712506
 30
0.0
 11
471.8835469573924
 21
519.1416024712506
 31
0.0
  0
LINE
  5
25F
330
2
100
AcDbEntity
  8
AM_4
100
AcDbLine
 10
474.2486029573923
 20
519.1685224712506
 30
0.0
 11
474.3024419573925
 21
518.8993284712505
 31
0.0
  0
LINE
  5
260
330
2
100
AcDbEntity
  8
AM_4
100
AcDbLine
 10
474.3024419573925
 20
518.8993284712505
 30
0.0
 11
474.3562799573923
 21
518.6839744712506
 31
0.0
  0
LINE
  5
261
330
2
100
AcDbEntity
  8
AM_4
100
AcDbLine
 10
474.3562799573923
 20
518.6839744712506
 30
0.0
 11
474.4370389573925
 21
518.4955384712504
 31
0.0
  0
LINE
  5
262
330
2
100
AcDbEntity
  8
AM_4
100
AcDbLine
 10
474.4370389573925
 20
518.4955384712504
 30
0.0
 11
474.4370389573925
 21
518.4955384712504
 31
0.0
  0
LINE
  5
263
330
2
100
AcDbEntity
  8
AM_4
100
AcDbLine
 10
471.8835469573924
 20
519.1416024712506
 30
0.0
 11
471.9643049573924
 21
519.8953444712506
 31
0.0
  0
LINE
  5
264
330
2
100
AcDbEntity
  8
AM_4
100
AcDbLine
 10
474.2755219573925
 20
519.4915544712507
 30
0.0
 11
474.2486029573923
 21
519.1685224712506
 31
0.0
  0
LINE
  5
265
330
2
100
AcDbEntity
  8
AM_4
100
AcDbLine
 10
470.5375799573923
 20
520.2991344712505
 30
0.0
 11
470.6452569573923
 21
520.5144894712506
 31
0.0
  0
LINE
  5
266
330
2
100
AcDbEntity
  8
AM_4
100
AcDbLine
 10
470.4837409573923
 20
520.0030214712507
 30
0.0
 11
470.5375799573923
 21
520.2991344712505
 31
0.0
  0
LINE
  5
267
330
2
100
AcDbEntity
  8
AM_4
100
AcDbLine
 10
470.4837409573923
 20
520.0030214712507
 30
0.0
 11
470.4837409573923
 21
520.0030214712507
 31
0.0
  0
LINE
  5
268
330
2
100
AcDbEntity
  8
AM_4
100
AcDbLine
 10
470.6452569573923
 20
520.5144894712506
 30
0.0
 11
470.8067729573923
 21
520.6760054712506
 31
0.0
  0
LINE
  5
269
330
2
100
AcDbEntity
  8
AM_4
100
AcDbLine
 10
470.8067729573923
 20
520.6760054712506
 30
0.0
 11
470.9682889573923
 21
520.8106024712504
 31
0.0
  0
LINE
  5
26A
330
2
100
AcDbEntity
  8
AM_4
100
AcDbLine
 10
470.9682889573923
 20
520.8106024712504
 30
0.0
 11
471.2913209573923
 21
520.8913604712506
 31
0.0
  0
LINE
  5
26B
330
2
100
AcDbEntity
  8
AM_4
100
AcDbLine
 10
471.2913209573923
 20
520.8913604712506
 30
0.0
 11
471.4528369573923
 21
520.9182794712505
 31
0.0
  0
LINE
  5
26C
330
2
100
AcDbEntity
  8
AM_4
100
AcDbLine
 10
472.3142559573923
 20
517.1264974712507
 30
0.0
 11
472.1258209573924
 21
517.5841264712507
 31
0.0
  0
LINE
  5
26D
330
2
100
AcDbEntity
  8
AM_4
100
AcDbLine
 10
472.5296109573923
 20
516.7227074712505
 30
0.0
 11
472.3142559573923
 21
517.1264974712507
 31
0.0
  0
LINE
  5
26E
330
2
100
AcDbEntity
  8
AM_4
100
AcDbLine
 10
474.5447159573923
 20
514.9729504712507
 30
0.0
 11
474.1409259573925
 21
515.1883054712506
 31
0.0
  0
LINE
  5
26F
330
2
100
AcDbEntity
  8
AM_4
100
AcDbLine
 10
474.1409259573925
 20
515.1883054712506
 30
0.0
 11
473.7640549573923
 21
515.4036604712506
 31
0.0
  0
LINE
  5
270
330
2
100
AcDbEntity
  8
AM_4
100
AcDbLine
 10
473.7640549573923
 20
515.4036604712506
 30
0.0
 11
473.3871839573922
 21
515.6728534712506
 31
0.0
  0
LINE
  5
271
330
2
100
AcDbEntity
  8
AM_4
100
AcDbLine
 10
473.3871839573922
 20
515.6728534712506
 30
0.0
 11
473.0641519573923
 21
515.9958854712506
 31
0.0
  0
LINE
  5
272
330
2
100
AcDbEntity
  8
AM_4
100
AcDbLine
 10
473.0641519573923
 20
515.9958854712506
 30
0.0
 11
472.7718849573923
 21
516.3458374712506
 31
0.0
  0
LINE
  5
273
330
2
100
AcDbEntity
  8
AM_4
100
AcDbLine
 10
472.7718849573923
 20
516.3458374712506
 30
0.0
 11
472.5296109573923
 21
516.7227074712505
 31
0.0
  0
LINE
  5
274
330
2
100
AcDbEntity
  8
AM_4
100
AcDbLine
 10
474.9485059573923
 20
514.8114344712507
 30
0.0
 11
474.5447159573923
 21
514.9729504712507
 31
0.0
  0
LINE
  5
275
330
2
100
AcDbEntity
  8
AM_4
100
AcDbLine
 10
470.4837409573923
 20
514.6499184712507
 30
0.0
 11
470.4837409573923
 21
520.0030214712507
 31
0.0
  0
LINE
  5
276
330
2
100
AcDbEntity
  8
AM_4
100
AcDbLine
 10
472.1258209573924
 20
517.5841264712507
 30
0.0
 11
471.9912239573923
 21
518.0686744712505
 31
0.0
  0
LINE
  5
277
330
2
100
AcDbEntity
  8
AM_4
100
AcDbLine
 10
479.4671099573923
 20
521.5105054712506
 30
0.0
 11
479.8170609573923
 21
520.9721184712504
 31
0.0
  0
LINE
  5
278
330
2
100
AcDbEntity
  8
AM_4
100
AcDbLine
 10
479.8170609573923
 20
520.9721184712504
 30
0.0
 11
480.0593349573923
 21
520.4337314712506
 31
0.0
  0
LINE
  5
279
330
2
100
AcDbEntity
  8
AM_4
100
AcDbLine
 10
479.0633199573924
 20
521.9642884712506
 30
0.0
 11
479.4671099573923
 21
521.5105054712506
 31
0.0
  0
LINE
  5
27A
330
2
100
AcDbEntity
  8
AM_4
100
AcDbLine
 10
477.0443689573923
 20
520.6760054712506
 30
0.0
 11
476.8559339573925
 21
520.7836824712505
 31
0.0
  0
LINE
  5
27B
330
2
100
AcDbEntity
  8
AM_4
100
AcDbLine
 10
476.8559339573925
 20
520.7836824712505
 30
0.0
 11
476.6444249573923
 21
520.8913604712506
 31
0.0
  0
LINE
  5
27C
330
2
100
AcDbEntity
  8
AM_4
100
AcDbLine
 10
476.6444249573923
 20
520.8913604712506
 30
0.0
 11
476.3483119573924
 21
520.9721184712504
 31
0.0
  0
LINE
  5
27D
330
2
100
AcDbEntity
  8
AM_4
100
AcDbLine
 10
476.3483119573924
 20
520.9721184712504
 30
0.0
 11
476.0252799573923
 21
521.0259564712506
 31
0.0
  0
LINE
  5
27E
330
2
100
AcDbEntity
  8
AM_4
100
AcDbLine
 10
476.0252799573923
 20
521.0259564712506
 30
0.0
 11
475.6484089573923
 21
520.9990374712506
 31
0.0
  0
LINE
  5
27F
330
2
100
AcDbEntity
  8
AM_4
100
AcDbLine
 10
475.6484089573923
 20
520.9990374712506
 30
0.0
 11
475.2446189573923
 21
520.8644404712506
 31
0.0
  0
LINE
  5
280
330
2
100
AcDbEntity
  8
AM_4
100
AcDbLine
 10
479.6286259573923
 20
517.9071584712507
 30
0.0
 11
479.6286259573923
 21
515.2690634712506
 31
0.0
  0
LINE
  5
281
330
2
100
AcDbEntity
  8
AM_4
100
AcDbLine
 10
479.0363999573923
 20
517.5033684712506
 30
0.0
 11
479.6286259573923
 21
517.9071584712507
 31
0.0
  0
LINE
  5
282
330
2
100
AcDbEntity
  8
AM_4
100
AcDbLine
 10
480.6207959573923
 20
514.6768374712507
 30
0.0
 11
480.6207959573923
 21
514.6768374712507
 31
0.0
  0
LINE
  5
283
330
2
100
AcDbEntity
  8
AM_4
100
AcDbLine
 10
479.6286259573923
 20
515.2690634712506
 30
0.0
 11
479.4401899573923
 21
515.1613864712506
 31
0.0
  0
LINE
  5
284
330
2
100
AcDbEntity
  8
AM_4
100
AcDbLine
 10
478.8479649573923
 20
514.8921924712506
 30
0.0
 11
478.4172549573923
 21
514.7575954712506
 31
0.0
  0
LINE
  5
285
330
2
100
AcDbEntity
  8
AM_4
100
AcDbLine
 10
478.4172549573923
 20
514.7575954712506
 30
0.0
 11
477.9327069573922
 21
514.6499184712507
 31
0.0
  0
LINE
  5
286
330
2
100
AcDbEntity
  8
AM_4
100
AcDbLine
 10
477.7711909573923
 20
516.9380624712506
 30
0.0
 11
478.4441749573923
 21
517.1803364712506
 31
0.0
  0
LINE
  5
287
330
2
100
AcDbEntity
  8
AM_4
100
AcDbLine
 10
478.4441749573923
 20
517.1803364712506
 30
0.0
 11
479.0363999573923
 21
517.5033684712506
 31
0.0
  0
LINE
  5
288
330
2
100
AcDbEntity
  8
AM_4
100
AcDbLine
 10
479.4401899573923
 20
515.1613864712506
 30
0.0
 11
478.8479649573923
 21
514.8921924712506
 31
0.0
  0
LINE
  5
289
330
2
100
AcDbEntity
  8
AM_4
100
AcDbLine
 10
479.6286259573923
 20
517.9071584712507
 30
0.0
 11
479.6286259573923
 21
517.9071584712507
 31
0.0
  0
LINE
  5
28A
330
2
100
AcDbEntity
  8
AM_4
100
AcDbLine
 10
476.0521989573923
 20
516.9380624712506
 30
0.0
 11
476.2137149573923
 21
516.9111434712506
 31
0.0
  0
LINE
  5
28B
330
2
100
AcDbEntity
  8
AM_4
100
AcDbLine
 10
477.3674009573923
 20
514.5691604712506
 30
0.0
 11
476.7482559573923
 21
514.5422414712506
 31
0.0
  0
LINE
  5
28C
330
2
100
AcDbEntity
  8
AM_4
100
AcDbLine
 10
476.7482559573923
 20
514.5422414712506
 30
0.0
 11
476.2944729573924
 21
514.5422414712506
 31
0.0
  0
LINE
  5
28D
330
2
100
AcDbEntity
  8
AM_4
100
AcDbLine
 10
476.2944729573924
 20
514.5422414712506
 30
0.0
 11
475.8368439573923
 21
514.5960794712506
 31
0.0
  0
LINE
  5
28E
330
2
100
AcDbEntity
  8
AM_4
100
AcDbLine
 10
476.2137149573923
 20
516.9111434712506
 30
0.0
 11
476.5905859573924
 21
516.8303854712505
 31
0.0
  0
LINE
  5
28F
330
2
100
AcDbEntity
  8
AM_4
100
AcDbLine
 10
476.5905859573924
 20
516.8303854712505
 30
0.0
 11
477.1251269573923
 21
516.8303854712505
 31
0.0
  0
LINE
  5
290
330
2
100
AcDbEntity
  8
AM_4
100
AcDbLine
 10
477.1251269573923
 20
516.8303854712505
 30
0.0
 11
477.4481589573923
 21
516.8573044712506
 31
0.0
  0
LINE
  5
291
330
2
100
AcDbEntity
  8
AM_4
100
AcDbLine
 10
475.8368439573923
 20
514.5960794712506
 30
0.0
 11
475.4061349573923
 21
514.7037574712506
 31
0.0
  0
LINE
  5
292
330
2
100
AcDbEntity
  8
AM_4
100
AcDbLine
 10
477.4481589573923
 20
516.8573044712506
 30
0.0
 11
477.7711909573923
 21
516.9380624712506
 31
0.0
  0
LINE
  5
293
330
2
100
AcDbEntity
  8
AM_4
100
AcDbLine
 10
477.9327069573922
 20
514.6499184712507
 30
0.0
 11
477.3674009573923
 21
514.5691604712506
 31
0.0
  0
LINE
  5
294
330
2
100
AcDbEntity
  8
AM_4
100
AcDbLine
 10
480.0593349573923
 20
520.4337314712506
 30
0.0
 11
476.0521989573923
 21
516.9380624712506
 31
0.0
  0
LINE
  5
295
330
2
100
AcDbEntity
  8
AM_4
100
AcDbLine
 10
475.0292639573923
 20
523.1487394712505
 30
0.0
 11
475.4868929573923
 21
523.2294974712506
 31
0.0
  0
LINE
  5
296
330
2
100
AcDbEntity
  8
AM_4
100
AcDbLine
 10
474.1947639573923
 20
522.8795454712504
 30
0.0
 11
474.5985549573925
 21
523.0410614712504
 31
0.0
  0
LINE
  5
297
330
2
100
AcDbEntity
  8
AM_4
100
AcDbLine
 10
473.4948619573923
 20
522.4757554712506
 30
0.0
 11
473.8178939573923
 21
522.6911104712505
 31
0.0
  0
LINE
  5
298
330
2
100
AcDbEntity
  8
AM_4
100
AcDbLine
 10
473.8178939573923
 20
522.6911104712505
 30
0.0
 11
474.1947639573923
 21
522.8795454712504
 31
0.0
  0
LINE
  5
299
330
2
100
AcDbEntity
  8
AM_4
100
AcDbLine
 10
474.5985549573925
 20
523.0410614712504
 30
0.0
 11
475.0292639573923
 21
523.1487394712505
 31
0.0
  0
LINE
  5
29A
330
2
100
AcDbEntity
  8
AM_4
100
AcDbLine
 10
470.7798539573923
 20
523.1487394712505
 30
0.0
 11
470.2414669573925
 21
523.1218194712506
 31
0.0
  0
LINE
  5
29B
330
2
100
AcDbEntity
  8
AM_4
100
AcDbLine
 10
470.2414669573925
 20
523.1218194712506
 30
0.0
 11
469.7838379573923
 21
523.0679814712506
 31
0.0
  0
LINE
  5
29C
330
2
100
AcDbEntity
  8
AM_4
100
AcDbLine
 10
469.7838379573923
 20
523.0679814712506
 30
0.0
 11
469.4069669573925
 21
522.9333844712506
 31
0.0
  0
LINE
  5
29D
330
2
100
AcDbEntity
  8
AM_4
100
AcDbLine
 10
469.4069669573925
 20
522.9333844712506
 30
0.0
 11
469.0570159573923
 21
522.7987874712506
 31
0.0
  0
LINE
  5
29E
330
2
100
AcDbEntity
  8
AM_4
100
AcDbLine
 10
471.7489499573924
 20
523.1487394712505
 30
0.0
 11
470.7798539573923
 21
523.1487394712505
 31
0.0
  0
LINE
  5
29F
330
2
100
AcDbEntity
  8
AM_4
100
AcDbLine
 10
480.7553929573924
 20
524.7100614712506
 30
0.0
 11
480.9707469573923
 21
525.1407704712505
 31
0.0
  0
LINE
  5
2A0
330
2
100
AcDbEntity
  8
AM_4
100
AcDbLine
 10
480.9707469573923
 20
525.1407704712505
 30
0.0
 11
481.1053439573923
 21
525.3561254712506
 31
0.0
  0
LINE
  5
2A1
330
2
100
AcDbEntity
  8
AM_4
100
AcDbLine
 10
480.6207959573923
 20
523.9563194712506
 30
0.0
 11
480.6477149573923
 21
524.3062704712506
 31
0.0
  0
LINE
  5
2A2
330
2
100
AcDbEntity
  8
AM_4
100
AcDbLine
 10
480.6477149573923
 20
524.3062704712506
 30
0.0
 11
480.7553929573924
 21
524.7100614712506
 31
0.0
  0
LINE
  5
2A3
330
2
100
AcDbEntity
  8
AM_4
100
AcDbLine
 10
477.9865459573923
 20
522.7449494712506
 30
0.0
 11
478.5518519573923
 21
522.3949974712505
 31
0.0
  0
LINE
  5
2A4
330
2
100
AcDbEntity
  8
AM_4
100
AcDbLine
 10
475.9983599573923
 20
523.2564164712506
 30
0.0
 11
476.6982629573923
 21
523.2025774712504
 31
0.0
  0
LINE
  5
2A5
330
2
100
AcDbEntity
  8
AM_4
100
AcDbLine
 10
476.6982629573923
 20
523.2025774712504
 30
0.0
 11
477.3674009573923
 21
523.0141424712505
 31
0.0
  0
LINE
  5
2A6
330
2
100
AcDbEntity
  8
AM_4
100
AcDbLine
 10
475.4868929573923
 20
523.2294974712506
 30
0.0
 11
475.9983599573923
 21
523.2564164712506
 31
0.0
  0
LINE
  5
2A7
330
2
100
AcDbEntity
  8
AM_4
100
AcDbLine
 10
477.3674009573923
 20
523.0141424712505
 30
0.0
 11
477.9865459573923
 21
522.7449494712506
 31
0.0
  0
LINE
  5
2A8
330
2
100
AcDbEntity
  8
AM_4
100
AcDbLine
 10
484.3895039573923
 20
522.4488364712506
 30
0.0
 11
484.3895039573923
 21
520.4337314712506
 31
0.0
  0
LINE
  5
2A9
330
2
100
AcDbEntity
  8
AM_4
100
AcDbLine
 10
489.8195199573923
 20
521.9373684712506
 30
0.0
 11
490.4117449573923
 21
522.4757554712506
 31
0.0
  0
LINE
  5
2AA
330
2
100
AcDbEntity
  8
AM_4
100
AcDbLine
 10
485.3547539573923
 20
526.3213764712506
 30
0.0
 11
485.3547539573923
 21
514.6768374712507
 31
0.0
  0
LINE
  5
2AB
330
2
100
AcDbEntity
  8
AM_4
100
AcDbLine
 10
488.0736079573924
 20
514.6768374712507
 30
0.0
 11
488.0736079573924
 21
526.3213764712506
 31
0.0
  0
LINE
  5
2AC
330
2
100
AcDbEntity
  8
AM_4
100
AcDbLine
 10
485.3547539573923
 20
514.6768374712507
 30
0.0
 11
488.0736079573924
 21
514.6768374712507
 31
0.0
  0
LINE
  5
2AD
330
2
100
AcDbEntity
  8
AM_4
100
AcDbLine
 10
484.3895039573923
 20
520.4337314712506
 30
0.0
 11
483.2319719573924
 21
520.4337314712506
 31
0.0
  0
LINE
  5
2AE
330
2
100
AcDbEntity
  8
AM_4
100
AcDbLine
 10
483.2319719573924
 20
520.4337314712506
 30
0.0
 11
483.2319719573924
 21
514.6768374712507
 31
0.0
  0
LINE
  5
2AF
330
2
100
AcDbEntity
  8
AM_4
100
AcDbLine
 10
492.5614469573924
 20
520.9990374712506
 30
0.0
 11
492.1576569573923
 21
520.8644404712506
 31
0.0
  0
LINE
  5
2B0
330
2
100
AcDbEntity
  8
AM_4
100
AcDbLine
 10
492.1576569573923
 20
520.8644404712506
 30
0.0
 11
491.7846319573923
 21
520.5952474712505
 31
0.0
  0
LINE
  5
2B1
330
2
100
AcDbEntity
  8
AM_4
100
AcDbLine
 10
493.2613499573923
 20
520.9721184712504
 30
0.0
 11
492.9383179573924
 21
521.0259564712506
 31
0.0
  0
LINE
  5
2B2
330
2
100
AcDbEntity
  8
AM_4
100
AcDbLine
 10
492.9383179573924
 20
521.0259564712506
 30
0.0
 11
492.5614469573924
 21
520.9990374712506
 31
0.0
  0
LINE
  5
2B3
330
2
100
AcDbEntity
  8
AM_4
100
AcDbLine
 10
491.4615989573923
 20
520.2183764712506
 30
0.0
 11
491.2731639573923
 21
519.8415054712507
 31
0.0
  0
LINE
  5
2B4
330
2
100
AcDbEntity
  8
AM_4
100
AcDbLine
 10
491.2731639573923
 20
519.8415054712507
 30
0.0
 11
491.1924059573923
 21
519.4915544712507
 31
0.0
  0
LINE
  5
2B5
330
2
100
AcDbEntity
  8
AM_4
100
AcDbLine
 10
491.1654869573923
 20
519.1685224712506
 30
0.0
 11
491.2193249573923
 21
518.8993284712505
 31
0.0
  0
LINE
  5
2B6
330
2
100
AcDbEntity
  8
AM_4
100
AcDbLine
 10
491.2193249573923
 20
518.8993284712505
 30
0.0
 11
491.2731639573923
 21
518.6839744712506
 31
0.0
  0
LINE
  5
2B7
330
2
100
AcDbEntity
  8
AM_4
100
AcDbLine
 10
491.2731639573923
 20
518.6839744712506
 30
0.0
 11
491.3539219573923
 21
518.4955384712504
 31
0.0
  0
LINE
  5
2B8
330
2
100
AcDbEntity
  8
AM_4
100
AcDbLine
 10
491.3539219573923
 20
518.4955384712504
 30
0.0
 11
491.3539219573923
 21
518.4955384712504
 31
0.0
  0
LINE
  5
2B9
330
2
100
AcDbEntity
  8
AM_4
100
AcDbLine
 10
491.1924059573923
 20
519.4915544712507
 30
0.0
 11
491.1654869573923
 21
519.1685224712506
 31
0.0
  0
LINE
  5
2BA
330
2
100
AcDbEntity
  8
AM_4
100
AcDbLine
 10
491.7846319573923
 20
520.5952474712505
 30
0.0
 11
491.4615989573923
 21
520.2183764712506
 31
0.0
  0
LINE
  5
2BB
330
2
100
AcDbEntity
  8
AM_4
100
AcDbLine
 10
488.8773429573923
 20
519.8953444712506
 30
0.0
 11
489.0657779573923
 21
520.6221664712505
 31
0.0
  0
LINE
  5
2BC
330
2
100
AcDbEntity
  8
AM_4
100
AcDbLine
 10
489.0657779573923
 20
520.6221664712505
 30
0.0
 11
489.2003749573923
 21
520.9721184712504
 31
0.0
  0
LINE
  5
2BD
330
2
100
AcDbEntity
  8
AM_4
100
AcDbLine
 10
489.2003749573923
 20
520.9721184712504
 30
0.0
 11
489.3888099573923
 21
521.3220694712506
 31
0.0
  0
LINE
  5
2BE
330
2
100
AcDbEntity
  8
AM_4
100
AcDbLine
 10
489.3888099573923
 20
521.3220694712506
 30
0.0
 11
489.6041649573923
 21
521.6451014712506
 31
0.0
  0
LINE
  5
2BF
330
2
100
AcDbEntity
  8
AM_4
100
AcDbLine
 10
489.6041649573923
 20
521.6451014712506
 30
0.0
 11
489.8195199573923
 21
521.9373684712506
 31
0.0
  0
LINE
  5
2C0
330
2
100
AcDbEntity
  8
AM_4
100
AcDbLine
 10
488.9042619573923
 20
518.0686744712505
 30
0.0
 11
488.8235039573923
 21
518.5762964712506
 31
0.0
  0
LINE
  5
2C1
330
2
100
AcDbEntity
  8
AM_4
100
AcDbLine
 10
488.8235039573923
 20
518.5762964712506
 30
0.0
 11
488.7965849573923
 21
519.1416024712506
 31
0.0
  0
LINE
  5
2C2
330
2
100
AcDbEntity
  8
AM_4
100
AcDbLine
 10
488.7965849573923
 20
519.1416024712506
 30
0.0
 11
488.8773429573923
 21
519.8953444712506
 31
0.0
  0
LINE
  5
2C3
330
2
100
AcDbEntity
  8
AM_4
100
AcDbLine
 10
492.9652369573923
 20
516.9380624712506
 30
0.0
 11
493.1267529573923
 21
516.9111434712506
 31
0.0
  0
LINE
  5
2C4
330
2
100
AcDbEntity
  8
AM_4
100
AcDbLine
 10
492.7498819573923
 20
514.5960794712506
 30
0.0
 11
492.3191729573924
 21
514.7037574712506
 31
0.0
  0
LINE
  5
2C5
330
2
100
AcDbEntity
  8
AM_4
100
AcDbLine
 10
492.3191729573924
 20
514.7037574712506
 30
0.0
 11
491.8653899573923
 21
514.8114344712507
 31
0.0
  0
LINE
  5
2C6
330
2
100
AcDbEntity
  8
AM_4
100
AcDbLine
 10
493.1267529573923
 20
516.9111434712506
 30
0.0
 11
493.5036239573923
 21
516.8303854712505
 31
0.0
  0
LINE
  5
2C7
330
2
100
AcDbEntity
  8
AM_4
100
AcDbLine
 10
493.2075109573923
 20
514.5422414712506
 30
0.0
 11
492.7498819573923
 21
514.5960794712506
 31
0.0
  0
LINE
  5
2C8
330
2
100
AcDbEntity
  8
AM_4
100
AcDbLine
 10
491.4615989573923
 20
514.9729504712507
 30
0.0
 11
491.0578089573923
 21
515.1883054712506
 31
0.0
  0
LINE
  5
2C9
330
2
100
AcDbEntity
  8
AM_4
100
AcDbLine
 10
491.0578089573923
 20
515.1883054712506
 30
0.0
 11
490.6809379573923
 21
515.4036604712506
 31
0.0
  0
LINE
  5
2CA
330
2
100
AcDbEntity
  8
AM_4
100
AcDbLine
 10
490.6809379573923
 20
515.4036604712506
 30
0.0
 11
490.3309869573923
 21
515.6728534712506
 31
0.0
  0
LINE
  5
2CB
330
2
100
AcDbEntity
  8
AM_4
100
AcDbLine
 10
490.3309869573923
 20
515.6728534712506
 30
0.0
 11
489.9810359573923
 21
515.9958854712506
 31
0.0
  0
LINE
  5
2CC
330
2
100
AcDbEntity
  8
AM_4
100
AcDbLine
 10
491.8653899573923
 20
514.8114344712507
 30
0.0
 11
491.4615989573923
 21
514.9729504712507
 31
0.0
  0
LINE
  5
2CD
330
2
100
AcDbEntity
  8
AM_4
100
AcDbLine
 10
489.2272939573923
 20
517.1264974712507
 30
0.0
 11
489.0388589573923
 21
517.5841264712507
 31
0.0
  0
LINE
  5
2CE
330
2
100
AcDbEntity
  8
AM_4
100
AcDbLine
 10
489.4426489573923
 20
516.7227074712505
 30
0.0
 11
489.2272939573923
 21
517.1264974712507
 31
0.0
  0
LINE
  5
2CF
330
2
100
AcDbEntity
  8
AM_4
100
AcDbLine
 10
489.6849229573923
 20
516.3458374712506
 30
0.0
 11
489.4426489573923
 21
516.7227074712505
 31
0.0
  0
LINE
  5
2D0
330
2
100
AcDbEntity
  8
AM_4
100
AcDbLine
 10
489.9810359573923
 20
515.9958854712506
 30
0.0
 11
489.6849229573923
 21
516.3458374712506
 31
0.0
  0
LINE
  5
2D1
330
2
100
AcDbEntity
  8
AM_4
100
AcDbLine
 10
489.0388589573923
 20
517.5841264712507
 30
0.0
 11
488.9042619573923
 21
518.0686744712505
 31
0.0
  0
LINE
  5
2D2
330
2
100
AcDbEntity
  8
AM_4
100
AcDbLine
 10
488.0736079573924
 20
526.3213764712506
 30
0.0
 11
485.3547539573923
 21
526.3213764712506
 31
0.0
  0
LINE
  5
2D3
330
2
100
AcDbEntity
  8
AM_4
100
AcDbLine
 10
485.3547539573923
 20
526.3213764712506
 30
0.0
 11
485.3547539573923
 21
526.3213764712506
 31
0.0
  0
LINE
  5
2D4
330
2
100
AcDbEntity
  8
AM_4
100
AcDbLine
 10
484.4933349573923
 20
524.2524324712506
 30
0.0
 11
484.2010679573923
 21
524.2524324712506
 31
0.0
  0
LINE
  5
2D5
330
2
100
AcDbEntity
  8
AM_4
100
AcDbLine
 10
484.2010679573923
 20
524.2524324712506
 30
0.0
 11
484.0664719573923
 21
524.2255124712507
 31
0.0
  0
LINE
  5
2D6
330
2
100
AcDbEntity
  8
AM_4
100
AcDbLine
 10
484.4933349573923
 20
526.3213764712506
 30
0.0
 11
484.4933349573923
 21
524.2524324712506
 31
0.0
  0
LINE
  5
2D7
330
2
100
AcDbEntity
  8
AM_4
100
AcDbLine
 10
483.2858109573924
 20
523.6332874712505
 30
0.0
 11
483.2319719573924
 21
523.3371744712504
 31
0.0
  0
LINE
  5
2D8
330
2
100
AcDbEntity
  8
AM_4
100
AcDbLine
 10
483.2319719573924
 20
523.3371744712504
 30
0.0
 11
483.2319719573924
 21
522.4488364712506
 31
0.0
  0
LINE
  5
2D9
330
2
100
AcDbEntity
  8
AM_4
100
AcDbLine
 10
483.0166169573923
 20
526.2944564712507
 30
0.0
 11
483.5280849573924
 21
526.3213764712506
 31
0.0
  0
LINE
  5
2DA
330
2
100
AcDbEntity
  8
AM_4
100
AcDbLine
 10
483.7165199573923
 20
524.1447544712506
 30
0.0
 11
483.5550039573925
 21
524.0101584712506
 31
0.0
  0
LINE
  5
2DB
330
2
100
AcDbEntity
  8
AM_4
100
AcDbLine
 10
483.5550039573925
 20
524.0101584712506
 30
0.0
 11
483.3934879573923
 21
523.8486424712506
 31
0.0
  0
LINE
  5
2DC
330
2
100
AcDbEntity
  8
AM_4
100
AcDbLine
 10
483.3934879573923
 20
523.8486424712506
 30
0.0
 11
483.2858109573924
 21
523.6332874712505
 31
0.0
  0
LINE
  5
2DD
330
2
100
AcDbEntity
  8
AM_4
100
AcDbLine
 10
481.5360539573925
 20
525.7560694712505
 30
0.0
 11
481.8052469573923
 21
525.9445054712506
 31
0.0
  0
LINE
  5
2DE
330
2
100
AcDbEntity
  8
AM_4
100
AcDbLine
 10
481.2937789573923
 20
525.5714804712506
 30
0.0
 11
481.5360539573925
 21
525.7560694712505
 31
0.0
  0
LINE
  5
2DF
330
2
100
AcDbEntity
  8
AM_4
100
AcDbLine
 10
481.8052469573923
 20
525.9445054712506
 30
0.0
 11
482.1551979573923
 21
526.0791014712506
 31
0.0
  0
LINE
  5
2E0
330
2
100
AcDbEntity
  8
AM_4
100
AcDbLine
 10
482.1551979573923
 20
526.0791014712506
 30
0.0
 11
482.5589889573923
 21
526.2136984712506
 31
0.0
  0
LINE
  5
2E1
330
2
100
AcDbEntity
  8
AM_4
100
AcDbLine
 10
482.5589889573923
 20
526.2136984712506
 30
0.0
 11
483.0166169573923
 21
526.2944564712507
 31
0.0
  0
LINE
  5
2E2
330
2
100
AcDbEntity
  8
AM_4
100
AcDbLine
 10
483.2319719573924
 20
522.4488364712506
 30
0.0
 11
484.3895039573923
 21
522.4488364712506
 31
0.0
  0
LINE
  5
2E3
330
2
100
AcDbEntity
  8
AM_4
100
AcDbLine
 10
483.5280849573924
 20
526.3213764712506
 30
0.0
 11
484.4933349573923
 21
526.3213764712506
 31
0.0
  0
LINE
  5
2E4
330
2
100
AcDbEntity
  8
AM_4
100
AcDbLine
 10
484.0664719573923
 20
524.2255124712507
 30
0.0
 11
483.7165199573923
 21
524.1447544712506
 31
0.0
  0
LINE
  5
2E5
330
2
100
AcDbEntity
  8
AM_4
100
AcDbLine
 10
492.3999309573924
 20
523.2294974712506
 30
0.0
 11
492.9113979573923
 21
523.2564164712506
 31
0.0
  0
LINE
  5
2E6
330
2
100
AcDbEntity
  8
AM_4
100
AcDbLine
 10
491.9461479573923
 20
523.1487394712505
 30
0.0
 11
492.3999309573924
 21
523.2294974712506
 31
0.0
  0
LINE
  5
2E7
330
2
100
AcDbEntity
  8
AM_4
100
AcDbLine
 10
490.4117449573923
 20
522.4757554712506
 30
0.0
 11
490.7347769573923
 21
522.6911104712505
 31
0.0
  0
LINE
  5
2E8
330
2
100
AcDbEntity
  8
AM_4
100
AcDbLine
 10
490.7347769573923
 20
522.6911104712505
 30
0.0
 11
491.1116479573923
 21
522.8795454712504
 31
0.0
  0
LINE
  5
2E9
330
2
100
AcDbEntity
  8
AM_4
100
AcDbLine
 10
491.1116479573923
 20
522.8795454712504
 30
0.0
 11
491.5154379573923
 21
523.0410614712504
 31
0.0
  0
LINE
  5
2EA
330
2
100
AcDbEntity
  8
AM_4
100
AcDbLine
 10
491.5154379573923
 20
523.0410614712504
 30
0.0
 11
491.9461479573923
 21
523.1487394712505
 31
0.0
  0
LINE
  5
2EB
330
2
100
AcDbEntity
  8
AM_4
100
AcDbLine
 10
504.5828559573923
 20
520.9990374712506
 30
0.0
 11
504.5828559573923
 21
523.0679814712506
 31
0.0
  0
LINE
  5
2EC
330
2
100
AcDbEntity
  8
AM_4
100
AcDbLine
 10
497.5107599573923
 20
521.2413114712505
 30
0.0
 11
497.5107599573923
 21
523.0679814712506
 31
0.0
  0
LINE
  5
2ED
330
2
100
AcDbEntity
  8
AM_4
100
AcDbLine
 10
502.0562829573923
 20
521.5374244712505
 30
0.0
 11
502.0562829573923
 21
523.0679814712506
 31
0.0
  0
LINE
  5
2EE
330
2
100
AcDbEntity
  8
AM_4
100
AcDbLine
 10
500.0911709573925
 20
521.3489894712506
 30
0.0
 11
500.0911709573925
 21
523.0679814712506
 31
0.0
  0
LINE
  5
2EF
330
2
100
AcDbEntity
  8
AM_4
100
AcDbLine
 10
495.4687359573923
 20
522.3949974712505
 30
0.0
 11
495.9763579573923
 21
521.9642884712506
 31
0.0
  0
LINE
  5
2F0
330
2
100
AcDbEntity
  8
AM_4
100
AcDbLine
 10
500.0373329573923
 20
514.6768374712507
 30
0.0
 11
497.3492439573923
 21
514.6768374712507
 31
0.0
  0
LINE
  5
2F1
330
2
100
AcDbEntity
  8
AM_4
100
AcDbLine
 10
498.0760659573923
 20
519.5992314712506
 30
0.0
 11
497.8607119573923
 21
519.8684254712506
 31
0.0
  0
LINE
  5
2F2
330
2
100
AcDbEntity
  8
AM_4
100
AcDbLine
 10
497.8607119573923
 20
519.8684254712506
 30
0.0
 11
497.6991949573923
 21
520.2452954712506
 31
0.0
  0
LINE
  5
2F3
330
2
100
AcDbEntity
  8
AM_4
100
AcDbLine
 10
497.6991949573923
 20
520.2452954712506
 30
0.0
 11
497.5645989573924
 21
520.6760054712506
 31
0.0
  0
LINE
  5
2F4
330
2
100
AcDbEntity
  8
AM_4
100
AcDbLine
 10
496.3801479573923
 20
521.5105054712506
 30
0.0
 11
496.7300989573923
 21
520.9721184712504
 31
0.0
  0
LINE
  5
2F5
330
2
100
AcDbEntity
  8
AM_4
100
AcDbLine
 10
496.7300989573923
 20
520.9721184712504
 30
0.0
 11
496.9723729573923
 21
520.4337314712506
 31
0.0
  0
LINE
  5
2F6
330
2
100
AcDbEntity
  8
AM_4
100
AcDbLine
 10
497.5645989573924
 20
520.6760054712506
 30
0.0
 11
497.5107599573923
 21
521.2413114712505
 31
0.0
  0
LINE
  5
2F7
330
2
100
AcDbEntity
  8
AM_4
100
AcDbLine
 10
497.6722759573923
 20
518.1994264712506
 30
0.0
 11
497.9145499573923
 21
518.5762964712506
 31
0.0
  0
LINE
  5
2F8
330
2
100
AcDbEntity
  8
AM_4
100
AcDbLine
 10
497.9145499573923
 20
518.5762964712506
 30
0.0
 11
498.2106629573923
 21
518.8993284712505
 31
0.0
  0
LINE
  5
2F9
330
2
100
AcDbEntity
  8
AM_4
100
AcDbLine
 10
498.2106629573923
 20
518.8993284712505
 30
0.0
 11
498.3990979573923
 21
519.0339254712506
 31
0.0
  0
LINE
  5
2FA
330
2
100
AcDbEntity
  8
AM_4
100
AcDbLine
 10
498.3990979573923
 20
519.0339254712506
 30
0.0
 11
498.6413719573923
 21
519.1416024712506
 31
0.0
  0
LINE
  5
2FB
330
2
100
AcDbEntity
  8
AM_4
100
AcDbLine
 10
498.6413719573923
 20
519.1416024712506
 30
0.0
 11
498.4529369573923
 21
519.2492804712506
 31
0.0
  0
LINE
  5
2FC
330
2
100
AcDbEntity
  8
AM_4
100
AcDbLine
 10
498.4529369573923
 20
519.2492804712506
 30
0.0
 11
498.2914209573923
 21
519.3838774712506
 31
0.0
  0
LINE
  5
2FD
330
2
100
AcDbEntity
  8
AM_4
100
AcDbLine
 10
498.2914209573923
 20
519.3838774712506
 30
0.0
 11
498.0760659573923
 21
519.5992314712506
 31
0.0
  0
LINE
  5
2FE
330
2
100
AcDbEntity
  8
AM_4
100
AcDbLine
 10
496.5416639573923
 20
517.9071584712507
 30
0.0
 11
496.5416639573923
 21
515.2690634712506
 31
0.0
  0
LINE
  5
2FF
330
2
100
AcDbEntity
  8
AM_4
100
AcDbLine
 10
497.4300019573923
 20
517.4764494712506
 30
0.0
 11
497.5376789573925
 21
517.8264004712506
 31
0.0
  0
LINE
  5
300
330
2
100
AcDbEntity
  8
AM_4
100
AcDbLine
 10
497.3492439573923
 20
516.9111434712506
 30
0.0
 11
497.3761629573925
 21
517.1803364712506
 31
0.0
  0
LINE
  5
301
330
2
100
AcDbEntity
  8
AM_4
100
AcDbLine
 10
497.3492439573923
 20
514.6768374712507
 30
0.0
 11
497.3492439573923
 21
516.9111434712506
 31
0.0
  0
LINE
  5
302
330
2
100
AcDbEntity
  8
AM_4
100
AcDbLine
 10
496.5416639573923
 20
515.2690634712506
 30
0.0
 11
496.3532279573923
 21
515.1613864712506
 31
0.0
  0
LINE
  5
303
330
2
100
AcDbEntity
  8
AM_4
100
AcDbLine
 10
497.3761629573925
 20
517.1803364712506
 30
0.0
 11
497.4300019573923
 21
517.4764494712506
 31
0.0
  0
LINE
  5
304
330
2
100
AcDbEntity
  8
AM_4
100
AcDbLine
 10
496.5416639573923
 20
517.9071584712507
 30
0.0
 11
496.5416639573923
 21
517.9071584712507
 31
0.0
  0
LINE
  5
305
330
2
100
AcDbEntity
  8
AM_4
100
AcDbLine
 10
497.5376789573925
 20
517.8264004712506
 30
0.0
 11
497.6722759573923
 21
518.1994264712506
 31
0.0
  0
LINE
  5
306
330
2
100
AcDbEntity
  8
AM_4
100
AcDbLine
 10
493.7728169573923
 20
520.7836824712505
 30
0.0
 11
493.5574619573923
 21
520.8913604712506
 31
0.0
  0
LINE
  5
307
330
2
100
AcDbEntity
  8
AM_4
100
AcDbLine
 10
493.9612529573923
 20
520.6760054712506
 30
0.0
 11
493.7728169573923
 21
520.7836824712505
 31
0.0
  0
LINE
  5
308
330
2
100
AcDbEntity
  8
AM_4
100
AcDbLine
 10
494.3650429573923
 20
516.8573044712506
 30
0.0
 11
494.6880749573923
 21
516.9380624712506
 31
0.0
  0
LINE
  5
309
330
2
100
AcDbEntity
  8
AM_4
100
AcDbLine
 10
495.7648479573923
 20
514.8921924712506
 30
0.0
 11
495.3610579573923
 21
514.7575954712506
 31
0.0
  0
LINE
  5
30A
330
2
100
AcDbEntity
  8
AM_4
100
AcDbLine
 10
495.3610579573923
 20
514.7575954712506
 30
0.0
 11
494.8495909573924
 21
514.6499184712507
 31
0.0
  0
LINE
  5
30B
330
2
100
AcDbEntity
  8
AM_4
100
AcDbLine
 10
494.8495909573924
 20
514.6499184712507
 30
0.0
 11
494.2842849573923
 21
514.5691604712506
 31
0.0
  0
LINE
  5
30C
330
2
100
AcDbEntity
  8
AM_4
100
AcDbLine
 10
494.0420109573923
 20
516.8303854712505
 30
0.0
 11
494.3650429573923
 21
516.8573044712506
 31
0.0
  0
LINE
  5
30D
330
2
100
AcDbEntity
  8
AM_4
100
AcDbLine
 10
494.6880749573923
 20
516.9380624712506
 30
0.0
 11
495.3610579573923
 21
517.1803364712506
 31
0.0
  0
LINE
  5
30E
330
2
100
AcDbEntity
  8
AM_4
100
AcDbLine
 10
495.3610579573923
 20
517.1803364712506
 30
0.0
 11
495.9494379573923
 21
517.5033684712506
 31
0.0
  0
LINE
  5
30F
330
2
100
AcDbEntity
  8
AM_4
100
AcDbLine
 10
494.2842849573923
 20
514.5691604712506
 30
0.0
 11
493.6651399573923
 21
514.5422414712506
 31
0.0
  0
LINE
  5
310
330
2
100
AcDbEntity
  8
AM_4
100
AcDbLine
 10
495.9494379573923
 20
517.5033684712506
 30
0.0
 11
496.5416639573923
 21
517.9071584712507
 31
0.0
  0
LINE
  5
311
330
2
100
AcDbEntity
  8
AM_4
100
AcDbLine
 10
496.3532279573923
 20
515.1613864712506
 30
0.0
 11
495.7648479573923
 21
514.8921924712506
 31
0.0
  0
LINE
  5
312
330
2
100
AcDbEntity
  8
AM_4
100
AcDbLine
 10
495.9763579573923
 20
521.9642884712506
 30
0.0
 11
496.3801479573923
 21
521.5105054712506
 31
0.0
  0
LINE
  5
313
330
2
100
AcDbEntity
  8
AM_4
100
AcDbLine
 10
504.5828559573923
 20
520.9990374712506
 30
0.0
 11
504.4751779573923
 21
520.4068124712506
 31
0.0
  0
LINE
  5
314
330
2
100
AcDbEntity
  8
AM_4
100
AcDbLine
 10
504.4751779573923
 20
520.4068124712506
 30
0.0
 11
504.3405819573924
 21
520.0568604712506
 31
0.0
  0
LINE
  5
315
330
2
100
AcDbEntity
  8
AM_4
100
AcDbLine
 10
504.3405819573924
 20
520.0568604712506
 30
0.0
 11
504.1252269573923
 21
519.7069094712506
 31
0.0
  0
LINE
  5
316
330
2
100
AcDbEntity
  8
AM_4
100
AcDbLine
 10
504.0983079573924
 20
518.6839744712506
 30
0.0
 11
504.3405819573924
 21
518.3878614712506
 31
0.0
  0
LINE
  5
317
330
2
100
AcDbEntity
  8
AM_4
100
AcDbLine
 10
504.3405819573924
 20
518.3878614712506
 30
0.0
 11
504.5290169573923
 21
518.0148364712506
 31
0.0
  0
LINE
  5
318
330
2
100
AcDbEntity
  8
AM_4
100
AcDbLine
 10
503.8560339573924
 20
519.3838774712506
 30
0.0
 11
503.4830079573923
 21
519.1416024712506
 31
0.0
  0
LINE
  5
319
330
2
100
AcDbEntity
  8
AM_4
100
AcDbLine
 10
503.4830079573923
 20
519.1416024712506
 30
0.0
 11
503.6675979573923
 21
519.0339254712506
 31
0.0
  0
LINE
  5
31A
330
2
100
AcDbEntity
  8
AM_4
100
AcDbLine
 10
503.6675979573923
 20
519.0339254712506
 30
0.0
 11
503.8829529573924
 21
518.8993284712505
 31
0.0
  0
LINE
  5
31B
330
2
100
AcDbEntity
  8
AM_4
100
AcDbLine
 10
503.8829529573924
 20
518.8993284712505
 30
0.0
 11
504.0983079573924
 21
518.6839744712506
 31
0.0
  0
LINE
  5
31C
330
2
100
AcDbEntity
  8
AM_4
100
AcDbLine
 10
504.1252269573923
 20
519.7069094712506
 30
0.0
 11
503.8560339573924
 21
519.3838774712506
 31
0.0
  0
LINE
  5
31D
330
2
100
AcDbEntity
  8
AM_4
100
AcDbLine
 10
501.9216869573923
 20
520.9721184712504
 30
0.0
 11
502.0293639573924
 21
521.3489894712506
 31
0.0
  0
LINE
  5
31E
330
2
100
AcDbEntity
  8
AM_4
100
AcDbLine
 10
502.0293639573924
 20
521.3489894712506
 30
0.0
 11
502.0562829573923
 21
521.5374244712505
 31
0.0
  0
LINE
  5
31F
330
2
100
AcDbEntity
  8
AM_4
100
AcDbLine
 10
501.3563799573923
 20
520.4606504712507
 30
0.0
 11
501.6255739573924
 21
520.5952474712505
 31
0.0
  0
LINE
  5
320
330
2
100
AcDbEntity
  8
AM_4
100
AcDbLine
 10
501.6255739573924
 20
520.5952474712505
 30
0.0
 11
501.8140089573923
 21
520.7836824712505
 31
0.0
  0
LINE
  5
321
330
2
100
AcDbEntity
  8
AM_4
100
AcDbLine
 10
501.8140089573923
 20
520.7836824712505
 30
0.0
 11
501.9216869573923
 21
520.9721184712504
 31
0.0
  0
LINE
  5
322
330
2
100
AcDbEntity
  8
AM_4
100
AcDbLine
 10
500.0911709573925
 20
521.3489894712506
 30
0.0
 11
500.1719289573923
 21
520.9721184712504
 31
0.0
  0
LINE
  5
323
330
2
100
AcDbEntity
  8
AM_4
100
AcDbLine
 10
500.1719289573923
 20
520.9721184712504
 30
0.0
 11
500.2796069573923
 21
520.7567634712505
 31
0.0
  0
LINE
  5
324
330
2
100
AcDbEntity
  8
AM_4
100
AcDbLine
 10
500.2796069573923
 20
520.7567634712505
 30
0.0
 11
500.4411229573923
 21
520.5952474712505
 31
0.0
  0
LINE
  5
325
330
2
100
AcDbEntity
  8
AM_4
100
AcDbLine
 10
500.4411229573923
 20
520.5952474712505
 30
0.0
 11
500.7103159573923
 21
520.4606504712507
 31
0.0
  0
LINE
  5
326
330
2
100
AcDbEntity
  8
AM_4
100
AcDbLine
 10
500.7103159573923
 20
520.4606504712507
 30
0.0
 11
501.0333479573922
 21
520.4337314712506
 31
0.0
  0
LINE
  5
327
330
2
100
AcDbEntity
  8
AM_4
100
AcDbLine
 10
501.0333479573922
 20
520.4337314712506
 30
0.0
 11
501.3563799573923
 21
520.4606504712507
 31
0.0
  0
LINE
  5
328
330
2
100
AcDbEntity
  8
AM_4
100
AcDbLine
 10
504.7443719573923
 20
516.9380624712506
 30
0.0
 11
504.7443719573923
 21
514.6768374712507
 31
0.0
  0
LINE
  5
329
330
2
100
AcDbEntity
  8
AM_4
100
AcDbLine
 10
504.6905329573923
 20
517.5302884712506
 30
0.0
 11
504.7443719573923
 21
516.9380624712506
 31
0.0
  0
LINE
  5
32A
330
2
100
AcDbEntity
  8
AM_4
100
AcDbLine
 10
502.0024449573923
 20
517.3418524712506
 30
0.0
 11
501.8947669573925
 21
517.5841264712507
 31
0.0
  0
LINE
  5
32B
330
2
100
AcDbEntity
  8
AM_4
100
AcDbLine
 10
500.2796069573923
 20
517.5841264712507
 30
0.0
 11
500.1450099573923
 21
517.3687724712506
 31
0.0
  0
LINE
  5
32C
330
2
100
AcDbEntity
  8
AM_4
100
AcDbLine
 10
502.0832029573923
 20
516.9111434712506
 30
0.0
 11
502.0562829573923
 21
517.1264974712507
 31
0.0
  0
LINE
  5
32D
330
2
100
AcDbEntity
  8
AM_4
100
AcDbLine
 10
502.0832029573923
 20
514.6768374712507
 30
0.0
 11
502.0832029573923
 21
516.9111434712506
 31
0.0
  0
LINE
  5
32E
330
2
100
AcDbEntity
  8
AM_4
100
AcDbLine
 10
502.0562829573923
 20
517.1264974712507
 30
0.0
 11
502.0024449573923
 21
517.3418524712506
 31
0.0
  0
LINE
  5
32F
330
2
100
AcDbEntity
  8
AM_4
100
AcDbLine
 10
500.0642519573923
 20
516.9380624712506
 30
0.0
 11
500.0373329573923
 21
516.7227074712505
 31
0.0
  0
LINE
  5
330
330
2
100
AcDbEntity
  8
AM_4
100
AcDbLine
 10
500.0373329573923
 20
516.7227074712505
 30
0.0
 11
500.0373329573923
 21
514.6768374712507
 31
0.0
  0
LINE
  5
331
330
2
100
AcDbEntity
  8
AM_4
100
AcDbLine
 10
500.1450099573923
 20
517.3687724712506
 30
0.0
 11
500.0911709573925
 21
517.1264974712507
 31
0.0
  0
LINE
  5
332
330
2
100
AcDbEntity
  8
AM_4
100
AcDbLine
 10
500.0911709573925
 20
517.1264974712507
 30
0.0
 11
500.0642519573923
 21
516.9380624712506
 31
0.0
  0
LINE
  5
333
330
2
100
AcDbEntity
  8
AM_4
100
AcDbLine
 10
501.8947669573925
 20
517.5841264712507
 30
0.0
 11
501.7332509573923
 21
517.7994814712506
 31
0.0
  0
LINE
  5
334
330
2
100
AcDbEntity
  8
AM_4
100
AcDbLine
 10
501.7332509573923
 20
517.7994814712506
 30
0.0
 11
501.4640579573923
 21
517.9340784712506
 31
0.0
  0
LINE
  5
335
330
2
100
AcDbEntity
  8
AM_4
100
AcDbLine
 10
500.7372349573923
 20
517.9340784712506
 30
0.0
 11
500.4680419573923
 21
517.7994814712506
 31
0.0
  0
LINE
  5
336
330
2
100
AcDbEntity
  8
AM_4
100
AcDbLine
 10
500.4680419573923
 20
517.7994814712506
 30
0.0
 11
500.2796069573923
 21
517.5841264712507
 31
0.0
  0
LINE
  5
337
330
2
100
AcDbEntity
  8
AM_4
100
AcDbLine
 10
504.7443719573923
 20
514.6768374712507
 30
0.0
 11
502.0832029573923
 21
514.6768374712507
 31
0.0
  0
LINE
  5
338
330
2
100
AcDbEntity
  8
AM_4
100
AcDbLine
 10
504.5290169573923
 20
518.0148364712506
 30
0.0
 11
504.6905329573923
 21
517.5302884712506
 31
0.0
  0
LINE
  5
339
330
2
100
AcDbEntity
  8
AM_4
100
AcDbLine
 10
501.1141059573922
 20
517.9879164712506
 30
0.0
 11
500.7372349573923
 21
517.9340784712506
 31
0.0
  0
LINE
  5
33A
330
2
100
AcDbEntity
  8
AM_4
100
AcDbLine
 10
501.4640579573923
 20
517.9340784712506
 30
0.0
 11
501.1141059573922
 21
517.9879164712506
 31
0.0
  0
LINE
  5
33B
330
2
100
AcDbEntity
  8
AM_4
100
AcDbLine
 10
497.5107599573923
 20
523.0679814712506
 30
0.0
 11
500.0911709573925
 21
523.0679814712506
 31
0.0
  0
LINE
  5
33C
330
2
100
AcDbEntity
  8
AM_4
100
AcDbLine
 10
497.5107599573923
 20
523.0679814712506
 30
0.0
 11
497.5107599573923
 21
523.0679814712506
 31
0.0
  0
LINE
  5
33D
330
2
100
AcDbEntity
  8
AM_4
100
AcDbLine
 10
494.2842849573923
 20
523.0141424712505
 30
0.0
 11
494.9034299573923
 21
522.7449494712506
 31
0.0
  0
LINE
  5
33E
330
2
100
AcDbEntity
  8
AM_4
100
AcDbLine
 10
494.9034299573923
 20
522.7449494712506
 30
0.0
 11
495.4687359573923
 21
522.3949974712505
 31
0.0
  0
LINE
  5
33F
330
2
100
AcDbEntity
  8
AM_4
100
AcDbLine
 10
493.6113009573923
 20
523.2025774712504
 30
0.0
 11
494.2842849573923
 21
523.0141424712505
 31
0.0
  0
LINE
  5
340
330
2
100
AcDbEntity
  8
AM_4
100
AcDbLine
 10
502.0562829573923
 20
523.0679814712506
 30
0.0
 11
504.5828559573923
 21
523.0679814712506
 31
0.0
  0
LINE
  5
341
330
2
100
AcDbEntity
  8
AM_4
100
AcDbLine
 10
508.5031009573923
 20
528.5323904712506
 30
0.0
 11
508.5711389573923
 21
528.5175994712504
 31
0.0
  0
LINE
  5
342
330
2
100
AcDbEntity
  8
AM_4
100
AcDbLine
 10
508.3078619573923
 20
528.9672414712506
 30
0.0
 11
508.2131999573923
 21
528.9701994712506
 31
0.0
  0
LINE
  5
343
330
2
100
AcDbEntity
  8
AM_4
100
AcDbLine
 10
508.2871539573924
 20
528.5619724712505
 30
0.0
 11
508.3611089573923
 21
528.5560564712506
 31
0.0
  0
LINE
  5
344
330
2
100
AcDbEntity
  8
AM_4
100
AcDbLine
 10
508.2131999573923
 20
528.5619724712505
 30
0.0
 11
508.2131999573923
 21
528.9701994712506
 31
0.0
  0
LINE
  5
345
330
2
100
AcDbEntity
  8
AM_4
100
AcDbLine
 10
508.2131999573923
 20
528.9701994712506
 30
0.0
 11
508.2131999573923
 21
528.9701994712506
 31
0.0
  0
LINE
  5
346
330
2
100
AcDbEntity
  8
AM_4
100
AcDbLine
 10
508.3995649573923
 20
528.9583674712506
 30
0.0
 11
508.3078619573923
 21
528.9672414712506
 31
0.0
  0
LINE
  5
347
330
2
100
AcDbEntity
  8
AM_4
100
AcDbLine
 10
508.3611089573923
 20
528.5560564712506
 30
0.0
 11
508.5031009573923
 21
528.5323904712506
 31
0.0
  0
ARC
  5
348
330
2
100
AcDbEntity
  8
AM_4
100
AcDbCircle
 10
508.2131999573923
 20
527.1331764712506
 30
0.0
 40
1.428795999999999
100
AcDbArc
 50
0.0
 51
90.0
  0
ARC
  5
349
330
2
100
AcDbEntity
  8
AM_4
100
AcDbCircle
 10
508.2131999573923
 20
527.1331764712506
 30
0.0
 40
1.837022999999999
100
AcDbArc
 50
0.0
 51
90.0
  0
ARC
  5
34A
330
2
100
AcDbEntity
  8
AM_4
100
AcDbCircle
 10
508.2131999573923
 20
527.1331764712506
 30
0.0
 40
1.460545999999999
100
AcDbArc
 50
0.0
 51
90.0
  0
LINE
  5
34B
330
2
100
AcDbEntity
  8
AM_4
100
AcDbLine
 10
508.2131999573923
 20
528.7660864712505
 30
0.0
 11
508.5415569573923
 21
528.7246714712506
 31
0.0
  0
LINE
  5
34C
330
2
100
AcDbEntity
  8
AM_4
100
AcDbLine
 10
510.0295159573923
 20
527.4082864712505
 30
0.0
 11
510.0472649573923
 21
527.2248794712505
 31
0.0
  0
LINE
  5
34D
330
2
100
AcDbEntity
  8
AM_4
100
AcDbLine
 10
509.6272049573923
 20
527.3461644712506
 30
0.0
 11
509.6360799573923
 21
527.2781264712506
 31
0.0
  0
LINE
  5
34E
330
2
100
AcDbEntity
  8
AM_4
100
AcDbLine
 10
509.8254029573923
 20
527.4615334712506
 30
0.0
 11
509.8461099573923
 21
527.1331764712506
 31
0.0
  0
LINE
  5
34F
330
2
100
AcDbEntity
  8
AM_4
100
AcDbLine
 10
510.0502229573923
 20
527.1331764712506
 30
0.0
 11
510.0472649573923
 21
527.2248794712505
 31
0.0
  0
LINE
  5
350
330
2
100
AcDbEntity
  8
AM_4
100
AcDbLine
 10
509.6360799573923
 20
527.2781264712506
 30
0.0
 11
509.6419959573923
 21
527.2041724712505
 31
0.0
  0
LINE
  5
351
330
2
100
AcDbEntity
  8
AM_4
100
AcDbLine
 10
509.6419959573923
 20
527.1331764712506
 30
0.0
 11
510.0502229573923
 21
527.1331764712506
 31
0.0
  0
LINE
  5
352
330
2
100
AcDbEntity
  8
AM_4
100
AcDbLine
 10
510.0502229573923
 20
527.1331764712506
 30
0.0
 11
510.0502229573923
 21
527.1331764712506
 31
0.0
  0
LINE
  5
353
330
2
100
AcDbEntity
  8
AM_4
100
AcDbLine
 10
510.0295159573923
 20
527.4082864712505
 30
0.0
 11
510.0117669573923
 21
527.4970314712505
 31
0.0
  0
LINE
  5
354
330
2
100
AcDbEntity
  8
AM_4
100
AcDbLine
 10
510.0117669573923
 20
527.4970314712505
 30
0.0
 11
509.9910599573923
 21
527.5857764712506
 31
0.0
  0
LINE
  5
355
330
2
100
AcDbEntity
  8
AM_4
100
AcDbLine
 10
509.9910599573923
 20
527.5857764712506
 30
0.0
 11
509.9673949573923
 21
527.6715634712505
 31
0.0
  0
LINE
  5
356
330
2
100
AcDbEntity
  8
AM_4
100
AcDbLine
 10
509.9673949573923
 20
527.6715634712505
 30
0.0
 11
509.9378129573923
 21
527.7573504712505
 31
0.0
  0
LINE
  5
357
330
2
100
AcDbEntity
  8
AM_4
100
AcDbLine
 10
509.9378129573923
 20
527.7573504712505
 30
0.0
 11
509.9052729573923
 21
527.8401794712506
 31
0.0
  0
LINE
  5
358
330
2
100
AcDbEntity
  8
AM_4
100
AcDbLine
 10
509.9052729573923
 20
527.8401794712506
 30
0.0
 11
509.8697749573923
 21
527.9230074712505
 31
0.0
  0
LINE
  5
359
330
2
100
AcDbEntity
  8
AM_4
100
AcDbLine
 10
509.8697749573923
 20
527.9230074712505
 30
0.0
 11
509.8283609573924
 21
527.9999204712505
 31
0.0
  0
LINE
  5
35A
330
2
100
AcDbEntity
  8
AM_4
100
AcDbLine
 10
509.8283609573924
 20
527.9999204712505
 30
0.0
 11
509.7869459573923
 21
528.0768324712505
 31
0.0
  0
LINE
  5
35B
330
2
100
AcDbEntity
  8
AM_4
100
AcDbLine
 10
509.7869459573923
 20
528.0768324712505
 30
0.0
 11
509.7366569573924
 21
528.1537454712506
 31
0.0
  0
LINE
  5
35C
330
2
100
AcDbEntity
  8
AM_4
100
AcDbLine
 10
509.7366569573924
 20
528.1537454712506
 30
0.0
 11
509.6863689573923
 21
528.2247414712506
 31
0.0
  0
LINE
  5
35D
330
2
100
AcDbEntity
  8
AM_4
100
AcDbLine
 10
509.6863689573923
 20
528.2247414712506
 30
0.0
 11
509.6331219573923
 21
528.2957374712506
 31
0.0
  0
LINE
  5
35E
330
2
100
AcDbEntity
  8
AM_4
100
AcDbLine
 10
509.5147949573923
 20
528.4258964712506
 30
0.0
 11
509.6331219573923
 21
528.2957374712506
 31
0.0
  0
LINE
  5
35F
330
2
100
AcDbEntity
  8
AM_4
100
AcDbLine
 10
509.5147949573923
 20
528.4258964712506
 30
0.0
 11
509.4526729573923
 21
528.4850604712507
 31
0.0
  0
LINE
  5
360
330
2
100
AcDbEntity
  8
AM_4
100
AcDbLine
 10
509.4526729573923
 20
528.4850604712507
 30
0.0
 11
509.3846349573923
 21
528.5442234712506
 31
0.0
  0
LINE
  5
361
330
2
100
AcDbEntity
  8
AM_4
100
AcDbLine
 10
509.3846349573923
 20
528.5442234712506
 30
0.0
 11
509.3165969573923
 21
528.6004284712507
 31
0.0
  0
LINE
  5
362
330
2
100
AcDbEntity
  8
AM_4
100
AcDbLine
 10
509.1686889573924
 20
528.7010064712506
 30
0.0
 11
509.3165969573923
 21
528.6004284712507
 31
0.0
  0
LINE
  5
363
330
2
100
AcDbEntity
  8
AM_4
100
AcDbLine
 10
509.1686889573924
 20
528.7010064712506
 30
0.0
 11
509.0917769573923
 21
528.7453784712506
 31
0.0
  0
LINE
  5
364
330
2
100
AcDbEntity
  8
AM_4
100
AcDbLine
 10
509.0917769573923
 20
528.7453784712506
 30
0.0
 11
509.0119059573923
 21
528.7867934712505
 31
0.0
  0
LINE
  5
365
330
2
100
AcDbEntity
  8
AM_4
100
AcDbLine
 10
509.0119059573923
 20
528.7867934712505
 30
0.0
 11
508.9320349573923
 21
528.8222914712506
 31
0.0
  0
LINE
  5
366
330
2
100
AcDbEntity
  8
AM_4
100
AcDbLine
 10
508.9320349573923
 20
528.8222914712506
 30
0.0
 11
508.8462479573923
 21
528.8548314712506
 31
0.0
  0
LINE
  5
367
330
2
100
AcDbEntity
  8
AM_4
100
AcDbLine
 10
508.8462479573923
 20
528.8548314712506
 30
0.0
 11
508.7604619573923
 21
528.8844124712506
 31
0.0
  0
LINE
  5
368
330
2
100
AcDbEntity
  8
AM_4
100
AcDbLine
 10
508.7604619573923
 20
528.8844124712506
 30
0.0
 11
508.6746749573923
 21
528.9110364712505
 31
0.0
  0
LINE
  5
369
330
2
100
AcDbEntity
  8
AM_4
100
AcDbLine
 10
508.6746749573923
 20
528.9110364712505
 30
0.0
 11
508.5829709573925
 21
528.9317434712505
 31
0.0
  0
LINE
  5
36A
330
2
100
AcDbEntity
  8
AM_4
100
AcDbLine
 10
508.5711389573923
 20
528.5175994712504
 30
0.0
 11
508.6391769573923
 21
528.4968924712505
 31
0.0
  0
LINE
  5
36B
330
2
100
AcDbEntity
  8
AM_4
100
AcDbLine
 10
508.6391769573923
 20
528.4968924712505
 30
0.0
 11
508.7072149573923
 21
528.4732274712506
 31
0.0
  0
LINE
  5
36C
330
2
100
AcDbEntity
  8
AM_4
100
AcDbLine
 10
508.7072149573923
 20
528.4732274712506
 30
0.0
 11
508.7722939573922
 21
528.4495614712506
 31
0.0
  0
LINE
  5
36D
330
2
100
AcDbEntity
  8
AM_4
100
AcDbLine
 10
508.7722939573922
 20
528.4495614712506
 30
0.0
 11
508.8344159573924
 21
528.4199804712506
 31
0.0
  0
LINE
  5
36E
330
2
100
AcDbEntity
  8
AM_4
100
AcDbLine
 10
508.8344159573924
 20
528.4199804712506
 30
0.0
 11
508.8965369573923
 21
528.3874404712507
 31
0.0
  0
LINE
  5
36F
330
2
100
AcDbEntity
  8
AM_4
100
AcDbLine
 10
508.8965369573923
 20
528.3874404712507
 30
0.0
 11
508.9557009573923
 21
528.3519424712506
 31
0.0
  0
LINE
  5
370
330
2
100
AcDbEntity
  8
AM_4
100
AcDbLine
 10
508.9557009573923
 20
528.3519424712506
 30
0.0
 11
509.0148639573923
 21
528.3164444712506
 31
0.0
  0
LINE
  5
371
330
2
100
AcDbEntity
  8
AM_4
100
AcDbLine
 10
509.0148639573923
 20
528.3164444712506
 30
0.0
 11
509.0710689573923
 21
528.2750294712506
 31
0.0
  0
LINE
  5
372
330
2
100
AcDbEntity
  8
AM_4
100
AcDbLine
 10
509.0710689573923
 20
528.2750294712506
 30
0.0
 11
509.1243159573923
 21
528.2336154712505
 31
0.0
  0
LINE
  5
373
330
2
100
AcDbEntity
  8
AM_4
100
AcDbLine
 10
509.1243159573923
 20
528.2336154712505
 30
0.0
 11
509.1775629573923
 21
528.1862844712505
 31
0.0
  0
LINE
  5
374
330
2
100
AcDbEntity
  8
AM_4
100
AcDbLine
 10
509.1775629573923
 20
528.1862844712505
 30
0.0
 11
509.2278519573923
 21
528.1389544712506
 31
0.0
  0
LINE
  5
375
330
2
100
AcDbEntity
  8
AM_4
100
AcDbLine
 10
509.2278519573923
 20
528.1389544712506
 30
0.0
 11
509.2722249573925
 21
528.0886654712507
 31
0.0
  0
LINE
  5
376
330
2
100
AcDbEntity
  8
AM_4
100
AcDbLine
 10
509.2722249573925
 20
528.0886654712507
 30
0.0
 11
509.3195559573923
 21
528.0383764712507
 31
0.0
  0
LINE
  5
377
330
2
100
AcDbEntity
  8
AM_4
100
AcDbLine
 10
509.3195559573923
 20
528.0383764712507
 30
0.0
 11
509.3609699573923
 21
527.9821714712506
 31
0.0
  0
LINE
  5
378
330
2
100
AcDbEntity
  8
AM_4
100
AcDbLine
 10
509.3609699573923
 20
527.9821714712506
 30
0.0
 11
509.3994259573923
 21
527.9259654712506
 31
0.0
  0
LINE
  5
379
330
2
100
AcDbEntity
  8
AM_4
100
AcDbLine
 10
509.3994259573923
 20
527.9259654712506
 30
0.0
 11
509.4378819573923
 21
527.8697604712506
 31
0.0
  0
LINE
  5
37A
330
2
100
AcDbEntity
  8
AM_4
100
AcDbLine
 10
509.4378819573923
 20
527.8697604712506
 30
0.0
 11
509.4704219573923
 21
527.8076394712505
 31
0.0
  0
LINE
  5
37B
330
2
100
AcDbEntity
  8
AM_4
100
AcDbLine
 10
509.4704219573923
 20
527.8076394712505
 30
0.0
 11
509.5029619573923
 21
527.7484754712506
 31
0.0
  0
LINE
  5
37C
330
2
100
AcDbEntity
  8
AM_4
100
AcDbLine
 10
509.5029619573923
 20
527.7484754712506
 30
0.0
 11
509.5325439573923
 21
527.6833964712506
 31
0.0
  0
LINE
  5
37D
330
2
100
AcDbEntity
  8
AM_4
100
AcDbLine
 10
509.5325439573923
 20
527.6833964712506
 30
0.0
 11
509.5798739573923
 21
527.5532364712505
 31
0.0
  0
LINE
  5
37E
330
2
100
AcDbEntity
  8
AM_4
100
AcDbLine
 10
509.5798739573923
 20
527.5532364712505
 30
0.0
 11
509.5976239573923
 21
527.4851984712507
 31
0.0
  0
LINE
  5
37F
330
2
100
AcDbEntity
  8
AM_4
100
AcDbLine
 10
509.5976239573923
 20
527.4851984712507
 30
0.0
 11
509.6153729573924
 21
527.4171604712505
 31
0.0
  0
LINE
  5
380
330
2
100
AcDbEntity
  8
AM_4
100
AcDbLine
 10
509.6153729573924
 20
527.4171604712505
 30
0.0
 11
509.6272049573923
 21
527.3461644712506
 31
0.0
  0
LINE
  5
381
330
2
100
AcDbEntity
  8
AM_4
100
AcDbLine
 10
508.5415569573923
 20
528.7246714712506
 30
0.0
 11
508.8521649573923
 21
528.6418424712507
 31
0.0
  0
LINE
  5
382
330
2
100
AcDbEntity
  8
AM_4
100
AcDbLine
 10
508.8521649573923
 20
528.6418424712507
 30
0.0
 11
509.1213579573923
 21
528.4761854712505
 31
0.0
  0
LINE
  5
383
330
2
100
AcDbEntity
  8
AM_4
100
AcDbLine
 10
509.1213579573923
 20
528.4761854712505
 30
0.0
 11
509.3698439573923
 21
528.2898204712506
 31
0.0
  0
LINE
  5
384
330
2
100
AcDbEntity
  8
AM_4
100
AcDbLine
 10
509.3698439573923
 20
528.2898204712506
 30
0.0
 11
509.5769159573923
 21
528.0413344712505
 31
0.0
  0
LINE
  5
385
330
2
100
AcDbEntity
  8
AM_4
100
AcDbLine
 10
509.5769159573923
 20
528.0413344712505
 30
0.0
 11
509.7218669573924
 21
527.7721414712506
 31
0.0
  0
LINE
  5
386
330
2
100
AcDbEntity
  8
AM_4
100
AcDbLine
 10
509.7218669573924
 20
527.7721414712506
 30
0.0
 11
509.8254029573923
 21
527.4615334712506
 31
0.0
  0
LINE
  5
387
330
2
100
AcDbEntity
  8
AM_4
100
AcDbLine
 10
508.4942259573923
 20
528.9465344712506
 30
0.0
 11
508.3995649573923
 21
528.9583674712506
 31
0.0
  0
LINE
  5
388
330
2
100
AcDbEntity
  8
AM_4
100
AcDbLine
 10
508.5829709573925
 20
528.9317434712505
 30
0.0
 11
508.4942259573923
 21
528.9465344712506
 31
0.0
  0
AMDTACMWBLOCKBOMENTITY
  5
812
330
2
100
AcDbEntity
  8
AM_5
 92
        8
310
0800000000000000
  0
AMDTACMWBLOCKBOMENTITY
  5
813
330
2
100
AcDbEntity
  8
AM_5
 92
        8
310
0800000000000000
  0
AMDTACMWBLOCKBOMENTITY
  5
814
330
2
100
AcDbEntity
  8
AM_5
 92
        8
310
0800000000000000
  0
AMDTACMWBLOCKBOMENTITY
  5
815
330
2
100
AcDbEntity
  8
AM_5
 92
        8
310
0800000000000000
  0
AMDTACMWBLOCKBOMENTITY
  5
816
330
2
100
AcDbEntity
  8
AM_5
 92
        8
310
0800000000000000
  0
AMDTACMWBLOCKBOMENTITY
  5
817
330
2
100
AcDbEntity
  8
AM_5
 92
        8
310
0800000000000000
  0
AMDTACMWBLOCKBOMENTITY
  5
818
330
2
100
AcDbEntity
  8
AM_5
 92
        8
310
0800000000000000
  0
DIMENSION
  5
C18
330
2
100
AcDbEntity
  8
AM_5
100
AcDbDimension
  2
*D4
 10
3.713882027678618
 20
489.0958984769599
 30
0.0
 11
3.71388202767855
 21
656.3791533583271
 31
0.0
 70
   160
  1
<> {}{\C2;%%p5}
 71
     5
 42
310.3228272892387
  3
AM_DIN
100
AcDbAlignedDimension
 13
177.8873468327409
 23
799.4187257661987
 33
0.0
 14
189.6357937279266
 24
489.0958984769598
 34
0.0
 50
90.0
100
AcDbRotatedDimension
1001
GENIUS_GENDTOL_13
1000
TolPm
1000
h7
1000
{$3%%p$P}
1040
298.0
1001
ACAD
1000
DSTYLE
1002
{
1070
   140
1040
3.5
1070
    47
1040
5.0
1070
    48
1040
5.0
1070
   271
1070
     0
1002
}
  0
DIMENSION
  5
C1A
330
2
100
AcDbEntity
  8
AM_5
100
AcDbDimension
  2
*D5
 10
21.23644288038656
 20
772.6012605899797
 30
0.0
 11
18.78609839219745
 21
643.1736831051993
 31
0.0
 70
    32
  1
<> {}{\C2;%%p3}
 71
     5
 42
258.8551549695615
  3
AM_DIN
100
AcDbAlignedDimension
 13
135.8805401062667
 23
513.7461056204183
 33
0.0
 14
171.4514040275056
 24
772.6012605899797
 34
0.0
 50
90.0
100
AcDbRotatedDimension
1001
GENIUS_GENDTOL_13
1000
TolPm
1000
h7
1000
{$3%%p$P}
1040
259.0
1001
ACAD
1000
DSTYLE
1002
{
1070
   140
1040
3.5
1070
    47
1040
3.0
1070
    48
1040
3.0
1070
   271
1070
     0
1002
}
  0
DIMENSION
  5
C1B
330
2
100
AcDbEntity
  8
AM_5
100
AcDbDimension
  2
*D6
 10
318.4157937279264
 20
714.7424712618082
 30
0.0
 11
134.3624680845627
 21
714.7424712618082
 31
0.0
 70
   160
  1
%%c<>
 71
     5
 42
280.0
  3
AM_DIN
100
AcDbAlignedDimension
 13
38.41579372792637
 23
719.3539528502762
 33
0.0
 14
318.4157937279264
 24
717.796590599214
 34
0.0
100
AcDbRotatedDimension
1001
GENIUS_GENDTOL_13
1000

1000
h7
1000

1040
0.0
1000
%%c<>
1001
ACAD
1000
DSTYLE
1002
{
1070
   140
1040
3.5
1002
}
  0
LWPOLYLINE
  5
C1E
330
2
100
AcDbEntity
  8
AM_0
100
AcDbPolyline
 90
        2
 70
     0
 43
0.0
 10
166.7303796489854
 20
489.0958984769598
 10
190.1012078068681
 20
489.0958984769598
  0
LWPOLYLINE
  5
C1F
330
2
100
AcDbEntity
  8
AM_0
100
AcDbPolyline
 90
        2
 70
     0
 43
1.0
 10
115.0115714136581
 20
504.6110290246896
 10
115.0115714136581
 20
491.7834054152788
  0
ARC
  5
C26
330
2
100
AcDbEntity
  8
AM_0
100
AcDbCircle
 10
289.1657937279264
 20
717.796590599214
 30
0.0
 40
29.25
100
AcDbArc
 50
0.0
 51
63.92902895486058
1001
GENIUS_GENODEF_13
1002
{
1000
HIER
1070
     0
1002
}
1002
{
1000
MANEDIT
1070
     0
1002
}
1002
{
1000
NOSEL
1070
     0
1002
}
1002
{
1000
BEHIND
1070
     0
1002
}
1002
{
1000
REACTOR
1002
}
1001
GENIUS_GENOBJ-N-FIL_13
1002
{
1000
OWNER
1000
GEN
1002
}
  0
ARC
  5
C2B
330
2
100
AcDbEntity
  8
AM_0
100
AcDbCircle
 10
317.1657937279264
 20
656.6875008767112
 30
0.0
 40
1.25
100
AcDbArc
 50
330.0000000000011
 51
0.0
1001
GENIUS_GENODEF_13
1002
{
1000
HIER
1070
     0
1002
}
1002
{
1000
MANEDIT
1070
     0
1002
}
1002
{
1000
NOSEL
1070
     0
1002
}
1002
{
1000
BEHIND
1070
     0
1002
}
1002
{
1000
REACTOR
1002
}
1001
GENIUS_GENOBJ-N-FIL_13
1002
{
1000
OWNER
1000
GEN
1002
}
  0
ARC
  5
C2C
330
2
100
AcDbEntity
  8
AM_0
100
AcDbCircle
 10
318.1657937279264
 20
653.9195516842803
 30
0.0
 40
1.0
100
AcDbArc
 50
150.0000000000011
 51
173.3958084310494
1001
GENIUS_GENODEF_13
1002
{
1000
HIER
1070
     0
1002
}
1002
{
1000
MANEDIT
1070
     0
1002
}
1002
{
1000
NOSEL
1070
     0
1002
}
1002
{
1000
BEHIND
1070
     0
1002
}
1002
{
1000
REACTOR
1002
}
1001
GENIUS_GENOBJ-N-FIL_13
1002
{
1000
OWNER
1000
GEN
1002
}
  0
LINE
  5
C2D
330
2
100
AcDbEntity
  8
AM_0
100
AcDbLine
 10
317.1724293734045
 20
654.0345615063182
 30
0.0
 11
318.4157937279264
 21
654.0345615063182
 31
0.0
  0
LINE
  5
C2E
330
2
100
AcDbEntity
  8
AM_0
100
AcDbLine
 10
317.0774941412605
 20
654.0345615063182
 30
0.0
 11
318.2483254826569
 21
656.0625008767114
 31
0.0
  0
LINE
  5
C35
330
2
100
AcDbEntity
  8
AM_0
100
AcDbLine
 10
318.4157937279264
 20
717.796590599214
 30
0.0
 11
318.4157937279264
 21
656.6875008767112
 31
0.0
  0
ARC
  5
C37
330
2
100
AcDbEntity
  8
AM_0
100
AcDbCircle
 10
289.1657937279264
 20
581.5254717838156
 30
0.0
 40
29.25
100
AcDbArc
 50
296.0709710451394
 51
0.0
1001
GENIUS_GENODEF_13
1002
{
1000
HIER
1070
     0
1002
}
1002
{
1000
MANEDIT
1070
     0
1002
}
1002
{
1000
NOSEL
1070
     0
1002
}
1002
{
1000
BEHIND
1070
     0
1002
}
1002
{
1000
REACTOR
1002
}
1001
GENIUS_GENOBJ-N-FIL_13
1002
{
1000
OWNER
1000
GEN
1002
}
  0
LINE
  5
C38
330
2
100
AcDbEntity
  8
AM_0
100
AcDbLine
 10
318.4157937279264
 20
581.5254717838156
 30
0.0
 11
318.4157937279264
 21
654.0345615063182
 31
0.0
  0
ARC
  5
C3B
330
2
100
AcDbEntity
  8
AM_0
100
AcDbCircle
 10
181.6268594607312
 20
794.4187257661987
 30
0.0
 40
5.0
100
AcDbArc
 50
28.58808396743589
 51
90.0
  0
LINE
  5
C3C
330
2
100
AcDbEntity
  8
AM_0
100
AcDbLine
 10
175.0449544956567
 20
799.4187257661987
 30
0.0
 11
181.7866329601969
 21
799.4187257661987
 31
0.0
  0
ARC
  5
C3E
330
2
100
AcDbEntity
  8
AM_0
100
AcDbCircle
 10
175.2047279951215
 20
794.4187257661987
 30
0.0
 40
5.0
100
AcDbArc
 50
90.0
 51
151.411916032564
  0
ARC
  5
C42
330
2
100
AcDbEntity
  8
AM_0
100
AcDbCircle
 10
198.2130869737933
 20
773.6875008767114
 30
0.0
 40
1.0
100
AcDbArc
 50
270.0
 51
29.99999999999891
  0
LINE
  5
C63
330
2
100
AcDbEntity
  8
AM_0
100
AcDbLine
 10
185.4514040275065
 20
772.6875008767112
 30
0.0
 11
198.2130869737933
 21
772.6875008767112
 31
0.0
  0
LINE
  5
C69
330
2
100
AcDbEntity
  8
AM_0
100
AcDbLine
 10
186.0172720202356
 20
796.8112720159808
 30
0.0
 11
199.0791123775774
 21
774.1875008767114
 31
0.0
  0
LINE
  5
C6D
330
2
100
AcDbEntity
  8
AM_0
100
AcDbLine
 10
158.6185004820603
 20
772.6875008767112
 30
0.0
 11
171.4514040275065
 21
772.6875008767112
 31
0.0
  0
ARC
  5
C6E
330
2
100
AcDbEntity
  8
AM_0
100
AcDbCircle
 10
158.6185004820603
 20
773.6875008767114
 30
0.0
 40
1.0
100
AcDbArc
 50
150.0000000000011
 51
270.0
  0
LINE
  5
C71
330
2
100
AcDbEntity
  8
AM_0
100
AcDbLine
 10
170.814315435617
 20
796.8112720159808
 30
0.0
 11
157.7524750782753
 21
774.1875008767114
 31
0.0
  0
ARC
  5
CA1
330
2
100
AcDbEntity
  8
AM_0
100
AcDbCircle
 10
67.66579372792637
 20
717.796590599214
 30
0.0
 40
29.25
100
AcDbArc
 50
116.0709710451394
 51
180.0
1001
GENIUS_GENODEF_13
1002
{
1000
HIER
1070
     0
1002
}
1002
{
1000
MANEDIT
1070
     0
1002
}
1002
{
1000
NOSEL
1070
     0
1002
}
1002
{
1000
BEHIND
1070
     0
1002
}
1002
{
1000
REACTOR
1002
}
1001
GENIUS_GENOBJ-N-FIL_13
1002
{
1000
OWNER
1000
GEN
1002
}
  0
ARC
  5
CA2
330
2
100
AcDbEntity
  8
AM_0
100
AcDbCircle
 10
39.66579372792637
 20
656.6875008767112
 30
0.0
 40
1.25
100
AcDbArc
 50
180.0
 51
209.9999999999989
1001
GENIUS_GENODEF_13
1002
{
1000
HIER
1070
     0
1002
}
1002
{
1000
MANEDIT
1070
     0
1002
}
1002
{
1000
NOSEL
1070
     0
1002
}
1002
{
1000
BEHIND
1070
     0
1002
}
1002
{
1000
REACTOR
1002
}
1001
GENIUS_GENOBJ-N-FIL_13
1002
{
1000
OWNER
1000
GEN
1002
}
  0
ARC
  5
CA3
330
2
100
AcDbEntity
  8
AM_0
100
AcDbCircle
 10
38.66579372792637
 20
653.9195516842803
 30
0.0
 40
1.0
100
AcDbArc
 50
0.0
 51
29.99999999999891
1001
GENIUS_GENODEF_13
1002
{
1000
HIER
1070
     0
1002
}
1002
{
1000
MANEDIT
1070
     0
1002
}
1002
{
1000
NOSEL
1070
     0
1002
}
1002
{
1000
BEHIND
1070
     0
1002
}
1002
{
1000
REACTOR
1002
}
1001
GENIUS_GENOBJ-N-FIL_13
1002
{
1000
OWNER
1000
GEN
1002
}
  0
LINE
  5
CA4
330
2
100
AcDbEntity
  8
AM_0
100
AcDbLine
 10
38.41579372792637
 20
654.0345615063182
 30
0.0
 11
317.0774941412605
 21
654.0345615063182
 31
0.0
  0
LINE
  5
CA5
330
2
100
AcDbEntity
  8
AM_0
100
AcDbLine
 10
39.53181913171136
 20
654.4195516842805
 30
0.0
 11
38.58326197319582
 21
656.0625008767114
 31
0.0
  0
LINE
  5
CA6
330
2
100
AcDbEntity
  8
AM_0
100
AcDbLine
 10
38.41579372792637
 20
717.796590599214
 30
0.0
 11
38.41579372792637
 21
656.6875008767112
 31
0.0
  0
LINE
  5
CE3
330
2
100
AcDbEntity
  8
AM_0
100
AcDbLine
 10
219.165793727927
 20
525.7958984769602
 30
0.0
 11
219.1657937279264
 21
528.1704217135646
 31
0.0
  0
LINE
  5
CE8
330
2
100
AcDbEntity
  8
AM_0
100
AcDbLine
 10
134.9157937279263
 20
525.7958984769602
 30
0.0
 11
221.9157937279264
 21
525.7958984769602
 31
0.0
  0
ARC
  5
CEA
330
2
100
AcDbEntity
  8
AM_0
100
AcDbCircle
 10
220.1657937279264
 20
528.1704217135646
 30
0.0
 40
1.0
100
AcDbArc
 50
97.68615262813408
 51
180.0
  0
ARC
  5
CEB
330
2
100
AcDbEntity
  8
AM_0
100
AcDbCircle
 10
221.9157937279264
 20
521.5458984769602
 30
0.0
 40
4.25
100
AcDbArc
 50
0.0
 51
90.0
  0
ARC
  5
CF2
330
2
100
AcDbEntity
  8
AM_0
100
AcDbCircle
 10
224.0089683492973
 20
512.8175055788768
 30
0.0
 40
2.0
100
AcDbArc
 50
99.70846015365266
 51
128.2165177954928
1001
GENIUS_GENODEF_13
1002
{
1000
HIER
1070
     0
1002
}
1002
{
1000
MANEDIT
1070
     0
1002
}
1002
{
1000
NOSEL
1070
     0
1002
}
1002
{
1000
BEHIND
1070
     0
1002
}
1002
{
1000
REACTOR
1002
}
1001
GENIUS_GENOBJ-N-FIL_13
1002
{
1000
OWNER
1000
GEN
1002
}
  0
ARC
  5
CF4
330
2
100
AcDbEntity
  8
AM_0
100
AcDbCircle
 10
223.1657937279273
 20
517.7458984769599
 30
0.0
 40
3.0
100
AcDbArc
 50
279.7084601536526
 51
0.0
1001
GENIUS_GENODEF_13
1002
{
1000
HIER
1070
     0
1002
}
1002
{
1000
MANEDIT
1070
     0
1002
}
1002
{
1000
NOSEL
1070
     0
1002
}
1002
{
1000
BEHIND
1070
     0
1002
}
1002
{
1000
REACTOR
1002
}
1001
GENIUS_GENOBJ-N-FIL_13
1002
{
1000
OWNER
1000
GEN
1002
}
  0
ARC
  5
CF9
330
2
100
AcDbEntity
  8
AM_0
100
AcDbCircle
 10
220.9157937279264
 20
516.7458984769599
 30
0.0
 40
3.0
100
AcDbArc
 50
269.326689924661
 51
308.2165177954928
  0
LINE
  5
CFC
330
2
100
AcDbEntity
  8
AM_0
100
AcDbLine
 10
226.1657937279273
 20
521.5458984769602
 30
0.0
 11
226.1657937279273
 21
517.7458984769599
 31
0.0
  0
LINE
  5
D05
330
2
100
AcDbEntity
  8
AM_0
100
AcDbLine
 10
190.1012078068681
 20
489.0958984769598
 30
0.0
 11
191.6357937279266
 21
490.6304843980187
 31
0.0
  0
LINE
  5
D06
330
2
100
AcDbEntity
  8
AM_4
100
AcDbLine
 10
190.2081343439307
 20
489.2028250140229
 30
0.0
 11
190.2081343439307
 21
513.7461056204183
 31
0.0
  0
LINE
  5
D0B
330
2
100
AcDbEntity
  8
AM_0
100
AcDbLine
 10
191.6357937279266
 20
490.6304843980187
 30
0.0
 11
191.6357937279266
 21
513.7461056204183
 31
0.0
  0
LINE
  5
D53
330
2
100
AcDbEntity
  8
AM_0
100
AcDbLine
 10
137.6657937279263
 20
525.7958984769602
 30
0.0
 11
137.6657937279263
 21
528.1704217135646
 31
0.0
  0
ARC
  5
D58
330
2
100
AcDbEntity
  8
AM_0
100
AcDbCircle
 10
136.6657937279273
 20
528.1704217135646
 30
0.0
 40
1.0
100
AcDbArc
 50
0.0
 51
82.31384737186592
  0
ARC
  5
D5D
330
2
100
AcDbEntity
  8
AM_0
100
AcDbCircle
 10
134.9157937279263
 20
521.5458984769602
 30
0.0
 40
4.25
100
AcDbArc
 50
90.0
 51
180.0
  0
LINE
  5
D66
330
2
100
AcDbEntity
  8
AM_0
100
AcDbLine
 10
166.7303796489854
 20
489.0958984769598
 30
0.0
 11
165.195793727927
 21
490.6304843980187
 31
0.0
  0
LINE
  5
D67
330
2
100
AcDbEntity
  8
AM_4
100
AcDbLine
 10
166.6234531119229
 20
489.2028250140229
 30
0.0
 11
166.6234531119229
 21
513.7461056204183
 31
0.0
  0
ARC
  5
D72
330
2
100
AcDbEntity
  8
AM_0
100
AcDbCircle
 10
133.6657937279273
 20
517.7458984769599
 30
0.0
 40
3.0
100
AcDbArc
 50
180.0
 51
260.2915398463474
1001
GENIUS_GENODEF_13
1002
{
1000
HIER
1070
     0
1002
}
1002
{
1000
MANEDIT
1070
     0
1002
}
1002
{
1000
NOSEL
1070
     0
1002
}
1002
{
1000
BEHIND
1070
     0
1002
}
1002
{
1000
REACTOR
1002
}
1001
GENIUS_GENOBJ-N-FIL_13
1002
{
1000
OWNER
1000
GEN
1002
}
  0
ARC
  5
D77
330
2
100
AcDbEntity
  8
AM_0
100
AcDbCircle
 10
132.8226191065572
 20
512.8175055788768
 30
0.0
 40
2.0
100
AcDbArc
 50
51.78348220450716
 51
80.29153984634737
1001
GENIUS_GENODEF_13
1002
{
1000
HIER
1070
     0
1002
}
1002
{
1000
MANEDIT
1070
     0
1002
}
1002
{
1000
NOSEL
1070
     0
1002
}
1002
{
1000
BEHIND
1070
     0
1002
}
1002
{
1000
REACTOR
1002
}
1001
GENIUS_GENOBJ-N-FIL_13
1002
{
1000
OWNER
1000
GEN
1002
}
  0
ARC
  5
D78
330
2
100
AcDbEntity
  8
AM_0
100
AcDbCircle
 10
135.9157937279273
 20
516.7458984769599
 30
0.0
 40
3.0
100
AcDbArc
 50
231.7834822045071
 51
270.6733100753433
  0
LINE
  5
D7C
330
2
100
AcDbEntity
  8
AM_0
100
AcDbLine
 10
220.951047349586
 20
513.7461056204183
 30
0.0
 11
135.8805401062675
 21
513.7461056204183
 31
0.0
  0
LINE
  5
D7F
330
2
100
AcDbEntity
  8
AM_0
100
AcDbLine
 10
130.6657937279273
 20
521.5458984769602
 30
0.0
 11
130.6657937279273
 21
517.7458984769599
 31
0.0
  0
LINE
  5
D84
330
2
100
AcDbEntity
  8
AM_0
100
AcDbLine
 10
165.195793727927
 20
490.6304843980187
 30
0.0
 11
165.195793727927
 21
513.7461056204183
 31
0.0
  0
MTEXT
  5
D93
330
2
100
AcDbEntity
  8
AM_6
 62
     7
100
AcDbMText
 10
122.7406974895301
 20
491.1173267967504
 30
0.0
 40
5.0
 41
0.0
 71
     8
 72
     5
  1
Y
 73
     1
 44
1.0
1001
ACAD
1000
MTEXTBEGIN
1070
    73
1070
     1
1070
    44
1040
1.0
1070
    74
1070
     0
1000
MTEXTEND
  0
LINE
  5
D94
330
2
100
AcDbEntity
  8
AM_0
100
AcDbLine
 10
117.5080467237566
 20
502.1136157935168
 30
0.0
 11
112.4014533185171
 21
502.1136157935168
 31
0.0
  0
SOLID
  5
D95
330
2
100
AcDbEntity
  8
AM_0
100
AcDbTrace
 10
115.0114896434323
 20
512.8979000782053
 30
0.0
 11
117.5080467237566
 21
502.1136157935168
 31
0.0
 12
112.4014533185171
 22
502.1136157935168
 32
0.0
 13
112.4014533185171
 23
502.1136157935168
 33
0.0
  0
LINE
  5
D96
330
2
100
AcDbEntity
  8
AM_0
100
AcDbLine
 10
112.4014533185171
 20
502.1136157935168
 30
0.0
 11
115.0114896434323
 21
512.8979000782053
 31
0.0
  0
LINE
  5
D97
330
2
100
AcDbEntity
  8
AM_0
100
AcDbLine
 10
115.0114896434323
 20
512.8979000782053
 30
0.0
 11
117.5080467237566
 21
502.1136157935168
 31
0.0
  0
DIMENSION
  5
D98
330
2
100
AcDbEntity
  8
AM_5
100
AcDbDimension
  2
*D3
 10
191.6357937279266
 20
476.729672767417
 30
0.0
 11
209.1857937279266
 21
479.1858912009551
 31
0.0
 70
    32
  1
ISO 228-G 3/4
 71
     5
 42
26.4399999999996
  3
AM_DIN
100
AcDbAlignedDimension
 13
165.195793727927
 23
502.3049967761807
 33
0.0
 14
191.6357937279266
 24
502.3049967761807
 34
0.0
100
AcDbRotatedDimension
1001
ACAD
1000
DSTYLE
1002
{
1070
   140
1040
3.5
1002
}
  0
ARC
  5
D9B
330
2
100
AcDbEntity
  8
AM_0
100
AcDbCircle
 10
67.66579372792637
 20
581.5254717838156
 30
0.0
 40
29.25
100
AcDbArc
 50
180.0
 51
243.9290289548606
1001
GENIUS_GENODEF_13
1002
{
1000
HIER
1070
     0
1002
}
1002
{
1000
MANEDIT
1070
     0
1002
}
1002
{
1000
NOSEL
1070
     0
1002
}
1002
{
1000
BEHIND
1070
     0
1002
}
1002
{
1000
REACTOR
1002
}
1001
GENIUS_GENOBJ-N-FIL_13
1002
{
1000
OWNER
1000
GEN
1002
}
  0
ARC
  5
DED
330
2
100
AcDbEntity
  8
AM_0
100
AcDbCircle
 10
172.9435411931466
 20
784.6142384916568
 30
0.0
 40
257.9971365087093
100
AcDbArc
 50
242.7493756913353
 51
261.9495159879376
  0
LINE
  5
DF1
330
2
100
AcDbEntity
  8
AM_7
100
AcDbLine
 10
178.8534879359096
 20
797.748186878864
 30
0.0
 11
178.8534879359096
 21
480.8681167212771
 31
0.0
  0
LINE
  5
DF2
330
2
100
AcDbEntity
  8
AM_0
100
AcDbLine
 10
38.41579372792637
 20
581.5254717838156
 30
0.0
 11
38.41579372792637
 21
654.0345615063182
 31
0.0
  0
ARC
  5
DF8
330
2
100
AcDbEntity
  8
AM_0
100
AcDbCircle
 10
183.888046262707
 20
784.6142384916568
 30
0.0
 40
257.9971365087093
100
AcDbArc
 50
278.0533192879955
 51
297.2506243086647
  0
ARC
  5
DFA
330
2
100
AcDbEntity
  8
AM_0
100
AcDbCircle
 10
178.4157937279263
 20
491.4375008767113
 30
0.0
 40
281.25
100
AcDbArc
 50
63.92902895486058
 51
116.0709710451394
  0
AMDTACMWBLOCKBOMENTITY
  5
DFD
330
2
100
AcDbEntity
  8
AM_5
 92
        8
310
0800000000000000
  0
AMDTACMWBLOCKBOMENTITY
  5
DFE
330
2
100
AcDbEntity
  8
AM_5
 92
        8
310
0800000000000000
  0
AMDTACMWBLOCKBOMENTITY
  5
DFF
330
2
100
AcDbEntity
  8
AM_5
 92
        8
310
0800000000000000
  0
AMDTACMWBLOCKBOMENTITY
  5
E00
330
2
100
AcDbEntity
  8
AM_5
 92
        8
310
0800000000000000
  0
AMDTACMWBLOCKBOMENTITY
  5
E01
330
2
100
AcDbEntity
  8
AM_5
 92
        8
310
0800000000000000
  0
AMDTACMWBLOCKBOMENTITY
  5
E02
330
2
100
AcDbEntity
  8
AM_5
 92
        8
310
0800000000000000
  0
AMDTACMWBLOCKBOMENTITY
  5
E03
330
2
100
AcDbEntity
  8
AM_5
 92
        8
310
0800000000000000
  0
AMDTACMWBLOCKBOMENTITY
  5
E0A
330
2
100
AcDbEntity
  8
AM_5
 92
        8
310
0800000000000000
370
    25
  0
LINE
  5
1061
330
2
100
AcDbEntity
  8
AM_0
100
AcDbLine
 10
165.195793727927
 20
490.6304843980187
 30
0.0
 11
191.6357937279266
 21
490.6304843980187
 31
0.0
  0
LINE
  5
1062
330
2
100
AcDbEntity
  8
AM_4
100
AcDbLine
 10
139.1836450212241
 20
529.1246339230654
 30
0.0
 11
217.9009248545299
 21
529.1246339230651
 31
0.0
  0
ENDSEC
  0
SECTION
  2
OBJECTS
  0
DICTIONARY
  5
9
330
0
100
AcDbDictionary
281
     1
  3
ACAD_COLOR
350
28
  3
ACAD_GROUP
350
24
  3
ACAD_LAYOUT
350
D
  3
ACAD_MATERIAL
350
27
  3
ACAD_MLINESTYLE
350
25
  3
ACAD_PLOTSETTINGS
350
26
  3
ACAD_PLOTSTYLENAME
350
8
  3
ACAD_TABLESTYLE
350
29
  3
ACAD_VISUALSTYLE
350
F67
  3
AcDbVariableDictionary
350
3F4
  3
AcmDictionary
350
3A2
  3
AMG
350
391
  3
AMGSNAPSETTINGS
350
432
  3
DWGPROPS
350
1085
  0
DICTIONARY
  5
3
330
2
100
AcDbDictionary
280
     1
281
     1
  3
ACAD_SORTENTS
360
38F
  0
DICTIONARY
  5
28
102
{ACAD_REACTORS
330
9
102
}
330
9
100
AcDbDictionary
281
     1
  0
DICTIONARY
  5
24
102
{ACAD_REACTORS
330
9
102
}
330
9
100
AcDbDictionary
281
     1
  0
DICTIONARY
  5
D
102
{ACAD_REACTORS
330
9
102
}
330
9
100
AcDbDictionary
281
     1
  3
Layout1
350
12
  3
Model
350
C
  0
DICTIONARY
  5
27
102
{ACAD_REACTORS
330
9
102
}
330
9
100
AcDbDictionary
281
     1
  3
ByBlock
350
F65
  3
ByLayer
350
F64
  3
Global
350
F66
  0
DICTIONARY
  5
25
102
{ACAD_REACTORS
330
9
102
}
330
9
100
AcDbDictionary
281
     1
  3
Standard
350
2B
  0
DICTIONARY
  5
26
102
{ACAD_REACTORS
330
9
102
}
330
9
100
AcDbDictionary
281
     1
  0
ACDBDICTIONARYWDFLT
  5
8
102
{ACAD_REACTORS
330
9
102
}
330
9
100
AcDbDictionary
281
     1
  3
Normal
350
7
100
AcDbDictionaryWithDefault
340
7
  0
DICTIONARY
  5
29
102
{ACAD_REACTORS
330
9
102
}
330
9
100
AcDbDictionary
281
     1
  3
Standard
350
2C
  0
DICTIONARY
  5
F67
102
{ACAD_REACTORS
330
9
102
}
330
9
100
AcDbDictionary
281
     1
  3
2dWireframe
350
F6D
  3
3D Hidden
350
F6F
  3
3dWireframe
350
F6E
  3
Basic
350
F6C
  3
Brighten
350
F73
  3
ColorChange
350
F77
  3
Conceptual
350
F70
  3
Dim
350
F72
  3
Facepattern
350
F76
  3
Flat
350
F68
  3
FlatWithEdges
350
F69
  3
Gouraud
350
F6A
  3
GouraudWithEdges
350
F6B
  3
Linepattern
350
F75
  3
Realistic
350
F71
  3
Thicken
350
F74
  0
DICTIONARY
  5
3F4
102
{ACAD_REACTORS
330
9
102
}
330
9
100
AcDbDictionary
281
     1
  3
CTABLESTYLE
350
3F5
  3
DIMASSOC
350
F59
  3
HIDETEXT
350
F58
  3
INDEXCTL
350
1084
  3
PROJECTNAME
350
F5A
  3
SORTENTS
350
1083
  0
DICTIONARY
  5
3A2
102
{ACAD_REACTORS
330
9
102
}
330
9
100
AcDbDictionary
281
     1
  3
AcmStdDictionary
350
3A3
  3
AMDTSECTSYM_ARROWCOLOR
350
427
  0
DICTIONARY
  5
391
102
{ACAD_REACTORS
330
9
102
}
330
9
100
AcDbDictionary
281
     1
  0
DICTIONARY
  5
432
102
{ACAD_REACTORS
330
9
102
}
330
9
100
AcDbDictionary
281
     1
  0
XRECORD
  5
1085
102
{ACAD_REACTORS
330
9
102
}
330
9
100
AcDbXrecord
280
     1
  1
DWGPROPS COOKIE
  2

  3

  4

  6

  7

  8
Schieman
  9

300
=
301
=
302
=
303
=
304
=
305
=
306
=
307
=
308
=
309
=
 40
3.551673599537036
 41
2452908.547844861
 42
2454175.378198959
  1

 90
        0
  0
SORTENTSTABLE
  5
38F
102
{ACAD_REACTORS
330
3
102
}
330
3
100
AcDbSortentsTable
330
2
  0
LAYOUT
  5
12
102
{ACAD_XDICTIONARY
360
1088
102
}
102
{ACAD_REACTORS
330
D
102
}
330
D
100
AcDbPlotSettings
  1

  2
none_device
  4
Letter_(8.50_x_11.00_Inches)
  6

 40
6.349999904632567
 41
6.349999904632567
 42
6.350006103515625
 43
6.350006103515625
 44
215.8999938964844
 45
279.3999938964844
 46
0.0
 47
0.0
 48
0.0
 49
0.0
140
0.0
141
0.0
142
1.0
143
1.0
 70
 15024
 72
     1
 73
     1
 74
     5
  7
ganz_fein_1.ctb
 75
    16
147
1.0
148
0.0
149
0.0
100
AcDbLayout
  1
Layout1
 70
     1
 71
     1
 10
0.0
 20
0.0
 11
420.0
 21
297.0
 12
0.0
 22
0.0
 32
0.0
 14
1.000000000000000E+20
 24
1.000000000000000E+20
 34
1.000000000000000E+20
 15
-1.000000000000000E+20
 25
-1.000000000000000E+20
 35
-1.000000000000000E+20
146
0.0
 13
0.0
 23
0.0
 33
0.0
 16
1.0
 26
0.0
 36
0.0
 17
0.0
 27
1.0
 37
0.0
 76
     0
330
F
  0
LAYOUT
  5
C
102
{ACAD_XDICTIONARY
360
1086
102
}
102
{ACAD_REACTORS
330
D
102
}
330
D
100
AcDbPlotSettings
  1

  2
FinePrint pdfFactory
  4
A4
  6
AM_VIEW6
 40
7.143749713897705
 41
7.143725872039794
 42
7.143753051757812
 43
7.14373779296875
 44
210.0156707763672
 45
297.0106506347656
 46
1.0
 47
1.0
 48
-269.8052631578948
 49
-207.1011557610241
140
324.1947368421053
141
212.8988442389758
142
1.0
143
2.145833194417956
 70
 11952
 72
     1
 73
     1
 74
     4
  7
ganz_fein_1.ctb
 75
     0
147
0.4660194476445518
148
269.8052631578948
149
207.1011557610241
100
AcDbLayout
  1
Model
 70
     1
 71
     0
 10
0.0
 20
0.0
 11
12.0
 21
9.0
 12
0.0
 22
0.0
 32
0.0
 14
0.0
 24
0.0
 34
0.0
 15
0.0
 25
0.0
 35
0.0
146
0.0
 13
0.0
 23
0.0
 33
0.0
 16
1.0
 26
0.0
 36
0.0
 17
0.0
 27
1.0
 37
0.0
 76
     0
330
2
331
F5B
  0
MATERIAL
  5
F65
102
{ACAD_XDICTIONARY
360
108E
102
}
102
{ACAD_REACTORS
330
27
102
}
330
27
100
AcDbMaterial
  1
ByBlock
  0
MATERIAL
  5
F64
102
{ACAD_XDICTIONARY
360
108C
102
}
102
{ACAD_REACTORS
330
27
102
}
330
27
100
AcDbMaterial
  1
ByLayer
  0
MATERIAL
  5
F66
102
{ACAD_XDICTIONARY
360
1090
102
}
102
{ACAD_REACTORS
330
27
102
}
330
27
100
AcDbMaterial
  1
Global
  0
MLINESTYLE
  5
2B
102
{ACAD_REACTORS
330
25
102
}
330
25
100
AcDbMlineStyle
  2
STANDARD
 70
     0
  3

 62
   256
 51
90.0
 52
90.0
 71
     2
 49
0.5
 62
   256
  6
BYLAYER
 49
-0.5
 62
   256
  6
BYLAYER
  0
ACDBPLACEHOLDER
  5
7
102
{ACAD_REACTORS
330
8
102
}
330
8
  0
TABLESTYLE
  5
2C
102
{ACAD_XDICTIONARY
360
108A
102
}
102
{ACAD_REACTORS
330
29
102
}
330
29
100
AcDbTableStyle
  3
Standard
 70
     0
 71
     0
 40
1.5
 41
1.5
280
     0
281
     0
  7
STANDARD
140
4.5
170
     2
 62
     0
 63
     7
283
     0
274
    -2
284
     1
 64
     0
275
    -2
285
     1
 65
     0
276
    -2
286
     1
 66
     0
277
    -2
287
     1
 67
     0
278
    -2
288
     1
 68
     0
279
    -2
289
     1
 69
     0
  7
STANDARD
140
6.0
170
     5
 62
     0
 63
     7
283
     0
274
    -2
284
     1
 64
     0
275
    -2
285
     1
 65
     0
276
    -2
286
     1
 66
     0
277
    -2
287
     1
 67
     0
278
    -2
288
     1
 68
     0
279
    -2
289
     1
 69
     0
  7
STANDARD
140
4.5
170
     5
 62
     0
 63
     7
283
     0
274
    -2
284
     1
 64
     0
275
    -2
285
     1
 65
     0
276
    -2
286
     1
 66
     0
277
    -2
287
     1
 67
     0
278
    -2
288
     1
 68
     0
279
    -2
289
     1
 69
     0
  0
VISUALSTYLE
  5
F6D
102
{ACAD_REACTORS
330
F67
102
}
330
F67
100
AcDbVisualStyle
  2
2dWireframe
 70
     4
 71
     0
 72
     2
 73
     0
 90
        0
 40
-0.6
 41
-30.0
 62
     5
 63
     7
 74
     1
 91
        4
 64
     7
 65
   257
 75
     1
175
     1
 42
1.0
 92
        0
 66
   257
 43
1.0
 76
     1
 77
     6
 78
     2
 67
     7
 79
     5
170
     0
171
     0
290
     0
174
     0
 93
        1
 44
0.0
173
     0
291
     0
 45
0.0
1001
ACAD
1000
AcDbSavedByObjectVersion
1070
     0
  0
VISUALSTYLE
  5
F6F
102
{ACAD_REACTORS
330
F67
102
}
330
F67
100
AcDbVisualStyle
  2
3D Hidden
 70
     6
 71
     1
 72
     2
 73
     2
 90
        0
 40
-0.6
 41
-30.0
 62
     5
 63
     7
 74
     2
 91
        2
 64
     7
 65
   257
 75
     2
175
     1
 42
40.0
 92
        0
 66
   257
 43
1.0
 76
     1
 77
     6
 78
     2
 67
     7
 79
     3
170
     0
171
     0
290
     0
174
     0
 93
        1
 44
0.0
173
     0
291
     0
 45
0.0
1001
ACAD
1000
AcDbSavedByObjectVersion
1070
     0
  0
VISUALSTYLE
  5
F6E
102
{ACAD_REACTORS
330
F67
102
}
330
F67
100
AcDbVisualStyle
  2
3dWireframe
 70
     5
 71
     0
 72
     2
 73
     0
 90
        0
 40
-0.6
 41
-30.0
 62
     5
 63
     7
 74
     1
 91
        4
 64
     7
 65
   257
 75
     1
175
     1
 42
1.0
 92
        0
 66
   257
 43
1.0
 76
     1
 77
     6
 78
     2
 67
     7
 79
     5
170
     0
171
     0
290
     0
174
     0
 93
        1
 44
0.0
173
     0
291
     0
 45
0.0
1001
ACAD
1000
AcDbSavedByObjectVersion
1070
     0
  0
VISUALSTYLE
  5
F6C
102
{ACAD_REACTORS
330
F67
102
}
330
F67
100
AcDbVisualStyle
  2
Basic
 70
     7
 71
     1
 72
     0
 73
     1
 90
        0
 40
-0.6
 41
-30.0
 62
     5
 63
     7
 74
     0
 91
        4
 64
     7
 65
   257
 75
     1
175
     1
 42
1.0
 92
        8
 66
     7
 43
1.0
 76
     1
 77
     6
 78
     2
 67
     7
 79
     5
170
     0
171
     0
290
     0
174
     0
 93
        1
 44
0.0
173
     0
291
     1
 45
0.0
1001
ACAD
1000
AcDbSavedByObjectVersion
1070
     0
  0
VISUALSTYLE
  5
F73
102
{ACAD_REACTORS
330
F67
102
}
330
F67
100
AcDbVisualStyle
  2
Brighten
 70
    12
 71
     2
 72
     2
 73
     0
 90
        0
 40
-0.6
 41
-30.0
 62
     5
 63
     7
 74
     1
 91
        4
 64
     7
 65
   257
 75
     1
175
     1
 42
1.0
 92
        8
 66
     7
 43
1.0
 76
     1
 77
     6
 78
     2
 67
     7
 79
     5
170
     0
171
     0
290
     0
174
     0
 93
        1
 44
50.0
173
     0
291
     1
 45
0.0
1001
ACAD
1000
AcDbSavedByObjectVersion
1070
     0
  0
VISUALSTYLE
  5
F77
102
{ACAD_REACTORS
330
F67
102
}
330
F67
100
AcDbVisualStyle
  2
ColorChange
 70
    16
 71
     2
 72
     2
 73
     3
 90
        0
 40
-0.6
 41
-30.0
 62
     5
 63
     8
 74
     1
 91
        4
 64
     7
 65
   257
 75
     1
175
     1
 42
1.0
 92
        8
 66
     8
 43
1.0
 76
     1
 77
     6
 78
     2
 67
     7
 79
     5
170
     0
171
     0
290
     0
174
     0
 93
        1
 44
0.0
173
     0
291
     1
 45
0.0
1001
ACAD
1000
AcDbSavedByObjectVersion
1070
     0
  0
VISUALSTYLE
  5
F70
102
{ACAD_REACTORS
330
F67
102
}
330
F67
100
AcDbVisualStyle
  2
Conceptual
 70
     9
 71
     3
 72
     2
 73
     0
 90
        0
 40
-0.6
 41
-30.0
 62
     5
 63
     7
 74
     2
 91
        2
 64
     7
 65
   257
 75
     1
175
     1
 42
40.0
 92
        8
 66
     7
 43
1.0
 76
     1
 77
     6
 78
     2
 67
     7
 79
     3
170
     0
171
     0
290
     0
174
     0
 93
        1
 44
0.0
173
     0
291
     0
 45
0.0
1001
ACAD
1000
AcDbSavedByObjectVersion
1070
     0
  0
VISUALSTYLE
  5
F72
102
{ACAD_REACTORS
330
F67
102
}
330
F67
100
AcDbVisualStyle
  2
Dim
 70
    11
 71
     2
 72
     2
 73
     0
 90
        0
 40
-0.6
 41
-30.0
 62
     5
 63
     7
 74
     1
 91
        4
 64
     7
 65
   257
 75
     1
175
     1
 42
1.0
 92
        8
 66
     7
 43
1.0
 76
     1
 77
     6
 78
     2
 67
     7
 79
     5
170
     0
171
     0
290
     0
174
     0
 93
        1
 44
-50.0
173
     0
291
     1
 45
0.0
1001
ACAD
1000
AcDbSavedByObjectVersion
1070
     0
  0
VISUALSTYLE
  5
F76
102
{ACAD_REACTORS
330
F67
102
}
330
F67
100
AcDbVisualStyle
  2
Facepattern
 70
    15
 71
     2
 72
     2
 73
     0
 90
        0
 40
-0.6
 41
-30.0
 62
     5
 63
     7
 74
     1
 91
        4
 64
     7
 65
   257
 75
     1
175
     1
 42
1.0
 92
        8
 66
     7
 43
1.0
 76
     1
 77
     6
 78
     2
 67
     7
 79
     5
170
     0
171
     0
290
     0
174
     0
 93
        1
 44
0.0
173
     0
291
     1
 45
0.0
1001
ACAD
1000
AcDbSavedByObjectVersion
1070
     0
  0
VISUALSTYLE
  5
F68
102
{ACAD_REACTORS
330
F67
102
}
330
F67
100
AcDbVisualStyle
  2
Flat
 70
     0
 71
     2
 72
     1
 73
     1
 90
        2
 40
-0.6
 41
30.0
 62
     5
 63
     7
 74
     0
 91
        4
 64
     7
 65
   257
 75
     1
175
     1
 42
1.0
 92
        8
 66
     7
 43
1.0
 76
     1
 77
     6
 78
     2
 67
     7
 79
     5
170
     0
171
     0
290
     0
174
     0
 93
       13
 44
0.0
173
     0
291
     1
 45
0.0
1001
ACAD
1000
AcDbSavedByObjectVersion
1070
     0
  0
VISUALSTYLE
  5
F69
102
{ACAD_REACTORS
330
F67
102
}
330
F67
100
AcDbVisualStyle
  2
FlatWithEdges
 70
     1
 71
     2
 72
     1
 73
     1
 90
        2
 40
-0.6
 41
30.0
 62
     5
 63
     7
 74
     1
 91
        4
 64
     7
 65
   257
 75
     1
175
     1
 42
1.0
 92
        0
 66
   257
 43
1.0
 76
     1
 77
     6
 78
     2
 67
     7
 79
     5
170
     0
171
     0
290
     0
174
     0
 93
       13
 44
0.0
173
     0
291
     1
 45
0.0
1001
ACAD
1000
AcDbSavedByObjectVersion
1070
     0
  0
VISUALSTYLE
  5
F6A
102
{ACAD_REACTORS
330
F67
102
}
330
F67
100
AcDbVisualStyle
  2
Gouraud
 70
     2
 71
     2
 72
     2
 73
     1
 90
        2
 40
-0.6
 41
30.0
 62
     5
 63
     7
 74
     0
 91
        4
 64
     7
 65
   257
 75
     1
175
     1
 42
1.0
 92
        0
 66
     7
 43
1.0
 76
     1
 77
     6
 78
     2
 67
     7
 79
     5
170
     0
171
     0
290
     0
174
     0
 93
       13
 44
0.0
173
     0
291
     1
 45
0.0
1001
ACAD
1000
AcDbSavedByObjectVersion
1070
     0
  0
VISUALSTYLE
  5
F6B
102
{ACAD_REACTORS
330
F67
102
}
330
F67
100
AcDbVisualStyle
  2
GouraudWithEdges
 70
     3
 71
     2
 72
     2
 73
     1
 90
        2
 40
-0.6
 41
30.0
 62
     5
 63
     7
 74
     1
 91
        4
 64
     7
 65
   257
 75
     1
175
     1
 42
1.0
 92
        0
 66
   257
 43
1.0
 76
     1
 77
     6
 78
     2
 67
     7
 79
     5
170
     0
171
     0
290
     0
174
     0
 93
       13
 44
0.0
173
     0
291
     1
 45
0.0
1001
ACAD
1000
AcDbSavedByObjectVersion
1070
     0
  0
VISUALSTYLE
  5
F75
102
{ACAD_REACTORS
330
F67
102
}
330
F67
100
AcDbVisualStyle
  2
Linepattern
 70
    14
 71
     2
 72
     2
 73
     0
 90
        0
 40
-0.6
 41
-30.0
 62
     5
 63
     7
 74
     1
 91
        4
 64
     7
 65
   257
 75
     7
175
     7
 42
1.0
 92
        8
 66
     7
 43
1.0
 76
     1
 77
     6
 78
     2
 67
     7
 79
     5
170
     0
171
     0
290
     0
174
     0
 93
        1
 44
0.0
173
     0
291
     1
 45
0.0
1001
ACAD
1000
AcDbSavedByObjectVersion
1070
     0
  0
VISUALSTYLE
  5
F71
102
{ACAD_REACTORS
330
F67
102
}
330
F67
100
AcDbVisualStyle
  2
Realistic
 70
     8
 71
     2
 72
     2
 73
     0
 90
        0
 40
-0.6
 41
-30.0
 62
     5
 63
     7
 74
     1
 91
        0
 64
     7
 65
   257
 75
     1
175
     1
 42
1.0
 92
        8
 66
     8
 43
1.0
 76
     1
 77
     6
 78
     2
 67
     7
 79
     5
170
     0
171
     0
290
     0
174
     0
 93
       13
 44
0.0
173
     0
291
     0
 45
0.0
1001
ACAD
1000
AcDbSavedByObjectVersion
1070
     0
  0
VISUALSTYLE
  5
F74
102
{ACAD_REACTORS
330
F67
102
}
330
F67
100
AcDbVisualStyle
  2
Thicken
 70
    13
 71
     2
 72
     2
 73
     0
 90
        0
 40
-0.6
 41
-30.0
 62
     5
 63
     7
 74
     1
 91
        4
 64
     7
 65
   257
 75
     1
175
     1
 42
1.0
 92
       12
 66
     7
 43
1.0
 76
     1
 77
     6
 78
     2
 67
     7
 79
     5
170
     0
171
     0
290
     0
174
     0
 93
        1
 44
0.0
173
     0
291
     1
 45
0.0
1001
ACAD
1000
AcDbSavedByObjectVersion
1070
     0
  0
DICTIONARYVAR
  5
3F5
102
{ACAD_REACTORS
330
3F4
102
}
330
3F4
100
DictionaryVariables
280
     0
  1
STANDARD
  0
DICTIONARYVAR
  5
F59
102
{ACAD_REACTORS
330
3F4
102
}
330
3F4
100
DictionaryVariables
280
     0
  1
1
  0
DICTIONARYVAR
  5
F58
102
{ACAD_REACTORS
330
3F4
102
}
330
3F4
100
DictionaryVariables
280
     0
  1
1
  0
DICTIONARYVAR
  5
1084
102
{ACAD_REACTORS
330
3F4
102
}
330
3F4
100
DictionaryVariables
280
     0
  1
0
  0
DICTIONARYVAR
  5
F5A
102
{ACAD_REACTORS
330
3F4
102
}
330
3F4
100
DictionaryVariables
280
     0
  1

  0
DICTIONARYVAR
  5
1083
102
{ACAD_REACTORS
330
3F4
102
}
330
3F4
100
DictionaryVariables
280
     0
  1
127
  0
DICTIONARY
  5
3A3
102
{ACAD_REACTORS
330
3A2
102
}
330
3A2
100
AcDbDictionary
281
     1
  0
XRECORD
  5
427
102
{ACAD_REACTORS
330
3A2
102
}
330
3A2
100
AcDbXrecord
280
     1
 90
-1023410169
  0
DICTIONARY
  5
1088
330
12
100
AcDbDictionary
280
     1
281
     1
  3
ACAD_XREC_ROUNDTRIP
360
1089
  0
DICTIONARY
  5
1086
330
C
100
AcDbDictionary
280
     1
281
     1
  3
ACAD_XREC_ROUNDTRIP
360
1087
  0
DICTIONARY
  5
108E
330
F65
100
AcDbDictionary
280
     1
281
     1
  3
ACAD_XREC_ROUNDTRIP
360
108F
  0
DICTIONARY
  5
108C
330
F64
100
AcDbDictionary
280
     1
281
     1
  3
ACAD_XREC_ROUNDTRIP
360
108D
  0
DICTIONARY
  5
1090
330
F66
100
AcDbDictionary
280
     1
281
     1
  3
ACAD_XREC_ROUNDTRIP
360
1091
  0
DICTIONARY
  5
108A
330
2C
100
AcDbDictionary
280
     1
281
     1
  3
ACAD_XREC_ROUNDTRIP
360
108B
  0
XRECORD
  5
1089
102
{ACAD_REACTORS
330
1088
102
}
330
1088
100
AcDbXrecord
280
     1
102
SHADEPLOT
 70
     0
102
SHADEPLOTRESLEVEL
 70
     2
102
SHADEPLOTCUSTOMDPI
 70
   300
  0
XRECORD
  5
1087
102
{ACAD_REACTORS
330
1086
102
}
330
1086
100
AcDbXrecord
280
     1
102
SHADEPLOT
 70
     0
102
SHADEPLOTRESLEVEL
 70
     2
102
SHADEPLOTCUSTOMDPI
 70
   300
  0
XRECORD
  5
108F
102
{ACAD_REACTORS
330
108E
102
}
330
108E
100
AcDbXrecord
280
     1
102
MATERIAL
148
0.0
149
0.0
149
0.0
 93
        0
 94
       63
282
     0
 72
     1
 77
     1
171
     1
175
     1
179
     1
273
     0
  0
XRECORD
  5
108D
102
{ACAD_REACTORS
330
108C
102
}
330
108C
100
AcDbXrecord
280
     1
102
MATERIAL
148
0.0
149
0.0
149
0.0
 93
        0
 94
       63
282
     0
 72
     1
 77
     1
171
     1
175
     1
179
     1
273
     0
  0
XRECORD
  5
1091
102
{ACAD_REACTORS
330
1090
102
}
330
1090
100
AcDbXrecord
280
     1
102
MATERIAL
148
0.0
149
0.0
149
0.0
 93
        0
 94
       63
282
     0
 72
     1
 77
     1
171
     1
175
     1
179
     1
273
     0
  0
XRECORD
  5
108B
102
{ACAD_REACTORS
330
108A
102
}
330
108A
100
AcDbXrecord
280
     1
102
ACAD_ROUNDTRIP_PRE2007_TABLESTYLE
 90
        4
 91
        0
  1

 92
        4
 93
        0
  2

 94
        4
 95
        0
  3

  0
ENDSEC
  0
EOF
