  0
SECTION
  2
HEADER
  9
$ACADVER
  1
AC1021
  9
$ACADMAINTVER
 70
     1
  9
$DWGCODEPAGE
  3
ANSI_1252
  9
$LASTSAVEDBY
  1
zawierac
  9
$CUSTOMPROPERTYTAG
  1
AmdtFileType
  9
$CUSTOMPROPERTY
  1
84
  9
$INSBASE
 10
0.0
 20
0.0
 30
0.0
  9
$EXTMIN
 10
1133.557268445658
 20
814.6910844468475
 30
-0.0000000349181977
  9
$EXTMAX
 10
2043.165417453397
 20
1429.231332955461
 30
0.0000000814935717
  9
$LIMMIN
 10
0.0
 20
0.0
  9
$LIMMAX
 10
420.0
 20
297.0
  9
$ORTHOMODE
 70
     0
  9
$REGENMODE
 70
     1
  9
$FILLMODE
 70
     1
  9
$QTEXTMODE
 70
     0
  9
$MIRRTEXT
 70
     1
  9
$LTSCALE
 40
1.0
  9
$ATTMODE
 70
     1
  9
$TEXTSIZE
 40
2.5
  9
$TRACEWID
 40
1.0
  9
$TEXTSTYLE
  7
Standard
  9
$CLAYER
  8
0
  9
$CELTYPE
  6
ByLayer
  9
$CECOLOR
 62
   256
  9
$CELTSCALE
 40
1.0
  9
$DISPSILH
 70
     0
  9
$DIMSCALE
 40
1.0
  9
$DIMASZ
 40
2.5
  9
$DIMEXO
 40
1.0
  9
$DIMDLI
 40
10.0
  9
$DIMRND
 40
0.0
  9
$DIMDLE
 40
0.0
  9
$DIMEXE
 40
1.0
  9
$DIMTP
 40
0.1
  9
$DIMTM
 40
0.1
  9
$DIMTXT
 40
3.5
  9
$DIMCEN
 40
0.0
  9
$DIMTSZ
 40
0.0
  9
$DIMTOL
 70
     0
  9
$DIMLIM
 70
     0
  9
$DIMTIH
 70
     0
  9
$DIMTOH
 70
     0
  9
$DIMSE1
 70
     0
  9
$DIMSE2
 70
     0
  9
$DIMTAD
 70
     1
  9
$DIMZIN
 70
     8
  9
$DIMBLK
  1

  9
$DIMASO
 70
     1
  9
$DIMSHO
 70
     1
  9
$DIMPOST
  1

  9
$DIMAPOST
  1
"
  9
$DIMALT
 70
     0
  9
$DIMALTD
 70
     2
  9
$DIMALTF
 40
0.0393701
  9
$DIMLFAC
 40
1.0
  9
$DIMTOFL
 70
     1
  9
$DIMTVP
 40
0.0
  9
$DIMTIX
 70
     0
  9
$DIMSOXD
 70
     0
  9
$DIMSAH
 70
     0
  9
$DIMBLK1
  1

  9
$DIMBLK2
  1

  9
$DIMSTYLE
  2
AM_DIN
  9
$DIMCLRD
 70
   256
  9
$DIMCLRE
 70
   256
  9
$DIMCLRT
 70
     2
  9
$DIMTFAC
 40
0.71
  9
$DIMGAP
 40
1.5
  9
$DIMJUST
 70
     0
  9
$DIMSD1
 70
     0
  9
$DIMSD2
 70
     0
  9
$DIMTOLJ
 70
     0
  9
$DIMTZIN
 70
     8
  9
$DIMALTZ
 70
     0
  9
$DIMALTTZ
 70
     0
  9
$DIMUPT
 70
     0
  9
$DIMDEC
 70
     2
  9
$DIMTDEC
 70
     3
  9
$DIMALTU
 70
     2
  9
$DIMALTTD
 70
     4
  9
$DIMTXSTY
  7
Standard
  9
$DIMAUNIT
 70
     0
  9
$DIMADEC
 70
     0
  9
$DIMALTRND
 40
0.0
  9
$DIMAZIN
 70
     2
  9
$DIMDSEP
 70
    46
  9
$DIMATFIT
 70
     3
  9
$DIMFRAC
 70
     0
  9
$DIMLDRBLK
  1

  9
$DIMLUNIT
 70
     2
  9
$DIMLWD
 70
    -1
  9
$DIMLWE
 70
    -1
  9
$DIMTMOVE
 70
     0
  9
$DIMFXL
 40
1.0
  9
$DIMFXLON
 70
     0
  9
$DIMJOGANG
 40
0.7853981633974483
  9
$DIMTFILL
 70
     0
  9
$DIMTFILLCLR
 70
     0
  9
$DIMARCSYM
 70
     0
  9
$DIMLTYPE
  6

  9
$DIMLTEX1
  6

  9
$DIMLTEX2
  6

  9
$LUNITS
 70
     2
  9
$LUPREC
 70
     4
  9
$SKETCHINC
 40
1.0
  9
$FILLETRAD
 40
10.0
  9
$AUNITS
 70
     0
  9
$AUPREC
 70
     0
  9
$MENU
  1
.
  9
$ELEVATION
 40
0.0
  9
$PELEVATION
 40
0.0
  9
$THICKNESS
 40
0.0
  9
$LIMCHECK
 70
     0
  9
$CHAMFERA
 40
10.0
  9
$CHAMFERB
 40
10.0
  9
$CHAMFERC
 40
20.0
  9
$CHAMFERD
 40
0.0
  9
$SKPOLY
 70
     0
  9
$TDCREATE
 40
2456806.355973229
  9
$TDUCREATE
 40
2456806.272639896
  9
$TDUPDATE
 40
2456806.391903703
  9
$TDUUPDATE
 40
2456806.308570371
  9
$TDINDWG
 40
0.0334499537
  9
$TDUSRTIMER
 40
0.0334497685
  9
$USRTIMER
 70
     1
  9
$ANGBASE
 50
0.0
  9
$ANGDIR
 70
     0
  9
$PDMODE
 70
     0
  9
$PDSIZE
 40
0.0
  9
$PLINEWID
 40
0.0
  9
$SPLFRAME
 70
     0
  9
$SPLINETYPE
 70
     6
  9
$SPLINESEGS
 70
     8
  9
$HANDSEED
  5
AC5
  9
$SURFTAB1
 70
     6
  9
$SURFTAB2
 70
     6
  9
$SURFTYPE
 70
     6
  9
$SURFU
 70
     6
  9
$SURFV
 70
     6
  9
$UCSBASE
  2

  9
$UCSNAME
  2

  9
$UCSORG
 10
0.0
 20
0.0
 30
0.0
  9
$UCSXDIR
 10
1.0
 20
0.0
 30
0.0
  9
$UCSYDIR
 10
0.0
 20
1.0
 30
0.0
  9
$UCSORTHOREF
  2

  9
$UCSORTHOVIEW
 70
     0
  9
$UCSORGTOP
 10
0.0
 20
0.0
 30
0.0
  9
$UCSORGBOTTOM
 10
0.0
 20
0.0
 30
0.0
  9
$UCSORGLEFT
 10
0.0
 20
0.0
 30
0.0
  9
$UCSORGRIGHT
 10
0.0
 20
0.0
 30
0.0
  9
$UCSORGFRONT
 10
0.0
 20
0.0
 30
0.0
  9
$UCSORGBACK
 10
0.0
 20
0.0
 30
0.0
  9
$PUCSBASE
  2

  9
$PUCSNAME
  2

  9
$PUCSORG
 10
0.0
 20
0.0
 30
0.0
  9
$PUCSXDIR
 10
1.0
 20
0.0
 30
0.0
  9
$PUCSYDIR
 10
0.0
 20
1.0
 30
0.0
  9
$PUCSORTHOREF
  2

  9
$PUCSORTHOVIEW
 70
     0
  9
$PUCSORGTOP
 10
0.0
 20
0.0
 30
0.0
  9
$PUCSORGBOTTOM
 10
0.0
 20
0.0
 30
0.0
  9
$PUCSORGLEFT
 10
0.0
 20
0.0
 30
0.0
  9
$PUCSORGRIGHT
 10
0.0
 20
0.0
 30
0.0
  9
$PUCSORGFRONT
 10
0.0
 20
0.0
 30
0.0
  9
$PUCSORGBACK
 10
0.0
 20
0.0
 30
0.0
  9
$USERI1
 70
     0
  9
$USERI2
 70
     0
  9
$USERI3
 70
     0
  9
$USERI4
 70
     0
  9
$USERI5
 70
     0
  9
$USERR1
 40
0.0
  9
$USERR2
 40
0.0
  9
$USERR3
 40
0.0
  9
$USERR4
 40
0.0
  9
$USERR5
 40
0.0
  9
$WORLDVIEW
 70
     1
  9
$SHADEDGE
 70
     3
  9
$SHADEDIF
 70
    70
  9
$TILEMODE
 70
     1
  9
$MAXACTVP
 70
    64
  9
$PINSBASE
 10
0.0
 20
0.0
 30
0.0
  9
$PLIMCHECK
 70
     0
  9
$PEXTMIN
 10
1.000000000000000E+20
 20
1.000000000000000E+20
 30
1.000000000000000E+20
  9
$PEXTMAX
 10
-1.000000000000000E+20
 20
-1.000000000000000E+20
 30
-1.000000000000000E+20
  9
$PLIMMIN
 10
0.0
 20
0.0
  9
$PLIMMAX
 10
420.0
 20
297.0
  9
$UNITMODE
 70
     0
  9
$VISRETAIN
 70
     1
  9
$PLINEGEN
 70
     0
  9
$PSLTSCALE
 70
     1
  9
$TREEDEPTH
 70
  3020
  9
$CMLSTYLE
  2
Standard
  9
$CMLJUST
 70
     0
  9
$CMLSCALE
 40
20.0
  9
$PROXYGRAPHICS
 70
     1
  9
$MEASUREMENT
 70
     1
  9
$CELWEIGHT
370
    -1
  9
$ENDCAPS
280
     0
  9
$JOINSTYLE
280
     0
  9
$LWDISPLAY
290
     0
  9
$INSUNITS
 70
     4
  9
$HYPERLINKBASE
  1

  9
$STYLESHEET
  1
monochrome.ctb
  9
$XEDIT
290
     1
  9
$CEPSNTYPE
380
     0
  9
$PSTYLEMODE
290
     1
  9
$FINGERPRINTGUID
  2
{5BC84AE4-2AD6-4A27-8849-6F0FB848BB65}
  9
$VERSIONGUID
  2
{2112613A-515C-431B-B798-CD27799147EA}
  9
$EXTNAMES
290
     1
  9
$PSVPSCALE
 40
0.0
  9
$OLESTARTUP
290
     0
  9
$SORTENTS
280
   127
  9
$INDEXCTL
280
     0
  9
$HIDETEXT
280
     0
  9
$XCLIPFRAME
290
     0
  9
$HALOGAP
280
     0
  9
$OBSCOLOR
 70
   257
  9
$OBSLTYPE
280
     0
  9
$INTERSECTIONDISPLAY
280
     0
  9
$INTERSECTIONCOLOR
 70
   257
  9
$DIMASSOC
280
     2
  9
$PROJECTNAME
  1

  9
$CAMERADISPLAY
290
     0
  9
$LENSLENGTH
 40
50.0
  9
$CAMERAHEIGHT
 40
0.0
  9
$STEPSPERSEC
 40
2.0
  9
$STEPSIZE
 40
6.0
  9
$3DDWFPREC
 40
2.0
  9
$PSOLWIDTH
 40
0.25
  9
$PSOLHEIGHT
 40
4.0
  9
$LOFTANG1
 40
1.570796326794896
  9
$LOFTANG2
 40
1.570796326794896
  9
$LOFTMAG1
 40
0.0
  9
$LOFTMAG2
 40
0.0
  9
$LOFTPARAM
 70
     7
  9
$LOFTNORMALS
280
     1
  9
$LATITUDE
 40
37.795
  9
$LONGITUDE
 40
-122.394
  9
$NORTHDIRECTION
 40
0.0
  9
$TIMEZONE
 70
 -8000
  9
$LIGHTGLYPHDISPLAY
280
     1
  9
$TILEMODELIGHTSYNCH
280
     1
  9
$CMATERIAL
347
255
  9
$SOLIDHIST
280
     1
  9
$SHOWHIST
280
     1
  9
$DWFFRAME
280
     2
  9
$DGNFRAME
280
     0
  9
$REALWORLDSCALE
290
     1
  9
$INTERFERECOLOR
 62
     1
  9
$INTERFEREOBJVS
345
262
  9
$INTERFEREVPVS
346
25F
  9
$CSHADOW
280
     0
  9
$SHADOWPLANELOCATION
 40
0.0
  0
ENDSEC
  0
SECTION
  2
CLASSES
  0
CLASS
  1
ACDBDICTIONARYWDFLT
  2
AcDbDictionaryWithDefault
  3
ObjectDBX Classes
 90
        0
 91
        1
280
     0
281
     0
  0
CLASS
  1
ACME_DOCUMENT
  2
AcMeDbDoc
  3
AcMeServices
 90
        0
 91
        2
280
     0
281
     0
  0
CLASS
  1
AMGSETTINGSOBJ
  2
AmgSettingsObj
  3
"AcadM|Product Description: AutoCAD Mechanical|Company: Autodesk"
 90
        0
 91
        4
280
     0
281
     0
  0
CLASS
  1
ACMESCOPE
  2
AcMeScope
  3
AcMeServices
 90
        0
 91
        1
280
     0
281
     0
  0
CLASS
  1
ACMECOMMANDHISTORY
  2
AcMeCommandHistory
  3
AcMeServices
 90
        0
 91
        1
280
     0
281
     0
  0
CLASS
  1
ACIMSYSVARMAN
  2
AcImSysVarManager
  3
AcMeServices
 90
        0
 91
        5
280
     0
281
     0
  0
CLASS
  1
ACIMREALSYSVAR
  2
AcImRealSysVar
  3
AcMeServices
 90
        0
 91
        3
280
     0
281
     0
  0
CLASS
  1
ACIMINTSYSVAR
  2
AcImIntSysVar
  3
AcMeServices
 90
        0
 91
       27
280
     0
281
     0
  0
CLASS
  1
ACMEDRAWINGMAN
  2
AcMeDrawingMan
  3
AcMeServices
 90
        0
 91
        1
280
     0
281
     0
  0
CLASS
  1
ACMEVIEW
  2
AcMeView
  3
AcMeServices
 90
        0
 91
        1
280
     0
281
     0
  0
CLASS
  1
ACDBENTITYCACHE
  2
AcMeEntityCache
  3
AcMeServices
 90
        0
 91
        1
280
     0
281
     0
  0
CLASS
  1
GSMANAGER
  2
AcMeGSManager
  3
AcMeServices
 90
        0
 91
        1
280
     0
281
     0
  0
CLASS
  1
AMDTINTERNALREACTOR
  2
AmdtInternalReactor
  3
AcMeServices
 90
        0
 91
        2
280
     0
281
     0
  0
CLASS
  1
ACMESTATEMGR
  2
AcMeStateMgr
  3
AcMeServices
 90
        0
 91
        1
280
     0
281
     0
  0
CLASS
  1
ACGREFMASTER
  2
AcGrefMaster
  3
AcAttribServices
 90
        0
 91
        1
280
     0
281
     0
  0
CLASS
  1
ACME_DATABASE
  2
AcMeDbDatabase
  3
AcMeServices
 90
        0
 91
        1
280
     0
281
     0
  0
CLASS
  1
ACRFINSADJUSTERMGR
  2
AcRfInsAdjusterMgr
  3
AcMeServices
 90
        0
 91
        1
280
     0
281
     0
  0
CLASS
  1
ACGREFACADMASTER
  2
AcGrefacadMaster
  3
AcGrefServices
 90
        0
 91
        1
280
     0
281
     0
  0
CLASS
  1
AMIMASTER
  2
AmiMaster
  3
AmiServices
 90
        0
 91
        1
280
     0
281
     0
  0
CLASS
  1
ACMDATADICTIONARY
  2
AcmDataDictionary
  3
"AcmSymBB|Product Description: AutoCAD Mechanical|Company: Autodesk"
 90
        0
 91
        1
280
     0
281
     0
  0
CLASS
  1
ACMDATAENTRYBLOCK
  2
AcmDataEntryBlock
  3
"AcmSymBB|Product Description: AutoCAD Mechanical|Company: Autodesk"
 90
        0
 91
        1
280
     0
281
     0
  0
CLASS
  1
ACIMSTRSYSVAR
  2
AcImStrSysVar
  3
AcMeServices
 90
        0
 91
        5
280
     0
281
     0
  0
CLASS
  1
ACMSTANDARDISO
  2
AcmStandardISO
  3
"Amdt_StdImp|Product Description: AutoCAD Mechanical|Company: Autodesk"
 90
        0
 91
        1
280
     0
281
     0
  0
CLASS
  1
AMGOBJPROPCFG
  2
AmgObjPropCfg
  3
"AmgLay|Product Description: AutoCAD Mechanical|Company: Autodesk"
 90
        1
 91
        1
280
     0
281
     0
  0
CLASS
  1
AMDTEDGESTANDARDISO
  2
AmdtEdgeStdISO
  3
"Amdt_StdImp|Product Description: AutoCAD Mechanical|Company: Autodesk"
 90
        0
 91
        1
280
     0
281
     0
  0
CLASS
  1
ACMSURFSTANDARDISO
  2
AcmSurfTextStdISO
  3
"Amdt_StdImp|Product Description: AutoCAD Mechanical|Company: Autodesk"
 90
        0
 91
        1
280
     0
281
     0
  0
CLASS
  1
ACMFCFSTANDARDISO
  2
AcmFCFStdISO
  3
"Amdt_StdImp|Product Description: AutoCAD Mechanical|Company: Autodesk"
 90
        0
 91
        1
280
     0
281
     0
  0
CLASS
  1
ACMWELDSTANDARDISO
  2
AcmWeldingStdISO
  3
"Amdt_StdImp|Product Description: AutoCAD Mechanical|Company: Autodesk"
 90
        0
 91
        1
280
     0
281
     0
  0
CLASS
  1
ACMIDSTANDARDISO
  2
AcmIdStdISO
  3
"Amdt_StdImp|Product Description: AutoCAD Mechanical|Company: Autodesk"
 90
        0
 91
        1
280
     0
281
     0
  0
CLASS
  1
ACMDATUMSTANDARDISO
  2
AcmDatumStdISO
  3
"Amdt_StdImp|Product Description: AutoCAD Mechanical|Company: Autodesk"
 90
        0
 91
        1
280
     0
281
     0
  0
CLASS
  1
ACMBOMSTANDARDISO
  2
AcmBOMStdISO
  3
"Amdt_StdImp|Product Description: AutoCAD Mechanical|Company: Autodesk"
 90
        0
 91
        1
280
     0
281
     0
  0
CLASS
  1
ACMDETAILSTANDARDISO
  2
AmdtDetailSymStdISO
  3
"Amdt_StdImp|Product Description: AutoCAD Mechanical|Company: Autodesk"
 90
        0
 91
        1
280
     0
281
     0
  0
CLASS
  1
ACMSECTIONSTANDARDISO
  2
AmdtSectionSymStdISO
  3
"Amdt_StdImp|Product Description: AutoCAD Mechanical|Company: Autodesk"
 90
        0
 91
        1
280
     0
281
     0
  0
CLASS
  1
ACMCENTERLINESTANDARDISO
  2
AmdtCenterLineStdISO
  3
"Amdt_StdImp|Product Description: AutoCAD Mechanical|Company: Autodesk"
 90
        0
 91
        1
280
     0
281
     0
  0
CLASS
  1
ACMNOTESTANDARDISO
  2
AmdtNoteStdISO
  3
"Amdt_StdImp|Product Description: AutoCAD Mechanical|Company: Autodesk"
 90
        0
 91
        1
280
     0
281
     0
  0
CLASS
  1
ACAMGLAYSTD
  2
AcAmgLayStd
  3
"AmgLay|Product Description: AutoCAD Mechanical|Company: Autodesk"
 90
        0
 91
        2
280
     0
281
     0
  0
CLASS
  1
ACAMGDIMSTD
  2
AcAmgDimStd
  3
"AmgDim|Product Description: AutoCAD Mechanical|Company: Autodesk"
 90
        0
 91
        2
280
     0
281
     0
  0
CLASS
  1
ACAMGHOLECHARTSTDISO
  2
AcAmgHoleChartStdISO
  3
ACMSYMBB_MODULE_NAME
 90
        0
 91
        1
280
     0
281
     0
  0
CLASS
  1
ACAMGTITLESTD
  2
AcAmgTitleStd
  3
"AmgTitle|Product Description: AutoCAD Mechanical|Company: Autodesk"
 90
        0
 91
        2
280
     0
281
     0
  0
CLASS
  1
LAYER_INDEX
  2
AcDbLayerIndex
  3
ObjectDBX Classes
 90
        0
 91
        0
280
     0
281
     0
  0
CLASS
  1
IDBUFFER
  2
AcDbIdBuffer
  3
ObjectDBX Classes
 90
        0
 91
        0
280
     0
281
     0
  0
CLASS
  1
DICTIONARYVAR
  2
AcDbDictionaryVar
  3
ObjectDBX Classes
 90
        0
 91
        3
280
     0
281
     0
  0
CLASS
  1
AM_DRAWING_MGR
  2
AcDmDwgMgr
  3
AcMechDwgViewMgmt
 90
        0
 91
        1
280
     0
281
     0
  0
CLASS
  1
AM_DWG_DOCUMENT
  2
AcDmDwgDocument
  3
AcMechDwgViewMgmt
 90
        0
 91
        1
280
     0
281
     0
  0
CLASS
  1
AM_DWG_SHEET
  2
AcDmSheet
  3
AcMechDwgViewMgmt
 90
        0
 91
        2
280
     0
281
     0
  0
CLASS
  1
AM_VIEWDIMPARMAP
  2
AcDmViewDimParMap
  3
AcMechDwgViewMgmt
 90
        0
 91
        2
280
     0
281
     0
  0
CLASS
  1
AM_DWGMGR_NAME
  2
AcDmDwgMgrName
  3
AcMechDwgViewMgmt
 90
        0
 91
        1
280
     0
281
     0
  0
CLASS
  1
AMDTMENUSTATEMGR
  2
AmdtMenuStateMgr
  3
McadcomServices
 90
        0
 91
        1
280
     0
281
     0
  0
CLASS
  1
AMDTMCOMMENUSTATE
  2
AmdtMcomMenuState
  3
McadcomServices
 90
        0
 91
        1
280
     0
281
     0
  0
CLASS
  1
MAPIAMMOUDLE
  2
MApiAmModule
  3
MApiAmServices
 90
        0
 91
        1
280
     0
281
     0
  0
CLASS
  1
AMDTADMENUSTATE
  2
AmdtAdMenuState
  3
DesignerServices
 90
        0
 91
        1
280
     0
281
     0
  0
CLASS
  1
ADAPPL
  2
AcAdAppl
  3
DesignerServices
 90
        0
 91
        1
280
     0
281
     0
  0
CLASS
  1
DEPMGR
  2
AcAdDepMgr
  3
DesignerServices
 90
        0
 91
        1
280
     0
281
     0
  0
CLASS
  1
PARAMMGR
  2
AcAdParamMgr
  3
DesignerServices
 90
        0
 91
        1
280
     0
281
     0
  0
CLASS
  1
PARAMSCOPE
  2
AcAdParamScope
  3
DesignerServices
 90
        0
 91
        1
280
     0
281
     0
  0
CLASS
  1
NAMEDAPPL
  2
AcAdNamedAppl
  3
DesignerServices
 90
        0
 91
        1
280
     0
281
     0
  0
CLASS
  1
AMDTDMMENUSTATE
  2
AmdtDmMenuState
  3
AcMechDwgViewMgmt
 90
        0
 91
        1
280
     0
281
     0
  0
CLASS
  1
AMDTAMMENUSTATE
  2
AmdtAmMenuState
  3
DesignerAssemblies
 90
        0
 91
        1
280
     0
281
     0
  0
CLASS
  1
ACAMPROJECT
  2
AcAmProject
  3
DesignerAssemblies
 90
        0
 91
        1
280
     0
281
     0
  0
CLASS
  1
ACAMGRCOMPDEF
  2
AcAmGrCompDef
  3
DesignerAssemblies
 90
        0
 91
        1
280
     0
281
     0
  0
CLASS
  1
ACCMCONTEXT
  2
AcCmContext
  3
DesignerAssemblies
 90
        0
 91
        1
280
     0
281
     0
  0
CLASS
  1
ACAMCOMPDEF
  2
AcAmCompDef
  3
DesignerAssemblies
 90
        0
 91
        1
280
     0
281
     0
  0
CLASS
  1
ACAMCOMPDEFMGR
  2
AcAmCompDefMgr
  3
DesignerAssemblies
 90
        0
 91
        1
280
     0
281
     0
  0
CLASS
  1
AMCONTEXTMGR
  2
AcAmContextMgr
  3
DesignerAssemblies
 90
        0
 91
        1
280
     0
281
     0
  0
CLASS
  1
ACAMCONTEXTMODELER
  2
AcAmContextModeler
  3
DesignerAssemblies
 90
        0
 91
        1
280
     0
281
     0
  0
CLASS
  1
ACMTHREADLINESTANDARDISO
  2
AmdtThreadLineStdISO
  3
"Amdt_StdImp|Product Description: AutoCAD Mechanical|Company: Autodesk"
 90
        0
 91
        1
280
     0
281
     0
  0
CLASS
  1
CATALOGSTATE
  2
AcAmCatalogState
  3
DesignerAssemblies
 90
        0
 91
        1
280
     0
281
     0
  0
CLASS
  1
ACAMGRCOMPDEFSET
  2
AcAmGrCompDefSet
  3
DesignerAssemblies
 90
        0
 91
        1
280
     0
281
     0
  0
CLASS
  1
AMDTBROWSERDBTAB
  2
AmdtBrowserDbTab
  3
McadcomServices
 90
        0
 91
        1
280
     0
281
     0
  0
CLASS
  1
CBROWSERAPPOBJECT
  2
CBrowserAppObject
  3
McadcomServices
 90
        0
 91
        3
280
     0
281
     0
  0
CLASS
  1
DM_PLACEHOLDER
  2
AcDmSelsetPlaceholder
  3
AcMechDwgViewMgmt
 90
        0
 91
        1
280
     0
281
     0
  0
CLASS
  1
TABLESTYLE
  2
AcDbTableStyle
  3
ObjectDBX Classes
 90
     4095
 91
        1
280
     0
281
     0
  0
CLASS
  1
VAACXREFPANELOBJECT
  2
VaAcXREFPanelObject
  3
VAAC_ADDIN
 90
        0
 91
        0
280
     0
281
     0
  0
CLASS
  1
VAACIMAGEINVENTORY
  2
VaAcImageInventory
  3
VAAC_ADDIN
 90
        0
 91
        0
280
     0
281
     0
  0
CLASS
  1
AMDTNOTETEMPLATEDB
  2
AmdtNoteTemplateDB
  3
AMDT_STDIMP_MODULE_NAME
 90
        0
 91
        9
280
     0
281
     0
  0
CLASS
  1
ACMBOM
  2
AcmBom
  3
"AcmSymBB|Product Description: AutoCAD Mechanical|Company: Autodesk"
 90
        0
 91
        0
280
     0
281
     0
  0
CLASS
  1
AMDTFORMULAUPDATEDISPATCHER
  2
AmdtFormulaUpdateDispatcher
  3
AcMeServices
 90
        0
 91
        0
280
     0
281
     0
  0
CLASS
  1
ACAMGFILTERDAT
  2
AcAmgFilterDat
  3
"AcadM|Product Description: AutoCAD Mechanical|Company: Autodesk"
 90
        0
 91
        6
280
     0
281
     0
  0
CLASS
  1
ACMSTANDARDDIN
  2
AcmStandardDIN
  3
"Amdt_StdImp|Product Description: AutoCAD Mechanical|Company: Autodesk"
 90
        0
 91
        1
280
     0
281
     0
  0
CLASS
  1
AMDTEDGESTANDARDDIN13715
  2
AmdtEdgeStdDIN13715
  3
"Amdt_StdImp|Product Description: AutoCAD Mechanical|Company: Autodesk"
 90
        0
 91
        1
280
     0
281
     0
  0
CLASS
  1
ACMSURFSTANDARDDIN
  2
AcmSurfTextStdDIN
  3
"Amdt_StdImp|Product Description: AutoCAD Mechanical|Company: Autodesk"
 90
        0
 91
        1
280
     0
281
     0
  0
CLASS
  1
ACMFCFSTANDARDDIN
  2
AcmFCFStdDIN
  3
"Amdt_StdImp|Product Description: AutoCAD Mechanical|Company: Autodesk"
 90
        0
 91
        1
280
     0
281
     0
  0
CLASS
  1
ACMWELDSTANDARDDIN
  2
AcmWeldingStdDIN
  3
"Amdt_StdImp|Product Description: AutoCAD Mechanical|Company: Autodesk"
 90
        0
 91
        1
280
     0
281
     0
  0
CLASS
  1
ACMIDSTANDARDDIN
  2
AcmIdStdDIN
  3
"Amdt_StdImp|Product Description: AutoCAD Mechanical|Company: Autodesk"
 90
        0
 91
        1
280
     0
281
     0
  0
CLASS
  1
ACMDATUMSTANDARDDIN
  2
AcmDatumStdDIN
  3
"Amdt_StdImp|Product Description: AutoCAD Mechanical|Company: Autodesk"
 90
        0
 91
        1
280
     0
281
     0
  0
CLASS
  1
ACMBOMSTANDARDDIN
  2
AcmBOMStdDIN
  3
"Amdt_StdImp|Product Description: AutoCAD Mechanical|Company: Autodesk"
 90
        0
 91
        1
280
     0
281
     0
  0
CLASS
  1
ACMDETAILSTANDARDDIN
  2
AmdtDetailSymStdDIN
  3
"Amdt_StdImp|Product Description: AutoCAD Mechanical|Company: Autodesk"
 90
        0
 91
        1
280
     0
281
     0
  0
CLASS
  1
ACMSECTIONSTANDARDDIN
  2
AmdtSectionSymStdDIN
  3
"Amdt_StdImp|Product Description: AutoCAD Mechanical|Company: Autodesk"
 90
        0
 91
        1
280
     0
281
     0
  0
CLASS
  1
ACMCENTERLINESTANDARDDIN
  2
AmdtCenterLineStdDIN
  3
"Amdt_StdImp|Product Description: AutoCAD Mechanical|Company: Autodesk"
 90
        0
 91
        1
280
     0
281
     0
  0
CLASS
  1
ACMTHREADLINESTANDARDDIN
  2
AmdtThreadLineStdDIN
  3
"Amdt_StdImp|Product Description: AutoCAD Mechanical|Company: Autodesk"
 90
        0
 91
        1
280
     0
281
     0
  0
CLASS
  1
ACMNOTESTANDARDDIN
  2
AmdtNoteStdDIN
  3
"Amdt_StdImp|Product Description: AutoCAD Mechanical|Company: Autodesk"
 90
        0
 91
        1
280
     0
281
     0
  0
CLASS
  1
ACAMGHOLECHARTSTDDIN
  2
AcAmgHoleChartStdDIN
  3
ACMSYMBB_MODULE_NAME
 90
        0
 91
        1
280
     0
281
     0
  0
CLASS
  1
MATERIAL
  2
AcDbMaterial
  3
ObjectDBX Classes
 90
     1024
 91
        3
280
     0
281
     0
  0
CLASS
  1
VISUALSTYLE
  2
AcDbVisualStyle
  3
ObjectDBX Classes
 90
     4095
 91
       16
280
     0
281
     0
  0
CLASS
  1
ACRFATTGENMGR
  2
AcRfAttGeneralMgr
  3
AcAttribServices
 90
        0
 91
        1
280
     0
281
     0
  0
CLASS
  1
ACRFOBJATTMGR
  2
AcRfObjAttGroupMgr
  3
AcAttribServices
 90
        0
 91
        1
280
     0
281
     0
  0
CLASS
  1
ACRFMCADAPIATTHOLDER
  2
AcRfMCADAPIAttHolder
  3
AcAttribServices
 90
        0
 91
        1
280
     0
281
     0
  0
CLASS
  1
AMDTSYSATTR
  2
AmdtSystemAttribute
  3
AcAttribServices
 90
        0
 91
        1
280
     0
281
     0
  0
CLASS
  1
ACMTAPERSTANDARDISO
  2
AcmTaperStdISO
  3
"Amdt_StdImp|Product Description: AutoCAD Mechanical|Company: Autodesk"
 90
        0
 91
        1
280
     0
281
     0
  0
CLASS
  1
ACMTAPERSTANDARDDIN
  2
AcmTaperStdDIN
  3
"Amdt_StdImp|Product Description: AutoCAD Mechanical|Company: Autodesk"
 90
        0
 91
        1
280
     0
281
     0
  0
CLASS
  1
CAMSSTRUCTBTNSTATE
  2
StructBtnState
  3
L"DesignerAssemblies"
 90
        0
 91
        1
280
     0
281
     0
  0
CLASS
  1
AMDTNOTE
  2
AmdtNote
  3
"AcmSymBB|Product Description: AutoCAD Mechanical|Company: Autodesk"
 90
     3071
 91
        1
280
     0
281
     1
  0
CLASS
  1
ACMWELDSYM
  2
AcmWelding
  3
"AcmSymBB|Product Description: AutoCAD Mechanical|Company: Autodesk"
 90
     3071
 91
        0
280
     0
281
     1
  0
CLASS
  1
ACDBCIRCARCRES
  2
AcDbCircArcRes
  3
AcGrefServices
 90
        0
 91
        1
280
     0
281
     0
  0
CLASS
  1
ACMPARTREF
  2
AcmPartRef
  3
"AcmSymBB|Product Description: AutoCAD Mechanical|Company: Autodesk"
 90
     3071
 91
        0
280
     0
281
     1
  0
CLASS
  1
DIMASSOC
  2
AcDbDimAssoc
  3
"AcDbDimAssoc|Product Desc:     AcDim ARX App For Dimension|Company:          Autodesk, Inc.|WEB Address:      www.autodesk.com"
 90
        0
 91
        3
280
     0
281
     0
  0
CLASS
  1
ACMDATAENTRYPART
  2
AcmDataEntryPart
  3
"AcmSymBB|Product Description: AutoCAD Mechanical|Company: Autodesk"
 90
        0
 91
        6
280
     0
281
     0
  0
ENDSEC
  0
SECTION
  2
TABLES
  0
TABLE
  2
VPORT
  5
8
330
0
100
AcDbSymbolTable
 70
     1
  0
VPORT
  5
253
330
8
100
AcDbSymbolTableRecord
100
AcDbViewportTableRecord
  2
*Active
 70
     0
 10
0.0
 20
0.0
 11
1.0
 21
1.0
 12
1588.403561058667
 22
1121.92696759504
 13
0.0
 23
0.0
 14
10.0
 24
10.0
 15
10.0
 25
10.0
 16
0.0
 26
0.0
 36
1.0
 17
0.0
 27
0.0
 37
0.0
 40
618.398600583805
 41
1.888421052631579
 42
50.0
 43
0.0
 44
0.0
 50
0.0
 51
0.0
 71
     0
 72
  8000
 73
     1
 74
     3
 75
     0
 76
     0
 77
     0
 78
     0
281
     0
 65
     1
110
0.0
120
0.0
130
0.0
111
1.0
121
0.0
131
0.0
112
0.0
122
1.0
132
0.0
 79
     0
146
0.0
348
25E
 60
     3
 61
     5
292
     1
282
     1
141
0.0
142
0.0
 63
   250
421
  3355443
  0
ENDTAB
  0
TABLE
  2
LTYPE
  5
5
330
0
100
AcDbSymbolTable
 70
    23
  0
LTYPE
  5
14
330
5
100
AcDbSymbolTableRecord
100
AcDbLinetypeTableRecord
  2
ByBlock
 70
     0
  3

 72
    65
 73
     0
 40
0.0
  0
LTYPE
  5
15
330
5
100
AcDbSymbolTableRecord
100
AcDbLinetypeTableRecord
  2
ByLayer
 70
     0
  3

 72
    65
 73
     0
 40
0.0
  0
LTYPE
  5
16
330
5
100
AcDbSymbolTableRecord
100
AcDbLinetypeTableRecord
  2
Continuous
 70
     0
  3
Solid line
 72
    65
 73
     0
 40
0.0
  0
LTYPE
  5
64
330
5
100
AcDbSymbolTableRecord
100
AcDbLinetypeTableRecord
  2
AM_ISO02W050
 70
     0
  3
__ __ __ __ __ __ __ __ __ __ __ __ __ __ __
 72
    65
 73
     2
 40
7.5
 49
6.0
 74
     0
 49
-1.5
 74
     0
  0
LTYPE
  5
65
330
5
100
AcDbSymbolTableRecord
100
AcDbLinetypeTableRecord
  2
AM_ISO08W050
 70
     0
  3
____ . ____ . ____ . ____ . ____ . ____ . ____
 72
    65
 73
     4
 40
18.0
 49
12.0
 74
     0
 49
-1.5
 74
     0
 49
3.0
 74
     0
 49
-1.5
 74
     0
  0
LTYPE
  5
66
330
5
100
AcDbSymbolTableRecord
100
AcDbLinetypeTableRecord
  2
AM_ISO09W050
 70
     0
  3
_____ . . _____ . . _____ . . ____ .. ____
 72
    65
 73
     6
 40
22.5
 49
12.0
 74
     0
 49
-1.5
 74
     0
 49
3.0
 74
     0
 49
-1.5
 74
     0
 49
3.0
 74
     0
 49
-1.5
 74
     0
  0
LTYPE
  5
67
330
5
100
AcDbSymbolTableRecord
100
AcDbLinetypeTableRecord
  2
Amconstr
 70
     0
  3
_______________________
 72
    65
 73
     2
 40
9999.0
 49
9999.0
 74
     0
 49
0.0
 74
     0
  0
LTYPE
  5
68
330
5
100
AcDbSymbolTableRecord
100
AcDbLinetypeTableRecord
  2
AM_ISO08W050x2
 70
     0
  3
__ . __ . __ . __ . __ . __
 72
    65
 73
     4
 40
9.0
 49
6.0
 74
     0
 49
-0.75
 74
     0
 49
1.5
 74
     0
 49
-0.75
 74
     0
  0
LTYPE
  5
69
330
5
100
AcDbSymbolTableRecord
100
AcDbLinetypeTableRecord
  2
AM_ISO02W050x2
 70
     0
  3
 _ _ _ _ _ _ _ _ _ _ _ _
 72
    65
 73
     2
 40
3.75
 49
3.0
 74
     0
 49
-0.75
 74
     0
  0
LTYPE
  5
6C
330
5
100
AcDbSymbolTableRecord
100
AcDbLinetypeTableRecord
  2
Amzigzag
 70
     0
  3
/\/-/\/-/\/-/\/-/\/-/\/
 72
    65
 73
     2
 40
11.0001
 49
0.0001
 74
     4
 75
   135
340
6B
 46
0.04
 50
0.0
 44
0.0
 45
0.0
 49
-11.0
 74
     0
  0
LTYPE
  5
7A
330
5
100
AcDbSymbolTableRecord
100
AcDbLinetypeTableRecord
  2
ACISOWELD
 70
     0
  3
_ _ _ _ _
 72
    65
 73
     2
 40
2.0
 49
2.0
 74
     0
 49
-1.0
 74
     0
  0
LTYPE
  5
7B
330
5
100
AcDbSymbolTableRecord
100
AcDbLinetypeTableRecord
  2
ACISOTGB
 70
     0
  3
__ . . __ . .
 72
    65
 73
     6
 40
9.0
 49
4.0
 74
     0
 49
-1.0
 74
     0
 49
1.0
 74
     0
 49
-1.0
 74
     0
 49
1.0
 74
     0
 49
-1.0
 74
     0
  0
LTYPE
  5
7C
330
5
100
AcDbSymbolTableRecord
100
AcDbLinetypeTableRecord
  2
ACISOTGL
 70
     0
  3
_ _ _ _ _
 72
    65
 73
     2
 40
3.0
 49
2.0
 74
     0
 49
-1.0
 74
     0
  0
LTYPE
  5
7E
330
5
100
AcDbSymbolTableRecord
100
AcDbLinetypeTableRecord
  2
CENTER
 70
     0
  3
__ . __
 72
    65
 73
     4
 40
7.0
 49
4.0
 74
     0
 49
-1.0
 74
     0
 49
1.0
 74
     0
 49
-1.0
 74
     0
  0
LTYPE
  5
D8
330
5
100
AcDbSymbolTableRecord
100
AcDbLinetypeTableRecord
  2
HIDDEN
 70
     0
  3
Hidden __ __ __ __ __ __ __ __ __ __ __ __ __ _
 72
    65
 73
     2
 40
9.524999999999998
 49
6.349999999999999
 74
     0
 49
-3.174999999999999
 74
     0
  0
LTYPE
  5
D9
330
5
100
AcDbSymbolTableRecord
100
AcDbLinetypeTableRecord
  2
PHANTOM2
 70
     0
  3
Phantom (.5x) ___ _ _ ___ _ _ ___ _ _ ___ _ _
 72
    65
 73
     6
 40
31.75
 49
15.875
 74
     0
 49
-3.174999999999999
 74
     0
 49
3.174999999999999
 74
     0
 49
-3.174999999999999
 74
     0
 49
3.174999999999999
 74
     0
 49
-3.174999999999999
 74
     0
  0
LTYPE
  5
23B
330
5
100
AcDbSymbolTableRecord
100
AcDbLinetypeTableRecord
  2
ACDINWELD
 70
     0
  3
_ _ _ _ _
 72
    65
 73
     2
 40
2.0
 49
2.0
 74
     0
 49
-1.0
 74
     0
  0
LTYPE
  5
23C
330
5
100
AcDbSymbolTableRecord
100
AcDbLinetypeTableRecord
  2
ACDINTGB
 70
     0
  3
__ . . __ . .
 72
    65
 73
     6
 40
9.0
 49
4.0
 74
     0
 49
-1.0
 74
     0
 49
1.0
 74
     0
 49
-1.0
 74
     0
 49
1.0
 74
     0
 49
-1.0
 74
     0
  0
LTYPE
  5
23D
330
5
100
AcDbSymbolTableRecord
100
AcDbLinetypeTableRecord
  2
ACDINTGL
 70
     0
  3
_ _ _ _ _
 72
    65
 73
     2
 40
3.0
 49
2.0
 74
     0
 49
-1.0
 74
     0
  0
LTYPE
  5
24E
330
5
100
AcDbSymbolTableRecord
100
AcDbLinetypeTableRecord
  2
AM_DIN_F_W050
 70
     0
  3
__ __ __ __ __ __ __ __ __ __ __ __ __ __ __
 72
    65
 73
     2
 40
6.25
 49
4.75
 74
     0
 49
-1.5
 74
     0
  0
LTYPE
  5
24F
330
5
100
AcDbSymbolTableRecord
100
AcDbLinetypeTableRecord
  2
AM_DIN_G_W050
 70
     0
  3
____ . ____ . ____ . ____ . ____ . ____ . ____
 72
    65
 73
     4
 40
13.75
 49
9.75
 74
     0
 49
-1.5
 74
     0
 49
1.0
 74
     0
 49
-1.5
 74
     0
  0
LTYPE
  5
250
330
5
100
AcDbSymbolTableRecord
100
AcDbLinetypeTableRecord
  2
AM_DIN_K_W050
 70
     0
  3
_____ . . _____ . . _____ . . ____ .. ____
 72
    65
 73
     6
 40
16.25
 49
9.75
 74
     0
 49
-1.5
 74
     0
 49
1.0
 74
     0
 49
-1.5
 74
     0
 49
1.0
 74
     0
 49
-1.5
 74
     0
  0
LTYPE
  5
251
330
5
100
AcDbSymbolTableRecord
100
AcDbLinetypeTableRecord
  2
AM_DIN_G_W050x2
 70
     0
  3
__ . __ . __ . __ . __ . __
 72
    65
 73
     4
 40
6.875
 49
4.75
 74
     0
 49
-0.875
 74
     0
 49
0.375
 74
     0
 49
-0.875
 74
     0
  0
LTYPE
  5
252
330
5
100
AcDbSymbolTableRecord
100
AcDbLinetypeTableRecord
  2
AM_DIN_F_W050x2
 70
     0
  3
 _ _ _ _ _ _ _ _ _ _ _ _
 72
    65
 73
     2
 40
3.125
 49
2.25
 74
     0
 49
-0.875
 74
     0
  0
LTYPE
  5
349
330
5
100
AcDbSymbolTableRecord
100
AcDbLinetypeTableRecord
  2
DASHDOT
 70
     0
  3
Dash dot __ . __ . __ . __ . __ . __ . __ . __
 72
    65
 73
     4
 40
1.0
 49
0.5
 74
     0
 49
-0.25
 74
     0
 49
0.0
 74
     0
 49
-0.25
 74
     0
  0
ENDTAB
  0
TABLE
  2
LAYER
  5
2
102
{ACAD_XDICTIONARY
360
360
102
}
330
0
100
AcDbSymbolTable
 70
    13
  0
LAYER
  5
10
330
2
100
AcDbSymbolTableRecord
100
AcDbLayerTableRecord
  2
0
 70
     0
 62
     7
  6
Continuous
370
    -3
390
F
347
257
  0
LAYER
  5
34A
330
2
100
AcDbSymbolTableRecord
100
AcDbLayerTableRecord
  2
AM_5
 70
     0
 62
     3
  6
Continuous
370
    25
390
F
347
257
  0
LAYER
  5
34B
330
2
100
AcDbSymbolTableRecord
100
AcDbLayerTableRecord
  2
AM_0
 70
     0
 62
     7
  6
Continuous
370
    50
390
F
347
257
  0
LAYER
  5
34C
330
2
100
AcDbSymbolTableRecord
100
AcDbLayerTableRecord
  2
UMRISS05
 70
     0
 62
     7
  6
Continuous
370
    -3
390
F
347
257
  0
LAYER
  5
34D
330
2
100
AcDbSymbolTableRecord
100
AcDbLayerTableRecord
  2
DEFPOINTS
 70
     0
 62
     7
  6
Continuous
290
     0
370
    -3
390
F
347
257
  0
LAYER
  5
34E
330
2
100
AcDbSymbolTableRecord
100
AcDbLayerTableRecord
  2
AM_7
 70
     0
 62
     4
  6
AM_DIN_G_W050
370
    25
390
F
347
257
  0
LAYER
  5
34F
330
2
100
AcDbSymbolTableRecord
100
AcDbLayerTableRecord
  2
AM_8
 70
     0
 62
     1
  6
Continuous
370
    25
390
F
347
257
  0
LAYER
  5
350
330
2
100
AcDbSymbolTableRecord
100
AcDbLayerTableRecord
  2
AM_3
 70
     0
 62
     6
  6
AM_DIN_F_W050
370
    25
390
F
347
257
  0
LAYER
  5
351
330
2
100
AcDbSymbolTableRecord
100
AcDbLayerTableRecord
  2
AM_4
 70
     0
 62
     3
  6
Continuous
370
    25
390
F
347
257
  0
LAYER
  5
352
330
2
100
AcDbSymbolTableRecord
100
AcDbLayerTableRecord
  2
AM_6
 70
     0
 62
     2
  6
Continuous
370
    35
390
F
347
257
  0
LAYER
  5
353
330
2
100
AcDbSymbolTableRecord
100
AcDbLayerTableRecord
  2
AM_12
 70
     0
 62
     7
  6
Continuous
290
     0
370
    50
390
F
347
257
  0
LAYER
  5
354
330
2
100
AcDbSymbolTableRecord
100
AcDbLayerTableRecord
  2
AM_PAREF
 70
     0
 62
     4
  6
Continuous
290
     0
370
    25
390
F
347
257
  0
LAYER
  5
355
330
2
100
AcDbSymbolTableRecord
100
AcDbLayerTableRecord
  2
KOPF03
 70
     0
 62
     2
  6
Continuous
370
    -3
390
F
347
257
  0
ENDTAB
  0
TABLE
  2
STYLE
  5
3
330
0
100
AcDbSymbolTable
 70
     7
  0
STYLE
  5
11
330
3
100
AcDbSymbolTableRecord
100
AcDbTextStyleTableRecord
  2
Standard
 70
     0
 40
0.0
 41
1.0
 50
0.0
 71
     0
 42
2.5
  3
ISOCP.SHX
  4
bigfont.shx
  0
STYLE
  5
6B
330
3
100
AcDbSymbolTableRecord
100
AcDbTextStyleTableRecord
  2

 70
     1
 40
0.0
 41
1.0
 50
0.0
 71
     0
 42
2.5
  3
ltypeshp.shx
  4

  0
STYLE
  5
6D
330
3
100
AcDbSymbolTableRecord
100
AcDbTextStyleTableRecord
  2
ACISOTS
 70
     0
 40
1.0
 41
1.0
 50
0.0
 71
     0
 42
2.5
  3
isocp.shx
  4
bigfont.shx
  0
STYLE
  5
79
330
3
100
AcDbSymbolTableRecord
100
AcDbTextStyleTableRecord
  2
ACISOGDT
 70
     0
 40
0.0
 41
1.0
 50
0.0
 71
     0
 42
2.5
  3
amgdt.shx
  4
bigfont.shx
  0
STYLE
  5
22D
330
3
100
AcDbSymbolTableRecord
100
AcDbTextStyleTableRecord
  2
ACDINTS
 70
     0
 40
1.0
 41
1.0
 50
0.0
 71
     0
 42
2.5
  3
isocp.shx
  4

  0
STYLE
  5
23A
330
3
100
AcDbSymbolTableRecord
100
AcDbTextStyleTableRecord
  2
ACDINGDT
 70
     0
 40
0.0
 41
1.0
 50
0.0
 71
     0
 42
2.5
  3
amgdt.shx
  4

  0
ENDTAB
  0
TABLE
  2
VIEW
  5
6
330
0
100
AcDbSymbolTable
 70
     0
  0
ENDTAB
  0
TABLE
  2
UCS
  5
7
330
0
100
AcDbSymbolTable
 70
     0
  0
ENDTAB
  0
TABLE
  2
APPID
  5
9
330
0
100
AcDbSymbolTable
 70
    20
  0
APPID
  5
12
330
9
100
AcDbSymbolTableRecord
100
AcDbRegAppTableRecord
  2
ACAD
 70
     0
  0
APPID
  5
46
330
9
100
AcDbSymbolTableRecord
100
AcDbRegAppTableRecord
  2
MCAD_NO_VIS
 70
     0
  0
APPID
  5
47
330
9
100
AcDbSymbolTableRecord
100
AcDbRegAppTableRecord
  2
ACAD_TEMP_GRAPHIC
 70
     0
  0
APPID
  5
58
330
9
100
AcDbSymbolTableRecord
100
AcDbRegAppTableRecord
  2
ACATTRIBSERVICES
 70
     0
  0
APPID
  5
EE
330
9
100
AcDbSymbolTableRecord
100
AcDbRegAppTableRecord
  2
AD_DRAW
 70
     0
  0
APPID
  5
10C
330
9
100
AcDbSymbolTableRecord
100
AcDbRegAppTableRecord
  2
DESIGNERASSEMBLIES
 70
     0
  0
APPID
  5
111
330
9
100
AcDbSymbolTableRecord
100
AcDbRegAppTableRecord
  2
ACADM_DIM_EDIT
 70
     0
  0
APPID
  5
112
330
9
100
AcDbSymbolTableRecord
100
AcDbRegAppTableRecord
  2
AMDT_DM_ADJ
 70
     0
  0
APPID
  5
357
330
9
100
AcDbSymbolTableRecord
100
AcDbRegAppTableRecord
  2
GENIUS_GENODEF_13
 70
     0
  0
APPID
  5
358
330
9
100
AcDbSymbolTableRecord
100
AcDbRegAppTableRecord
  2
GENIUS_GENDTOL_13
 70
     0
  0
APPID
  5
359
330
9
100
AcDbSymbolTableRecord
100
AcDbRegAppTableRecord
  2
GENIUS_GENOBJ-N-FIL_13
 70
     0
  0
APPID
  5
35A
330
9
100
AcDbSymbolTableRecord
100
AcDbRegAppTableRecord
  2
GENIUS_GENOBJ-N-HTC_13
 70
     0
  0
APPID
  5
35B
330
9
100
AcDbSymbolTableRecord
100
AcDbRegAppTableRecord
  2
GENIUS_GENHATCH_13
 70
     0
  0
APPID
  5
35C
330
9
100
AcDbSymbolTableRecord
100
AcDbRegAppTableRecord
  2
GENIUS_GENOBJ-N-CEN_13
 70
     0
  0
APPID
  5
35D
330
9
100
AcDbSymbolTableRecord
100
AcDbRegAppTableRecord
  2
GENIUS_GENOBJ-N-ZOO_13
 70
     0
  0
APPID
  5
35E
330
9
100
AcDbSymbolTableRecord
100
AcDbRegAppTableRecord
  2
GENIUS_GENZOO_16
 70
     0
  0
APPID
  5
35F
330
9
100
AcDbSymbolTableRecord
100
AcDbRegAppTableRecord
  2
GENIUS_GENCEN_19
 70
     0
  0
APPID
  5
9B9
330
9
100
AcDbSymbolTableRecord
100
AcDbRegAppTableRecord
  2
GENIUS_GENREC_14
 70
     0
  0
APPID
  5
9BA
330
9
100
AcDbSymbolTableRecord
100
AcDbRegAppTableRecord
  2
GENIUS_GENOBJ-N-REC_13
 70
     0
  0
APPID
  5
AB3
330
9
100
AcDbSymbolTableRecord
100
AcDbRegAppTableRecord
  2
ACAD_PSEXT
 70
     0
  0
ENDTAB
  0
TABLE
  2
DIMSTYLE
  5
A
330
0
100
AcDbSymbolTable
 70
    17
100
AcDbDimStyleTable
 71
     1
340
245
  0
DIMSTYLE
105
27
330
A
100
AcDbSymbolTableRecord
100
AcDbDimStyleTableRecord
  2
ISO-25
 70
     0
 41
2.5
 42
0.625
 43
3.75
 44
1.25
 73
     0
 74
     0
 77
     1
 78
     8
140
2.5
141
2.5
143
0.03937007874016
147
0.625
171
     3
172
     1
271
     2
272
     2
274
     3
278
    44
283
     0
284
     8
340
11
  0
DIMSTYLE
105
81
330
A
100
AcDbSymbolTableRecord
100
AcDbDimStyleTableRecord
  2
AM_ISO
 70
     0
  4
"
 41
2.5
 42
1.0
 43
10.0
 44
1.0
 47
0.1
 48
0.1
 73
     0
 74
     0
 77
     1
 78
     8
 79
     2
140
3.5
141
0.0
143
0.0393701
146
0.71
147
1.5
172
     1
176
   256
177
   256
178
     2
271
     2
272
     3
274
     4
283
     0
284
     8
340
11
371
    -1
372
    -1
  0
DIMSTYLE
105
82
330
A
100
AcDbSymbolTableRecord
100
AcDbDimStyleTableRecord
  2
AM_ISO$3
 70
     0
  4
"
 41
2.5
 42
1.0
 43
10.0
 44
1.0
 47
0.1
 48
0.1
 73
     0
 77
     1
 78
     8
 79
     2
140
3.5
141
0.0
143
0.0393701
146
0.71
147
1.5
176
   256
177
   256
178
     2
271
     2
272
     3
274
     4
283
     0
284
     8
288
     1
289
     0
340
11
371
    -1
372
    -1
  0
DIMSTYLE
105
83
330
A
100
AcDbSymbolTableRecord
100
AcDbDimStyleTableRecord
  2
AM_ISO$4
 70
     0
  4
"
 41
2.5
 42
1.0
 43
10.0
 44
1.0
 47
0.1
 48
0.1
 73
     0
 77
     1
 78
     8
 79
     2
140
3.5
141
0.0
143
0.0393701
146
0.71
147
1.5
176
   256
177
   256
178
     2
271
     2
272
     3
274
     4
283
     0
284
     8
288
     1
289
     0
340
11
371
    -1
372
    -1
  0
DIMSTYLE
105
84
330
A
100
AcDbSymbolTableRecord
100
AcDbDimStyleTableRecord
  2
AM_ISO$6
 70
     0
  4
"
 41
2.5
 42
1.0
 43
10.0
 44
1.0
 47
0.1
 48
0.1
 73
     0
 74
     0
 78
     8
 79
     2
140
3.5
141
0.0
143
0.0393701
146
0.71
147
1.5
172
     1
176
   256
177
   256
178
     2
271
     2
272
     3
274
     4
283
     0
284
     8
340
11
371
    -1
372
    -1
  0
DIMSTYLE
105
85
330
A
100
AcDbSymbolTableRecord
100
AcDbDimStyleTableRecord
  2
AM_ISO$7
 70
     0
  4
"
 41
2.5
 42
1.0
 43
10.0
 44
1.0
 47
0.1
 48
0.1
 73
     0
 74
     0
 77
     1
 78
     8
 79
     2
140
5.0
141
0.0
143
0.0393701
146
0.71
147
1.5
172
     1
176
   256
177
   256
178
     2
271
     2
272
     3
274
     4
283
     0
284
     8
340
11
371
    -1
372
    -1
  0
DIMSTYLE
105
86
330
A
100
AcDbSymbolTableRecord
100
AcDbDimStyleTableRecord
  2
AM_ISO$SF
 70
     0
  4
"
 41
2.5
 42
1.0
 43
10.0
 44
1.0
 47
0.1
 48
0.1
 73
     0
 74
     0
 75
     1
 76
     1
 77
     1
 78
     8
 79
     2
140
3.5
141
0.0
143
0.0393701
146
0.71
147
1.5
172
     1
176
   256
177
   256
178
     2
271
     2
272
     3
274
     4
283
     0
284
     8
340
11
371
    -1
372
    -1
  0
DIMSTYLE
105
8B
330
A
100
AcDbSymbolTableRecord
100
AcDbDimStyleTableRecord
  2
AM_ISO$SH
 70
     0
  4
"
 41
2.5
 42
1.0
 43
10.0
 44
1.0
 47
0.1
 48
0.1
 73
     0
 74
     0
 75
     1
 76
     1
 77
     1
 78
     8
 79
     2
140
3.5
141
0.0
143
0.0393701
144
2.0
146
0.71
147
1.5
172
     1
173
     1
176
   256
177
   256
178
     2
271
     2
272
     3
274
     4
283
     0
284
     8
340
11
343
87
371
    -1
372
    -1
  0
DIMSTYLE
105
245
102
{ACAD_REACTORS
330
6C7
330
6CC
330
6CD
330
6CF
330
5EE
330
5EF
102
}
330
A
100
AcDbSymbolTableRecord
100
AcDbDimStyleTableRecord
  2
AM_DIN
 70
     0
  4
"
 41
2.5
 42
1.0
 43
10.0
 44
1.0
 47
0.1
 48
0.1
 73
     0
 74
     0
 77
     1
 78
     8
 79
     2
140
3.5
141
0.0
143
0.0393701
146
0.71
147
1.5
172
     1
176
   256
177
   256
178
     2
271
     2
272
     3
274
     4
283
     0
284
     8
340
11
371
    -1
372
    -1
  0
DIMSTYLE
105
246
330
A
100
AcDbSymbolTableRecord
100
AcDbDimStyleTableRecord
  2
AM_DIN$3
 70
     0
  4
"
 41
2.5
 42
1.0
 43
10.0
 44
1.0
 47
0.1
 48
0.1
 73
     0
 77
     1
 78
     8
 79
     2
140
3.5
141
0.0
143
0.0393701
146
0.71
147
1.5
176
   256
177
   256
178
     2
271
     2
272
     3
274
     4
283
     0
284
     8
288
     1
289
     0
340
11
371
    -1
372
    -1
  0
DIMSTYLE
105
247
102
{ACAD_REACTORS
330
85A
330
85D
102
}
330
A
100
AcDbSymbolTableRecord
100
AcDbDimStyleTableRecord
  2
AM_DIN$4
 70
     0
  4
"
 41
2.5
 42
1.0
 43
10.0
 44
1.0
 47
0.1
 48
0.1
 73
     0
 77
     1
 78
     8
 79
     2
140
3.5
141
0.0
143
0.0393701
146
0.71
147
1.5
176
   256
177
   256
178
     2
271
     2
272
     3
274
     4
283
     0
284
     8
288
     1
289
     0
340
11
371
    -1
372
    -1
  0
DIMSTYLE
105
248
330
A
100
AcDbSymbolTableRecord
100
AcDbDimStyleTableRecord
  2
AM_DIN$6
 70
     0
  4
"
 41
2.5
 42
1.0
 43
10.0
 44
1.0
 47
0.1
 48
0.1
 73
     0
 74
     0
 78
     8
 79
     2
140
3.5
141
0.0
143
0.0393701
146
0.71
147
1.5
172
     1
176
   256
177
   256
178
     2
271
     2
272
     3
274
     4
283
     0
284
     8
340
11
371
    -1
372
    -1
  0
DIMSTYLE
105
249
330
A
100
AcDbSymbolTableRecord
100
AcDbDimStyleTableRecord
  2
AM_DIN$7
 70
     0
  4
"
 41
2.5
 42
1.0
 43
10.0
 44
1.0
 47
0.1
 48
0.1
 73
     0
 74
     0
 77
     1
 78
     8
 79
     2
140
5.0
141
0.0
143
0.0393701
146
0.71
147
1.5
172
     1
176
   256
177
   256
178
     2
271
     2
272
     3
274
     4
283
     0
284
     8
340
11
371
    -1
372
    -1
  0
DIMSTYLE
105
24A
330
A
100
AcDbSymbolTableRecord
100
AcDbDimStyleTableRecord
  2
AM_DIN$SF
 70
     0
  4
"
 41
2.5
 42
1.0
 43
10.0
 44
1.0
 47
0.1
 48
0.1
 73
     0
 74
     0
 75
     1
 76
     1
 77
     1
 78
     8
 79
     2
140
3.5
141
0.0
143
0.0393701
146
0.71
147
1.5
172
     1
176
   256
177
   256
178
     2
271
     2
272
     3
274
     4
283
     0
284
     8
340
11
371
    -1
372
    -1
  0
DIMSTYLE
105
24B
330
A
100
AcDbSymbolTableRecord
100
AcDbDimStyleTableRecord
  2
AM_DIN$SH
 70
     0
  4
"
 41
2.5
 42
1.0
 43
10.0
 44
1.0
 47
0.1
 48
0.1
 73
     0
 74
     0
 75
     1
 76
     1
 77
     1
 78
     8
 79
     2
140
3.5
141
0.0
143
0.0393701
144
2.0
146
0.71
147
1.5
172
     1
173
     1
176
   256
177
   256
178
     2
271
     2
272
     3
274
     4
283
     0
284
     8
340
11
343
87
371
    -1
372
    -1
  0
DIMSTYLE
105
356
102
{ACAD_REACTORS
330
71C
330
860
102
}
330
A
100
AcDbSymbolTableRecord
100
AcDbDimStyleTableRecord
  2
AM_DIN$0
 70
     0
  4
"
 41
2.5
 42
1.0
 43
10.0
 44
1.0
 47
0.1
 48
0.1
 73
     0
 74
     0
 77
     1
 78
     8
 79
     2
140
3.5
141
0.0
143
0.0393701
146
0.71
147
1.5
172
     1
176
   256
177
   256
178
     2
271
     2
272
     3
274
     4
283
     0
284
     8
340
11
371
    -1
372
    -1
  0
ENDTAB
  0
TABLE
  2
BLOCK_RECORD
  5
1
330
0
100
AcDbSymbolTable
 70
    29
  0
BLOCK_RECORD
  5
1F
102
{ACAD_XDICTIONARY
360
8F
102
}
330
1
100
AcDbSymbolTableRecord
100
AcDbBlockTableRecord
  2
*Model_Space
340
22
 70
     0
280
     1
281
     0
  0
BLOCK_RECORD
  5
1B
330
1
100
AcDbSymbolTableRecord
100
AcDbBlockTableRecord
  2
*Paper_Space
340
1E
 70
     0
280
     1
281
     0
  0
BLOCK_RECORD
  5
23
330
1
100
AcDbSymbolTableRecord
100
AcDbBlockTableRecord
  2
*Paper_Space0
340
26
 70
     0
280
     1
281
     0
  0
BLOCK_RECORD
  5
87
330
1
100
AcDbSymbolTableRecord
100
AcDbBlockTableRecord
  2
GENAXEH
340
0
 70
     0
280
     1
281
     0
  0
BLOCK_RECORD
  5
86B
330
1
100
AcDbSymbolTableRecord
100
AcDbBlockTableRecord
  2
*D15
340
0
 70
     0
280
     1
281
     0
  0
BLOCK_RECORD
  5
877
330
1
100
AcDbSymbolTableRecord
100
AcDbBlockTableRecord
  2
*D16
340
0
 70
     0
280
     1
281
     0
  0
BLOCK_RECORD
  5
883
330
1
100
AcDbSymbolTableRecord
100
AcDbBlockTableRecord
  2
*D17
340
0
 70
     0
280
     1
281
     0
  0
BLOCK_RECORD
  5
89B
330
1
100
AcDbSymbolTableRecord
100
AcDbBlockTableRecord
  2
*D19
340
0
 70
     0
280
     1
281
     0
  0
BLOCK_RECORD
  5
8B3
330
1
100
AcDbSymbolTableRecord
100
AcDbBlockTableRecord
  2
*D21
340
0
 70
     0
280
     1
281
     0
  0
BLOCK_RECORD
  5
8BF
330
1
100
AcDbSymbolTableRecord
100
AcDbBlockTableRecord
  2
*D22
340
0
 70
     0
280
     1
281
     0
  0
BLOCK_RECORD
  5
8CB
330
1
100
AcDbSymbolTableRecord
100
AcDbBlockTableRecord
  2
*D23
340
0
 70
     0
280
     1
281
     0
  0
BLOCK_RECORD
  5
917
330
1
100
AcDbSymbolTableRecord
100
AcDbBlockTableRecord
  2
*D24
340
0
 70
     0
280
     1
281
     0
  0
BLOCK_RECORD
  5
920
330
1
100
AcDbSymbolTableRecord
100
AcDbBlockTableRecord
  2
*D25
340
0
 70
     0
280
     1
281
     0
  0
BLOCK_RECORD
  5
929
330
1
100
AcDbSymbolTableRecord
100
AcDbBlockTableRecord
  2
*D26
340
0
 70
     0
280
     1
281
     0
  0
BLOCK_RECORD
  5
ABD
330
1
100
AcDbSymbolTableRecord
100
AcDbBlockTableRecord
  2
*S28
340
0
 70
     0
280
     1
281
     0
  0
ENDTAB
  0
ENDSEC
  0
SECTION
  2
BLOCKS
  0
BLOCK
  5
20
330
1F
100
AcDbEntity
  8
0
100
AcDbBlockBegin
  2
*Model_Space
 70
     0
 10
0.0
 20
0.0
 30
0.0
  3
*Model_Space
  1

  0
ENDBLK
  5
21
330
1F
100
AcDbEntity
  8
0
100
AcDbBlockEnd
  0
BLOCK
  5
1C
330
1B
100
AcDbEntity
 67
     1
  8
0
100
AcDbBlockBegin
  2
*Paper_Space
 70
     0
 10
0.0
 20
0.0
 30
0.0
  3
*Paper_Space
  1

  0
ENDBLK
  5
1D
330
1B
100
AcDbEntity
 67
     1
  8
0
100
AcDbBlockEnd
  0
BLOCK
  5
24
330
23
100
AcDbEntity
 67
     1
  8
0
100
AcDbBlockBegin
  2
*Paper_Space0
 70
     0
 10
0.0
 20
0.0
 30
0.0
  3
*Paper_Space0
  1

  0
ENDBLK
  5
25
330
23
100
AcDbEntity
 67
     1
  8
0
100
AcDbBlockEnd
  0
BLOCK
  5
89
330
87
100
AcDbEntity
  8
0
100
AcDbBlockBegin
  2
GENAXEH
 70
     0
 10
0.0
 20
0.0
 30
0.0
  3
GENAXEH
  1

  0
LINE
  5
88
330
87
100
AcDbEntity
  8
0
100
AcDbLine
 10
-1.0
 20
0.0
 30
0.0
 11
1.0
 21
0.0
 31
0.0
  0
ENDBLK
  5
8A
330
87
100
AcDbEntity
  8
0
100
AcDbBlockEnd
  0
BLOCK
  5
875
330
86B
100
AcDbEntity
  8
0
100
AcDbBlockBegin
  2
*D15
 70
     1
 10
0.0
 20
0.0
 30
0.0
  3
*D15
  1

  0
LINE
  5
8D8
330
86B
100
AcDbEntity
  8
AM_5
100
AcDbLine
 10
1236.294483194445
 20
1206.594572585008
 30
0.0
 11
1195.612440635139
 21
1206.594572585008
 31
0.0
  0
LINE
  5
8D9
330
86B
100
AcDbEntity
  8
AM_5
100
AcDbLine
 10
1213.094368878004
 20
1166.594572585008
 30
0.0
 11
1195.612440635139
 21
1166.594572585008
 31
0.0
  0
LINE
  5
8DA
330
86B
100
AcDbEntity
  8
AM_5
100
AcDbLine
 10
1197.612440635139
 20
1201.594572585008
 30
0.0
 11
1197.612440635139
 21
1171.594572585008
 31
0.0
  0
SOLID
  5
8DB
330
86B
100
AcDbEntity
  8
AM_5
100
AcDbTrace
 10
1196.779107301805
 20
1201.594572585008
 30
0.0
 11
1198.445773968472
 21
1201.594572585008
 31
0.0
 12
1197.612440635139
 22
1206.594572585008
 32
0.0
 13
1197.612440635139
 23
1206.594572585008
 33
0.0
  0
SOLID
  5
8DC
330
86B
100
AcDbEntity
  8
AM_5
100
AcDbTrace
 10
1196.779107301805
 20
1171.594572585008
 30
0.0
 11
1198.445773968472
 21
1171.594572585008
 31
0.0
 12
1197.612440635139
 22
1166.594572585008
 32
0.0
 13
1197.612440635139
 23
1166.594572585008
 33
0.0
  0
MTEXT
  5
8DD
330
86B
100
AcDbEntity
  8
AM_5
 62
     2
100
AcDbMText
 10
1191.112440635138
 20
1186.594572585009
 30
0.0
 40
7.0
 41
0.0
 46
0.0
 71
     5
 72
     1
  1
40 {}{\C2;%%p3}
 11
0.0000000000000001
 21
1.0
 31
0.0
 73
     1
 44
1.0
  0
POINT
  5
8DE
330
86B
100
AcDbEntity
  8
DEFPOINTS
 62
     0
100
AcDbPoint
 10
1238.294483194445
 20
1206.594572585008
 30
0.0
  0
POINT
  5
8DF
330
86B
100
AcDbEntity
  8
DEFPOINTS
 62
     0
100
AcDbPoint
 10
1215.094368878004
 20
1166.594572585008
 30
0.0
  0
POINT
  5
8E0
330
86B
100
AcDbEntity
  8
DEFPOINTS
 62
     0
100
AcDbPoint
 10
1197.612440635139
 20
1166.594572585008
 30
0.0
  0
ENDBLK
  5
876
330
86B
100
AcDbEntity
  8
0
100
AcDbBlockEnd
  0
BLOCK
  5
881
330
877
100
AcDbEntity
  8
0
100
AcDbBlockBegin
  2
*D16
 70
     1
 10
0.0
 20
0.0
 30
0.0
  3
*D16
  1

  0
LINE
  5
8E1
330
877
100
AcDbEntity
  8
AM_5
100
AcDbLine
 10
1215.094368878004
 20
1099.943407781518
 30
0.0
 11
1215.094368878004
 21
1106.915996711461
 31
0.0
  0
LINE
  5
8E2
330
877
100
AcDbEntity
  8
AM_5
100
AcDbLine
 10
1569.094368878003
 20
1099.943407781518
 30
0.0
 11
1569.094368878003
 21
1106.915996711461
 31
0.0
  0
LINE
  5
8E3
330
877
100
AcDbEntity
  8
AM_5
100
AcDbLine
 10
1220.094368878003
 20
1104.915996711461
 30
0.0
 11
1564.094368878003
 21
1104.915996711461
 31
0.0
  0
SOLID
  5
8E4
330
877
100
AcDbEntity
  8
AM_5
100
AcDbTrace
 10
1220.094368878003
 20
1105.749330044794
 30
0.0
 11
1220.094368878003
 21
1104.082663378128
 31
0.0
 12
1215.094368878004
 22
1104.915996711461
 32
0.0
 13
1215.094368878004
 23
1104.915996711461
 33
0.0
  0
SOLID
  5
8E5
330
877
100
AcDbEntity
  8
AM_5
100
AcDbTrace
 10
1564.094368878003
 20
1105.749330044794
 30
0.0
 11
1564.094368878003
 21
1104.082663378128
 31
0.0
 12
1569.094368878003
 22
1104.915996711461
 32
0.0
 13
1569.094368878003
 23
1104.915996711461
 33
0.0
  0
MTEXT
  5
8E6
330
877
100
AcDbEntity
  8
AM_5
 62
     2
100
AcDbMText
 10
1365.08521028261
 20
1111.415996711461
 30
0.0
 40
7.0
 41
0.0
 46
0.0
 71
     5
 72
     1
  1
ø354
 73
     1
 44
1.0
  0
POINT
  5
8E7
330
877
100
AcDbEntity
  8
DEFPOINTS
 62
     0
100
AcDbPoint
 10
1215.094368878004
 20
1097.943407781518
 30
0.0
  0
POINT
  5
8E8
330
877
100
AcDbEntity
  8
DEFPOINTS
 62
     0
100
AcDbPoint
 10
1569.094368878003
 20
1097.943407781518
 30
0.0
  0
POINT
  5
8E9
330
877
100
AcDbEntity
  8
DEFPOINTS
 62
     0
100
AcDbPoint
 10
1569.094368878003
 20
1104.915996711461
 30
0.0
  0
ENDBLK
  5
882
330
877
100
AcDbEntity
  8
0
100
AcDbBlockEnd
  0
BLOCK
  5
88D
330
883
100
AcDbEntity
  8
0
100
AcDbBlockBegin
  2
*D17
 70
     1
 10
0.0
 20
0.0
 30
0.0
  3
*D17
  1

  0
LINE
  5
95C
330
883
100
AcDbEntity
  8
AM_5
100
AcDbLine
 10
1388.67317270946
 20
1386.478736844889
 30
0.0
 11
1175.599923814396
 21
1386.478736844889
 31
0.0
  0
LINE
  5
95D
330
883
100
AcDbEntity
  8
AM_5
100
AcDbLine
 10
1390.09436887804
 20
932.1653278988211
 30
0.0
 11
1175.599923814396
 21
932.1653278988213
 31
0.0
  0
LINE
  5
95E
330
883
100
AcDbEntity
  8
AM_5
100
AcDbLine
 10
1177.599923814396
 20
1381.478736844889
 30
0.0
 11
1177.599923814396
 21
937.1653278988212
 31
0.0
  0
SOLID
  5
95F
330
883
100
AcDbEntity
  8
AM_5
100
AcDbTrace
 10
1176.766590481063
 20
1381.478736844889
 30
0.0
 11
1178.433257147729
 21
1381.478736844889
 31
0.0
 12
1177.599923814396
 22
1386.478736844889
 32
0.0
 13
1177.599923814396
 23
1386.478736844889
 33
0.0
  0
SOLID
  5
960
330
883
100
AcDbEntity
  8
AM_5
100
AcDbTrace
 10
1176.766590481063
 20
937.1653278988212
 30
0.0
 11
1178.433257147729
 21
937.1653278988212
 31
0.0
 12
1177.599923814396
 22
932.1653278988213
 32
0.0
 13
1177.599923814396
 23
932.1653278988213
 33
0.0
  0
MTEXT
  5
961
330
883
100
AcDbEntity
  8
AM_5
 62
     2
100
AcDbMText
 10
1171.099923814396
 20
1159.322032371855
 30
0.0
 40
7.0
 41
0.0
 46
0.0
 71
     5
 72
     1
  1
454 {}{\C2;%%p4}
 11
0.0000000000000001
 21
1.0
 31
0.0
 73
     1
 44
1.0
  0
POINT
  5
962
330
883
100
AcDbEntity
  8
DEFPOINTS
 62
     0
100
AcDbPoint
 10
1390.67317270946
 20
1386.478736844889
 30
0.0
  0
POINT
  5
963
330
883
100
AcDbEntity
  8
DEFPOINTS
 62
     0
100
AcDbPoint
 10
1392.09436887804
 20
932.1653278988211
 30
0.0
  0
POINT
  5
964
330
883
100
AcDbEntity
  8
DEFPOINTS
 62
     0
100
AcDbPoint
 10
1177.599923814396
 20
932.1653278988213
 30
0.0
  0
ENDBLK
  5
88E
330
883
100
AcDbEntity
  8
0
100
AcDbBlockEnd
  0
BLOCK
  5
8A5
330
89B
100
AcDbEntity
  8
0
100
AcDbBlockBegin
  2
*D19
 70
     1
 10
0.0
 20
0.0
 30
0.0
  3
*D19
  1

  0
LINE
  5
953
330
89B
100
AcDbEntity
  8
AM_5
100
AcDbLine
 10
1347.593625637246
 20
954.1653278988208
 30
0.0
 11
1195.612440635139
 21
954.165327898821
 31
0.0
  0
LINE
  5
954
330
89B
100
AcDbEntity
  8
AM_5
100
AcDbLine
 10
1213.094368878004
 20
1166.594572585008
 30
0.0
 11
1195.612440635139
 21
1166.594572585008
 31
0.0
  0
LINE
  5
955
330
89B
100
AcDbEntity
  8
AM_5
100
AcDbLine
 10
1197.612440635139
 20
959.1653278988211
 30
0.0
 11
1197.612440635139
 21
1161.594572585008
 31
0.0
  0
SOLID
  5
956
330
89B
100
AcDbEntity
  8
AM_5
100
AcDbTrace
 10
1196.779107301805
 20
959.1653278988211
 30
0.0
 11
1198.445773968472
 21
959.1653278988211
 31
0.0
 12
1197.612440635139
 22
954.165327898821
 32
0.0
 13
1197.612440635139
 23
954.165327898821
 33
0.0
  0
SOLID
  5
957
330
89B
100
AcDbEntity
  8
AM_5
100
AcDbTrace
 10
1196.779107301805
 20
1161.594572585008
 30
0.0
 11
1198.445773968472
 21
1161.594572585008
 31
0.0
 12
1197.612440635139
 22
1166.594572585008
 32
0.0
 13
1197.612440635139
 23
1166.594572585008
 33
0.0
  0
MTEXT
  5
958
330
89B
100
AcDbEntity
  8
AM_5
 62
     2
100
AcDbMText
 10
1191.111751658761
 20
1060.379950241915
 30
0.0
 40
7.0
 41
0.0
 46
0.0
 71
     5
 72
     1
  1
212 {}{\C2;%%p2}
 11
0.0000000000000001
 21
1.0
 31
0.0
 73
     1
 44
1.0
  0
POINT
  5
959
330
89B
100
AcDbEntity
  8
DEFPOINTS
 62
     0
100
AcDbPoint
 10
1349.593625637246
 20
954.1653278988208
 30
0.0
  0
POINT
  5
95A
330
89B
100
AcDbEntity
  8
DEFPOINTS
 62
     0
100
AcDbPoint
 10
1215.094368878004
 20
1166.594572585008
 30
0.0
  0
POINT
  5
95B
330
89B
100
AcDbEntity
  8
DEFPOINTS
 62
     0
100
AcDbPoint
 10
1197.612440635139
 20
1166.594572585008
 30
0.0
  0
ENDBLK
  5
8A6
330
89B
100
AcDbEntity
  8
0
100
AcDbBlockEnd
  0
BLOCK
  5
8BD
330
8B3
100
AcDbEntity
  8
0
100
AcDbBlockBegin
  2
*D21
 70
     1
 10
0.0
 20
0.0
 30
0.0
  3
*D21
  1

  0
LINE
  5
981
330
8B3
100
AcDbEntity
  8
AM_5
100
AcDbLine
 10
1378.87436887804
 20
946.1063055946144
 30
0.0
 11
1378.87436887804
 21
896.8506105793908
 31
0.0
  0
LINE
  5
982
330
8B3
100
AcDbEntity
  8
AM_5
100
AcDbLine
 10
1405.314368878039
 20
940.8074106555108
 30
0.0
 11
1405.314368878039
 21
896.8506105793908
 31
0.0
  0
LINE
  5
983
330
8B3
100
AcDbEntity
  8
AM_5
100
AcDbLine
 10
1383.87436887804
 20
898.8506105793907
 30
0.0
 11
1400.314368878039
 21
898.8506105793907
 31
0.0
  0
LINE
  5
984
330
8B3
100
AcDbEntity
  8
AM_5
100
AcDbLine
 10
1405.314368878039
 20
898.8506105793907
 30
0.0
 11
1483.914368878039
 21
898.8506105793907
 31
0.0
  0
SOLID
  5
985
330
8B3
100
AcDbEntity
  8
AM_5
100
AcDbTrace
 10
1383.87436887804
 20
899.6839439127242
 30
0.0
 11
1383.87436887804
 21
898.0172772460575
 31
0.0
 12
1378.87436887804
 22
898.8506105793907
 32
0.0
 13
1378.87436887804
 23
898.8506105793907
 33
0.0
  0
SOLID
  5
986
330
8B3
100
AcDbEntity
  8
AM_5
100
AcDbTrace
 10
1400.314368878039
 20
899.6839439127242
 30
0.0
 11
1400.314368878039
 21
898.0172772460575
 31
0.0
 12
1405.314368878039
 22
898.8506105793907
 32
0.0
 13
1405.314368878039
 23
898.8506105793907
 33
0.0
  0
MTEXT
  5
987
330
8B3
100
AcDbEntity
  8
AM_5
 62
     2
100
AcDbMText
 10
1447.114368878039
 20
903.2612707511706
 30
0.0
 40
6.0
 41
0.0
 46
0.0
 71
     5
 72
     1
  1
EN ISO 228-1  G3/4
 73
     1
 44
1.0
  0
POINT
  5
988
330
8B3
100
AcDbEntity
  8
DEFPOINTS
 62
     0
100
AcDbPoint
 10
1378.87436887804
 20
946.1063055946144
 30
0.0
  0
POINT
  5
989
330
8B3
100
AcDbEntity
  8
DEFPOINTS
 62
     0
100
AcDbPoint
 10
1405.314368878039
 20
940.8074106555108
 30
0.0
  0
POINT
  5
98A
330
8B3
100
AcDbEntity
  8
DEFPOINTS
 62
     0
100
AcDbPoint
 10
1405.314368878039
 20
898.8506105793907
 30
0.0
  0
ENDBLK
  5
8BE
330
8B3
100
AcDbEntity
  8
0
100
AcDbBlockEnd
  0
BLOCK
  5
8C9
330
8BF
100
AcDbEntity
  8
0
100
AcDbBlockBegin
  2
*D22
 70
     1
 10
0.0
 20
0.0
 30
0.0
  3
*D22
  1

  0
LINE
  5
98B
330
8BF
100
AcDbEntity
  8
AM_5
100
AcDbLine
 10
1654.122017956746
 20
1307.101089519664
 30
0.0
 11
1654.122017956746
 21
1210.297900364396
 31
0.0
  0
LINE
  5
98C
330
8BF
100
AcDbEntity
  8
AM_5
100
AcDbLine
 10
1956.122017956746
 20
1307.101089519664
 30
0.0
 11
1956.122017956746
 21
1210.297900364396
 31
0.0
  0
LINE
  5
98D
330
8BF
100
AcDbEntity
  8
AM_5
100
AcDbLine
 10
1659.122017956746
 20
1212.297900364396
 30
0.0
 11
1951.122017956745
 21
1212.297900364396
 31
0.0
  0
SOLID
  5
98E
330
8BF
100
AcDbEntity
  8
AM_5
100
AcDbTrace
 10
1659.122017956746
 20
1213.13123369773
 30
0.0
 11
1659.122017956746
 21
1211.464567031063
 31
0.0
 12
1654.122017956746
 22
1212.297900364396
 32
0.0
 13
1654.122017956746
 23
1212.297900364396
 33
0.0
  0
SOLID
  5
98F
330
8BF
100
AcDbEntity
  8
AM_5
100
AcDbTrace
 10
1951.122017956745
 20
1213.13123369773
 30
0.0
 11
1951.122017956745
 21
1211.464567031063
 31
0.0
 12
1956.122017956746
 22
1212.297900364396
 32
0.0
 13
1956.122017956746
 23
1212.297900364396
 33
0.0
  0
MTEXT
  5
990
330
8BF
100
AcDbEntity
  8
AM_5
 62
     2
100
AcDbMText
 10
1783.398857923235
 20
1219.147900364396
 30
0.0
 40
7.0
 41
0.0
 46
0.0
 71
     5
 72
     1
  1
(302)
 73
     1
 44
1.0
  0
POINT
  5
991
330
8BF
100
AcDbEntity
  8
DEFPOINTS
 62
     0
100
AcDbPoint
 10
1654.122017956746
 20
1309.101089519664
 30
0.0
  0
POINT
  5
992
330
8BF
100
AcDbEntity
  8
DEFPOINTS
 62
     0
100
AcDbPoint
 10
1956.122017956746
 20
1309.101089519664
 30
0.0
  0
POINT
  5
993
330
8BF
100
AcDbEntity
  8
DEFPOINTS
 62
     0
100
AcDbPoint
 10
1956.122017956746
 20
1212.297900364396
 30
0.0
  0
ENDBLK
  5
8CA
330
8BF
100
AcDbEntity
  8
0
100
AcDbBlockEnd
  0
BLOCK
  5
8D5
330
8CB
100
AcDbEntity
  8
0
100
AcDbBlockBegin
  2
*D23
 70
     1
 10
0.0
 20
0.0
 30
0.0
  3
*D23
  1

  0
LINE
  5
994
330
8CB
100
AcDbEntity
  8
AM_5
100
AcDbLine
 10
1667.872017956746
 20
1327.852986786979
 30
0.0
 11
1667.872017956746
 21
1229.860533514816
 31
0.0
  0
LINE
  5
995
330
8CB
100
AcDbEntity
  8
AM_5
100
AcDbLine
 10
1942.372017956744
 20
1327.852979157585
 30
0.0
 11
1942.372017956744
 21
1229.860533514816
 31
0.0
  0
LINE
  5
996
330
8CB
100
AcDbEntity
  8
AM_5
100
AcDbLine
 10
1672.872017956747
 20
1231.860533514816
 30
0.0
 11
1937.372017956745
 21
1231.860533514816
 31
0.0
  0
SOLID
  5
997
330
8CB
100
AcDbEntity
  8
AM_5
100
AcDbTrace
 10
1672.872017956747
 20
1232.693866848149
 30
0.0
 11
1672.872017956747
 21
1231.027200181482
 31
0.0
 12
1667.872017956746
 22
1231.860533514816
 32
0.0
 13
1667.872017956746
 23
1231.860533514816
 33
0.0
  0
SOLID
  5
998
330
8CB
100
AcDbEntity
  8
AM_5
100
AcDbTrace
 10
1937.372017956745
 20
1232.693866848149
 30
0.0
 11
1937.372017956745
 21
1231.027200181482
 31
0.0
 12
1942.372017956744
 22
1231.860533514816
 32
0.0
 13
1942.372017956744
 23
1231.860533514816
 33
0.0
  0
MTEXT
  5
999
330
8CB
100
AcDbEntity
  8
AM_5
 62
     2
100
AcDbMText
 10
1836.304541949358
 20
1238.361222491193
 30
0.0
 40
7.0
 41
0.0
 46
0.0
 71
     5
 72
     1
  1
274.5 {}{\C2;%%p2}
 73
     1
 44
1.0
  0
POINT
  5
99A
330
8CB
100
AcDbEntity
  8
DEFPOINTS
 62
     0
100
AcDbPoint
 10
1667.872017956746
 20
1329.852986786979
 30
0.0
  0
POINT
  5
99B
330
8CB
100
AcDbEntity
  8
DEFPOINTS
 62
     0
100
AcDbPoint
 10
1942.372017956744
 20
1329.852979157585
 30
0.0
  0
POINT
  5
99C
330
8CB
100
AcDbEntity
  8
DEFPOINTS
 62
     0
100
AcDbPoint
 10
1942.372017956744
 20
1231.860533514816
 30
0.0
  0
ENDBLK
  5
8D6
330
8CB
100
AcDbEntity
  8
0
100
AcDbBlockEnd
  0
BLOCK
  5
91E
330
917
100
AcDbEntity
  8
0
100
AcDbBlockBegin
  2
*D24
 70
     1
 10
0.0
 20
0.0
 30
0.0
  3
*D24
  1

  0
LINE
  5
9B2
330
917
100
AcDbEntity
  8
AM_5
100
AcDbLine
 10
1948.280501601871
 20
1355.29206072231
 30
0.0
 11
1951.390229836148
 21
1359.207362793537
 31
0.0
  0
LINE
  5
9B3
330
917
100
AcDbEntity
  8
AM_5
100
AcDbLine
 10
1951.390229836148
 20
1359.207362793537
 30
0.0
 11
1970.780179329809
 21
1359.207362793536
 31
0.0
  0
SOLID
  5
9B4
330
917
100
AcDbEntity
  8
AM_5
100
AcDbTrace
 10
1947.627951256666
 20
1355.810348761356
 30
0.0
 11
1948.933051947075
 21
1354.773772683264
 31
0.0
 12
1945.170773367594
 22
1351.376758651084
 32
0.0
 13
1945.170773367594
 23
1351.376758651084
 33
0.0
  0
MTEXT
  5
9B5
330
917
100
AcDbEntity
  8
AM_5
 62
     2
100
AcDbMText
 10
1962.585204582978
 20
1365.707362793537
 30
0.0
 40
7.0
 41
0.0
 46
0.0
 71
     5
 72
     1
  1
R4.5
 73
     1
 44
1.0
  0
POINT
  5
9B6
330
917
100
AcDbEntity
  8
DEFPOINTS
 62
     0
100
AcDbPoint
 10
1945.170773367594
 20
1351.376758651084
 30
0.0
  0
POINT
  5
9B7
330
917
100
AcDbEntity
  8
DEFPOINTS
 62
     0
100
AcDbPoint
 10
1942.372017956744
 20
1347.852986786979
 30
0.0
  0
ENDBLK
  5
91F
330
917
100
AcDbEntity
  8
0
100
AcDbBlockEnd
  0
BLOCK
  5
927
330
920
100
AcDbEntity
  8
0
100
AcDbBlockBegin
  2
*D25
 70
     1
 10
0.0
 20
0.0
 30
0.0
  3
*D25
  1

  0
LINE
  5
9A3
330
920
100
AcDbEntity
  8
AM_5
100
AcDbLine
 10
1954.021665909143
 20
1324.083610513479
 30
0.0
 11
1958.643219751002
 21
1321.794830355411
 31
0.0
  0
LINE
  5
9A4
330
920
100
AcDbEntity
  8
AM_5
100
AcDbLine
 10
1958.643219751002
 20
1321.794830355411
 30
0.0
 11
1970.043219751002
 21
1321.794830355412
 31
0.0
  0
SOLID
  5
9A5
330
920
100
AcDbEntity
  8
AM_5
100
AcDbTrace
 10
1954.391497721547
 20
1324.83038281812
 30
0.0
 11
1953.651834096739
 21
1323.336838208838
 31
0.0
 12
1949.541032081298
 22
1326.302601387902
 32
0.0
 13
1949.541032081298
 23
1326.302601387902
 33
0.0
  0
MTEXT
  5
9A6
330
920
100
AcDbEntity
  8
AM_5
 62
     2
100
AcDbMText
 10
1965.843219751002
 20
1328.294830355411
 30
0.0
 40
7.0
 41
0.0
 46
0.0
 71
     5
 72
     1
  1
R8
 73
     1
 44
1.0
  0
POINT
  5
9A7
330
920
100
AcDbEntity
  8
DEFPOINTS
 62
     0
100
AcDbPoint
 10
1949.541032081298
 20
1326.302601387902
 30
0.0
  0
POINT
  5
9A8
330
920
100
AcDbEntity
  8
DEFPOINTS
 62
     0
100
AcDbPoint
 10
1942.372017956744
 20
1329.852986786979
 30
0.0
  0
ENDBLK
  5
928
330
920
100
AcDbEntity
  8
0
100
AcDbBlockEnd
  0
BLOCK
  5
933
330
929
100
AcDbEntity
  8
0
100
AcDbBlockBegin
  2
*D26
 70
     1
 10
0.0
 20
0.0
 30
0.0
  3
*D26
  1

  0
LINE
  5
9A9
330
929
100
AcDbEntity
  8
AM_5
100
AcDbLine
 10
1940.372017956744
 20
1329.852986786979
 30
0.0
 11
1916.372017956744
 21
1329.852986786979
 31
0.0
  0
LINE
  5
9AA
330
929
100
AcDbEntity
  8
AM_5
100
AcDbLine
 10
1940.372017956744
 20
1347.852986786979
 30
0.0
 11
1916.372017956744
 21
1347.852986786979
 31
0.0
  0
LINE
  5
9AB
330
929
100
AcDbEntity
  8
AM_5
100
AcDbLine
 10
1918.372017956744
 20
1334.852986786979
 30
0.0
 11
1918.372017956744
 21
1342.852986786979
 31
0.0
  0
SOLID
  5
9AC
330
929
100
AcDbEntity
  8
AM_5
100
AcDbTrace
 10
1917.538684623411
 20
1334.852986786979
 30
0.0
 11
1919.205351290078
 21
1334.852986786979
 31
0.0
 12
1918.372017956744
 22
1329.852986786979
 32
0.0
 13
1918.372017956744
 23
1329.852986786979
 33
0.0
  0
SOLID
  5
9AD
330
929
100
AcDbEntity
  8
AM_5
100
AcDbTrace
 10
1917.538684623411
 20
1342.852986786979
 30
0.0
 11
1919.205351290078
 21
1342.852986786979
 31
0.0
 12
1918.372017956744
 22
1347.852986786979
 32
0.0
 13
1918.372017956744
 23
1347.852986786979
 33
0.0
  0
MTEXT
  5
9AE
330
929
100
AcDbEntity
  8
AM_5
 62
     2
100
AcDbMText
 10
1911.872017956744
 20
1338.85298678698
 30
0.0
 40
7.0
 41
0.0
 46
0.0
 71
     5
 72
     1
  1
18
 11
0.0000000000000001
 21
1.0
 31
0.0
 73
     1
 44
1.0
  0
POINT
  5
9AF
330
929
100
AcDbEntity
  8
DEFPOINTS
 62
     0
100
AcDbPoint
 10
1942.372017956744
 20
1329.852986786979
 30
0.0
  0
POINT
  5
9B0
330
929
100
AcDbEntity
  8
DEFPOINTS
 62
     0
100
AcDbPoint
 10
1942.372017956744
 20
1347.852986786979
 30
0.0
  0
POINT
  5
9B1
330
929
100
AcDbEntity
  8
DEFPOINTS
 62
     0
100
AcDbPoint
 10
1918.372017956744
 20
1347.852986786979
 30
0.0
  0
ENDBLK
  5
934
330
929
100
AcDbEntity
  8
0
100
AcDbBlockEnd
  0
BLOCK
  5
AC2
330
ABD
100
AcDbEntity
  8
0
100
AcDbBlockBegin
  2
*S28
 70
     1
 10
0.0
 20
0.0
 30
0.0
  3
*S28
  1

  0
LINE
  5
ABE
330
ABD
100
AcDbEntity
  8
AM_5
 62
     3
100
AcDbLine
 10
1786.797576943323
 20
1335.748490413126
 30
0.0
 11
1900.897576943323
 21
1335.748490413126
 31
0.0
  0
LINE
  5
ABF
330
ABD
100
AcDbEntity
  8
AM_5
 62
     3
100
AcDbLine
 10
1900.897576943323
 20
1335.748490413126
 30
0.0
 11
1919.491403697994
 21
1321.948281159866
 31
0.0
  0
TRACE
  5
AC0
330
ABD
100
AcDbEntity
  8
AM_5
  6
Continuous
 62
     3
100
AcDbTrace
 10
1918.942167618162
 20
1321.208263358079
 30
0.0
 11
1920.040639777825
 21
1322.688298961653
 31
0.0
 12
1925.112396984488
 22
1317.776418929016
 32
0.0
 13
1925.112396984488
 23
1317.776418929016
 33
0.0
  0
MTEXT
  5
AC1
330
ABD
100
AcDbEntity
  8
AM_5
 62
     2
100
AcDbMText
 10
1786.797576943323
 20
1339.248490413126
 30
0.0
 40
7.0
 41
0.0
 46
0.0
 71
     7
 72
     5
  1
Langloch für Wandmontage
  7
ACDINTS
 73
     1
 44
1.0
  0
ENDBLK
  5
AC3
330
ABD
100
AcDbEntity
  8
0
100
AcDbBlockEnd
  0
ENDSEC
  0
SECTION
  2
ENTITIES
  0
INSERT
  5
5ED
330
1F
100
AcDbEntity
  8
AM_5
100
AcDbBlockReference
  2
*S28
 10
0.0
 20
0.0
 30
0.0
  0
DIMENSION
  5
5EE
330
1F
100
AcDbEntity
  8
AM_5
100
AcDbDimension
  2
*D22
 10
1956.122017956746
 20
1212.297900364396
 30
0.0
 11
1783.398857923235
 21
1212.297900364396
 31
0.0
 70
   160
  1
(<>)
 71
     5
 42
301.9999999999998
 73
     0
 74
     0
 75
     0
  3
AM_DIN
100
AcDbAlignedDimension
 13
1654.122017956746
 23
1309.101089519664
 33
0.0
 14
1956.122017956746
 24
1309.101089519664
 34
0.0
100
AcDbRotatedDimension
1001
ACAD
1000
DSTYLE
1002
{
1070
    40
1040
2.0
1002
}
  0
DIMENSION
  5
5EF
330
1F
100
AcDbEntity
  8
AM_5
100
AcDbDimension
  2
*D23
 10
1942.372017956744
 20
1231.860533514816
 30
0.0
 11
1836.304541949358
 21
1231.860533514816
 31
0.0
 70
   160
  1
<> {}{\C2;%%p2}
 71
     5
 42
274.499999999998
 73
     0
 74
     0
 75
     0
  3
AM_DIN
100
AcDbAlignedDimension
 13
1667.872017956746
 23
1329.852986786979
 33
0.0
 14
1942.372017956744
 24
1329.852979157585
 34
0.0
100
AcDbRotatedDimension
1001
GENIUS_GENDTOL_13
1000
TolPm
1000

1000
{$3%%p$P}
1040
260.57
1001
ACAD
1000
DSTYLE
1002
{
1070
    40
1040
2.0
1070
    47
1040
2.0
1070
    48
1040
2.0
1002
}
  0
LINE
  5
5F0
330
1F
100
AcDbEntity
  8
AM_3
100
AcDbLine
 10
1816.25423329921
 20
1136.077828842609
 30
0.0
 11
1808.561248332875
 21
1136.077828842609
 31
0.0
  0
LINE
  5
5F1
330
1F
100
AcDbEntity
  8
AM_3
100
AcDbLine
 10
1808.38328657908
 20
1136.640303212141
 30
0.0
 11
1816.25423329921
 21
1136.64030321214
 31
0.0
  0
LINE
  5
5F2
330
1F
100
AcDbEntity
  8
AM_3
100
AcDbLine
 10
1808.349550785922
 20
1136.717853745886
 30
0.0
 11
1813.916291368746
 21
1142.284594328709
 31
0.0
  0
LINE
  5
5F3
330
1F
100
AcDbEntity
  8
AM_3
100
AcDbLine
 10
1813.524755752701
 20
1142.676129944754
 30
0.0
 11
1808.067840785281
 21
1137.219214977334
 31
0.0
  0
LINE
  5
5F4
330
1F
100
AcDbEntity
  8
AM_3
100
AcDbLine
 10
1812.546253856718
 20
1143.654631840736
 30
0.0
 11
1807.06021899755
 21
1138.168596981569
 31
0.0
  0
LINE
  5
5F5
330
1F
100
AcDbEntity
  8
AM_3
100
AcDbLine
 10
1806.50423329921
 20
1138.408070165106
 30
0.0
 11
1812.148524415778
 21
1144.052361281676
 31
0.0
  0
ARC
  5
5F6
330
1F
100
AcDbEntity
  8
AM_3
100
AcDbCircle
 10
1805.166090129739
 20
1135.489140773138
 30
0.0
 40
11.06378007031087
100
AcDbArc
 50
359.4489818018907
 51
180.5510181981093
  0
ARC
  5
5F7
330
1F
100
AcDbEntity
  8
AM_3
100
AcDbCircle
 10
1805.166090129739
 20
1135.489140773138
 30
0.0
 40
12.13045274550452
100
AcDbArc
 50
359.4974360408545
 51
180.5025639591455
  0
ARC
  5
5F8
330
1F
100
AcDbEntity
  8
AM_3
100
AcDbCircle
 10
1805.166090129739
 20
1135.489140773138
 30
0.0
 40
13.22
100
AcDbArc
 50
359.5388565806804
 51
180.4611434193196
  0
LINE
  5
5F9
330
1F
100
AcDbEntity
  8
AM_3
100
AcDbLine
 10
1805.261795375979
 20
1135.522518554605
 30
0.0
 11
1812.970081259414
 21
1143.230804438041
 31
0.0
  0
LINE
  5
5FA
330
1F
100
AcDbEntity
  8
AM_7
100
AcDbLine
 10
1622.122017956747
 20
1135.397865288909
 30
0.0
 11
1988.122017956746
 21
1135.397865288909
 31
0.0
1001
GENIUS_GENODEF_13
1002
{
1000
HIER
1070
     0
1002
}
1002
{
1000
MANEDIT
1070
     0
1002
}
1002
{
1000
NOSEL
1070
     0
1002
}
1002
{
1000
BEHIND
1070
     0
1002
}
1002
{
1000
OTHER
1070
     0
1002
}
1002
{
1000
REACTOR
1002
}
1001
GENIUS_GENOBJ-N-CEN_13
1002
{
1000
OWNER
1000
GEN
1002
}
  0
LINE
  5
5FB
330
1F
100
AcDbEntity
  8
AM_7
100
AcDbLine
 10
1805.122017956746
 20
1317.39786528891
 30
0.0
 11
1805.122017956746
 21
1130.397865288909
 31
0.0
  0
LINE
  5
5FC
330
1F
100
AcDbEntity
  8
AM_3
100
AcDbLine
 10
1806.50423329921
 20
1138.408070165106
 30
0.0
 11
1806.50423329921
 21
1146.390303212141
 31
0.0
  0
LINE
  5
5FD
330
1F
100
AcDbEntity
  8
AM_3
100
AcDbLine
 10
1805.950518320847
 20
1146.390303212141
 30
0.0
 11
1805.950518320847
 21
1138.583416907304
 31
0.0
  0
LINE
  5
5FE
330
1F
100
AcDbEntity
  8
AM_3
100
AcDbLine
 10
1804.566707668742
 20
1146.390303212141
 30
0.0
 11
1804.566707668742
 21
1138.527661601344
 31
0.0
  0
LINE
  5
5FF
330
1F
100
AcDbEntity
  8
AM_3
100
AcDbLine
 10
1804.00423329921
 20
1138.408070165106
 30
0.0
 11
1804.00423329921
 21
1146.390303212141
 31
0.0
  0
LINE
  5
600
330
1F
100
AcDbEntity
  8
AM_3
100
AcDbLine
 10
1805.166090129739
 20
1135.489140773138
 30
0.0
 11
1805.166090129739
 21
1155.489140773138
 31
0.0
  0
LINE
  5
601
330
1F
100
AcDbEntity
  8
AM_3
100
AcDbLine
 10
1797.968406566596
 20
1143.660825665631
 30
0.0
 11
1803.5589642228
 21
1138.070268009427
 31
0.0
  0
LINE
  5
602
330
1F
100
AcDbEntity
  8
AM_3
100
AcDbLine
 10
1796.989904670613
 20
1142.682323769649
 30
0.0
 11
1802.606282745389
 21
1137.065945694874
 31
0.0
  0
LINE
  5
603
330
1F
100
AcDbEntity
  8
AM_3
100
AcDbLine
 10
1802.236466346244
 20
1136.640303212141
 30
0.0
 11
1796.592175229676
 21
1142.284594328709
 31
0.0
  0
LINE
  5
604
330
1F
100
AcDbEntity
  8
AM_3
100
AcDbLine
 10
1804.00423329921
 20
1138.408070165106
 30
0.0
 11
1798.359942182641
 21
1144.052361281676
 31
0.0
  0
LINE
  5
605
330
1F
100
AcDbEntity
  8
AM_3
100
AcDbLine
 10
1805.122017956746
 20
1135.397865288909
 30
0.0
 11
1797.413732073311
 21
1143.106151172345
 31
0.0
  0
LINE
  5
606
330
1F
100
AcDbEntity
  8
AM_3
100
AcDbLine
 10
1802.236466346244
 20
1136.640303212141
 30
0.0
 11
1794.25423329921
 21
1136.64030321214
 31
0.0
  0
LINE
  5
607
330
1F
100
AcDbEntity
  8
AM_3
100
AcDbLine
 10
1794.25423329921
 20
1136.086588233778
 30
0.0
 11
1802.213579394123
 21
1136.086588233778
 31
0.0
  0
LINE
  5
608
330
1F
100
AcDbEntity
  8
AM_3
100
AcDbLine
 10
1794.254233299211
 20
1135.382741135371
 30
0.0
 11
1794.25423329921
 21
1136.640303212141
 31
0.0
  0
ARC
  5
609
330
1F
100
AcDbEntity
  8
AM_3
100
AcDbCircle
 10
1805.386448641675
 20
1135.382741135371
 30
0.0
 40
3.25
100
AcDbArc
 50
0.0
 51
180.0
  0
LINE
  5
60A
330
1F
100
AcDbEntity
  8
AM_3
100
AcDbLine
 10
1796.592175229676
 20
1142.284594328709
 30
0.0
 11
1798.359942182641
 21
1144.052361281676
 31
0.0
  0
LINE
  5
60B
330
1F
100
AcDbEntity
  8
AM_3
100
AcDbLine
 10
1804.00423329921
 20
1146.390303212141
 30
0.0
 11
1806.50423329921
 21
1146.390303212141
 31
0.0
  0
ARC
  5
60C
330
1F
100
AcDbEntity
  8
AM_0
100
AcDbCircle
 10
1805.122017956746
 20
1135.397865288909
 30
0.0
 40
177.0
100
AcDbArc
 50
0.0
 51
180.0
  0
LINE
  5
60F
330
1F
100
AcDbEntity
  8
AM_0
100
AcDbLine
 10
1734.122017956746
 20
1317.39786528891
 30
0.0
 11
1654.122017956746
 21
1317.39786528891
 31
0.0
  0
LINE
  5
610
330
1F
100
AcDbEntity
  8
AM_3
100
AcDbLine
 10
1734.122017956746
 20
1315.89786528891
 30
0.0
 11
1654.122017956746
 21
1315.89786528891
 31
0.0
  0
LINE
  5
611
330
1F
100
AcDbEntity
  8
AM_7
  6
AM_DIN_G_W050x2
100
AcDbLine
 10
1669.069146384097
 20
1317.39786528891
 30
0.0
 11
1654.122017956746
 21
1317.39786528891
 31
0.0
  0
LINE
  5
612
330
1F
100
AcDbEntity
  8
AM_0
100
AcDbLine
 10
1654.122017956746
 20
1308.722535879557
 30
0.0
 11
1691.625208899341
 21
1271.219344936963
 31
0.0
  0
LINE
  5
613
330
1F
100
AcDbEntity
  8
AM_0
100
AcDbLine
 10
1654.122017956746
 20
1317.39786528891
 30
0.0
 11
1654.122017956746
 21
1308.722535879557
 31
0.0
  0
LINE
  5
614
330
1F
100
AcDbEntity
  8
AM_0
100
AcDbLine
 10
1734.122017956746
 20
1297.533610884999
 30
0.0
 11
1734.122017956746
 21
1317.39786528891
 31
0.0
  0
LINE
  5
615
330
1F
100
AcDbEntity
  8
AM_3
100
AcDbLine
 10
1816.25423329921
 20
1136.640303212141
 30
0.0
 11
1816.254233299211
 21
1135.382741135371
 31
0.0
  0
LINE
  5
616
330
1F
100
AcDbEntity
  8
AM_3
100
AcDbLine
 10
1812.148524415778
 20
1144.052361281676
 30
0.0
 11
1813.916291368746
 21
1142.284594328709
 31
0.0
  0
LINE
  5
617
330
1F
100
AcDbEntity
  8
AM_0
100
AcDbLine
 10
1876.122017956745
 20
1297.533610884999
 30
0.0
 11
1876.122017956745
 21
1317.39786528891
 31
0.0
  0
LINE
  5
618
330
1F
100
AcDbEntity
  8
AM_0
100
AcDbLine
 10
1956.122017956746
 20
1317.39786528891
 30
0.0
 11
1956.122017956746
 21
1308.722535879557
 31
0.0
  0
LINE
  5
619
330
1F
100
AcDbEntity
  8
AM_0
100
AcDbLine
 10
1956.122017956746
 20
1308.722535879557
 30
0.0
 11
1918.618827014151
 21
1271.219344936963
 31
0.0
  0
LINE
  5
61A
330
1F
100
AcDbEntity
  8
AM_7
  6
AM_DIN_G_W050x2
100
AcDbLine
 10
1941.174889529396
 20
1317.39786528891
 30
0.0
 11
1956.122017956746
 21
1317.39786528891
 31
0.0
  0
LINE
  5
61B
330
1F
100
AcDbEntity
  8
AM_3
100
AcDbLine
 10
1876.122017956745
 20
1315.89786528891
 30
0.0
 11
1956.122017956746
 21
1315.89786528891
 31
0.0
  0
LINE
  5
61C
330
1F
100
AcDbEntity
  8
AM_0
100
AcDbLine
 10
1876.122017956745
 20
1317.39786528891
 30
0.0
 11
1956.122017956746
 21
1317.39786528891
 31
0.0
  0
ARC
  5
61E
330
1F
100
AcDbEntity
  8
AM_0
100
AcDbCircle
 10
1805.122017956746
 20
1135.397865288909
 30
0.0
 40
6.096064167721124
100
AcDbArc
 50
0.0
 51
180.0
  0
ARC
  5
61F
330
1F
100
AcDbEntity
  8
AM_0
100
AcDbCircle
 10
1805.122017956746
 20
1135.397865288909
 30
0.0
 40
20.79729324586606
100
AcDbArc
 50
0.0
 51
180.0
  0
LINE
  5
626
330
1F
100
AcDbEntity
  8
AM_0
100
AcDbLine
 10
1215.094368878004
 20
1166.594572585008
 30
0.0
 11
1216.337733232525
 21
1166.594572585008
 31
0.0
  0
LINE
  5
628
330
1F
100
AcDbEntity
  8
AM_0
100
AcDbLine
 10
1566.594368878002
 20
1166.479562762971
 30
0.0
 11
1566.594368878003
 21
1160.247511955402
 31
0.0
1001
GENIUS_GENODEF_13
1002
{
1000
HIER
1070
     0
1002
}
1002
{
1000
MANEDIT
1070
     0
1002
}
1002
{
1000
NOSEL
1070
     0
1002
}
1002
{
1000
BEHIND
1070
     0
1002
}
1002
{
1000
REACTOR
1002
}
1001
GENIUS_GENOBJ-N-CEN_13
1002
{
1000
OWNER
1000
GEN
1002
}
  0
LINE
  5
629
330
1F
100
AcDbEntity
  8
AM_0
100
AcDbLine
 10
1566.895811719487
 20
1167.60456276297
 30
0.0
 11
1567.844368878002
 21
1169.247511955401
 31
0.0
  0
ARC
  5
62A
330
1F
100
AcDbEntity
  8
AM_0
100
AcDbCircle
 10
1567.844368878002
 20
1169.247511955401
 30
0.0
 40
1.25
100
AcDbArc
 50
329.9999999999849
 51
0.0
1001
GENIUS_GENODEF_13
1002
{
1000
HIER
1070
     0
1002
}
1002
{
1000
MANEDIT
1070
     0
1002
}
1002
{
1000
NOSEL
1070
     0
1002
}
1002
{
1000
BEHIND
1070
     0
1002
}
1002
{
1000
REACTOR
1002
}
1001
GENIUS_GENOBJ-N-FIL_13
1002
{
1000
OWNER
1000
GEN
1002
}
  0
ARC
  5
62B
330
1F
100
AcDbEntity
  8
AM_0
100
AcDbCircle
 10
1568.844368878002
 20
1166.479562762971
 30
0.0
 40
2.25
100
AcDbArc
 50
149.9999999999849
 51
180.0
1001
GENIUS_GENODEF_13
1002
{
1000
HIER
1070
     0
1002
}
1002
{
1000
MANEDIT
1070
     0
1002
}
1002
{
1000
NOSEL
1070
     0
1002
}
1002
{
1000
BEHIND
1070
     0
1002
}
1002
{
1000
REACTOR
1002
}
1001
GENIUS_GENOBJ-N-FIL_13
1002
{
1000
OWNER
1000
GEN
1002
}
  0
ARC
  5
62C
330
1F
100
AcDbEntity
  8
AM_0
100
AcDbCircle
 10
1568.844368878002
 20
1166.479562762971
 30
0.0
 40
1.0
100
AcDbArc
 50
149.9999999999849
 51
180.0
1001
GENIUS_GENODEF_13
1002
{
1000
HIER
1070
     0
1002
}
1002
{
1000
MANEDIT
1070
     0
1002
}
1002
{
1000
NOSEL
1070
     0
1002
}
1002
{
1000
BEHIND
1070
     0
1002
}
1002
{
1000
REACTOR
1002
}
1001
GENIUS_GENOBJ-N-FIL_13
1002
{
1000
OWNER
1000
GEN
1002
}
  0
LINE
  5
62D
330
1F
100
AcDbEntity
  8
AM_0
100
AcDbLine
 10
1567.978343474218
 20
1166.979562762971
 30
0.0
 11
1568.926900632732
 21
1168.622511955402
 31
0.0
  0
LINE
  5
62E
330
1F
100
AcDbEntity
  8
AM_0
100
AcDbLine
 10
1567.844368878002
 20
1166.594572585008
 30
0.0
 11
1567.844368878004
 21
1058.053666440485
 31
0.0
1001
GENIUS_GENODEF_13
1002
{
1000
HIER
1070
     0
1002
}
1002
{
1000
MANEDIT
1070
     0
1002
}
1002
{
1000
NOSEL
1070
     0
1002
}
1002
{
1000
BEHIND
1070
     0
1002
}
1002
{
1000
REACTOR
1002
}
1001
GENIUS_GENOBJ-N-CEN_13
1002
{
1000
OWNER
1000
GEN
1002
}
  0
LINE
  5
62F
330
1F
100
AcDbEntity
  8
AM_0
100
AcDbLine
 10
1569.094368878002
 20
1166.594572585008
 30
0.0
 11
1569.094368878004
 21
1058.053666440485
 31
0.0
1001
GENIUS_GENODEF_13
1002
{
1000
HIER
1070
     0
1002
}
1002
{
1000
MANEDIT
1070
     0
1002
}
1002
{
1000
NOSEL
1070
     0
1002
}
1002
{
1000
BEHIND
1070
     0
1002
}
1002
{
1000
REACTOR
1002
}
1001
GENIUS_GENOBJ-N-CEN_13
1002
{
1000
OWNER
1000
GEN
1002
}
  0
ARC
  5
630
330
1F
100
AcDbEntity
  8
AM_0
100
AcDbCircle
 10
1472.094368878003
 20
1120.978198678859
 30
0.0
 40
18.0
100
AcDbArc
 50
0.0
 51
60.00000000000272
1001
GENIUS_GENODEF_13
1002
{
1000
HIER
1070
     0
1002
}
1002
{
1000
MANEDIT
1070
     0
1002
}
1002
{
1000
NOSEL
1070
     0
1002
}
1002
{
1000
BEHIND
1070
     0
1002
}
1002
{
1000
OTHER
1070
     0
1002
}
1002
{
1000
REACTOR
1002
}
1001
GENIUS_GENOBJ-N-FIL_13
1002
{
1000
OWNER
1000
GEN
1002
}
  0
ARC
  5
631
330
1F
100
AcDbEntity
  8
AM_0
100
AcDbCircle
 10
1472.094368878002
 20
1120.978198678859
 30
0.0
 40
20.0
100
AcDbArc
 50
0.0
 51
60.00000000000272
1001
GENIUS_GENOBJ-N-FIL_13
1002
{
1000
OWNER
1000
GEN
1002
}
1001
GENIUS_GENODEF_13
1002
{
1000
HIER
1070
     0
1002
}
1002
{
1000
MANEDIT
1070
     0
1002
}
1002
{
1000
NOSEL
1070
     0
1002
}
1002
{
1000
BEHIND
1070
     0
1002
}
1002
{
1000
OTHER
1070
     0
1002
}
1002
{
1000
REACTOR
1002
}
  0
LINE
  5
632
330
1F
100
AcDbEntity
  8
AM_0
100
AcDbLine
 10
1567.844368878005
 20
1269.028230454945
 30
0.0
 11
1567.844368878002
 21
1169.247511955401
 31
0.0
1001
GENIUS_GENODEF_13
1002
{
1000
HIER
1070
     0
1002
}
1002
{
1000
MANEDIT
1070
     0
1002
}
1002
{
1000
NOSEL
1070
     0
1002
}
1002
{
1000
BEHIND
1070
     0
1002
}
1002
{
1000
REACTOR
1002
}
1001
GENIUS_GENOBJ-N-CEN_13
1002
{
1000
OWNER
1000
GEN
1002
}
  0
LINE
  5
633
330
1F
100
AcDbEntity
  8
AM_0
100
AcDbLine
 10
1569.094368878005
 20
1269.028230454945
 30
0.0
 11
1569.094368878002
 21
1169.247511955401
 31
0.0
1001
GENIUS_GENODEF_13
1002
{
1000
HIER
1070
     0
1002
}
1002
{
1000
MANEDIT
1070
     0
1002
}
1002
{
1000
NOSEL
1070
     0
1002
}
1002
{
1000
BEHIND
1070
     0
1002
}
1002
{
1000
REACTOR
1002
}
1001
GENIUS_GENOBJ-N-CEN_13
1002
{
1000
OWNER
1000
GEN
1002
}
  0
LINE
  5
634
330
1F
100
AcDbEntity
  8
AM_3
100
AcDbLine
 10
1542.894254561561
 20
1229.094572585008
 30
0.0
 11
1542.894254561561
 21
1184.094572585008
 31
0.0
  0
ARC
  5
636
330
1F
100
AcDbEntity
  8
AM_0
100
AcDbCircle
 10
1513.194368878002
 20
1269.028230454945
 30
0.0
 40
54.64999999999999
100
AcDbArc
 50
0.0
 51
57.91746383470126
1001
GENIUS_GENODEF_13
1002
{
1000
HIER
1070
     0
1002
}
1002
{
1000
MANEDIT
1070
     0
1002
}
1002
{
1000
NOSEL
1070
     0
1002
}
1002
{
1000
BEHIND
1070
     0
1002
}
1002
{
1000
REACTOR
1002
}
1001
GENIUS_GENOBJ-N-FIL_13
1002
{
1000
OWNER
1000
GEN
1002
}
  0
ARC
  5
637
330
1F
100
AcDbEntity
  8
AM_0
100
AcDbCircle
 10
1513.194368878002
 20
1269.028230454945
 30
0.0
 40
55.89999999999999
100
AcDbArc
 50
0.0
 51
57.91746383470126
1001
GENIUS_GENODEF_13
1002
{
1000
HIER
1070
     0
1002
}
1002
{
1000
MANEDIT
1070
     0
1002
}
1002
{
1000
NOSEL
1070
     0
1002
}
1002
{
1000
BEHIND
1070
     0
1002
}
1002
{
1000
REACTOR
1002
}
1001
GENIUS_GENOBJ-N-FIL_13
1002
{
1000
OWNER
1000
GEN
1002
}
  0
POINT
  5
639
330
1F
100
AcDbEntity
  8
DEFPOINTS
  6
ByBlock
 62
     0
100
AcDbPoint
 10
1409.058799094253
 20
1359.157429332027
 30
0.0
  0
ARC
  5
63A
330
1F
100
AcDbEntity
  8
AM_0
100
AcDbCircle
 10
1410.73696158549
 20
1360.747511955402
 30
0.0
 40
1.0
100
AcDbArc
 50
210.0000000000151
 51
270.0
  0
ARC
  5
63B
330
1F
100
AcDbEntity
  8
AM_0
100
AcDbCircle
 10
1411.89166212387
 20
1360.747511955402
 30
0.0
 40
1.0
100
AcDbArc
 50
270.0
 51
30.00000000001508
  0
POINT
  5
63C
330
1F
100
AcDbEntity
  8
DEFPOINTS
  6
ByBlock
 62
     0
100
AcDbPoint
 10
1413.175180970162
 20
1361.226021205357
 30
0.0
  0
LINE
  5
63D
330
1F
100
AcDbEntity
  8
AM_0
100
AcDbLine
 10
1398.389726219614
 20
1369.446986969414
 30
0.0
 11
1398.389726219614
 21
1385.414107891162
 31
0.0
  0
LINE
  5
63E
330
1F
100
AcDbEntity
  8
AM_0
100
AcDbLine
 10
1396.577689386893
 20
1369.446986969414
 30
0.0
 11
1398.798824638454
 21
1365.599867863228
 31
0.0
  0
LINE
  5
63F
330
1F
100
AcDbEntity
  8
AM_0
100
AcDbLine
 10
1396.577689386893
 20
1369.446986969414
 30
0.0
 11
1398.389726219614
 21
1369.446986969414
 31
0.0
  0
LINE
  5
640
330
1F
100
AcDbEntity
  8
AM_0
100
AcDbLine
 10
1400.664850042238
 20
1372.460870080246
 30
0.0
 11
1400.664850042238
 21
1366.099867863228
 31
0.0
  0
ARC
  5
641
330
1F
100
AcDbEntity
  8
AM_0
100
AcDbCircle
 10
1399.664850042238
 20
1366.099867863228
 30
0.0
 40
1.0
100
AcDbArc
 50
210.0000000000151
 51
0.0
  0
ARC
  5
642
330
1F
100
AcDbEntity
  8
AM_0
100
AcDbCircle
 10
1401.664850042238
 20
1372.460870080246
 30
0.0
 40
1.0
100
AcDbArc
 50
30.00000000001508
 51
180.0
  0
ARC
  5
643
330
1F
100
AcDbEntity
  8
AM_0
100
AcDbCircle
 10
1397.389726219614
 20
1382.461998252717
 30
0.0
 40
1.0
100
AcDbArc
 50
0.0
 51
90.0
  0
LINE
  5
644
330
1F
100
AcDbEntity
  8
AM_0
100
AcDbLine
 10
1397.389726219614
 20
1383.461998252717
 30
0.0
 11
1397.389726219614
 21
1386.023594212229
 31
0.0
  0
LINE
  5
645
330
1F
100
AcDbEntity
  8
AM_0
100
AcDbLine
 10
1387.611048369112
 20
1369.446986969414
 30
0.0
 11
1385.389913117552
 21
1365.599867863228
 31
0.0
  0
LINE
  5
646
330
1F
100
AcDbEntity
  8
AM_0
100
AcDbLine
 10
1385.799011536391
 20
1369.446986969414
 30
0.0
 11
1387.611048369112
 21
1369.446986969414
 31
0.0
  0
LINE
  5
647
330
1F
100
AcDbEntity
  8
AM_0
100
AcDbLine
 10
1385.799011536391
 20
1373.0595901343
 30
0.0
 11
1388.225955483936
 21
1373.0595901343
 31
0.0
  0
ARC
  5
648
330
1F
100
AcDbEntity
  8
AM_0
100
AcDbCircle
 10
1386.799011536391
 20
1382.461998252717
 30
0.0
 40
1.0
100
AcDbArc
 50
90.0
 51
180.0
  0
LINE
  5
649
330
1F
100
AcDbEntity
  8
AM_0
100
AcDbLine
 10
1385.799011536391
 20
1369.446986969414
 30
0.0
 11
1385.799011536391
 21
1385.414107891162
 31
0.0
  0
LINE
  5
64A
330
1F
100
AcDbEntity
  8
AM_4
100
AcDbLine
 10
1393.224151815971
 20
1377.9355740434
 30
0.0
 11
1393.224151815971
 21
1371.9355740434
 31
0.0
  0
LINE
  5
64B
330
1F
100
AcDbEntity
  8
AM_4
100
AcDbLine
 10
1394.13596234796
 20
1377.9355740434
 30
0.0
 11
1394.13596234796
 21
1371.9355740434
 31
0.0
  0
LINE
  5
64C
330
1F
100
AcDbEntity
  8
AM_4
100
AcDbLine
 10
1395.047772879951
 20
1377.9355740434
 30
0.0
 11
1395.047772879951
 21
1371.9355740434
 31
0.0
  0
LINE
  5
64D
330
1F
100
AcDbEntity
  8
AM_4
100
AcDbLine
 10
1392.129979177583
 20
1377.9355740434
 30
0.0
 11
1392.129979177583
 21
1371.9355740434
 31
0.0
  0
LINE
  5
64E
330
1F
100
AcDbEntity
  8
AM_4
100
AcDbLine
 10
1391.035806539195
 20
1377.9355740434
 30
0.0
 11
1391.035806539195
 21
1371.9355740434
 31
0.0
  0
LINE
  5
64F
330
1F
100
AcDbEntity
  8
AM_4
100
AcDbLine
 10
1390.123996007205
 20
1377.9355740434
 30
0.0
 11
1390.123996007205
 21
1371.9355740434
 31
0.0
  0
LINE
  5
650
330
1F
100
AcDbEntity
  8
AM_4
100
AcDbLine
 10
1389.212185475215
 20
1377.9355740434
 30
0.0
 11
1389.212185475215
 21
1371.9355740434
 31
0.0
  0
LINE
  5
651
330
1F
100
AcDbEntity
  8
AM_0
100
AcDbLine
 10
1388.129979177583
 20
1371.690205113485
 30
0.0
 11
1396.129979177583
 21
1371.690205113485
 31
0.0
  0
LINE
  5
652
330
1F
100
AcDbEntity
  8
AM_0
100
AcDbLine
 10
1393.647752849189
 20
1383.461998252717
 30
0.0
 11
1393.647752849189
 21
1377.9355740434
 31
0.0
  0
LINE
  5
653
330
1F
100
AcDbEntity
  8
AM_0
100
AcDbLine
 10
1390.540984906817
 20
1383.461998252717
 30
0.0
 11
1390.540984906817
 21
1377.9355740434
 31
0.0
  0
LINE
  5
654
330
1F
100
AcDbEntity
  8
AM_0
100
AcDbLine
 10
1388.129979177583
 20
1377.9355740434
 30
0.0
 11
1396.129979177583
 21
1377.9355740434
 31
0.0
  0
LINE
  5
655
330
1F
100
AcDbEntity
  8
AM_0
100
AcDbLine
 10
1388.723529645733
 20
1386.478736844889
 30
0.0
 11
1395.465208110273
 21
1386.478736844889
 31
0.0
  0
LINE
  5
656
330
1F
100
AcDbEntity
  8
AM_0
100
AcDbLine
 10
1386.799011536391
 20
1383.461998252717
 30
0.0
 11
1397.389726219614
 21
1383.461998252717
 31
0.0
  0
LINE
  5
657
330
1F
100
AcDbEntity
  8
AM_0
100
AcDbLine
 10
1386.799011536391
 20
1383.461998252717
 30
0.0
 11
1386.799011536391
 21
1386.023594212229
 31
0.0
  0
LINE
  5
658
330
1F
100
AcDbEntity
  8
AM_0
100
AcDbLine
 10
1398.389726219614
 20
1373.0595901343
 30
0.0
 11
1396.129979177583
 21
1373.0595901343
 31
0.0
  0
ARC
  5
659
330
1F
100
AcDbEntity
  8
AM_0
100
AcDbCircle
 10
1395.305434610808
 20
1381.478736844889
 30
0.0
 40
5.0
100
AcDbArc
 50
28.58808396744317
 51
90.0
  0
HATCH
  5
65A
330
1F
100
AcDbEntity
  8
AM_8
100
AcDbHatch
 10
0.0
 20
0.0
 30
0.0
210
0.0
220
0.0
230
1.0
  2
_U
 70
     0
 71
     0
 91
        1
 92
        1
 93
        6
 72
     2
 10
1395.305434610808
 20
1381.478736844888
 40
5.000000000000229
 50
65.36360151377627
 51
90.0000000000104
 73
     1
 72
     1
 10
1395.305434610808
 20
1386.478736844889
 11
1388.883303145198
 21
1386.478736844889
 72
     2
 10
1388.883303145198
 20
1381.478736844889
 40
5.0
 50
90.00000000000031
 51
114.6363984862367
 73
     1
 72
     1
 10
1386.799011536391
 20
1386.023594212229
 11
1386.799011536391
 21
1383.461998252717
 72
     1
 10
1386.799011536391
 20
1383.461998252717
 11
1397.389726219614
 21
1383.461998252717
 72
     1
 10
1397.389726219614
 20
1383.461998252717
 11
1397.389726219614
 21
1386.02359421223
 97
        0
 75
     0
 76
     0
 52
45.0
 41
2.0
 77
     0
 78
     1
 53
45.0
 43
1146.097545209881
 44
691.4593608829411
 45
-1.414213562373094
 46
1.414213562373095
 79
     0
 98
        1
 10
1146.097545209881
 20
691.4593608829411
1001
GENIUS_GENODEF_13
1002
{
1000
HIER
1070
     0
1002
}
1002
{
1000
MANEDIT
1070
     0
1002
}
1002
{
1000
NOSEL
1070
     0
1002
}
1002
{
1000
BEHIND
1070
     0
1002
}
1002
{
1000
OTHER
1070
     0
1002
}
1002
{
1000
REACTOR
1002
}
1001
GENIUS_GENOBJ-N-HTC_13
1002
{
1000
OWNER
1000
GEN
1002
}
1001
GENIUS_GENHATCH_13
1002
{
1000
DATA
1040
45.0
1042
2.5
1000
_U
1070
     0
1011
1393.763759632967
1021
1384.894866082099
1031
0.0
1002
}
1002
{
1000
UCS
1010
0.0
1020
0.0
1030
0.0
1010
1.0
1020
0.0
1030
0.0
1010
0.0
1020
1.0
1030
0.0
1002
}
  0
LINE
  5
65B
330
1F
100
AcDbEntity
  8
AM_0
100
AcDbLine
 10
1399.129979177583
 20
1361.9355740434
 30
0.0
 11
1399.129979177583
 21
1359.659498517797
 31
0.0
  0
LINE
  5
65C
330
1F
100
AcDbEntity
  8
AM_0
100
AcDbLine
 10
1385.129979177583
 20
1361.9355740434
 30
0.0
 11
1399.129979177583
 21
1361.9355740434
 31
0.0
  0
LINE
  5
65D
330
1F
100
AcDbEntity
  8
AM_0
100
AcDbLine
 10
1385.129979177583
 20
1361.9355740434
 30
0.0
 11
1385.129979177583
 21
1359.66127166867
 31
0.0
  0
LINE
  5
65E
330
1F
100
AcDbEntity
  8
AM_0
100
AcDbLine
 10
1395.407563032272
 20
1359.72799615741
 30
0.0
 11
1395.407563032272
 21
1355.931762356637
 31
0.0
  0
LINE
  5
65F
330
1F
100
AcDbEntity
  8
AM_0
100
AcDbLine
 10
1388.852395322893
 20
1359.728826192397
 30
0.0
 11
1388.852395322893
 21
1355.931762356637
 31
0.0
  0
LINE
  5
660
330
1F
100
AcDbEntity
  8
AM_0
100
AcDbLine
 10
1388.852395322893
 20
1355.931762356637
 30
0.0
 11
1395.407563032272
 21
1355.931762356637
 31
0.0
  0
LINE
  5
661
330
1F
100
AcDbEntity
  8
AM_0
100
AcDbLine
 10
1396.129979177583
 20
1377.9355740434
 30
0.0
 11
1396.129979177583
 21
1361.9355740434
 31
0.0
  0
LINE
  5
662
330
1F
100
AcDbEntity
  8
AM_0
100
AcDbLine
 10
1388.129979177583
 20
1377.9355740434
 30
0.0
 11
1388.129979177583
 21
1361.9355740434
 31
0.0
  0
LINE
  5
663
330
1F
100
AcDbEntity
  8
AM_0
100
AcDbLine
 10
1399.695847170312
 20
1383.871283094671
 30
0.0
 11
1412.757687527654
 21
1361.247511955401
 31
0.0
  0
HATCH
  5
664
330
1F
100
AcDbEntity
  8
AM_8
100
AcDbHatch
 10
0.0
 20
0.0
 30
0.0
210
0.0
220
0.0
230
1.0
  2
_U
 70
     0
 71
     0
 91
        1
 92
        1
 93
       12
 72
     1
 10
1398.389726219614
 20
1385.414107891162
 11
1398.389726219614
 21
1369.446986969414
 72
     1
 10
1398.389726219614
 20
1369.446986969414
 11
1396.577689386893
 21
1369.446986969414
 72
     1
 10
1396.577689386893
 20
1369.446986969414
 11
1398.798824638454
 21
1365.599867863229
 72
     2
 10
1399.664850042238
 20
1366.099867863228
 40
1.000000000000057
 50
209.9999999999981
 51
360.0
 73
     1
 72
     1
 10
1400.664850042238
 20
1366.099867863228
 11
1400.664850042238
 21
1372.460870080246
 72
     2
 10
1401.664850042238
 20
1372.460870080246
 40
1.0
 50
180.0
 51
329.9999999999995
 73
     0
 72
     1
 10
1402.530875446023
 20
1372.960870080246
 11
1409.870936181706
 21
1360.247511955402
 72
     2
 10
1410.736961585491
 20
1360.747511955402
 40
0.9999999999999836
 50
210.0000000000005
 51
269.9999999999935
 73
     1
 72
     1
 10
1410.73696158549
 20
1359.747511955402
 11
1411.891662123869
 21
1359.747511955402
 72
     2
 10
1411.89166212387
 20
1360.747511955402
 40
1.0
 50
270.0000000000033
 51
390.0000000000022
 73
     1
 72
     1
 10
1412.757687527654
 20
1361.247511955401
 11
1399.695847170312
 21
1383.871283094671
 72
     2
 10
1395.305434610808
 20
1381.478736844889
 40
4.999999999999955
 50
28.58808396744364
 51
51.91292630187383
 73
     1
 97
        0
 75
     0
 76
     0
 52
45.0
 41
5.0
 77
     0
 78
     1
 53
45.0
 43
1146.097545209881
 44
691.4593608829411
 45
-3.535533905932737
 46
3.535533905932737
 79
     0
 98
        1
 10
1146.097545209881
 20
691.4593608829411
1001
GENIUS_GENOBJ-N-HTC_13
1002
{
1000
OWNER
1000
GEN
1002
}
1001
GENIUS_GENODEF_13
1002
{
1000
HIER
1070
     0
1002
}
1002
{
1000
MANEDIT
1070
     0
1002
}
1002
{
1000
NOSEL
1070
     0
1002
}
1002
{
1000
BEHIND
1070
     0
1002
}
1002
{
1000
OTHER
1070
     0
1002
}
1002
{
1000
REACTOR
1002
}
1001
GENIUS_GENHATCH_13
1002
{
1000
DATA
1040
45.0
1042
2.5
1000
_U
1070
     0
1011
1402.665168338508
1021
1375.346704139868
1031
0.0
1002
}
1002
{
1000
UCS
1010
0.0
1020
0.0
1030
0.0
1010
1.0
1020
0.0
1030
0.0
1010
0.0
1020
1.0
1030
0.0
1002
}
  0
LINE
  5
665
330
1F
100
AcDbEntity
  8
AM_0
100
AcDbLine
 10
1402.530875446023
 20
1372.960870080246
 30
0.0
 11
1409.870936181706
 21
1360.247511955402
 31
0.0
  0
ARC
  5
666
330
1F
100
AcDbEntity
  8
AM_0
100
AcDbCircle
 10
1382.523887713767
 20
1372.460870080246
 30
0.0
 40
1.0
100
AcDbArc
 50
0.0
 51
149.9999999999849
  0
LINE
  5
667
330
1F
100
AcDbEntity
  8
AM_0
100
AcDbLine
 10
1383.523887713767
 20
1366.099867863228
 30
0.0
 11
1383.523887713767
 21
1372.460870080246
 31
0.0
  0
ARC
  5
668
330
1F
100
AcDbEntity
  8
AM_0
100
AcDbCircle
 10
1373.451776170516
 20
1360.747511955402
 30
0.0
 40
1.0
100
AcDbArc
 50
270.0
 51
329.9999999999849
  0
ARC
  5
669
330
1F
100
AcDbEntity
  8
AM_0
100
AcDbCircle
 10
1372.297075632137
 20
1360.747511955402
 30
0.0
 40
1.0
100
AcDbArc
 50
149.9999999999849
 51
270.0
  0
LINE
  5
66A
330
1F
100
AcDbEntity
  8
AM_0
100
AcDbLine
 10
1372.297075632137
 20
1359.747511955402
 30
0.0
 11
1411.89166212387
 21
1359.747511955402
 31
0.0
  0
LINE
  5
66B
330
1F
100
AcDbEntity
  8
AM_0
100
AcDbLine
 10
1384.492890585693
 20
1383.871283094671
 30
0.0
 11
1371.431050228351
 21
1361.247511955401
 31
0.0
  0
LINE
  5
66C
330
1F
100
AcDbEntity
  8
AM_0
100
AcDbLine
 10
1381.657862309983
 20
1372.960870080246
 30
0.0
 11
1374.271519638823
 21
1360.167349291684
 31
0.0
  0
ARC
  5
66E
330
1F
100
AcDbEntity
  8
AM_0
100
AcDbCircle
 10
1388.883303145198
 20
1381.478736844889
 30
0.0
 40
5.0
100
AcDbArc
 50
90.0
 51
151.4119160325568
  0
HATCH
  5
66F
330
1F
100
AcDbEntity
  8
AM_8
100
AcDbHatch
 10
0.0
 20
0.0
 30
0.0
210
0.0
220
0.0
230
1.0
  2
_U
 70
     0
 71
     0
 91
        1
 92
        1
 93
       14
 72
     1
 10
1384.492890585694
 20
1383.871283094671
 11
1371.431050228352
 21
1361.247511955401
 72
     2
 10
1372.297075632137
 20
1360.747511955402
 40
1.000000000000057
 50
150.0000000000019
 51
270.0000000000017
 73
     1
 72
     1
 10
1372.297075632137
 20
1359.747511955402
 11
1373.451776170516
 21
1359.747511955402
 72
     2
 10
1373.451776170516
 20
1360.747511955402
 40
1.0
 50
270.0
 51
330.0000000000003
 73
     1
 72
     1
 10
1374.317801574301
 20
1360.247511955402
 11
1381.657862309983
 21
1372.960870080246
 72
     2
 10
1382.523887713767
 20
1372.460870080246
 40
0.9999999999999344
 50
210.0000000000022
 51
360.0
 73
     0
 72
     1
 10
1383.523887713767
 20
1372.460870080246
 11
1383.523887713767
 21
1372.059590134299
 72
     1
 10
1383.523887713767
 20
1372.0595901343
 11
1383.523887713767
 21
1371.898793559218
 72
     1
 10
1383.523887713767
 20
1371.898793559218
 11
1383.523887713767
 21
1366.099867863228
 72
     2
 10
1384.523887713767
 20
1366.099867863228
 40
1.0
 50
180.0
 51
330.0000000000003
 73
     1
 72
     1
 10
1385.389913117552
 20
1365.599867863228
 11
1387.611048369113
 21
1369.446986969413
 72
     1
 10
1387.611048369112
 20
1369.446986969414
 11
1385.799011536391
 21
1369.446986969414
 72
     1
 10
1385.799011536391
 20
1369.446986969414
 11
1385.799011536391
 21
1385.414107891162
 72
     2
 10
1388.883303145198
 20
1381.478736844889
 40
5.000000000000037
 50
128.0870736981277
 51
151.4119160325583
 73
     1
 97
        0
 75
     0
 76
     0
 52
45.0
 41
4.0
 77
     0
 78
     1
 53
45.0
 43
1146.097545209881
 44
691.4593608829411
 45
-2.828427124746189
 46
2.82842712474619
 79
     0
 98
        1
 10
1146.097545209881
 20
691.4593608829411
1001
GENIUS_GENODEF_13
1002
{
1000
HIER
1070
     0
1002
}
1002
{
1000
MANEDIT
1070
     0
1002
}
1002
{
1000
NOSEL
1070
     0
1002
}
1002
{
1000
BEHIND
1070
     0
1002
}
1002
{
1000
OTHER
1070
     0
1002
}
1002
{
1000
REACTOR
1002
}
1001
GENIUS_GENOBJ-N-HTC_13
1002
{
1000
OWNER
1000
GEN
1002
}
1001
GENIUS_GENHATCH_13
1002
{
1000
DATA
1040
45.0
1042
2.5
1000
_U
1070
     0
1011
1383.451149691446
1021
1376.865729858952
1031
0.0
1002
}
1002
{
1000
UCS
1010
0.0
1020
0.0
1030
0.0
1010
1.0
1020
0.0
1030
0.0
1010
0.0
1020
1.0
1030
0.0
1002
}
  0
ARC
  5
670
330
1F
100
AcDbEntity
  8
AM_0
100
AcDbCircle
 10
1384.523887713767
 20
1366.099867863228
 30
0.0
 40
1.0
100
AcDbArc
 50
180.0
 51
329.9999999999849
  0
LINE
  5
671
330
1F
100
AcDbEntity
  8
AM_0
100
AcDbLine
 10
1412.094368878002
 20
1254.985099821661
 30
0.0
 11
1413.094368878002
 21
1253.985099821661
 31
0.0
  0
LINE
  5
672
330
1F
100
AcDbEntity
  8
AM_0
100
AcDbLine
 10
1413.094368878002
 20
1251.985099821661
 30
0.0
 11
1412.094368878002
 21
1250.985099821661
 31
0.0
  0
LINE
  5
673
330
1F
100
AcDbEntity
  8
AM_0
100
AcDbLine
 10
1413.094368878002
 20
1253.985099821661
 30
0.0
 11
1428.001476103213
 21
1253.985099821661
 31
0.0
  0
LINE
  5
674
330
1F
100
AcDbEntity
  8
AM_0
100
AcDbLine
 10
1413.094368878002
 20
1251.985099821661
 30
0.0
 11
1428.001476103213
 21
1251.985099821661
 31
0.0
  0
ARC
  5
675
330
1F
100
AcDbEntity
  8
AM_0
100
AcDbCircle
 10
1428.001476103213
 20
1233.985099821661
 30
0.0
 40
18.0
100
AcDbArc
 50
7.1660910389357
 51
90.0
1001
GENIUS_GENOBJ-N-FIL_13
1002
{
1000
OWNER
1000
GEN
1002
}
1001
GENIUS_GENODEF_13
1002
{
1000
HIER
1070
     0
1002
}
1002
{
1000
MANEDIT
1070
     0
1002
}
1002
{
1000
NOSEL
1070
     0
1002
}
1002
{
1000
BEHIND
1070
     0
1002
}
1002
{
1000
OTHER
1070
     0
1002
}
1002
{
1000
REACTOR
1002
}
  0
ARC
  5
676
330
1F
100
AcDbEntity
  8
AM_0
100
AcDbCircle
 10
1428.001476103213
 20
1233.985099821661
 30
0.0
 40
20.0
100
AcDbArc
 50
7.1660910389357
 51
90.0
1001
GENIUS_GENODEF_13
1002
{
1000
HIER
1070
     0
1002
}
1002
{
1000
MANEDIT
1070
     0
1002
}
1002
{
1000
NOSEL
1070
     0
1002
}
1002
{
1000
BEHIND
1070
     0
1002
}
1002
{
1000
OTHER
1070
     0
1002
}
1002
{
1000
REACTOR
1002
}
1001
GENIUS_GENOBJ-N-FIL_13
1002
{
1000
OWNER
1000
GEN
1002
}
  0
LINE
  5
677
330
1F
100
AcDbEntity
  8
AM_3
100
AcDbLine
 10
1462.100880597391
 20
1133.732732117766
 30
0.0
 11
1472.509380654366
 21
1139.742082427522
 31
0.0
  0
LINE
  5
678
330
1F
100
AcDbEntity
  8
AM_3
100
AcDbLine
 10
1463.100880597391
 20
1132.000681310197
 30
0.0
 11
1474.509380654366
 21
1138.587381889143
 31
0.0
  0
ARC
  5
679
330
1F
100
AcDbEntity
  8
AM_0
100
AcDbCircle
 10
1475.185868821026
 20
1163.071940812966
 30
0.0
 40
18.0
100
AcDbArc
 50
187.1660910389357
 51
240.0000000000027
1001
GENIUS_GENOBJ-N-FIL_13
1002
{
1000
OWNER
1000
GEN
1002
}
1001
GENIUS_GENODEF_13
1002
{
1000
HIER
1070
     0
1002
}
1002
{
1000
MANEDIT
1070
     0
1002
}
1002
{
1000
NOSEL
1070
     0
1002
}
1002
{
1000
BEHIND
1070
     0
1002
}
1002
{
1000
OTHER
1070
     0
1002
}
1002
{
1000
REACTOR
1002
}
  0
ARC
  5
67A
330
1F
100
AcDbEntity
  8
AM_3
100
AcDbCircle
 10
1472.100880597391
 20
1116.412224042077
 30
0.0
 40
18.0
100
AcDbArc
 50
119.9999999999972
 51
172.8339089610643
1001
GENIUS_GENOBJ-N-FIL_13
1002
{
1000
OWNER
1000
GEN
1002
}
1001
GENIUS_GENODEF_13
1002
{
1000
HIER
1070
     0
1002
}
1002
{
1000
MANEDIT
1070
     0
1002
}
1002
{
1000
NOSEL
1070
     0
1002
}
1002
{
1000
BEHIND
1070
     0
1002
}
1002
{
1000
OTHER
1070
     0
1002
}
1002
{
1000
REACTOR
1002
}
  0
ARC
  5
67B
330
1F
100
AcDbEntity
  8
AM_3
100
AcDbCircle
 10
1472.100880597391
 20
1116.412224042077
 30
0.0
 40
20.0
100
AcDbArc
 50
119.9999999999972
 51
172.8339089610643
1001
GENIUS_GENODEF_13
1002
{
1000
HIER
1070
     0
1002
}
1002
{
1000
MANEDIT
1070
     0
1002
}
1002
{
1000
NOSEL
1070
     0
1002
}
1002
{
1000
BEHIND
1070
     0
1002
}
1002
{
1000
OTHER
1070
     0
1002
}
1002
{
1000
REACTOR
1002
}
1001
GENIUS_GENOBJ-N-FIL_13
1002
{
1000
OWNER
1000
GEN
1002
}
  0
ARC
  5
67C
330
1F
100
AcDbEntity
  8
AM_0
100
AcDbCircle
 10
1475.185868821026
 20
1163.071940812966
 30
0.0
 40
20.0
100
AcDbArc
 50
187.1660910389357
 51
240.0000000000027
1001
GENIUS_GENODEF_13
1002
{
1000
HIER
1070
     0
1002
}
1002
{
1000
MANEDIT
1070
     0
1002
}
1002
{
1000
NOSEL
1070
     0
1002
}
1002
{
1000
BEHIND
1070
     0
1002
}
1002
{
1000
OTHER
1070
     0
1002
}
1002
{
1000
REACTOR
1002
}
1001
GENIUS_GENOBJ-N-FIL_13
1002
{
1000
OWNER
1000
GEN
1002
}
  0
LINE
  5
67D
330
1F
100
AcDbEntity
  8
AM_0
100
AcDbLine
 10
1447.845250156337
 20
1236.480020928341
 30
0.0
 11
1457.326472173214
 21
1160.826511816955
 31
0.0
  0
LINE
  5
67E
330
1F
100
AcDbEntity
  8
AM_0
100
AcDbLine
 10
1445.860872751025
 20
1236.230528817673
 30
0.0
 11
1455.342094767902
 21
1160.577019706287
 31
0.0
  0
LINE
  5
67F
330
1F
100
AcDbEntity
  8
AM_3
100
AcDbLine
 10
1462.894254561561
 20
1184.094572585008
 30
0.0
 11
1462.894254561561
 21
1229.094572585008
 31
0.0
  0
LINE
  5
680
330
1F
100
AcDbEntity
  8
AM_0
100
AcDbLine
 10
1371.094368878002
 20
1253.985099821661
 30
0.0
 11
1372.094368878002
 21
1254.985099821661
 31
0.0
  0
LINE
  5
681
330
1F
100
AcDbEntity
  8
AM_0
100
AcDbLine
 10
1372.094368878002
 20
1250.985099821661
 30
0.0
 11
1371.094368878002
 21
1251.985099821661
 31
0.0
  0
LINE
  5
682
330
1F
100
AcDbEntity
  8
AM_0
100
AcDbLine
 10
1371.094368878002
 20
1253.985099821661
 30
0.0
 11
1356.187261652792
 21
1253.985099821661
 31
0.0
  0
LINE
  5
683
330
1F
100
AcDbEntity
  8
AM_0
100
AcDbLine
 10
1371.094368878002
 20
1251.985099821661
 30
0.0
 11
1356.187261652792
 21
1251.985099821661
 31
0.0
  0
ARC
  5
684
330
1F
100
AcDbEntity
  8
AM_0
100
AcDbCircle
 10
1356.187261652792
 20
1233.985099821661
 30
0.0
 40
18.0
100
AcDbArc
 50
90.0
 51
172.8339089610643
1001
GENIUS_GENOBJ-N-FIL_13
1002
{
1000
OWNER
1000
GEN
1002
}
1001
GENIUS_GENODEF_13
1002
{
1000
HIER
1070
     0
1002
}
1002
{
1000
MANEDIT
1070
     0
1002
}
1002
{
1000
NOSEL
1070
     0
1002
}
1002
{
1000
BEHIND
1070
     0
1002
}
1002
{
1000
OTHER
1070
     0
1002
}
1002
{
1000
REACTOR
1002
}
  0
ARC
  5
685
330
1F
100
AcDbEntity
  8
AM_0
100
AcDbCircle
 10
1356.187261652792
 20
1233.985099821661
 30
0.0
 40
20.0
100
AcDbArc
 50
90.0
 51
172.8339089610643
1001
GENIUS_GENODEF_13
1002
{
1000
HIER
1070
     0
1002
}
1002
{
1000
MANEDIT
1070
     0
1002
}
1002
{
1000
NOSEL
1070
     0
1002
}
1002
{
1000
BEHIND
1070
     0
1002
}
1002
{
1000
OTHER
1070
     0
1002
}
1002
{
1000
REACTOR
1002
}
1001
GENIUS_GENOBJ-N-FIL_13
1002
{
1000
OWNER
1000
GEN
1002
}
  0
ARC
  5
686
330
1F
100
AcDbEntity
  8
AM_3
100
AcDbCircle
 10
1312.087857158614
 20
1116.412224042077
 30
0.0
 40
18.0
100
AcDbArc
 50
7.1660910389357
 51
60.00000000000272
1001
GENIUS_GENOBJ-N-FIL_13
1002
{
1000
OWNER
1000
GEN
1002
}
1001
GENIUS_GENODEF_13
1002
{
1000
HIER
1070
     0
1002
}
1002
{
1000
MANEDIT
1070
     0
1002
}
1002
{
1000
NOSEL
1070
     0
1002
}
1002
{
1000
BEHIND
1070
     0
1002
}
1002
{
1000
OTHER
1070
     0
1002
}
1002
{
1000
REACTOR
1002
}
  0
ARC
  5
687
330
1F
100
AcDbEntity
  8
AM_3
100
AcDbCircle
 10
1312.087857158614
 20
1116.412224042077
 30
0.0
 40
20.0
100
AcDbArc
 50
7.1660910389357
 51
60.00000000000272
1001
GENIUS_GENODEF_13
1002
{
1000
HIER
1070
     0
1002
}
1002
{
1000
MANEDIT
1070
     0
1002
}
1002
{
1000
NOSEL
1070
     0
1002
}
1002
{
1000
BEHIND
1070
     0
1002
}
1002
{
1000
OTHER
1070
     0
1002
}
1002
{
1000
REACTOR
1002
}
1001
GENIUS_GENOBJ-N-FIL_13
1002
{
1000
OWNER
1000
GEN
1002
}
  0
ARC
  5
688
330
1F
100
AcDbEntity
  8
AM_0
100
AcDbCircle
 10
1309.002868934978
 20
1163.071940812966
 30
0.0
 40
20.0
100
AcDbArc
 50
299.9999999999973
 51
352.8339089610643
1001
GENIUS_GENODEF_13
1002
{
1000
HIER
1070
     0
1002
}
1002
{
1000
MANEDIT
1070
     0
1002
}
1002
{
1000
NOSEL
1070
     0
1002
}
1002
{
1000
BEHIND
1070
     0
1002
}
1002
{
1000
OTHER
1070
     0
1002
}
1002
{
1000
REACTOR
1002
}
1001
GENIUS_GENOBJ-N-FIL_13
1002
{
1000
OWNER
1000
GEN
1002
}
  0
ARC
  5
689
330
1F
100
AcDbEntity
  8
AM_0
100
AcDbCircle
 10
1309.002868934978
 20
1163.071940812966
 30
0.0
 40
18.0
100
AcDbArc
 50
299.9999999999973
 51
352.8339089610643
1001
GENIUS_GENOBJ-N-FIL_13
1002
{
1000
OWNER
1000
GEN
1002
}
1001
GENIUS_GENODEF_13
1002
{
1000
HIER
1070
     0
1002
}
1002
{
1000
MANEDIT
1070
     0
1002
}
1002
{
1000
NOSEL
1070
     0
1002
}
1002
{
1000
BEHIND
1070
     0
1002
}
1002
{
1000
OTHER
1070
     0
1002
}
1002
{
1000
REACTOR
1002
}
  0
ARC
  5
68A
330
1F
100
AcDbEntity
  8
AM_0
100
AcDbCircle
 10
1312.094368878003
 20
1120.978198678859
 30
0.0
 40
18.0
100
AcDbArc
 50
119.9999999999972
 51
180.0
1001
GENIUS_GENOBJ-N-FIL_13
1002
{
1000
OWNER
1000
GEN
1002
}
1001
GENIUS_GENODEF_13
1002
{
1000
HIER
1070
     0
1002
}
1002
{
1000
MANEDIT
1070
     0
1002
}
1002
{
1000
NOSEL
1070
     0
1002
}
1002
{
1000
BEHIND
1070
     0
1002
}
1002
{
1000
OTHER
1070
     0
1002
}
1002
{
1000
REACTOR
1002
}
  0
LINE
  5
68B
330
1F
100
AcDbEntity
  8
AM_3
100
AcDbLine
 10
1322.087857158614
 20
1133.732732117766
 30
0.0
 11
1311.679357101638
 21
1139.742082427522
 31
0.0
  0
LINE
  5
68C
330
1F
100
AcDbEntity
  8
AM_3
100
AcDbLine
 10
1321.087857158614
 20
1132.000681310198
 30
0.0
 11
1309.679357101638
 21
1138.587381889143
 31
0.0
  0
LINE
  5
68D
330
1F
100
AcDbEntity
  8
AM_0
100
AcDbLine
 10
1319.002868934978
 20
1145.751432737277
 30
0.0
 11
1303.094368878002
 21
1136.566655946979
 31
0.0
  0
LINE
  5
68E
330
1F
100
AcDbEntity
  8
AM_0
100
AcDbLine
 10
1318.002868934978
 20
1147.483483544846
 30
0.0
 11
1302.094368878002
 21
1138.298706754548
 31
0.0
  0
LINE
  5
68F
330
1F
100
AcDbEntity
  8
AM_0
100
AcDbLine
 10
1336.343487599667
 20
1236.480020928341
 30
0.0
 11
1326.862265582789
 21
1160.826511816955
 31
0.0
  0
LINE
  5
690
330
1F
100
AcDbEntity
  8
AM_0
100
AcDbLine
 10
1338.32786500498
 20
1236.230528817673
 30
0.0
 11
1328.846642988103
 21
1160.577019706287
 31
0.0
  0
LINE
  5
691
330
1F
100
AcDbEntity
  8
AM_3
100
AcDbLine
 10
1321.294483194445
 20
1184.094572585008
 30
0.0
 11
1321.294483194445
 21
1229.094572585008
 31
0.0
  0
LINE
  5
692
330
1F
100
AcDbEntity
  8
AM_0
100
AcDbLine
 10
1372.094368878002
 20
1254.985099821661
 30
0.0
 11
1412.094368878002
 21
1254.985099821661
 31
0.0
  0
LINE
  5
693
330
1F
100
AcDbEntity
  8
AM_0
100
AcDbLine
 10
1412.094368878002
 20
1250.985099821661
 30
0.0
 11
1372.094368878002
 21
1250.985099821661
 31
0.0
  0
LINE
  5
694
330
1F
100
AcDbEntity
  8
AM_0
100
AcDbLine
 10
1466.185868821026
 20
1147.483483544846
 30
0.0
 11
1482.094368878003
 21
1138.298706754548
 31
0.0
  0
LINE
  5
695
330
1F
100
AcDbEntity
  8
AM_0
100
AcDbLine
 10
1465.185868821026
 20
1145.751432737277
 30
0.0
 11
1481.094368878003
 21
1136.566655946979
 31
0.0
  0
LINE
  5
696
330
1F
100
AcDbEntity
  8
AM_7
100
AcDbLine
 10
1459.894254561561
 20
1206.594572585008
 30
0.0
 11
1545.894254561561
 21
1206.594572585008
 31
0.0
  0
LINE
  5
697
330
1F
100
AcDbEntity
  8
AM_3
100
AcDbLine
 10
1462.894254561561
 20
1185.594572585008
 30
0.0
 11
1542.894254561561
 21
1185.594572585008
 31
0.0
  0
LINE
  5
698
330
1F
100
AcDbEntity
  8
AM_3
100
AcDbLine
 10
1462.894254561561
 20
1227.594572585008
 30
0.0
 11
1542.894254561561
 21
1227.594572585008
 31
0.0
  0
LINE
  5
699
330
1F
100
AcDbEntity
  8
AM_3
100
AcDbLine
 10
1542.894254561561
 20
1184.094572585008
 30
0.0
 11
1462.894254561561
 21
1184.094572585008
 31
0.0
  0
LINE
  5
69A
330
1F
100
AcDbEntity
  8
AM_3
100
AcDbLine
 10
1462.894254561561
 20
1229.094572585008
 30
0.0
 11
1542.894254561561
 21
1229.094572585008
 31
0.0
  0
ARC
  5
69B
330
1F
100
AcDbEntity
  8
AM_0
100
AcDbCircle
 10
1392.094368878003
 20
1075.847511955401
 30
0.0
 40
282.65
100
AcDbArc
 50
57.91746383470126
 51
122.0825361652987
  0
ARC
  5
69C
330
1F
100
AcDbEntity
  8
AM_0
100
AcDbCircle
 10
1392.094368878003
 20
1075.847511955401
 30
0.0
 40
283.9
100
AcDbArc
 50
57.91746383470126
 51
122.0825361652987
  0
LINE
  5
69D
330
1F
100
AcDbEntity
  8
AM_0
100
AcDbLine
 10
1457.408844277291
 20
1160.247511955402
 30
0.0
 11
1567.844368878002
 21
1160.247511955402
 31
0.0
  0
ARC
  5
69E
330
1F
100
AcDbEntity
  8
AM_0
100
AcDbCircle
 10
1474.094368878003
 20
1025.655438241557
 30
0.0
 40
18.0
100
AcDbArc
 50
314.9999999999908
 51
0.0
1001
GENIUS_GENOBJ-N-FIL_13
1002
{
1000
OWNER
1000
GEN
1002
}
1001
GENIUS_GENODEF_13
1002
{
1000
HIER
1070
     0
1002
}
1002
{
1000
MANEDIT
1070
     0
1002
}
1002
{
1000
NOSEL
1070
     0
1002
}
1002
{
1000
BEHIND
1070
     0
1002
}
1002
{
1000
OTHER
1070
     0
1002
}
1002
{
1000
REACTOR
1002
}
  0
ARC
  5
69F
330
1F
100
AcDbEntity
  8
AM_0
100
AcDbCircle
 10
1472.094368878003
 20
1026.483865366302
 30
0.0
 40
18.0
100
AcDbArc
 50
314.9999999999908
 51
0.0
1001
GENIUS_GENODEF_13
1002
{
1000
HIER
1070
     0
1002
}
1002
{
1000
MANEDIT
1070
     0
1002
}
1002
{
1000
NOSEL
1070
     0
1002
}
1002
{
1000
BEHIND
1070
     0
1002
}
1002
{
1000
OTHER
1070
     0
1002
}
1002
{
1000
REACTOR
1002
}
1001
GENIUS_GENOBJ-N-FIL_13
1002
{
1000
OWNER
1000
GEN
1002
}
  0
LINE
  5
6A0
330
1F
100
AcDbEntity
  8
AM_3
100
AcDbLine
 10
1413.094368878003
 20
1028.228021243587
 30
0.0
 11
1412.094368878003
 21
1029.228021243587
 31
0.0
  0
LINE
  5
6A1
330
1F
100
AcDbEntity
  8
AM_3
100
AcDbLine
 10
1412.094368878003
 20
1025.228021243587
 30
0.0
 11
1413.094368878003
 21
1026.228021243587
 31
0.0
  0
LINE
  5
6A2
330
1F
100
AcDbEntity
  8
AM_3
100
AcDbLine
 10
1413.094368878003
 20
1026.228021243587
 30
0.0
 11
1428.001476103214
 21
1026.228021243587
 31
0.0
  0
LINE
  5
6A3
330
1F
100
AcDbEntity
  8
AM_3
100
AcDbLine
 10
1413.094368878003
 20
1028.228021243587
 30
0.0
 11
1428.001476103214
 21
1028.228021243587
 31
0.0
  0
ARC
  5
6A4
330
1F
100
AcDbEntity
  8
AM_3
100
AcDbCircle
 10
1428.001476103214
 20
1046.228021243587
 30
0.0
 40
20.0
100
AcDbArc
 50
270.0
 51
352.8339089610643
1001
GENIUS_GENODEF_13
1002
{
1000
HIER
1070
     0
1002
}
1002
{
1000
MANEDIT
1070
     0
1002
}
1002
{
1000
NOSEL
1070
     0
1002
}
1002
{
1000
BEHIND
1070
     0
1002
}
1002
{
1000
OTHER
1070
     0
1002
}
1002
{
1000
REACTOR
1002
}
1001
GENIUS_GENOBJ-N-FIL_13
1002
{
1000
OWNER
1000
GEN
1002
}
  0
ARC
  5
6A5
330
1F
100
AcDbEntity
  8
AM_3
100
AcDbCircle
 10
1428.001476103214
 20
1046.228021243587
 30
0.0
 40
18.0
100
AcDbArc
 50
270.0
 51
352.8339089610643
1001
GENIUS_GENOBJ-N-FIL_13
1002
{
1000
OWNER
1000
GEN
1002
}
1001
GENIUS_GENODEF_13
1002
{
1000
HIER
1070
     0
1002
}
1002
{
1000
MANEDIT
1070
     0
1002
}
1002
{
1000
NOSEL
1070
     0
1002
}
1002
{
1000
BEHIND
1070
     0
1002
}
1002
{
1000
OTHER
1070
     0
1002
}
1002
{
1000
REACTOR
1002
}
  0
LINE
  5
6A6
330
1F
100
AcDbEntity
  8
AM_3
100
AcDbLine
 10
1372.094368878003
 20
1029.228021243587
 30
0.0
 11
1371.094368878003
 21
1028.228021243587
 31
0.0
  0
LINE
  5
6A7
330
1F
100
AcDbEntity
  8
AM_3
100
AcDbLine
 10
1371.094368878003
 20
1026.228021243587
 30
0.0
 11
1372.094368878003
 21
1025.228021243587
 31
0.0
  0
LINE
  5
6A8
330
1F
100
AcDbEntity
  8
AM_3
100
AcDbLine
 10
1371.094368878003
 20
1026.228021243587
 30
0.0
 11
1356.187261652792
 21
1026.228021243587
 31
0.0
  0
LINE
  5
6A9
330
1F
100
AcDbEntity
  8
AM_3
100
AcDbLine
 10
1371.094368878003
 20
1028.228021243587
 30
0.0
 11
1356.187261652792
 21
1028.228021243587
 31
0.0
  0
ARC
  5
6AA
330
1F
100
AcDbEntity
  8
AM_0
100
AcDbCircle
 10
1312.094368878003
 20
1026.483865366302
 30
0.0
 40
18.0
100
AcDbArc
 50
180.0
 51
225.0000000000092
1001
GENIUS_GENODEF_13
1002
{
1000
HIER
1070
     0
1002
}
1002
{
1000
MANEDIT
1070
     0
1002
}
1002
{
1000
NOSEL
1070
     0
1002
}
1002
{
1000
BEHIND
1070
     0
1002
}
1002
{
1000
OTHER
1070
     0
1002
}
1002
{
1000
REACTOR
1002
}
1001
GENIUS_GENOBJ-N-FIL_13
1002
{
1000
OWNER
1000
GEN
1002
}
  0
ARC
  5
6AB
330
1F
100
AcDbEntity
  8
AM_3
100
AcDbCircle
 10
1356.187261652792
 20
1046.228021243587
 30
0.0
 40
20.0
100
AcDbArc
 50
187.1660910389357
 51
270.0
1001
GENIUS_GENODEF_13
1002
{
1000
HIER
1070
     0
1002
}
1002
{
1000
MANEDIT
1070
     0
1002
}
1002
{
1000
NOSEL
1070
     0
1002
}
1002
{
1000
BEHIND
1070
     0
1002
}
1002
{
1000
OTHER
1070
     0
1002
}
1002
{
1000
REACTOR
1002
}
1001
GENIUS_GENOBJ-N-FIL_13
1002
{
1000
OWNER
1000
GEN
1002
}
  0
ARC
  5
6AC
330
1F
100
AcDbEntity
  8
AM_3
100
AcDbCircle
 10
1356.187261652792
 20
1046.228021243587
 30
0.0
 40
18.0
100
AcDbArc
 50
187.1660910389357
 51
270.0
1001
GENIUS_GENOBJ-N-FIL_13
1002
{
1000
OWNER
1000
GEN
1002
}
1001
GENIUS_GENODEF_13
1002
{
1000
HIER
1070
     0
1002
}
1002
{
1000
MANEDIT
1070
     0
1002
}
1002
{
1000
NOSEL
1070
     0
1002
}
1002
{
1000
BEHIND
1070
     0
1002
}
1002
{
1000
OTHER
1070
     0
1002
}
1002
{
1000
REACTOR
1002
}
  0
LINE
  5
6AD
330
1F
100
AcDbEntity
  8
AM_3
100
AcDbLine
 10
1372.094368878003
 20
1025.228021243587
 30
0.0
 11
1412.094368878003
 21
1025.228021243587
 31
0.0
  0
LINE
  5
6AE
330
1F
100
AcDbEntity
  8
AM_3
100
AcDbLine
 10
1412.094368878003
 20
1029.228021243587
 30
0.0
 11
1372.094368878003
 21
1029.228021243587
 31
0.0
  0
LINE
  5
6AF
330
1F
100
AcDbEntity
  8
AM_0
100
AcDbLine
 10
1292.094368878003
 20
1026.483865366303
 30
0.0
 11
1292.094368878003
 21
1120.978198678859
 31
0.0
  0
LINE
  5
6B0
330
1F
100
AcDbEntity
  8
AM_3
100
AcDbLine
 10
1336.343487599668
 20
1043.733100136907
 30
0.0
 11
1329.947253806425
 21
1118.657653038093
 31
0.0
  0
LINE
  5
6B1
330
1F
100
AcDbEntity
  8
AM_3
100
AcDbLine
 10
1338.32786500498
 20
1043.982592247575
 30
0.0
 11
1331.931631211738
 21
1118.907145148757
 31
0.0
  0
LINE
  5
6B2
330
1F
100
AcDbEntity
  8
AM_0
100
AcDbLine
 10
1294.094368878003
 20
1120.978198678859
 30
0.0
 11
1294.094368878003
 21
1026.483865366302
 31
0.0
  0
LINE
  5
6B3
330
1F
100
AcDbEntity
  8
AM_3
100
AcDbLine
 10
1445.860872751025
 20
1043.982592247575
 30
0.0
 11
1452.257106544266
 21
1118.907145148755
 31
0.0
  0
LINE
  5
6B4
330
1F
100
AcDbEntity
  8
AM_3
100
AcDbLine
 10
1447.845250156337
 20
1043.733100136907
 30
0.0
 11
1454.24148394958
 21
1118.657653038093
 31
0.0
  0
ARC
  5
6B5
330
1F
100
AcDbEntity
  8
AM_0
100
AcDbCircle
 10
1514.594368878004
 20
1058.053666440484
 30
0.0
 40
53.25
100
AcDbArc
 50
305.1054462199577
 51
0.0
1001
GENIUS_GENOBJ-N-FIL_13
1002
{
1000
OWNER
1000
GEN
1002
}
1001
GENIUS_GENODEF_13
1002
{
1000
HIER
1070
     0
1002
}
1002
{
1000
MANEDIT
1070
     0
1002
}
1002
{
1000
NOSEL
1070
     0
1002
}
1002
{
1000
BEHIND
1070
     0
1002
}
1002
{
1000
OTHER
1070
     0
1002
}
1002
{
1000
REACTOR
1002
}
  0
ARC
  5
6B6
330
1F
100
AcDbEntity
  8
AM_0
100
AcDbCircle
 10
1514.594368878004
 20
1058.053666440484
 30
0.0
 40
54.5
100
AcDbArc
 50
305.1054462199577
 51
0.0
1001
GENIUS_GENOBJ-N-FIL_13
1002
{
1000
OWNER
1000
GEN
1002
}
1001
GENIUS_GENODEF_13
1002
{
1000
HIER
1070
     0
1002
}
1002
{
1000
MANEDIT
1070
     0
1002
}
1002
{
1000
NOSEL
1070
     0
1002
}
1002
{
1000
BEHIND
1070
     0
1002
}
1002
{
1000
OTHER
1070
     0
1002
}
1002
{
1000
REACTOR
1002
}
  0
LINE
  5
6B7
330
1F
100
AcDbEntity
  8
AM_0
100
AcDbLine
 10
1490.094368878003
 20
1120.978198678859
 30
0.0
 11
1490.094368878003
 21
1026.483865366302
 31
0.0
  0
LINE
  5
6B8
330
1F
100
AcDbEntity
  8
AM_0
100
AcDbLine
 10
1492.094368878003
 20
1120.978198678859
 30
0.0
 11
1492.094368878003
 21
1025.655438241557
 31
0.0
  0
ARC
  5
6B9
330
1F
100
AcDbEntity
  8
AM_0
100
AcDbCircle
 10
1270.994368878003
 20
1269.028230454945
 30
0.0
 40
54.64999999999999
100
AcDbArc
 50
122.0825361652987
 51
180.0
1001
GENIUS_GENODEF_13
1002
{
1000
HIER
1070
     0
1002
}
1002
{
1000
MANEDIT
1070
     0
1002
}
1002
{
1000
NOSEL
1070
     0
1002
}
1002
{
1000
BEHIND
1070
     0
1002
}
1002
{
1000
REACTOR
1002
}
1001
GENIUS_GENOBJ-N-FIL_13
1002
{
1000
OWNER
1000
GEN
1002
}
  0
ARC
  5
6BA
330
1F
100
AcDbEntity
  8
AM_0
100
AcDbCircle
 10
1270.994368878003
 20
1269.028230454945
 30
0.0
 40
55.89999999999999
100
AcDbArc
 50
122.0825361652987
 51
180.0
1001
GENIUS_GENODEF_13
1002
{
1000
HIER
1070
     0
1002
}
1002
{
1000
MANEDIT
1070
     0
1002
}
1002
{
1000
NOSEL
1070
     0
1002
}
1002
{
1000
BEHIND
1070
     0
1002
}
1002
{
1000
REACTOR
1002
}
1001
GENIUS_GENOBJ-N-FIL_13
1002
{
1000
OWNER
1000
GEN
1002
}
  0
LINE
  5
6BB
330
1F
100
AcDbEntity
  8
AM_0
100
AcDbLine
 10
1217.594368878003
 20
1166.479562762971
 30
0.0
 11
1217.594368878003
 21
1160.247511955402
 31
0.0
1001
GENIUS_GENODEF_13
1002
{
1000
HIER
1070
     0
1002
}
1002
{
1000
MANEDIT
1070
     0
1002
}
1002
{
1000
NOSEL
1070
     0
1002
}
1002
{
1000
BEHIND
1070
     0
1002
}
1002
{
1000
REACTOR
1002
}
1001
GENIUS_GENOBJ-N-CEN_13
1002
{
1000
OWNER
1000
GEN
1002
}
  0
LINE
  5
6BC
330
1F
100
AcDbEntity
  8
AM_0
100
AcDbLine
 10
1216.344368878004
 20
1160.247511955402
 30
0.0
 11
1326.779893478713
 21
1160.247511955402
 31
0.0
  0
ARC
  5
6BD
330
1F
100
AcDbEntity
  8
AM_0
100
AcDbCircle
 10
1216.344368878004
 20
1169.247511955401
 30
0.0
 40
1.25
100
AcDbArc
 50
180.0
 51
210.0000000000151
1001
GENIUS_GENODEF_13
1002
{
1000
HIER
1070
     0
1002
}
1002
{
1000
MANEDIT
1070
     0
1002
}
1002
{
1000
NOSEL
1070
     0
1002
}
1002
{
1000
BEHIND
1070
     0
1002
}
1002
{
1000
REACTOR
1002
}
1001
GENIUS_GENOBJ-N-FIL_13
1002
{
1000
OWNER
1000
GEN
1002
}
  0
LINE
  5
6BE
330
1F
100
AcDbEntity
  8
AM_0
100
AcDbLine
 10
1217.292926036519
 20
1167.60456276297
 30
0.0
 11
1216.344368878004
 21
1169.247511955401
 31
0.0
  0
ARC
  5
6BF
330
1F
100
AcDbEntity
  8
AM_0
100
AcDbCircle
 10
1215.344368878004
 20
1166.479562762971
 30
0.0
 40
1.0
100
AcDbArc
 50
0.0
 51
30.00000000001508
1001
GENIUS_GENODEF_13
1002
{
1000
HIER
1070
     0
1002
}
1002
{
1000
MANEDIT
1070
     0
1002
}
1002
{
1000
NOSEL
1070
     0
1002
}
1002
{
1000
BEHIND
1070
     0
1002
}
1002
{
1000
REACTOR
1002
}
1001
GENIUS_GENOBJ-N-FIL_13
1002
{
1000
OWNER
1000
GEN
1002
}
  0
ARC
  5
6C0
330
1F
100
AcDbEntity
  8
AM_0
100
AcDbCircle
 10
1215.344368878004
 20
1166.479562762971
 30
0.0
 40
2.25
100
AcDbArc
 50
0.0
 51
30.00000000001508
1001
GENIUS_GENODEF_13
1002
{
1000
HIER
1070
     0
1002
}
1002
{
1000
MANEDIT
1070
     0
1002
}
1002
{
1000
NOSEL
1070
     0
1002
}
1002
{
1000
BEHIND
1070
     0
1002
}
1002
{
1000
REACTOR
1002
}
1001
GENIUS_GENOBJ-N-FIL_13
1002
{
1000
OWNER
1000
GEN
1002
}
  0
LINE
  5
6C1
330
1F
100
AcDbEntity
  8
AM_0
100
AcDbLine
 10
1216.210394281789
 20
1166.979562762971
 30
0.0
 11
1215.261837123273
 21
1168.622511955402
 31
0.0
  0
LINE
  5
6C2
330
1F
100
AcDbEntity
  8
AM_0
100
AcDbLine
 10
1215.094368878004
 20
1166.594572585008
 30
0.0
 11
1215.094368878002
 21
1058.053666440485
 31
0.0
1001
GENIUS_GENODEF_13
1002
{
1000
HIER
1070
     0
1002
}
1002
{
1000
MANEDIT
1070
     0
1002
}
1002
{
1000
NOSEL
1070
     0
1002
}
1002
{
1000
BEHIND
1070
     0
1002
}
1002
{
1000
REACTOR
1002
}
1001
GENIUS_GENOBJ-N-CEN_13
1002
{
1000
OWNER
1000
GEN
1002
}
  0
LINE
  5
6C3
330
1F
100
AcDbEntity
  8
AM_0
100
AcDbLine
 10
1216.344368878004
 20
1166.594572585008
 30
0.0
 11
1216.344368878002
 21
1058.053666440485
 31
0.0
1001
GENIUS_GENODEF_13
1002
{
1000
HIER
1070
     0
1002
}
1002
{
1000
MANEDIT
1070
     0
1002
}
1002
{
1000
NOSEL
1070
     0
1002
}
1002
{
1000
BEHIND
1070
     0
1002
}
1002
{
1000
REACTOR
1002
}
1001
GENIUS_GENOBJ-N-CEN_13
1002
{
1000
OWNER
1000
GEN
1002
}
  0
LINE
  5
6C4
330
1F
100
AcDbEntity
  8
AM_0
100
AcDbLine
 10
1216.344368878003
 20
1269.028230454945
 30
0.0
 11
1216.344368878004
 21
1169.247511955401
 31
0.0
1001
GENIUS_GENODEF_13
1002
{
1000
HIER
1070
     0
1002
}
1002
{
1000
MANEDIT
1070
     0
1002
}
1002
{
1000
NOSEL
1070
     0
1002
}
1002
{
1000
BEHIND
1070
     0
1002
}
1002
{
1000
REACTOR
1002
}
1001
GENIUS_GENOBJ-N-CEN_13
1002
{
1000
OWNER
1000
GEN
1002
}
  0
LINE
  5
6C5
330
1F
100
AcDbEntity
  8
AM_0
100
AcDbLine
 10
1215.094368878003
 20
1269.028230454945
 30
0.0
 11
1215.094368878004
 21
1169.247511955401
 31
0.0
1001
GENIUS_GENODEF_13
1002
{
1000
HIER
1070
     0
1002
}
1002
{
1000
MANEDIT
1070
     0
1002
}
1002
{
1000
NOSEL
1070
     0
1002
}
1002
{
1000
BEHIND
1070
     0
1002
}
1002
{
1000
REACTOR
1002
}
1001
GENIUS_GENOBJ-N-CEN_13
1002
{
1000
OWNER
1000
GEN
1002
}
  0
LINE
  5
6C6
330
1F
100
AcDbEntity
  8
AM_3
100
AcDbLine
 10
1241.294483194445
 20
1229.094572585008
 30
0.0
 11
1241.294483194445
 21
1184.094572585008
 31
0.0
  0
DIMENSION
  5
6C7
330
1F
100
AcDbEntity
  8
AM_5
100
AcDbDimension
  2
*D15
 10
1197.612440635139
 20
1166.594572585008
 30
0.0
 11
1191.112440635138
 21
1186.594572585009
 31
0.0
 70
    32
  1
<> {}{\C2;%%p3}
 71
     5
 42
40.0
 73
     0
 74
     0
 75
     0
  3
AM_DIN
100
AcDbAlignedDimension
 13
1238.294483194445
 23
1206.594572585008
 33
0.0
 14
1215.094368878004
 24
1166.594572585008
 34
0.0
 50
90.0
100
AcDbRotatedDimension
1001
GENIUS_GENDTOL_13
1000
TolPm
1000

1000
{$3%%p$P}
1040
37.38
1001
ACAD
1000
DSTYLE
1002
{
1070
    40
1040
2.0
1070
    47
1040
3.0
1070
    48
1040
3.0
1002
}
  0
ARC
  5
6C9
330
1F
100
AcDbEntity
  8
AM_0
100
AcDbCircle
 10
1269.594368878002
 20
1058.053666440484
 30
0.0
 40
54.5
100
AcDbArc
 50
180.0
 51
234.8945537800423
1001
GENIUS_GENOBJ-N-FIL_13
1002
{
1000
OWNER
1000
GEN
1002
}
1001
GENIUS_GENODEF_13
1002
{
1000
HIER
1070
     0
1002
}
1002
{
1000
MANEDIT
1070
     0
1002
}
1002
{
1000
NOSEL
1070
     0
1002
}
1002
{
1000
BEHIND
1070
     0
1002
}
1002
{
1000
OTHER
1070
     0
1002
}
1002
{
1000
REACTOR
1002
}
  0
ARC
  5
6CA
330
1F
100
AcDbEntity
  8
AM_0
100
AcDbCircle
 10
1269.594368878002
 20
1058.053666440484
 30
0.0
 40
53.25
100
AcDbArc
 50
180.0
 51
234.8945537800423
1001
GENIUS_GENOBJ-N-FIL_13
1002
{
1000
OWNER
1000
GEN
1002
}
1001
GENIUS_GENODEF_13
1002
{
1000
HIER
1070
     0
1002
}
1002
{
1000
MANEDIT
1070
     0
1002
}
1002
{
1000
NOSEL
1070
     0
1002
}
1002
{
1000
BEHIND
1070
     0
1002
}
1002
{
1000
OTHER
1070
     0
1002
}
1002
{
1000
REACTOR
1002
}
  0
ARC
  5
6CB
330
1F
100
AcDbEntity
  8
AM_0
100
AcDbCircle
 10
1312.094368878003
 20
1120.978198678859
 30
0.0
 40
20.0
100
AcDbArc
 50
119.9999999999972
 51
180.0
1001
GENIUS_GENODEF_13
1002
{
1000
HIER
1070
     0
1002
}
1002
{
1000
MANEDIT
1070
     0
1002
}
1002
{
1000
NOSEL
1070
     0
1002
}
1002
{
1000
BEHIND
1070
     0
1002
}
1002
{
1000
OTHER
1070
     0
1002
}
1002
{
1000
REACTOR
1002
}
1001
GENIUS_GENOBJ-N-FIL_13
1002
{
1000
OWNER
1000
GEN
1002
}
  0
DIMENSION
  5
6CC
330
1F
100
AcDbEntity
  8
AM_5
100
AcDbDimension
  2
*D16
 10
1569.094368878003
 20
1104.915996711461
 30
0.0
 11
1365.08521028261
 21
1104.915996711461
 31
0.0
 70
   160
  1
ø<>
 71
     5
 42
353.9999999999991
 73
     0
 74
     0
 75
     0
  3
AM_DIN
100
AcDbAlignedDimension
 13
1215.094368878004
 23
1097.943407781518
 33
0.0
 14
1569.094368878003
 24
1097.943407781518
 34
0.0
100
AcDbRotatedDimension
1001
ACAD
1000
DSTYLE
1002
{
1070
    40
1040
2.0
1002
}
  0
DIMENSION
  5
6CD
330
1F
100
AcDbEntity
  8
AM_5
100
AcDbDimension
  2
*D17
 10
1177.599923814396
 20
932.1653278988213
 30
0.0
 11
1171.099923814396
 21
1159.322032371855
 31
0.0
 70
    32
  1
<> {}{\C2;%%p4}
 71
     5
 42
454.3134089460681
 73
     0
 74
     0
 75
     0
  3
AM_DIN
100
AcDbAlignedDimension
 13
1390.67317270946
 23
1386.478736844889
 33
0.0
 14
1392.09436887804
 24
932.1653278988213
 34
0.0
 50
90.0
100
AcDbRotatedDimension
1001
ACAD
1000
DSTYLE
1002
{
1070
    40
1040
2.0
1070
    47
1040
4.0
1070
    48
1040
4.0
1070
   271
1070
     0
1002
}
1001
GENIUS_GENDTOL_13
1000
TolPm
1000

1000
{$3%%p$P}
1040
454.0
  0
DIMENSION
  5
6CF
330
1F
100
AcDbEntity
  8
AM_5
100
AcDbDimension
  2
*D19
 10
1197.612440635139
 20
1166.594572585008
 30
0.0
 11
1191.111751658761
 21
1060.379950241915
 31
0.0
 70
    32
  1
<> {}{\C2;%%p2}
 71
     5
 42
212.4292446861875
 73
     0
 74
     0
 75
     0
  3
AM_DIN
100
AcDbAlignedDimension
 13
1349.593625637246
 23
954.165327898821
 33
0.0
 14
1215.094368878004
 24
1166.594572585008
 34
0.0
 50
90.0
100
AcDbRotatedDimension
1001
GENIUS_GENDTOL_13
1000
TolPm
1000

1000
{$3%%p$P}
1040
205.0
1001
ACAD
1000
DSTYLE
1002
{
1070
    40
1040
2.0
1070
    47
1040
2.0
1070
    48
1040
2.0
1070
   271
1070
     0
1002
}
  0
ARC
  5
6D0
330
1F
100
AcDbEntity
  8
AM_0
100
AcDbCircle
 10
1312.094368878003
 20
1026.483865366303
 30
0.0
 40
20.0
100
AcDbArc
 50
180.0
 51
225.0000000000092
1001
GENIUS_GENODEF_13
1002
{
1000
HIER
1070
     0
1002
}
1002
{
1000
MANEDIT
1070
     0
1002
}
1002
{
1000
NOSEL
1070
     0
1002
}
1002
{
1000
BEHIND
1070
     0
1002
}
1002
{
1000
OTHER
1070
     0
1002
}
1002
{
1000
REACTOR
1002
}
1001
GENIUS_GENOBJ-N-FIL_13
1002
{
1000
OWNER
1000
GEN
1002
}
  0
LINE
  5
6D1
330
1F
100
AcDbEntity
  8
AM_7
100
AcDbLine
 10
1324.294483194445
 20
1206.594572585008
 30
0.0
 11
1238.294483194445
 21
1206.594572585008
 31
0.0
  0
LINE
  5
6D2
330
1F
100
AcDbEntity
  8
AM_3
100
AcDbLine
 10
1321.294483194445
 20
1185.594572585008
 30
0.0
 11
1241.294483194445
 21
1185.594572585008
 31
0.0
  0
LINE
  5
6D3
330
1F
100
AcDbEntity
  8
AM_3
100
AcDbLine
 10
1321.294483194445
 20
1227.594572585008
 30
0.0
 11
1241.294483194445
 21
1227.594572585008
 31
0.0
  0
LINE
  5
6D4
330
1F
100
AcDbEntity
  8
AM_3
100
AcDbLine
 10
1241.294483194445
 20
1184.094572585008
 30
0.0
 11
1321.294483194445
 21
1184.094572585008
 31
0.0
  0
LINE
  5
6D5
330
1F
100
AcDbEntity
  8
AM_3
100
AcDbLine
 10
1321.294483194445
 20
1229.094572585008
 30
0.0
 11
1241.294483194445
 21
1229.094572585008
 31
0.0
  0
ARC
  5
6D7
330
1F
100
AcDbEntity
  8
0
100
AcDbCircle
 10
1386.622116343223
 20
1224.533667913517
 30
0.0
 40
256.7471365087093
100
AcDbArc
 50
234.8945537800604
 51
261.9245786576773
  0
ARC
  5
6D8
330
1F
100
AcDbEntity
  8
0
100
AcDbCircle
 10
1386.622116343223
 20
1224.533667913517
 30
0.0
 40
257.9971365087093
100
AcDbArc
 50
234.8945537800604
 51
261.9480989900783
  0
ARC
  5
6D9
330
1F
100
AcDbEntity
  8
AM_0
100
AcDbCircle
 10
1350.34436887804
 20
968.0898304781758
 30
0.0
 40
1.0
100
AcDbArc
 50
0.0
 51
81.94809899007829
1001
GENIUS_GENOBJ-N-FIL_13
1002
{
1000
OWNER
1000
GEN
1002
}
1001
GENIUS_GENODEF_13
1002
{
1000
HIER
1070
     0
1002
}
1002
{
1000
MANEDIT
1070
     0
1002
}
1002
{
1000
NOSEL
1070
     0
1002
}
1002
{
1000
BEHIND
1070
     0
1002
}
1002
{
1000
OTHER
1070
     0
1002
}
1002
{
1000
REACTOR
1002
}
  0
ARC
  5
6DA
330
1F
100
AcDbEntity
  8
0
100
AcDbCircle
 10
1397.566621412783
 20
1224.533667913517
 30
0.0
 40
257.9971365087093
100
AcDbArc
 50
278.0519010099346
 51
305.1054462199396
  0
ARC
  5
6DB
330
1F
100
AcDbEntity
  8
AM_0
100
AcDbCircle
 10
1433.84436887804
 20
968.0898304781864
 30
0.0
 40
1.0
100
AcDbArc
 50
98.05190100994749
 51
180.0
1001
GENIUS_GENODEF_13
1002
{
1000
HIER
1070
     0
1002
}
1002
{
1000
MANEDIT
1070
     0
1002
}
1002
{
1000
NOSEL
1070
     0
1002
}
1002
{
1000
BEHIND
1070
     0
1002
}
1002
{
1000
OTHER
1070
     0
1002
}
1002
{
1000
REACTOR
1002
}
1001
GENIUS_GENOBJ-N-FIL_13
1002
{
1000
OWNER
1000
GEN
1002
}
  0
ARC
  5
6DC
330
1F
100
AcDbEntity
  8
0
100
AcDbCircle
 10
1397.566621412783
 20
1224.533667913517
 30
0.0
 40
256.7471365087093
100
AcDbArc
 50
278.0540332829815
 51
305.1054462199396
  0
LINE
  5
6DD
330
1F
100
AcDbEntity
  8
0
100
AcDbLine
 10
1460.207377398314
 20
982.4895298973585
 30
0.0
 11
1486.822290939361
 21
1012.927516180199
 31
0.0
  0
ARC
  5
6DE
330
1F
100
AcDbEntity
  8
AM_0
100
AcDbCircle
 10
1441.387346185153
 20
998.9457270624274
 30
0.0
 40
25.0
100
AcDbArc
 50
287.2945875637552
 51
318.8336168303162
1001
GENIUS_GENOBJ-N-FIL_13
1002
{
1000
OWNER
1000
GEN
1002
}
1001
GENIUS_GENODEF_13
1002
{
1000
HIER
1070
     0
1002
}
1002
{
1000
MANEDIT
1070
     0
1002
}
1002
{
1000
NOSEL
1070
     0
1002
}
1002
{
1000
BEHIND
1070
     0
1002
}
1002
{
1000
OTHER
1070
     0
1002
}
1002
{
1000
REACTOR
1002
}
  0
LINE
  5
6DF
330
1F
100
AcDbEntity
  8
0
100
AcDbLine
 10
1458.23275809796
 20
983.2380114874027
 30
0.0
 11
1484.822290939361
 21
1013.755943304944
 31
0.0
  0
ARC
  5
6E0
330
1F
100
AcDbEntity
  8
AM_0
100
AcDbCircle
 10
1443.153426436168
 20
996.3762669512643
 30
0.0
 40
20.0
100
AcDbArc
 50
282.0332980778555
 51
318.9351538314664
1001
GENIUS_GENOBJ-N-FIL_13
1002
{
1000
OWNER
1000
GEN
1002
}
1001
GENIUS_GENODEF_13
1002
{
1000
HIER
1070
     0
1002
}
1002
{
1000
MANEDIT
1070
     0
1002
}
1002
{
1000
NOSEL
1070
     0
1002
}
1002
{
1000
BEHIND
1070
     0
1002
}
1002
{
1000
OTHER
1070
     0
1002
}
1002
{
1000
REACTOR
1002
}
  0
LINE
  5
6E1
330
1F
100
AcDbEntity
  8
0
100
AcDbLine
 10
1325.948115786088
 20
982.8919191967877
 30
0.0
 11
1299.366446816645
 21
1013.755943304944
 31
0.0
  0
LINE
  5
6E2
330
1F
100
AcDbEntity
  8
0
100
AcDbLine
 10
1323.867641286558
 20
982.3006270782032
 30
0.0
 11
1297.952233254272
 21
1012.341729742572
 31
0.0
  0
ARC
  5
6E3
330
1F
100
AcDbEntity
  8
AM_0
100
AcDbCircle
 10
1342.797309359968
 20
998.6305893142443
 30
0.0
 40
25.0
100
AcDbArc
 50
220.7831906230973
 51
253.7295518239562
1001
GENIUS_GENOBJ-N-FIL_13
1002
{
1000
OWNER
1000
GEN
1002
}
1001
GENIUS_GENODEF_13
1002
{
1000
HIER
1070
     0
1002
}
1002
{
1000
MANEDIT
1070
     0
1002
}
1002
{
1000
NOSEL
1070
     0
1002
}
1002
{
1000
BEHIND
1070
     0
1002
}
1002
{
1000
OTHER
1070
     0
1002
}
1002
{
1000
REACTOR
1002
}
  0
ARC
  5
6E6
330
1F
100
AcDbEntity
  8
AM_3
100
AcDbCircle
 10
1805.122017956746
 20
1135.397865288909
 30
0.0
 40
43.13765517385517
100
AcDbArc
 50
0.0
 51
180.0
  0
ARC
  5
6E7
330
1F
100
AcDbEntity
  8
AM_3
100
AcDbCircle
 10
1805.122017956746
 20
1135.397865288909
 30
0.0
 40
40.46234484814442
100
AcDbArc
 50
0.0
 51
180.0
  0
ARC
  5
6E8
330
1F
100
AcDbEntity
  8
AM_3
100
AcDbCircle
 10
1805.122017956746
 20
1135.397865288909
 30
0.0
 40
47.50000001249991
100
AcDbArc
 50
0.0
 51
180.0
  0
ARC
  5
6E9
330
1F
100
AcDbEntity
  8
AM_3
100
AcDbCircle
 10
1805.122017956746
 20
1135.397865288909
 30
0.0
 40
33.114285723
100
AcDbArc
 50
0.0
 51
180.0
  0
ARC
  5
6EA
330
1F
100
AcDbEntity
  8
AM_0
100
AcDbCircle
 10
1433.84436887804
 20
968.0898511354257
 30
0.0
 40
2.25
100
AcDbArc
 50
97.68615262813732
 51
180.0
  0
LINE
  5
6EB
330
1F
100
AcDbEntity
  8
AM_0
100
AcDbLine
 10
1448.819463220945
 20
975.0760048946627
 30
0.0
 11
1433.543438851469
 21
970.3196361293453
 31
0.0
  0
ARC
  5
6EC
330
1F
100
AcDbEntity
  8
AM_0
100
AcDbCircle
 10
1431.09436887804
 20
970.8196361293449
 30
0.0
 40
2.5
100
AcDbArc
 50
109.1033244774691
 51
180.0
1001
GENIUS_GENODEF_13
1002
{
1000
HIER
1070
     0
1002
}
1002
{
1000
MANEDIT
1070
     0
1002
}
1002
{
1000
NOSEL
1070
     0
1002
}
1002
{
1000
BEHIND
1070
     0
1002
}
1002
{
1000
REACTOR
1002
}
1001
GENIUS_GENOBJ-N-FIL_13
1002
{
1000
OWNER
1000
GEN
1002
}
  0
LINE
  5
6ED
330
1F
100
AcDbEntity
  8
AM_0
100
AcDbLine
 10
1431.09436887804
 20
973.3196361293449
 30
0.0
 11
1431.09436887804
 21
973.3196361293449
 31
0.0
  0
LINE
  5
6EE
330
1F
100
AcDbEntity
  8
AM_0
100
AcDbLine
 10
1430.276187059858
 20
973.1819609402878
 30
0.0
 11
1447.323028776243
 21
976.8157348438382
 31
0.0
  0
LINE
  5
6EF
330
1F
100
AcDbEntity
  8
AM_0
100
AcDbLine
 10
1436.32641968561
 20
956.665327898821
 30
0.0
 11
1436.84436887804
 21
956.665327898821
 31
0.0
  0
ARC
  5
6F0
330
1F
100
AcDbEntity
  8
AM_0
100
AcDbCircle
 10
1436.84436887804
 20
957.665327898821
 30
0.0
 40
1.0
100
AcDbArc
 50
270.0
 51
0.0
1001
GENIUS_GENODEF_13
1002
{
1000
HIER
1070
     0
1002
}
1002
{
1000
MANEDIT
1070
     0
1002
}
1002
{
1000
NOSEL
1070
     0
1002
}
1002
{
1000
BEHIND
1070
     0
1002
}
1002
{
1000
REACTOR
1002
}
1001
GENIUS_GENOBJ-N-FIL_13
1002
{
1000
OWNER
1000
GEN
1002
}
  0
LINE
  5
6F1
330
1F
100
AcDbEntity
  8
AM_0
100
AcDbLine
 10
1436.59436887804
 20
957.4653278988211
 30
0.0
 11
1437.644368878042
 21
957.4653278988211
 31
0.0
  0
ARC
  5
6F2
330
1F
100
AcDbEntity
  8
AM_0
100
AcDbCircle
 10
1437.644368878042
 20
957.665327898821
 30
0.0
 40
0.2
100
AcDbArc
 50
270.0
 51
0.0
  0
LINE
  5
6F3
330
1F
100
AcDbEntity
  8
AM_0
100
AcDbLine
 10
1436.59436887804
 20
956.665327898821
 30
0.0
 11
1436.59436887804
 21
961.4653278988212
 31
0.0
  0
LINE
  5
6F4
330
1F
100
AcDbEntity
  8
AM_0
100
AcDbLine
 10
1437.84436887804
 20
961.4653278988212
 30
0.0
 11
1437.84436887804
 21
957.665327898821
 31
0.0
  0
LINE
  5
6F5
330
1F
100
AcDbEntity
  8
AM_0
100
AcDbLine
 10
1433.84436887804
 20
962.4653278988212
 30
0.0
 11
1435.59436887804
 21
962.4653278988212
 31
0.0
  0
LINE
  5
6F6
330
1F
100
AcDbEntity
  8
AM_0
100
AcDbLine
 10
1433.84436887804
 20
963.7153278988211
 30
0.0
 11
1435.59436887804
 21
963.7153278988211
 31
0.0
  0
ARC
  5
6F7
330
1F
100
AcDbEntity
  8
AM_0
100
AcDbCircle
 10
1433.84436887804
 20
964.7153278988211
 30
0.0
 40
1.0
100
AcDbArc
 50
180.0
 51
270.0
  0
ARC
  5
6F8
330
1F
100
AcDbEntity
  8
AM_0
100
AcDbCircle
 10
1432.862318070472
 20
955.6653278988211
 30
0.0
 40
1.0
100
AcDbArc
 50
30.00000000001508
 51
90.0
1001
GENIUS_GENODEF_13
1002
{
1000
HIER
1070
     0
1002
}
1002
{
1000
MANEDIT
1070
     0
1002
}
1002
{
1000
NOSEL
1070
     0
1002
}
1002
{
1000
BEHIND
1070
     0
1002
}
1002
{
1000
REACTOR
1002
}
1001
GENIUS_GENOBJ-N-FIL_13
1002
{
1000
OWNER
1000
GEN
1002
}
  0
ARC
  5
6F9
330
1F
100
AcDbEntity
  8
AM_0
100
AcDbCircle
 10
1434.59436887804
 20
956.665327898821
 30
0.0
 40
1.0
100
AcDbArc
 50
210.0000000000151
 51
329.9999999999849
  0
ARC
  5
6FA
330
1F
100
AcDbEntity
  8
AM_0
100
AcDbCircle
 10
1436.32641968561
 20
955.6653278988211
 30
0.0
 40
1.0
100
AcDbArc
 50
90.0
 51
149.9999999999849
1001
GENIUS_GENODEF_13
1002
{
1000
HIER
1070
     0
1002
}
1002
{
1000
MANEDIT
1070
     0
1002
}
1002
{
1000
NOSEL
1070
     0
1002
}
1002
{
1000
BEHIND
1070
     0
1002
}
1002
{
1000
REACTOR
1002
}
1001
GENIUS_GENOBJ-N-FIL_13
1002
{
1000
OWNER
1000
GEN
1002
}
  0
ARC
  5
6FB
330
1F
100
AcDbEntity
  8
AM_0
100
AcDbCircle
 10
1435.59436887804
 20
961.4653278988212
 30
0.0
 40
1.0
100
AcDbArc
 50
0.0
 51
90.0
  0
ARC
  5
6FC
330
1F
100
AcDbEntity
  8
AM_0
100
AcDbCircle
 10
1435.59436887804
 20
961.4653278988212
 30
0.0
 40
2.25
100
AcDbArc
 50
0.0
 51
90.0
  0
ARC
  5
6FD
330
1F
100
AcDbEntity
  8
AM_0
100
AcDbCircle
 10
1429.59436887804
 20
957.665327898821
 30
0.0
 40
1.0
100
AcDbArc
 50
180.0
 51
270.0
1001
GENIUS_GENODEF_13
1002
{
1000
HIER
1070
     0
1002
}
1002
{
1000
MANEDIT
1070
     0
1002
}
1002
{
1000
NOSEL
1070
     0
1002
}
1002
{
1000
BEHIND
1070
     0
1002
}
1002
{
1000
REACTOR
1002
}
1001
GENIUS_GENOBJ-N-FIL_13
1002
{
1000
OWNER
1000
GEN
1002
}
  0
LINE
  5
6FE
330
1F
100
AcDbEntity
  8
AM_0
100
AcDbLine
 10
1429.59436887804
 20
956.665327898821
 30
0.0
 11
1432.862318070472
 21
956.665327898821
 31
0.0
  0
ARC
  5
6FF
330
1F
100
AcDbEntity
  8
AM_0
100
AcDbCircle
 10
1433.84436887804
 20
964.7153278988211
 30
0.0
 40
2.25
100
AcDbArc
 50
180.0
 51
270.0
  0
LINE
  5
700
330
1F
100
AcDbEntity
  8
AM_0
100
AcDbLine
 10
1432.84436887804
 20
964.7153278988211
 30
0.0
 11
1432.84436887804
 21
968.0898304781864
 31
0.0
  0
LINE
  5
701
330
1F
100
AcDbEntity
  8
AM_0
100
AcDbLine
 10
1431.59436887804
 20
964.7153278988211
 30
0.0
 11
1431.59436887804
 21
968.0898511354257
 31
0.0
  0
LINE
  5
702
330
1F
100
AcDbEntity
  8
AM_0
100
AcDbLine
 10
1428.59436887804
 20
970.8196361293449
 30
0.0
 11
1428.59436887804
 21
957.665327898821
 31
0.0
  0
ARC
  5
703
330
1F
100
AcDbEntity
  8
AM_0
100
AcDbCircle
 10
1350.09436887804
 20
967.8752682653362
 30
0.0
 40
2.5
100
AcDbArc
 50
0.0
 51
81.13645032565333
1001
GENIUS_GENODEF_13
1002
{
1000
HIER
1070
     0
1002
}
1002
{
1000
MANEDIT
1070
     0
1002
}
1002
{
1000
NOSEL
1070
     0
1002
}
1002
{
1000
BEHIND
1070
     0
1002
}
1002
{
1000
REACTOR
1002
}
1001
GENIUS_GENOBJ-N-FIL_13
1002
{
1000
OWNER
1000
GEN
1002
}
  0
ARC
  5
704
330
1F
100
AcDbEntity
  8
AM_0
100
AcDbCircle
 10
1353.09436887804
 20
970.8196361293449
 30
0.0
 40
2.5
100
AcDbArc
 50
0.0
 51
70.89667552253082
1001
GENIUS_GENODEF_13
1002
{
1000
HIER
1070
     0
1002
}
1002
{
1000
MANEDIT
1070
     0
1002
}
1002
{
1000
NOSEL
1070
     0
1002
}
1002
{
1000
BEHIND
1070
     0
1002
}
1002
{
1000
REACTOR
1002
}
1001
GENIUS_GENOBJ-N-FIL_13
1002
{
1000
OWNER
1000
GEN
1002
}
  0
LINE
  5
705
330
1F
100
AcDbEntity
  8
AM_0
100
AcDbLine
 10
1335.793018698131
 20
974.6318411734664
 30
0.0
 11
1350.479573469315
 21
970.3454134883664
 31
0.0
  0
LINE
  5
706
330
1F
100
AcDbEntity
  8
AM_0
100
AcDbLine
 10
1337.403768372776
 20
976.288578760478
 30
0.0
 11
1353.912550696222
 21
973.1819609402878
 31
0.0
  0
ARC
  5
707
330
1F
100
AcDbEntity
  8
AM_0
100
AcDbCircle
 10
1341.102444209315
 20
995.9435984006669
 30
0.0
 40
20.0
100
AcDbArc
 50
220.7367058950327
 51
259.3427276573907
1001
GENIUS_GENOBJ-N-FIL_13
1002
{
1000
OWNER
1000
GEN
1002
}
1001
GENIUS_GENODEF_13
1002
{
1000
HIER
1070
     0
1002
}
1002
{
1000
MANEDIT
1070
     0
1002
}
1002
{
1000
NOSEL
1070
     0
1002
}
1002
{
1000
BEHIND
1070
     0
1002
}
1002
{
1000
OTHER
1070
     0
1002
}
1002
{
1000
REACTOR
1002
}
  0
ARC
  5
708
330
1F
100
AcDbEntity
  8
AM_0
100
AcDbCircle
 10
1350.34436887804
 20
964.7153278988211
 30
0.0
 40
1.0
100
AcDbArc
 50
270.0
 51
0.0
  0
ARC
  5
709
330
1F
100
AcDbEntity
  8
AM_0
100
AcDbCircle
 10
1350.34436887804
 20
964.7153278988211
 30
0.0
 40
2.25
100
AcDbArc
 50
270.0
 51
0.0
  0
ARC
  5
70A
330
1F
100
AcDbEntity
  8
AM_0
100
AcDbCircle
 10
1354.594368878041
 20
957.665327898821
 30
0.0
 40
1.0
100
AcDbArc
 50
270.0
 51
0.0
1001
GENIUS_GENODEF_13
1002
{
1000
HIER
1070
     0
1002
}
1002
{
1000
MANEDIT
1070
     0
1002
}
1002
{
1000
NOSEL
1070
     0
1002
}
1002
{
1000
BEHIND
1070
     0
1002
}
1002
{
1000
REACTOR
1002
}
1001
GENIUS_GENOBJ-N-FIL_13
1002
{
1000
OWNER
1000
GEN
1002
}
  0
ARC
  5
70B
330
1F
100
AcDbEntity
  8
AM_0
100
AcDbCircle
 10
1351.32641968561
 20
955.6653278988211
 30
0.0
 40
1.0
100
AcDbArc
 50
90.0
 51
149.9999999999849
1001
GENIUS_GENODEF_13
1002
{
1000
HIER
1070
     0
1002
}
1002
{
1000
MANEDIT
1070
     0
1002
}
1002
{
1000
NOSEL
1070
     0
1002
}
1002
{
1000
BEHIND
1070
     0
1002
}
1002
{
1000
REACTOR
1002
}
1001
GENIUS_GENOBJ-N-FIL_13
1002
{
1000
OWNER
1000
GEN
1002
}
  0
LINE
  5
70C
330
1F
100
AcDbEntity
  8
AM_0
100
AcDbLine
 10
1354.594368878041
 20
956.665327898821
 30
0.0
 11
1351.32641968561
 21
956.665327898821
 31
0.0
  0
ARC
  5
70D
330
1F
100
AcDbEntity
  8
AM_0
100
AcDbCircle
 10
1348.59436887804
 20
961.4653278988212
 30
0.0
 40
1.0
100
AcDbArc
 50
90.0
 51
180.0
  0
ARC
  5
70E
330
1F
100
AcDbEntity
  8
AM_0
100
AcDbCircle
 10
1348.59436887804
 20
961.4653278988212
 30
0.0
 40
2.25
100
AcDbArc
 50
90.0
 51
180.0
  0
ARC
  5
70F
330
1F
100
AcDbEntity
  8
AM_0
100
AcDbCircle
 10
1347.862318070472
 20
955.6653278988211
 30
0.0
 40
1.0
100
AcDbArc
 50
30.00000000001508
 51
90.0
1001
GENIUS_GENODEF_13
1002
{
1000
HIER
1070
     0
1002
}
1002
{
1000
MANEDIT
1070
     0
1002
}
1002
{
1000
NOSEL
1070
     0
1002
}
1002
{
1000
BEHIND
1070
     0
1002
}
1002
{
1000
REACTOR
1002
}
1001
GENIUS_GENOBJ-N-FIL_13
1002
{
1000
OWNER
1000
GEN
1002
}
  0
LINE
  5
710
330
1F
100
AcDbEntity
  8
AM_0
100
AcDbLine
 10
1347.862318070472
 20
956.665327898821
 30
0.0
 11
1347.344368878041
 21
956.665327898821
 31
0.0
  0
LINE
  5
711
330
1F
100
AcDbEntity
  8
AM_0
100
AcDbLine
 10
1347.59436887804
 20
957.4653278988211
 30
0.0
 11
1346.544368878041
 21
957.4653278988211
 31
0.0
  0
ARC
  5
712
330
1F
100
AcDbEntity
  8
AM_0
100
AcDbCircle
 10
1347.344368878041
 20
957.665327898821
 30
0.0
 40
1.0
100
AcDbArc
 50
180.0
 51
270.0
1001
GENIUS_GENODEF_13
1002
{
1000
HIER
1070
     0
1002
}
1002
{
1000
MANEDIT
1070
     0
1002
}
1002
{
1000
NOSEL
1070
     0
1002
}
1002
{
1000
BEHIND
1070
     0
1002
}
1002
{
1000
REACTOR
1002
}
1001
GENIUS_GENOBJ-N-FIL_13
1002
{
1000
OWNER
1000
GEN
1002
}
  0
ARC
  5
713
330
1F
100
AcDbEntity
  8
AM_0
100
AcDbCircle
 10
1346.544368878041
 20
957.665327898821
 30
0.0
 40
0.2
100
AcDbArc
 50
180.0
 51
270.0
  0
LINE
  5
714
330
1F
100
AcDbEntity
  8
AM_0
100
AcDbLine
 10
1347.59436887804
 20
956.665327898821
 30
0.0
 11
1347.59436887804
 21
961.4653278988212
 31
0.0
  0
LINE
  5
715
330
1F
100
AcDbEntity
  8
AM_0
100
AcDbLine
 10
1346.344368878041
 20
961.4653278988212
 30
0.0
 11
1346.344368878041
 21
957.665327898821
 31
0.0
  0
LINE
  5
716
330
1F
100
AcDbEntity
  8
AM_0
100
AcDbLine
 10
1350.34436887804
 20
962.4653278988212
 30
0.0
 11
1348.59436887804
 21
962.4653278988212
 31
0.0
  0
LINE
  5
717
330
1F
100
AcDbEntity
  8
AM_0
100
AcDbLine
 10
1350.34436887804
 20
963.7153278988211
 30
0.0
 11
1348.59436887804
 21
963.7153278988211
 31
0.0
  0
ARC
  5
718
330
1F
100
AcDbEntity
  8
AM_0
100
AcDbCircle
 10
1349.594368878041
 20
956.665327898821
 30
0.0
 40
1.0
100
AcDbArc
 50
210.0000000000151
 51
329.9999999999849
  0
LINE
  5
719
330
1F
100
AcDbEntity
  8
AM_0
100
AcDbLine
 10
1351.34436887804
 20
964.7153278988211
 30
0.0
 11
1351.34436887804
 21
968.0898304781758
 31
0.0
  0
LINE
  5
71A
330
1F
100
AcDbEntity
  8
AM_0
100
AcDbLine
 10
1352.59436887804
 20
967.8752682653362
 30
0.0
 11
1352.59436887804
 21
964.7153278988211
 31
0.0
  0
LINE
  5
71B
330
1F
100
AcDbEntity
  8
AM_0
100
AcDbLine
 10
1355.594368878041
 20
970.8196361293449
 30
0.0
 11
1355.594368878041
 21
957.665327898821
 31
0.0
  0
DIMENSION
  5
71C
330
1F
100
AcDbEntity
  8
AM_5
100
AcDbDimension
  2
*D21
 10
1405.314368878039
 20
898.8506105793907
 30
0.0
 11
1447.114368878039
 21
903.2612707511706
 31
0.0
 70
    32
  1
EN ISO 228-1  G3/4
 71
     5
 42
26.43999999999869
 73
     0
 74
     0
 75
     0
  3
AM_DIN$0
100
AcDbAlignedDimension
 13
1378.87436887804
 23
946.1063055946144
 33
0.0
 14
1405.314368878039
 24
940.8074106555108
 34
0.0
100
AcDbRotatedDimension
1001
ACAD
1000
DSTYLE
1002
{
1070
    40
1040
2.0
1070
    42
1040
0.0
1070
   140
1040
3.0
1070
   147
1040
0.7
1070
   272
1070
     2
1070
   274
1070
     2
1002
}
  0
LINE
  5
74E
330
1F
100
AcDbEntity
  8
AM_0
100
AcDbLine
 10
1380.87436887804
 20
937.9935587534594
 30
0.0
 11
1380.87436887804
 21
968.6653278988208
 31
0.0
  0
LINE
  5
74F
330
1F
100
AcDbEntity
  8
AM_0
100
AcDbLine
 10
1403.31436887804
 20
937.9935587534559
 30
0.0
 11
1403.31436887804
 21
968.6653278988208
 31
0.0
  0
ARC
  5
750
330
1F
100
AcDbEntity
  8
AM_0
100
AcDbCircle
 10
1407.090274147712
 20
973.0097167037413
 30
0.0
 40
1.5
100
AcDbArc
 50
0.0
 51
180.0
  0
LINE
  5
751
330
1F
100
AcDbEntity
  8
AM_0
100
AcDbLine
 10
1367.168916061272
 20
978.0889365772388
 30
0.0
 11
1364.661356176148
 21
973.7457154531822
 31
0.0
  0
LINE
  5
752
330
1F
100
AcDbEntity
  8
AM_0
100
AcDbLine
 10
1417.019821694809
 20
978.0889365772386
 30
0.0
 11
1419.527381579933
 21
973.7457154531822
 31
0.0
  0
LINE
  5
753
330
1F
100
AcDbEntity
  8
AM_7
100
AcDbLine
 10
1392.09436887804
 20
984.1977109058346
 30
0.0
 11
1392.09436887804
 21
932.6790168433888
 31
0.0
1001
GENIUS_GENOBJ-N-CEN_13
1002
{
1000
OWNER
1000
GEN
1002
}
1001
GENIUS_GENODEF_13
1002
{
1000
HIER
1070
     0
1002
}
1002
{
1000
MANEDIT
1070
     0
1002
}
1002
{
1000
NOSEL
1070
     0
1002
}
1002
{
1000
BEHIND
1070
     0
1002
}
1002
{
1000
OTHER
1070
     0
1002
}
1002
{
1000
REACTOR
1002
}
  0
LINE
  5
754
330
1F
100
AcDbEntity
  8
AM_4
100
AcDbLine
 10
1392.09436887804
 20
973.7457154531822
 30
0.0
 11
1388.135528965348
 21
973.7457154531822
 31
0.0
  0
LINE
  5
755
330
1F
100
AcDbEntity
  8
AM_4
100
AcDbLine
 10
1392.09436887804
 20
973.0033115766762
 30
0.0
 11
1388.328421361787
 21
973.0033115766762
 31
0.0
  0
LINE
  5
756
330
1F
100
AcDbEntity
  8
AM_0
100
AcDbLine
 10
1392.09436887804
 20
972.6653278988207
 30
0.0
 11
1388.323890783159
 21
972.6653278988207
 31
0.0
  0
LINE
  5
757
330
1F
100
AcDbEntity
  8
AM_0
100
AcDbLine
 10
1381.766165647765
 20
934.6653278988208
 30
0.0
 11
1392.09436887804
 21
934.6653278988208
 31
0.0
  0
LINE
  5
758
330
1F
100
AcDbEntity
  8
AM_0
100
AcDbLine
 10
1383.02024730978
 20
949.6653278988208
 30
0.0
 11
1383.27024730978
 21
938.6653278988207
 31
0.0
  0
LINE
  5
759
330
1F
100
AcDbEntity
  8
AM_0
100
AcDbLine
 10
1384.788014262746
 20
949.6653278988208
 30
0.0
 11
1385.038014262746
 21
938.6653278988207
 31
0.0
  0
LINE
  5
75A
330
1F
100
AcDbEntity
  8
AM_0
100
AcDbLine
 10
1380.87436887804
 20
937.9935587534594
 30
0.0
 11
1381.766165647765
 21
934.6653278988208
 31
0.0
  0
LINE
  5
75B
330
1F
100
AcDbEntity
  8
AM_0
100
AcDbLine
 10
1383.27024730978
 20
938.6653278988207
 30
0.0
 11
1384.342044079504
 21
934.6653278988208
 31
0.0
  0
LINE
  5
75C
330
1F
100
AcDbEntity
  8
AM_0
100
AcDbLine
 10
1385.038014262746
 20
938.6653278988207
 30
0.0
 11
1386.109811032471
 21
934.6653278988208
 31
0.0
  0
LINE
  5
75D
330
1F
100
AcDbEntity
  8
AM_0
100
AcDbLine
 10
1383.27024730978
 20
938.6653278988207
 30
0.0
 11
1385.038014262746
 21
938.6653278988207
 31
0.0
  0
LINE
  5
75E
330
1F
100
AcDbEntity
  8
AM_0
100
AcDbLine
 10
1383.02024730978
 20
949.6653278988208
 30
0.0
 11
1383.02024730978
 21
968.6653278988208
 31
0.0
  0
LINE
  5
75F
330
1F
100
AcDbEntity
  8
AM_0
100
AcDbLine
 10
1384.788014262746
 20
949.6653278988208
 30
0.0
 11
1384.788014262746
 21
968.6653278988208
 31
0.0
  0
LINE
  5
760
330
1F
100
AcDbEntity
  8
AM_0
100
AcDbLine
 10
1383.02024730978
 20
949.6653278988208
 30
0.0
 11
1384.788014262746
 21
949.6653278988208
 31
0.0
  0
ARC
  5
761
330
1F
100
AcDbEntity
  8
AM_0
100
AcDbCircle
 10
1377.098463608369
 20
973.0097167037413
 30
0.0
 40
1.5
100
AcDbArc
 50
0.0
 51
180.0
  0
ARC
  5
762
330
1F
100
AcDbEntity
  8
AM_0
100
AcDbCircle
 10
1377.635440259066
 20
972.547735376481
 30
0.0
 40
1.5
100
AcDbArc
 50
62.95095140316397
 51
175.5036829052562
  0
ELLIPSE
  5
763
330
1F
100
AcDbEntity
  8
AM_0
100
AcDbEllipse
 10
1370.411884781598
 20
972.547735376481
 30
0.0
 11
-0.0000000000000256
 21
1.500000000000007
 31
0.0
210
0.0
220
0.0
230
-1.0
 40
0.6500000000000005
 41
-1.492320789277992
 42
-0.0565871229781596
  0
ELLIPSE
  5
764
330
1F
100
AcDbEntity
  8
AM_0
100
AcDbEllipse
 10
1369.651410635064
 20
973.0097167037413
 30
0.0
 11
-0.0000000000000284
 21
1.5
 31
0.0
210
0.0
220
0.0
230
-1.0
 40
0.6499999999999961
 41
4.712388980384702
 42
7.853981633974495
  0
ARC
  5
765
330
1F
100
AcDbEntity
  8
AM_0
100
AcDbCircle
 10
1365.09436887804
 20
973.4957154531823
 30
0.0
 40
0.5
100
AcDbArc
 50
150.000000000014
 51
259.9999999999939
1001
GENIUS_GENOBJ-N-FIL_13
1002
{
1000
OWNER
1000
GEN
1002
}
1001
GENIUS_GENODEF_13
1002
{
1000
HIER
1070
     0
1002
}
1002
{
1000
MANEDIT
1070
     0
1002
}
1002
{
1000
NOSEL
1070
     0
1002
}
1002
{
1000
BEHIND
1070
     0
1002
}
1002
{
1000
OTHER
1070
     0
1002
}
1002
{
1000
REACTOR
1002
}
  0
LINE
  5
766
330
1F
100
AcDbEntity
  8
AM_0
100
AcDbLine
 10
1368.676410635064
 20
973.0097167037413
 30
0.0
 11
1368.676410635064
 21
972.6653278988207
 31
0.0
  0
LINE
  5
767
330
1F
100
AcDbEntity
  8
AM_0
100
AcDbLine
 10
1369.439885466039
 20
972.6653278988207
 30
0.0
 11
1368.41880766661
 21
972.6653278988207
 31
0.0
  0
LINE
  5
768
330
1F
100
AcDbEntity
  8
AM_4
100
AcDbLine
 10
1368.676410635064
 20
973.0033115766762
 30
0.0
 11
1365.007544789207
 21
973.0033115766762
 31
0.0
  0
LINE
  5
769
330
1F
100
AcDbEntity
  8
AM_4
100
AcDbLine
 10
1368.801846501083
 20
973.7457154531822
 30
0.0
 11
1364.661356176148
 21
973.7457154531822
 31
0.0
  0
LINE
  5
76A
330
1F
100
AcDbEntity
  8
AM_0
100
AcDbLine
 10
1365.007544789207
 20
973.0033115766762
 30
0.0
 11
1368.41880766661
 21
972.6653278988207
 31
0.0
  0
LINE
  5
76B
330
1F
100
AcDbEntity
  8
AM_0
100
AcDbLine
 10
1370.626410635065
 20
973.0097167037413
 30
0.0
 11
1370.623409950623
 21
972.6653278988207
 31
0.0
  0
LINE
  5
76C
330
1F
100
AcDbEntity
  8
AM_0
100
AcDbLine
 10
1375.598463608369
 20
973.0097167037413
 30
0.0
 11
1375.598463608369
 21
972.6653278988207
 31
0.0
  0
LINE
  5
76D
330
1F
100
AcDbEntity
  8
AM_4
100
AcDbLine
 10
1375.791441863782
 20
973.7457154531822
 30
0.0
 11
1370.500974769046
 21
973.7457154531822
 31
0.0
  0
LINE
  5
76E
330
1F
100
AcDbEntity
  8
AM_4
100
AcDbLine
 10
1375.598463608369
 20
973.0033115766762
 30
0.0
 11
1370.626354826731
 21
973.0033115766762
 31
0.0
  0
LINE
  5
76F
330
1F
100
AcDbEntity
  8
AM_0
100
AcDbLine
 10
1376.140056696669
 20
972.6653278988207
 30
0.0
 11
1370.623409950623
 21
972.6653278988207
 31
0.0
  0
LINE
  5
770
330
1F
100
AcDbEntity
  8
AM_0
100
AcDbLine
 10
1385.533123658363
 20
972.6653278988207
 30
0.0
 11
1378.593847170767
 21
972.6653278988207
 31
0.0
  0
LINE
  5
771
330
1F
100
AcDbEntity
  8
AM_4
100
AcDbLine
 10
1385.521485476175
 20
973.7457154531822
 30
0.0
 11
1378.405485352955
 21
973.7457154531822
 31
0.0
  0
LINE
  5
772
330
1F
100
AcDbEntity
  8
AM_4
100
AcDbLine
 10
1385.328507220761
 20
973.0033115766762
 30
0.0
 11
1378.598377749395
 21
973.0033115766762
 31
0.0
  0
LINE
  5
773
330
1F
100
AcDbEntity
  8
AM_0
100
AcDbLine
 10
1378.598463608369
 20
973.0097167037413
 30
0.0
 11
1378.593847170767
 21
972.6653278988207
 31
0.0
  0
LINE
  5
774
330
1F
100
AcDbEntity
  8
AM_0
100
AcDbLine
 10
1381.84436887804
 20
968.9153278988207
 30
0.0
 11
1381.84436887804
 21
972.6653278988207
 31
0.0
  0
ARC
  5
775
330
1F
100
AcDbEntity
  8
AM_0
100
AcDbCircle
 10
1381.59436887804
 20
968.9153278988207
 30
0.0
 40
0.25
100
AcDbArc
 50
270.0
 51
0.0
1001
GENIUS_GENOBJ-N-FIL_13
1002
{
1000
OWNER
1000
GEN
1002
}
1001
GENIUS_GENODEF_13
1002
{
1000
HIER
1070
     0
1002
}
1002
{
1000
MANEDIT
1070
     0
1002
}
1002
{
1000
NOSEL
1070
     0
1002
}
1002
{
1000
BEHIND
1070
     0
1002
}
1002
{
1000
OTHER
1070
     0
1002
}
1002
{
1000
REACTOR
1002
}
  0
LINE
  5
776
330
1F
100
AcDbEntity
  8
AM_0
100
AcDbLine
 10
1380.87436887804
 20
968.6653278988208
 30
0.0
 11
1381.59436887804
 21
968.6653278988208
 31
0.0
  0
LINE
  5
777
330
1F
100
AcDbEntity
  8
AM_0
100
AcDbLine
 10
1385.328507220761
 20
973.0097167037413
 30
0.0
 11
1385.328507220761
 21
972.6653278988207
 31
0.0
  0
LINE
  5
778
330
1F
100
AcDbEntity
  8
AM_0
100
AcDbLine
 10
1388.328507220761
 20
973.0097167037413
 30
0.0
 11
1388.323890783159
 21
972.6653278988207
 31
0.0
  0
ARC
  5
779
330
1F
100
AcDbEntity
  8
AM_0
100
AcDbCircle
 10
1386.828507220762
 20
973.0097167037413
 30
0.0
 40
1.5
100
AcDbArc
 50
0.0
 51
180.0
  0
ARC
  5
77A
330
1F
100
AcDbEntity
  8
AM_0
100
AcDbCircle
 10
1387.028507220761
 20
972.547735376481
 30
0.0
 40
1.5
100
AcDbArc
 50
33.06887483818459
 51
175.5036829052562
  0
LINE
  5
77B
330
1F
100
AcDbEntity
  8
AM_0
100
AcDbLine
 10
1386.188014262746
 20
968.9153278988207
 30
0.0
 11
1386.188014262746
 21
973.7901409413138
 31
0.0
  0
LINE
  5
77C
330
1F
100
AcDbEntity
  8
AM_0
100
AcDbLine
 10
1384.788014262746
 20
968.6653278988208
 30
0.0
 11
1385.938014262747
 21
968.6653278988208
 31
0.0
  0
ARC
  5
77D
330
1F
100
AcDbEntity
  8
AM_0
100
AcDbCircle
 10
1385.938014262747
 20
968.9153278988207
 30
0.0
 40
0.25
100
AcDbArc
 50
270.0
 51
0.0
1001
GENIUS_GENOBJ-N-FIL_13
1002
{
1000
OWNER
1000
GEN
1002
}
1001
GENIUS_GENODEF_13
1002
{
1000
HIER
1070
     0
1002
}
1002
{
1000
MANEDIT
1070
     0
1002
}
1002
{
1000
NOSEL
1070
     0
1002
}
1002
{
1000
BEHIND
1070
     0
1002
}
1002
{
1000
OTHER
1070
     0
1002
}
1002
{
1000
REACTOR
1002
}
  0
LINE
  5
77E
330
1F
100
AcDbEntity
  8
AM_0
100
AcDbLine
 10
1384.42024730978
 20
968.9153278988207
 30
0.0
 11
1384.42024730978
 21
972.6653278988207
 31
0.0
  0
ARC
  5
77F
330
1F
100
AcDbEntity
  8
AM_0
100
AcDbCircle
 10
1384.17024730978
 20
968.9153278988207
 30
0.0
 40
0.25
100
AcDbArc
 50
270.0
 51
0.0
1001
GENIUS_GENOBJ-N-FIL_13
1002
{
1000
OWNER
1000
GEN
1002
}
1001
GENIUS_GENODEF_13
1002
{
1000
HIER
1070
     0
1002
}
1002
{
1000
MANEDIT
1070
     0
1002
}
1002
{
1000
NOSEL
1070
     0
1002
}
1002
{
1000
BEHIND
1070
     0
1002
}
1002
{
1000
OTHER
1070
     0
1002
}
1002
{
1000
REACTOR
1002
}
  0
LINE
  5
780
330
1F
100
AcDbEntity
  8
AM_0
100
AcDbLine
 10
1384.788014262746
 20
968.6653278988208
 30
0.0
 11
1383.02024730978
 21
968.6653278988208
 31
0.0
  0
LINE
  5
781
330
1F
100
AcDbEntity
  8
AM_0
100
AcDbLine
 10
1399.400723493335
 20
949.6653278988208
 30
0.0
 11
1399.150723493335
 21
938.6653278988207
 31
0.0
  0
LINE
  5
782
330
1F
100
AcDbEntity
  8
AM_0
100
AcDbLine
 10
1401.168490446301
 20
949.6653278988208
 30
0.0
 11
1400.918490446301
 21
938.6653278988207
 31
0.0
  0
LINE
  5
783
330
1F
100
AcDbEntity
  8
AM_0
100
AcDbLine
 10
1391.09436887804
 20
934.6653278988208
 30
0.0
 11
1390.84436887804
 21
949.6653278988208
 31
0.0
  0
LINE
  5
784
330
1F
100
AcDbEntity
  8
AM_0
100
AcDbLine
 10
1393.09436887804
 20
934.6653278988208
 30
0.0
 11
1393.34436887804
 21
949.6653278988208
 31
0.0
  0
LINE
  5
785
330
1F
100
AcDbEntity
  8
AM_0
100
AcDbLine
 10
1402.422572108316
 20
934.6653278988208
 30
0.0
 11
1392.09436887804
 21
934.6653278988208
 31
0.0
  0
LINE
  5
786
330
1F
100
AcDbEntity
  8
AM_0
100
AcDbLine
 10
1391.027702211374
 20
938.6653278988207
 30
0.0
 11
1393.161035544707
 21
938.6653278988207
 31
0.0
  0
LINE
  5
787
330
1F
100
AcDbEntity
  8
AM_0
100
AcDbLine
 10
1399.150723493335
 20
938.6653278988207
 30
0.0
 11
1398.07892672361
 21
934.6653278988208
 31
0.0
  0
LINE
  5
788
330
1F
100
AcDbEntity
  8
AM_0
100
AcDbLine
 10
1400.918490446301
 20
938.6653278988207
 30
0.0
 11
1399.846693676576
 21
934.6653278988208
 31
0.0
  0
LINE
  5
789
330
1F
100
AcDbEntity
  8
AM_0
100
AcDbLine
 10
1400.918490446301
 20
938.6653278988207
 30
0.0
 11
1399.150723493335
 21
938.6653278988207
 31
0.0
  0
LINE
  5
78A
330
1F
100
AcDbEntity
  8
AM_0
100
AcDbLine
 10
1403.31436887804
 20
937.9935587534559
 30
0.0
 11
1402.422572108316
 21
934.6653278988208
 31
0.0
  0
ELLIPSE
  5
78B
330
1F
100
AcDbEntity
  8
AM_0
100
AcDbEllipse
 10
1414.537327121017
 20
973.0097167037413
 30
0.0
 11
0.0000000000000284
 21
1.5
 31
0.0
210
0.0
220
0.0
230
1.0
 40
0.6499999999999961
 41
4.712388980384702
 42
7.853981633974495
  0
ELLIPSE
  5
78C
330
1F
100
AcDbEntity
  8
AM_0
100
AcDbEllipse
 10
1413.776852974484
 20
972.547735376481
 30
0.0
 11
0.0000000000000256
 21
1.500000000000007
 31
0.0
210
0.0
220
0.0
230
1.0
 40
0.6500000000000005
 41
-1.492320789277992
 42
-0.0565871229781596
  0
LINE
  5
78D
330
1F
100
AcDbEntity
  8
AM_0
100
AcDbLine
 10
1399.400723493335
 20
949.6653278988208
 30
0.0
 11
1399.400723493335
 21
968.6653278988208
 31
0.0
  0
LINE
  5
78E
330
1F
100
AcDbEntity
  8
AM_0
100
AcDbLine
 10
1401.168490446301
 20
949.6653278988208
 30
0.0
 11
1401.168490446301
 21
968.6653278988208
 31
0.0
  0
LINE
  5
78F
330
1F
100
AcDbEntity
  8
AM_0
100
AcDbLine
 10
1390.84436887804
 20
949.6653278988208
 30
0.0
 11
1390.84436887804
 21
972.6653278988207
 31
0.0
  0
LINE
  5
790
330
1F
100
AcDbEntity
  8
AM_0
100
AcDbLine
 10
1393.34436887804
 20
949.6653278988208
 30
0.0
 11
1393.34436887804
 21
972.6653278988207
 31
0.0
  0
LINE
  5
791
330
1F
100
AcDbEntity
  8
AM_0
100
AcDbLine
 10
1393.34436887804
 20
949.6653278988208
 30
0.0
 11
1390.84436887804
 21
949.6653278988208
 31
0.0
  0
LINE
  5
792
330
1F
100
AcDbEntity
  8
AM_0
100
AcDbLine
 10
1401.168490446301
 20
949.6653278988208
 30
0.0
 11
1399.400723493335
 21
949.6653278988208
 31
0.0
  0
LINE
  5
793
330
1F
100
AcDbEntity
  8
AM_4
100
AcDbLine
 10
1398.667252279906
 20
973.7457154531822
 30
0.0
 11
1405.783252403126
 21
973.7457154531822
 31
0.0
  0
LINE
  5
794
330
1F
100
AcDbEntity
  8
AM_4
100
AcDbLine
 10
1398.86023053532
 20
973.0033115766762
 30
0.0
 11
1405.590360006686
 21
973.0033115766762
 31
0.0
  0
LINE
  5
795
330
1F
100
AcDbEntity
  8
AM_0
100
AcDbLine
 10
1398.655614097718
 20
972.6653278988207
 30
0.0
 11
1405.594890585314
 21
972.6653278988207
 31
0.0
  0
LINE
  5
796
330
1F
100
AcDbEntity
  8
AM_4
100
AcDbLine
 10
1392.09436887804
 20
973.7457154531822
 30
0.0
 11
1396.053208790734
 21
973.7457154531822
 31
0.0
  0
LINE
  5
797
330
1F
100
AcDbEntity
  8
AM_4
100
AcDbLine
 10
1392.09436887804
 20
973.0033115766762
 30
0.0
 11
1395.860316394294
 21
973.0033115766762
 31
0.0
  0
LINE
  5
798
330
1F
100
AcDbEntity
  8
AM_0
100
AcDbLine
 10
1392.09436887804
 20
972.6653278988207
 30
0.0
 11
1395.864846972922
 21
972.6653278988207
 31
0.0
  0
LINE
  5
799
330
1F
100
AcDbEntity
  8
AM_0
100
AcDbLine
 10
1390.84436887804
 20
968.6653278988208
 30
0.0
 11
1393.34436887804
 21
968.6653278988208
 31
0.0
  0
ARC
  5
79A
330
1F
100
AcDbEntity
  8
AM_0
100
AcDbCircle
 10
1400.018490446301
 20
968.9153278988207
 30
0.0
 40
0.25
100
AcDbArc
 50
180.0
 51
270.0
1001
GENIUS_GENOBJ-N-FIL_13
1002
{
1000
OWNER
1000
GEN
1002
}
1001
GENIUS_GENODEF_13
1002
{
1000
HIER
1070
     0
1002
}
1002
{
1000
MANEDIT
1070
     0
1002
}
1002
{
1000
NOSEL
1070
     0
1002
}
1002
{
1000
BEHIND
1070
     0
1002
}
1002
{
1000
OTHER
1070
     0
1002
}
1002
{
1000
REACTOR
1002
}
  0
LINE
  5
79B
330
1F
100
AcDbEntity
  8
AM_0
100
AcDbLine
 10
1399.768490446301
 20
968.9153278988207
 30
0.0
 11
1399.768490446301
 21
972.6653278988207
 31
0.0
  0
ARC
  5
79C
330
1F
100
AcDbEntity
  8
AM_0
100
AcDbCircle
 10
1398.250723493335
 20
968.9153278988207
 30
0.0
 40
0.25
100
AcDbArc
 50
180.0
 51
270.0
1001
GENIUS_GENOBJ-N-FIL_13
1002
{
1000
OWNER
1000
GEN
1002
}
1001
GENIUS_GENODEF_13
1002
{
1000
HIER
1070
     0
1002
}
1002
{
1000
MANEDIT
1070
     0
1002
}
1002
{
1000
NOSEL
1070
     0
1002
}
1002
{
1000
BEHIND
1070
     0
1002
}
1002
{
1000
OTHER
1070
     0
1002
}
1002
{
1000
REACTOR
1002
}
  0
LINE
  5
79D
330
1F
100
AcDbEntity
  8
AM_0
100
AcDbLine
 10
1399.400723493335
 20
968.6653278988208
 30
0.0
 11
1398.250723493335
 21
968.6653278988208
 31
0.0
  0
LINE
  5
79E
330
1F
100
AcDbEntity
  8
AM_0
100
AcDbLine
 10
1398.000723493335
 20
968.9153278988207
 30
0.0
 11
1398.000723493335
 21
973.7901409413138
 31
0.0
  0
LINE
  5
79F
330
1F
100
AcDbEntity
  8
AM_0
100
AcDbLine
 10
1399.400723493335
 20
968.6653278988208
 30
0.0
 11
1401.168490446301
 21
968.6653278988208
 31
0.0
  0
LINE
  5
7A0
330
1F
100
AcDbEntity
  8
AM_0
100
AcDbLine
 10
1398.86023053532
 20
973.0097167037413
 30
0.0
 11
1398.86023053532
 21
972.6653278988207
 31
0.0
  0
LINE
  5
7A1
330
1F
100
AcDbEntity
  8
AM_0
100
AcDbLine
 10
1395.86023053532
 20
973.0097167037413
 30
0.0
 11
1395.864846972922
 21
972.6653278988207
 31
0.0
  0
ARC
  5
7A2
330
1F
100
AcDbEntity
  8
AM_0
100
AcDbCircle
 10
1397.36023053532
 20
973.0097167037413
 30
0.0
 40
1.5
100
AcDbArc
 50
0.0
 51
180.0
  0
ARC
  5
7A3
330
1F
100
AcDbEntity
  8
AM_0
100
AcDbCircle
 10
1397.16023053532
 20
972.547735376481
 30
0.0
 40
1.5
100
AcDbArc
 50
4.496317094743798
 51
146.9311251618154
  0
LINE
  5
7A4
330
1F
100
AcDbEntity
  8
AM_0
100
AcDbLine
 10
1408.048681059413
 20
972.6653278988207
 30
0.0
 11
1413.565327805458
 21
972.6653278988207
 31
0.0
  0
ARC
  5
7A5
330
1F
100
AcDbEntity
  8
AM_0
100
AcDbCircle
 10
1406.553297497015
 20
972.547735376481
 30
0.0
 40
1.5
100
AcDbArc
 50
4.496317094743798
 51
117.049048596836
  0
LINE
  5
7A6
330
1F
100
AcDbEntity
  8
AM_0
100
AcDbLine
 10
1405.590274147712
 20
973.0097167037413
 30
0.0
 11
1405.594890585314
 21
972.6653278988207
 31
0.0
  0
ARC
  5
7A7
330
1F
100
AcDbEntity
  8
AM_0
100
AcDbCircle
 10
1402.59436887804
 20
968.9153278988207
 30
0.0
 40
0.25
100
AcDbArc
 50
180.0
 51
270.0
1001
GENIUS_GENOBJ-N-FIL_13
1002
{
1000
OWNER
1000
GEN
1002
}
1001
GENIUS_GENODEF_13
1002
{
1000
HIER
1070
     0
1002
}
1002
{
1000
MANEDIT
1070
     0
1002
}
1002
{
1000
NOSEL
1070
     0
1002
}
1002
{
1000
BEHIND
1070
     0
1002
}
1002
{
1000
OTHER
1070
     0
1002
}
1002
{
1000
REACTOR
1002
}
  0
LINE
  5
7A8
330
1F
100
AcDbEntity
  8
AM_0
100
AcDbLine
 10
1402.34436887804
 20
968.9153278988207
 30
0.0
 11
1402.34436887804
 21
972.6653278988207
 31
0.0
  0
LINE
  5
7A9
330
1F
100
AcDbEntity
  8
AM_0
100
AcDbLine
 10
1403.31436887804
 20
968.6653278988208
 30
0.0
 11
1402.59436887804
 21
968.6653278988208
 31
0.0
  0
LINE
  5
7AA
330
1F
100
AcDbEntity
  8
AM_4
100
AcDbLine
 10
1408.397295892298
 20
973.7457154531822
 30
0.0
 11
1413.687762987036
 21
973.7457154531822
 31
0.0
  0
LINE
  5
7AB
330
1F
100
AcDbEntity
  8
AM_4
100
AcDbLine
 10
1408.590274147712
 20
973.0033115766762
 30
0.0
 11
1413.56238292935
 21
973.0033115766762
 31
0.0
  0
LINE
  5
7AC
330
1F
100
AcDbEntity
  8
AM_0
100
AcDbLine
 10
1413.562327121017
 20
973.0097167037413
 30
0.0
 11
1413.565327805458
 21
972.6653278988207
 31
0.0
  0
LINE
  5
7AD
330
1F
100
AcDbEntity
  8
AM_0
100
AcDbLine
 10
1408.590274147712
 20
973.0097167037413
 30
0.0
 11
1408.590274147712
 21
972.6653278988207
 31
0.0
  0
LINE
  5
7AE
330
1F
100
AcDbEntity
  8
AM_4
100
AcDbLine
 10
1415.386891254998
 20
973.7457154531822
 30
0.0
 11
1419.527381579933
 21
973.7457154531822
 31
0.0
  0
LINE
  5
7AF
330
1F
100
AcDbEntity
  8
AM_4
100
AcDbLine
 10
1415.512327121017
 20
973.0033115766762
 30
0.0
 11
1419.181192966874
 21
973.0033115766762
 31
0.0
  0
LINE
  5
7B0
330
1F
100
AcDbEntity
  8
AM_0
100
AcDbLine
 10
1414.748852290042
 20
972.6653278988207
 30
0.0
 11
1415.769930089471
 21
972.6653278988207
 31
0.0
  0
LINE
  5
7B1
330
1F
100
AcDbEntity
  8
AM_0
100
AcDbLine
 10
1415.512327121017
 20
973.0097167037413
 30
0.0
 11
1415.512327121017
 21
972.6653278988207
 31
0.0
  0
ARC
  5
7B2
330
1F
100
AcDbEntity
  8
AM_0
100
AcDbCircle
 10
1419.09436887804
 20
973.4957154531823
 30
0.0
 40
0.5
100
AcDbArc
 50
280.0000000000061
 51
29.999999999986
1001
GENIUS_GENOBJ-N-FIL_13
1002
{
1000
OWNER
1000
GEN
1002
}
1001
GENIUS_GENODEF_13
1002
{
1000
HIER
1070
     0
1002
}
1002
{
1000
MANEDIT
1070
     0
1002
}
1002
{
1000
NOSEL
1070
     0
1002
}
1002
{
1000
BEHIND
1070
     0
1002
}
1002
{
1000
OTHER
1070
     0
1002
}
1002
{
1000
REACTOR
1002
}
  0
LINE
  5
7B3
330
1F
100
AcDbEntity
  8
AM_0
100
AcDbLine
 10
1419.181192966874
 20
973.0033115766762
 30
0.0
 11
1415.769930089471
 21
972.6653278988207
 31
0.0
  0
ELLIPSE
  5
7B4
330
1F
100
AcDbEntity
  8
AM_6
100
AcDbEllipse
 10
1388.844368878041
 20
981.6220659926257
 30
0.0
 11
1.5
 21
0.0
 31
0.0
210
0.0
220
0.0
230
1.0
 40
0.141488431333831
 41
0.0
 42
6.283185307179586
  0
ELLIPSE
  5
7B5
330
1F
100
AcDbEntity
  8
AM_6
100
AcDbEllipse
 10
1388.844368878041
 20
980.6246518448361
 30
0.0
 11
1.5
 21
0.0
 31
0.0
210
0.0
220
0.0
230
1.0
 40
0.141488431333831
 41
0.0
 42
6.283185307179586
  0
ELLIPSE
  5
7B6
330
1F
100
AcDbEntity
  8
AM_6
100
AcDbEllipse
 10
1388.84436887804
 20
979.7404823864592
 30
0.0
 11
1.5
 21
0.0
 31
0.0
210
0.0
220
0.0
230
1.0
 40
0.141488431333831
 41
0.0
 42
6.283185307179586
  0
ELLIPSE
  5
7B7
330
1F
100
AcDbEntity
  8
AM_6
100
AcDbEllipse
 10
1388.84436887804
 20
978.8789616940361
 30
0.0
 11
1.5
 21
0.0
 31
0.0
210
0.0
220
0.0
230
1.0
 40
0.141488431333831
 41
0.0
 42
6.283185307179586
  0
LINE
  5
7B8
330
1F
100
AcDbEntity
  8
AM_4
100
AcDbLine
 10
1367.168916061272
 20
978.0889365772388
 30
0.0
 11
1417.019821694809
 21
978.0889365772386
 31
0.0
  0
LINE
  5
7B9
330
1F
100
AcDbEntity
  8
AM_4
100
AcDbLine
 10
1367.515104674331
 20
978.3313404537448
 30
0.0
 11
1416.67363308175
 21
978.3313404537448
 31
0.0
  0
LINE
  5
7BA
330
1F
100
AcDbEntity
  8
AM_0
100
AcDbLine
 10
1392.09436887804
 20
982.6653278988208
 30
0.0
 11
1367.515104674331
 21
978.3313404537448
 31
0.0
  0
ARC
  5
7BB
330
1F
100
AcDbEntity
  8
AM_0
100
AcDbCircle
 10
1367.601928763165
 20
977.8389365772389
 30
0.0
 40
0.5
100
AcDbArc
 50
100.0000000000061
 51
150.000000000014
1001
GENIUS_GENODEF_13
1002
{
1000
HIER
1070
     0
1002
}
1002
{
1000
MANEDIT
1070
     0
1002
}
1002
{
1000
NOSEL
1070
     0
1002
}
1002
{
1000
BEHIND
1070
     0
1002
}
1002
{
1000
OTHER
1070
     0
1002
}
1002
{
1000
REACTOR
1002
}
1001
GENIUS_GENOBJ-N-FIL_13
1002
{
1000
OWNER
1000
GEN
1002
}
  0
ELLIPSE
  5
7BC
330
1F
100
AcDbEntity
  8
AM_6
100
AcDbEllipse
 10
1380.84436887804
 20
978.8789616940361
 30
0.0
 11
1.5
 21
0.0
 31
0.0
210
0.0
220
0.0
230
1.0
 40
0.141488431333831
 41
0.0
 42
6.283185307179586
  0
ELLIPSE
  5
7BD
330
1F
100
AcDbEntity
  8
AM_6
100
AcDbEllipse
 10
1384.84436887804
 20
980.6246518448361
 30
0.0
 11
1.5
 21
0.0
 31
0.0
210
0.0
220
0.0
230
1.0
 40
0.141488431333831
 41
0.0
 42
6.283185307179586
  0
ELLIPSE
  5
7BE
330
1F
100
AcDbEntity
  8
AM_6
100
AcDbEllipse
 10
1384.84436887804
 20
979.7631314389612
 30
0.0
 11
1.5
 21
0.0
 31
0.0
210
0.0
220
0.0
230
1.0
 40
0.141488431333831
 41
0.0
 42
6.283185307179586
  0
ELLIPSE
  5
7BF
330
1F
100
AcDbEntity
  8
AM_6
100
AcDbEllipse
 10
1384.84436887804
 20
978.8789616940361
 30
0.0
 11
1.5
 21
0.0
 31
0.0
210
0.0
220
0.0
230
1.0
 40
0.141488431333831
 41
0.0
 42
6.283185307179586
  0
LINE
  5
7C0
330
1F
100
AcDbEntity
  8
AM_0
100
AcDbLine
 10
1392.09436887804
 20
982.6653278988208
 30
0.0
 11
1416.67363308175
 21
978.3313404537448
 31
0.0
  0
ELLIPSE
  5
7C1
330
1F
100
AcDbEntity
  8
AM_6
100
AcDbEllipse
 10
1395.34436887804
 20
978.8789616940361
 30
0.0
 11
-1.5
 21
0.0
 31
0.0
210
0.0
220
0.0
230
-1.0
 40
0.141488431333831
 41
0.0
 42
6.283185307179586
  0
ELLIPSE
  5
7C2
330
1F
100
AcDbEntity
  8
AM_6
100
AcDbEllipse
 10
1395.34436887804
 20
979.7404823864592
 30
0.0
 11
-1.5
 21
0.0
 31
0.0
210
0.0
220
0.0
230
-1.0
 40
0.141488431333831
 41
0.0
 42
6.283185307179586
  0
ELLIPSE
  5
7C3
330
1F
100
AcDbEntity
  8
AM_6
100
AcDbEllipse
 10
1395.34436887804
 20
980.6246518448361
 30
0.0
 11
-1.5
 21
0.0
 31
0.0
210
0.0
220
0.0
230
-1.0
 40
0.141488431333831
 41
0.0
 42
6.283185307179586
  0
ELLIPSE
  5
7C4
330
1F
100
AcDbEntity
  8
AM_6
100
AcDbEllipse
 10
1395.34436887804
 20
981.6220659926257
 30
0.0
 11
-1.5
 21
0.0
 31
0.0
210
0.0
220
0.0
230
-1.0
 40
0.141488431333831
 41
0.0
 42
6.283185307179586
  0
ELLIPSE
  5
7C5
330
1F
100
AcDbEntity
  8
AM_6
100
AcDbEllipse
 10
1399.34436887804
 20
978.8789616940361
 30
0.0
 11
-1.5
 21
0.0
 31
0.0
210
0.0
220
0.0
230
-1.0
 40
0.141488431333831
 41
0.0
 42
6.283185307179586
  0
ELLIPSE
  5
7C6
330
1F
100
AcDbEntity
  8
AM_6
100
AcDbEllipse
 10
1399.34436887804
 20
979.7631314389612
 30
0.0
 11
-1.5
 21
0.0
 31
0.0
210
0.0
220
0.0
230
-1.0
 40
0.141488431333831
 41
0.0
 42
6.283185307179586
  0
ELLIPSE
  5
7C7
330
1F
100
AcDbEntity
  8
AM_6
100
AcDbEllipse
 10
1399.34436887804
 20
980.6246518448361
 30
0.0
 11
-1.5
 21
0.0
 31
0.0
210
0.0
220
0.0
230
-1.0
 40
0.141488431333831
 41
0.0
 42
6.283185307179586
  0
ELLIPSE
  5
7C8
330
1F
100
AcDbEntity
  8
AM_6
100
AcDbEllipse
 10
1403.34436887804
 20
978.8789616940361
 30
0.0
 11
-1.5
 21
0.0
 31
0.0
210
0.0
220
0.0
230
-1.0
 40
0.141488431333831
 41
0.0
 42
6.283185307179586
  0
ARC
  5
7C9
330
1F
100
AcDbEntity
  8
AM_0
100
AcDbCircle
 10
1416.586808992916
 20
977.8389365772387
 30
0.0
 40
0.5
100
AcDbArc
 50
29.999999999986
 51
79.99999999999385
1001
GENIUS_GENODEF_13
1002
{
1000
HIER
1070
     0
1002
}
1002
{
1000
MANEDIT
1070
     0
1002
}
1002
{
1000
NOSEL
1070
     0
1002
}
1002
{
1000
BEHIND
1070
     0
1002
}
1002
{
1000
OTHER
1070
     0
1002
}
1002
{
1000
REACTOR
1002
}
1001
GENIUS_GENOBJ-N-FIL_13
1002
{
1000
OWNER
1000
GEN
1002
}
  0
LINE
  5
7CA
330
1F
100
AcDbEntity
  8
AM_8
100
AcDbLine
 10
1403.74436887804
 20
970.2695931317419
 30
0.0
 11
1402.948634110962
 21
971.0653278988209
 31
0.0
1001
GENIUS_GENOBJ-N-HTC_13
1002
{
1000
OWNER
1000
GEN
1002
}
1001
GENIUS_GENODEF_13
1002
{
1000
HIER
1070
     0
1002
}
1002
{
1000
MANEDIT
1070
     0
1002
}
1002
{
1000
NOSEL
1070
     0
1002
}
1002
{
1000
BEHIND
1070
     0
1002
}
1002
{
1000
OTHER
1070
     0
1002
}
1002
{
1000
REACTOR
1002
}
1001
GENIUS_GENHATCH_13
1002
{
1000
DATA
1040
135.0
1042
2.5
1000
_U
1070
     0
1011
1395.710164082324
1021
976.4733734377516
1031
0.0
1002
}
1002
{
1000
UCS
1010
0.0
1020
0.0
1030
0.0
1010
1.0
1020
0.0
1030
0.0
1010
0.0
1020
1.0
1030
0.0
1002
}
  0
ARC
  5
7CB
330
1F
100
AcDbEntity
  8
AM_0
100
AcDbCircle
 10
1381.59436887804
 20
968.9153278988207
 30
0.0
 40
0.25
100
AcDbArc
 50
270.0
 51
0.0
1001
GENIUS_GENOBJ-N-FIL_13
1002
{
1000
OWNER
1000
GEN
1002
}
1001
GENIUS_GENODEF_13
1002
{
1000
HIER
1070
     0
1002
}
1002
{
1000
MANEDIT
1070
     0
1002
}
1002
{
1000
NOSEL
1070
     0
1002
}
1002
{
1000
BEHIND
1070
     0
1002
}
1002
{
1000
OTHER
1070
     0
1002
}
1002
{
1000
REACTOR
1002
}
  0
LINE
  5
7CC
330
1F
100
AcDbEntity
  8
AM_0
100
AcDbLine
 10
1380.44436887804
 20
968.6653278988208
 30
0.0
 11
1381.59436887804
 21
968.6653278988208
 31
0.0
  0
LINE
  5
7CD
330
1F
100
AcDbEntity
  8
UMRISS05
100
AcDbLine
 10
1380.34436887804
 20
970.1653278988208
 30
0.0
 11
1378.874368878041
 21
970.165327898821
 31
0.0
  0
LINE
  5
7CE
330
1F
100
AcDbEntity
  8
KOPF03
 62
     1
100
AcDbLine
 10
1403.886709494043
 20
933.2722544358837
 30
0.0
 11
1403.886709494043
 21
955.165327898821
 31
0.0
  0
LINE
  5
7CF
330
1F
100
AcDbEntity
  8
UMRISS05
100
AcDbLine
 10
1403.77978295698
 20
933.1653278988207
 30
0.0
 11
1405.314368878039
 21
934.6999138198796
 31
0.0
  0
LINE
  5
7D0
330
1F
100
AcDbEntity
  8
KOPF03
 62
     7
100
AcDbLine
 10
1405.314368878039
 20
934.6999138198796
 30
0.0
 11
1405.314368878039
 21
961.8354820517588
 31
0.0
  0
ARC
  5
7D1
330
1F
100
AcDbEntity
  8
AM_0
100
AcDbCircle
 10
1415.314368878039
 20
961.8354820517588
 30
0.0
 40
10.0
100
AcDbArc
 50
138.2667272492943
 51
180.0
1001
GENIUS_GENODEF_13
1002
{
1000
HIER
1070
     0
1002
}
1002
{
1000
MANEDIT
1070
     0
1002
}
1002
{
1000
NOSEL
1070
     0
1002
}
1002
{
1000
BEHIND
1070
     0
1002
}
1002
{
1000
OTHER
1070
     0
1002
}
1002
{
1000
REACTOR
1002
}
1001
GENIUS_GENOBJ-N-FIL_13
1002
{
1000
OWNER
1000
GEN
1002
}
  0
ARC
  5
7D2
330
1F
100
AcDbEntity
  8
AM_0
100
AcDbCircle
 10
1415.314368878039
 20
961.8354820517588
 30
0.0
 40
12.0
100
AcDbArc
 50
136.0401740549355
 51
180.0
1001
GENIUS_GENODEF_13
1002
{
1000
HIER
1070
     0
1002
}
1002
{
1000
MANEDIT
1070
     0
1002
}
1002
{
1000
NOSEL
1070
     0
1002
}
1002
{
1000
BEHIND
1070
     0
1002
}
1002
{
1000
OTHER
1070
     0
1002
}
1002
{
1000
REACTOR
1002
}
1001
GENIUS_GENOBJ-N-FIL_13
1002
{
1000
OWNER
1000
GEN
1002
}
  0
LINE
  5
7D3
330
1F
100
AcDbEntity
  8
KOPF03
 62
     7
100
AcDbLine
 10
1403.314368878039
 20
933.1653278988207
 30
0.0
 11
1403.314368878039
 21
961.8354820517588
 31
0.0
  0
LWPOLYLINE
  5
7D4
330
1F
100
AcDbEntity
  8
KOPF03
 62
     7
100
AcDbPolyline
 90
        2
 70
     0
 43
0.0
 10
1403.886709494043
 20
955.165327898821
 10
1405.314368878039
 20
955.165327898821
  0
LINE
  5
7D5
330
1F
100
AcDbEntity
  8
AM_0
100
AcDbLine
 10
1409.34436887804
 20
970.165327898821
 30
0.0
 11
1407.85185143333
 21
968.4921203465297
 31
0.0
  0
LINE
  5
7D6
330
1F
100
AcDbEntity
  8
AM_0
100
AcDbLine
 10
1409.34436887804
 20
970.165327898821
 30
0.0
 11
1406.676448516969
 21
970.165327898821
 31
0.0
  0
LINE
  5
7D7
330
1F
100
AcDbEntity
  8
KOPF03
 62
     1
100
AcDbLine
 10
1380.302028262036
 20
933.2722544358837
 30
0.0
 11
1380.302028262036
 21
955.165327898821
 31
0.0
  0
LINE
  5
7D8
330
1F
100
AcDbEntity
  8
UMRISS05
100
AcDbLine
 10
1380.408954799098
 20
933.1653278988207
 30
0.0
 11
1378.87436887804
 21
934.6999138198796
 31
0.0
  0
LINE
  5
7D9
330
1F
100
AcDbEntity
  8
KOPF03
 62
     7
100
AcDbLine
 10
1378.87436887804
 20
934.6999138198796
 30
0.0
 11
1378.87436887804
 21
961.8354820517588
 31
0.0
  0
ARC
  5
7DA
330
1F
100
AcDbEntity
  8
AM_0
100
AcDbCircle
 10
1368.87436887804
 20
961.8354820517588
 30
0.0
 40
10.0
100
AcDbArc
 50
0.0
 51
41.73327275070565
1001
GENIUS_GENODEF_13
1002
{
1000
HIER
1070
     0
1002
}
1002
{
1000
MANEDIT
1070
     0
1002
}
1002
{
1000
NOSEL
1070
     0
1002
}
1002
{
1000
BEHIND
1070
     0
1002
}
1002
{
1000
OTHER
1070
     0
1002
}
1002
{
1000
REACTOR
1002
}
1001
GENIUS_GENOBJ-N-FIL_13
1002
{
1000
OWNER
1000
GEN
1002
}
  0
ARC
  5
7DB
330
1F
100
AcDbEntity
  8
AM_0
100
AcDbCircle
 10
1368.87436887804
 20
961.8354820517588
 30
0.0
 40
12.0
100
AcDbArc
 50
0.0
 51
43.95982594506445
1001
GENIUS_GENODEF_13
1002
{
1000
HIER
1070
     0
1002
}
1002
{
1000
MANEDIT
1070
     0
1002
}
1002
{
1000
NOSEL
1070
     0
1002
}
1002
{
1000
BEHIND
1070
     0
1002
}
1002
{
1000
OTHER
1070
     0
1002
}
1002
{
1000
REACTOR
1002
}
1001
GENIUS_GENOBJ-N-FIL_13
1002
{
1000
OWNER
1000
GEN
1002
}
  0
LINE
  5
7DC
330
1F
100
AcDbEntity
  8
KOPF03
 62
     7
100
AcDbLine
 10
1380.87436887804
 20
933.1653278988207
 30
0.0
 11
1380.87436887804
 21
961.8354820517588
 31
0.0
  0
LINE
  5
7DD
330
1F
100
AcDbEntity
  8
KOPF03
 62
     7
100
AcDbLine
 10
1381.87436887804
 20
932.6653278988208
 30
0.0
 11
1381.87436887804
 21
972.1653278988208
 31
0.0
  0
ARC
  5
7DE
330
1F
100
AcDbEntity
  8
KOPF03
 62
     7
100
AcDbCircle
 10
1381.37436887804
 20
972.1653278988208
 30
0.0
 40
0.5
100
AcDbArc
 50
0.0
 51
90.0
1001
GENIUS_GENOBJ-N-FIL_13
1002
{
1000
OWNER
1000
GEN
1002
}
1001
GENIUS_GENODEF_13
1002
{
1000
HIER
1070
     0
1002
}
1002
{
1000
MANEDIT
1070
     0
1002
}
1002
{
1000
NOSEL
1070
     0
1002
}
1002
{
1000
BEHIND
1070
     0
1002
}
1002
{
1000
OTHER
1070
     0
1002
}
1002
{
1000
REACTOR
1002
}
  0
LWPOLYLINE
  5
7DF
330
1F
100
AcDbEntity
  8
KOPF03
 62
     7
100
AcDbPolyline
 90
        2
 70
     0
 43
0.0
 10
1380.302028262036
 20
955.165327898821
 10
1378.87436887804
 20
955.165327898821
  0
LWPOLYLINE
  5
7E0
330
1F
100
AcDbEntity
  8
KOPF03
 62
     7
100
AcDbPolyline
 90
        2
 70
     0
 43
0.0
 10
1380.87436887804
 20
933.1653278988207
 10
1380.408954799098
 20
933.1653278988207
  0
LINE
  5
7E1
330
1F
100
AcDbEntity
  8
KOPF03
 62
     7
100
AcDbLine
 10
1380.408954799098
 20
932.1653278988208
 30
0.0
 11
1381.37436887804
 21
932.1653278988208
 31
0.0
  0
ARC
  5
7E2
330
1F
100
AcDbEntity
  8
KOPF03
 62
     7
100
AcDbCircle
 10
1381.37436887804
 20
932.6653278988208
 30
0.0
 40
0.5
100
AcDbArc
 50
270.0
 51
0.0
1001
GENIUS_GENODEF_13
1002
{
1000
HIER
1070
     0
1002
}
1002
{
1000
MANEDIT
1070
     0
1002
}
1002
{
1000
NOSEL
1070
     0
1002
}
1002
{
1000
BEHIND
1070
     0
1002
}
1002
{
1000
OTHER
1070
     0
1002
}
1002
{
1000
REACTOR
1002
}
1001
GENIUS_GENOBJ-N-FIL_13
1002
{
1000
OWNER
1000
GEN
1002
}
  0
LINE
  5
7E3
330
1F
100
AcDbEntity
  8
AM_0
100
AcDbLine
 10
1374.84436887804
 20
970.165327898821
 30
0.0
 11
1376.33688632275
 21
968.4921203465297
 31
0.0
  0
LINE
  5
7E4
330
1F
100
AcDbEntity
  8
AM_0
100
AcDbLine
 10
1374.84436887804
 20
970.165327898821
 30
0.0
 11
1377.51228923911
 21
970.165327898821
 31
0.0
  0
LINE
  5
7E5
330
1F
100
AcDbEntity
  8
AM_0
100
AcDbLine
 10
1377.51228923911
 20
970.165327898821
 30
0.0
 11
1380.34436887804
 21
970.1653278988208
 31
0.0
  0
LINE
  5
7E6
330
1F
100
AcDbEntity
  8
AM_0
100
AcDbLine
 10
1354.34436887804
 20
955.165327898821
 30
0.0
 11
1378.87436887804
 21
955.1673014776158
 31
0.0
  0
LINE
  5
7E7
330
1F
100
AcDbEntity
  8
AM_0
100
AcDbLine
 10
1405.314368878039
 20
955.1694287268347
 30
0.0
 11
1429.670399566542
 21
955.1713883088034
 31
0.0
  0
ARC
  5
7E8
330
1F
100
AcDbEntity
  8
0
100
AcDbCircle
 10
1359.34436887804
 20
967.665327898821
 30
0.0
 40
2.5
100
AcDbArc
 50
90.0
 51
180.0
1001
GENIUS_GENODEF_13
1002
{
1000
HIER
1070
     0
1002
}
1002
{
1000
MANEDIT
1070
     0
1002
}
1002
{
1000
NOSEL
1070
     0
1002
}
1002
{
1000
BEHIND
1070
     0
1002
}
1002
{
1000
OTHER
1070
     0
1002
}
1002
{
1000
REACTOR
1002
}
1001
GENIUS_GENOBJ-N-FIL_13
1002
{
1000
OWNER
1000
GEN
1002
}
  0
ARC
  5
7E9
330
1F
100
AcDbEntity
  8
0
100
AcDbCircle
 10
1354.34436887804
 20
957.665327898821
 30
0.0
 40
2.5
100
AcDbArc
 50
270.0
 51
0.0
1001
GENIUS_GENODEF_13
1002
{
1000
HIER
1070
     0
1002
}
1002
{
1000
MANEDIT
1070
     0
1002
}
1002
{
1000
NOSEL
1070
     0
1002
}
1002
{
1000
BEHIND
1070
     0
1002
}
1002
{
1000
OTHER
1070
     0
1002
}
1002
{
1000
REACTOR
1002
}
1001
GENIUS_GENOBJ-N-FIL_13
1002
{
1000
OWNER
1000
GEN
1002
}
  0
HATCH
  5
7EA
330
1F
100
AcDbEntity
  8
AM_5
100
AcDbHatch
 10
0.0
 20
0.0
 30
0.0
210
0.0
220
0.0
230
1.0
  2
ANSI31
 70
     0
 71
     0
 91
        1
 92
        5
 93
       32
 72
     1
 10
1354.34436887804
 20
955.165327898821
 11
1354.344771156634
 21
955.1653279311866
 72
     2
 10
1354.34436887804
 20
957.665327898821
 40
2.499999999999982
 50
270.0092195462879
 51
360.0000000000003
 73
     1
 72
     1
 10
1356.84436887804
 20
957.665327898821
 11
1356.84436887804
 21
967.665327898821
 72
     2
 10
1359.34436887804
 20
967.665327898821
 40
2.5
 50
180.0
 51
270.0
 73
     0
 72
     1
 10
1359.34436887804
 20
970.165327898821
 11
1380.34436887804
 21
970.165327898821
 72
     1
 10
1380.34436887804
 20
970.165327898821
 11
1380.34436887804
 21
971.6653278988211
 72
     1
 10
1380.34436887804
 20
971.6653278988211
 11
1359.34436887804
 21
971.6653278988211
 72
     2
 10
1359.34436887804
 20
967.665327898821
 40
3.999999999999999
 50
90.0
 51
180.0
 73
     1
 72
     1
 10
1355.34436887804
 20
967.665327898821
 11
1355.34436887804
 21
957.665327898821
 72
     2
 10
1354.34436887804
 20
957.665327898821
 40
0.9999999999999998
 50
360.0
 51
450.0
 73
     0
 72
     1
 10
1354.34436887804
 20
956.665327898821
 11
1351.326419685609
 21
956.665327898821
 72
     2
 10
1351.326419685609
 20
955.6653278988211
 40
0.9999999999999811
 50
90.0
 51
150.0000000000001
 73
     1
 72
     2
 10
1349.59436887804
 20
956.665327898821
 40
0.9999999999999708
 50
30.00000000000053
 51
149.9999999999986
 73
     0
 72
     2
 10
1347.862318070472
 20
955.6653278988211
 40
0.999999999999995
 50
29.99999999999973
 51
90.00000000000161
 73
     1
 72
     1
 10
1347.862318070472
 20
956.665327898821
 11
1347.24436887804
 21
956.665327898821
 72
     2
 10
1347.24436887804
 20
957.665327898821
 40
0.9999999999999998
 50
90.0
 51
180.0
 73
     0
 72
     1
 10
1346.24436887804
 20
957.665327898821
 11
1346.24436887804
 21
958.4256618777256
 72
     2
 10
1347.115679091514
 20
958.5059890209283
 40
0.8750051074362518
 50
174.7327216494952
 51
179.9999846161292
 73
     0
 72
     1
 10
1346.240673984078
 20
958.5059887859902
 11
1346.240673984078
 21
961.8309887859902
 72
     2
 10
1348.209423984079
 20
961.8309887859904
 40
1.96875
 50
179.9999999999984
 51
269.9999999999934
 73
     0
 72
     1
 10
1348.209423984078
 20
963.7997387859904
 11
1349.740673984078
 21
963.7997387859904
 72
     2
 10
1349.740673984079
 20
964.6747387859905
 40
0.8749999999999962
 50
270.0000000000018
 51
272.3072262589337
 73
     1
 72
     1
 10
1349.775899570121
 20
963.8004481260335
 11
1349.775899570121
 21
964.3063779709832
 72
     1
 10
1349.775899570121
 20
964.3063779709832
 11
1348.775899570121
 21
964.8949984934922
 72
     1
 10
1348.775899570121
 20
964.8949984934922
 11
1348.563002025379
 21
964.9144610892067
 72
     2
 10
1348.24436887804
 20
961.4289951350743
 40
3.500000000000003
 50
84.77667230590105
 51
179.9999999999998
 73
     1
 72
     1
 10
1344.74436887804
 20
961.4289951350743
 11
1344.74436887804
 21
957.665327898821
 72
     2
 10
1347.24436887804
 20
957.6653278988208
 40
2.500000000000007
 50
179.9999999999986
 51
268.3467744132885
 73
     1
 72
     2
 10
1347.143393086731
 20
954.1667847892439
 40
1.000000000000007
 50
271.6532255867144
 51
314.4493762462404
 73
     0
 72
     2
 10
1349.59436887804
 20
956.665327898821
 40
2.499999999999972
 50
225.5506237537654
 51
314.4153085971957
 73
     1
 72
     2
 10
1352.043858620824
 20
954.165327898821
 40
1.000000000000004
 50
225.5846914028055
 51
269.9999999999951
 73
     0
 72
     1
 10
1352.043858620823
 20
955.165327898821
 11
1354.34436887804
 21
955.165327898821
 97
        0
 75
     0
 76
     1
 52
0.0
 41
0.5
 77
     0
 78
     1
 53
45.0
 43
1099.500979633373
 44
1034.464742707062
 45
-1.122532015133643
 46
1.122532015133644
 79
     0
 47
0.0877722658561604
 98
        1
 10
1358.501308963149
 20
964.5975768896636
1001
ACAD
1010
0.0
1020
0.0
1030
0.0
  0
LINE
  5
7EB
330
1F
100
AcDbEntity
  8
0
100
AcDbLine
 10
1349.59436887804
 20
954.165327898821
 30
0.0
 11
1378.87436887804
 21
954.165327898821
 31
0.0
  0
ARC
  5
7EC
330
1F
100
AcDbEntity
  8
0
100
AcDbCircle
 10
1359.34436887804
 20
967.665327898821
 30
0.0
 40
4.0
100
AcDbArc
 50
90.0
 51
180.0
1001
GENIUS_GENOBJ-N-FIL_13
1002
{
1000
OWNER
1000
GEN
1002
}
1001
GENIUS_GENODEF_13
1002
{
1000
HIER
1070
     0
1002
}
1002
{
1000
MANEDIT
1070
     0
1002
}
1002
{
1000
NOSEL
1070
     0
1002
}
1002
{
1000
BEHIND
1070
     0
1002
}
1002
{
1000
OTHER
1070
     0
1002
}
1002
{
1000
REACTOR
1002
}
  0
ARC
  5
7ED
330
1F
100
AcDbEntity
  8
0
100
AcDbCircle
 10
1359.34436887804
 20
967.665327898821
 30
0.0
 40
5.0
100
AcDbArc
 50
90.0
 51
180.0
1001
GENIUS_GENOBJ-N-FIL_13
1002
{
1000
OWNER
1000
GEN
1002
}
1001
GENIUS_GENODEF_13
1002
{
1000
HIER
1070
     0
1002
}
1002
{
1000
MANEDIT
1070
     0
1002
}
1002
{
1000
NOSEL
1070
     0
1002
}
1002
{
1000
BEHIND
1070
     0
1002
}
1002
{
1000
OTHER
1070
     0
1002
}
1002
{
1000
REACTOR
1002
}
  0
ARC
  5
7EE
330
1F
100
AcDbEntity
  8
0
100
AcDbCircle
 10
1347.862318070471
 20
955.6653278988211
 30
0.0
 40
1.0
100
AcDbArc
 50
29.999999999986
 51
90.0
1001
GENIUS_GENOBJ-N-FIL_13
1002
{
1000
OWNER
1000
GEN
1002
}
1001
GENIUS_GENODEF_13
1002
{
1000
HIER
1070
     0
1002
}
1002
{
1000
MANEDIT
1070
     0
1002
}
1002
{
1000
NOSEL
1070
     0
1002
}
1002
{
1000
BEHIND
1070
     0
1002
}
1002
{
1000
OTHER
1070
     0
1002
}
1002
{
1000
REACTOR
1002
}
  0
ARC
  5
7EF
330
1F
100
AcDbEntity
  8
0
100
AcDbCircle
 10
1351.326419685609
 20
955.6653278988211
 30
0.0
 40
1.0
100
AcDbArc
 50
90.0
 51
150.000000000014
1001
GENIUS_GENOBJ-N-FIL_13
1002
{
1000
OWNER
1000
GEN
1002
}
1001
GENIUS_GENODEF_13
1002
{
1000
HIER
1070
     0
1002
}
1002
{
1000
MANEDIT
1070
     0
1002
}
1002
{
1000
NOSEL
1070
     0
1002
}
1002
{
1000
BEHIND
1070
     0
1002
}
1002
{
1000
OTHER
1070
     0
1002
}
1002
{
1000
REACTOR
1002
}
  0
ARC
  5
7F0
330
1F
100
AcDbEntity
  8
0
100
AcDbCircle
 10
1351.326419685609
 20
955.6653278988211
 30
0.0
 40
2.0
100
AcDbArc
 50
90.0
 51
150.000000000014
1001
GENIUS_GENOBJ-N-FIL_13
1002
{
1000
OWNER
1000
GEN
1002
}
1001
GENIUS_GENODEF_13
1002
{
1000
HIER
1070
     0
1002
}
1002
{
1000
MANEDIT
1070
     0
1002
}
1002
{
1000
NOSEL
1070
     0
1002
}
1002
{
1000
BEHIND
1070
     0
1002
}
1002
{
1000
OTHER
1070
     0
1002
}
1002
{
1000
REACTOR
1002
}
  0
ARC
  5
7F1
330
1F
100
AcDbEntity
  8
0
100
AcDbCircle
 10
1347.24436887804
 20
957.665327898821
 30
0.0
 40
2.5
100
AcDbArc
 50
180.0
 51
268.3467744132873
1001
GENIUS_GENODEF_13
1002
{
1000
HIER
1070
     0
1002
}
1002
{
1000
MANEDIT
1070
     0
1002
}
1002
{
1000
NOSEL
1070
     0
1002
}
1002
{
1000
BEHIND
1070
     0
1002
}
1002
{
1000
OTHER
1070
     0
1002
}
1002
{
1000
REACTOR
1002
}
1001
GENIUS_GENOBJ-N-FIL_13
1002
{
1000
OWNER
1000
GEN
1002
}
  0
ARC
  5
7F2
330
1F
100
AcDbEntity
  8
0
100
AcDbCircle
 10
1349.59436887804
 20
956.665327898821
 30
0.0
 40
2.5
100
AcDbArc
 50
225.5506237537746
 51
314.4153085971888
  0
ARC
  5
7F3
330
1F
100
AcDbEntity
  8
0
100
AcDbCircle
 10
1347.143393086731
 20
954.1667847892439
 30
0.0
 40
1.0
100
AcDbArc
 50
45.55062375377459
 51
88.34677441328736
1001
GENIUS_GENOBJ-N-FIL_13
1002
{
1000
OWNER
1000
GEN
1002
}
1001
GENIUS_GENODEF_13
1002
{
1000
HIER
1070
     0
1002
}
1002
{
1000
MANEDIT
1070
     0
1002
}
1002
{
1000
NOSEL
1070
     0
1002
}
1002
{
1000
BEHIND
1070
     0
1002
}
1002
{
1000
OTHER
1070
     0
1002
}
1002
{
1000
REACTOR
1002
}
  0
LINE
  5
7F4
330
1F
100
AcDbEntity
  8
0
100
AcDbLine
 10
1352.043858620823
 20
955.165327898821
 30
0.0
 11
1354.34436887804
 21
955.165327898821
 31
0.0
  0
ARC
  5
7F5
330
1F
100
AcDbEntity
  8
0
100
AcDbCircle
 10
1352.043858620823
 20
954.165327898821
 30
0.0
 40
1.0
100
AcDbArc
 50
90.0
 51
134.4153085971887
1001
GENIUS_GENOBJ-N-FIL_13
1002
{
1000
OWNER
1000
GEN
1002
}
1001
GENIUS_GENODEF_13
1002
{
1000
HIER
1070
     0
1002
}
1002
{
1000
MANEDIT
1070
     0
1002
}
1002
{
1000
NOSEL
1070
     0
1002
}
1002
{
1000
BEHIND
1070
     0
1002
}
1002
{
1000
OTHER
1070
     0
1002
}
1002
{
1000
REACTOR
1002
}
  0
ARC
  5
7F6
330
1F
100
AcDbEntity
  8
0
100
AcDbCircle
 10
1349.59436887804
 20
956.665327898821
 30
0.0
 40
1.0
100
AcDbArc
 50
209.999999999986
 51
330.000000000014
  0
LINE
  5
7F7
330
1F
100
AcDbEntity
  8
0
100
AcDbLine
 10
1355.34436887804
 20
967.665327898821
 30
0.0
 11
1355.34436887804
 21
957.665327898821
 31
0.0
  0
LINE
  5
7F8
330
1F
100
AcDbEntity
  8
0
100
AcDbLine
 10
1354.34436887804
 20
967.665327898821
 30
0.0
 11
1354.34436887804
 21
957.665327898821
 31
0.0
  0
LINE
  5
7F9
330
1F
100
AcDbEntity
  8
0
100
AcDbLine
 10
1344.74436887804
 20
957.665327898821
 30
0.0
 11
1344.74436887804
 21
961.4289951350743
 31
0.0
  0
LINE
  5
7FA
330
1F
100
AcDbEntity
  8
0
100
AcDbLine
 10
1346.24436887804
 20
961.8063779709835
 30
0.0
 11
1346.24436887804
 21
957.665327898821
 31
0.0
  0
LINE
  5
7FB
330
1F
100
AcDbEntity
  8
0
100
AcDbLine
 10
1347.24436887804
 20
956.665327898821
 30
0.0
 11
1347.862318070471
 21
956.665327898821
 31
0.0
  0
LINE
  5
7FC
330
1F
100
AcDbEntity
  8
0
100
AcDbLine
 10
1347.862318070471
 20
956.665327898821
 30
0.0
 11
1347.24436887804
 21
956.665327898821
 31
0.0
  0
ARC
  5
7FD
330
1F
100
AcDbEntity
  8
0
100
AcDbCircle
 10
1347.24436887804
 20
957.665327898821
 30
0.0
 40
1.0
100
AcDbArc
 50
180.0
 51
270.0
1001
GENIUS_GENODEF_13
1002
{
1000
HIER
1070
     0
1002
}
1002
{
1000
MANEDIT
1070
     0
1002
}
1002
{
1000
NOSEL
1070
     0
1002
}
1002
{
1000
BEHIND
1070
     0
1002
}
1002
{
1000
OTHER
1070
     0
1002
}
1002
{
1000
REACTOR
1002
}
1001
GENIUS_GENOBJ-N-FIL_13
1002
{
1000
OWNER
1000
GEN
1002
}
  0
LINE
  5
7FE
330
1F
100
AcDbEntity
  8
0
100
AcDbLine
 10
1354.34436887804
 20
956.665327898821
 30
0.0
 11
1351.326419685609
 21
956.665327898821
 31
0.0
  0
LINE
  5
7FF
330
1F
100
AcDbEntity
  8
0
100
AcDbLine
 10
1354.34436887804
 20
957.665327898821
 30
0.0
 11
1351.326419685609
 21
957.665327898821
 31
0.0
  0
ARC
  5
800
330
1F
100
AcDbEntity
  8
0
100
AcDbCircle
 10
1354.34436887804
 20
957.665327898821
 30
0.0
 40
1.0
100
AcDbArc
 50
270.0
 51
0.0
1001
GENIUS_GENOBJ-N-FIL_13
1002
{
1000
OWNER
1000
GEN
1002
}
1001
GENIUS_GENODEF_13
1002
{
1000
HIER
1070
     0
1002
}
1002
{
1000
MANEDIT
1070
     0
1002
}
1002
{
1000
NOSEL
1070
     0
1002
}
1002
{
1000
BEHIND
1070
     0
1002
}
1002
{
1000
OTHER
1070
     0
1002
}
1002
{
1000
REACTOR
1002
}
  0
LINE
  5
801
330
1F
100
AcDbEntity
  8
0
100
AcDbLine
 10
1434.59436887804
 20
954.165327898821
 30
0.0
 11
1405.314368878039
 21
954.165327898821
 31
0.0
  0
LINE
  5
802
330
1F
100
AcDbEntity
  8
0
100
AcDbLine
 10
1406.676448516969
 20
970.165327898821
 30
0.0
 11
1424.84436887804
 21
970.165327898821
 31
0.0
  0
LINE
  5
803
330
1F
100
AcDbEntity
  8
0
100
AcDbLine
 10
1402.314368878041
 20
971.6653278988211
 30
0.0
 11
1424.84436887804
 21
971.6653278988211
 31
0.0
  0
LINE
  5
804
330
1F
100
AcDbEntity
  8
0
100
AcDbLine
 10
1380.34436887804
 20
971.6653278988211
 30
0.0
 11
1359.34436887804
 21
971.6653278988211
 31
0.0
  0
LINE
  5
805
330
1F
100
AcDbEntity
  8
0
100
AcDbLine
 10
1381.37436887804
 20
972.6653278988207
 30
0.0
 11
1359.34436887804
 21
972.665327898821
 31
0.0
  0
LINE
  5
806
330
1F
100
AcDbEntity
  8
0
100
AcDbLine
 10
1380.34436887804
 20
970.165327898821
 30
0.0
 11
1359.34436887804
 21
970.165327898821
 31
0.0
  0
LINE
  5
807
330
1F
100
AcDbEntity
  8
0
100
AcDbLine
 10
1356.84436887804
 20
967.665327898821
 30
0.0
 11
1356.84436887804
 21
957.665327898821
 31
0.0
  0
ARC
  5
808
330
1F
100
AcDbEntity
  8
0
100
AcDbCircle
 10
1432.862318070471
 20
955.6653278988211
 30
0.0
 40
1.0
100
AcDbArc
 50
29.999999999986
 51
90.0
1001
GENIUS_GENOBJ-N-FIL_13
1002
{
1000
OWNER
1000
GEN
1002
}
1001
GENIUS_GENODEF_13
1002
{
1000
HIER
1070
     0
1002
}
1002
{
1000
MANEDIT
1070
     0
1002
}
1002
{
1000
NOSEL
1070
     0
1002
}
1002
{
1000
BEHIND
1070
     0
1002
}
1002
{
1000
OTHER
1070
     0
1002
}
1002
{
1000
REACTOR
1002
}
  0
ARC
  5
809
330
1F
100
AcDbEntity
  8
0
100
AcDbCircle
 10
1436.32641968561
 20
955.6653278988211
 30
0.0
 40
1.0
100
AcDbArc
 50
90.0
 51
150.000000000014
1001
GENIUS_GENOBJ-N-FIL_13
1002
{
1000
OWNER
1000
GEN
1002
}
1001
GENIUS_GENODEF_13
1002
{
1000
HIER
1070
     0
1002
}
1002
{
1000
MANEDIT
1070
     0
1002
}
1002
{
1000
NOSEL
1070
     0
1002
}
1002
{
1000
BEHIND
1070
     0
1002
}
1002
{
1000
OTHER
1070
     0
1002
}
1002
{
1000
REACTOR
1002
}
  0
ARC
  5
80A
330
1F
100
AcDbEntity
  8
0
100
AcDbCircle
 10
1436.94436887804
 20
957.665327898821
 30
0.0
 40
2.5
100
AcDbArc
 50
271.6532255866996
 51
0.0
1001
GENIUS_GENODEF_13
1002
{
1000
HIER
1070
     0
1002
}
1002
{
1000
MANEDIT
1070
     0
1002
}
1002
{
1000
NOSEL
1070
     0
1002
}
1002
{
1000
BEHIND
1070
     0
1002
}
1002
{
1000
OTHER
1070
     0
1002
}
1002
{
1000
REACTOR
1002
}
1001
GENIUS_GENOBJ-N-FIL_13
1002
{
1000
OWNER
1000
GEN
1002
}
  0
ARC
  5
80B
330
1F
100
AcDbEntity
  8
0
100
AcDbCircle
 10
1429.84436887804
 20
957.665327898821
 30
0.0
 40
2.5
100
AcDbArc
 50
180.0
 51
270.0
1001
GENIUS_GENODEF_13
1002
{
1000
HIER
1070
     0
1002
}
1002
{
1000
MANEDIT
1070
     0
1002
}
1002
{
1000
NOSEL
1070
     0
1002
}
1002
{
1000
BEHIND
1070
     0
1002
}
1002
{
1000
OTHER
1070
     0
1002
}
1002
{
1000
REACTOR
1002
}
1001
GENIUS_GENOBJ-N-FIL_13
1002
{
1000
OWNER
1000
GEN
1002
}
  0
LINE
  5
80C
330
1F
100
AcDbEntity
  8
0
100
AcDbLine
 10
1432.144879135257
 20
955.165327898821
 30
0.0
 11
1429.84436887804
 21
955.165327898821
 31
0.0
  0
ARC
  5
80D
330
1F
100
AcDbEntity
  8
0
100
AcDbCircle
 10
1434.59436887804
 20
956.665327898821
 30
0.0
 40
2.5
100
AcDbArc
 50
225.5846914028112
 51
314.4493762462254
  0
ARC
  5
80E
330
1F
100
AcDbEntity
  8
0
100
AcDbCircle
 10
1434.59436887804
 20
956.665327898821
 30
0.0
 40
1.0
100
AcDbArc
 50
209.999999999986
 51
330.000000000014
  0
ARC
  5
80F
330
1F
100
AcDbEntity
  8
0
100
AcDbCircle
 10
1432.144879135257
 20
954.165327898821
 30
0.0
 40
1.0
100
AcDbArc
 50
45.5846914028112
 51
90.0
1001
GENIUS_GENOBJ-N-FIL_13
1002
{
1000
OWNER
1000
GEN
1002
}
1001
GENIUS_GENODEF_13
1002
{
1000
HIER
1070
     0
1002
}
1002
{
1000
MANEDIT
1070
     0
1002
}
1002
{
1000
NOSEL
1070
     0
1002
}
1002
{
1000
BEHIND
1070
     0
1002
}
1002
{
1000
OTHER
1070
     0
1002
}
1002
{
1000
REACTOR
1002
}
  0
ARC
  5
810
330
1F
100
AcDbEntity
  8
0
100
AcDbCircle
 10
1437.04534466935
 20
954.1667847892439
 30
0.0
 40
1.0
100
AcDbArc
 50
91.65322558669961
 51
134.4493762462254
1001
GENIUS_GENOBJ-N-FIL_13
1002
{
1000
OWNER
1000
GEN
1002
}
1001
GENIUS_GENODEF_13
1002
{
1000
HIER
1070
     0
1002
}
1002
{
1000
MANEDIT
1070
     0
1002
}
1002
{
1000
NOSEL
1070
     0
1002
}
1002
{
1000
BEHIND
1070
     0
1002
}
1002
{
1000
OTHER
1070
     0
1002
}
1002
{
1000
REACTOR
1002
}
  0
LINE
  5
811
330
1F
100
AcDbEntity
  8
0
100
AcDbLine
 10
1427.34436887804
 20
967.665327898821
 30
0.0
 11
1427.34436887804
 21
957.665327898821
 31
0.0
  0
LINE
  5
812
330
1F
100
AcDbEntity
  8
0
100
AcDbLine
 10
1428.84436887804
 20
967.665327898821
 30
0.0
 11
1428.84436887804
 21
957.665327898821
 31
0.0
  0
LINE
  5
813
330
1F
100
AcDbEntity
  8
0
100
AcDbLine
 10
1429.84436887804
 20
956.665327898821
 30
0.0
 11
1432.862318070471
 21
956.665327898821
 31
0.0
  0
ARC
  5
814
330
1F
100
AcDbEntity
  8
0
100
AcDbCircle
 10
1429.84436887804
 20
957.665327898821
 30
0.0
 40
1.0
100
AcDbArc
 50
180.0
 51
270.0
1001
GENIUS_GENOBJ-N-FIL_13
1002
{
1000
OWNER
1000
GEN
1002
}
1001
GENIUS_GENODEF_13
1002
{
1000
HIER
1070
     0
1002
}
1002
{
1000
MANEDIT
1070
     0
1002
}
1002
{
1000
NOSEL
1070
     0
1002
}
1002
{
1000
BEHIND
1070
     0
1002
}
1002
{
1000
OTHER
1070
     0
1002
}
1002
{
1000
REACTOR
1002
}
  0
LINE
  5
815
330
1F
100
AcDbEntity
  8
0
100
AcDbLine
 10
1436.32641968561
 20
956.665327898821
 30
0.0
 11
1436.94436887804
 21
956.665327898821
 31
0.0
  0
ARC
  5
816
330
1F
100
AcDbEntity
  8
0
100
AcDbCircle
 10
1436.94436887804
 20
957.665327898821
 30
0.0
 40
1.0
100
AcDbArc
 50
270.0
 51
0.0
1001
GENIUS_GENODEF_13
1002
{
1000
HIER
1070
     0
1002
}
1002
{
1000
MANEDIT
1070
     0
1002
}
1002
{
1000
NOSEL
1070
     0
1002
}
1002
{
1000
BEHIND
1070
     0
1002
}
1002
{
1000
OTHER
1070
     0
1002
}
1002
{
1000
REACTOR
1002
}
1001
GENIUS_GENOBJ-N-FIL_13
1002
{
1000
OWNER
1000
GEN
1002
}
  0
LINE
  5
817
330
1F
100
AcDbEntity
  8
0
100
AcDbLine
 10
1436.94436887804
 20
956.665327898821
 30
0.0
 11
1436.32641968561
 21
956.665327898821
 31
0.0
  0
ARC
  5
818
330
1F
100
AcDbEntity
  8
0
100
AcDbCircle
 10
1424.84436887804
 20
967.665327898821
 30
0.0
 40
4.0
100
AcDbArc
 50
0.0
 51
90.0
1001
GENIUS_GENOBJ-N-FIL_13
1002
{
1000
OWNER
1000
GEN
1002
}
1001
GENIUS_GENODEF_13
1002
{
1000
HIER
1070
     0
1002
}
1002
{
1000
MANEDIT
1070
     0
1002
}
1002
{
1000
NOSEL
1070
     0
1002
}
1002
{
1000
BEHIND
1070
     0
1002
}
1002
{
1000
OTHER
1070
     0
1002
}
1002
{
1000
REACTOR
1002
}
  0
ARC
  5
819
330
1F
100
AcDbEntity
  8
0
100
AcDbCircle
 10
1424.84436887804
 20
967.665327898821
 30
0.0
 40
2.5
100
AcDbArc
 50
0.0
 51
90.0
1001
GENIUS_GENODEF_13
1002
{
1000
HIER
1070
     0
1002
}
1002
{
1000
MANEDIT
1070
     0
1002
}
1002
{
1000
NOSEL
1070
     0
1002
}
1002
{
1000
BEHIND
1070
     0
1002
}
1002
{
1000
OTHER
1070
     0
1002
}
1002
{
1000
REACTOR
1002
}
1001
GENIUS_GENOBJ-N-FIL_13
1002
{
1000
OWNER
1000
GEN
1002
}
  0
LINE
  5
81A
330
1F
100
AcDbEntity
  8
AM_0
100
AcDbLine
 10
1380.34436887804
 20
970.165327898821
 30
0.0
 11
1380.34436887804
 21
971.6653278988211
 31
0.0
  0
LINE
  5
81B
330
1F
100
AcDbEntity
  8
AM_0
100
AcDbLine
 10
1403.84436887804
 20
970.165327898821
 30
0.0
 11
1403.84436887804
 21
971.6653278988211
 31
0.0
  0
LINE
  5
81C
330
1F
100
AcDbEntity
  8
0
100
AcDbLine
 10
1344.74436887804
 20
957.665327898821
 30
0.0
 11
1344.74436887804
 21
961.4289951350743
 31
0.0
  0
HATCH
  5
81D
330
1F
100
AcDbEntity
  8
AM_8
100
AcDbHatch
 10
0.0
 20
0.0
 30
0.0
210
0.0
220
0.0
230
1.0
  2
_U
 70
     0
 71
     0
 91
        1
 92
        1
 93
       11
 72
     1
 10
1403.77978295698
 20
933.1653278988207
 11
1403.886709494043
 21
933.2722544358837
 72
     1
 10
1403.886709494043
 20
933.2722544358837
 11
1403.886709494043
 21
955.1653278988208
 72
     1
 10
1403.886709494043
 20
955.165327898821
 11
1405.314368878039
 21
955.165327898821
 72
     1
 10
1405.314368878039
 20
955.165327898821
 11
1405.314368878039
 21
955.1694287268347
 72
     1
 10
1405.314368878039
 20
955.1694287268347
 11
1405.314368878039
 21
961.8354820517589
 72
     2
 10
1415.314368878039
 20
961.8354820517588
 40
10.0
 50
180.0
 51
221.7332727506877
 73
     0
 72
     1
 10
1407.85185143333
 20
968.4921203465297
 11
1409.34436887804
 21
970.165327898821
 72
     1
 10
1409.34436887804
 20
970.165327898821
 11
1406.676448516969
 21
970.165327898821
 72
     2
 10
1415.314368878039
 20
961.8354820517588
 40
12.0
 50
136.0401740549229
 51
180.0000000000001
 73
     1
 72
     1
 10
1403.314368878039
 20
961.8354820517588
 11
1403.314368878039
 21
933.1653278988209
 72
     1
 10
1403.314368878039
 20
933.1653278988207
 11
1403.77978295698
 21
933.1653278988207
 97
        0
 75
     0
 76
     0
 52
135.0
 41
2.7
 77
     0
 78
     1
 53
135.0
 43
1267.662408622357
 44
732.4090859211675
 45
-1.909188309203678
 46
-1.909188309203678
 79
     0
 98
        1
 10
1267.662408622357
 20
732.4090859211675
1001
GENIUS_GENOBJ-N-HTC_13
1002
{
1000
OWNER
1000
GEN
1002
}
1001
GENIUS_GENODEF_13
1002
{
1000
HIER
1070
     0
1002
}
1002
{
1000
MANEDIT
1070
     0
1002
}
1002
{
1000
NOSEL
1070
     0
1002
}
1002
{
1000
BEHIND
1070
     0
1002
}
1002
{
1000
OTHER
1070
     0
1002
}
1002
{
1000
REACTOR
1002
}
1001
GENIUS_GENHATCH_13
1002
{
1000
DATA
1040
135.0
1042
2.7
1000
_U
1070
     0
1011
1404.222610100978
1021
957.8610599302324
1031
0.0
1002
}
1002
{
1000
UCS
1010
0.0
1020
0.0
1030
0.0
1010
1.0
1020
0.0
1030
0.0
1010
0.0
1020
1.0
1030
0.0
1002
}
  0
HATCH
  5
81E
330
1F
100
AcDbEntity
  8
AM_8
100
AcDbHatch
 10
0.0
 20
0.0
 30
0.0
210
0.0
220
0.0
230
1.0
  2
_U
 70
     0
 71
     0
 91
        1
 92
        1
 93
        4
 72
     1
 10
1405.314368878039
 20
934.6999138198796
 11
1405.314368878039
 21
955.1653278988208
 72
     1
 10
1405.314368878039
 20
955.165327898821
 11
1403.886709494043
 21
955.165327898821
 72
     1
 10
1403.886709494043
 20
955.165327898821
 11
1403.886709494043
 21
933.2722544358839
 72
     1
 10
1403.886709494043
 20
933.2722544358837
 11
1405.314368878039
 21
934.6999138198796
 97
        0
 75
     0
 76
     0
 52
135.0
 41
2.7
 77
     0
 78
     1
 53
135.0
 43
1267.662408622357
 44
732.4090859211675
 45
-1.909188309203678
 46
-1.909188309203678
 79
     0
 98
        1
 10
1267.662408622357
 20
732.4090859211675
1001
GENIUS_GENOBJ-N-HTC_13
1002
{
1000
OWNER
1000
GEN
1002
}
1001
GENIUS_GENODEF_13
1002
{
1000
HIER
1070
     0
1002
}
1002
{
1000
MANEDIT
1070
     0
1002
}
1002
{
1000
NOSEL
1070
     0
1002
}
1002
{
1000
BEHIND
1070
     0
1002
}
1002
{
1000
OTHER
1070
     0
1002
}
1002
{
1000
REACTOR
1002
}
1001
GENIUS_GENHATCH_13
1002
{
1000
DATA
1040
135.0
1042
2.7
1000
_U
1070
     0
1011
1404.490365676892
1021
940.7314488706809
1031
0.0
1002
}
1002
{
1000
UCS
1010
0.0
1020
0.0
1030
0.0
1010
1.0
1020
0.0
1030
0.0
1010
0.0
1020
1.0
1030
0.0
1002
}
  0
HATCH
  5
81F
330
1F
100
AcDbEntity
  8
AM_8
100
AcDbHatch
 10
0.0
 20
0.0
 30
0.0
210
0.0
220
0.0
230
1.0
  2
_U
 70
     0
 71
     0
 91
        1
 92
        1
 93
        4
 72
     1
 10
1378.87436887804
 20
955.165327898821
 11
1378.87436887804
 21
934.6999138198798
 72
     1
 10
1378.87436887804
 20
934.6999138198796
 11
1380.302028262036
 21
933.2722544358837
 72
     1
 10
1380.302028262036
 20
933.2722544358837
 11
1380.302028262036
 21
955.1653278988208
 72
     1
 10
1380.302028262036
 20
955.165327898821
 11
1378.87436887804
 21
955.165327898821
 97
        0
 75
     0
 76
     0
 52
135.0
 41
2.7
 77
     0
 78
     1
 53
135.0
 43
1267.662408622357
 44
732.4090859211675
 45
-1.909188309203678
 46
-1.909188309203678
 79
     0
 98
        1
 10
1267.662408622357
 20
732.4090859211675
1001
GENIUS_GENODEF_13
1002
{
1000
HIER
1070
     0
1002
}
1002
{
1000
MANEDIT
1070
     0
1002
}
1002
{
1000
NOSEL
1070
     0
1002
}
1002
{
1000
BEHIND
1070
     0
1002
}
1002
{
1000
OTHER
1070
     0
1002
}
1002
{
1000
REACTOR
1002
}
1001
GENIUS_GENOBJ-N-HTC_13
1002
{
1000
OWNER
1000
GEN
1002
}
1001
GENIUS_GENHATCH_13
1002
{
1000
DATA
1040
135.0
1042
2.7
1000
_U
1070
     0
1011
1379.589139726857
1021
939.6608480488161
1031
0.0
1002
}
1002
{
1000
UCS
1010
0.0
1020
0.0
1030
0.0
1010
1.0
1020
0.0
1030
0.0
1010
0.0
1020
1.0
1030
0.0
1002
}
  0
LINE
  5
820
330
1F
100
AcDbEntity
  8
KOPF03
 62
     7
100
AcDbLine
 10
1380.408954799098
 20
933.1653278988207
 30
0.0
 11
1380.408954799098
 21
932.1653278988208
 31
0.0
  0
LINE
  5
821
330
1F
100
AcDbEntity
  8
0
100
AcDbLine
 10
1349.59436887804
 20
956.665327898821
 30
0.0
 11
1348.971616882453
 21
955.8829086045857
 31
0.0
  0
HATCH
  5
822
330
1F
100
AcDbEntity
  8
AM_8
100
AcDbHatch
 10
0.0
 20
0.0
 30
0.0
210
0.0
220
0.0
230
1.0
  2
SOLID
 70
     1
 71
     0
 91
        1
 92
        1
 93
       23
 72
     1
 10
1349.59436887804
 20
956.665327898821
 11
1348.971616882453
 21
955.8829086045857
 72
     2
 10
1349.59436887804
 20
956.665327898821
 40
1.000000000000007
 50
231.4826205400393
 51
330.0000000000039
 73
     1
 72
     2
 10
1351.326419685609
 20
955.6653278988211
 40
0.9999999999999873
 50
210.0000000000042
 51
269.9999999999984
 73
     0
 72
     1
 10
1351.326419685609
 20
956.665327898821
 11
1354.34436887804
 21
956.665327898821
 72
     2
 10
1354.34436887804
 20
957.665327898821
 40
1.0
 50
270.0
 51
360.0
 73
     1
 72
     1
 10
1355.34436887804
 20
957.665327898821
 11
1355.34436887804
 21
967.665327898821
 72
     2
 10
1359.34436887804
 20
967.665327898821
 40
4.0
 50
180.0
 51
270.0
 73
     0
 72
     1
 10
1359.34436887804
 20
971.6653278988211
 11
1380.34436887804
 21
971.6653278988211
 72
     1
 10
1380.34436887804
 20
971.6653278988211
 11
1380.34436887804
 21
970.165327898821
 72
     1
 10
1380.34436887804
 20
970.165327898821
 11
1377.51228923911
 21
970.165327898821
 72
     2
 10
1368.87436887804
 20
961.8354820517588
 40
11.99999999999999
 50
316.0401740549228
 51
360.0
 73
     0
 72
     1
 10
1380.87436887804
 20
961.8354820517588
 11
1380.87436887804
 21
933.1653278988209
 72
     1
 10
1380.87436887804
 20
933.1653278988207
 11
1380.408954799098
 21
933.1653278988207
 72
     1
 10
1380.408954799098
 20
933.1653278988207
 11
1380.408954799098
 21
932.1653278988208
 72
     1
 10
1380.408954799098
 20
932.1653278988208
 11
1381.37436887804
 21
932.1653278988208
 72
     2
 10
1381.37436887804
 20
932.6653278988208
 40
0.5
 50
270.0
 51
360.0
 73
     1
 72
     1
 10
1381.87436887804
 20
932.6653278988208
 11
1381.87436887804
 21
972.1653278988208
 72
     2
 10
1381.37436887804
 20
972.1653278988208
 40
0.5
 50
0.0
 51
90.0
 73
     1
 72
     1
 10
1381.37436887804
 20
972.6653278988207
 11
1359.34436887804
 21
972.6653278988207
 72
     2
 10
1359.34436887804
 20
967.665327898821
 40
5.0
 50
90.0
 51
180.0
 73
     1
 72
     1
 10
1354.34436887804
 20
967.665327898821
 11
1354.34436887804
 21
957.665327898821
 72
     1
 10
1354.34436887804
 20
957.665327898821
 11
1351.326419685609
 21
957.665327898821
 72
     2
 10
1351.326419685609
 20
955.6653278988211
 40
2.0
 50
89.99999999999959
 51
149.9999999999998
 73
     1
 97
        0
 75
     0
 76
     1
 98
        1
 10
1267.662408622357
 20
732.4090859211675
450
        0
451
        0
460
0.0
461
0.0
452
        0
462
0.0
453
        0
470

1001
GENIUS_GENOBJ-N-HTC_13
1002
{
1000
OWNER
1000
GEN
1002
}
1001
GENIUS_GENODEF_13
1002
{
1000
HIER
1070
     0
1002
}
1002
{
1000
MANEDIT
1070
     0
1002
}
1002
{
1000
NOSEL
1070
     0
1002
}
1002
{
1000
BEHIND
1070
     0
1002
}
1002
{
1000
OTHER
1070
     0
1002
}
1002
{
1000
REACTOR
1002
}
1001
GENIUS_GENHATCH_13
1002
{
1000
DATA
1040
0.0
1042
1.0
1000
SOLID
1070
     0
1011
1352.307750647513
1021
957.2190765189571
1031
0.0
1002
}
1002
{
1000
UCS
1010
0.0
1020
0.0
1030
0.0
1010
1.0
1020
0.0
1030
0.0
1010
0.0
1020
1.0
1030
0.0
1002
}
  0
LINE
  5
823
330
1F
100
AcDbEntity
  8
KOPF03
 62
     7
100
AcDbLine
 10
1402.314368878041
 20
932.6653278988208
 30
0.0
 11
1402.314368878041
 21
972.1653278988208
 31
0.0
  0
LINE
  5
824
330
1F
100
AcDbEntity
  8
KOPF03
 62
     7
100
AcDbLine
 10
1403.779782956982
 20
932.1653278988208
 30
0.0
 11
1402.814368878041
 21
932.1653278988208
 31
0.0
  0
ARC
  5
825
330
1F
100
AcDbEntity
  8
KOPF03
 62
     7
100
AcDbCircle
 10
1402.814368878041
 20
932.6653278988208
 30
0.0
 40
0.5
100
AcDbArc
 50
180.0
 51
270.0
1001
GENIUS_GENODEF_13
1002
{
1000
HIER
1070
     0
1002
}
1002
{
1000
MANEDIT
1070
     0
1002
}
1002
{
1000
NOSEL
1070
     0
1002
}
1002
{
1000
BEHIND
1070
     0
1002
}
1002
{
1000
OTHER
1070
     0
1002
}
1002
{
1000
REACTOR
1002
}
1001
GENIUS_GENOBJ-N-FIL_13
1002
{
1000
OWNER
1000
GEN
1002
}
  0
ARC
  5
826
330
1F
100
AcDbEntity
  8
0
100
AcDbCircle
 10
1432.862318070472
 20
955.6653278988211
 30
0.0
 40
2.0
100
AcDbArc
 50
29.999999999986
 51
90.0
1001
GENIUS_GENOBJ-N-FIL_13
1002
{
1000
OWNER
1000
GEN
1002
}
1001
GENIUS_GENODEF_13
1002
{
1000
HIER
1070
     0
1002
}
1002
{
1000
MANEDIT
1070
     0
1002
}
1002
{
1000
NOSEL
1070
     0
1002
}
1002
{
1000
BEHIND
1070
     0
1002
}
1002
{
1000
OTHER
1070
     0
1002
}
1002
{
1000
REACTOR
1002
}
  0
LINE
  5
827
330
1F
100
AcDbEntity
  8
0
100
AcDbLine
 10
1428.84436887804
 20
967.665327898821
 30
0.0
 11
1428.84436887804
 21
957.665327898821
 31
0.0
  0
LINE
  5
828
330
1F
100
AcDbEntity
  8
0
100
AcDbLine
 10
1429.84436887804
 20
967.665327898821
 30
0.0
 11
1429.84436887804
 21
957.665327898821
 31
0.0
  0
LINE
  5
829
330
1F
100
AcDbEntity
  8
0
100
AcDbLine
 10
1429.84436887804
 20
957.665327898821
 30
0.0
 11
1432.862318070472
 21
957.665327898821
 31
0.0
  0
LINE
  5
82A
330
1F
100
AcDbEntity
  8
0
100
AcDbLine
 10
1402.814368878041
 20
972.6653278988207
 30
0.0
 11
1424.84436887804
 21
972.665327898821
 31
0.0
  0
LINE
  5
82B
330
1F
100
AcDbEntity
  8
KOPF03
 62
     7
100
AcDbLine
 10
1403.779782956982
 20
933.1653278988207
 30
0.0
 11
1403.779782956982
 21
932.1653278988208
 31
0.0
  0
HATCH
  5
82C
330
1F
100
AcDbEntity
  8
AM_8
100
AcDbHatch
 10
0.0
 20
0.0
 30
0.0
210
0.0
220
0.0
230
1.0
  2
SOLID
 70
     1
 71
     0
 91
        1
 92
        1
 93
       23
 72
     1
 10
1434.59436887804
 20
956.665327898821
 11
1435.217120873628
 21
955.8829086045857
 72
     2
 10
1434.59436887804
 20
956.665327898821
 40
1.000000000000007
 50
51.48262054003929
 51
150.0000000000039
 73
     0
 72
     2
 10
1432.862318070472
 20
955.6653278988211
 40
0.9999999999999873
 50
390.0000000000042
 51
449.9999999999984
 73
     1
 72
     1
 10
1432.862318070472
 20
956.665327898821
 11
1429.844368878041
 21
956.665327898821
 72
     2
 10
1429.84436887804
 20
957.665327898821
 40
1.0
 50
90.0
 51
180.0
 73
     0
 72
     1
 10
1428.84436887804
 20
957.665327898821
 11
1428.84436887804
 21
967.665327898821
 72
     2
 10
1424.84436887804
 20
967.665327898821
 40
4.0
 50
360.0
 51
450.0
 73
     1
 72
     1
 10
1424.84436887804
 20
971.6653278988211
 11
1403.84436887804
 21
971.6653278988211
 72
     1
 10
1403.84436887804
 20
971.6653278988211
 11
1403.84436887804
 21
970.165327898821
 72
     1
 10
1403.84436887804
 20
970.165327898821
 11
1406.676448516971
 21
970.165327898821
 72
     2
 10
1415.314368878041
 20
961.8354820517588
 40
11.99999999999999
 50
496.0401740549228
 51
540.0
 73
     1
 72
     1
 10
1403.314368878041
 20
961.8354820517588
 11
1403.314368878041
 21
933.1653278988209
 72
     1
 10
1403.314368878041
 20
933.1653278988207
 11
1403.779782956982
 21
933.1653278988207
 72
     1
 10
1403.779782956982
 20
933.1653278988207
 11
1403.779782956982
 21
932.1653278988208
 72
     1
 10
1403.779782956982
 20
932.1653278988208
 11
1402.814368878041
 21
932.1653278988208
 72
     2
 10
1402.814368878041
 20
932.6653278988208
 40
0.5
 50
90.0
 51
180.0
 73
     0
 72
     1
 10
1402.314368878041
 20
932.6653278988208
 11
1402.314368878041
 21
972.1653278988208
 72
     2
 10
1402.814368878041
 20
972.1653278988208
 40
0.5
 50
-180.0
 51
-90.0
 73
     0
 72
     1
 10
1402.814368878041
 20
972.6653278988207
 11
1424.844368878041
 21
972.6653278988207
 72
     2
 10
1424.84436887804
 20
967.665327898821
 40
5.0
 50
-90.0
 51
0.0
 73
     0
 72
     1
 10
1429.84436887804
 20
967.665327898821
 11
1429.84436887804
 21
957.665327898821
 72
     1
 10
1429.84436887804
 20
957.665327898821
 11
1432.862318070472
 21
957.665327898821
 72
     2
 10
1432.862318070472
 20
955.6653278988211
 40
2.0
 50
-90.0000000000004
 51
-30.00000000000015
 73
     0
 97
        0
 75
     0
 76
     1
 98
        1
 10
1516.526329133724
 20
732.4090859211675
450
        0
451
        0
460
0.0
461
0.0
452
        0
462
0.0
453
        0
470

1001
GENIUS_GENOBJ-N-HTC_13
1002
{
1000
OWNER
1000
GEN
1002
}
1001
GENIUS_GENODEF_13
1002
{
1000
HIER
1070
     0
1002
}
1002
{
1000
MANEDIT
1070
     0
1002
}
1002
{
1000
NOSEL
1070
     0
1002
}
1002
{
1000
BEHIND
1070
     0
1002
}
1002
{
1000
OTHER
1070
     0
1002
}
1002
{
1000
REACTOR
1002
}
1001
GENIUS_GENHATCH_13
1002
{
1000
DATA
1040
0.0
1042
-1.0
1000
SOLID
1070
     0
1011
1431.880987108568
1021
957.2190765189571
1031
0.0
1002
}
1002
{
1000
UCS
1010
0.0
1020
0.0
1030
0.0
1010
1.0
1020
0.0
1030
0.0
1010
0.0
1020
1.0
1030
0.0
1002
}
  0
LINE
  5
82D
330
1F
100
AcDbEntity
  8
AM_0
100
AcDbLine
 10
1381.144368878041
 20
932.1653278988208
 30
0.0
 11
1403.04436887804
 21
932.1653278988216
 31
0.0
  0
LINE
  5
82E
330
1F
100
AcDbEntity
  8
AM_0
100
AcDbLine
 10
1346.240673984079
 20
961.8309887859904
 30
0.0
 11
1346.240673984079
 21
958.5059887859902
 31
0.0
  0
LINE
  5
82F
330
1F
100
AcDbEntity
  8
AM_0
100
AcDbLine
 10
1349.740673984079
 20
963.7997387859904
 30
0.0
 11
1348.209423984078
 21
963.7997387859904
 31
0.0
  0
ARC
  5
830
330
1F
100
AcDbEntity
  8
AM_0
100
AcDbCircle
 10
1348.209423984078
 20
961.8309887859904
 30
0.0
 40
1.96875
100
AcDbArc
 50
90.0
 51
180.0
  0
LINE
  5
831
330
1F
100
AcDbEntity
  8
0
100
AcDbLine
 10
1348.775899570121
 20
964.8949984934922
 30
0.0
 11
1348.563002025379
 21
964.9144610892067
 31
0.0
  0
ARC
  5
832
330
1F
100
AcDbEntity
  8
0
100
AcDbCircle
 10
1348.24436887804
 20
961.4289951350743
 30
0.0
 40
3.5
100
AcDbArc
 50
84.77667230590508
 51
180.0
1001
GENIUS_GENODEF_13
1002
{
1000
HIER
1070
     0
1002
}
1002
{
1000
MANEDIT
1070
     0
1002
}
1002
{
1000
NOSEL
1070
     0
1002
}
1002
{
1000
BEHIND
1070
     0
1002
}
1002
{
1000
OTHER
1070
     0
1002
}
1002
{
1000
REACTOR
1002
}
1001
GENIUS_GENOBJ-N-FIL_13
1002
{
1000
OWNER
1000
GEN
1002
}
  0
LINE
  5
833
330
1F
100
AcDbEntity
  8
0
100
AcDbLine
 10
1349.775899570121
 20
964.3063779709832
 30
0.0
 11
1348.775899570121
 21
964.8949984934922
 31
0.0
  0
LINE
  5
834
330
1F
100
AcDbEntity
  8
AM_0
100
AcDbLine
 10
1349.775899570121
 20
964.3063779709832
 30
0.0
 11
1349.775899570121
 21
963.8063779709835
 31
0.0
  0
LINE
  5
835
330
1F
100
AcDbEntity
  8
0
100
AcDbLine
 10
1439.444368878041
 20
957.665327898821
 30
0.0
 11
1439.444368878041
 21
961.4289951350743
 31
0.0
  0
LINE
  5
836
330
1F
100
AcDbEntity
  8
0
100
AcDbLine
 10
1437.944368878041
 20
961.8063779709835
 30
0.0
 11
1437.944368878041
 21
957.665327898821
 31
0.0
  0
LINE
  5
837
330
1F
100
AcDbEntity
  8
0
100
AcDbLine
 10
1439.44436887804
 20
957.665327898821
 30
0.0
 11
1439.44436887804
 21
961.4289951350743
 31
0.0
  0
LINE
  5
838
330
1F
100
AcDbEntity
  8
AM_0
100
AcDbLine
 10
1437.948063772003
 20
961.8309887859904
 30
0.0
 11
1437.948063772003
 21
958.5059887859902
 31
0.0
  0
LINE
  5
839
330
1F
100
AcDbEntity
  8
AM_0
100
AcDbLine
 10
1434.448063772003
 20
963.7997387859904
 30
0.0
 11
1435.979313772003
 21
963.7997387859904
 31
0.0
  0
ARC
  5
83A
330
1F
100
AcDbEntity
  8
AM_0
100
AcDbCircle
 10
1435.979313772003
 20
961.8309887859904
 30
0.0
 40
1.96875
100
AcDbArc
 50
0.0
 51
90.0
  0
LINE
  5
83B
330
1F
100
AcDbEntity
  8
0
100
AcDbLine
 10
1435.41283818596
 20
964.8949984934922
 30
0.0
 11
1435.625735730702
 21
964.9144610892067
 31
0.0
  0
ARC
  5
83C
330
1F
100
AcDbEntity
  8
0
100
AcDbCircle
 10
1435.94436887804
 20
961.4289951350743
 30
0.0
 40
3.5
100
AcDbArc
 50
0.0
 51
95.22332769409493
1001
GENIUS_GENODEF_13
1002
{
1000
HIER
1070
     0
1002
}
1002
{
1000
MANEDIT
1070
     0
1002
}
1002
{
1000
NOSEL
1070
     0
1002
}
1002
{
1000
BEHIND
1070
     0
1002
}
1002
{
1000
OTHER
1070
     0
1002
}
1002
{
1000
REACTOR
1002
}
1001
GENIUS_GENOBJ-N-FIL_13
1002
{
1000
OWNER
1000
GEN
1002
}
  0
LINE
  5
83D
330
1F
100
AcDbEntity
  8
0
100
AcDbLine
 10
1434.412838185961
 20
964.3063779709832
 30
0.0
 11
1435.41283818596
 21
964.8949984934922
 31
0.0
  0
LINE
  5
83E
330
1F
100
AcDbEntity
  8
AM_0
100
AcDbLine
 10
1434.412838185961
 20
964.3063779709832
 30
0.0
 11
1434.412838185961
 21
963.8063779709835
 31
0.0
  0
HATCH
  5
83F
330
1F
100
AcDbEntity
  8
AM_5
100
AcDbHatch
 10
0.0
 20
0.0
 30
0.0
210
0.0
220
0.0
230
1.0
  2
ANSI31
 70
     0
 71
     0
 91
        1
 92
        5
 93
       32
 72
     1
 10
1429.84436887804
 20
955.165327898821
 11
1429.843966599446
 21
955.1653279311866
 72
     2
 10
1429.84436887804
 20
957.665327898821
 40
2.499999999999982
 50
90.0092195462879
 51
180.0000000000003
 73
     0
 72
     1
 10
1427.34436887804
 20
957.665327898821
 11
1427.34436887804
 21
967.665327898821
 72
     2
 10
1424.84436887804
 20
967.665327898821
 40
2.5
 50
360.0
 51
450.0
 73
     1
 72
     1
 10
1424.84436887804
 20
970.165327898821
 11
1403.84436887804
 21
970.165327898821
 72
     1
 10
1403.84436887804
 20
970.165327898821
 11
1403.84436887804
 21
971.6653278988211
 72
     1
 10
1403.84436887804
 20
971.6653278988211
 11
1424.84436887804
 21
971.6653278988211
 72
     2
 10
1424.84436887804
 20
967.665327898821
 40
3.999999999999999
 50
-90.0
 51
0.0
 73
     0
 72
     1
 10
1428.84436887804
 20
967.665327898821
 11
1428.84436887804
 21
957.665327898821
 72
     2
 10
1429.84436887804
 20
957.665327898821
 40
0.9999999999999998
 50
540.0
 51
630.0
 73
     1
 72
     1
 10
1429.84436887804
 20
956.665327898821
 11
1432.862318070472
 21
956.665327898821
 72
     2
 10
1432.862318070472
 20
955.6653278988211
 40
0.9999999999999811
 50
-90.0
 51
-29.99999999999984
 73
     0
 72
     2
 10
1434.59436887804
 20
956.665327898821
 40
0.9999999999999708
 50
210.0000000000005
 51
329.9999999999986
 73
     1
 72
     2
 10
1436.32641968561
 20
955.6653278988211
 40
0.999999999999995
 50
-150.0000000000002
 51
-89.99999999999838
 73
     0
 72
     1
 10
1436.32641968561
 20
956.665327898821
 11
1436.944368878041
 21
956.665327898821
 72
     2
 10
1436.944368878041
 20
957.665327898821
 40
0.9999999999999998
 50
270.0
 51
360.0
 73
     1
 72
     1
 10
1437.944368878041
 20
957.665327898821
 11
1437.944368878041
 21
958.4256618777256
 72
     2
 10
1437.073058664567
 20
958.5059890209283
 40
0.8750051074362518
 50
354.7327216494953
 51
359.9999846161292
 73
     1
 72
     1
 10
1437.948063772003
 20
958.5059887859902
 11
1437.948063772002
 21
961.8309887859902
 72
     2
 10
1435.979313772003
 20
961.8309887859904
 40
1.96875
 50
359.9999999999984
 51
449.9999999999934
 73
     1
 72
     1
 10
1435.979313772003
 20
963.7997387859904
 11
1434.448063772002
 21
963.7997387859904
 72
     2
 10
1434.448063772003
 20
964.6747387859905
 40
0.8749999999999962
 50
90.00000000000182
 51
92.30722625893372
 73
     0
 72
     1
 10
1434.412838185961
 20
963.8004481260335
 11
1434.412838185961
 21
964.3063779709832
 72
     1
 10
1434.412838185961
 20
964.3063779709832
 11
1435.41283818596
 21
964.8949984934922
 72
     1
 10
1435.41283818596
 20
964.8949984934922
 11
1435.625735730702
 21
964.9144610892067
 72
     2
 10
1435.94436887804
 20
961.4289951350743
 40
3.500000000000003
 50
-95.22332769409894
 51
-0.000000000000229
 73
     0
 72
     1
 10
1439.44436887804
 20
961.4289951350743
 11
1439.44436887804
 21
957.665327898821
 72
     2
 10
1436.94436887804
 20
957.6653278988208
 40
2.500000000000007
 50
-0.0000000000013231
 51
88.34677441328848
 73
     0
 72
     2
 10
1437.04534466935
 20
954.1667847892439
 40
1.000000000000007
 50
451.6532255867144
 51
494.4493762462403
 73
     1
 72
     2
 10
1434.594368878041
 20
956.665327898821
 40
2.499999999999972
 50
45.55062375376541
 51
134.4153085971957
 73
     0
 72
     2
 10
1432.144879135257
 20
954.165327898821
 40
1.000000000000004
 50
405.5846914028054
 51
449.9999999999951
 73
     1
 72
     1
 10
1432.144879135257
 20
955.165327898821
 11
1429.84436887804
 21
955.165327898821
 97
        0
 75
     0
 76
     1
 52
0.0
 41
0.5
 77
     0
 78
     1
 53
45.0
 43
1099.500979633373
 44
1034.464742707062
 45
-1.122532015133643
 46
1.122532015133644
 79
     0
 47
0.0877722658561604
 98
        1
 10
1425.687428792932
 20
964.5975768896636
1001
ACAD
1010
0.0
1020
0.0
1030
0.0
  0
HATCH
  5
840
330
1F
100
AcDbEntity
  8
AM_8
100
AcDbHatch
 10
0.0
 20
0.0
 30
0.0
210
0.0
220
0.0
230
1.0
  2
_U
 70
     0
 71
     0
 91
        1
 92
        1
 93
       10
 72
     1
 10
1378.87436887804
 20
955.165327898821
 11
1380.302028262036
 21
955.165327898821
 72
     1
 10
1380.302028262036
 20
955.165327898821
 11
1380.302028262036
 21
933.2722544358839
 72
     1
 10
1380.302028262036
 20
933.2722544358837
 11
1380.408954799098
 21
933.1653278988207
 72
     1
 10
1380.408954799098
 20
933.1653278988207
 11
1380.87436887804
 21
933.1653278988207
 72
     1
 10
1380.87436887804
 20
933.1653278988207
 11
1380.87436887804
 21
961.8354820517588
 72
     2
 10
1368.87436887804
 20
961.8354820517588
 40
12.0
 50
0.0
 51
43.95982594506446
 73
     1
 72
     1
 10
1377.512289239112
 20
970.1653278988189
 11
1374.84436887804
 21
970.1653278988212
 72
     1
 10
1374.84436887804
 20
970.165327898821
 11
1376.336886322748
 21
968.4921203465311
 72
     2
 10
1368.87436887804
 20
961.8354820517588
 40
9.999999999999989
 50
318.2667272492994
 51
360.0
 73
     0
 72
     1
 10
1378.87436887804
 20
961.8354820517588
 11
1378.87436887804
 21
955.165327898821
 97
        0
 75
     0
 76
     0
 52
135.0
 41
2.7
 77
     0
 78
     1
 53
135.0
 43
1267.662408622357
 44
732.4090859211675
 45
-1.909188309203678
 46
-1.909188309203678
 79
     0
 98
        1
 10
918.2497125299056
 20
316.6672028584453
1001
GENIUS_GENODEF_13
1002
{
1000
HIER
1070
     0
1002
}
1002
{
1000
MANEDIT
1070
     0
1002
}
1002
{
1000
NOSEL
1070
     0
1002
}
1002
{
1000
BEHIND
1070
     0
1002
}
1002
{
1000
OTHER
1070
     0
1002
}
1002
{
1000
REACTOR
1002
}
1001
GENIUS_GENOBJ-N-HTC_13
1002
{
1000
OWNER
1000
GEN
1002
}
1001
GENIUS_GENHATCH_13
1002
{
1000
DATA
1040
135.0
1042
2.7
1000
_U
1070
     0
1011
1378.738285827529
1021
965.0503742609354
1031
0.0
1002
}
1002
{
1000
UCS
1010
0.0
1020
0.0
1030
0.0
1010
1.0
1020
0.0
1030
0.0
1010
0.0
1020
1.0
1030
0.0
1002
}
  0
LINE
  5
841
330
1F
100
AcDbEntity
  8
AM_7
  6
DASHDOT
100
AcDbLine
 10
1254.794483194446
 20
1188.944563429729
 30
0.0
 11
1254.794483194445
 21
1209.744566481487
 31
0.0
  0
LINE
  5
842
330
1F
100
AcDbEntity
  8
AM_7
  6
DASHDOT
 48
0.2925003051757812
100
AcDbLine
 10
1248.944477090929
 20
1217.344572585003
 30
0.0
 11
1260.644489297961
 21
1217.344572585003
 31
0.0
  0
LINE
  5
843
330
1F
100
AcDbEntity
  8
AM_7
  6
DASHDOT
 48
0.2925003051757812
100
AcDbLine
 10
1254.794483194445
 20
1211.494566481487
 30
0.0
 11
1254.794483194445
 21
1223.194578688518
 31
0.0
  0
ARC
  5
844
330
1F
100
AcDbEntity
  8
AM_3
100
AcDbCircle
 10
1254.794483194446
 20
1199.344572585003
 30
0.0
 40
7.999999999999999
100
AcDbArc
 50
124.2288655587314
 51
55.77113967758019
  0
LINE
  5
845
330
1F
100
AcDbEntity
  8
AM_3
 48
0.2846405029296875
100
AcDbLine
 10
1250.294483194445
 20
1217.344572585003
 30
0.0
 11
1250.294483194445
 21
1205.958952467815
 31
0.0
  0
LINE
  5
846
330
1F
100
AcDbEntity
  8
AM_3
 48
0.2846405029296875
100
AcDbLine
 10
1259.294483194445
 20
1205.958952467815
 30
0.0
 11
1259.294483194445
 21
1217.344572585003
 31
0.0
  0
ARC
  5
847
330
1F
100
AcDbEntity
  8
AM_3
100
AcDbCircle
 10
1254.794483194445
 20
1217.344572585003
 30
0.0
 40
4.499999999999999
100
AcDbArc
 50
0.000005008963459
 51
180.0
  0
LINE
  5
848
330
1F
100
AcDbEntity
  8
AM_7
  6
AM_DIN_G_W050x2
100
AcDbLine
 10
1240.794483194446
 20
1199.344572585003
 30
0.0
 11
1268.794483194445
 21
1199.344572585003
 31
0.0
1001
GENIUS_GENOBJ-N-CEN_13
1002
{
1000
OWNER
1000
GEN
1002
}
1001
GENIUS_GENODEF_13
1002
{
1000
HIER
1070
     0
1002
}
1002
{
1000
MANEDIT
1070
     0
1002
}
1002
{
1000
NOSEL
1070
     0
1002
}
1002
{
1000
BEHIND
1070
     0
1002
}
1002
{
1000
OTHER
1070
     0
1002
}
1002
{
1000
REACTOR
1002
}
1001
GENIUS_GENCEN_19
1002
{
1040
6.0
1002
}
  0
LINE
  5
849
330
1F
100
AcDbEntity
  8
AM_7
  6
DASHDOT
100
AcDbLine
 10
1529.394254561577
 20
1188.944563429769
 30
0.0
 11
1529.394254561571
 21
1209.744566481526
 31
0.0
  0
LINE
  5
84A
330
1F
100
AcDbEntity
  8
AM_7
  6
DASHDOT
 48
0.2925003051757812
100
AcDbLine
 10
1535.244260665085
 20
1217.344572585043
 30
0.0
 11
1523.544248458053
 21
1217.34457258504
 31
0.0
  0
LINE
  5
84B
330
1F
100
AcDbEntity
  8
AM_7
  6
DASHDOT
 48
0.2925003051757812
100
AcDbLine
 10
1529.39425456157
 20
1211.494566481526
 30
0.0
 11
1529.394254561568
 21
1223.194578688558
 31
0.0
  0
ARC
  5
84C
330
1F
100
AcDbEntity
  8
AM_3
100
AcDbCircle
 10
1529.394254561574
 20
1199.344572585042
 30
0.0
 40
7.999999999999999
100
AcDbArc
 50
124.2288603224379
 51
55.7711344412867
  0
LINE
  5
84D
330
1F
100
AcDbEntity
  8
AM_3
 48
0.2846405029296875
100
AcDbLine
 10
1533.894254561569
 20
1217.344572585043
 30
0.0
 11
1533.894254561572
 21
1205.958952467856
 31
0.0
  0
LINE
  5
84E
330
1F
100
AcDbEntity
  8
AM_3
 48
0.2846405029296875
100
AcDbLine
 10
1524.894254561572
 20
1205.958952467853
 30
0.0
 11
1524.894254561569
 21
1217.344572585041
 31
0.0
  0
ARC
  5
84F
330
1F
100
AcDbEntity
  8
AM_3
100
AcDbCircle
 10
1529.394254561569
 20
1217.344572585042
 30
0.0
 40
4.499999999999999
100
AcDbArc
 50
0.0000000000130276
 51
179.9999949910626
  0
LINE
  5
850
330
1F
100
AcDbEntity
  8
AM_7
  6
AM_DIN_G_W050x2
100
AcDbLine
 10
1543.394254561574
 20
1199.344572585046
 30
0.0
 11
1515.394254561574
 21
1199.344572585038
 31
0.0
1001
GENIUS_GENOBJ-N-CEN_13
1002
{
1000
OWNER
1000
GEN
1002
}
1001
GENIUS_GENODEF_13
1002
{
1000
HIER
1070
     0
1002
}
1002
{
1000
MANEDIT
1070
     0
1002
}
1002
{
1000
NOSEL
1070
     0
1002
}
1002
{
1000
BEHIND
1070
     0
1002
}
1002
{
1000
OTHER
1070
     0
1002
}
1002
{
1000
REACTOR
1002
}
1001
GENIUS_GENCEN_19
1002
{
1040
6.0
1002
}
  0
LINE
  5
851
330
1F
100
AcDbEntity
  8
AM_7
100
AcDbLine
 10
1392.09436887804
 20
978.1977109058345
 30
0.0
 11
1392.09436887804
 21
1367.9355740434
 31
0.0
1001
GENIUS_GENOBJ-N-CEN_13
1002
{
1000
OWNER
1000
GEN
1002
}
1001
GENIUS_GENODEF_13
1002
{
1000
HIER
1070
     0
1002
}
1002
{
1000
MANEDIT
1070
     0
1002
}
1002
{
1000
NOSEL
1070
     0
1002
}
1002
{
1000
BEHIND
1070
     0
1002
}
1002
{
1000
OTHER
1070
     0
1002
}
1002
{
1000
REACTOR
1002
}
1001
GENIUS_GENCEN_19
1002
{
1040
6.0
1002
}
  0
LINE
  5
852
102
{ACAD_REACTORS
330
862
102
}
330
1F
100
AcDbEntity
  8
AM_7
  6
DASHDOT
100
AcDbLine
 10
1952.772011853229
 20
1329.852986786979
 30
0.0
 11
1931.97202406026
 21
1329.852986786979
 31
0.0
  0
LINE
  5
853
330
1F
100
AcDbEntity
  8
AM_7
  6
DASHDOT
100
AcDbLine
 10
1942.372017956744
 20
1319.452977631706
 30
0.0
 11
1942.372017956744
 21
1340.252980683464
 31
0.0
  0
LINE
  5
854
330
1F
100
AcDbEntity
  8
AM_7
  6
DASHDOT
 48
0.2925003051757812
100
AcDbLine
 10
1948.22202406026
 20
1347.852986786979
 30
0.0
 11
1936.522011853229
 21
1347.852986786979
 31
0.0
  0
LINE
  5
855
102
{ACAD_REACTORS
330
862
102
}
330
1F
100
AcDbEntity
  8
AM_7
  6
DASHDOT
 48
0.2925003051757812
100
AcDbLine
 10
1942.372017956744
 20
1342.002980683464
 30
0.0
 11
1942.372017956744
 21
1353.702992890495
 31
0.0
  0
ARC
  5
856
102
{ACAD_REACTORS
330
85F
102
}
330
1F
100
AcDbEntity
  8
0
 62
     7
100
AcDbCircle
 10
1942.372017956744
 20
1329.852986786979
 30
0.0
 40
8.0
100
AcDbArc
 50
124.2288603223915
 51
55.77113444126907
  0
LINE
  5
857
330
1F
100
AcDbEntity
  8
0
 62
     7
 48
0.2846405029296875
100
AcDbLine
 10
1946.872017956745
 20
1347.852986786979
 30
0.0
 11
1946.872017956745
 21
1336.467366669792
 31
0.0
  0
LINE
  5
858
330
1F
100
AcDbEntity
  8
0
 62
     7
 48
0.2846405029296875
100
AcDbLine
 10
1937.872017956745
 20
1336.467366669792
 30
0.0
 11
1937.872017956745
 21
1347.852986786979
 31
0.0
  0
ARC
  5
859
102
{ACAD_REACTORS
330
85C
102
}
330
1F
100
AcDbEntity
  8
0
 62
     7
100
AcDbCircle
 10
1942.372017956744
 20
1347.852986786979
 30
0.0
 40
4.5
100
AcDbArc
 50
0.0
 51
179.9999949910495
  0
DIMENSION
  5
85A
102
{ACAD_XDICTIONARY
360
85B
102
}
102
{ACAD_REACTORS
330
85C
102
}
330
1F
100
AcDbEntity
  8
AM_5
100
AcDbDimension
  2
*D24
 10
1942.372017956744
 20
1347.852986786979
 30
0.0
 11
1962.585204582978
 21
1359.207362793537
 31
0.0
 70
   164
 71
     5
 42
4.500000000002273
 73
     0
 74
     0
 75
     0
  3
AM_DIN$4
100
AcDbRadialDimension
 15
1945.170773367594
 25
1351.376758651084
 35
0.0
 40
0.0
1001
ACAD
1000
DSTYLE
1002
{
1070
    40
1040
2.0
1002
}
  0
DIMENSION
  5
85D
102
{ACAD_XDICTIONARY
360
85E
102
}
102
{ACAD_REACTORS
330
85F
102
}
330
1F
100
AcDbEntity
  8
AM_5
100
AcDbDimension
  2
*D25
 10
1942.372017956744
 20
1329.852986786979
 30
0.0
 11
1965.843219751002
 21
1321.794830355411
 31
0.0
 70
   164
 71
     5
 42
8.000000000002046
 73
     0
 74
     0
 75
     0
  3
AM_DIN$4
100
AcDbRadialDimension
 15
1949.541032081298
 25
1326.302601387902
 35
0.0
 40
0.0
1001
ACAD
1000
DSTYLE
1002
{
1070
    40
1040
2.0
1002
}
  0
DIMENSION
  5
860
102
{ACAD_XDICTIONARY
360
861
102
}
102
{ACAD_REACTORS
330
862
102
}
330
1F
100
AcDbEntity
  8
AM_5
100
AcDbDimension
  2
*D26
 10
1918.372017956744
 20
1347.852986786979
 30
0.0
 11
1911.872017956744
 21
1338.85298678698
 31
0.0
 70
    32
 71
     5
 42
18.0
 73
     0
 74
     0
 75
     0
  3
AM_DIN$0
100
AcDbAlignedDimension
 13
1942.372017956744
 23
1329.852986786979
 33
0.0
 14
1942.372017956744
 24
1347.852986786979
 34
0.0
 50
90.0
100
AcDbRotatedDimension
1001
ACAD
1000
DSTYLE
1002
{
1070
    40
1040
2.0
1002
}
  0
LINE
  5
863
330
1F
100
AcDbEntity
  8
AM_7
  6
DASHDOT
100
AcDbLine
 10
1657.472024060262
 20
1329.852986786979
 30
0.0
 11
1678.272011853231
 21
1329.852986786979
 31
0.0
  0
LINE
  5
864
330
1F
100
AcDbEntity
  8
AM_7
  6
DASHDOT
100
AcDbLine
 10
1667.872017956746
 20
1319.452977631706
 30
0.0
 11
1667.872017956746
 21
1340.252980683464
 31
0.0
  0
LINE
  5
865
330
1F
100
AcDbEntity
  8
AM_7
  6
DASHDOT
 48
0.2925003051757812
100
AcDbLine
 10
1662.022011853231
 20
1347.852986786979
 30
0.0
 11
1673.722024060262
 21
1347.852986786979
 31
0.0
  0
LINE
  5
866
330
1F
100
AcDbEntity
  8
AM_7
  6
DASHDOT
 48
0.2925003051757812
100
AcDbLine
 10
1667.872017956746
 20
1342.002980683464
 30
0.0
 11
1667.872017956746
 21
1353.702992890495
 31
0.0
  0
ARC
  5
867
330
1F
100
AcDbEntity
  8
0
 62
     7
100
AcDbCircle
 10
1667.872017956746
 20
1329.852986786979
 30
0.0
 40
8.000000000000001
100
AcDbArc
 50
124.2288655587309
 51
55.77113967760842
  0
LINE
  5
868
330
1F
100
AcDbEntity
  8
0
 62
     7
 48
0.2846405029296875
100
AcDbLine
 10
1663.372017956747
 20
1347.852986786979
 30
0.0
 11
1663.372017956747
 21
1336.467366669792
 31
0.0
  0
LINE
  5
869
330
1F
100
AcDbEntity
  8
0
 62
     7
 48
0.2846405029296875
100
AcDbLine
 10
1672.372017956747
 20
1336.467366669792
 30
0.0
 11
1672.372017956747
 21
1347.852986786979
 31
0.0
  0
ARC
  5
86A
330
1F
100
AcDbEntity
  8
0
 62
     7
100
AcDbCircle
 10
1667.872017956746
 20
1347.852986786979
 30
0.0
 40
4.5
100
AcDbArc
 50
0.0000050089504314
 51
180.0
  0
LWPOLYLINE
  5
A2D
330
1F
100
AcDbEntity
  8
AM_0
100
AcDbPolyline
 90
        4
 70
     1
 43
0.0
 10
1133.562738725319
 20
1429.14409693593
 10
2043.154317262199
 20
1429.14409693593
 10
2043.154317262199
 20
814.7197486834498
 10
1133.562738725319
 20
814.71974868345
1001
GENIUS_GENREC_14
1002
{
1000
PYDIR
1011
1133.562738725318
1021
814.7197486834498
1031
0.0
1002
}
1002
{
1000
PXDIR
1011
2043.154317262199
1021
1429.14409693593
1031
0.0
1002
}
1002
{
1000
PORI
1011
1133.562738725319
1021
1429.14409693593
1031
0.0
1002
}
1002
{
1000
PINS
1011
1133.562738725319
1021
1429.14409693593
1031
0.0
1002
}
1002
{
1000
PINS2
1011
2043.154317262199
1021
814.71974868345
1031
0.0
1002
}
1002
{
1000
C
1070
     1
1002
}
1001
GENIUS_GENODEF_13
1002
{
1000
HIER
1070
     0
1002
}
1002
{
1000
MANEDIT
1070
     0
1002
}
1002
{
1000
NOSEL
1070
     0
1002
}
1002
{
1000
BEHIND
1070
     0
1002
}
1002
{
1000
OTHER
1070
     0
1002
}
1002
{
1000
REACTOR
1002
}
1001
GENIUS_GENOBJ-N-REC_13
1002
{
1000
OWNER
1000
GEN
1002
}
  0
TEXT
  5
A2E
330
1F
100
AcDbEntity
  8
0
100
AcDbText
 10
1669.940200892802
 20
880.618631899744
 30
0.0
 40
14.0
  1
10 bar - 70°C
 72
     1
 11
1728.740200892802
 21
878.7519652330773
 31
0.0
100
AcDbText
 73
     1
  0
TEXT
  5
A2F
330
1F
100
AcDbEntity
  8
0
100
AcDbText
 10
1657.340200892802
 20
907.2186318997442
 30
0.0
 40
14.0
  1
Typ refix DE 33l
 72
     1
 11
1728.740200892802
 21
905.3519652330775
 31
0.0
100
AcDbText
 73
     1
  0
TEXT
  5
A30
330
1F
100
AcDbEntity
  8
0
100
AcDbText
 10
1626.287738772556
 20
933.8186318997442
 30
0.0
 40
14.0
  1
Druckausdehnungsgefäß
 72
     1
 11
1728.740200892802
 21
931.9519652330773
 31
0.0
100
AcDbText
 73
     1
  0
TEXT
  5
A31
330
1F
100
AcDbEntity
  8
AM_6
100
AcDbText
 10
1829.768199992802
 20
904.9669735255802
 30
0.0
 40
8.399999999999998
  1
Reflex Winkelmann GmbH
 41
0.95
 72
     1
 11
1890.416199992801
 21
904.9669735255802
 31
0.0
100
AcDbText
  0
TEXT
  5
A32
330
1F
100
AcDbEntity
  8
AM_6
100
AcDbText
 10
1858.886215420553
 20
893.18206892558
 30
0.0
 40
8.399999999999998
  1
59227 Ahlen
 72
     1
 11
1890.553115092801
 21
893.18206892558
 31
0.0
100
AcDbText
  0
LINE
  5
A33
330
1F
100
AcDbEntity
  8
AM_0
 62
     7
100
AcDbLine
 10
1870.719631642802
 20
933.9260151255803
 30
0.0
 11
1870.719631642802
 21
936.1739154255801
 31
0.0
  0
LINE
  5
A34
330
1F
100
AcDbEntity
  8
AM_0
 62
     7
100
AcDbLine
 10
1870.719631642802
 20
936.1739154255801
 30
0.0
 11
1869.034658842802
 21
936.1739154255801
 31
0.0
  0
SPLINE
  5
A35
330
1F
100
AcDbEntity
  8
AM_0
 62
     7
100
AcDbSpline
210
0.0
220
0.0
230
1.0
 70
     8
 71
     3
 72
     8
 73
     4
 74
     0
 42
0.0000000001
 43
0.0000000001
 40
8.739716666666684
 40
8.739716666666684
 40
8.739716666666684
 40
8.739716666666684
 40
9.739716666666687
 40
9.739716666666687
 40
9.739716666666687
 40
9.739716666666687
 10
1869.034658967802
 20
936.1739152755804
 30
0.0
 10
1866.636898967802
 20
936.1739152755804
 30
0.0
 10
1865.535173967802
 20
934.7040490255803
 30
0.0
 10
1865.535173967802
 20
932.3912202755803
 30
0.0
  0
LINE
  5
A36
330
1F
100
AcDbEntity
  8
AM_0
 62
     7
100
AcDbLine
 10
1865.535173992802
 20
932.3912203755803
 30
0.0
 11
1865.535173992802
 21
925.1546016255801
 31
0.0
  0
LINE
  5
A37
330
1F
100
AcDbEntity
  8
AM_0
 62
     7
100
AcDbLine
 10
1865.535173992802
 20
925.1546016255801
 30
0.0
 11
1867.911502942802
 21
925.1546016255801
 31
0.0
  0
LINE
  5
A38
330
1F
100
AcDbEntity
  8
AM_0
 62
     7
100
AcDbLine
 10
1867.911502942802
 20
925.1546016255801
 30
0.0
 11
1867.911502942802
 21
932.1751614255802
 31
0.0
  0
SPLINE
  5
A39
330
1F
100
AcDbEntity
  8
AM_0
 62
     7
100
AcDbSpline
210
0.0
220
0.0
230
1.0
 70
     8
 71
     3
 72
     8
 73
     4
 74
     0
 42
0.0000000001
 43
0.0000000001
 40
46.70306666666665
 40
46.70306666666665
 40
46.70306666666665
 40
46.70306666666665
 40
47.70306666666665
 40
47.70306666666665
 40
47.70306666666665
 40
47.70306666666665
 10
1867.911502717802
 20
932.1751615255802
 30
0.0
 10
1867.911502717802
 20
933.2557727755801
 30
0.0
 10
1868.365051467802
 20
933.9260152755803
 30
0.0
 10
1869.531546467803
 20
933.9260152755803
 30
0.0
  0
LINE
  5
A3A
330
1F
100
AcDbEntity
  8
AM_0
 62
     7
100
AcDbLine
 10
1869.531546592803
 20
933.9260151255803
 30
0.0
 11
1870.719631642802
 21
933.9260151255803
 31
0.0
  0
LINE
  5
A3B
330
1F
100
AcDbEntity
  8
AM_0
 62
     7
100
AcDbLine
 10
1879.726900042802
 20
929.7558750255802
 30
0.0
 11
1879.726900042802
 21
931.9158273255803
 31
0.0
  0
SPLINE
  5
A3C
330
1F
100
AcDbEntity
  8
AM_0
 62
     7
100
AcDbSpline
210
0.0
220
0.0
230
1.0
 70
     8
 71
     3
 72
     8
 73
     4
 74
     0
 42
0.0000000001
 43
0.0000000001
 40
4.799894444444446
 40
4.799894444444446
 40
4.799894444444446
 40
4.799894444444446
 40
5.799894444444446
 40
5.799894444444446
 40
5.799894444444446
 40
5.799894444444446
 10
1879.726900092802
 20
931.9158275255801
 30
0.0
 10
1879.726900092802
 20
934.4666225255803
 30
0.0
 10
1878.430865092802
 20
936.1741375255803
 30
0.0
 10
1875.881657592802
 20
936.1741375255803
 30
0.0
  0
LINE
  5
A3D
330
1F
100
AcDbEntity
  8
AM_0
 62
     7
100
AcDbLine
 10
1875.881657692802
 20
936.1741377255803
 30
0.0
 11
1875.428267392802
 21
936.1741377255803
 31
0.0
  0
SPLINE
  5
A3E
330
1F
100
AcDbEntity
  8
AM_0
 62
     7
100
AcDbSpline
210
0.0
220
0.0
230
1.0
 70
     8
 71
     3
 72
     8
 73
     4
 74
     0
 42
0.0000000001
 43
0.0000000001
 40
6.807427777777782
 40
6.807427777777782
 40
6.807427777777782
 40
6.807427777777782
 40
7.807427777777782
 40
7.807427777777782
 40
7.807427777777782
 40
7.807427777777782
 10
1875.428267592802
 20
936.1741375255803
 30
0.0
 10
1872.857470092802
 20
936.1741375255803
 30
0.0
 10
1871.518255092802
 20
934.4666225255803
 30
0.0
 10
1871.518255092802
 20
931.9158275255801
 30
0.0
  0
LINE
  5
A3F
330
1F
100
AcDbEntity
  8
AM_0
 62
     7
100
AcDbLine
 10
1871.518255192802
 20
931.9158273255803
 30
0.0
 11
1871.518255192802
 21
929.4102763755802
 31
0.0
  0
SPLINE
  5
A40
330
1F
100
AcDbEntity
  8
AM_0
 62
     7
100
AcDbSpline
210
0.0
220
0.0
230
1.0
 70
     8
 71
     3
 72
     8
 73
     4
 74
     0
 42
0.0000000001
 43
0.0000000001
 40
13.37531944444445
 40
13.37531944444445
 40
13.37531944444445
 40
13.37531944444445
 40
14.37531944444445
 40
14.37531944444445
 40
14.37531944444445
 40
14.37531944444445
 10
1871.518255092802
 20
929.4102762755803
 30
0.0
 10
1871.518255092802
 20
926.5803987755802
 30
0.0
 10
1873.095118842802
 20
925.1546650255802
 30
0.0
 10
1875.708778842802
 20
925.1546650255802
 30
0.0
  0
LINE
  5
A41
330
1F
100
AcDbEntity
  8
AM_0
 62
     7
100
AcDbLine
 10
1875.708778942802
 20
925.1546650755802
 30
0.0
 11
1879.186832542802
 21
925.1546650755802
 31
0.0
  0
LINE
  5
A42
330
1F
100
AcDbEntity
  8
AM_0
 62
     7
100
AcDbLine
 10
1879.186832542802
 20
925.1546650755802
 30
0.0
 11
1879.186832542802
 21
927.2717548755805
 31
0.0
  0
LINE
  5
A43
330
1F
100
AcDbEntity
  8
AM_0
 62
     7
100
AcDbLine
 10
1879.186832542802
 20
927.2717548755805
 30
0.0
 11
1875.924996292802
 21
927.2717548755805
 31
0.0
  0
SPLINE
  5
A44
330
1F
100
AcDbEntity
  8
AM_0
 62
     7
100
AcDbSpline
210
0.0
220
0.0
230
1.0
 70
     8
 71
     3
 72
     8
 73
     4
 74
     0
 42
0.0000000001
 43
0.0000000001
 40
34.05749722222223
 40
34.05749722222223
 40
34.05749722222223
 40
34.05749722222223
 40
35.05749722222223
 40
35.05749722222223
 40
35.05749722222223
 40
35.05749722222223
 10
1875.924996342802
 20
927.2717550255803
 30
0.0
 10
1874.564191342802
 20
927.2717550255803
 30
0.0
 10
1873.894266342803
 20
928.1140825255802
 30
0.0
 10
1873.894266342803
 20
929.2589875255803
 30
0.0
  0
LINE
  5
A45
330
1F
100
AcDbEntity
  8
AM_0
 62
     7
100
AcDbLine
 10
1873.894266442802
 20
929.2589877255803
 30
0.0
 11
1873.894266442802
 21
929.7558750255802
 31
0.0
  0
LINE
  5
A46
330
1F
100
AcDbEntity
  8
AM_0
 62
     7
100
AcDbLine
 10
1873.894266442802
 20
929.7558750255802
 30
0.0
 11
1879.726900042802
 21
929.7558750255802
 31
0.0
  0
LINE
  5
A47
330
1F
100
AcDbEntity
  8
AM_0
 62
     7
100
AcDbLine
 10
1877.350571542802
 20
931.5272073255803
 30
0.0
 11
1873.894266442802
 21
931.5272073255803
 31
0.0
  0
LINE
  5
A48
330
1F
100
AcDbEntity
  8
AM_0
 62
     7
100
AcDbLine
 10
1873.894266442802
 20
931.5272073255803
 30
0.0
 11
1873.894266442802
 21
932.1320451255804
 31
0.0
  0
SPLINE
  5
A49
330
1F
100
AcDbEntity
  8
AM_0
 62
     7
100
AcDbSpline
210
0.0
220
0.0
230
1.0
 70
     8
 71
     3
 72
     8
 73
     4
 74
     0
 42
0.0000000001
 43
0.0000000001
 40
9.024761111111118
 40
9.024761111111118
 40
9.024761111111118
 40
9.024761111111118
 40
10.02476111111112
 40
10.02476111111112
 40
10.02476111111112
 40
10.02476111111112
 10
1873.894266342803
 20
932.1320450255802
 30
0.0
 10
1873.894266342803
 20
933.2126562755801
 30
0.0
 10
1874.304952592802
 20
934.1854762755804
 30
0.0
 10
1875.449857592802
 20
934.1854762755804
 30
0.0
  0
LINE
  5
A4A
330
1F
100
AcDbEntity
  8
AM_0
 62
     7
100
AcDbLine
 10
1875.449857492802
 20
934.1854761255801
 30
0.0
 11
1875.816887392802
 21
934.1854761255801
 31
0.0
  0
SPLINE
  5
A4B
330
1F
100
AcDbEntity
  8
AM_0
 62
     7
100
AcDbSpline
210
0.0
220
0.0
230
1.0
 70
     8
 71
     3
 72
     8
 73
     4
 74
     0
 42
0.0000000001
 43
0.0000000001
 40
10.84038333333334
 40
10.84038333333334
 40
10.84038333333334
 40
10.84038333333334
 40
11.84038333333335
 40
11.84038333333335
 40
11.84038333333335
 40
11.84038333333335
 10
1875.816887592802
 20
934.1854762755804
 30
0.0
 10
1876.961951342803
 20
934.1854762755804
 30
0.0
 10
1877.350571342802
 20
933.2126562755801
 30
0.0
 10
1877.350571342802
 20
932.1320450255802
 30
0.0
  0
LINE
  5
A4C
330
1F
100
AcDbEntity
  8
AM_0
 62
     7
100
AcDbLine
 10
1877.350571542802
 20
932.1320451255804
 30
0.0
 11
1877.350571542802
 21
931.5272073255803
 31
0.0
  0
LINE
  5
A4D
330
1F
100
AcDbEntity
  8
AM_0
 62
     7
100
AcDbLine
 10
1886.152719142802
 20
938.2908625755803
 30
0.0
 11
1886.152719142802
 21
940.4941534755803
 31
0.0
  0
LINE
  5
A4E
330
1F
100
AcDbEntity
  8
AM_0
 62
     7
100
AcDbLine
 10
1886.152719142802
 20
940.4941534755803
 30
0.0
 11
1884.575855242802
 21
940.4941534755803
 31
0.0
  0
SPLINE
  5
A4F
330
1F
100
AcDbEntity
  8
AM_0
 62
     7
100
AcDbSpline
210
0.0
220
0.0
230
1.0
 70
     8
 71
     3
 72
     8
 73
     4
 74
     0
 42
0.0000000001
 43
0.0000000001
 40
8.400344444444428
 40
8.400344444444428
 40
8.400344444444428
 40
8.400344444444428
 40
9.400344444444428
 40
9.400344444444428
 40
9.400344444444428
 40
9.400344444444428
 10
1884.575855342802
 20
940.4941536505802
 30
0.0
 10
1882.977242842802
 20
940.4941536505802
 30
0.0
 10
1881.724229092802
 20
939.6950061505803
 30
0.0
 10
1881.724229092802
 20
937.3836061505803
 30
0.0
  0
LINE
  5
A50
330
1F
100
AcDbEntity
  8
AM_0
 62
     7
100
AcDbLine
 10
1881.724229092802
 20
937.3836063255803
 30
0.0
 11
1881.724229092802
 21
936.1739311755803
 31
0.0
  0
LINE
  5
A51
330
1F
100
AcDbEntity
  8
AM_0
 62
     7
100
AcDbLine
 10
1881.724229092802
 20
936.1739311755803
 30
0.0
 11
1880.212293892802
 21
936.1739311755803
 31
0.0
  0
LINE
  5
A52
330
1F
100
AcDbEntity
  8
AM_0
 62
     7
100
AcDbLine
 10
1880.212293892802
 20
936.1739311755803
 30
0.0
 11
1880.212293892802
 21
934.0773199755803
 31
0.0
  0
LINE
  5
A53
330
1F
100
AcDbEntity
  8
AM_0
 62
     7
100
AcDbLine
 10
1880.212293892802
 20
934.0773199755803
 30
0.0
 11
1881.724229092802
 21
934.0773199755803
 31
0.0
  0
LINE
  5
A54
330
1F
100
AcDbEntity
  8
AM_0
 62
     7
100
AcDbLine
 10
1881.724229092802
 20
934.0773199755803
 30
0.0
 11
1881.724229092802
 21
925.1547762255801
 31
0.0
  0
LINE
  5
A55
330
1F
100
AcDbEntity
  8
AM_0
 62
     7
100
AcDbLine
 10
1881.724229092802
 20
925.1547762255801
 30
0.0
 11
1884.100558042802
 21
925.1547762255801
 31
0.0
  0
LINE
  5
A56
330
1F
100
AcDbEntity
  8
AM_0
 62
     7
100
AcDbLine
 10
1884.100558042802
 20
925.1547762255801
 30
0.0
 11
1884.100558042802
 21
934.0773199755803
 31
0.0
  0
LINE
  5
A57
330
1F
100
AcDbEntity
  8
AM_0
 62
     7
100
AcDbLine
 10
1884.100558042802
 20
934.0773199755803
 30
0.0
 11
1885.936660192802
 21
934.0773199755803
 31
0.0
  0
LINE
  5
A58
330
1F
100
AcDbEntity
  8
AM_0
 62
     7
100
AcDbLine
 10
1885.936660192802
 20
934.0773199755803
 30
0.0
 11
1885.936660192802
 21
936.1739311755803
 31
0.0
  0
LINE
  5
A59
330
1F
100
AcDbEntity
  8
AM_0
 62
     7
100
AcDbLine
 10
1885.936660192802
 20
936.1739311755803
 30
0.0
 11
1884.100558042802
 21
936.1739311755803
 31
0.0
  0
LINE
  5
A5A
330
1F
100
AcDbEntity
  8
AM_0
 62
     7
100
AcDbLine
 10
1884.100558042802
 20
936.1739311755803
 30
0.0
 11
1884.100558042802
 21
937.2972459255802
 31
0.0
  0
SPLINE
  5
A5B
330
1F
100
AcDbEntity
  8
AM_0
 62
     7
100
AcDbSpline
210
0.0
220
0.0
230
1.0
 70
     8
 71
     3
 72
     8
 73
     4
 74
     0
 42
0.0000000001
 43
0.0000000001
 40
83.7196861111111
 40
83.7196861111111
 40
83.7196861111111
 40
83.7196861111111
 40
84.7196861111111
 40
84.7196861111111
 40
84.7196861111111
 40
84.7196861111111
 10
1884.100557842802
 20
937.2972461505803
 30
0.0
 10
1884.100557842802
 20
938.0963936505802
 30
0.0
 10
1884.532675342802
 20
938.2908624005803
 30
0.0
 10
1885.029404092802
 20
938.2908624005803
 30
0.0
  0
LINE
  5
A5C
330
1F
100
AcDbEntity
  8
AM_0
 62
     7
100
AcDbLine
 10
1885.029403942802
 20
938.2908625755803
 30
0.0
 11
1886.152719142802
 21
938.2908625755803
 31
0.0
  0
LINE
  5
A5D
330
1F
100
AcDbEntity
  8
AM_0
 62
     7
100
AcDbLine
 10
1889.770663342802
 20
940.4940585255802
 30
0.0
 11
1887.394493242802
 21
940.4940585255802
 31
0.0
  0
LINE
  5
A5E
330
1F
100
AcDbEntity
  8
AM_0
 62
     7
100
AcDbLine
 10
1887.394493242802
 20
940.4940585255802
 30
0.0
 11
1887.394493242802
 21
925.1543635755803
 31
0.0
  0
LINE
  5
A5F
330
1F
100
AcDbEntity
  8
AM_0
 62
     7
100
AcDbLine
 10
1887.394493242802
 20
925.1543635755803
 30
0.0
 11
1889.770663342802
 21
925.1543635755803
 31
0.0
  0
LINE
  5
A60
330
1F
100
AcDbEntity
  8
AM_0
 62
     7
100
AcDbLine
 10
1889.770663342802
 20
925.1543635755803
 30
0.0
 11
1889.770663342802
 21
940.4940585255802
 31
0.0
  0
LINE
  5
A61
330
1F
100
AcDbEntity
  8
AM_0
 62
     7
100
AcDbLine
 10
1899.621973792802
 20
929.7557161755802
 30
0.0
 11
1899.621973792802
 21
931.9158273255803
 31
0.0
  0
SPLINE
  5
A62
330
1F
100
AcDbEntity
  8
AM_0
 62
     7
100
AcDbSpline
210
0.0
220
0.0
230
1.0
 70
     8
 71
     3
 72
     8
 73
     4
 74
     0
 42
0.0000000001
 43
0.0000000001
 40
4.800247222222195
 40
4.800247222222195
 40
4.800247222222195
 40
4.800247222222195
 40
5.800247222222195
 40
5.800247222222195
 40
5.800247222222195
 40
5.800247222222195
 10
1899.621973967802
 20
931.9158275255801
 30
0.0
 10
1899.621973967802
 20
934.4663050255803
 30
0.0
 10
1898.325938967802
 20
936.1739787755803
 30
0.0
 10
1895.776731467802
 20
936.1739787755803
 30
0.0
  0
LINE
  5
A63
330
1F
100
AcDbEntity
  8
AM_0
 62
     7
100
AcDbLine
 10
1895.776731442802
 20
936.1739788755803
 30
0.0
 11
1895.323023892802
 21
936.1739788755803
 31
0.0
  0
SPLINE
  5
A64
330
1F
100
AcDbEntity
  8
AM_0
 62
     7
100
AcDbSpline
210
0.0
220
0.0
230
1.0
 70
     8
 71
     3
 72
     8
 73
     4
 74
     0
 42
0.0000000001
 43
0.0000000001
 40
6.808486111111078
 40
6.808486111111078
 40
6.808486111111078
 40
6.808486111111078
 40
7.808486111111077
 40
7.808486111111077
 40
7.808486111111077
 40
7.808486111111077
 10
1895.323023967802
 20
936.1739787755803
 30
0.0
 10
1892.752543967802
 20
936.1739787755803
 30
0.0
 10
1891.413170217802
 20
934.4663050255803
 30
0.0
 10
1891.413170217802
 20
931.9158275255801
 30
0.0
  0
LINE
  5
A65
330
1F
100
AcDbEntity
  8
AM_0
 62
     7
100
AcDbLine
 10
1891.413170092802
 20
931.9158273255803
 30
0.0
 11
1891.413170092802
 21
929.4101175255802
 31
0.0
  0
SPLINE
  5
A66
330
1F
100
AcDbEntity
  8
AM_0
 62
     7
100
AcDbSpline
210
0.0
220
0.0
230
1.0
 70
     8
 71
     3
 72
     8
 73
     4
 74
     0
 42
0.0000000001
 43
0.0000000001
 40
13.37673055555552
 40
13.37673055555552
 40
13.37673055555552
 40
13.37673055555552
 40
14.37673055555552
 40
14.37673055555552
 40
14.37673055555552
 40
14.37673055555552
 10
1891.413170217802
 20
929.4101175255802
 30
0.0
 10
1891.413170217802
 20
926.5802400255802
 30
0.0
 10
1892.990351467802
 20
925.1546650255802
 30
0.0
 10
1895.603852717803
 20
925.1546650255802
 30
0.0
  0
LINE
  5
A67
330
1F
100
AcDbEntity
  8
AM_0
 62
     7
100
AcDbLine
 10
1895.603852692802
 20
925.1546650755802
 30
0.0
 11
1899.081906292802
 21
925.1546650755802
 31
0.0
  0
LINE
  5
A68
330
1F
100
AcDbEntity
  8
AM_0
 62
     7
100
AcDbLine
 10
1899.081906292802
 20
925.1546650755802
 30
0.0
 11
1899.081906292802
 21
927.2717548755805
 31
0.0
  0
LINE
  5
A69
330
1F
100
AcDbEntity
  8
AM_0
 62
     7
100
AcDbLine
 10
1899.081906292802
 20
927.2717548755805
 30
0.0
 11
1895.820070042802
 21
927.2717548755805
 31
0.0
  0
SPLINE
  5
A6A
330
1F
100
AcDbEntity
  8
AM_0
 62
     7
100
AcDbSpline
210
0.0
220
0.0
230
1.0
 70
     8
 71
     3
 72
     8
 73
     4
 74
     0
 42
0.0000000001
 43
0.0000000001
 40
34.05890833333331
 40
34.05890833333331
 40
34.05890833333331
 40
34.05890833333331
 40
35.05890833333331
 40
35.05890833333331
 40
35.05890833333331
 40
35.05890833333331
 10
1895.820070217802
 20
927.2717550255803
 30
0.0
 10
1894.459265217802
 20
927.2717550255803
 30
0.0
 10
1893.789498967802
 20
928.1139237755803
 30
0.0
 10
1893.789498967802
 20
929.2588287755803
 30
0.0
  0
LINE
  5
A6B
330
1F
100
AcDbEntity
  8
AM_0
 62
     7
100
AcDbLine
 10
1893.789499042802
 20
929.2588288755803
 30
0.0
 11
1893.789499042802
 21
929.7557161755802
 31
0.0
  0
LINE
  5
A6C
330
1F
100
AcDbEntity
  8
AM_0
 62
     7
100
AcDbLine
 10
1893.789499042802
 20
929.7557161755802
 30
0.0
 11
1899.621973792802
 21
929.7557161755802
 31
0.0
  0
LINE
  5
A6D
330
1F
100
AcDbEntity
  8
AM_0
 62
     7
100
AcDbLine
 10
1897.245645292802
 20
931.5270489255803
 30
0.0
 11
1893.789499042802
 21
931.5270489255803
 31
0.0
  0
LINE
  5
A6E
330
1F
100
AcDbEntity
  8
AM_0
 62
     7
100
AcDbLine
 10
1893.789499042802
 20
931.5270489255803
 30
0.0
 11
1893.789499042802
 21
932.1320451255804
 31
0.0
  0
SPLINE
  5
A6F
330
1F
100
AcDbEntity
  8
AM_0
 62
     7
100
AcDbSpline
210
0.0
220
0.0
230
1.0
 70
     8
 71
     3
 72
     8
 73
     4
 74
     0
 42
0.0000000001
 43
0.0000000001
 40
9.024761111111132
 40
9.024761111111132
 40
9.024761111111132
 40
9.024761111111132
 40
10.02476111111113
 40
10.02476111111113
 40
10.02476111111113
 40
10.02476111111113
 10
1893.789498967802
 20
932.1320450255802
 30
0.0
 10
1893.789498967802
 20
933.2126562755801
 30
0.0
 10
1894.200026467802
 20
934.1853175255803
 30
0.0
 10
1895.344772717802
 20
934.1853175255803
 30
0.0
  0
LINE
  5
A70
330
1F
100
AcDbEntity
  8
AM_0
 62
     7
100
AcDbLine
 10
1895.344772842802
 20
934.1853177255803
 30
0.0
 11
1895.711961592802
 21
934.1853177255803
 31
0.0
  0
SPLINE
  5
A71
330
1F
100
AcDbEntity
  8
AM_0
 62
     7
100
AcDbSpline
210
0.0
220
0.0
230
1.0
 70
     8
 71
     3
 72
     8
 73
     4
 74
     0
 42
0.0000000001
 43
0.0000000001
 40
10.84073611111112
 40
10.84073611111112
 40
10.84073611111112
 40
10.84073611111112
 40
11.84073611111112
 40
11.84073611111112
 40
11.84073611111112
 40
11.84073611111112
 10
1895.711961467802
 20
934.1853175255803
 30
0.0
 10
1896.856866467802
 20
934.1853175255803
 30
0.0
 10
1897.245645217802
 20
933.2126562755801
 30
0.0
 10
1897.245645217802
 20
932.1320450255802
 30
0.0
  0
LINE
  5
A72
330
1F
100
AcDbEntity
  8
AM_0
 62
     7
100
AcDbLine
 10
1897.245645292802
 20
932.1320451255804
 30
0.0
 11
1897.245645292802
 21
931.5270489255803
 31
0.0
  0
SPLINE
  5
A73
330
1F
100
AcDbEntity
  8
AM_0
 62
     7
100
AcDbSpline
210
0.0
220
0.0
230
1.0
 70
     8
 71
     3
 72
     8
 73
     4
 74
     0
 42
0.0000000001
 43
0.0000000001
 40
0.0
 40
0.0
 40
0.0
 40
0.0
 40
1.0
 40
1.0
 40
1.0
 40
1.0
 10
1907.499942717802
 20
930.6831814005802
 30
0.0
 10
1908.471016467802
 20
931.4189876505801
 30
0.0
 10
1908.971837769343
 20
932.6059614054981
 30
0.0
 10
1908.971713967802
 20
934.1642514005803
 30
0.0
  0
LINE
  5
A74
330
1F
100
AcDbEntity
  8
AM_0
 62
     7
100
AcDbLine
 10
1908.971713792802
 20
934.1642514255804
 30
0.0
 11
1908.971555392802
 21
936.1624377255802
 31
0.0
  0
LINE
  5
A75
330
1F
100
AcDbEntity
  8
AM_0
 62
     7
100
AcDbLine
 10
1908.971555392802
 20
936.1624377255802
 30
0.0
 11
1906.585701292802
 21
936.1624377255802
 31
0.0
  0
LINE
  5
A76
330
1F
100
AcDbEntity
  8
AM_0
 62
     7
100
AcDbLine
 10
1906.585701292802
 20
936.1624377255802
 30
0.0
 11
1906.585701292802
 21
933.9472402755802
 31
0.0
  0
SPLINE
  5
A77
330
1F
100
AcDbEntity
  8
AM_0
 62
     7
100
AcDbSpline
210
0.0
220
0.0
230
1.0
 70
     8
 71
     3
 72
     8
 73
     4
 74
     0
 42
0.0000000001
 43
0.0000000001
 40
15.66497223623581
 40
15.66497223623581
 40
15.66497223623581
 40
15.66497223623581
 40
16.66497223623581
 40
16.66497223623581
 40
16.66497223623581
 40
16.66497223623581
 10
1906.585701467802
 20
933.9472401505805
 30
0.0
 10
1906.585701467802
 20
932.8618664005803
 30
0.0
 10
1906.173586467802
 20
931.8942851505804
 30
0.0
 10
1905.023918967802
 20
931.8942851505804
 30
0.0
  0
LINE
  5
A78
330
1F
100
AcDbEntity
  8
AM_0
 62
     7
100
AcDbLine
 10
1905.023919142802
 20
931.8942853755801
 30
0.0
 11
1904.655142792802
 21
931.8942853755801
 31
0.0
  0
SPLINE
  5
A79
330
1F
100
AcDbEntity
  8
AM_0
 62
     7
100
AcDbSpline
210
0.0
220
0.0
230
1.0
 70
     8
 71
     3
 72
     8
 73
     4
 74
     0
 42
0.0000000001
 43
0.0000000001
 40
17.48447501401361
 40
17.48447501401361
 40
17.48447501401361
 40
17.48447501401361
 40
18.48447501401361
 40
18.48447501401361
 40
18.48447501401361
 40
18.48447501401361
 10
1904.655142717802
 20
931.8942851505804
 30
0.0
 10
1903.505475217802
 20
931.8942851505804
 30
0.0
 10
1903.115108967802
 20
932.8618664005803
 30
0.0
 10
1903.115108967802
 20
933.9472401505805
 30
0.0
  0
LINE
  5
A7A
330
1F
100
AcDbEntity
  8
AM_0
 62
     7
100
AcDbLine
 10
1903.115109142802
 20
933.9472402755802
 30
0.0
 11
1903.115109142802
 21
936.1624377255802
 31
0.0
  0
LINE
  5
A7B
330
1F
100
AcDbEntity
  8
AM_0
 62
     7
100
AcDbLine
 10
1903.115109142802
 20
936.1624377255802
 30
0.0
 11
1900.728937792802
 21
936.1624377255802
 31
0.0
  0
LINE
  5
A7C
330
1F
100
AcDbEntity
  8
AM_0
 62
     7
100
AcDbLine
 10
1900.728937792802
 20
936.1624377255802
 30
0.0
 11
1900.728937792802
 21
934.1642514255804
 31
0.0
  0
SPLINE
  5
A7D
330
1F
100
AcDbEntity
  8
AM_0
 62
     7
100
AcDbSpline
210
0.0
220
0.0
230
1.0
 70
     8
 71
     3
 72
     8
 73
     4
 74
     0
 42
0.0000000001
 43
0.0000000001
 40
33.1501527917914
 40
33.1501527917914
 40
33.1501527917914
 40
33.1501527917914
 40
34.1501527917914
 40
34.1501527917914
 40
34.1501527917914
 40
34.1501527917914
 10
1900.728937717802
 20
934.1642514005803
 30
0.0
 10
1900.728937717802
 20
932.5694489005803
 30
0.0
 10
1901.234080217802
 20
931.3581864005803
 30
0.0
 10
1902.232617717802
 20
930.6298414005803
 30
0.0
  0
SPLINE
  5
A7E
330
1F
100
AcDbEntity
  8
AM_0
 62
     7
100
AcDbSpline
210
0.0
220
0.0
230
1.0
 70
     8
 71
     3
 72
     8
 73
     4
 74
     0
 42
0.0000000001
 43
0.0000000001
 40
34.1501527917914
 40
34.1501527917914
 40
34.1501527917914
 40
34.1501527917914
 40
35.1501527917914
 40
35.1501527917914
 40
35.1501527917914
 40
35.1501527917914
 10
1902.232617717802
 20
930.6298414005803
 30
0.0
 10
1901.261543967802
 20
929.8943526505802
 30
0.0
 10
1900.760590626394
 20
928.6441963795633
 30
0.0
 10
1900.760846467802
 20
927.0870176505802
 30
0.0
  0
LINE
  5
A7F
330
1F
100
AcDbEntity
  8
AM_0
 62
     7
100
AcDbLine
 10
1900.760846392802
 20
927.0870177255803
 30
0.0
 11
1900.761164092802
 21
925.1545539255802
 31
0.0
  0
LINE
  5
A80
330
1F
100
AcDbEntity
  8
AM_0
 62
     7
100
AcDbLine
 10
1900.761164092802
 20
925.1545539255802
 30
0.0
 11
1903.146858892802
 21
925.1545539255802
 31
0.0
  0
LINE
  5
A81
330
1F
100
AcDbEntity
  8
AM_0
 62
     7
100
AcDbLine
 10
1903.146858892802
 20
925.1545539255802
 30
0.0
 11
1903.146858892802
 21
927.3040288755803
 31
0.0
  0
SPLINE
  5
A82
330
1F
100
AcDbEntity
  8
AM_0
 62
     7
100
AcDbSpline
210
0.0
220
0.0
230
1.0
 70
     8
 71
     3
 72
     8
 73
     4
 74
     0
 42
0.0000000001
 43
0.0000000001
 40
49.52267229419653
 40
49.52267229419653
 40
49.52267229419653
 40
49.52267229419653
 40
50.52267229419655
 40
50.52267229419655
 40
50.52267229419655
 40
50.52267229419655
 10
1903.146858967802
 20
927.3040289005804
 30
0.0
 10
1903.146858967802
 20
928.3886089005802
 30
0.0
 10
1903.559132717802
 20
929.4185789005803
 30
0.0
 10
1904.708641467802
 20
929.4185789005803
 30
0.0
  0
LINE
  5
A83
330
1F
100
AcDbEntity
  8
AM_0
 62
     7
100
AcDbLine
 10
1904.708641492802
 20
929.4185788755804
 30
0.0
 11
1905.077417842802
 21
929.4185788755804
 31
0.0
  0
SPLINE
  5
A84
330
1F
100
AcDbEntity
  8
AM_0
 62
     7
100
AcDbSpline
210
0.0
220
0.0
230
1.0
 70
     8
 71
     3
 72
     8
 73
     4
 74
     0
 42
0.0000000001
 43
0.0000000001
 40
51.34217507197432
 40
51.34217507197432
 40
51.34217507197432
 40
51.34217507197432
 40
52.34217507197431
 40
52.34217507197431
 40
52.34217507197431
 40
52.34217507197431
 10
1905.077417717802
 20
929.4185789005803
 30
0.0
 10
1906.227085217802
 20
929.4185789005803
 30
0.0
 10
1906.617451467802
 20
928.3886089005802
 30
0.0
 10
1906.617451467802
 20
927.3040289005804
 30
0.0
  0
LINE
  5
A85
330
1F
100
AcDbEntity
  8
AM_0
 62
     7
100
AcDbLine
 10
1906.617451492802
 20
927.3040288755803
 30
0.0
 11
1906.617451492802
 21
925.1545539255802
 31
0.0
  0
LINE
  5
A86
330
1F
100
AcDbEntity
  8
AM_0
 62
     7
100
AcDbLine
 10
1906.617451492802
 20
925.1545539255802
 30
0.0
 11
1909.003463992802
 21
925.1545539255802
 31
0.0
  0
LINE
  5
A87
330
1F
100
AcDbEntity
  8
AM_0
 62
     7
100
AcDbLine
 10
1909.003463992802
 20
925.1545539255802
 30
0.0
 11
1909.003463992802
 21
927.0870177255803
 31
0.0
  0
SPLINE
  5
A88
330
1F
100
AcDbEntity
  8
AM_0
 62
     7
100
AcDbSpline
210
0.0
220
0.0
230
1.0
 70
     8
 71
     3
 72
     8
 73
     4
 74
     0
 42
0.0000000001
 43
0.0000000001
 40
66.71540007197433
 40
66.71540007197433
 40
66.71540007197433
 40
66.71540007197433
 40
67.71540007197433
 40
67.71540007197433
 40
67.71540007197433
 40
67.71540007197433
 10
1909.003463967803
 20
927.0870176505802
 30
0.0
 10
1909.003463967803
 20
928.6807089005803
 30
0.0
 10
1908.498480217802
 20
929.9548364005802
 30
0.0
 10
1907.499942717802
 20
930.6831814005802
 30
0.0
  0
ARC
  5
A89
330
1F
100
AcDbEntity
  8
AM_0
 62
     7
100
AcDbCircle
 10
1863.015083092802
 20
923.5637062755804
 30
0.0
 40
2.2499658
100
AcDbArc
 50
180.0000480000022
 51
269.9999520000108
  0
LINE
  5
A8A
330
1F
100
AcDbEntity
  8
AM_0
 62
     7
100
AcDbLine
 10
1863.015081292802
 20
921.3137404755803
 30
0.0
 11
1911.615123592802
 21
921.3137404755803
 31
0.0
  0
ARC
  5
A8B
330
1F
100
AcDbEntity
  8
AM_0
 62
     7
100
AcDbCircle
 10
1911.615218992802
 20
923.5636090755802
 30
0.0
 40
2.2498686
100
AcDbArc
 50
269.9975760000107
 51
0.002424000002369
  0
LINE
  5
A8C
330
1F
100
AcDbEntity
  8
AM_0
 62
     7
100
AcDbLine
 10
1913.865087592802
 20
923.5637044755803
 30
0.0
 11
1913.865087592802
 21
940.6636194255803
 31
0.0
  0
ARC
  5
A8D
330
1F
100
AcDbEntity
  8
AM_0
 62
     7
100
AcDbCircle
 10
1911.615121792802
 20
940.6636171755801
 30
0.0
 40
2.2499658
100
AcDbArc
 50
0.0000480000022254
 51
89.9999520000108
  0
LINE
  5
A8E
330
1F
100
AcDbEntity
  8
AM_0
 62
     7
100
AcDbLine
 10
1911.615123592802
 20
942.9135829755804
 30
0.0
 11
1863.015081292802
 21
942.9135829755804
 31
0.0
  0
ARC
  5
A8F
330
1F
100
AcDbEntity
  8
AM_0
 62
     7
100
AcDbCircle
 10
1863.015112792802
 20
940.6635874755803
 30
0.0
 40
2.249995499999999
100
AcDbArc
 50
90.00080599999776
 51
179.9991940000022
  0
LINE
  5
A90
330
1F
100
AcDbEntity
  8
AM_0
 62
     7
100
AcDbLine
 10
1860.765117292802
 20
940.6636194255803
 30
0.0
 11
1860.765117292802
 21
923.5637044755803
 31
0.0
  0
ARC
  5
A91
330
1F
100
AcDbEntity
  8
AM_0
 62
     7
100
AcDbCircle
 10
1861.800248242802
 20
920.9987976255801
 30
0.0
 40
3.284999099999999
100
AcDbArc
 50
179.9997459999952
 51
270.0002540000047
  0
ARC
  5
A92
330
1F
100
AcDbEntity
  8
AM_0
 62
     7
100
AcDbCircle
 10
1922.730375142802
 20
920.9986959255802
 30
0.0
 40
3.284897399999999
100
AcDbArc
 50
269.9979729999884
 51
0.0020269999985905
  0
LINE
  5
A93
330
1F
100
AcDbEntity
  8
AM_0
 62
     7
100
AcDbLine
 10
1926.015272542802
 20
920.9988124755803
 30
0.0
 11
1926.015272542802
 21
943.2285748755802
 31
0.0
  0
ARC
  5
A94
330
1F
100
AcDbEntity
  8
AM_0
 62
     7
100
AcDbCircle
 10
1922.730239692802
 20
943.2287143755802
 30
0.0
 40
3.285032849999999
100
AcDbArc
 50
359.9975679999994
 51
89.99966300000256
  0
LINE
  5
A95
330
1F
100
AcDbEntity
  8
AM_0
 62
     7
100
AcDbLine
 10
1922.730259042802
 20
946.5137472255802
 30
0.0
 11
1861.800262642802
 21
946.5137472255802
 31
0.0
  0
ARC
  5
A96
330
1F
100
AcDbEntity
  8
AM_0
 62
     7
100
AcDbCircle
 10
1861.800383692802
 20
943.2286126755803
 30
0.0
 40
3.285134549999999
100
AcDbArc
 50
90.00210900000949
 51
180.0006600000013
  0
LINE
  5
A97
330
1F
100
AcDbEntity
  8
AM_0
 62
     7
100
AcDbLine
 10
1858.515249142802
 20
943.2285748755802
 30
0.0
 11
1858.515249142802
 21
920.9988124755803
 31
0.0
  0
LINE
  5
A98
330
1F
100
AcDbEntity
  8
0
100
AcDbLine
 10
1861.800248242802
 20
917.7137985255802
 30
0.0
 11
1922.730258930279
 21
917.713798527636
 31
0.0
  0
ENDSEC
  0
SECTION
  2
OBJECTS
  0
DICTIONARY
  5
C
330
0
100
AcDbDictionary
281
     1
  3
ACAD_COLOR
350
BE
  3
ACAD_GROUP
350
D
  3
ACAD_LAYOUT
350
1A
  3
ACAD_MATERIAL
350
BD
  3
ACAD_MLINESTYLE
350
17
  3
ACAD_PLOTSETTINGS
350
19
  3
ACAD_PLOTSTYLENAME
350
E
  3
ACAD_TABLESTYLE
350
11A
  3
ACAD_VISUALSTYLE
350
258
  3
AcDbVariableDictionary
350
94
  3
AcmDictionary
350
5B
  3
AMG
350
41
  3
AMGSNAPSETTINGS
350
1B3
  0
DICTIONARY
  5
360
330
2
100
AcDbDictionary
280
     1
281
     1
  3
ACAD_LAYERSTATES
360
361
  0
DICTIONARY
  5
8F
330
1F
100
AcDbDictionary
280
     1
281
     1
  0
DICTIONARY
  5
85B
330
85A
100
AcDbDictionary
280
     1
281
     1
  3
ACAD_DIMASSOC
360
85C
  0
DICTIONARY
  5
85E
330
85D
100
AcDbDictionary
280
     1
281
     1
  3
ACAD_DIMASSOC
360
85F
  0
DICTIONARY
  5
861
330
860
100
AcDbDictionary
280
     1
281
     1
  3
ACAD_DIMASSOC
360
862
  0
DICTIONARY
  5
BE
102
{ACAD_REACTORS
330
C
102
}
330
C
100
AcDbDictionary
281
     1
  0
DICTIONARY
  5
D
102
{ACAD_REACTORS
330
C
102
}
330
C
100
AcDbDictionary
281
     1
  0
DICTIONARY
  5
1A
102
{ACAD_REACTORS
330
C
102
}
330
C
100
AcDbDictionary
281
     1
  3
Layout1
350
1E
  3
Layout2
350
26
  3
Model
350
22
  0
DICTIONARY
  5
BD
102
{ACAD_REACTORS
330
C
102
}
330
C
100
AcDbDictionary
281
     1
  3
ByBlock
350
256
  3
ByLayer
350
255
  3
Global
350
257
  0
DICTIONARY
  5
17
102
{ACAD_REACTORS
330
C
102
}
330
C
100
AcDbDictionary
281
     1
  3
Standard
350
18
  0
DICTIONARY
  5
19
102
{ACAD_REACTORS
330
C
102
}
330
C
100
AcDbDictionary
281
     1
  0
ACDBDICTIONARYWDFLT
  5
E
102
{ACAD_REACTORS
330
C
102
}
330
C
100
AcDbDictionary
281
     1
  3
Normal
350
F
100
AcDbDictionaryWithDefault
340
F
  0
DICTIONARY
  5
11A
102
{ACAD_REACTORS
330
C
102
}
330
C
100
AcDbDictionary
281
     1
  3
Standard
350
11B
  0
DICTIONARY
  5
258
102
{ACAD_REACTORS
330
C
102
}
330
C
100
AcDbDictionary
281
     1
  3
2dWireframe
350
25E
  3
3D Hidden
350
260
  3
3dWireframe
350
25F
  3
Basic
350
25D
  3
Brighten
350
264
  3
ColorChange
350
268
  3
Conceptual
350
261
  3
Dim
350
263
  3
Facepattern
350
267
  3
Flat
350
259
  3
FlatWithEdges
350
25A
  3
Gouraud
350
25B
  3
GouraudWithEdges
350
25C
  3
Linepattern
350
266
  3
Realistic
350
262
  3
Thicken
350
265
  0
DICTIONARY
  5
94
102
{ACAD_REACTORS
330
C
102
}
330
C
100
AcDbDictionary
281
     1
  3
CTABLESTYLE
350
138
  3
DIMASSOC
350
96
  3
INDEXCTL
350
95
  0
DICTIONARY
  5
5B
102
{ACAD_REACTORS
330
C
102
}
330
C
100
AcDbDictionary
281
     1
  3
AcmBOM
350
1B0
  3
AcmStdDictionary
350
61
  3
AMDTSECTSYM_ARROWCOLOR
350
123
  0
DICTIONARY
  5
41
102
{ACAD_REACTORS
330
C
102
}
330
C
100
AcDbDictionary
281
     1
  0
DICTIONARY
  5
1B3
102
{ACAD_REACTORS
330
C
102
}
330
C
100
AcDbDictionary
281
     1
  0
DICTIONARY
  5
361
102
{ACAD_REACTORS
330
360
102
}
330
360
100
AcDbDictionary
281
     1
  0
DIMASSOC
  5
85C
102
{ACAD_REACTORS
330
85B
102
}
330
85B
100
AcDbDimAssoc
330
85A
 90
        2
 70
     0
 71
     0
  1
AcDbOsnapPointRef
 72
     3
331
859
 73
     2
 91
        0
 40
0.0
 10
0.0
 20
0.0
 30
0.0
 75
     0
  0
DIMASSOC
  5
85F
102
{ACAD_REACTORS
330
85E
102
}
330
85E
100
AcDbDimAssoc
330
85D
 90
        2
 70
     0
 71
     0
  1
AcDbOsnapPointRef
 72
     3
331
856
 73
     2
 91
        0
 40
0.0
 10
0.0
 20
0.0
 30
0.0
 75
     0
  0
DIMASSOC
  5
862
102
{ACAD_REACTORS
330
861
102
}
330
861
100
AcDbDimAssoc
330
860
 90
        3
 70
     0
 71
     0
  1
AcDbOsnapPointRef
 72
     2
331
852
 73
     0
 91
        0
 40
0.0
 10
0.0
 20
0.0
 30
0.0
 75
     0
  1
AcDbOsnapPointRef
 72
     2
331
855
 73
     0
 91
        0
 40
0.0
 10
0.0
 20
0.0
 30
0.0
 75
     0
  0
LAYOUT
  5
1E
102
{ACAD_REACTORS
330
1A
102
}
330
1A
100
AcDbPlotSettings
  1

  2

  4

  6

 40
0.0
 41
0.0
 42
0.0
 43
0.0
 44
0.0
 45
0.0
 46
0.0
 47
0.0
 48
0.0
 49
0.0
140
0.0
141
0.0
142
1.0
143
1.0
 70
   688
 72
     0
 73
     0
 74
     5
  7

 75
    16
147
1.0
 76
     0
 77
     2
 78
   300
148
0.0
149
0.0
100
AcDbLayout
  1
Layout1
 70
     1
 71
     1
 10
0.0
 20
0.0
 11
420.0
 21
297.0
 12
0.0
 22
0.0
 32
0.0
 14
1.000000000000000E+20
 24
1.000000000000000E+20
 34
1.000000000000000E+20
 15
-1.000000000000000E+20
 25
-1.000000000000000E+20
 35
-1.000000000000000E+20
146
0.0
 13
0.0
 23
0.0
 33
0.0
 16
1.0
 26
0.0
 36
0.0
 17
0.0
 27
1.0
 37
0.0
 76
     0
330
1B
  0
LAYOUT
  5
26
102
{ACAD_REACTORS
330
1A
102
}
330
1A
100
AcDbPlotSettings
  1

  2

  4

  6

 40
0.0
 41
0.0
 42
0.0
 43
0.0
 44
0.0
 45
0.0
 46
0.0
 47
0.0
 48
0.0
 49
0.0
140
0.0
141
0.0
142
1.0
143
1.0
 70
   688
 72
     0
 73
     0
 74
     5
  7

 75
    16
147
1.0
 76
     0
 77
     2
 78
   300
148
0.0
149
0.0
100
AcDbLayout
  1
Layout2
 70
     1
 71
     2
 10
0.0
 20
0.0
 11
12.0
 21
9.0
 12
0.0
 22
0.0
 32
0.0
 14
0.0
 24
0.0
 34
0.0
 15
0.0
 25
0.0
 35
0.0
146
0.0
 13
0.0
 23
0.0
 33
0.0
 16
1.0
 26
0.0
 36
0.0
 17
0.0
 27
1.0
 37
0.0
 76
     0
330
23
  0
LAYOUT
  5
22
102
{ACAD_REACTORS
330
1A
102
}
330
1A
100
AcDbPlotSettings
  1

  2
none_device
  4
ISO_A4_(210.00_x_297.00_MM)
  6

 40
7.5
 41
20.0
 42
7.5
 43
20.0
 44
210.0
 45
297.0
 46
0.0
 47
0.0
 48
0.0
 49
0.0
140
0.0
141
0.0
142
1.0
143
4.543956950429435
 70
 11952
 72
     1
 73
     1
 74
     0
  7

 75
     0
147
0.2200725074883232
 76
     0
 77
     2
 78
   300
148
-1004.505092928484
149
-812.7276673031378
100
AcDbLayout
  1
Model
 70
     1
 71
     0
 10
0.0
 20
0.0
 11
12.0
 21
9.0
 12
0.0
 22
0.0
 32
0.0
 14
0.0
 24
0.0
 34
0.0
 15
0.0
 25
0.0
 35
0.0
146
0.0
 13
0.0
 23
0.0
 33
0.0
 16
1.0
 26
0.0
 36
0.0
 17
0.0
 27
1.0
 37
0.0
 76
     0
330
1F
331
253
1001
ACAD_PSEXT
1000
Kein
1000
Kein
1000
Nicht anwendbar
1000
Das Layout wird erst geplottet, wenn ein neuer Plotter-Konfigurationsname ausgewählt wird.
1070
     0
  0
MATERIAL
  5
256
102
{ACAD_REACTORS
330
BD
102
}
330
BD
100
AcDbMaterial
  1
ByBlock
  0
MATERIAL
  5
255
102
{ACAD_REACTORS
330
BD
102
}
330
BD
100
AcDbMaterial
  1
ByLayer
  0
MATERIAL
  5
257
102
{ACAD_REACTORS
330
BD
102
}
330
BD
100
AcDbMaterial
  1
Global
  0
MLINESTYLE
  5
18
102
{ACAD_REACTORS
330
17
102
}
330
17
100
AcDbMlineStyle
  2
STANDARD
 70
     0
  3

 62
   256
 51
90.0
 52
90.0
 71
     2
 49
0.5
 62
   256
  6
BYLAYER
 49
-0.5
 62
   256
  6
BYLAYER
  0
ACDBPLACEHOLDER
  5
F
102
{ACAD_REACTORS
330
E
102
}
330
E
  0
TABLESTYLE
  5
11B
102
{ACAD_REACTORS
330
11A
102
}
330
11A
100
AcDbTableStyle
  3
Standard
 70
     0
 71
     0
 40
1.5
 41
1.5
280
     0
281
     0
  7
Standard
140
4.5
170
     2
 62
     0
 63
     7
283
     0
 90
        4
 91
        0
  1

274
    -2
284
     1
 64
     0
275
    -2
285
     1
 65
     0
276
    -2
286
     1
 66
     0
277
    -2
287
     1
 67
     0
278
    -2
288
     1
 68
     0
279
    -2
289
     1
 69
     0
  7
Standard
140
6.0
170
     5
 62
     0
 63
     7
283
     0
 90
        4
 91
        0
  1

274
    -2
284
     1
 64
     0
275
    -2
285
     1
 65
     0
276
    -2
286
     1
 66
     0
277
    -2
287
     1
 67
     0
278
    -2
288
     1
 68
     0
279
    -2
289
     1
 69
     0
  7
Standard
140
4.5
170
     5
 62
     0
 63
     7
283
     0
 90
        4
 91
        0
  1

274
    -2
284
     1
 64
     0
275
    -2
285
     1
 65
     0
276
    -2
286
     1
 66
     0
277
    -2
287
     1
 67
     0
278
    -2
288
     1
 68
     0
279
    -2
289
     1
 69
     0
  0
VISUALSTYLE
  5
25E
102
{ACAD_REACTORS
330
258
102
}
330
258
100
AcDbVisualStyle
  2
2dWireframe
 70
     4
 71
     0
 72
     2
 73
     0
 90
        0
 40
-0.6
 41
-30.0
 62
     5
 63
     7
421
 16777215
 74
     1
 91
        4
 64
     7
 65
   257
 75
     1
175
     1
 42
1.0
 92
        0
 66
   257
 43
1.0
 76
     1
 77
     6
 78
     2
 67
     7
 79
     5
170
     0
171
     0
290
     0
174
     0
 93
        1
 44
0.0
173
     0
291
     0
 45
0.0
  0
VISUALSTYLE
  5
260
102
{ACAD_REACTORS
330
258
102
}
330
258
100
AcDbVisualStyle
  2
3D Hidden
 70
     6
 71
     1
 72
     2
 73
     2
 90
        0
 40
-0.6
 41
-30.0
 62
     5
 63
     7
421
 16777215
 74
     2
 91
        2
 64
     7
 65
   257
 75
     2
175
     1
 42
40.0
 92
        0
 66
   257
 43
1.0
 76
     1
 77
     6
 78
     2
 67
     7
 79
     3
170
     0
171
     0
290
     0
174
     0
 93
        1
 44
0.0
173
     0
291
     0
 45
0.0
  0
VISUALSTYLE
  5
25F
102
{ACAD_REACTORS
330
258
102
}
330
258
100
AcDbVisualStyle
  2
3dWireframe
 70
     5
 71
     0
 72
     2
 73
     0
 90
        0
 40
-0.6
 41
-30.0
 62
     5
 63
     7
421
 16777215
 74
     1
 91
        4
 64
     7
 65
   257
 75
     1
175
     1
 42
1.0
 92
        0
 66
   257
 43
1.0
 76
     1
 77
     6
 78
     2
 67
     7
 79
     5
170
     0
171
     0
290
     0
174
     0
 93
        1
 44
0.0
173
     0
291
     0
 45
0.0
  0
VISUALSTYLE
  5
25D
102
{ACAD_REACTORS
330
258
102
}
330
258
100
AcDbVisualStyle
  2
Basic
 70
     7
 71
     1
 72
     0
 73
     1
 90
        0
 40
-0.6
 41
-30.0
 62
     5
 63
     7
421
 16777215
 74
     0
 91
        4
 64
     7
 65
   257
 75
     1
175
     1
 42
1.0
 92
        8
 66
     7
 43
1.0
 76
     1
 77
     6
 78
     2
 67
     7
 79
     5
170
     0
171
     0
290
     0
174
     0
 93
        1
 44
0.0
173
     0
291
     1
 45
0.0
  0
VISUALSTYLE
  5
264
102
{ACAD_REACTORS
330
258
102
}
330
258
100
AcDbVisualStyle
  2
Brighten
 70
    12
 71
     2
 72
     2
 73
     0
 90
        0
 40
-0.6
 41
-30.0
 62
     5
 63
     7
421
 16777215
 74
     1
 91
        4
 64
     7
 65
   257
 75
     1
175
     1
 42
1.0
 92
        8
 66
     7
 43
1.0
 76
     1
 77
     6
 78
     2
 67
     7
 79
     5
170
     0
171
     0
290
     0
174
     0
 93
        1
 44
50.0
173
     0
291
     1
 45
0.0
  0
VISUALSTYLE
  5
268
102
{ACAD_REACTORS
330
258
102
}
330
258
100
AcDbVisualStyle
  2
ColorChange
 70
    16
 71
     2
 72
     2
 73
     3
 90
        0
 40
-0.6
 41
-30.0
 62
     5
 63
     8
421
  8421504
 74
     1
 91
        4
 64
     7
 65
   257
 75
     1
175
     1
 42
1.0
 92
        8
 66
     8
424
  8421504
 43
1.0
 76
     1
 77
     6
 78
     2
 67
     7
 79
     5
170
     0
171
     0
290
     0
174
     0
 93
        1
 44
0.0
173
     0
291
     1
 45
0.0
  0
VISUALSTYLE
  5
261
102
{ACAD_REACTORS
330
258
102
}
330
258
100
AcDbVisualStyle
  2
Conceptual
 70
     9
 71
     3
 72
     2
 73
     0
 90
        0
 40
-0.6
 41
-30.0
 62
     5
 63
     7
421
 16777215
 74
     2
 91
        2
 64
     7
 65
   257
 75
     1
175
     1
 42
40.0
 92
        8
 66
     7
 43
1.0
 76
     1
 77
     6
 78
     2
 67
     7
 79
     3
170
     0
171
     0
290
     0
174
     0
 93
        1
 44
0.0
173
     0
291
     0
 45
0.0
  0
VISUALSTYLE
  5
263
102
{ACAD_REACTORS
330
258
102
}
330
258
100
AcDbVisualStyle
  2
Dim
 70
    11
 71
     2
 72
     2
 73
     0
 90
        0
 40
-0.6
 41
-30.0
 62
     5
 63
     7
421
 16777215
 74
     1
 91
        4
 64
     7
 65
   257
 75
     1
175
     1
 42
1.0
 92
        8
 66
     7
 43
1.0
 76
     1
 77
     6
 78
     2
 67
     7
 79
     5
170
     0
171
     0
290
     0
174
     0
 93
        1
 44
-50.0
173
     0
291
     1
 45
0.0
  0
VISUALSTYLE
  5
267
102
{ACAD_REACTORS
330
258
102
}
330
258
100
AcDbVisualStyle
  2
Facepattern
 70
    15
 71
     2
 72
     2
 73
     0
 90
        0
 40
-0.6
 41
-30.0
 62
     5
 63
     7
421
 16777215
 74
     1
 91
        4
 64
     7
 65
   257
 75
     1
175
     1
 42
1.0
 92
        8
 66
     7
 43
1.0
 76
     1
 77
     6
 78
     2
 67
     7
 79
     5
170
     0
171
     0
290
     0
174
     0
 93
        1
 44
0.0
173
     0
291
     1
 45
0.0
  0
VISUALSTYLE
  5
259
102
{ACAD_REACTORS
330
258
102
}
330
258
100
AcDbVisualStyle
  2
Flat
 70
     0
 71
     2
 72
     1
 73
     1
 90
        2
 40
-0.6
 41
30.0
 62
     5
 63
     7
421
 16777215
 74
     0
 91
        4
 64
     7
 65
   257
 75
     1
175
     1
 42
1.0
 92
        8
 66
     7
 43
1.0
 76
     1
 77
     6
 78
     2
 67
     7
 79
     5
170
     0
171
     0
290
     0
174
     0
 93
       13
 44
0.0
173
     0
291
     1
 45
0.0
  0
VISUALSTYLE
  5
25A
102
{ACAD_REACTORS
330
258
102
}
330
258
100
AcDbVisualStyle
  2
FlatWithEdges
 70
     1
 71
     2
 72
     1
 73
     1
 90
        2
 40
-0.6
 41
30.0
 62
     5
 63
     7
421
 16777215
 74
     1
 91
        4
 64
     7
 65
   257
 75
     1
175
     1
 42
1.0
 92
        0
 66
   257
 43
1.0
 76
     1
 77
     6
 78
     2
 67
     7
 79
     5
170
     0
171
     0
290
     0
174
     0
 93
       13
 44
0.0
173
     0
291
     1
 45
0.0
  0
VISUALSTYLE
  5
25B
102
{ACAD_REACTORS
330
258
102
}
330
258
100
AcDbVisualStyle
  2
Gouraud
 70
     2
 71
     2
 72
     2
 73
     1
 90
        2
 40
-0.6
 41
30.0
 62
     5
 63
     7
421
 16777215
 74
     0
 91
        4
 64
     7
 65
   257
 75
     1
175
     1
 42
1.0
 92
        0
 66
     7
 43
1.0
 76
     1
 77
     6
 78
     2
 67
     7
 79
     5
170
     0
171
     0
290
     0
174
     0
 93
       13
 44
0.0
173
     0
291
     1
 45
0.0
  0
VISUALSTYLE
  5
25C
102
{ACAD_REACTORS
330
258
102
}
330
258
100
AcDbVisualStyle
  2
GouraudWithEdges
 70
     3
 71
     2
 72
     2
 73
     1
 90
        2
 40
-0.6
 41
30.0
 62
     5
 63
     7
421
 16777215
 74
     1
 91
        4
 64
     7
 65
   257
 75
     1
175
     1
 42
1.0
 92
        0
 66
   257
 43
1.0
 76
     1
 77
     6
 78
     2
 67
     7
 79
     5
170
     0
171
     0
290
     0
174
     0
 93
       13
 44
0.0
173
     0
291
     1
 45
0.0
  0
VISUALSTYLE
  5
266
102
{ACAD_REACTORS
330
258
102
}
330
258
100
AcDbVisualStyle
  2
Linepattern
 70
    14
 71
     2
 72
     2
 73
     0
 90
        0
 40
-0.6
 41
-30.0
 62
     5
 63
     7
421
 16777215
 74
     1
 91
        4
 64
     7
 65
   257
 75
     7
175
     7
 42
1.0
 92
        8
 66
     7
 43
1.0
 76
     1
 77
     6
 78
     2
 67
     7
 79
     5
170
     0
171
     0
290
     0
174
     0
 93
        1
 44
0.0
173
     0
291
     1
 45
0.0
  0
VISUALSTYLE
  5
262
102
{ACAD_REACTORS
330
258
102
}
330
258
100
AcDbVisualStyle
  2
Realistic
 70
     8
 71
     2
 72
     2
 73
     0
 90
        0
 40
-0.6
 41
-30.0
 62
     5
 63
     7
421
 16777215
 74
     1
 91
        0
 64
     7
 65
   257
 75
     1
175
     1
 42
1.0
 92
        8
 66
     8
424
  7895160
 43
1.0
 76
     1
 77
     6
 78
     2
 67
     7
 79
     5
170
     0
171
     0
290
     0
174
     0
 93
       13
 44
0.0
173
     0
291
     0
 45
0.0
  0
VISUALSTYLE
  5
265
102
{ACAD_REACTORS
330
258
102
}
330
258
100
AcDbVisualStyle
  2
Thicken
 70
    13
 71
     2
 72
     2
 73
     0
 90
        0
 40
-0.6
 41
-30.0
 62
     5
 63
     7
421
 16777215
 74
     1
 91
        4
 64
     7
 65
   257
 75
     1
175
     1
 42
1.0
 92
       12
 66
     7
 43
1.0
 76
     1
 77
     6
 78
     2
 67
     7
 79
     5
170
     0
171
     0
290
     0
174
     0
 93
        1
 44
0.0
173
     0
291
     1
 45
0.0
  0
DICTIONARYVAR
  5
138
102
{ACAD_REACTORS
330
94
102
}
330
94
100
DictionaryVariables
280
     0
  1
STANDARD
  0
DICTIONARYVAR
  5
96
102
{ACAD_REACTORS
330
94
102
}
330
94
100
DictionaryVariables
280
     0
  1
2
  0
DICTIONARYVAR
  5
95
102
{ACAD_REACTORS
330
94
102
}
330
94
100
DictionaryVariables
280
     0
  1
1
  0
DICTIONARY
  5
1B0
102
{ACAD_REACTORS
330
5B
102
}
330
5B
100
AcDbDictionary
281
     1
  0
DICTIONARY
  5
61
102
{ACAD_REACTORS
330
5B
102
}
330
5B
100
AcDbDictionary
281
     1
  0
XRECORD
  5
123
102
{ACAD_REACTORS
330
5B
102
}
330
5B
100
AcDbXrecord
280
     1
 90
-1023410169
  0
ENDSEC
  0
EOF
