  0
SECTION
  2
HEADER
  9
$ACADVER
  1
AC1018
  9
$ACADMAINTVER
 70
   104
  9
$DWGCODEPAGE
  3
ANSI_1252
  9
$LASTSAVEDBY
  1
oberdoer
  9
$CUSTOMPROPERTYTAG
  1
AmdtFileType
  9
$CUSTOMPROPERTY
  1
84
  9
$INSBASE
 10
-1613.80497
 20
3007.593988
 30
0.0
  9
$EXTMIN
 10
82.46316686580598
 20
26.43528673137769
 30
-0.0015258207003583
  9
$EXTMAX
 10
556.0232834104008
 20
419.4239177541262
 30
0.0000000349246037
  9
$LIMMIN
 10
-2.537711
 20
2.672257
  9
$LIMMAX
 10
616.557358
 20
437.3174839999999
  9
$ORTHOMODE
 70
     1
  9
$REGENMODE
 70
     1
  9
$FILLMODE
 70
     1
  9
$QTEXTMODE
 70
     0
  9
$MIRRTEXT
 70
     0
  9
$LTSCALE
 40
1.0
  9
$ATTMODE
 70
     1
  9
$TEXTSIZE
 40
50.0
  9
$TRACEWID
 40
1.0
  9
$TEXTSTYLE
  7
STANDARD
  9
$CLAYER
  8
AM_0
  9
$CELTYPE
  6
BYLAYER
  9
$CECOLOR
 62
   256
  9
$CELTSCALE
 40
1.0
  9
$DISPSILH
 70
     0
  9
$DIMSCALE
 40
1.0
  9
$DIMASZ
 40
2.5
  9
$DIMEXO
 40
0.0
  9
$DIMDLI
 40
10.0
  9
$DIMRND
 40
0.0
  9
$DIMDLE
 40
0.0
  9
$DIMEXE
 40
1.0
  9
$DIMTP
 40
5.0
  9
$DIMTM
 40
5.0
  9
$DIMTXT
 40
3.0
  9
$DIMCEN
 40
0.0
  9
$DIMTSZ
 40
0.0
  9
$DIMTOL
 70
     0
  9
$DIMLIM
 70
     0
  9
$DIMTIH
 70
     0
  9
$DIMTOH
 70
     0
  9
$DIMSE1
 70
     0
  9
$DIMSE2
 70
     0
  9
$DIMTAD
 70
     1
  9
$DIMZIN
 70
     8
  9
$DIMBLK
  1

  9
$DIMASO
 70
     1
  9
$DIMSHO
 70
     1
  9
$DIMPOST
  1

  9
$DIMAPOST
  1
"
  9
$DIMALT
 70
     0
  9
$DIMALTD
 70
     2
  9
$DIMALTF
 40
0.03937
  9
$DIMLFAC
 40
1.0
  9
$DIMTOFL
 70
     1
  9
$DIMTVP
 40
0.0
  9
$DIMTIX
 70
     0
  9
$DIMSOXD
 70
     0
  9
$DIMSAH
 70
     0
  9
$DIMBLK1
  1

  9
$DIMBLK2
  1

  9
$DIMSTYLE
  2
AM_DIN
  9
$DIMCLRD
 70
   256
  9
$DIMCLRE
 70
   256
  9
$DIMCLRT
 70
     2
  9
$DIMTFAC
 40
0.71
  9
$DIMGAP
 40
0.7
  9
$DIMJUST
 70
     0
  9
$DIMSD1
 70
     0
  9
$DIMSD2
 70
     0
  9
$DIMTOLJ
 70
     0
  9
$DIMTZIN
 70
     8
  9
$DIMALTZ
 70
     0
  9
$DIMALTTZ
 70
     0
  9
$DIMUPT
 70
     0
  9
$DIMDEC
 70
     0
  9
$DIMTDEC
 70
     2
  9
$DIMALTU
 70
     2
  9
$DIMALTTD
 70
     2
  9
$DIMTXSTY
  7
STANDARD
  9
$DIMAUNIT
 70
     0
  9
$DIMADEC
 70
     0
  9
$DIMALTRND
 40
0.0
  9
$DIMAZIN
 70
     2
  9
$DIMDSEP
 70
    46
  9
$DIMATFIT
 70
     3
  9
$DIMFRAC
 70
     0
  9
$DIMLDRBLK
  1

  9
$DIMLUNIT
 70
     2
  9
$DIMLWD
 70
    -1
  9
$DIMLWE
 70
    -1
  9
$DIMTMOVE
 70
     0
  9
$LUNITS
 70
     2
  9
$LUPREC
 70
     2
  9
$SKETCHINC
 40
1.0
  9
$FILLETRAD
 40
5.0
  9
$AUNITS
 70
     0
  9
$AUPREC
 70
     0
  9
$MENU
  1
.
  9
$ELEVATION
 40
0.0
  9
$PELEVATION
 40
0.0
  9
$THICKNESS
 40
0.0
  9
$LIMCHECK
 70
     0
  9
$CHAMFERA
 40
2.5
  9
$CHAMFERB
 40
2.5
  9
$CHAMFERC
 40
20.0
  9
$CHAMFERD
 40
0.0
  9
$SKPOLY
 70
     0
  9
$TDCREATE
 40
2452908.589511528
  9
$TDUCREATE
 40
2452908.506178195
  9
$TDUPDATE
 40
2456156.387550914
  9
$TDUUPDATE
 40
2456156.304217581
  9
$TDINDWG
 40
2.8529176157
  9
$TDUSRTIMER
 40
2.8529169097
  9
$USRTIMER
 70
     1
  9
$ANGBASE
 50
0.0
  9
$ANGDIR
 70
     0
  9
$PDMODE
 70
     0
  9
$PDSIZE
 40
0.0
  9
$PLINEWID
 40
0.0
  9
$SPLFRAME
 70
     0
  9
$SPLINETYPE
 70
     6
  9
$SPLINESEGS
 70
     8
  9
$HANDSEED
  5
14F5
  9
$SURFTAB1
 70
     6
  9
$SURFTAB2
 70
     6
  9
$SURFTYPE
 70
     6
  9
$SURFU
 70
     6
  9
$SURFV
 70
     6
  9
$UCSBASE
  2

  9
$UCSNAME
  2

  9
$UCSORG
 10
0.0
 20
0.0
 30
0.0
  9
$UCSXDIR
 10
1.0
 20
0.0
 30
0.0
  9
$UCSYDIR
 10
0.0
 20
1.0
 30
0.0
  9
$UCSORTHOREF
  2

  9
$UCSORTHOVIEW
 70
     0
  9
$UCSORGTOP
 10
0.0
 20
0.0
 30
0.0
  9
$UCSORGBOTTOM
 10
0.0
 20
0.0
 30
0.0
  9
$UCSORGLEFT
 10
0.0
 20
0.0
 30
0.0
  9
$UCSORGRIGHT
 10
0.0
 20
0.0
 30
0.0
  9
$UCSORGFRONT
 10
0.0
 20
0.0
 30
0.0
  9
$UCSORGBACK
 10
0.0
 20
0.0
 30
0.0
  9
$PUCSBASE
  2

  9
$PUCSNAME
  2

  9
$PUCSORG
 10
0.0
 20
0.0
 30
0.0
  9
$PUCSXDIR
 10
1.0
 20
0.0
 30
0.0
  9
$PUCSYDIR
 10
0.0
 20
1.0
 30
0.0
  9
$PUCSORTHOREF
  2

  9
$PUCSORTHOVIEW
 70
     0
  9
$PUCSORGTOP
 10
0.0
 20
0.0
 30
0.0
  9
$PUCSORGBOTTOM
 10
0.0
 20
0.0
 30
0.0
  9
$PUCSORGLEFT
 10
0.0
 20
0.0
 30
0.0
  9
$PUCSORGRIGHT
 10
0.0
 20
0.0
 30
0.0
  9
$PUCSORGFRONT
 10
0.0
 20
0.0
 30
0.0
  9
$PUCSORGBACK
 10
0.0
 20
0.0
 30
0.0
  9
$USERI1
 70
     0
  9
$USERI2
 70
     0
  9
$USERI3
 70
     0
  9
$USERI4
 70
     0
  9
$USERI5
 70
     0
  9
$USERR1
 40
0.0
  9
$USERR2
 40
0.0
  9
$USERR3
 40
0.0
  9
$USERR4
 40
0.0
  9
$USERR5
 40
0.0
  9
$WORLDVIEW
 70
     1
  9
$SHADEDGE
 70
     3
  9
$SHADEDIF
 70
    70
  9
$TILEMODE
 70
     1
  9
$MAXACTVP
 70
    48
  9
$PINSBASE
 10
0.0
 20
0.0
 30
0.0
  9
$PLIMCHECK
 70
     0
  9
$PEXTMIN
 10
1.000000000000000E+20
 20
1.000000000000000E+20
 30
1.000000000000000E+20
  9
$PEXTMAX
 10
-1.000000000000000E+20
 20
-1.000000000000000E+20
 30
-1.000000000000000E+20
  9
$PLIMMIN
 10
0.0
 20
0.0
  9
$PLIMMAX
 10
420.0
 20
297.0
  9
$UNITMODE
 70
     0
  9
$VISRETAIN
 70
     1
  9
$PLINEGEN
 70
     0
  9
$PSLTSCALE
 70
     1
  9
$TREEDEPTH
 70
  3020
  9
$CMLSTYLE
  2
STANDARD
  9
$CMLJUST
 70
     0
  9
$CMLSCALE
 40
20.0
  9
$PROXYGRAPHICS
 70
     1
  9
$MEASUREMENT
 70
     1
  9
$CELWEIGHT
370
    -1
  9
$ENDCAPS
280
     0
  9
$JOINSTYLE
280
     0
  9
$LWDISPLAY
290
     0
  9
$INSUNITS
 70
     4
  9
$HYPERLINKBASE
  1

  9
$STYLESHEET
  1
ganz_fein_1.ctb
  9
$XEDIT
290
     1
  9
$CEPSNTYPE
380
     0
  9
$PSTYLEMODE
290
     1
  9
$FINGERPRINTGUID
  2
{3784B30D-4D27-11D4-B99F-00C04F7995CB}
  9
$VERSIONGUID
  2
{0B1D300B-D09F-45A1-971D-A9ED2E8803BE}
  9
$EXTNAMES
290
     1
  9
$PSVPSCALE
 40
0.0
  9
$OLESTARTUP
290
     0
  9
$SORTENTS
280
   127
  9
$INDEXCTL
280
     1
  9
$HIDETEXT
280
     1
  9
$XCLIPFRAME
290
     0
  9
$HALOGAP
280
     0
  9
$OBSCOLOR
 70
   257
  9
$OBSLTYPE
280
     0
  9
$INTERSECTIONDISPLAY
280
     0
  9
$INTERSECTIONCOLOR
 70
   257
  9
$DIMASSOC
280
     1
  9
$PROJECTNAME
  1

  0
ENDSEC
  0
SECTION
  2
CLASSES
  0
CLASS
  1
ACDBDICTIONARYWDFLT
  2
AcDbDictionaryWithDefault
  3
ObjectDBX Classes
 90
        0
 91
        2
280
     0
281
     0
  0
CLASS
  1
ACDBPLACEHOLDER
  2
AcDbPlaceHolder
  3
ObjectDBX Classes
 90
        0
 91
        2
280
     0
281
     0
  0
CLASS
  1
LAYOUT
  2
AcDbLayout
  3
ObjectDBX Classes
 90
        0
 91
        4
280
     0
281
     0
  0
CLASS
  1
AMGSETTINGSOBJ
  2
AmgSettingsObj
  3
"AcadM|Product Description: AutoCAD Mechanical|Company: Autodesk"
 90
        0
 91
        2
280
     1
281
     0
  0
CLASS
  1
ACME_DOCUMENT
  2
AcMeDbDoc
  3
AcMeServices
 90
        0
 91
        1
280
     0
281
     0
  0
CLASS
  1
ACMESCOPE
  2
AcMeScope
  3
AcMeServices
 90
        0
 91
        1
280
     0
281
     0
  0
CLASS
  1
ACMECOMMANDHISTORY
  2
AcMeCommandHistory
  3
AcMeServices
 90
        0
 91
        1
280
     0
281
     0
  0
CLASS
  1
DICTIONARYVAR
  2
AcDbDictionaryVar
  3
ObjectDBX Classes
 90
        0
 91
        4
280
     0
281
     0
  0
CLASS
  1
ACIMSYSVARMAN
  2
AcImSysVarManager
  3
AcMeServices
 90
        0
 91
        5
280
     0
281
     0
  0
CLASS
  1
ACIMREALSYSVAR
  2
AcImRealSysVar
  3
AcMeServices
 90
        0
 91
        1
280
     0
281
     0
  0
CLASS
  1
ACIMINTSYSVAR
  2
AcImIntSysVar
  3
AcMeServices
 90
        0
 91
       27
280
     0
281
     0
  0
CLASS
  1
ACMEDRAWINGMAN
  2
AcMeDrawingMan
  3
AcMeServices
 90
        0
 91
        1
280
     0
281
     0
  0
CLASS
  1
ACMEVIEW
  2
AcMeView
  3
AcMeServices
 90
        0
 91
        1
280
     0
281
     0
  0
CLASS
  1
ACDBENTITYCACHE
  2
AcMeEntityCache
  3
AcMeServices
 90
        0
 91
        1
280
     0
281
     0
  0
CLASS
  1
GSMANAGER
  2
AcMeGSManager
  3
AcMeServices
 90
        0
 91
        1
280
     0
281
     0
  0
CLASS
  1
AMDTINTERNALREACTOR
  2
AmdtInternalReactor
  3
AcMeServices
 90
        0
 91
        2
280
     0
281
     0
  0
CLASS
  1
ACMESTATEMGR
  2
AcMeStateMgr
  3
AcMeServices
 90
        0
 91
        1
280
     0
281
     0
  0
CLASS
  1
ACGREFMASTER
  2
AcGrefMaster
  3
AcAttribServices
 90
        0
 91
        2
280
     0
281
     0
  0
CLASS
  1
ACME_DATABASE
  2
AcMeDbDatabase
  3
AcMeServices
 90
        0
 91
        1
280
     0
281
     0
  0
CLASS
  1
ACRFINSADJUSTERMGR
  2
AcRfInsAdjusterMgr
  3
AcMeServices
 90
        0
 91
        1
280
     0
281
     0
  0
CLASS
  1
ACGREFACADMASTER
  2
AcGrefacadMaster
  3
AcGrefServices
 90
        0
 91
        2
280
     0
281
     0
  0
CLASS
  1
AMIMASTER
  2
AmiMaster
  3
AmiServices
 90
        0
 91
        2
280
     0
281
     0
  0
CLASS
  1
ACIMSTRSYSVAR
  2
AcImStrSysVar
  3
AcMeServices
 90
        0
 91
        5
280
     0
281
     0
  0
CLASS
  1
ACMSTANDARDDIN
  2
AcmStandardDIN
  3
"Amdt_StdImp|Product Description: AutoCAD Mechanical|Company: Autodesk"
 90
        0
 91
        1
280
     0
281
     0
  0
CLASS
  1
AMGOBJPROPCFG
  2
AmgObjPropCfg
  3
"AmgLay|Product Description: AutoCAD Mechanical|Company: Autodesk"
 90
        1
 91
        2
280
     0
281
     0
  0
CLASS
  1
AMDTEDGESTANDARDDIN
  2
AmdtEdgeStdDIN
  3
"Amdt_StdImp|Product Description: AutoCAD Mechanical|Company: Autodesk"
 90
        0
 91
        0
280
     0
281
     0
  0
CLASS
  1
ACMSURFSTANDARDDIN
  2
AcmSurfTextStdDIN
  3
"Amdt_StdImp|Product Description: AutoCAD Mechanical|Company: Autodesk"
 90
        0
 91
        1
280
     0
281
     0
  0
CLASS
  1
ACMFCFSTANDARDDIN
  2
AcmFCFStdDIN
  3
"Amdt_StdImp|Product Description: AutoCAD Mechanical|Company: Autodesk"
 90
        0
 91
        1
280
     0
281
     0
  0
CLASS
  1
ACMWELDSTANDARDDIN
  2
AcmWeldingStdDIN
  3
"Amdt_StdImp|Product Description: AutoCAD Mechanical|Company: Autodesk"
 90
        0
 91
        1
280
     0
281
     0
  0
CLASS
  1
ACMIDSTANDARDDIN
  2
AcmIdStdDIN
  3
"Amdt_StdImp|Product Description: AutoCAD Mechanical|Company: Autodesk"
 90
        0
 91
        1
280
     0
281
     0
  0
CLASS
  1
ACMDATUMSTANDARDDIN
  2
AcmDatumStdDIN
  3
"Amdt_StdImp|Product Description: AutoCAD Mechanical|Company: Autodesk"
 90
        0
 91
        1
280
     0
281
     0
  0
CLASS
  1
ACMBOMSTANDARDDIN
  2
AcmBOMStdDIN
  3
"Amdt_StdImp|Product Description: AutoCAD Mechanical|Company: Autodesk"
 90
        0
 91
        1
280
     0
281
     0
  0
CLASS
  1
ACMDETAILSTANDARDDIN
  2
AmdtDetailSymStdDIN
  3
"Amdt_StdImp|Product Description: AutoCAD Mechanical|Company: Autodesk"
 90
        0
 91
        1
280
     0
281
     0
  0
CLASS
  1
ACMSECTIONSTANDARDDIN
  2
AmdtSectionSymStdDIN
  3
"Amdt_StdImp|Product Description: AutoCAD Mechanical|Company: Autodesk"
 90
        0
 91
        1
280
     0
281
     0
  0
CLASS
  1
ACMCENTERLINESTANDARDDIN
  2
AmdtCenterLineStdDIN
  3
"Amdt_StdImp|Product Description: AutoCAD Mechanical|Company: Autodesk"
 90
        0
 91
        1
280
     0
281
     0
  0
CLASS
  1
ACMTHREADLINESTANDARDDIN
  2
AmdtThreadLineStdDIN
  3
"Amdt_StdImp|Product Description: AutoCAD Mechanical|Company: Autodesk"
 90
        0
 91
        1
280
     0
281
     0
  0
CLASS
  1
ACAMGLAYSTD
  2
AcAmgLayStd
  3
"AmgLay|Product Description: AutoCAD Mechanical|Company: Autodesk"
 90
        0
 91
        2
280
     0
281
     0
  0
CLASS
  1
ACAMGDIMSTD
  2
AcAmgDimStd
  3
"AmgDim|Product Description: AutoCAD Mechanical|Company: Autodesk"
 90
        0
 91
        2
280
     0
281
     0
  0
CLASS
  1
ACAMGTITLESTD
  2
AcAmgTitleStd
  3
"AmgTitle|Product Description: AutoCAD Mechanical|Company: Autodesk"
 90
        0
 91
        2
280
     0
281
     0
  0
CLASS
  1
ACMDATADICTIONARY
  2
AcmDataDictionary
  3
"AcmSymBB|Product Description: AutoCAD Mechanical|Company: Autodesk"
 90
        0
 91
        1
280
     0
281
     0
  0
CLASS
  1
ACMDATAENTRYBLOCK
  2
AcmDataEntryBlock
  3
"AcmSymBB|Product Description: AutoCAD Mechanical|Company: Autodesk"
 90
        0
 91
        0
280
     0
281
     0
  0
CLASS
  1
LAYER_INDEX
  2
AcDbLayerIndex
  3
ObjectDBX Classes
 90
        0
 91
        1
280
     0
281
     0
  0
CLASS
  1
IDBUFFER
  2
AcDbIdBuffer
  3
ObjectDBX Classes
 90
        0
 91
        8
280
     0
281
     0
  0
CLASS
  1
AM_DRAWING_MGR
  2
AcDmDwgMgr
  3
AcMechDwgViewMgmt
 90
        0
 91
        1
280
     1
281
     0
  0
CLASS
  1
AM_DWG_DOCUMENT
  2
AcDmDwgDocument
  3
AcMechDwgViewMgmt
 90
        0
 91
        1
280
     1
281
     0
  0
CLASS
  1
AM_DWG_SHEET
  2
AcDmSheet
  3
AcMechDwgViewMgmt
 90
        0
 91
        1
280
     1
281
     0
  0
CLASS
  1
AM_VIEWDIMPARMAP
  2
AcDmViewDimParMap
  3
AcMechDwgViewMgmt
 90
        0
 91
        1
280
     1
281
     0
  0
CLASS
  1
AM_DWGMGR_NAME
  2
AcDmDwgMgrName
  3
AcMechDwgViewMgmt
 90
        0
 91
        1
280
     1
281
     0
  0
CLASS
  1
AMDTMENUSTATEMGR
  2
AmdtMenuStateMgr
  3
McadcomServices
 90
        0
 91
        1
280
     1
281
     0
  0
CLASS
  1
AMDTMCOMMENUSTATE
  2
AmdtMcomMenuState
  3
McadcomServices
 90
        0
 91
        1
280
     1
281
     0
  0
CLASS
  1
ASAPP
  2
AcAsAppObject
  3
AutoSurfServices
 90
        0
 91
        0
280
     1
281
     0
  0
CLASS
  1
IM_STATIC_MAN
  2
AcImStaticVarManager
  3
AcMeServices
 90
        0
 91
        0
280
     0
281
     0
  0
CLASS
  1
ACIMDBLSTATICVAR
  2
AcImDblStaticVar
  3
AcMeServices
 90
        0
 91
        0
280
     0
281
     0
  0
CLASS
  1
ACIMSTRSTATICVAR
  2
AcImStrStaticVar
  3
AcMeServices
 90
        0
 91
        0
280
     0
281
     0
  0
CLASS
  1
ACIMINTSTATICVAR
  2
AcImIntStaticVar
  3
AcMeServices
 90
        0
 91
        0
280
     0
281
     0
  0
CLASS
  1
ACASGREFMASTER
  2
AcAsGrefMaster
  3
AutoSurfResolverServices
 90
        0
 91
        0
280
     1
281
     0
  0
CLASS
  1
ACADGREFMODULE
  2
AcAdGrefModule
  3
AdGrefServices
 90
        0
 91
        0
280
     1
281
     0
  0
CLASS
  1
AMDTMAPISURFMOUDULE
  2
AmdtMApiSurfModule
  3
MApiSurfServices
 90
        0
 91
        0
280
     1
281
     0
  0
CLASS
  1
MAPIAMMOUDLE
  2
MApiAmModule
  3
MApiAmServices
 90
        0
 91
        1
280
     1
281
     0
  0
CLASS
  1
AMDTADMENUSTATE
  2
AmdtAdMenuState
  3
DesignerServices
 90
        0
 91
        1
280
     1
281
     0
  0
CLASS
  1
ADAPPL
  2
AcAdAppl
  3
DesignerServices
 90
        0
 91
        1
280
     1
281
     0
  0
CLASS
  1
DEPMGR
  2
AcAdDepMgr
  3
DesignerServices
 90
        0
 91
        1
280
     1
281
     0
  0
CLASS
  1
PARAMMGR
  2
AcAdParamMgr
  3
DesignerServices
 90
        0
 91
        1
280
     1
281
     0
  0
CLASS
  1
PARAMSCOPE
  2
AcAdParamScope
  3
DesignerServices
 90
        0
 91
        1
280
     1
281
     0
  0
CLASS
  1
NAMEDAPPL
  2
AcAdNamedAppl
  3
DesignerServices
 90
        0
 91
        1
280
     1
281
     0
  0
CLASS
  1
ADHNTMPLT
  2
AdHoleNoteTemplateMgr
  3
DesignerServices
 90
        0
 91
        0
280
     1
281
     0
  0
CLASS
  1
AM_HNTEMPLATE_MGR_NAME
  2
AdHoleNoteTemplateMgrName
  3
DesignerServices
 90
        0
 91
        0
280
     1
281
     0
  0
CLASS
  1
AMDTDMMENUSTATE
  2
AmdtDmMenuState
  3
AcMechDwgViewMgmt
 90
        0
 91
        1
280
     1
281
     0
  0
CLASS
  1
MAPIADMODULE
  2
MApiAdModule
  3
MApiAdServices
 90
        0
 91
        0
280
     1
281
     0
  0
CLASS
  1
AMDTAMMENUSTATE
  2
AmdtAmMenuState
  3
DesignerAssemblies
 90
        0
 91
        1
280
     1
281
     0
  0
CLASS
  1
ACAMPROJECT
  2
AcAmProject
  3
DesignerAssemblies
 90
        0
 91
        1
280
     1
281
     0
  0
CLASS
  1
ACAMGRCOMPDEF
  2
AcAmGrCompDef
  3
DesignerAssemblies
 90
        0
 91
        1
280
     1
281
     0
  0
CLASS
  1
ACCMCONTEXT
  2
AcCmContext
  3
DesignerAssemblies
 90
        0
 91
        1
280
     1
281
     0
  0
CLASS
  1
ACAMCOMPDEF
  2
AcAmCompDef
  3
DesignerAssemblies
 90
        0
 91
        1
280
     1
281
     0
  0
CLASS
  1
ACAMCOMPDEFMGR
  2
AcAmCompDefMgr
  3
DesignerAssemblies
 90
        0
 91
        1
280
     1
281
     0
  0
CLASS
  1
AMCONTEXTMGR
  2
AcAmContextMgr
  3
DesignerAssemblies
 90
        0
 91
        1
280
     1
281
     0
  0
CLASS
  1
ACAMCONTEXTMODELER
  2
AcAmContextModeler
  3
DesignerAssemblies
 90
        0
 91
        1
280
     1
281
     0
  0
CLASS
  1
CATALOGSTATE
  2
AcAmCatalogState
  3
DesignerAssemblies
 90
        0
 91
        1
280
     1
281
     0
  0
CLASS
  1
ACAMGRCOMPDEFSET
  2
AcAmGrCompDefSet
  3
DesignerAssemblies
 90
        0
 91
        1
280
     1
281
     0
  0
CLASS
  1
AMDTBROWSERDBTAB
  2
AmdtBrowserDbTab
  3
McadcomServices
 90
        0
 91
        1
280
     1
281
     0
  0
CLASS
  1
CBROWSERAPPOBJECT
  2
CBrowserAppObject
  3
McadcomServices
 90
        0
 91
        3
280
     1
281
     0
  0
CLASS
  1
DM_PLACEHOLDER
  2
AcDmSelsetPlaceholder
  3
AcMechDwgViewMgmt
 90
        0
 91
        1
280
     1
281
     0
  0
CLASS
  1
ACAMGFILTERDAT
  2
AcAmgFilterDat
  3
"AcadM|Product Description: AutoCAD Mechanical|Company: Autodesk"
 90
        0
 91
        0
280
     0
281
     0
  0
CLASS
  1
AMDTFORMULAUPDATEDISPATCHER
  2
AmdtFormulaUpdateDispatcher
  3
AcMeServices
 90
        0
 91
        0
280
     0
281
     0
  0
CLASS
  1
ACMNOTESTANDARDDIN
  2
AmdtNoteStdDIN
  3
"Amdt_StdImp|Product Description: AutoCAD Mechanical|Company: Autodesk"
 90
        0
 91
        1
280
     0
281
     0
  0
CLASS
  1
ACAMGHOLECHARTSTDDIN
  2
AcAmgHoleChartStdDIN
  3
ACMSYMBB_MODULE_NAME
 90
        0
 91
        1
280
     0
281
     0
  0
CLASS
  1
AMDTNOTE
  2
AmdtNote
  3
"AcmSymBB|Product Description: AutoCAD Mechanical|Company: Autodesk"
 90
     3071
 91
        0
280
     0
281
     1
  0
CLASS
  1
ACMPARTREF
  2
AcmPartRef
  3
"AcmSymBB|Product Description: AutoCAD Mechanical|Company: Autodesk"
 90
     3071
 91
        0
280
     0
281
     1
  0
CLASS
  1
ACDBLINERES
  2
AcDbLineRes
  3
AcGrefServices
 90
        0
 91
        0
280
     0
281
     0
  0
CLASS
  1
ACRFINSADJ
  2
AcRfInsAdjuster
  3
AcMeServices
 90
        0
 91
        0
280
     0
281
     0
  0
CLASS
  1
ACMDATAENTRYPART
  2
AcmDataEntryPart
  3
"AcmSymBB|Product Description: AutoCAD Mechanical|Company: Autodesk"
 90
        0
 91
        0
280
     0
281
     0
  0
CLASS
  1
ACMPICKOBJ
  2
AcmPickEnt
  3
"AcmSymBB|Product Description: AutoCAD Mechanical|Company: Autodesk"
 90
        0
 91
        0
280
     0
281
     1
  0
CLASS
  1
ACMDATAENTRY
  2
AcmDataEntry
  3
"AcmSymBB|Product Description: AutoCAD Mechanical|Company: Autodesk"
 90
        0
 91
        0
280
     0
281
     0
  0
CLASS
  1
ACMBOM
  2
AcmBom
  3
"AcmSymBB|Product Description: AutoCAD Mechanical|Company: Autodesk"
 90
        0
 91
        0
280
     0
281
     0
  0
CLASS
  1
ACMBOMROW
  2
AcmBomRow
  3
"AcmSymBB|Product Description: AutoCAD Mechanical|Company: Autodesk"
 90
        0
 91
        0
280
     0
281
     0
  0
CLASS
  1
ACMPARTLIST
  2
AcmPartList
  3
"AcmSymBB|Product Description: AutoCAD Mechanical|Company: Autodesk"
 90
     3071
 91
        0
280
     0
281
     1
  0
CLASS
  1
ACDBCIRCARCRES
  2
AcDbCircArcRes
  3
AcGrefServices
 90
        0
 91
        0
280
     0
281
     0
  0
CLASS
  1
ACMBALLOON
  2
AcmBalloon
  3
"AcmSymBB|Product Description: AutoCAD Mechanical|Company: Autodesk"
 90
     3071
 91
        0
280
     0
281
     1
  0
CLASS
  1
ACMSTANDARDISO
  2
AcmStandardISO
  3
"Amdt_StdImp|Product Description: AutoCAD Mechanical|Company: Autodesk"
 90
        0
 91
        1
280
     0
281
     0
  0
CLASS
  1
AMDTEDGESTANDARDISO
  2
AmdtEdgeStdISO
  3
"Amdt_StdImp|Product Description: AutoCAD Mechanical|Company: Autodesk"
 90
        0
 91
        1
280
     0
281
     0
  0
CLASS
  1
ACMSURFSTANDARDISO
  2
AcmSurfTextStdISO
  3
"Amdt_StdImp|Product Description: AutoCAD Mechanical|Company: Autodesk"
 90
        0
 91
        1
280
     0
281
     0
  0
CLASS
  1
ACMFCFSTANDARDISO
  2
AcmFCFStdISO
  3
"Amdt_StdImp|Product Description: AutoCAD Mechanical|Company: Autodesk"
 90
        0
 91
        1
280
     0
281
     0
  0
CLASS
  1
ACMWELDSTANDARDISO
  2
AcmWeldingStdISO
  3
"Amdt_StdImp|Product Description: AutoCAD Mechanical|Company: Autodesk"
 90
        0
 91
        1
280
     0
281
     0
  0
CLASS
  1
ACMIDSTANDARDISO
  2
AcmIdStdISO
  3
"Amdt_StdImp|Product Description: AutoCAD Mechanical|Company: Autodesk"
 90
        0
 91
        1
280
     0
281
     0
  0
CLASS
  1
ACMDATUMSTANDARDISO
  2
AcmDatumStdISO
  3
"Amdt_StdImp|Product Description: AutoCAD Mechanical|Company: Autodesk"
 90
        0
 91
        1
280
     0
281
     0
  0
CLASS
  1
ACMBOMSTANDARDISO
  2
AcmBOMStdISO
  3
"Amdt_StdImp|Product Description: AutoCAD Mechanical|Company: Autodesk"
 90
        0
 91
        1
280
     0
281
     0
  0
CLASS
  1
ACMDETAILSTANDARDISO
  2
AmdtDetailSymStdISO
  3
"Amdt_StdImp|Product Description: AutoCAD Mechanical|Company: Autodesk"
 90
        0
 91
        1
280
     0
281
     0
  0
CLASS
  1
ACMSECTIONSTANDARDISO
  2
AmdtSectionSymStdISO
  3
"Amdt_StdImp|Product Description: AutoCAD Mechanical|Company: Autodesk"
 90
        0
 91
        1
280
     0
281
     0
  0
CLASS
  1
ACMCENTERLINESTANDARDISO
  2
AmdtCenterLineStdISO
  3
"Amdt_StdImp|Product Description: AutoCAD Mechanical|Company: Autodesk"
 90
        0
 91
        1
280
     0
281
     0
  0
CLASS
  1
ACMNOTESTANDARDISO
  2
AmdtNoteStdISO
  3
"Amdt_StdImp|Product Description: AutoCAD Mechanical|Company: Autodesk"
 90
        0
 91
        1
280
     0
281
     0
  0
CLASS
  1
ACAMGHOLECHARTSTDISO
  2
AcAmgHoleChartStdISO
  3
ACMSYMBB_MODULE_NAME
 90
        0
 91
        1
280
     0
281
     0
  0
CLASS
  1
ACDBOPPOLYLINERES
  2
AcDbOpPolylineRes
  3
AcGrefServices
 90
        0
 91
        0
280
     0
281
     0
  0
CLASS
  1
ACMSURFSYM
  2
AcmSurfaceTexture
  3
"AcmSymBB|Product Description: AutoCAD Mechanical|Company: Autodesk"
 90
     3071
 91
        0
280
     0
281
     1
  0
CLASS
  1
ACMWELDSYM
  2
AcmWelding
  3
"AcmSymBB|Product Description: AutoCAD Mechanical|Company: Autodesk"
 90
     3071
 91
        0
280
     0
281
     1
  0
CLASS
  1
STDPART2D
  2
AmgStdPart
  3
"g3vace|Class: AmgStdPart|Product Description: AutoCAD Mechanical|Company: Autodesk"
 90
     3071
 91
        0
280
     1
281
     1
  0
CLASS
  1
ACDBSTDPARTRES_LINE
  2
AcDbStdPartRes_Line
  3
"g3vace|Class: AcDbStdPartRes_Line|Product Description: AutoCAD Mechanical|Company: Autodesk"
 90
        0
 91
        0
280
     1
281
     0
  0
CLASS
  1
ACDBSTDPARTRES_ARC
  2
AcDbStdPartRes_Arc
  3
"g3vace|Class: AcDbStdPartRes_Arc|Product Description: AutoCAD Mechanical|Company: Autodesk"
 90
        0
 91
        0
280
     1
281
     0
  0
CLASS
  1
ACDBDIMENSIONRES
  2
AcDbDimensionRes
  3
L"AcDbDimensionRes|Product Description: AutoCAD Mechanical 2000|Company: Autodesk"
 90
        0
 91
        0
280
     0
281
     0
  0
CLASS
  1
ACDBPOLYLINERES
  2
AcDbPolylineRes
  3
AcGrefServices
 90
        0
 91
        0
280
     0
281
     0
  0
CLASS
  1
ACDBELLIPSERES
  2
AcDbEllipseRes
  3
AcGrefServices
 90
        0
 91
        0
280
     0
281
     0
  0
CLASS
  1
ACMDIMBREAKPERSREACTOR
  2
AcmDimBreakPersReactor
  3
amgDimApp().moduleName()
 90
     3071
 91
        0
280
     0
281
     0
  0
CLASS
  1
AMDTACMWBLOCKBOMENTITY
  2
AmdtAcmWblockBomEntity
  3
"AcmSymBB|Product Description: AutoCAD Mechanical|Company: Autodesk"
 90
     3071
 91
        0
280
     0
281
     1
  0
CLASS
  1
LONG_TRANSACTION
  2
AcDbLongTransaction
  3
ObjectDBX Classes
 90
        0
 91
        0
280
     0
281
     0
  0
CLASS
  1
LWPOLYLINE
  2
AcDbPolyline
  3
ObjectDBX Classes
 90
        0
 91
        1
280
     0
281
     1
  0
CLASS
  1
HATCH
  2
AcDbHatch
  3
ObjectDBX Classes
 90
        0
 91
       22
280
     0
281
     1
  0
CLASS
  1
XRECORD
  2
AcDbXrecord
  3
ObjectDBX Classes
 90
        0
 91
       82
280
     0
281
     0
  0
CLASS
  1
MATERIAL
  2
AcDbMaterial
  3
ObjectDBX Classes
 90
     1024
 91
        3
280
     0
281
     0
  0
CLASS
  1
VISUALSTYLE
  2
AcDbVisualStyle
  3
ObjectDBX Classes
 90
     4095
 91
       19
280
     0
281
     0
  0
CLASS
  1
TABLESTYLE
  2
AcDbTableStyle
  3
ObjectDBX Classes
 90
     4095
 91
        1
280
     0
281
     0
  0
CLASS
  1
AMDTEDGESTANDARDDIN13715
  2
AmdtEdgeStdDIN13715
  3
"Amdt_StdImp|Product Description: AutoCAD Mechanical|Company: Autodesk"
 90
        0
 91
        1
280
     0
281
     0
  0
CLASS
  1
AMDTNOTETEMPLATEDB
  2
AmdtNoteTemplateDB
  3
AMDT_STDIMP_MODULE_NAME
 90
        0
 91
        9
280
     0
281
     0
  0
CLASS
  1
ACMTAPERSTANDARDDIN
  2
AcmTaperStdDIN
  3
"Amdt_StdImp|Product Description: AutoCAD Mechanical|Company: Autodesk"
 90
        0
 91
        1
280
     0
281
     0
  0
CLASS
  1
ACMTHREADLINESTANDARDISO
  2
AmdtThreadLineStdISO
  3
"Amdt_StdImp|Product Description: AutoCAD Mechanical|Company: Autodesk"
 90
        0
 91
        1
280
     0
281
     0
  0
CLASS
  1
ACMTAPERSTANDARDISO
  2
AcmTaperStdISO
  3
"Amdt_StdImp|Product Description: AutoCAD Mechanical|Company: Autodesk"
 90
        0
 91
        1
280
     0
281
     0
  0
ENDSEC
  0
SECTION
  2
TABLES
  0
TABLE
  2
VPORT
  5
1A
330
0
100
AcDbSymbolTable
 70
     1
  0
VPORT
  5
1358
330
1A
100
AcDbSymbolTableRecord
100
AcDbViewportTableRecord
  2
*ACTIVE
 70
     0
 10
0.0
 20
0.0
 11
1.0
 21
1.0
 12
39.43796213810346
 22
5.828446242751965
 13
-5403.981393999999
 23
2760.242742000001
 14
2.5
 24
2.5
 15
10.0
 25
10.0
 16
0.0
 26
0.0
 36
1.0
 17
279.805263
 27
217.101156
 37
0.0
 40
395.4119935984284
 41
1.845679012345678
 42
50.0
 43
0.0
 44
0.0
 50
0.0
 51
0.0
 71
     0
 72
  3000
 73
     1
 74
     2
 75
     0
 76
     0
 77
     0
 78
     0
281
     0
 65
     1
110
0.0
120
0.0
130
0.0
111
1.0
121
0.0
131
0.0
112
0.0
122
1.0
132
0.0
 79
     0
146
0.0
  0
ENDTAB
  0
TABLE
  2
LTYPE
  5
15
330
0
100
AcDbSymbolTable
 70
    62
  0
LTYPE
  5
16
330
15
100
AcDbSymbolTableRecord
100
AcDbLinetypeTableRecord
  2
BYBLOCK
 70
     0
  3

 72
    65
 73
     0
 40
0.0
  0
LTYPE
  5
17
330
15
100
AcDbSymbolTableRecord
100
AcDbLinetypeTableRecord
  2
BYLAYER
 70
     0
  3

 72
    65
 73
     0
 40
0.0
  0
LTYPE
  5
11
330
15
100
AcDbSymbolTableRecord
100
AcDbLinetypeTableRecord
  2
CONTINUOUS
 70
     0
  3
Solid line
 72
    65
 73
     0
 40
0.0
  0
LTYPE
  5
5B
330
15
100
AcDbSymbolTableRecord
100
AcDbLinetypeTableRecord
  2
Amconstr
 70
     0
  3
_______________________
 72
    65
 73
     2
 40
9999.0
 49
9999.0
 74
     0
 49
0.0
 74
     0
  0
LTYPE
  5
5E
330
15
100
AcDbSymbolTableRecord
100
AcDbLinetypeTableRecord
  2
Amzigzag
 70
     0
  3
/\/-/\/-/\/-/\/-/\/-/\/
 72
    65
 73
     2
 40
11.0001
 49
0.0001
 74
     4
 75
   135
340
5F
 46
0.04
 50
0.0
 44
0.0
 45
0.0
 49
-11.0
 74
     0
  0
LTYPE
  5
58
330
15
100
AcDbSymbolTableRecord
100
AcDbLinetypeTableRecord
  2
AM_DIN_F_W050
 70
     0
  3
__ __ __ __ __ __ __ __ __ __ __ __ __ __ __
 72
    65
 73
     2
 40
6.25
 49
4.75
 74
     0
 49
-1.5
 74
     0
  0
LTYPE
  5
59
330
15
100
AcDbSymbolTableRecord
100
AcDbLinetypeTableRecord
  2
AM_DIN_G_W050
 70
     0
  3
____ . ____ . ____ . ____ . ____ . ____ . ____
 72
    65
 73
     4
 40
13.75
 49
9.75
 74
     0
 49
-1.5
 74
     0
 49
1.0
 74
     0
 49
-1.5
 74
     0
  0
LTYPE
  5
5A
330
15
100
AcDbSymbolTableRecord
100
AcDbLinetypeTableRecord
  2
AM_DIN_K_W050
 70
     0
  3
_____ . . _____ . . _____ . . ____ .. ____
 72
    65
 73
     6
 40
16.25
 49
9.75
 74
     0
 49
-1.5
 74
     0
 49
1.0
 74
     0
 49
-1.5
 74
     0
 49
1.0
 74
     0
 49
-1.5
 74
     0
  0
LTYPE
  5
5C
330
15
100
AcDbSymbolTableRecord
100
AcDbLinetypeTableRecord
  2
AM_DIN_G_W050x2
 70
     0
  3
__ . __ . __ . __ . __ . __
 72
    65
 73
     4
 40
6.875
 49
4.75
 74
     0
 49
-0.875
 74
     0
 49
0.375
 74
     0
 49
-0.875
 74
     0
  0
LTYPE
  5
5D
330
15
100
AcDbSymbolTableRecord
100
AcDbLinetypeTableRecord
  2
AM_DIN_F_W050x2
 70
     0
  3
 _ _ _ _ _ _ _ _ _ _ _ _
 72
    65
 73
     2
 40
3.125
 49
2.25
 74
     0
 49
-0.875
 74
     0
  0
LTYPE
  5
4A
330
15
100
AcDbSymbolTableRecord
100
AcDbLinetypeTableRecord
  2
ACDINWELD
 70
     0
  3
_ _ _ _ _
 72
    65
 73
     2
 40
2.0
 49
2.0
 74
     0
 49
-1.0
 74
     0
  0
LTYPE
  5
4D
330
15
100
AcDbSymbolTableRecord
100
AcDbLinetypeTableRecord
  2
ACDINTGB
 70
     0
  3
__ . . __ . .
 72
    65
 73
     6
 40
9.0
 49
4.0
 74
     0
 49
-1.0
 74
     0
 49
1.0
 74
     0
 49
-1.0
 74
     0
 49
1.0
 74
     0
 49
-1.0
 74
     0
  0
LTYPE
  5
4E
330
15
100
AcDbSymbolTableRecord
100
AcDbLinetypeTableRecord
  2
ACDINTGL
 70
     0
  3
_ _ _ _ _
 72
    65
 73
     2
 40
3.0
 49
2.0
 74
     0
 49
-1.0
 74
     0
  0
LTYPE
  5
52
330
15
100
AcDbSymbolTableRecord
100
AcDbLinetypeTableRecord
  2
CENTER
 70
     0
  3
__ . __
 72
    65
 73
     4
 40
7.0
 49
4.0
 74
     0
 49
-1.0
 74
     0
 49
1.0
 74
     0
 49
-1.0
 74
     0
  0
LTYPE
  5
857
330
15
100
AcDbSymbolTableRecord
100
AcDbLinetypeTableRecord
  2
ACISOWELD
 70
     0
  3
_ _ _ _ _
 72
    65
 73
     2
 40
2.0
 49
2.0
 74
     0
 49
-1.0
 74
     0
  0
LTYPE
  5
858
330
15
100
AcDbSymbolTableRecord
100
AcDbLinetypeTableRecord
  2
ACISOTGB
 70
     0
  3
__ . . __ . .
 72
    65
 73
     6
 40
9.0
 49
4.0
 74
     0
 49
-1.0
 74
     0
 49
1.0
 74
     0
 49
-1.0
 74
     0
 49
1.0
 74
     0
 49
-1.0
 74
     0
  0
LTYPE
  5
859
330
15
100
AcDbSymbolTableRecord
100
AcDbLinetypeTableRecord
  2
ACISOTGL
 70
     0
  3
_ _ _ _ _
 72
    65
 73
     2
 40
3.0
 49
2.0
 74
     0
 49
-1.0
 74
     0
  0
LTYPE
  5
141C
330
15
100
AcDbSymbolTableRecord
100
AcDbLinetypeTableRecord
  2
HIDDEN
 70
     0
  3
Verdeckt
 72
    65
 73
     2
 40
9.525
 49
6.349999999999999
 74
     0
 49
-3.174999999999999
 74
     0
  0
LTYPE
  5
141D
330
15
100
AcDbSymbolTableRecord
100
AcDbLinetypeTableRecord
  2
PHANTOM2
 70
     0
  3
Phantom (.5x) ___ _ _ ___ _ _ ___ _ _ ___ _ _
 72
    65
 73
     6
 40
31.75
 49
15.875
 74
     0
 49
-3.174999999999999
 74
     0
 49
3.174999999999999
 74
     0
 49
-3.174999999999999
 74
     0
 49
3.174999999999999
 74
     0
 49
-3.174999999999999
 74
     0
  0
LTYPE
  5
146B
330
15
100
AcDbSymbolTableRecord
100
AcDbLinetypeTableRecord
  2
AM_ISO02W050
 70
     0
  3
__ __ __ __ __ __ __ __ __ __ __ __ __ __ __
 72
    65
 73
     2
 40
7.5
 49
6.0
 74
     0
 49
-1.5
 74
     0
  0
LTYPE
  5
146C
330
15
100
AcDbSymbolTableRecord
100
AcDbLinetypeTableRecord
  2
AM_ISO08W050
 70
     0
  3
____ . ____ . ____ . ____ . ____ . ____ . ____
 72
    65
 73
     4
 40
18.0
 49
12.0
 74
     0
 49
-1.5
 74
     0
 49
3.0
 74
     0
 49
-1.5
 74
     0
  0
LTYPE
  5
146D
330
15
100
AcDbSymbolTableRecord
100
AcDbLinetypeTableRecord
  2
AM_ISO09W050
 70
     0
  3
_____ . . _____ . . _____ . . ____ .. ____
 72
    65
 73
     6
 40
22.5
 49
12.0
 74
     0
 49
-1.5
 74
     0
 49
3.0
 74
     0
 49
-1.5
 74
     0
 49
3.0
 74
     0
 49
-1.5
 74
     0
  0
LTYPE
  5
146E
330
15
100
AcDbSymbolTableRecord
100
AcDbLinetypeTableRecord
  2
AM_ISO08W050x2
 70
     0
  3
__ . __ . __ . __ . __ . __
 72
    65
 73
     4
 40
9.0
 49
6.0
 74
     0
 49
-0.75
 74
     0
 49
1.5
 74
     0
 49
-0.75
 74
     0
  0
LTYPE
  5
146F
330
15
100
AcDbSymbolTableRecord
100
AcDbLinetypeTableRecord
  2
AM_ISO02W050x2
 70
     0
  3
 _ _ _ _ _ _ _ _ _ _ _ _
 72
    65
 73
     2
 40
3.75
 49
3.0
 74
     0
 49
-0.75
 74
     0
  0
LTYPE
  5
149E
330
15
100
AcDbSymbolTableRecord
100
AcDbLinetypeTableRecord
  2
BORDER
 70
     0
  3
Border __ __ . __ __ . __ __ . __ __ . __ __ .
 72
    65
 73
     6
 40
1.75
 49
0.5
 74
     0
 49
-0.25
 74
     0
 49
0.5
 74
     0
 49
-0.25
 74
     0
 49
0.0
 74
     0
 49
-0.25
 74
     0
  0
LTYPE
  5
149F
330
15
100
AcDbSymbolTableRecord
100
AcDbLinetypeTableRecord
  2
BORDER2
 70
     0
  3
Border (.5x) __.__.__.__.__.__.__.__.__.__.__.
 72
    65
 73
     6
 40
0.875
 49
0.25
 74
     0
 49
-0.125
 74
     0
 49
0.25
 74
     0
 49
-0.125
 74
     0
 49
0.0
 74
     0
 49
-0.125
 74
     0
  0
LTYPE
  5
14A0
330
15
100
AcDbSymbolTableRecord
100
AcDbLinetypeTableRecord
  2
BORDERX2
 70
     0
  3
Border (2x) ____  ____  .  ____  ____  .  ___
 72
    65
 73
     6
 40
3.5
 49
1.0
 74
     0
 49
-0.5
 74
     0
 49
1.0
 74
     0
 49
-0.5
 74
     0
 49
0.0
 74
     0
 49
-0.5
 74
     0
  0
LTYPE
  5
14A1
330
15
100
AcDbSymbolTableRecord
100
AcDbLinetypeTableRecord
  2
CENTER2
 70
     0
  3
Center (.5x) ___ _ ___ _ ___ _ ___ _ ___ _ ___
 72
    65
 73
     4
 40
1.125
 49
0.75
 74
     0
 49
-0.125
 74
     0
 49
0.125
 74
     0
 49
-0.125
 74
     0
  0
LTYPE
  5
14A2
330
15
100
AcDbSymbolTableRecord
100
AcDbLinetypeTableRecord
  2
CENTERX2
 70
     0
  3
Center (2x) ________  __  ________  __  _____
 72
    65
 73
     4
 40
4.0
 49
2.5
 74
     0
 49
-0.5
 74
     0
 49
0.5
 74
     0
 49
-0.5
 74
     0
  0
LTYPE
  5
14A3
330
15
100
AcDbSymbolTableRecord
100
AcDbLinetypeTableRecord
  2
DASHDOT
 70
     0
  3
Dash dot __ . __ . __ . __ . __ . __ . __ . __
 72
    65
 73
     4
 40
1.0
 49
0.5
 74
     0
 49
-0.25
 74
     0
 49
0.0
 74
     0
 49
-0.25
 74
     0
  0
LTYPE
  5
14A4
330
15
100
AcDbSymbolTableRecord
100
AcDbLinetypeTableRecord
  2
DASHDOT2
 70
     0
  3
Dash dot (.5x) _._._._._._._._._._._._._._._.
 72
    65
 73
     4
 40
0.5
 49
0.25
 74
     0
 49
-0.125
 74
     0
 49
0.0
 74
     0
 49
-0.125
 74
     0
  0
LTYPE
  5
14A5
330
15
100
AcDbSymbolTableRecord
100
AcDbLinetypeTableRecord
  2
DASHDOTX2
 70
     0
  3
Dash dot (2x) ____  .  ____  .  ____  .  ___
 72
    65
 73
     4
 40
2.0
 49
1.0
 74
     0
 49
-0.5
 74
     0
 49
0.0
 74
     0
 49
-0.5
 74
     0
  0
LTYPE
  5
14A6
330
15
100
AcDbSymbolTableRecord
100
AcDbLinetypeTableRecord
  2
DASHED
 70
     0
  3
Dashed __ __ __ __ __ __ __ __ __ __ __ __ __ _
 72
    65
 73
     2
 40
0.75
 49
0.5
 74
     0
 49
-0.25
 74
     0
  0
LTYPE
  5
14A7
330
15
100
AcDbSymbolTableRecord
100
AcDbLinetypeTableRecord
  2
DASHED2
 70
     0
  3
Dashed (.5x) _ _ _ _ _ _ _ _ _ _ _ _ _ _ _ _ _
 72
    65
 73
     2
 40
0.375
 49
0.25
 74
     0
 49
-0.125
 74
     0
  0
LTYPE
  5
14A8
330
15
100
AcDbSymbolTableRecord
100
AcDbLinetypeTableRecord
  2
DASHEDX2
 70
     0
  3
Dashed (2x) ____  ____  ____  ____  ____  ___
 72
    65
 73
     2
 40
1.5
 49
1.0
 74
     0
 49
-0.5
 74
     0
  0
LTYPE
  5
14A9
330
15
100
AcDbSymbolTableRecord
100
AcDbLinetypeTableRecord
  2
DIVIDE
 70
     0
  3
Divide ____ . . ____ . . ____ . . ____ . . ____
 72
    65
 73
     6
 40
1.25
 49
0.5
 74
     0
 49
-0.25
 74
     0
 49
0.0
 74
     0
 49
-0.25
 74
     0
 49
0.0
 74
     0
 49
-0.25
 74
     0
  0
LTYPE
  5
14AA
330
15
100
AcDbSymbolTableRecord
100
AcDbLinetypeTableRecord
  2
DIVIDE2
 70
     0
  3
Divide (.5x) __..__..__..__..__..__..__..__.._
 72
    65
 73
     6
 40
0.625
 49
0.25
 74
     0
 49
-0.125
 74
     0
 49
0.0
 74
     0
 49
-0.125
 74
     0
 49
0.0
 74
     0
 49
-0.125
 74
     0
  0
LTYPE
  5
14AB
330
15
100
AcDbSymbolTableRecord
100
AcDbLinetypeTableRecord
  2
DIVIDEX2
 70
     0
  3
Divide (2x) ________  .  .  ________  .  .  _
 72
    65
 73
     6
 40
2.5
 49
1.0
 74
     0
 49
-0.5
 74
     0
 49
0.0
 74
     0
 49
-0.5
 74
     0
 49
0.0
 74
     0
 49
-0.5
 74
     0
  0
LTYPE
  5
14AC
330
15
100
AcDbSymbolTableRecord
100
AcDbLinetypeTableRecord
  2
DOT
 70
     0
  3
Dot . . . . . . . . . . . . . . . . . . . . . .
 72
    65
 73
     2
 40
0.25
 49
0.0
 74
     0
 49
-0.25
 74
     0
  0
LTYPE
  5
14AD
330
15
100
AcDbSymbolTableRecord
100
AcDbLinetypeTableRecord
  2
DOT2
 70
     0
  3
Dot (.5x) .....................................
 72
    65
 73
     2
 40
0.125
 49
0.0
 74
     0
 49
-0.125
 74
     0
  0
LTYPE
  5
14AE
330
15
100
AcDbSymbolTableRecord
100
AcDbLinetypeTableRecord
  2
DOTX2
 70
     0
  3
Dot (2x) .  .  .  .  .  .  .  .  .  .  .  .  . 
 72
    65
 73
     2
 40
0.5
 49
0.0
 74
     0
 49
-0.5
 74
     0
  0
LTYPE
  5
14AF
330
15
100
AcDbSymbolTableRecord
100
AcDbLinetypeTableRecord
  2
GAS_LINE
 70
     0
  3
Gas line ----GAS----GAS----GAS----GAS----GAS---
 72
    65
 73
     3
 40
0.95
 49
0.5
 74
     0
 49
-0.2
 74
     2
 75
     0
340
13
 46
0.1
 50
0.0
 44
-0.1
 45
-0.05
  9
GAS
 49
-0.25
 74
     0
  0
LTYPE
  5
14B0
330
15
100
AcDbSymbolTableRecord
100
AcDbLinetypeTableRecord
  2
HIDDEN2
 70
     0
  3
Hidden (.5x) _ _ _ _ _ _ _ _ _ _ _ _ _ _ _ _ _
 72
    65
 73
     2
 40
0.1875
 49
0.125
 74
     0
 49
-0.0625
 74
     0
  0
LTYPE
  5
14B1
330
15
100
AcDbSymbolTableRecord
100
AcDbLinetypeTableRecord
  2
HIDDENX2
 70
     0
  3
Hidden (2x) ____ ____ ____ ____ ____ ____ ____
 72
    65
 73
     2
 40
0.75
 49
0.5
 74
     0
 49
-0.25
 74
     0
  0
LTYPE
  5
14B2
330
15
100
AcDbSymbolTableRecord
100
AcDbLinetypeTableRecord
  2
PHANTOM
 70
     0
  3
Phantom ______  __  __  ______  __  __  ______
 72
    65
 73
     6
 40
2.5
 49
1.25
 74
     0
 49
-0.25
 74
     0
 49
0.25
 74
     0
 49
-0.25
 74
     0
 49
0.25
 74
     0
 49
-0.25
 74
     0
  0
LTYPE
  5
14B3
330
15
100
AcDbSymbolTableRecord
100
AcDbLinetypeTableRecord
  2
PHANTOMX2
 70
     0
  3
Phantom (2x) ____________    ____    ____   _
 72
    65
 73
     6
 40
5.0
 49
2.5
 74
     0
 49
-0.5
 74
     0
 49
0.5
 74
     0
 49
-0.5
 74
     0
 49
0.5
 74
     0
 49
-0.5
 74
     0
  0
LTYPE
  5
14B4
330
15
100
AcDbSymbolTableRecord
100
AcDbLinetypeTableRecord
  2
ZIGZAG
 70
     0
  3
Zig zag /\/\/\/\/\/\/\/\/\/\/\/\/\/\/\/\/\/\/\/
 72
    65
 73
     4
 40
0.8001000000000001
 49
0.0001
 74
     0
 49
-0.2
 74
     4
 75
   131
340
14C8
 46
0.2
 50
0.0
 44
-0.2
 45
0.0
 49
-0.4
 74
     4
 75
   131
340
14C8
 46
0.2
 50
180.0
 44
0.2
 45
0.0
 49
-0.2
 74
     0
  0
LTYPE
  5
14B5
330
15
100
AcDbSymbolTableRecord
100
AcDbLinetypeTableRecord
  2
CPFLEX
 70
     0
  3
CP flex /\/\/\/\/\/\/\/\/\/\/\/\/\/\/\/\/\/\/\/
 72
    65
 73
     4
 40
0.8001000000000001
 49
0.0001
 74
     0
 49
-0.2
 74
     4
 75
   131
340
14C8
 46
0.2
 50
0.0
 44
-0.2
 45
0.0
 49
-0.4
 74
     4
 75
   131
340
14C8
 46
0.2
 50
180.0
 44
0.2
 45
0.0
 49
-0.2
 74
     0
  0
LTYPE
  5
14B6
330
15
100
AcDbSymbolTableRecord
100
AcDbLinetypeTableRecord
  2
CIRC
 70
     0
  3
 ----- ~ ----- ~ ---- ~ -----
 72
    65
 73
     3
 40
9.0
 49
7.0
 74
     0
 49
-1.0
 74
     2
 75
     0
340
13
 46
1.0
 50
0.0
 44
-0.3
 45
-0.6
  9
~
 49
-1.0
 74
     0
  0
LTYPE
  5
14B7
330
15
100
AcDbSymbolTableRecord
100
AcDbLinetypeTableRecord
  2
DN 010
 70
     0
  3
 DN10  ---- 10 ---- 10 ---- 10 ----
 72
    65
 73
     3
 40
9.0
 49
5.0
 74
     0
 49
-2.0
 74
     2
 75
     0
340
13
 46
1.0
 50
0.0
 44
-0.5
 45
-0.5
  9
10
 49
-2.0
 74
     0
  0
LTYPE
  5
14B8
330
15
100
AcDbSymbolTableRecord
100
AcDbLinetypeTableRecord
  2
DN 015
 70
     0
  3
 DN15  ---- 15 ---- 15 ---- 15 ----
 72
    65
 73
     3
 40
9.0
 49
5.0
 74
     0
 49
-2.0
 74
     2
 75
     0
340
13
 46
1.0
 50
0.0
 44
-0.5
 45
-0.5
  9
15
 49
-2.0
 74
     0
  0
LTYPE
  5
14B9
330
15
100
AcDbSymbolTableRecord
100
AcDbLinetypeTableRecord
  2
DN 020
 70
     0
  3
 DN20  ---- 20 ---- 20 ---- 20 ----
 72
    65
 73
     3
 40
9.0
 49
5.0
 74
     0
 49
-2.0
 74
     2
 75
     0
340
13
 46
1.0
 50
0.0
 44
-0.5
 45
-0.5
  9
20
 49
-2.0
 74
     0
  0
LTYPE
  5
14BA
330
15
100
AcDbSymbolTableRecord
100
AcDbLinetypeTableRecord
  2
DN 025
 70
     0
  3
 DN25  ---- 25 ---- 25 ---- 25 ----
 72
    65
 73
     3
 40
9.0
 49
5.0
 74
     0
 49
-2.0
 74
     2
 75
     0
340
13
 46
1.0
 50
0.0
 44
-0.5
 45
-0.5
  9
25
 49
-2.0
 74
     0
  0
LTYPE
  5
14BB
330
15
100
AcDbSymbolTableRecord
100
AcDbLinetypeTableRecord
  2
DN 032
 70
     0
  3
 DN32  ---- 32 ---- 32 ---- 32 ----
 72
    65
 73
     3
 40
9.0
 49
5.0
 74
     0
 49
-2.0
 74
     2
 75
     0
340
13
 46
1.0
 50
0.0
 44
-0.5
 45
-0.5
  9
32
 49
-2.0
 74
     0
  0
LTYPE
  5
14BC
330
15
100
AcDbSymbolTableRecord
100
AcDbLinetypeTableRecord
  2
DN 040
 70
     0
  3
 DN40  ---- 40 ---- 40 ---- 40 ----
 72
    65
 73
     3
 40
9.0
 49
5.0
 74
     0
 49
-2.0
 74
     2
 75
     0
340
13
 46
1.0
 50
0.0
 44
-0.5
 45
-0.5
  9
40
 49
-2.0
 74
     0
  0
LTYPE
  5
14BD
330
15
100
AcDbSymbolTableRecord
100
AcDbLinetypeTableRecord
  2
DN 050
 70
     0
  3
 DN50  ---- 50 ---- 50 ---- 50 ----
 72
    65
 73
     3
 40
9.0
 49
5.0
 74
     0
 49
-2.0
 74
     2
 75
     0
340
13
 46
1.0
 50
0.0
 44
-0.5
 45
-0.5
  9
50
 49
-2.0
 74
     0
  0
LTYPE
  5
14BE
330
15
100
AcDbSymbolTableRecord
100
AcDbLinetypeTableRecord
  2
DN 065
 70
     0
  3
 DN65  ---- 65 ---- 65 ---- 65 ----
 72
    65
 73
     3
 40
9.0
 49
5.0
 74
     0
 49
-2.0
 74
     2
 75
     0
340
13
 46
1.0
 50
0.0
 44
-0.5
 45
-0.5
  9
65
 49
-2.0
 74
     0
  0
LTYPE
  5
14BF
330
15
100
AcDbSymbolTableRecord
100
AcDbLinetypeTableRecord
  2
DN 080
 70
     0
  3
 DN80  ---- 80 ---- 80 ---- 80 ----
 72
    65
 73
     3
 40
9.0
 49
5.0
 74
     0
 49
-2.0
 74
     2
 75
     0
340
13
 46
1.0
 50
0.0
 44
-0.5
 45
-0.5
  9
80
 49
-2.0
 74
     0
  0
LTYPE
  5
14C0
330
15
100
AcDbSymbolTableRecord
100
AcDbLinetypeTableRecord
  2
DN 100
 70
     0
  3
 DN100 ---- 100 --- 100 --- 100 ---
 72
    65
 73
     3
 40
9.0
 49
5.0
 74
     0
 49
-2.0
 74
     2
 75
     0
340
13
 46
1.0
 50
0.0
 44
-1.0
 45
-0.5
  9
100
 49
-2.0
 74
     0
  0
LTYPE
  5
14C1
330
15
100
AcDbSymbolTableRecord
100
AcDbLinetypeTableRecord
  2
DN 125
 70
     0
  3
 DN125 ---- 125 --- 125 --- 125 ---
 72
    65
 73
     3
 40
9.0
 49
5.0
 74
     0
 49
-2.0
 74
     2
 75
     0
340
13
 46
1.0
 50
0.0
 44
-1.0
 45
-0.5
  9
125
 49
-2.0
 74
     0
  0
LTYPE
  5
14C2
330
15
100
AcDbSymbolTableRecord
100
AcDbLinetypeTableRecord
  2
DN 150
 70
     0
  3
 DN150 ---- 150 --- 150 --- 150 ---
 72
    65
 73
     3
 40
9.0
 49
5.0
 74
     0
 49
-2.0
 74
     2
 75
     0
340
13
 46
1.0
 50
0.0
 44
-1.0
 45
-0.5
  9
150
 49
-2.0
 74
     0
  0
LTYPE
  5
14C3
330
15
100
AcDbSymbolTableRecord
100
AcDbLinetypeTableRecord
  2
DN 200
 70
     0
  3
 DN200 ---- 200 --- 200 --- 200 ---
 72
    65
 73
     3
 40
9.0
 49
5.0
 74
     0
 49
-2.0
 74
     2
 75
     0
340
13
 46
1.0
 50
0.0
 44
-1.0
 45
-0.5
  9
200
 49
-2.0
 74
     0
  0
LTYPE
  5
14C4
330
15
100
AcDbSymbolTableRecord
100
AcDbLinetypeTableRecord
  2
DN 250
 70
     0
  3
 DN250 ---- 250 --- 250 --- 250 ---
 72
    65
 73
     3
 40
9.0
 49
5.0
 74
     0
 49
-2.0
 74
     2
 75
     0
340
13
 46
1.0
 50
0.0
 44
-1.0
 45
-0.5
  9
250
 49
-2.0
 74
     0
  0
LTYPE
  5
14C5
330
15
100
AcDbSymbolTableRecord
100
AcDbLinetypeTableRecord
  2
DN 300
 70
     0
  3
 DN300 ---- 300 --- 300 --- 300 ---
 72
    65
 73
     3
 40
9.0
 49
5.0
 74
     0
 49
-2.0
 74
     2
 75
     0
340
13
 46
1.0
 50
0.0
 44
-1.0
 45
-0.5
  9
300
 49
-2.0
 74
     0
  0
ENDTAB
  0
TABLE
  2
LAYER
  5
D
330
0
100
AcDbSymbolTable
 70
     8
  0
LAYER
  5
E
330
D
100
AcDbSymbolTableRecord
100
AcDbLayerTableRecord
  2
0
 70
     0
 62
     7
  6
CONTINUOUS
370
    -3
390
F
  0
LAYER
  5
25
330
D
100
AcDbSymbolTableRecord
100
AcDbLayerTableRecord
  2
AM_0
 70
     0
 62
     7
  6
CONTINUOUS
370
    -3
390
F
  0
LAYER
  5
31
330
D
100
AcDbSymbolTableRecord
100
AcDbLayerTableRecord
  2
AM_5
 70
     0
 62
     3
  6
CONTINUOUS
370
    -3
390
F
  0
LAYER
  5
3A
330
D
100
AcDbSymbolTableRecord
100
AcDbLayerTableRecord
  2
DEFPOINTS
 70
     0
 62
     7
  6
CONTINUOUS
290
     0
370
    -3
390
F
  0
LAYER
  5
C4
330
D
100
AcDbSymbolTableRecord
100
AcDbLayerTableRecord
  2
AM_7
 70
     0
 62
     4
  6
AM_DIN_G_W050
370
    -3
390
F
  0
LAYER
  5
28
330
D
100
AcDbSymbolTableRecord
100
AcDbLayerTableRecord
  2
AM_8
 70
     0
 62
     1
  6
CONTINUOUS
370
    -3
390
F
  0
LAYER
  5
CF
330
D
100
AcDbSymbolTableRecord
100
AcDbLayerTableRecord
  2
AM_4
 70
     0
 62
     3
  6
CONTINUOUS
370
    -3
390
F
  0
LAYER
  5
CD
330
D
100
AcDbSymbolTableRecord
100
AcDbLayerTableRecord
  2
AM_6
 70
     0
 62
     2
  6
CONTINUOUS
370
    -3
390
F
  0
ENDTAB
  0
TABLE
  2
STYLE
  5
12
330
0
100
AcDbSymbolTable
 70
    14
  0
STYLE
  5
13
330
12
100
AcDbSymbolTableRecord
100
AcDbTextStyleTableRecord
  2
STANDARD
 70
     0
 40
0.0
 41
1.0
 50
0.0
 71
     0
 42
50.0
  3
ISOCP.SHX
  4

  0
STYLE
  5
5F
330
12
100
AcDbSymbolTableRecord
100
AcDbTextStyleTableRecord
  2

 70
     1
 40
0.0
 41
1.0
 50
0.0
 71
     0
 42
2.5
  3
ltypeshp.shx
  4

  0
STYLE
  5
44
330
12
100
AcDbSymbolTableRecord
100
AcDbTextStyleTableRecord
  2
ACDINTS
 70
     0
 40
1.0
 41
1.0
 50
0.0
 71
     0
 42
2.5
  3
isocp.shx
  4

  0
STYLE
  5
48
330
12
100
AcDbSymbolTableRecord
100
AcDbTextStyleTableRecord
  2
ACDINGDT
 70
     0
 40
0.0
 41
1.0
 50
0.0
 71
     0
 42
2.5
  3
amgdt.shx
  4

  0
STYLE
  5
85A
330
12
100
AcDbSymbolTableRecord
100
AcDbTextStyleTableRecord
  2
ACISOTS
 70
     0
 40
1.0
 41
1.0
 50
0.0
 71
     0
 42
2.5
  3
isocp.shx
  4
bigfont.shx
  0
STYLE
  5
85B
330
12
100
AcDbSymbolTableRecord
100
AcDbTextStyleTableRecord
  2
ACISOGDT
 70
     0
 40
0.0
 41
1.0
 50
0.0
 71
     0
 42
2.5
  3
amgdt.shx
  4
bigfont.shx
  0
STYLE
  5
14C6
330
12
100
AcDbSymbolTableRecord
100
AcDbTextStyleTableRecord
  2
Annotative
 70
     0
 40
0.0
 41
1.0
 50
0.0
 71
     0
 42
2.5
  3
ARIAL.TTF
  4

1001
AcadAnnotative
1000
AnnotativeData
1002
{
1070
     1
1070
     1
1002
}
1001
ACAD
1000
Arial
1071
       34
  0
STYLE
  5
14C7
330
12
100
AcDbSymbolTableRecord
100
AcDbTextStyleTableRecord
  2
CP_TXT
 70
     0
 40
0.0
 41
1.0
 50
0.0
 71
     0
 42
2.5
  3
ROMANS.SHX
  4

  0
STYLE
  5
14C8
330
12
100
AcDbSymbolTableRecord
100
AcDbTextStyleTableRecord
  2

 70
     1
 40
0.0
 41
1.0
 50
0.0
 71
     0
 42
2.5
  3
LTYPESHP.SHX
  4

  0
STYLE
  5
14C9
330
12
100
AcDbSymbolTableRecord
100
AcDbTextStyleTableRecord
  2
CP_ATTR
 70
     0
 40
0.0
 41
1.0
 50
0.0
 71
     0
 42
0.2
  3
ROMANS.SHX
  4

  0
STYLE
  5
14CA
330
12
100
AcDbSymbolTableRecord
100
AcDbTextStyleTableRecord
  2
CP_TXT_IT
 70
     0
 40
0.0
 41
1.0
 50
15.0
 71
     0
 42
2.5
  3
ROMANS.SHX
  4

  0
STYLE
  5
14CB
330
12
100
AcDbSymbolTableRecord
100
AcDbTextStyleTableRecord
  2
CP_TXTCON
 70
     0
 40
0.0
 41
0.8
 50
0.0
 71
     0
 42
2.5
  3
ROMANS.SHX
  4

  0
STYLE
  5
14CC
330
12
100
AcDbSymbolTableRecord
100
AcDbTextStyleTableRecord
  2
CP_TXTCON_IT
 70
     0
 40
0.0
 41
0.8
 50
15.0
 71
     0
 42
2.5
  3
ROMANS.SHX
  4

  0
ENDTAB
  0
TABLE
  2
VIEW
  5
18
330
0
100
AcDbSymbolTable
 70
     1
  0
VIEW
  5
1347
330
18
100
AcDbSymbolTableRecord
100
AcDbViewTableRecord
  2
AM_VIEW6
 70
     0
 40
434.6408789999999
 10
27.20456
 20
2.893715
 41
828.777591
 11
0.0
 21
0.0
 31
1.0
 12
279.805263
 22
217.101156
 32
0.0
 42
50.0
 43
0.0
 44
0.0
 50
0.0
 71
     0
281
     0
 72
     0
  0
ENDTAB
  0
TABLE
  2
UCS
  5
19
330
0
100
AcDbSymbolTable
 70
     0
  0
ENDTAB
  0
TABLE
  2
APPID
  5
1C
330
0
100
AcDbSymbolTable
 70
    82
  0
APPID
  5
1D
330
1C
100
AcDbSymbolTableRecord
100
AcDbRegAppTableRecord
  2
ACAD
 70
     0
  0
APPID
  5
94
330
1C
100
AcDbSymbolTableRecord
100
AcDbRegAppTableRecord
  2
GENIUS_GENDTOL_13
 70
     0
  0
APPID
  5
1AE
330
1C
100
AcDbSymbolTableRecord
100
AcDbRegAppTableRecord
  2
GENIUS_GENTRA_14
 70
     0
  0
APPID
  5
29
330
1C
100
AcDbSymbolTableRecord
100
AcDbRegAppTableRecord
  2
GENIUS_GENODEF_13
 70
     0
  0
APPID
  5
793
330
1C
100
AcDbSymbolTableRecord
100
AcDbRegAppTableRecord
  2
GENIUS_GENOBJ-N-TIT_13
 70
     0
  0
APPID
  5
794
330
1C
100
AcDbSymbolTableRecord
100
AcDbRegAppTableRecord
  2
GENIUS_GENTITLE_13
 70
     0
  0
APPID
  5
792
330
1C
100
AcDbSymbolTableRecord
100
AcDbRegAppTableRecord
  2
GENIUS_GENOENT_13
 70
     0
  0
APPID
  5
5DD
330
1C
100
AcDbSymbolTableRecord
100
AcDbRegAppTableRecord
  2
GENIUS_GENOREF_13
 70
     0
  0
APPID
  5
791
330
1C
100
AcDbSymbolTableRecord
100
AcDbRegAppTableRecord
  2
GENIUS_GENOLIS_13
 70
     0
  0
APPID
  5
19A
330
1C
100
AcDbSymbolTableRecord
100
AcDbRegAppTableRecord
  2
GENIUS_GENOBJ-N-SDF_13
 70
     0
  0
APPID
  5
19B
330
1C
100
AcDbSymbolTableRecord
100
AcDbRegAppTableRecord
  2
GENIUS_GENSCREG_15
 70
     0
  0
APPID
  5
178
330
1C
100
AcDbSymbolTableRecord
100
AcDbRegAppTableRecord
  2
GENIUS_GENOBJ-N-FIL_13
 70
     0
  0
APPID
  5
2A
330
1C
100
AcDbSymbolTableRecord
100
AcDbRegAppTableRecord
  2
GENIUS_GENOBJ-N-HTC_13
 70
     0
  0
APPID
  5
2B
330
1C
100
AcDbSymbolTableRecord
100
AcDbRegAppTableRecord
  2
GENIUS_GENHATCH_13
 70
     0
  0
APPID
  5
15B
330
1C
100
AcDbSymbolTableRecord
100
AcDbRegAppTableRecord
  2
GENIUS_GENREC_14
 70
     0
  0
APPID
  5
15C
330
1C
100
AcDbSymbolTableRecord
100
AcDbRegAppTableRecord
  2
GENIUS_GENOBJ-N-REC_13
 70
     0
  0
APPID
  5
7A4
330
1C
100
AcDbSymbolTableRecord
100
AcDbRegAppTableRecord
  2
MCAD_NO_VIS
 70
     0
  0
APPID
  5
7A5
330
1C
100
AcDbSymbolTableRecord
100
AcDbRegAppTableRecord
  2
ACAD_TEMP_GRAPHIC
 70
     0
  0
APPID
  5
7B2
330
1C
100
AcDbSymbolTableRecord
100
AcDbRegAppTableRecord
  2
ACATTRIBSERVICES
 70
     0
  0
APPID
  5
7CD
330
1C
100
AcDbSymbolTableRecord
100
AcDbRegAppTableRecord
  2
GENIUS_GENBLLY_14
 70
     0
  0
APPID
  5
862
330
1C
100
AcDbSymbolTableRecord
100
AcDbRegAppTableRecord
  2
GENIUS_GENCFG_13
 70
     0
  0
APPID
  5
863
330
1C
100
AcDbSymbolTableRecord
100
AcDbRegAppTableRecord
  2
GENIUS_GENCFG0_13
 70
     0
  0
APPID
  5
864
330
1C
100
AcDbSymbolTableRecord
100
AcDbRegAppTableRecord
  2
GENIUS_GENCFG1_13
 70
     0
  0
APPID
  5
865
330
1C
100
AcDbSymbolTableRecord
100
AcDbRegAppTableRecord
  2
GENIUS_GENCFG2_13
 70
     0
  0
APPID
  5
866
330
1C
100
AcDbSymbolTableRecord
100
AcDbRegAppTableRecord
  2
GENIUS_GENCFG3_13
 70
     0
  0
APPID
  5
867
330
1C
100
AcDbSymbolTableRecord
100
AcDbRegAppTableRecord
  2
GENIUS_GENCFG4_13
 70
     0
  0
APPID
  5
868
330
1C
100
AcDbSymbolTableRecord
100
AcDbRegAppTableRecord
  2
GENIUS_GEVCFG0_13
 70
     0
  0
APPID
  5
869
330
1C
100
AcDbSymbolTableRecord
100
AcDbRegAppTableRecord
  2
GENIUS_VERSION1
 70
     0
  0
APPID
  5
86A
330
1C
100
AcDbSymbolTableRecord
100
AcDbRegAppTableRecord
  2
GENIUS_GENDIM_13
 70
     0
  0
APPID
  5
86B
330
1C
100
AcDbSymbolTableRecord
100
AcDbRegAppTableRecord
  2
GENIUS_GE3DTOL_13
 70
     0
  0
APPID
  5
86C
330
1C
100
AcDbSymbolTableRecord
100
AcDbRegAppTableRecord
  2
AD_DRAW
 70
     0
  0
APPID
  5
86D
330
1C
100
AcDbSymbolTableRecord
100
AcDbRegAppTableRecord
  2
ASURF_PCURVE_APPNAME
 70
     0
  0
APPID
  5
86E
330
1C
100
AcDbSymbolTableRecord
100
AcDbRegAppTableRecord
  2
AMG_3D2D_5_0
 70
     0
  0
APPID
  5
86F
330
1C
100
AcDbSymbolTableRecord
100
AcDbRegAppTableRecord
  2
DESIGNERASSEMBLIES
 70
     0
  0
APPID
  5
870
330
1C
100
AcDbSymbolTableRecord
100
AcDbRegAppTableRecord
  2
ACADM_DIM_EDIT
 70
     0
  0
APPID
  5
871
330
1C
100
AcDbSymbolTableRecord
100
AcDbRegAppTableRecord
  2
GENIUS_GEFCFG0_13
 70
     0
  0
APPID
  5
872
330
1C
100
AcDbSymbolTableRecord
100
AcDbRegAppTableRecord
  2
GENIUS_GENBLKED_14
 70
     0
  0
APPID
  5
873
330
1C
100
AcDbSymbolTableRecord
100
AcDbRegAppTableRecord
  2
GENIUS_GENZVEED_13
 70
     0
  0
APPID
  5
874
330
1C
100
AcDbSymbolTableRecord
100
AcDbRegAppTableRecord
  2
GENIUS_GENSCREG_13
 70
     0
  0
APPID
  5
875
330
1C
100
AcDbSymbolTableRecord
100
AcDbRegAppTableRecord
  2
DCO15
 70
     0
  0
APPID
  5
876
330
1C
100
AcDbSymbolTableRecord
100
AcDbRegAppTableRecord
  2
GENIUS_GENOBJ-N-CEN_13
 70
     0
  0
APPID
  5
877
330
1C
100
AcDbSymbolTableRecord
100
AcDbRegAppTableRecord
  2
GENIUS_GENBH_13
 70
     0
  0
APPID
  5
878
330
1C
100
AcDbSymbolTableRecord
100
AcDbRegAppTableRecord
  2
GENIUS_GENOBJ-NBEHI-BHB_13
 70
     0
  0
APPID
  5
879
330
1C
100
AcDbSymbolTableRecord
100
AcDbRegAppTableRecord
  2
GENIUS_GENHINW_13
 70
     0
  0
APPID
  5
87A
330
1C
100
AcDbSymbolTableRecord
100
AcDbRegAppTableRecord
  2
GENIUS_FIRSTVISTXT_14
 70
     0
  0
APPID
  5
87B
330
1C
100
AcDbSymbolTableRecord
100
AcDbRegAppTableRecord
  2
GENIUS_GENOBJ-N-LEADER_13
 70
     0
  0
APPID
  5
87C
330
1C
100
AcDbSymbolTableRecord
100
AcDbRegAppTableRecord
  2
GENIUS_SECONDVISTXT_14
 70
     0
  0
APPID
  5
87D
330
1C
100
AcDbSymbolTableRecord
100
AcDbRegAppTableRecord
  2
GENIUS_GENOBJ-N-HINW_13
 70
     0
  0
APPID
  5
87E
330
1C
100
AcDbSymbolTableRecord
100
AcDbRegAppTableRecord
  2
GENIUS_GEFWELD_13
 70
     0
  0
APPID
  5
87F
330
1C
100
AcDbSymbolTableRecord
100
AcDbRegAppTableRecord
  2
GENIUS_GENOBJ-F-WEL_13
 70
     0
  0
APPID
  5
880
330
1C
100
AcDbSymbolTableRecord
100
AcDbRegAppTableRecord
  2
GEVID980252217
 70
     0
  0
APPID
  5
881
330
1C
100
AcDbSymbolTableRecord
100
AcDbRegAppTableRecord
  2
GEVPT
 70
     0
  0
APPID
  5
882
330
1C
100
AcDbSymbolTableRecord
100
AcDbRegAppTableRecord
  2
GEVIT
 70
     0
  0
APPID
  5
883
330
1C
100
AcDbSymbolTableRecord
100
AcDbRegAppTableRecord
  2
VCC
 70
     0
  0
APPID
  5
884
330
1C
100
AcDbSymbolTableRecord
100
AcDbRegAppTableRecord
  2
GENBH
 70
     0
  0
APPID
  5
885
330
1C
100
AcDbSymbolTableRecord
100
AcDbRegAppTableRecord
  2
GENIUS_GENOBJ-NBEHI-BHF_13
 70
     0
  0
APPID
  5
886
330
1C
100
AcDbSymbolTableRecord
100
AcDbRegAppTableRecord
  2
GENIUS_GENOBJ-F-PART_13
 70
     0
  0
APPID
  5
887
330
1C
100
AcDbSymbolTableRecord
100
AcDbRegAppTableRecord
  2
GENIUS_GEFSTDP_13
 70
     0
  0
APPID
  5
888
330
1C
100
AcDbSymbolTableRecord
100
AcDbRegAppTableRecord
  2
GENIUS_GEFPARTINS_13
 70
     0
  0
APPID
  5
889
330
1C
100
AcDbSymbolTableRecord
100
AcDbRegAppTableRecord
  2
GEVID980252219
 70
     0
  0
APPID
  5
88A
330
1C
100
AcDbSymbolTableRecord
100
AcDbRegAppTableRecord
  2
GENIUS_GENDREL_13
 70
     0
  0
APPID
  5
88B
330
1C
100
AcDbSymbolTableRecord
100
AcDbRegAppTableRecord
  2
GEV_VCCNULL_SWITCH_OFF
 70
     0
  0
APPID
  5
88C
330
1C
100
AcDbSymbolTableRecord
100
AcDbRegAppTableRecord
  2
ACA_CADIMENU
 70
     0
  0
APPID
  5
88D
330
1C
100
AcDbSymbolTableRecord
100
AcDbRegAppTableRecord
  2
GENIUS_GENCFG5_13
 70
     0
  0
APPID
  5
88E
330
1C
100
AcDbSymbolTableRecord
100
AcDbRegAppTableRecord
  2
GENIUS_GENOBJ-N-CRS_13
 70
     0
  0
APPID
  5
88F
330
1C
100
AcDbSymbolTableRecord
100
AcDbRegAppTableRecord
  2
GENIUS_GENDIMSH_14
 70
     0
  0
APPID
  5
890
330
1C
100
AcDbSymbolTableRecord
100
AcDbRegAppTableRecord
  2
GENIUS_GENOBJ-F-SCPASSM_13
 70
     0
  0
APPID
  5
891
330
1C
100
AcDbSymbolTableRecord
100
AcDbRegAppTableRecord
  2
GENIUS_GENIUS_GENBHEDTMP_13
 70
     0
  0
APPID
  5
892
330
1C
100
AcDbSymbolTableRecord
100
AcDbRegAppTableRecord
  2
GEVID1032351709
 70
     0
  0
APPID
  5
893
330
1C
100
AcDbSymbolTableRecord
100
AcDbRegAppTableRecord
  2
GEVDC
 70
     0
  0
APPID
  5
894
330
1C
100
AcDbSymbolTableRecord
100
AcDbRegAppTableRecord
  2
GENIUS_GENOBJ-F-WELS_13
 70
     0
  0
APPID
  5
895
330
1C
100
AcDbSymbolTableRecord
100
AcDbRegAppTableRecord
  2
GEVID1036052968
 70
     0
  0
APPID
  5
896
330
1C
100
AcDbSymbolTableRecord
100
AcDbRegAppTableRecord
  2
GEVID1036052969
 70
     0
  0
APPID
  5
897
330
1C
100
AcDbSymbolTableRecord
100
AcDbRegAppTableRecord
  2
GEVID1036052971
 70
     0
  0
APPID
  5
898
330
1C
100
AcDbSymbolTableRecord
100
AcDbRegAppTableRecord
  2
GENIUS_GENOBJ-N-DIM_13
 70
     0
  0
APPID
  5
13EC
330
1C
100
AcDbSymbolTableRecord
100
AcDbRegAppTableRecord
  2
AMDT_DM_ADJ
 70
     0
  0
APPID
  5
14D0
330
1C
100
AcDbSymbolTableRecord
100
AcDbRegAppTableRecord
  2
ACAD_PSEXT
 70
     0
  0
APPID
  5
14D1
330
1C
100
AcDbSymbolTableRecord
100
AcDbRegAppTableRecord
  2
AcadAnnoPO
 70
     0
  0
APPID
  5
14D2
330
1C
100
AcDbSymbolTableRecord
100
AcDbRegAppTableRecord
  2
AcadAnnotative
 70
     0
  0
APPID
  5
14D3
330
1C
100
AcDbSymbolTableRecord
100
AcDbRegAppTableRecord
  2
ACAD_DSTYLE_DIMJAG
 70
     0
  0
APPID
  5
14D4
330
1C
100
AcDbSymbolTableRecord
100
AcDbRegAppTableRecord
  2
ACAD_DSTYLE_DIMTALN
 70
     0
  0
APPID
  5
14D5
330
1C
100
AcDbSymbolTableRecord
100
AcDbRegAppTableRecord
  2
ACAD_MLEADERVER
 70
     0
  0
ENDTAB
  0
TABLE
  2
DIMSTYLE
  5
1E
330
0
100
AcDbSymbolTable
 70
    19
100
AcDbDimStyleTable
 71
     1
340
1F
  0
DIMSTYLE
105
1F
102
{ACAD_REACTORS
330
6C4
330
30
330
B2
330
A5
330
87
102
}
330
1E
100
AcDbSymbolTableRecord
100
AcDbDimStyleTableRecord
  2
AM_DIN
 70
     0
  4
"
 41
2.5
 42
1.0
 43
10.0
 44
1.0
 47
0.1
 48
0.1
 73
     0
 74
     0
 77
     1
 78
     8
 79
     2
140
3.5
141
0.0
143
0.0393701
146
0.71
147
1.5
172
     1
176
   256
177
   256
178
     2
271
     2
272
     3
274
     4
283
     0
284
     8
340
13
371
    -1
372
    -1
  0
DIMSTYLE
105
62
330
1E
100
AcDbSymbolTableRecord
100
AcDbDimStyleTableRecord
  2
AM_DIN$3
 70
     0
  4
"
 41
2.5
 42
1.0
 43
10.0
 44
1.0
 47
0.1
 48
0.1
 73
     0
 77
     1
 78
     8
 79
     2
140
3.5
141
0.0
143
0.0393701
146
0.71
147
1.5
176
   256
177
   256
178
     2
271
     2
272
     3
274
     4
283
     0
284
     8
288
     1
289
     0
340
13
371
    -1
372
    -1
  0
DIMSTYLE
105
63
330
1E
100
AcDbSymbolTableRecord
100
AcDbDimStyleTableRecord
  2
AM_DIN$4
 70
     0
  4
"
 41
2.5
 42
1.0
 43
10.0
 44
1.0
 47
0.1
 48
0.1
 73
     0
 77
     1
 78
     8
 79
     2
140
3.5
141
0.0
143
0.0393701
146
0.71
147
1.5
176
   256
177
   256
178
     2
271
     2
272
     3
274
     4
283
     0
284
     8
288
     1
289
     0
340
13
371
    -1
372
    -1
  0
DIMSTYLE
105
64
330
1E
100
AcDbSymbolTableRecord
100
AcDbDimStyleTableRecord
  2
AM_DIN$6
 70
     0
  4
"
 41
2.5
 42
1.0
 43
10.0
 44
1.0
 47
0.1
 48
0.1
 73
     0
 74
     0
 78
     8
 79
     2
140
3.5
141
0.0
143
0.0393701
146
0.71
147
1.5
172
     1
176
   256
177
   256
178
     2
271
     2
272
     3
274
     4
283
     0
284
     8
340
13
371
    -1
372
    -1
  0
DIMSTYLE
105
65
330
1E
100
AcDbSymbolTableRecord
100
AcDbDimStyleTableRecord
  2
AM_DIN$7
 70
     0
  4
"
 41
2.5
 42
1.0
 43
10.0
 44
1.0
 47
0.1
 48
0.1
 73
     0
 74
     0
 77
     1
 78
     8
 79
     2
140
5.0
141
0.0
143
0.0393701
146
0.71
147
1.5
172
     1
176
   256
177
   256
178
     2
271
     2
272
     3
274
     4
283
     0
284
     8
340
13
371
    -1
372
    -1
  0
DIMSTYLE
105
66
330
1E
100
AcDbSymbolTableRecord
100
AcDbDimStyleTableRecord
  2
AM_DIN$SF
 70
     0
  4
"
 41
2.5
 42
1.0
 43
10.0
 44
1.0
 47
0.1
 48
0.1
 73
     0
 74
     0
 75
     1
 76
     1
 77
     1
 78
     8
 79
     2
140
3.5
141
0.0
143
0.0393701
146
0.71
147
1.5
172
     1
176
   256
177
   256
178
     2
271
     2
272
     3
274
     4
283
     0
284
     8
340
13
371
    -1
372
    -1
  0
DIMSTYLE
105
67
330
1E
100
AcDbSymbolTableRecord
100
AcDbDimStyleTableRecord
  2
AM_DIN$SH
 70
     0
  4
"
 41
2.5
 42
1.0
 43
10.0
 44
1.0
 47
0.1
 48
0.1
 73
     0
 74
     0
 75
     1
 76
     1
 77
     1
 78
     8
 79
     2
140
3.5
141
0.0
143
0.0393701
144
2.0
146
0.71
147
1.5
172
     1
173
     1
176
   256
177
   256
178
     2
271
     2
272
     3
274
     4
283
     0
284
     8
340
13
343
68
371
    -1
372
    -1
  0
DIMSTYLE
105
20
330
1E
100
AcDbSymbolTableRecord
100
AcDbDimStyleTableRecord
  2
AM_ISO
 70
     0
  4
"
 41
2.5
 42
1.0
 43
10.0
 44
1.0
 47
0.1
 48
0.1
 73
     0
 74
     0
 77
     1
 78
     8
 79
     2
140
3.5
141
0.0
143
0.0393701
146
0.71
147
1.5
172
     1
176
   256
177
   256
178
     2
271
     2
272
     3
274
     4
283
     0
284
     8
340
13
371
    -1
372
    -1
  0
DIMSTYLE
105
61
330
1E
100
AcDbSymbolTableRecord
100
AcDbDimStyleTableRecord
  2
AM_DIN$2
 70
     0
  4
"
 41
2.5
 42
0.0
 43
8.0
 44
1.0
 47
0.1
 48
0.1
 73
     0
 74
     0
 77
     1
 78
     8
140
3.0
141
0.0
143
0.03937
146
0.71
147
0.7
172
     1
176
   256
177
   256
178
     2
271
     2
272
     2
283
     0
284
     8
340
13
  0
DIMSTYLE
105
85C
330
1E
100
AcDbSymbolTableRecord
100
AcDbDimStyleTableRecord
  2
AM_ISO$3
 70
     0
  4
"
 41
2.5
 42
1.0
 43
10.0
 44
1.0
 47
0.1
 48
0.1
 73
     0
 77
     1
 78
     8
 79
     2
140
3.5
141
0.0
143
0.0393701
146
0.71
147
1.5
176
   256
177
   256
178
     2
271
     2
272
     3
274
     4
283
     0
284
     8
288
     1
289
     0
340
13
371
    -1
372
    -1
  0
DIMSTYLE
105
85D
330
1E
100
AcDbSymbolTableRecord
100
AcDbDimStyleTableRecord
  2
AM_ISO$4
 70
     0
  4
"
 41
2.5
 42
1.0
 43
10.0
 44
1.0
 47
0.1
 48
0.1
 73
     0
 77
     1
 78
     8
 79
     2
140
3.5
141
0.0
143
0.0393701
146
0.71
147
1.5
176
   256
177
   256
178
     2
271
     2
272
     3
274
     4
283
     0
284
     8
288
     1
289
     0
340
13
371
    -1
372
    -1
  0
DIMSTYLE
105
85E
330
1E
100
AcDbSymbolTableRecord
100
AcDbDimStyleTableRecord
  2
AM_ISO$6
 70
     0
  4
"
 41
2.5
 42
1.0
 43
10.0
 44
1.0
 47
0.1
 48
0.1
 73
     0
 74
     0
 78
     8
 79
     2
140
3.5
141
0.0
143
0.0393701
146
0.71
147
1.5
172
     1
176
   256
177
   256
178
     2
271
     2
272
     3
274
     4
283
     0
284
     8
340
13
371
    -1
372
    -1
  0
DIMSTYLE
105
85F
330
1E
100
AcDbSymbolTableRecord
100
AcDbDimStyleTableRecord
  2
AM_ISO$7
 70
     0
  4
"
 41
2.5
 42
1.0
 43
10.0
 44
1.0
 47
0.1
 48
0.1
 73
     0
 74
     0
 77
     1
 78
     8
 79
     2
140
5.0
141
0.0
143
0.0393701
146
0.71
147
1.5
172
     1
176
   256
177
   256
178
     2
271
     2
272
     3
274
     4
283
     0
284
     8
340
13
371
    -1
372
    -1
  0
DIMSTYLE
105
860
330
1E
100
AcDbSymbolTableRecord
100
AcDbDimStyleTableRecord
  2
AM_ISO$SF
 70
     0
  4
"
 41
2.5
 42
1.0
 43
10.0
 44
1.0
 47
0.1
 48
0.1
 73
     0
 74
     0
 75
     1
 76
     1
 77
     1
 78
     8
 79
     2
140
3.5
141
0.0
143
0.0393701
146
0.71
147
1.5
172
     1
176
   256
177
   256
178
     2
271
     2
272
     3
274
     4
283
     0
284
     8
340
13
371
    -1
372
    -1
  0
DIMSTYLE
105
861
330
1E
100
AcDbSymbolTableRecord
100
AcDbDimStyleTableRecord
  2
AM_ISO$SH
 70
     0
  4
"
 41
2.5
 42
1.0
 43
10.0
 44
1.0
 47
0.1
 48
0.1
 73
     0
 74
     0
 75
     1
 76
     1
 77
     1
 78
     8
 79
     2
140
3.5
141
0.0
143
0.0393701
144
2.0
146
0.71
147
1.5
172
     1
173
     1
176
   256
177
   256
178
     2
271
     2
272
     3
274
     4
283
     0
284
     8
340
13
343
68
371
    -1
372
    -1
  0
DIMSTYLE
105
14CD
330
1E
100
AcDbSymbolTableRecord
100
AcDbDimStyleTableRecord
  2
Standard
 70
     0
340
13
  0
DIMSTYLE
105
14CE
330
1E
100
AcDbSymbolTableRecord
100
AcDbDimStyleTableRecord
  2
Opisowy
 70
     0
 40
0.0
 41
2.5
 42
0.625
 43
3.75
 44
1.25
 73
     0
 74
     0
 77
     1
 78
     8
140
2.5
141
2.5
143
0.03937007874016
147
0.625
171
     3
172
     1
271
     2
272
     2
274
     3
278
    44
283
     0
284
     8
340
13
1001
AcadAnnotative
1000
AnnotativeData
1002
{
1070
     1
1070
     1
1002
}
1001
ACAD_DSTYLE_DIMJAG
1070
   388
1040
1.5
1001
ACAD_DSTYLE_DIMTALN
1070
   392
1070
     0
  0
DIMSTYLE
105
14CF
330
1E
100
AcDbSymbolTableRecord
100
AcDbDimStyleTableRecord
  2
ISO-25
 70
     0
 41
2.5
 42
0.625
 43
3.75
 44
1.25
 73
     0
 74
     0
 77
     1
 78
     8
140
2.5
141
2.5
143
0.03937007874016
147
0.625
171
     3
172
     1
271
     2
272
     2
274
     3
278
    44
283
     0
284
     8
340
13
  0
ENDTAB
  0
TABLE
  2
BLOCK_RECORD
  5
1
330
0
100
AcDbSymbolTable
 70
     8
  0
BLOCK_RECORD
  5
2
102
{ACAD_XDICTIONARY
360
3
102
}
330
1
100
AcDbSymbolTableRecord
100
AcDbBlockTableRecord
  2
*MODEL_SPACE
340
6
  0
BLOCK_RECORD
  5
9
102
{ACAD_XDICTIONARY
360
135A
102
}
330
1
100
AcDbSymbolTableRecord
100
AcDbBlockTableRecord
  2
*PAPER_SPACE
340
C
  0
BLOCK_RECORD
  5
68
330
1
100
AcDbSymbolTableRecord
100
AcDbBlockTableRecord
  2
GENAXEH
340
0
  0
BLOCK_RECORD
  5
9D4
330
1
100
AcDbSymbolTableRecord
100
AcDbBlockTableRecord
  2
*D1
340
0
  0
BLOCK_RECORD
  5
9E0
330
1
100
AcDbSymbolTableRecord
100
AcDbBlockTableRecord
  2
*D2
340
0
  0
BLOCK_RECORD
  5
9F8
330
1
100
AcDbSymbolTableRecord
100
AcDbBlockTableRecord
  2
*D3
340
0
  0
BLOCK_RECORD
  5
A05
330
1
100
AcDbSymbolTableRecord
100
AcDbBlockTableRecord
  2
*D4
340
0
  0
BLOCK_RECORD
  5
A1D
330
1
100
AcDbSymbolTableRecord
100
AcDbBlockTableRecord
  2
*D5
340
0
  0
ENDTAB
  0
ENDSEC
  0
SECTION
  2
BLOCKS
  0
BLOCK
  5
4
330
2
100
AcDbEntity
  8
0
100
AcDbBlockBegin
  2
*MODEL_SPACE
 70
     0
 10
0.0
 20
0.0
 30
0.0
  3
*MODEL_SPACE
  1

  0
ENDBLK
  5
5
330
2
100
AcDbEntity
  8
0
100
AcDbBlockEnd
  0
BLOCK
  5
A
330
9
100
AcDbEntity
 67
     1
  8
0
100
AcDbBlockBegin
  2
*PAPER_SPACE
 70
     0
 10
0.0
 20
0.0
 30
0.0
  3
*PAPER_SPACE
  1

  0
ENDBLK
  5
B
330
9
100
AcDbEntity
 67
     1
  8
0
100
AcDbBlockEnd
  0
BLOCK
  5
144F
330
68
100
AcDbEntity
  8
0
100
AcDbBlockBegin
  2
GENAXEH
 70
     0
 10
0.0
 20
0.0
 30
0.0
  3
GENAXEH
  1

  0
LINE
  5
1450
330
68
100
AcDbEntity
  8
0
100
AcDbLine
 10
-1.0
 20
0.0
 30
0.0
 11
1.0
 21
0.0
 31
0.0
  0
ENDBLK
  5
1451
330
68
100
AcDbEntity
  8
0
100
AcDbBlockEnd
  0
BLOCK
  5
9DE
330
9D4
100
AcDbEntity
  8
0
100
AcDbBlockBegin
  2
*D1
 70
     1
 10
0.0
 20
0.0
 30
0.0
  3
*D1
  1

  0
LINE
  5
131F
330
9D4
100
AcDbEntity
  8
AM_5
100
AcDbLine
 10
242.187395
 20
374.05404
 30
0.0
 11
126.546238
 21
374.05404
 31
0.0
  0
LINE
  5
1320
330
9D4
100
AcDbEntity
  8
AM_5
100
AcDbLine
 10
202.894115
 20
105.957135
 30
0.0
 11
126.546238
 21
105.957135
 31
0.0
  0
LINE
  5
1321
330
9D4
100
AcDbEntity
  8
AM_5
100
AcDbLine
 10
127.546238
 20
371.55404
 30
0.0
 11
127.546238
 21
108.457135
 31
0.0
  0
SOLID
  5
1322
330
9D4
100
AcDbEntity
  8
AM_5
100
AcDbTrace
 10
127.129571
 20
371.55404
 30
0.0
 11
127.962904
 21
371.55404
 31
0.0
 12
127.546238
 22
374.05404
 32
0.0
 13
127.546238
 23
374.05404
 33
0.0
  0
SOLID
  5
1323
330
9D4
100
AcDbEntity
  8
AM_5
100
AcDbTrace
 10
127.129571
 20
108.457135
 30
0.0
 11
127.962904
 21
108.457135
 31
0.0
 12
127.546238
 22
105.957135
 32
0.0
 13
127.546238
 23
105.957135
 33
0.0
  0
MTEXT
  5
1324
330
9D4
100
AcDbEntity
  8
AM_5
 62
     2
100
AcDbMText
 10
125.345942
 20
240.005588
 30
0.0
 40
3.0
 41
0.0
 71
     5
 72
     1
  1
268.1 {}{\C2;%%p3}
 11
0.0
 21
1.0
 31
0.0
 73
     1
 44
1.0
  0
POINT
  5
1325
330
9D4
100
AcDbEntity
  8
DEFPOINTS
 62
     0
100
AcDbPoint
 10
242.187395
 20
374.05404
 30
0.0
  0
POINT
  5
1326
330
9D4
100
AcDbEntity
  8
DEFPOINTS
 62
     0
100
AcDbPoint
 10
202.894115
 20
105.957135
 30
0.0
  0
POINT
  5
1327
330
9D4
100
AcDbEntity
  8
DEFPOINTS
 62
     0
100
AcDbPoint
 10
127.546238
 20
105.957135
 30
0.0
  0
ENDBLK
  5
9DF
330
9D4
100
AcDbEntity
  8
0
100
AcDbBlockEnd
  0
BLOCK
  5
9EA
330
9E0
100
AcDbEntity
  8
0
100
AcDbBlockBegin
  2
*D2
 70
     1
 10
0.0
 20
0.0
 30
0.0
  3
*D2
  1

  0
LINE
  5
1316
330
9E0
100
AcDbEntity
  8
AM_5
100
AcDbLine
 10
244.87752
 20
400.810623
 30
0.0
 11
115.292645
 21
400.82972
 31
0.0
  0
LINE
  5
1317
330
9E0
100
AcDbEntity
  8
AM_5
100
AcDbLine
 10
244.828077
 20
65.306928
 30
0.0
 11
115.243202
 21
65.326025
 31
0.0
  0
LINE
  5
1318
330
9E0
100
AcDbEntity
  8
AM_5
100
AcDbLine
 10
116.292277
 20
398.329573
 30
0.0
 11
116.24357
 21
67.825878
 31
0.0
  0
SOLID
  5
1319
330
9E0
100
AcDbEntity
  8
AM_5
100
AcDbTrace
 10
115.87561
 20
398.329634
 30
0.0
 11
116.708943
 21
398.329511
 31
0.0
 12
116.292645
 22
400.8295729999999
 32
0.0
 13
116.292645
 23
400.8295729999999
 33
0.0
  0
SOLID
  5
131A
330
9E0
100
AcDbEntity
  8
AM_5
100
AcDbTrace
 10
115.826904
 20
67.82593900000001
 30
0.0
 11
116.660237
 21
67.825816
 31
0.0
 12
116.243202
 22
65.325878
 32
0.0
 13
116.243202
 23
65.325878
 33
0.0
  0
MTEXT
  5
131B
330
9E0
100
AcDbEntity
  8
AM_5
 62
     2
100
AcDbMText
 10
114.067924
 20
233.078049
 30
0.0
 40
3.0
 41
0.0
 71
     5
 72
     1
  1
336 {}{\C2;%%p5}
 11
0.0001469999984117
 21
0.9999999891955001
 31
0.0
 73
     1
 44
1.0
  0
POINT
  5
131C
330
9E0
100
AcDbEntity
  8
DEFPOINTS
 62
     0
100
AcDbPoint
 10
244.87752
 20
400.810623
 30
0.0
  0
POINT
  5
131D
330
9E0
100
AcDbEntity
  8
DEFPOINTS
 62
     0
100
AcDbPoint
 10
244.828077
 20
65.306928
 30
0.0
  0
POINT
  5
131E
330
9E0
100
AcDbEntity
  8
DEFPOINTS
 62
     0
100
AcDbPoint
 10
116.243202
 20
65.325878
 30
0.0
  0
ENDBLK
  5
9EB
330
9E0
100
AcDbEntity
  8
0
100
AcDbBlockEnd
  0
BLOCK
  5
A03
330
9F8
100
AcDbEntity
  8
0
100
AcDbBlockBegin
  2
*D3
 70
     1
 10
0.0
 20
0.0
 30
0.0
  3
*D3
  1

  0
LINE
  5
1331
330
9F8
100
AcDbEntity
  8
AM_5
100
AcDbLine
 10
232.209368
 20
81.84151400000001
 30
0.0
 11
232.209368
 21
56.90559799999999
 31
0.0
  0
LINE
  5
1332
330
9F8
100
AcDbEntity
  8
AM_5
100
AcDbLine
 10
258.649368
 20
81.84151400000001
 30
0.0
 11
258.649368
 21
56.90559799999999
 31
0.0
  0
LINE
  5
1333
330
9F8
100
AcDbEntity
  8
AM_5
100
AcDbLine
 10
234.709368
 20
57.905598
 30
0.0
 11
256.149368
 21
57.905598
 31
0.0
  0
LINE
  5
1334
330
9F8
100
AcDbEntity
  8
AM_5
100
AcDbLine
 10
258.649368
 20
57.905598
 30
0.0
 11
287.799368
 21
57.905598
 31
0.0
  0
SOLID
  5
1335
330
9F8
100
AcDbEntity
  8
AM_5
100
AcDbTrace
 10
234.709368
 20
58.322265
 30
0.0
 11
234.709368
 21
57.488932
 31
0.0
 12
232.209368
 22
57.905598
 32
0.0
 13
232.209368
 23
57.905598
 33
0.0
  0
SOLID
  5
1336
330
9F8
100
AcDbEntity
  8
AM_5
100
AcDbTrace
 10
256.149368
 20
58.322265
 30
0.0
 11
256.149368
 21
57.488932
 31
0.0
 12
258.649368
 22
57.905598
 32
0.0
 13
258.649368
 23
57.905598
 33
0.0
  0
MTEXT
  5
1337
330
9F8
100
AcDbEntity
  8
AM_5
 62
     2
100
AcDbMText
 10
275.399368
 20
60.110928
 30
0.0
 40
3.0
 41
0.0
 71
     5
 72
     1
  1
ISO228-G 3/4
 73
     1
 44
1.0
  0
POINT
  5
1338
330
9F8
100
AcDbEntity
  8
DEFPOINTS
 62
     0
100
AcDbPoint
 10
232.209368
 20
81.84151400000001
 30
0.0
  0
POINT
  5
1339
330
9F8
100
AcDbEntity
  8
DEFPOINTS
 62
     0
100
AcDbPoint
 10
258.649368
 20
81.84151400000001
 30
0.0
  0
POINT
  5
133A
330
9F8
100
AcDbEntity
  8
DEFPOINTS
 62
     0
100
AcDbPoint
 10
258.649368
 20
57.905598
 30
0.0
  0
ENDBLK
  5
A04
330
9F8
100
AcDbEntity
  8
0
100
AcDbBlockEnd
  0
BLOCK
  5
A0F
330
A05
100
AcDbEntity
  8
0
100
AcDbBlockBegin
  2
*D4
 70
     1
 10
0.0
 20
0.0
 30
0.0
  3
*D4
  1

  0
LINE
  5
1328
330
A05
100
AcDbEntity
  8
AM_5
100
AcDbLine
 10
197.679368
 20
109.956928
 30
0.0
 11
197.679368
 21
145.070623
 31
0.0
  0
LINE
  5
1329
330
A05
100
AcDbEntity
  8
AM_5
100
AcDbLine
 10
293.179368
 20
109.956928
 30
0.0
 11
293.179368
 21
145.070623
 31
0.0
  0
LINE
  5
132A
330
A05
100
AcDbEntity
  8
AM_5
100
AcDbLine
 10
200.179368
 20
144.070623
 30
0.0
 11
290.679368
 21
144.070623
 31
0.0
  0
SOLID
  5
132B
330
A05
100
AcDbEntity
  8
AM_5
100
AcDbTrace
 10
200.179368
 20
144.487289
 30
0.0
 11
200.179368
 21
143.653956
 31
0.0
 12
197.679368
 22
144.070623
 32
0.0
 13
197.679368
 23
144.070623
 33
0.0
  0
SOLID
  5
132C
330
A05
100
AcDbEntity
  8
AM_5
100
AcDbTrace
 10
290.679368
 20
144.487289
 30
0.0
 11
290.679368
 21
143.653956
 31
0.0
 12
293.179368
 22
144.070623
 32
0.0
 13
293.179368
 23
144.070623
 33
0.0
  0
MTEXT
  5
132D
330
A05
100
AcDbEntity
  8
AM_5
 62
     2
100
AcDbMText
 10
221.53229
 20
146.421348
 30
0.0
 40
3.0
 41
0.0
 71
     5
 72
     1
  1
(%%c95.5)
 73
     1
 44
1.0
  0
POINT
  5
132E
330
A05
100
AcDbEntity
  8
DEFPOINTS
 62
     0
100
AcDbPoint
 10
197.679368
 20
109.956928
 30
0.0
  0
POINT
  5
132F
330
A05
100
AcDbEntity
  8
DEFPOINTS
 62
     0
100
AcDbPoint
 10
293.179368
 20
109.956928
 30
0.0
  0
POINT
  5
1330
330
A05
100
AcDbEntity
  8
DEFPOINTS
 62
     0
100
AcDbPoint
 10
293.179368
 20
144.070623
 30
0.0
  0
ENDBLK
  5
A10
330
A05
100
AcDbEntity
  8
0
100
AcDbBlockEnd
  0
BLOCK
  5
A27
330
A1D
100
AcDbEntity
  8
0
100
AcDbBlockBegin
  2
*D5
 70
     1
 10
0.0
 20
0.0
 30
0.0
  3
*D5
  1

  0
LINE
  5
130D
330
A1D
100
AcDbEntity
  8
AM_5
100
AcDbLine
 10
142.429368
 20
282.642346
 30
0.0
 11
142.429368
 21
283.642346
 31
0.0
  0
LINE
  5
130E
330
A1D
100
AcDbEntity
  8
AM_5
100
AcDbLine
 10
348.429368
 20
282.642346
 30
0.0
 11
348.429368
 21
283.642346
 31
0.0
  0
LINE
  5
130F
330
A1D
100
AcDbEntity
  8
AM_5
100
AcDbLine
 10
144.929368
 20
282.642346
 30
0.0
 11
345.929368
 21
282.642346
 31
0.0
  0
SOLID
  5
1310
330
A1D
100
AcDbEntity
  8
AM_5
100
AcDbTrace
 10
144.929368
 20
283.059012
 30
0.0
 11
144.929368
 21
282.225679
 31
0.0
 12
142.429368
 22
282.642346
 32
0.0
 13
142.429368
 23
282.642346
 33
0.0
  0
SOLID
  5
1311
330
A1D
100
AcDbEntity
  8
AM_5
100
AcDbTrace
 10
345.929368
 20
283.059012
 30
0.0
 11
345.929368
 21
282.225679
 31
0.0
 12
348.429368
 22
282.642346
 32
0.0
 13
348.429368
 23
282.642346
 33
0.0
  0
MTEXT
  5
1312
330
A1D
100
AcDbEntity
  8
AM_5
 62
     2
100
AcDbMText
 10
200.322399
 20
284.842641
 30
0.0
 40
3.0
 41
0.0
 71
     5
 72
     1
  1
%%c206
 73
     1
 44
1.0
  0
POINT
  5
1313
330
A1D
100
AcDbEntity
  8
DEFPOINTS
 62
     0
100
AcDbPoint
 10
142.429368
 20
282.642346
 30
0.0
  0
POINT
  5
1314
330
A1D
100
AcDbEntity
  8
DEFPOINTS
 62
     0
100
AcDbPoint
 10
348.429368
 20
282.642346
 30
0.0
  0
POINT
  5
1315
330
A1D
100
AcDbEntity
  8
DEFPOINTS
 62
     0
100
AcDbPoint
 10
348.429368
 20
282.642346
 30
0.0
  0
ENDBLK
  5
A28
330
A1D
100
AcDbEntity
  8
0
100
AcDbBlockEnd
  0
ENDSEC
  0
SECTION
  2
ENTITIES
  0
HATCH
  5
27
330
2
100
AcDbEntity
  8
AM_8
100
AcDbHatch
 10
0.0
 20
0.0
 30
0.0
210
0.0
220
0.0
230
1.0
  2
_U
 70
     0
 71
     0
 91
        1
 92
        1
 93
        4
 72
     1
 10
238.751725
 20
125.306928
 11
238.751725
 21
130.204885
 72
     1
 10
238.751725
 20
130.204885
 11
237.751725
 21
130.028558
 72
     1
 10
237.751725
 20
130.028558
 11
237.751725
 21
125.306928
 72
     1
 10
237.751725
 20
125.306928
 11
238.751725
 21
125.306928
 97
        0
 75
     0
 76
     0
 52
45.0
 41
2.299999999999999
 77
     1
 78
     2
 53
45.0
 43
-3707.726966
 44
-219.249177
 45
-1.626345596729059
 46
1.626345596729059
 79
     0
 53
135.0
 43
-3707.726966
 44
-219.249177
 45
-1.626345596729059
 46
-1.626345596729058
 79
     0
 98
        1
 10
1696.254428
 20
-2979.491919
1001
GENIUS_GENODEF_13
1002
{
1000
HIER
1070
     0
1002
}
1002
{
1000
MANEDIT
1070
     0
1002
}
1002
{
1000
NOSEL
1070
     0
1002
}
1002
{
1000
BEHIND
1070
     0
1002
}
1002
{
1000
OTHER
1070
     0
1002
}
1002
{
1000
REACTOR
1002
}
1001
GENIUS_GENOBJ-N-HTC_13
1002
{
1000
OWNER
1000
GEN
1002
}
1001
GENIUS_GENHATCH_13
1002
{
1000
DATA
1040
45.0
1042
2.299999999999999
1000
_U
1070
     1
1011
238.227382
1021
127.233945
1031
0.0
1002
}
1002
{
1000
UCS
1010
0.0
1020
0.0
1030
0.0
1010
1.0
1020
0.0
1030
0.0
1010
0.0
1020
1.0
1030
0.0
1002
}
  0
HATCH
  5
2C
330
2
100
AcDbEntity
  8
AM_8
100
AcDbHatch
 10
0.0
 20
0.0
 30
0.0
210
0.0
220
0.0
230
1.0
  2
_U
 70
     0
 71
     0
 91
        1
 92
        1
 93
        4
 72
     1
 10
234.751725
 20
125.306928
 11
234.751725
 21
129.499577
 72
     1
 10
234.751725
 20
129.499577
 11
233.751725
 21
129.32325
 72
     1
 10
233.751725
 20
129.32325
 11
233.751725
 21
125.306928
 72
     1
 10
233.751725
 20
125.306928
 11
234.751725
 21
125.306928
 97
        0
 75
     0
 76
     0
 52
45.0
 41
2.299999999999999
 77
     1
 78
     2
 53
45.0
 43
-3707.726966
 44
-219.249177
 45
-1.626345596729059
 46
1.626345596729059
 79
     0
 53
135.0
 43
-3707.726966
 44
-219.249177
 45
-1.626345596729059
 46
-1.626345596729058
 79
     0
 98
        1
 10
1696.254428
 20
-2979.491919
1001
GENIUS_GENODEF_13
1002
{
1000
HIER
1070
     0
1002
}
1002
{
1000
MANEDIT
1070
     0
1002
}
1002
{
1000
NOSEL
1070
     0
1002
}
1002
{
1000
BEHIND
1070
     0
1002
}
1002
{
1000
OTHER
1070
     0
1002
}
1002
{
1000
REACTOR
1002
}
1001
GENIUS_GENOBJ-N-HTC_13
1002
{
1000
OWNER
1000
GEN
1002
}
1001
GENIUS_GENHATCH_13
1002
{
1000
DATA
1040
45.0
1042
2.299999999999999
1000
_U
1070
     1
1011
234.189893
1021
126.955656
1031
0.0
1002
}
1002
{
1000
UCS
1010
0.0
1020
0.0
1030
0.0
1010
1.0
1020
0.0
1030
0.0
1010
0.0
1020
1.0
1030
0.0
1002
}
  0
HATCH
  5
2D
330
2
100
AcDbEntity
  8
AM_8
100
AcDbHatch
 10
0.0
 20
0.0
 30
0.0
210
0.0
220
0.0
230
1.0
  2
_U
 70
     0
 71
     0
 91
        1
 92
        1
 93
        4
 72
     1
 10
229.751725
 20
128.617942
 11
229.751725
 21
125.306928
 72
     1
 10
229.751725
 20
125.306928
 11
230.751725
 21
125.306928
 72
     1
 10
230.751725
 20
125.306928
 11
230.751725
 21
128.794269
 72
     1
 10
230.751725
 20
128.794269
 11
229.751725
 21
128.617942
 97
        0
 75
     0
 76
     0
 52
45.0
 41
2.299999999999999
 77
     1
 78
     2
 53
45.0
 43
-3707.726966
 44
-219.249177
 45
-1.626345596729059
 46
1.626345596729059
 79
     0
 53
135.0
 43
-3707.726966
 44
-219.249177
 45
-1.626345596729059
 46
-1.626345596729058
 79
     0
 98
        1
 10
1696.254428
 20
-2979.491919
1001
GENIUS_GENODEF_13
1002
{
1000
HIER
1070
     0
1002
}
1002
{
1000
MANEDIT
1070
     0
1002
}
1002
{
1000
NOSEL
1070
     0
1002
}
1002
{
1000
BEHIND
1070
     0
1002
}
1002
{
1000
OTHER
1070
     0
1002
}
1002
{
1000
REACTOR
1002
}
1001
GENIUS_GENOBJ-N-HTC_13
1002
{
1000
OWNER
1000
GEN
1002
}
1001
GENIUS_GENHATCH_13
1002
{
1000
DATA
1040
45.0
1042
2.299999999999999
1000
_U
1070
     1
1011
230.291624
1021
126.816507
1031
0.0
1002
}
1002
{
1000
UCS
1010
0.0
1020
0.0
1030
0.0
1010
1.0
1020
0.0
1030
0.0
1010
0.0
1020
1.0
1030
0.0
1002
}
  0
HATCH
  5
2E
330
2
100
AcDbEntity
  8
AM_8
100
AcDbHatch
 10
0.0
 20
0.0
 30
0.0
210
0.0
220
0.0
230
1.0
  2
_U
 70
     0
 71
     0
 91
        1
 92
        1
 93
       10
 72
     1
 10
223.807605
 20
125.306928
 11
226.751725
 21
125.306928
 72
     1
 10
226.751725
 20
125.306928
 11
226.751725
 21
128.088961
 72
     1
 10
226.751725
 20
128.088961
 11
220.799434
 21
127.039411
 72
     2
 10
220.886258
 20
126.547007
 40
0.5
 50
100.0
 51
150.0
 73
     1
 72
     1
 10
220.453245
 20
126.797007
 11
217.976657
 21
122.507431
 72
     2
 10
218.40967
 20
122.257431
 40
0.5
 50
150.0
 51
260.0
 73
     1
 72
     1
 10
218.322846
 20
121.765027
 11
220.920853
 21
121.306928
 72
     2
 10
220.920853
 20
121.806928
 40
0.5
 50
270.0
 51
330.0
 73
     1
 72
     1
 10
221.353866
 20
121.556928
 11
223.374592
 21
125.056928
 72
     2
 10
223.807605
 20
124.806928
 40
0.5
 50
210.0
 51
270.0
 73
     0
 97
        0
 75
     0
 76
     0
 52
45.0
 41
2.299999999999999
 77
     1
 78
     2
 53
45.0
 43
-3707.726966
 44
-219.249177
 45
-1.626345596729059
 46
1.626345596729059
 79
     0
 53
135.0
 43
-3707.726966
 44
-219.249177
 45
-1.626345596729059
 46
-1.626345596729058
 79
     0
 98
        1
 10
1696.254428
 20
-2979.491919
1001
GENIUS_GENOBJ-N-HTC_13
1002
{
1000
OWNER
1000
GEN
1002
}
1001
GENIUS_GENODEF_13
1002
{
1000
HIER
1070
     0
1002
}
1002
{
1000
MANEDIT
1070
     0
1002
}
1002
{
1000
NOSEL
1070
     0
1002
}
1002
{
1000
BEHIND
1070
     0
1002
}
1002
{
1000
OTHER
1070
     0
1002
}
1002
{
1000
REACTOR
1002
}
1001
GENIUS_GENHATCH_13
1002
{
1000
DATA
1040
45.0
1042
2.299999999999999
1000
_U
1070
     1
1011
222.21663
1021
125.007625
1031
0.0
1002
}
1002
{
1000
UCS
1010
0.0
1020
0.0
1030
0.0
1010
1.0
1020
0.0
1030
0.0
1010
0.0
1020
1.0
1030
0.0
1002
}
  0
HATCH
  5
2F
330
2
100
AcDbEntity
  8
AM_8
100
AcDbHatch
 10
0.0
 20
0.0
 30
0.0
210
0.0
220
0.0
230
1.0
  2
_U
 70
     0
 71
     0
 91
        1
 92
        1
 93
       17
 72
     1
 10
255.228077
 20
122.806928
 11
268.783183
 21
122.806928
 72
     1
 10
268.783183
 20
122.806928
 11
269.504871
 21
121.556928
 72
     2
 10
269.937883
 20
121.806928
 40
0.5
 50
210.0
 51
228.863169
 73
     1
 72
     1
 10
269.608954
 20
121.430358
 11
271.506957
 21
121.765027
 72
     2
 10
271.420133
 20
122.257431
 40
0.5
 50
280.0
 51
390.0
 73
     1
 72
     1
 10
271.853145
 20
122.507431
 11
269.376557
 21
126.797007
 72
     2
 10
268.943545
 20
126.547007
 40
0.5
 50
30.0
 51
80.0
 73
     1
 72
     1
 10
269.030369
 20
127.039411
 11
244.914901
 21
131.291619
 72
     1
 10
244.914901
 20
131.291619
 11
241.751725
 21
130.733866
 72
     1
 10
241.751725
 20
130.733866
 11
241.751725
 21
65.306928
 72
     1
 10
241.751725
 20
65.306928
 11
253.929368
 21
65.306928
 72
     2
 10
253.929368
 20
67.30692799999999
 40
2.0
 50
270.0
 51
360.0
 73
     1
 72
     1
 10
255.929368
 20
67.30692799999999
 11
255.929368
 21
76.306928
 72
     1
 10
255.929368
 20
76.306928
 11
256.228077
 21
80.306928
 72
     1
 10
256.228077
 20
80.306928
 11
256.228077
 21
119.706928
 72
     1
 10
256.228077
 20
119.706928
 11
255.228077
 21
119.706928
 72
     1
 10
255.228077
 20
119.706928
 11
255.228077
 21
122.806928
 97
        0
 75
     0
 76
     0
 52
45.0
 41
2.299999999999999
 77
     1
 78
     2
 53
45.0
 43
-3707.726966
 44
-219.249177
 45
-1.626345596729059
 46
1.626345596729059
 79
     0
 53
135.0
 43
-3707.726966
 44
-219.249177
 45
-1.626345596729059
 46
-1.626345596729058
 79
     0
 98
        1
 10
1696.254428
 20
-2979.491919
1001
GENIUS_GENODEF_13
1002
{
1000
HIER
1070
     0
1002
}
1002
{
1000
MANEDIT
1070
     0
1002
}
1002
{
1000
NOSEL
1070
     0
1002
}
1002
{
1000
BEHIND
1070
     0
1002
}
1002
{
1000
OTHER
1070
     0
1002
}
1002
{
1000
REACTOR
1002
}
1001
GENIUS_GENOBJ-N-HTC_13
1002
{
1000
OWNER
1000
GEN
1002
}
1001
GENIUS_GENHATCH_13
1002
{
1000
DATA
1040
45.0
1042
2.299999999999999
1000
_U
1070
     1
1011
250.757541
1021
117.632957
1031
0.0
1002
}
1002
{
1000
UCS
1010
0.0
1020
0.0
1030
0.0
1010
1.0
1020
0.0
1030
0.0
1010
0.0
1020
1.0
1030
0.0
1002
}
  0
DIMENSION
  5
30
330
2
100
AcDbEntity
  8
AM_5
100
AcDbDimension
  2
*D4
 10
293.179368
 20
144.070623
 30
0.0
 11
221.53229
 21
144.070623
 31
0.0
 70
   160
  1
(%%c<>)
 71
     5
 42
-1.0
  3
AM_DIN
100
AcDbAlignedDimension
 13
197.679368
 23
109.956928
 33
0.0
 14
293.179368
 24
109.956928
 34
0.0
100
AcDbRotatedDimension
  0
DIMENSION
  5
87
330
2
100
AcDbEntity
  8
AM_5
100
AcDbDimension
  2
*D5
 10
348.429368
 20
282.642346
 30
0.0
 11
200.322399
 21
282.642346
 31
0.0
 70
   160
  1
%%c<>
 71
     5
 42
-1.0
  3
AM_DIN
100
AcDbAlignedDimension
 13
142.429368
 23
282.642346
 33
0.0
 14
348.429368
 24
282.642346
 34
0.0
100
AcDbRotatedDimension
1001
GENIUS_GENDTOL_13
1000

1000
h7
1000

1040
0.0
1000
%%c<>
  0
DIMENSION
  5
A5
330
2
100
AcDbEntity
  8
AM_5
100
AcDbDimension
  2
*D2
 10
116.243202
 20
65.325878
 30
0.0
 11
114.067924
 21
233.078049
 31
0.0
 70
    33
  1
<> {}{\C2;%%p5}
 71
     5
 42
-1.0
  3
AM_DIN
100
AcDbAlignedDimension
 13
244.87752
 23
400.810623
 33
0.0
 14
244.828077
 24
65.306928
 34
0.0
1001
ACAD
1000
DSTYLE
1002
{
1070
    47
1040
5.0
1070
    48
1040
5.0
1070
   271
1070
     0
1002
}
1001
GENIUS_GENDTOL_13
1000
TolPm
1000
h7
1000
{$3%%p$P}
1040
336.0
  0
DIMENSION
  5
B2
330
2
100
AcDbEntity
  8
AM_5
100
AcDbDimension
  2
*D1
 10
127.546238
 20
105.957135
 30
0.0
 11
125.345942
 21
240.005588
 31
0.0
 70
    32
  1
<> {}{\C2;%%p3}
 71
     5
 42
-1.0
  3
AM_DIN
100
AcDbAlignedDimension
 13
242.187395
 23
374.05404
 33
0.0
 14
202.894115
 24
105.957135
 34
0.0
 50
90.0
100
AcDbRotatedDimension
1001
ACAD
1000
DSTYLE
1002
{
1070
    47
1040
3.0
1070
    48
1040
3.0
1002
}
1001
GENIUS_GENDTOL_13
1000
TolPm
1000
h7
1000
{$3%%p$P}
1040
268.1
  0
LINE
  5
C3
330
2
100
AcDbEntity
  8
AM_7
100
AcDbLine
 10
436.194997
 20
293.713254
 30
0.0
 11
436.194997
 21
196.213254
 31
0.0
  0
LINE
  5
C5
330
2
100
AcDbEntity
  8
AM_7
100
AcDbLine
 10
484.944997
 20
244.963254
 30
0.0
 11
387.444997
 21
244.963254
 31
0.0
  0
TEXT
  5
1D8
330
2
100
AcDbEntity
  8
AM_0
100
AcDbText
 10
456.802636
 20
292.2086529999999
 30
0.0
 40
6.0
  1
Ansicht Y
100
AcDbText
  0
ARC
  5
1D9
330
2
100
AcDbEntity
  8
AM_0
100
AcDbCircle
 10
445.25774
 20
251.197569
 30
0.0
 40
0.5
100
AcDbArc
 50
135.0
 51
214.524318
1001
GENIUS_GENODEF_13
1002
{
1000
HIER
1070
     0
1002
}
1002
{
1000
MANEDIT
1070
     0
1002
}
1002
{
1000
NOSEL
1070
     0
1002
}
1002
{
1000
BEHIND
1070
     0
1002
}
1002
{
1000
REACTOR
1002
}
1001
GENIUS_GENOBJ-N-FIL_13
1002
{
1000
OWNER
1000
GEN
1002
}
  0
ARC
  5
1DA
330
2
100
AcDbEntity
  8
AM_0
100
AcDbCircle
 10
444.9320469999999
 20
252.286091
 30
0.0
 40
0.5
100
AcDbArc
 50
315.0
 51
39.967587
1001
GENIUS_GENODEF_13
1002
{
1000
HIER
1070
     0
1002
}
1002
{
1000
MANEDIT
1070
     0
1002
}
1002
{
1000
NOSEL
1070
     0
1002
}
1002
{
1000
BEHIND
1070
     0
1002
}
1002
{
1000
REACTOR
1002
}
1001
GENIUS_GENOBJ-N-FIL_13
1002
{
1000
OWNER
1000
GEN
1002
}
  0
LINE
  5
1DB
330
2
100
AcDbEntity
  8
AM_0
100
AcDbLine
 10
444.6041259999999
 20
251.251063
 30
0.0
 11
445.2856009999999
 21
251.932537
 31
0.0
  0
ARC
  5
1DC
330
2
100
AcDbEntity
  8
AM_0
100
AcDbCircle
 10
436.194997
 20
244.963254
 30
0.0
 40
9.9
100
AcDbArc
 50
37.231782
 51
51.73972299999999
  0
ARC
  5
1DD
330
2
100
AcDbEntity
  8
AM_0
100
AcDbCircle
 10
436.194997
 20
244.963254
 30
0.0
 40
10.05
100
AcDbArc
 50
37.348426
 51
51.638674
  0
LINE
  5
1DE
330
2
100
AcDbEntity
  8
AM_0
100
AcDbLine
 10
443.081726
 20
253.493096
 30
0.0
 11
444.8494929999999
 21
251.725329
 31
0.0
  0
ARC
  5
1DF
330
2
100
AcDbEntity
  8
AM_0
100
AcDbCircle
 10
436.194997
 20
244.963254
 30
0.0
 40
10.05
100
AcDbArc
 50
82.898603
 51
97.188295
  0
ARC
  5
1E0
330
2
100
AcDbEntity
  8
AM_0
100
AcDbCircle
 10
436.194997
 20
244.963254
 30
0.0
 40
9.9
100
AcDbArc
 50
82.79043900000001
 51
97.29779700000001
  0
LINE
  5
1E1
330
2
100
AcDbEntity
  8
AM_0
100
AcDbLine
 10
434.9374349999999
 20
255.831038
 30
0.0
 11
437.4374349999999
 21
255.831038
 31
0.0
  0
LINE
  5
1E2
330
2
100
AcDbEntity
  8
AM_0
100
AcDbLine
 10
427.1043929999999
 20
251.932537
 30
0.0
 11
427.7858669999999
 21
251.251063
 31
0.0
  0
ARC
  5
1E3
330
2
100
AcDbEntity
  8
AM_0
100
AcDbCircle
 10
427.1322539999999
 20
251.197569
 30
0.0
 40
0.5
100
AcDbArc
 50
325.475682
 51
45.0
1001
GENIUS_GENODEF_13
1002
{
1000
HIER
1070
     0
1002
}
1002
{
1000
MANEDIT
1070
     0
1002
}
1002
{
1000
NOSEL
1070
     0
1002
}
1002
{
1000
BEHIND
1070
     0
1002
}
1002
{
1000
REACTOR
1002
}
1001
GENIUS_GENOBJ-N-FIL_13
1002
{
1000
OWNER
1000
GEN
1002
}
  0
ARC
  5
1E4
330
2
100
AcDbEntity
  8
AM_0
100
AcDbCircle
 10
427.4579459999999
 20
252.286091
 30
0.0
 40
0.5
100
AcDbArc
 50
140.032413
 51
225.0
1001
GENIUS_GENODEF_13
1002
{
1000
HIER
1070
     0
1002
}
1002
{
1000
MANEDIT
1070
     0
1002
}
1002
{
1000
NOSEL
1070
     0
1002
}
1002
{
1000
BEHIND
1070
     0
1002
}
1002
{
1000
REACTOR
1002
}
1001
GENIUS_GENOBJ-N-FIL_13
1002
{
1000
OWNER
1000
GEN
1002
}
  0
ARC
  5
1E5
330
2
100
AcDbEntity
  8
AM_0
100
AcDbCircle
 10
436.194997
 20
244.963254
 30
0.0
 40
9.9
100
AcDbArc
 50
128.322597
 51
142.8306889999999
  0
ARC
  5
1E6
330
2
100
AcDbEntity
  8
AM_0
100
AcDbCircle
 10
436.194997
 20
244.963254
 30
0.0
 40
10.05
100
AcDbArc
 50
128.422703
 51
142.713096
  0
LINE
  5
1E7
330
2
100
AcDbEntity
  8
AM_0
100
AcDbLine
 10
427.5253769999999
 20
251.725329
 30
0.0
 11
429.293143
 21
253.493096
 31
0.0
  0
ARC
  5
1E8
330
2
100
AcDbEntity
  8
AM_0
100
AcDbCircle
 10
436.194997
 20
244.963254
 30
0.0
 40
11.9
100
AcDbArc
 50
39.967587
 51
140.032413
  0
ARC
  5
1E9
330
2
100
AcDbEntity
  8
AM_0
100
AcDbCircle
 10
436.194997
 20
244.963254
 30
0.0
 40
10.05
100
AcDbArc
 50
352.094833
 51
6.385783999999999
  0
ARC
  5
1EA
330
2
100
AcDbEntity
  8
AM_0
100
AcDbCircle
 10
436.194997
 20
244.963254
 30
0.0
 40
9.9
100
AcDbArc
 50
351.974275
 51
6.482949999999999
  0
LINE
  5
1EB
330
2
100
AcDbEntity
  8
AM_0
100
AcDbLine
 10
447.1874349999999
 20
246.081038
 30
0.0
 11
447.1874349999999
 21
243.581038
 31
0.0
  0
ARC
  5
1EC
330
2
100
AcDbEntity
  8
AM_0
100
AcDbCircle
 10
436.194997
 20
244.963254
 30
0.0
 40
11.9
100
AcDbArc
 50
354.9675870000001
 51
5.032413
  0
ARC
  5
1ED
330
2
100
AcDbEntity
  8
AM_0
100
AcDbCircle
 10
447.5510519999999
 20
243.963254
 30
0.0
 40
0.5
100
AcDbArc
 50
270.0
 51
354.9675870000001
1001
GENIUS_GENODEF_13
1002
{
1000
HIER
1070
     0
1002
}
1002
{
1000
MANEDIT
1070
     0
1002
}
1002
{
1000
NOSEL
1070
     0
1002
}
1002
{
1000
BEHIND
1070
     0
1002
}
1002
{
1000
REACTOR
1002
}
1001
GENIUS_GENOBJ-N-FIL_13
1002
{
1000
OWNER
1000
GEN
1002
}
  0
LINE
  5
1EE
330
2
100
AcDbEntity
  8
AM_0
100
AcDbLine
 10
446.587302
 20
243.463254
 30
0.0
 11
447.5510519999999
 21
243.463254
 31
0.0
  0
ARC
  5
1EF
330
2
100
AcDbEntity
  8
AM_0
100
AcDbCircle
 10
447.0116509999999
 20
242.963254
 30
0.0
 40
0.5
100
AcDbArc
 50
90.0
 51
169.524318
1001
GENIUS_GENODEF_13
1002
{
1000
HIER
1070
     0
1002
}
1002
{
1000
MANEDIT
1070
     0
1002
}
1002
{
1000
NOSEL
1070
     0
1002
}
1002
{
1000
BEHIND
1070
     0
1002
}
1002
{
1000
REACTOR
1002
}
1001
GENIUS_GENOBJ-N-FIL_13
1002
{
1000
OWNER
1000
GEN
1002
}
  0
ARC
  5
1F0
330
2
100
AcDbEntity
  8
AM_0
100
AcDbCircle
 10
447.5510519999999
 20
245.963254
 30
0.0
 40
0.5
100
AcDbArc
 50
5.032413
 51
90.0
1001
GENIUS_GENODEF_13
1002
{
1000
HIER
1070
     0
1002
}
1002
{
1000
MANEDIT
1070
     0
1002
}
1002
{
1000
NOSEL
1070
     0
1002
}
1002
{
1000
BEHIND
1070
     0
1002
}
1002
{
1000
REACTOR
1002
}
1001
GENIUS_GENOBJ-N-FIL_13
1002
{
1000
OWNER
1000
GEN
1002
}
  0
LINE
  5
1F1
330
2
100
AcDbEntity
  8
AM_0
100
AcDbLine
 10
446.587302
 20
246.463254
 30
0.0
 11
447.5510519999999
 21
246.463254
 31
0.0
  0
ARC
  5
1F2
330
2
100
AcDbEntity
  8
AM_0
100
AcDbCircle
 10
447.0116509999999
 20
246.963254
 30
0.0
 40
0.5
100
AcDbArc
 50
190.475682
 51
270.0
1001
GENIUS_GENODEF_13
1002
{
1000
HIER
1070
     0
1002
}
1002
{
1000
MANEDIT
1070
     0
1002
}
1002
{
1000
NOSEL
1070
     0
1002
}
1002
{
1000
BEHIND
1070
     0
1002
}
1002
{
1000
REACTOR
1002
}
1001
GENIUS_GENOBJ-N-FIL_13
1002
{
1000
OWNER
1000
GEN
1002
}
  0
LINE
  5
1F3
330
2
100
AcDbEntity
  8
AM_0
100
AcDbLine
 10
439.2052019999999
 20
243.581038
 30
0.0
 11
447.158207
 21
243.581038
 31
0.0
  0
LINE
  5
1F4
330
2
100
AcDbEntity
  8
AM_0
100
AcDbLine
 10
439.2052019999999
 20
246.081038
 30
0.0
 11
447.188315
 21
246.081038
 31
0.0
  0
ARC
  5
1F5
330
2
100
AcDbEntity
  8
AM_0
100
AcDbCircle
 10
445.25774
 20
238.728938
 30
0.0
 40
0.5
100
AcDbArc
 50
145.475682
 51
225.0
1001
GENIUS_GENODEF_13
1002
{
1000
HIER
1070
     0
1002
}
1002
{
1000
MANEDIT
1070
     0
1002
}
1002
{
1000
NOSEL
1070
     0
1002
}
1002
{
1000
BEHIND
1070
     0
1002
}
1002
{
1000
REACTOR
1002
}
1001
GENIUS_GENOBJ-N-FIL_13
1002
{
1000
OWNER
1000
GEN
1002
}
  0
ARC
  5
1F6
330
2
100
AcDbEntity
  8
AM_0
100
AcDbCircle
 10
444.9320469999999
 20
237.640416
 30
0.0
 40
0.5
100
AcDbArc
 50
320.032413
 51
45.0
1001
GENIUS_GENODEF_13
1002
{
1000
HIER
1070
     0
1002
}
1002
{
1000
MANEDIT
1070
     0
1002
}
1002
{
1000
NOSEL
1070
     0
1002
}
1002
{
1000
BEHIND
1070
     0
1002
}
1002
{
1000
REACTOR
1002
}
1001
GENIUS_GENOBJ-N-FIL_13
1002
{
1000
OWNER
1000
GEN
1002
}
  0
LINE
  5
1F7
330
2
100
AcDbEntity
  8
AM_0
100
AcDbLine
 10
444.6041259999999
 20
238.675445
 30
0.0
 11
445.2856009999999
 21
237.99397
 31
0.0
  0
ARC
  5
1F8
330
2
100
AcDbEntity
  8
AM_0
100
AcDbCircle
 10
436.194997
 20
244.963254
 30
0.0
 40
9.9
100
AcDbArc
 50
307.169311
 51
321.677403
  0
ARC
  5
1F9
330
2
100
AcDbEntity
  8
AM_0
100
AcDbCircle
 10
436.194997
 20
244.963254
 30
0.0
 40
10.05
100
AcDbArc
 50
307.286904
 51
321.5772970000001
  0
LINE
  5
1FA
330
2
100
AcDbEntity
  8
AM_0
100
AcDbLine
 10
444.8494929999999
 20
237.936747
 30
0.0
 11
443.081726
 21
236.16898
 31
0.0
  0
LINE
  5
1FB
330
2
100
AcDbEntity
  8
AM_0
100
AcDbLine
 10
439.2052019999999
 20
243.581038
 30
0.0
 11
444.7800059999999
 21
238.006234
 31
0.0
  0
ARC
  5
1FC
330
2
100
AcDbEntity
  8
AM_0
100
AcDbCircle
 10
436.194997
 20
244.963254
 30
0.0
 40
10.5
100
AcDbArc
 50
323.213211
 51
351.786789
  0
LINE
  5
1FD
330
2
100
AcDbEntity
  8
AM_0
100
AcDbLine
 10
437.4374349999999
 20
241.813271
 30
0.0
 11
437.4374349999999
 21
233.983324
 31
0.0
  0
LINE
  5
1FE
330
2
100
AcDbEntity
  8
AM_0
100
AcDbLine
 10
434.9374349999999
 20
241.813271
 30
0.0
 11
434.9374349999999
 21
233.985046
 31
0.0
  0
ARC
  5
1FF
330
2
100
AcDbEntity
  8
AM_0
100
AcDbCircle
 10
436.194997
 20
244.963254
 30
0.0
 40
10.05
100
AcDbArc
 50
262.811705
 51
277.101397
  0
ARC
  5
200
330
2
100
AcDbEntity
  8
AM_0
100
AcDbCircle
 10
436.194997
 20
244.963254
 30
0.0
 40
9.9
100
AcDbArc
 50
262.702203
 51
277.209561
  0
LINE
  5
201
330
2
100
AcDbEntity
  8
AM_0
100
AcDbLine
 10
437.4374349999999
 20
233.831038
 30
0.0
 11
434.9374349999999
 21
233.831038
 31
0.0
  0
ARC
  5
202
330
2
100
AcDbEntity
  8
AM_0
100
AcDbCircle
 10
436.194997
 20
244.963254
 30
0.0
 40
10.05
100
AcDbArc
 50
218.361326
 51
232.651574
  0
ARC
  5
203
330
2
100
AcDbEntity
  8
AM_0
100
AcDbCircle
 10
436.194997
 20
244.963254
 30
0.0
 40
9.9
100
AcDbArc
 50
218.260277
 51
232.768218
  0
LINE
  5
204
330
2
100
AcDbEntity
  8
AM_0
100
AcDbLine
 10
429.293143
 20
236.16898
 30
0.0
 11
427.5253769999999
 21
237.936747
 31
0.0
  0
LINE
  5
205
330
2
100
AcDbEntity
  8
AM_0
100
AcDbLine
 10
427.1043929999999
 20
237.99397
 30
0.0
 11
427.7858669999999
 21
238.675445
 31
0.0
  0
ARC
  5
206
330
2
100
AcDbEntity
  8
AM_0
100
AcDbCircle
 10
427.4579459999999
 20
237.640416
 30
0.0
 40
0.5
100
AcDbArc
 50
135.0
 51
219.967587
1001
GENIUS_GENODEF_13
1002
{
1000
HIER
1070
     0
1002
}
1002
{
1000
MANEDIT
1070
     0
1002
}
1002
{
1000
NOSEL
1070
     0
1002
}
1002
{
1000
BEHIND
1070
     0
1002
}
1002
{
1000
REACTOR
1002
}
1001
GENIUS_GENOBJ-N-FIL_13
1002
{
1000
OWNER
1000
GEN
1002
}
  0
ARC
  5
207
330
2
100
AcDbEntity
  8
AM_0
100
AcDbCircle
 10
427.1322539999999
 20
238.728938
 30
0.0
 40
0.5
100
AcDbArc
 50
315.0
 51
34.524318
1001
GENIUS_GENODEF_13
1002
{
1000
HIER
1070
     0
1002
}
1002
{
1000
MANEDIT
1070
     0
1002
}
1002
{
1000
NOSEL
1070
     0
1002
}
1002
{
1000
BEHIND
1070
     0
1002
}
1002
{
1000
REACTOR
1002
}
1001
GENIUS_GENOBJ-N-FIL_13
1002
{
1000
OWNER
1000
GEN
1002
}
  0
LINE
  5
208
330
2
100
AcDbEntity
  8
AM_0
100
AcDbLine
 10
434.9374349999999
 20
241.813271
 30
0.0
 11
429.3851809999999
 21
236.261018
 31
0.0
  0
LINE
  5
209
330
2
100
AcDbEntity
  8
AM_0
100
AcDbLine
 10
433.1696679999999
 20
243.581038
 30
0.0
 11
427.603221
 21
238.014592
 31
0.0
  0
CIRCLE
  5
20A
330
2
100
AcDbEntity
  8
AM_0
100
AcDbCircle
 10
436.194997
 20
244.963254
 30
0.0
 40
3.25
  0
LINE
  5
20B
330
2
100
AcDbEntity
  8
AM_0
100
AcDbLine
 10
437.4374349999999
 20
241.813271
 30
0.0
 11
442.996324
 21
236.254382
 31
0.0
  0
ARC
  5
20C
330
2
100
AcDbEntity
  8
AM_0
100
AcDbCircle
 10
436.194997
 20
244.963254
 30
0.0
 40
11.9
100
AcDbArc
 50
219.967587
 51
320.032413
  0
ARC
  5
20D
330
2
100
AcDbEntity
  8
AM_0
100
AcDbCircle
 10
436.194997
 20
244.963254
 30
0.0
 40
11.9
100
AcDbArc
 50
174.967587
 51
185.032413
  0
LINE
  5
20E
330
2
100
AcDbEntity
  8
AM_0
100
AcDbLine
 10
425.1874349999999
 20
243.581038
 30
0.0
 11
425.1874349999999
 21
246.081038
 31
0.0
  0
ARC
  5
20F
330
2
100
AcDbEntity
  8
AM_0
100
AcDbCircle
 10
436.194997
 20
244.963254
 30
0.0
 40
10.05
100
AcDbArc
 50
173.614216
 51
187.905167
  0
ARC
  5
210
330
2
100
AcDbEntity
  8
AM_0
100
AcDbCircle
 10
436.194997
 20
244.963254
 30
0.0
 40
9.9
100
AcDbArc
 50
173.51705
 51
188.025725
  0
ARC
  5
211
330
2
100
AcDbEntity
  8
AM_0
100
AcDbCircle
 10
425.3783429999999
 20
242.963254
 30
0.0
 40
0.5
100
AcDbArc
 50
10.475682
 51
90.0
1001
GENIUS_GENODEF_13
1002
{
1000
HIER
1070
     0
1002
}
1002
{
1000
MANEDIT
1070
     0
1002
}
1002
{
1000
NOSEL
1070
     0
1002
}
1002
{
1000
BEHIND
1070
     0
1002
}
1002
{
1000
REACTOR
1002
}
1001
GENIUS_GENOBJ-N-FIL_13
1002
{
1000
OWNER
1000
GEN
1002
}
  0
LINE
  5
212
330
2
100
AcDbEntity
  8
AM_0
100
AcDbLine
 10
424.838941
 20
243.463254
 30
0.0
 11
425.8026919999999
 21
243.463254
 31
0.0
  0
ARC
  5
213
330
2
100
AcDbEntity
  8
AM_0
100
AcDbCircle
 10
424.838941
 20
243.963254
 30
0.0
 40
0.5
100
AcDbArc
 50
185.032413
 51
270.0
1001
GENIUS_GENODEF_13
1002
{
1000
HIER
1070
     0
1002
}
1002
{
1000
MANEDIT
1070
     0
1002
}
1002
{
1000
NOSEL
1070
     0
1002
}
1002
{
1000
BEHIND
1070
     0
1002
}
1002
{
1000
REACTOR
1002
}
1001
GENIUS_GENOBJ-N-FIL_13
1002
{
1000
OWNER
1000
GEN
1002
}
  0
ARC
  5
214
330
2
100
AcDbEntity
  8
AM_0
100
AcDbCircle
 10
425.3783429999999
 20
246.963254
 30
0.0
 40
0.5
100
AcDbArc
 50
270.0
 51
349.524318
1001
GENIUS_GENODEF_13
1002
{
1000
HIER
1070
     0
1002
}
1002
{
1000
MANEDIT
1070
     0
1002
}
1002
{
1000
NOSEL
1070
     0
1002
}
1002
{
1000
BEHIND
1070
     0
1002
}
1002
{
1000
REACTOR
1002
}
1001
GENIUS_GENOBJ-N-FIL_13
1002
{
1000
OWNER
1000
GEN
1002
}
  0
LINE
  5
215
330
2
100
AcDbEntity
  8
AM_0
100
AcDbLine
 10
424.838941
 20
246.463254
 30
0.0
 11
425.8026919999999
 21
246.463254
 31
0.0
  0
ARC
  5
216
330
2
100
AcDbEntity
  8
AM_0
100
AcDbCircle
 10
424.838941
 20
245.963254
 30
0.0
 40
0.5
100
AcDbArc
 50
90.0
 51
174.967587
1001
GENIUS_GENODEF_13
1002
{
1000
HIER
1070
     0
1002
}
1002
{
1000
MANEDIT
1070
     0
1002
}
1002
{
1000
NOSEL
1070
     0
1002
}
1002
{
1000
BEHIND
1070
     0
1002
}
1002
{
1000
REACTOR
1002
}
1001
GENIUS_GENOBJ-N-FIL_13
1002
{
1000
OWNER
1000
GEN
1002
}
  0
ARC
  5
217
330
2
100
AcDbEntity
  8
AM_0
100
AcDbCircle
 10
436.194997
 20
244.963254
 30
0.0
 40
10.5
100
AcDbArc
 50
188.213211
 51
216.786789
  0
LINE
  5
218
330
2
100
AcDbEntity
  8
AM_0
100
AcDbLine
 10
433.1696679999999
 20
243.581038
 30
0.0
 11
425.231786
 21
243.581038
 31
0.0
  0
LINE
  5
219
330
2
100
AcDbEntity
  8
AM_0
100
AcDbLine
 10
433.1696679999999
 20
246.081038
 30
0.0
 11
425.2016779999999
 21
246.081038
 31
0.0
  0
CIRCLE
  5
21A
330
2
100
AcDbEntity
  8
AM_0
100
AcDbCircle
 10
436.194997
 20
244.963254
 30
0.0
 40
30.5
  0
CIRCLE
  5
21B
330
2
100
AcDbEntity
  8
AM_0
100
AcDbCircle
 10
436.194997
 20
244.963254
 30
0.0
 40
11.05
  0
CIRCLE
  5
21C
330
2
100
AcDbEntity
  8
AM_0
100
AcDbCircle
 10
436.194997
 20
244.963254
 30
0.0
 40
11.06378
  0
CIRCLE
  5
21D
330
2
100
AcDbEntity
  8
AM_0
100
AcDbCircle
 10
436.194997
 20
244.963254
 30
0.0
 40
11.21836
  0
CIRCLE
  5
21E
330
2
100
AcDbEntity
  8
AM_0
100
AcDbCircle
 10
436.194997
 20
244.963254
 30
0.0
 40
13.22
  0
ARC
  5
21F
330
2
100
AcDbEntity
  8
AM_4
100
AcDbCircle
 10
436.194997
 20
244.963254
 30
0.0
 40
12.228684
100
AcDbArc
 50
117.600169
 51
108.18241
  0
ARC
  5
220
330
2
100
AcDbEntity
  8
AM_0
100
AcDbCircle
 10
436.194997
 20
244.963254
 30
0.0
 40
10.5
100
AcDbArc
 50
143.213211
 51
171.786789
  0
LINE
  5
221
330
2
100
AcDbEntity
  8
AM_0
100
AcDbLine
 10
437.4374349999999
 20
247.966393
 30
0.0
 11
437.4374349999999
 21
255.943183
 31
0.0
  0
LINE
  5
222
330
2
100
AcDbEntity
  8
AM_0
100
AcDbLine
 10
434.9374349999999
 20
247.960092
 30
0.0
 11
434.9374349999999
 21
255.941461
 31
0.0
  0
LINE
  5
223
330
2
100
AcDbEntity
  8
AM_0
100
AcDbLine
 10
434.859884
 20
247.926356
 30
0.0
 11
429.2379769999999
 21
253.548263
 31
0.0
  0
LINE
  5
224
330
2
100
AcDbEntity
  8
AM_0
100
AcDbLine
 10
433.1696679999999
 20
246.081038
 30
0.0
 11
427.4861249999999
 21
251.764581
 31
0.0
  0
LINE
  5
225
330
2
100
AcDbEntity
  8
AM_0
100
AcDbLine
 10
437.519668
 20
247.931038
 30
0.0
 11
443.143658
 21
253.555029
 31
0.0
  0
LINE
  5
226
330
2
100
AcDbEntity
  8
AM_0
100
AcDbLine
 10
439.2052019999999
 20
246.081038
 30
0.0
 11
444.897233
 21
251.773069
 31
0.0
  0
ARC
  5
227
330
2
100
AcDbEntity
  8
AM_0
100
AcDbCircle
 10
436.194997
 20
244.963254
 30
0.0
 40
10.5
100
AcDbArc
 50
8.213210999999999
 51
36.786789
  0
POINT
  5
5E5
330
2
100
AcDbEntity
  8
DEFPOINTS
  6
ByBlock
 62
     0
100
AcDbPoint
 10
266.51018
 20
375.557907
 30
0.0
  0
ARC
  5
5E6
330
2
100
AcDbEntity
  8
AM_0
100
AcDbCircle
 10
265.226662
 20
375.079398
 30
0.0
 40
1.0
100
AcDbArc
 50
270.0
 51
30.0
  0
ARC
  5
5E7
330
2
100
AcDbEntity
  8
AM_0
100
AcDbCircle
 10
254.999849
 20
386.792756
 30
0.0
 40
1.0
100
AcDbArc
 50
30.0
 51
180.0
  0
LINE
  5
5E8
330
2
100
AcDbEntity
  8
AM_0
100
AcDbLine
 10
250.724726
 20
397.793884
 30
0.0
 11
250.724726
 21
400.3554799999999
 31
0.0
  0
LINE
  5
5E9
330
2
100
AcDbEntity
  8
AM_0
100
AcDbLine
 10
242.058529
 20
400.810623
 30
0.0
 11
248.800208
 21
400.810623
 31
0.0
  0
LINE
  5
5EA
330
2
100
AcDbEntity
  8
AM_0
100
AcDbLine
 10
251.724726
 20
387.3914759999999
 30
0.0
 11
249.464979
 21
387.3914759999999
 31
0.0
  0
LINE
  5
5EB
330
2
100
AcDbEntity
  8
AM_0
100
AcDbLine
 10
246.559151
 20
392.26746
 30
0.0
 11
246.559151
 21
386.26746
 31
0.0
  0
LINE
  5
5EC
330
2
100
AcDbEntity
  8
AM_0
100
AcDbLine
 10
247.470962
 20
392.26746
 30
0.0
 11
247.470962
 21
386.26746
 31
0.0
  0
LINE
  5
5ED
330
2
100
AcDbEntity
  8
AM_0
100
AcDbLine
 10
248.382772
 20
392.26746
 30
0.0
 11
248.382772
 21
386.26746
 31
0.0
  0
LINE
  5
5EE
330
2
100
AcDbEntity
  8
AM_0
100
AcDbLine
 10
241.464979
 20
392.26746
 30
0.0
 11
249.464979
 21
392.26746
 31
0.0
  0
LINE
  5
5EF
330
2
100
AcDbEntity
  8
AM_0
100
AcDbLine
 10
241.464979
 20
386.022091
 30
0.0
 11
249.464979
 21
386.022091
 31
0.0
  0
LINE
  5
5F0
330
2
100
AcDbEntity
  8
AM_0
100
AcDbLine
 10
242.547185
 20
392.26746
 30
0.0
 11
242.547185
 21
386.26746
 31
0.0
  0
LINE
  5
5F1
330
2
100
AcDbEntity
  8
AM_0
100
AcDbLine
 10
244.370806
 20
392.26746
 30
0.0
 11
244.370806
 21
386.26746
 31
0.0
  0
LINE
  5
5F2
330
2
100
AcDbEntity
  8
AM_0
100
AcDbLine
 10
243.458995
 20
392.26746
 30
0.0
 11
243.458995
 21
386.26746
 31
0.0
  0
LINE
  5
5F3
330
2
100
AcDbEntity
  8
AM_0
100
AcDbLine
 10
245.464979
 20
392.26746
 30
0.0
 11
245.464979
 21
386.26746
 31
0.0
  0
LINE
  5
5F4
330
2
100
AcDbEntity
  8
AM_0
100
AcDbLine
 10
243.875984
 20
397.793884
 30
0.0
 11
243.875984
 21
392.26746
 31
0.0
  0
LINE
  5
5F5
330
2
100
AcDbEntity
  8
AM_0
100
AcDbLine
 10
246.982752
 20
397.793884
 30
0.0
 11
246.982752
 21
392.26746
 31
0.0
  0
ARC
  5
5F6
330
2
100
AcDbEntity
  8
AM_0
100
AcDbCircle
 10
250.724726
 20
396.793884
 30
0.0
 40
1.0
100
AcDbArc
 50
0.0
 51
90.0
  0
ARC
  5
5F7
330
2
100
AcDbEntity
  8
AM_0
100
AcDbCircle
 10
248.640434
 20
395.810623
 30
0.0
 40
5.0
100
AcDbArc
 50
28.588084
 51
90.0
  0
ARC
  5
5F8
330
2
100
AcDbEntity
  8
AM_0
100
AcDbCircle
 10
252.999849
 20
380.431754
 30
0.0
 40
1.0
100
AcDbArc
 50
210.0
 51
0.0
  0
POINT
  5
5F9
330
2
100
AcDbEntity
  8
DEFPOINTS
  6
ByBlock
 62
     0
100
AcDbPoint
 10
262.393799
 20
373.489315
 30
0.0
  0
LINE
  5
5FA
330
2
100
AcDbEntity
  8
AM_0
100
AcDbLine
 10
252.464979
 20
376.26746
 30
0.0
 11
252.464979
 21
373.9913850000001
 31
0.0
  0
LINE
  5
5FB
330
2
100
AcDbEntity
  8
AM_0
100
AcDbLine
 10
249.912689
 20
383.778873
 30
0.0
 11
251.724726
 21
383.778873
 31
0.0
  0
LINE
  5
5FC
330
2
100
AcDbEntity
  8
AM_0
100
AcDbLine
 10
248.742562
 20
374.059882
 30
0.0
 11
248.742562
 21
370.263648
 31
0.0
  0
LINE
  5
5FD
330
2
100
AcDbEntity
  8
AM_0
100
AcDbLine
 10
242.187395
 20
370.263648
 30
0.0
 11
248.742562
 21
370.263648
 31
0.0
  0
LINE
  5
5FE
330
2
100
AcDbEntity
  8
AM_0
100
AcDbLine
 10
242.187395
 20
374.060712
 30
0.0
 11
242.187395
 21
370.263648
 31
0.0
  0
LINE
  5
5FF
330
2
100
AcDbEntity
  8
AM_0
100
AcDbLine
 10
249.912689
 20
383.778873
 30
0.0
 11
252.133824
 21
379.931754
 31
0.0
  0
LINE
  5
600
330
2
100
AcDbEntity
  8
AM_0
100
AcDbLine
 10
253.999849
 20
386.792756
 30
0.0
 11
253.999849
 21
380.431754
 31
0.0
  0
LINE
  5
601
330
2
100
AcDbEntity
  8
AM_0
100
AcDbLine
 10
249.464979
 20
392.26746
 30
0.0
 11
249.464979
 21
376.26746
 31
0.0
  0
LINE
  5
602
330
2
100
AcDbEntity
  8
AM_0
100
AcDbLine
 10
241.464979
 20
392.26746
 30
0.0
 11
241.464979
 21
376.26746
 31
0.0
  0
LINE
  5
603
330
2
100
AcDbEntity
  8
AM_0
100
AcDbLine
 10
251.724726
 20
383.778873
 30
0.0
 11
251.724726
 21
399.745994
 31
0.0
  0
LINE
  5
604
330
2
100
AcDbEntity
  8
AM_0
100
AcDbLine
 10
255.865875
 20
387.292756
 30
0.0
 11
263.205936
 21
374.579398
 31
0.0
  0
ARC
  5
605
330
2
100
AcDbEntity
  8
AM_0
100
AcDbCircle
 10
264.071961
 20
375.079398
 30
0.0
 40
1.0
100
AcDbArc
 50
210.0
 51
270.0
  0
LINE
  5
606
330
2
100
AcDbEntity
  8
AM_0
100
AcDbLine
 10
253.030847
 20
398.203169
 30
0.0
 11
266.092687
 21
375.579398
 31
0.0
  0
LINE
  5
607
330
2
100
AcDbEntity
  8
AM_0
100
AcDbLine
 10
252.464979
 20
374.079398
 30
0.0
 11
265.226662
 21
374.079398
 31
0.0
  0
HATCH
  5
608
330
2
100
AcDbEntity
  8
AM_8
100
AcDbHatch
 10
0.0
 20
0.0
 30
0.0
210
0.0
220
0.0
230
1.0
  2
_U
 70
     0
 71
     0
 91
        1
 92
        1
 93
       12
 72
     1
 10
249.912689
 20
383.778873
 11
252.133824
 21
379.931754
 72
     2
 10
252.999849
 20
380.431754
 40
1.0
 50
210.0
 51
360.0
 73
     1
 72
     1
 10
253.999849
 20
380.431754
 11
253.999849
 21
386.792756
 72
     2
 10
254.999849
 20
386.792756
 40
1.0
 50
180.0
 51
330.0
 73
     0
 72
     1
 10
255.865875
 20
387.292756
 11
263.205936
 21
374.579398
 72
     2
 10
264.071961
 20
375.079398
 40
1.0
 50
210.0
 51
270.0
 73
     1
 72
     1
 10
264.071961
 20
374.079398
 11
265.226662
 21
374.079398
 72
     2
 10
265.226662
 20
375.079398
 40
1.0
 50
270.0
 51
390.0
 73
     1
 72
     1
 10
266.092687
 20
375.579398
 11
253.030847
 21
398.203169
 72
     2
 10
248.640434
 20
395.810623
 40
5.0
 50
28.588084
 51
51.912926
 73
     1
 72
     1
 10
251.724726
 20
399.745994
 11
251.724726
 21
383.778873
 72
     1
 10
251.724726
 20
383.778873
 11
249.912689
 21
383.778873
 97
        0
 75
     0
 76
     0
 52
45.0
 41
2.5
 77
     0
 78
     1
 53
45.0
 43
82.44945799999999
 44
28.102069
 45
-1.767766952966368
 46
1.767766952966368
 79
     0
 98
        1
 10
82.44945799999999
 20
28.102069
1001
GENIUS_GENOBJ-N-HTC_13
1002
{
1000
OWNER
1000
GEN
1002
}
1001
GENIUS_GENODEF_13
1002
{
1000
HIER
1070
     0
1002
}
1002
{
1000
MANEDIT
1070
     0
1002
}
1002
{
1000
NOSEL
1070
     0
1002
}
1002
{
1000
BEHIND
1070
     0
1002
}
1002
{
1000
OTHER
1070
     0
1002
}
1002
{
1000
REACTOR
1002
}
1001
GENIUS_GENHATCH_13
1002
{
1000
DATA
1040
45.0
1042
2.5
1000
_U
1070
     0
1011
253.400937
1021
393.517291
1031
0.0
1002
}
1002
{
1000
UCS
1010
0.0
1020
0.0
1030
0.0
1010
1.0
1020
0.0
1030
0.0
1010
0.0
1020
1.0
1030
0.0
1002
}
  0
LINE
  5
609
330
2
100
AcDbEntity
  8
AM_0
100
AcDbLine
 10
240.134011
 20
397.793884
 30
0.0
 11
240.134011
 21
400.3554799999999
 31
0.0
  0
ARC
  5
60A
330
2
100
AcDbEntity
  8
AM_0
100
AcDbCircle
 10
240.134011
 20
396.793884
 30
0.0
 40
1.0
100
AcDbArc
 50
90.0
 51
180.0
  0
ARC
  5
60B
330
2
100
AcDbEntity
  8
AM_0
100
AcDbCircle
 10
235.858887
 20
386.792756
 30
0.0
 40
1.0
100
AcDbArc
 50
0.0
 51
150.0
  0
ARC
  5
60C
330
2
100
AcDbEntity
  8
AM_0
100
AcDbCircle
 10
237.858887
 20
380.431754
 30
0.0
 40
1.0
100
AcDbArc
 50
180.0
 51
330.0
  0
LINE
  5
60D
330
2
100
AcDbEntity
  8
AM_0
100
AcDbLine
 10
236.858887
 20
380.431754
 30
0.0
 11
236.858887
 21
386.792756
 31
0.0
  0
LINE
  5
60E
330
2
100
AcDbEntity
  8
AM_0
100
AcDbLine
 10
238.464979
 20
376.26746
 30
0.0
 11
238.464979
 21
373.993158
 31
0.0
  0
ARC
  5
60F
330
2
100
AcDbEntity
  8
AM_0
100
AcDbCircle
 10
226.786776
 20
375.079398
 30
0.0
 40
1.0
100
AcDbArc
 50
270.0
 51
330.0
  0
ARC
  5
610
330
2
100
AcDbEntity
  8
AM_0
100
AcDbCircle
 10
225.632075
 20
375.079398
 30
0.0
 40
1.0
100
AcDbArc
 50
150.0
 51
270.0
  0
LINE
  5
611
330
2
100
AcDbEntity
  8
AM_0
100
AcDbLine
 10
225.632075
 20
374.079398
 30
0.0
 11
238.464979
 21
374.079398
 31
0.0
  0
LINE
  5
612
330
2
100
AcDbEntity
  8
AM_0
100
AcDbLine
 10
234.992862
 20
387.292756
 30
0.0
 11
227.606519
 21
374.499235
 31
0.0
  0
LINE
  5
613
330
2
100
AcDbEntity
  8
AM_0
100
AcDbLine
 10
239.134011
 20
383.778873
 30
0.0
 11
239.134011
 21
399.745994
 31
0.0
  0
LINE
  5
614
330
2
100
AcDbEntity
  8
AM_0
100
AcDbLine
 10
237.82789
 20
398.203169
 30
0.0
 11
224.76605
 21
375.579398
 31
0.0
  0
HATCH
  5
615
330
2
100
AcDbEntity
  8
AM_8
100
AcDbHatch
 10
0.0
 20
0.0
 30
0.0
210
0.0
220
0.0
230
1.0
  2
_U
 70
     0
 71
     0
 91
        1
 92
        1
 93
       14
 72
     1
 10
237.82789
 20
398.203169
 11
224.76605
 21
375.579398
 72
     2
 10
225.632075
 20
375.079398
 40
1.0
 50
150.0
 51
270.0
 73
     1
 72
     1
 10
225.632075
 20
374.079398
 11
226.786776
 21
374.079398
 72
     2
 10
226.786776
 20
375.079398
 40
1.0
 50
270.0
 51
330.0
 73
     1
 72
     1
 10
227.652801
 20
374.579398
 11
234.992862
 21
387.292756
 72
     2
 10
235.858887
 20
386.792756
 40
1.0
 50
210.0
 51
360.0
 73
     0
 72
     1
 10
236.858887
 20
386.792756
 11
236.858887
 21
386.391476
 72
     1
 10
236.858887
 20
386.391476
 11
236.858887
 21
386.23068
 72
     1
 10
236.858887
 20
386.23068
 11
236.858887
 21
380.431754
 72
     2
 10
237.858887
 20
380.431754
 40
1.0
 50
180.0
 51
330.0
 73
     1
 72
     1
 10
238.724913
 20
379.931754
 11
240.946048
 21
383.778873
 72
     1
 10
240.946048
 20
383.778873
 11
239.134011
 21
383.778873
 72
     1
 10
239.134011
 20
383.778873
 11
239.134011
 21
399.745994
 72
     2
 10
242.218303
 20
395.810623
 40
5.0
 50
128.087074
 51
151.411916
 73
     1
 97
        0
 75
     0
 76
     0
 52
45.0
 41
2.5
 77
     0
 78
     1
 53
45.0
 43
82.44945799999999
 44
28.102069
 45
-1.767766952966368
 46
1.767766952966368
 79
     0
 98
        1
 10
82.44945799999999
 20
28.102069
1001
GENIUS_GENOBJ-N-HTC_13
1002
{
1000
OWNER
1000
GEN
1002
}
1001
GENIUS_GENODEF_13
1002
{
1000
HIER
1070
     0
1002
}
1002
{
1000
MANEDIT
1070
     0
1002
}
1002
{
1000
NOSEL
1070
     0
1002
}
1002
{
1000
BEHIND
1070
     0
1002
}
1002
{
1000
OTHER
1070
     0
1002
}
1002
{
1000
REACTOR
1002
}
1001
GENIUS_GENHATCH_13
1002
{
1000
DATA
1040
45.0
1042
2.5
1000
_U
1070
     0
1011
236.986239
1021
391.604837
1031
0.0
1002
}
1002
{
1000
UCS
1010
0.0
1020
0.0
1030
0.0
1010
1.0
1020
0.0
1030
0.0
1010
0.0
1020
1.0
1030
0.0
1002
}
  0
LINE
  5
616
330
2
100
AcDbEntity
  8
AM_0
100
AcDbLine
 10
240.134011
 20
397.793884
 30
0.0
 11
250.724726
 21
397.793884
 31
0.0
  0
ARC
  5
617
330
2
100
AcDbEntity
  8
AM_0
100
AcDbCircle
 10
242.218303
 20
395.810623
 30
0.0
 40
5.0
100
AcDbArc
 50
90.0
 51
151.411916
  0
LINE
  5
618
330
2
100
AcDbEntity
  8
AM_0
100
AcDbLine
 10
238.464979
 20
376.26746
 30
0.0
 11
252.464979
 21
376.26746
 31
0.0
  0
LINE
  5
619
330
2
100
AcDbEntity
  8
AM_0
100
AcDbLine
 10
239.134011
 20
383.778873
 30
0.0
 11
240.946048
 21
383.778873
 31
0.0
  0
LINE
  5
61A
330
2
100
AcDbEntity
  8
AM_0
100
AcDbLine
 10
240.946048
 20
383.778873
 30
0.0
 11
238.724913
 21
379.931754
 31
0.0
  0
LINE
  5
61B
330
2
100
AcDbEntity
  8
AM_0
100
AcDbLine
 10
239.134011
 20
387.3914759999999
 30
0.0
 11
241.560955
 21
387.3914759999999
 31
0.0
  0
HATCH
  5
61C
330
2
100
AcDbEntity
  8
AM_8
100
AcDbHatch
 10
0.0
 20
0.0
 30
0.0
210
0.0
220
0.0
230
1.0
  2
_U
 70
     0
 71
     0
 91
        1
 92
        1
 93
       12
 72
     1
 10
240.134011
 20
400.3554799999999
 11
240.134011
 21
397.793884
 72
     1
 10
240.134011
 20
397.793884
 11
244.41061
 21
397.793884
 72
     1
 10
244.41061
 20
397.793884
 11
245.372271
 21
397.793884
 72
     1
 10
245.372271
 20
397.793884
 11
245.463065
 21
397.793884
 72
     1
 10
245.463065
 20
397.793884
 11
245.486466
 21
397.793884
 72
     1
 10
245.486466
 20
397.793884
 11
246.424725
 21
397.793884
 72
     1
 10
246.424725
 20
397.793884
 11
250.691115
 21
397.793884
 72
     1
 10
250.691115
 20
397.793884
 11
250.724726
 21
397.793884
 72
     1
 10
250.724726
 20
397.793884
 11
250.724726
 21
400.3554799999999
 72
     2
 10
248.640434
 20
395.810623
 40
5.0
 50
65.363602
 51
90.0
 73
     1
 72
     1
 10
248.640434
 20
400.810623
 11
242.218303
 21
400.810623
 72
     2
 10
242.218303
 20
395.810623
 40
5.0
 50
90.0
 51
114.636398
 73
     1
 97
        0
 75
     0
 76
     0
 52
45.0
 41
2.5
 77
     0
 78
     1
 53
45.0
 43
82.44945799999999
 44
28.102069
 45
-1.767766952966368
 46
1.767766952966368
 79
     0
 98
        1
 10
82.44945799999999
 20
28.102069
1001
GENIUS_GENODEF_13
1002
{
1000
HIER
1070
     0
1002
}
1002
{
1000
MANEDIT
1070
     0
1002
}
1002
{
1000
NOSEL
1070
     0
1002
}
1002
{
1000
BEHIND
1070
     0
1002
}
1002
{
1000
OTHER
1070
     0
1002
}
1002
{
1000
REACTOR
1002
}
1001
GENIUS_GENOBJ-N-HTC_13
1002
{
1000
OWNER
1000
GEN
1002
}
1001
GENIUS_GENHATCH_13
1002
{
1000
DATA
1040
45.0
1042
2.5
1000
_U
1070
     0
1011
243.934791
1021
399.55662
1031
0.0
1002
}
1002
{
1000
UCS
1010
0.0
1020
0.0
1030
0.0
1010
1.0
1020
0.0
1030
0.0
1010
0.0
1020
1.0
1030
0.0
1002
}
  0
ARC
  5
61D
330
2
100
AcDbEntity
  8
AM_0
100
AcDbCircle
 10
326.5793680000001
 20
333.526241
 30
0.0
 40
20.6
100
AcDbArc
 50
0.0
 51
64.04263199999999
1001
GENIUS_GENODEF_13
1002
{
1000
HIER
1070
     0
1002
}
1002
{
1000
MANEDIT
1070
     0
1002
}
1002
{
1000
NOSEL
1070
     0
1002
}
1002
{
1000
BEHIND
1070
     0
1002
}
1002
{
1000
REACTOR
1002
}
1001
GENIUS_GENOBJ-N-FIL_13
1002
{
1000
OWNER
1000
GEN
1002
}
  0
ARC
  5
61E
330
2
100
AcDbEntity
  8
AM_0
100
AcDbCircle
 10
326.5793680000001
 20
333.526241
 30
0.0
 40
21.85
100
AcDbArc
 50
0.0
 51
64.04263199999999
1001
GENIUS_GENODEF_13
1002
{
1000
HIER
1070
     0
1002
}
1002
{
1000
MANEDIT
1070
     0
1002
}
1002
{
1000
NOSEL
1070
     0
1002
}
1002
{
1000
BEHIND
1070
     0
1002
}
1002
{
1000
REACTOR
1002
}
1001
GENIUS_GENOBJ-N-FIL_13
1002
{
1000
OWNER
1000
GEN
1002
}
  0
ARC
  5
620
330
2
100
AcDbEntity
  8
AM_0
100
AcDbCircle
 10
346.179368
 20
249.847347
 30
0.0
 40
1.0
100
AcDbArc
 50
330.0
 51
0.0
1001
GENIUS_GENODEF_13
1002
{
1000
HIER
1070
     0
1002
}
1002
{
1000
MANEDIT
1070
     0
1002
}
1002
{
1000
NOSEL
1070
     0
1002
}
1002
{
1000
BEHIND
1070
     0
1002
}
1002
{
1000
REACTOR
1002
}
1001
GENIUS_GENOBJ-N-FIL_13
1002
{
1000
OWNER
1000
GEN
1002
}
  0
LINE
  5
621
330
2
100
AcDbEntity
  8
AM_0
100
AcDbLine
 10
348.429368
 20
246.926459
 30
0.0
 11
347.186004
 21
246.926459
 31
0.0
  0
LINE
  5
622
330
2
100
AcDbEntity
  8
AM_0
100
AcDbLine
 10
347.313343
 20
247.311449
 30
0.0
 11
348.2619
 21
248.954398
 31
0.0
  0
ARC
  5
623
330
2
100
AcDbEntity
  8
AM_0
100
AcDbCircle
 10
348.179368
 20
246.811449
 30
0.0
 40
1.0
100
AcDbArc
 50
150.0
 51
180.0
1001
GENIUS_GENODEF_13
1002
{
1000
HIER
1070
     0
1002
}
1002
{
1000
MANEDIT
1070
     0
1002
}
1002
{
1000
NOSEL
1070
     0
1002
}
1002
{
1000
BEHIND
1070
     0
1002
}
1002
{
1000
REACTOR
1002
}
1001
GENIUS_GENOBJ-N-FIL_13
1002
{
1000
OWNER
1000
GEN
1002
}
  0
ARC
  5
624
330
2
100
AcDbEntity
  8
AM_0
100
AcDbCircle
 10
347.179368
 20
247.079398
 30
0.0
 40
1.25
100
AcDbArc
 50
150.0
 51
180.0
1001
GENIUS_GENODEF_13
1002
{
1000
HIER
1070
     0
1002
}
1002
{
1000
MANEDIT
1070
     0
1002
}
1002
{
1000
NOSEL
1070
     0
1002
}
1002
{
1000
BEHIND
1070
     0
1002
}
1002
{
1000
REACTOR
1002
}
1001
GENIUS_GENOBJ-N-FIL_13
1002
{
1000
OWNER
1000
GEN
1002
}
  0
LINE
  5
625
330
2
100
AcDbEntity
  8
AM_0
100
AcDbLine
 10
346.096837
 20
247.704398
 30
0.0
 11
347.045394
 21
249.347347
 31
0.0
  0
ARC
  5
626
330
2
100
AcDbEntity
  8
AM_0
100
AcDbCircle
 10
347.179368
 20
249.579398
 30
0.0
 40
1.25
100
AcDbArc
 50
330.0
 51
0.0
1001
GENIUS_GENODEF_13
1002
{
1000
HIER
1070
     0
1002
}
1002
{
1000
MANEDIT
1070
     0
1002
}
1002
{
1000
NOSEL
1070
     0
1002
}
1002
{
1000
BEHIND
1070
     0
1002
}
1002
{
1000
REACTOR
1002
}
1001
GENIUS_GENOBJ-N-FIL_13
1002
{
1000
OWNER
1000
GEN
1002
}
  0
LINE
  5
627
330
2
100
AcDbEntity
  8
AM_0
100
AcDbLine
 10
345.929368
 20
242.079398
 30
0.0
 11
346.179368
 21
242.079398
 31
0.0
  0
LINE
  5
628
330
2
100
AcDbEntity
  8
AM_0
100
AcDbLine
 10
346.179368
 20
242.079398
 30
0.0
 11
346.179368
 21
240.079398
 31
0.0
  0
LINE
  5
629
330
2
100
AcDbEntity
  8
AM_0
100
AcDbLine
 10
347.179368
 20
246.811449
 30
0.0
 11
347.179368
 21
240.079398
 31
0.0
  0
LINE
  5
62A
330
2
100
AcDbEntity
  8
AM_0
100
AcDbLine
 10
345.929368
 20
247.079398
 30
0.0
 11
345.929368
 21
242.079398
 31
0.0
  0
LINE
  5
62B
330
2
100
AcDbEntity
  8
AM_4
100
AcDbLine
 10
296.432433
 20
250.25933
 30
0.0
 11
346.333345
 21
250.25933
 31
0.0
  0
LINE
  5
62C
330
2
100
AcDbEntity
  8
AM_0
100
AcDbLine
 10
297.403632
 20
240.079398
 30
0.0
 11
347.179368
 21
240.079398
 31
0.0
  0
LINE
  5
62D
330
2
100
AcDbEntity
  8
AM_0
 62
     7
100
AcDbLine
 10
347.179368
 20
333.526241
 30
0.0
 11
347.179368
 21
249.847347
 31
0.0
  0
LINE
  5
62E
330
2
100
AcDbEntity
  8
AM_0
 62
     7
100
AcDbLine
 10
348.429368
 20
333.526241
 30
0.0
 11
348.429368
 21
249.579398
 31
0.0
  0
ARC
  5
62F
330
2
100
AcDbEntity
  8
AM_0
100
AcDbCircle
 10
245.429368
 20
264.711236
 30
0.0
 40
49.4
100
AcDbArc
 50
5.449711999999999
 51
35.95260800000001
  0
ARC
  5
630
330
2
100
AcDbEntity
  8
AM_0
100
AcDbCircle
 10
245.429368
 20
264.711236
 30
0.0
 40
47.6
100
AcDbArc
 50
5.449711999999999
 51
31.668949
  0
HATCH
  5
631
330
2
100
AcDbEntity
  8
AM_8
100
AcDbHatch
 10
0.0
 20
0.0
 30
0.0
210
0.0
220
0.0
230
1.0
  2
ANSI37
 70
     0
 71
     0
 91
        1
 92
        5
 93
        6
 72
     1
 10
292.814213
 20
269.231907
 11
294.62426
 21
250.25933
 72
     1
 10
294.62426
 20
250.25933
 11
296.432433
 21
250.25933
 72
     1
 10
296.432433
 20
250.25933
 11
294.606077
 21
269.402857
 72
     2
 10
245.429368
 20
264.711236
 40
49.4
 50
5.449711999999999
 51
35.95260800000001
 73
     1
 72
     4
 94
        3
 73
     0
 74
     0
 95
        8
 96
        4
 40
138.436694
 40
138.436694
 40
138.436694
 40
138.436694
 40
142.194458
 40
142.194458
 40
142.194458
 40
142.194458
 10
285.418812
 20
293.714761
 10
285.617347
 20
292.38595
 10
285.791144
 20
291.047104
 10
285.941526
 20
289.701736
 72
     2
 10
245.429368
 20
264.711236
 40
47.6
 50
328.331051
 51
354.550288
 73
     0
 97
        0
 75
     0
 76
     1
 52
0.0
 41
1.0
 77
     0
 78
     2
 53
45.0
 43
82.44945799999999
 44
28.102069
 45
-2.245064030267287
 46
2.245064030267287
 79
     0
 53
135.0
 43
82.44945799999999
 44
28.102069
 45
-2.245064030267287
 46
-2.245064030267287
 79
     0
 47
0.078674
 98
        1
 10
292.340479
 20
275.608432
  0
ARC
  5
632
330
2
100
AcDbEntity
  8
AM_0
100
AcDbCircle
 10
245.429368
 20
166.829398
 30
0.0
 40
206.0
100
AcDbArc
 50
64.04263199999999
 51
89.078446
  0
HATCH
  5
633
330
2
100
AcDbEntity
  8
AM_8
100
AcDbHatch
 10
0.0
 20
0.0
 30
0.0
210
0.0
220
0.0
230
1.0
  2
ANSI31
 70
     0
 71
     0
 91
        3
 92
        7
 72
     1
 73
     1
 93
        8
 10
348.429368326733
 20
333.5262411623547
 42
0.2869467072285143
 10
336.1431628251145
 20
353.1720125850482
 42
0.1097005020363507
 10
248.7425624810027
 20
374.0529132431419
 42
0.0
 10
248.7425624810027
 20
372.8027525135693
 42
-0.1096759557937396
 10
335.5960349934
 20
352.0481126180746
 42
-0.2869467072285146
 10
347.1793683267331
 20
333.5262411623547
 42
0.0
 10
347.1793683267331
 20
299.4746949685871
 42
0.0
 10
348.429368326733
 20
299.9371373753842
 42
0.0
 97
        0
 92
        7
 72
     1
 73
     1
 93
        4
 10
348.429368326733
 20
299.9371373753846
 42
0.0
 10
347.1793683267331
 20
299.4746949685871
 42
0.0
 10
347.1793683267331
 20
254.5885087103669
 42
-0.031041773610071
 10
348.429368326733
 20
254.526547569359
 42
0.0
 97
        0
 92
        7
 72
     1
 73
     1
 93
       14
 10
348.429368326733
 20
249.5793980608731
 42
0.0
 10
348.429368326733
 20
254.526547569359
 42
0.031041773610071
 10
347.1793683267331
 20
254.5885087103669
 42
0.0
 10
347.1793683267331
 20
249.8473472533041
 42
-0.1316524975873781
 10
347.045393730518
 20
249.3473472533045
 42
0.0
 10
346.0968365720025
 20
247.7043980608732
 42
0.1316524975873637
 10
345.929368326733
 20
247.0793980608732
 42
0.0
 10
345.929368326733
 20
242.0793980608731
 42
0.0
 10
346.179368326733
 20
242.0793980608731
 42
0.0
 10
346.179368326733
 20
240.0793980608731
 42
0.0
 10
347.1793683267331
 20
240.0793980608731
 42
0.0
 10
347.1793683267331
 20
246.8114488684418
 42
-0.1316524975874139
 10
347.3133429229488
 20
247.3114488684418
 42
0.0
 10
348.2619000814636
 20
248.9543980608731
 42
0.1316524975874043
 97
        0
 75
     0
 76
     1
 52
90.0
 41
1.0
 77
     0
 78
     1
 53
135.0
 43
82.44945799999999
 44
28.102069
 45
-2.245064030267287
 46
-2.245064030267287
 79
     0
 47
0.194716
 98
        3
 10
347.513304
 20
325.651476
 10
347.708104
 20
278.140881
 10
347.513304
 20
248.933548
  0
ARC
  5
635
330
2
100
AcDbEntity
  8
AM_0
100
AcDbCircle
 10
164.279368
 20
333.526241
 30
0.0
 40
21.85
100
AcDbArc
 50
115.957368
 51
180.0
1001
GENIUS_GENODEF_13
1002
{
1000
HIER
1070
     0
1002
}
1002
{
1000
MANEDIT
1070
     0
1002
}
1002
{
1000
NOSEL
1070
     0
1002
}
1002
{
1000
BEHIND
1070
     0
1002
}
1002
{
1000
REACTOR
1002
}
1001
GENIUS_GENOBJ-N-FIL_13
1002
{
1000
OWNER
1000
GEN
1002
}
  0
ARC
  5
636
330
2
100
AcDbEntity
  8
AM_0
100
AcDbCircle
 10
142.679368
 20
246.811449
 30
0.0
 40
1.0
100
AcDbArc
 50
6.604191999999999
 51
30.0
1001
GENIUS_GENODEF_13
1002
{
1000
HIER
1070
     0
1002
}
1002
{
1000
MANEDIT
1070
     0
1002
}
1002
{
1000
NOSEL
1070
     0
1002
}
1002
{
1000
BEHIND
1070
     0
1002
}
1002
{
1000
REACTOR
1002
}
1001
GENIUS_GENOBJ-N-FIL_13
1002
{
1000
OWNER
1000
GEN
1002
}
  0
LINE
  5
637
330
2
100
AcDbEntity
  8
AM_0
100
AcDbLine
 10
143.545394
 20
247.311449
 30
0.0
 11
142.596837
 21
248.954398
 31
0.0
  0
ARC
  5
638
330
2
100
AcDbEntity
  8
AM_0
100
AcDbCircle
 10
143.679368
 20
249.579398
 30
0.0
 40
1.25
100
AcDbArc
 50
180.0
 51
210.0
1001
GENIUS_GENODEF_13
1002
{
1000
HIER
1070
     0
1002
}
1002
{
1000
MANEDIT
1070
     0
1002
}
1002
{
1000
NOSEL
1070
     0
1002
}
1002
{
1000
BEHIND
1070
     0
1002
}
1002
{
1000
REACTOR
1002
}
1001
GENIUS_GENOBJ-N-FIL_13
1002
{
1000
OWNER
1000
GEN
1002
}
  0
LINE
  5
639
330
2
100
AcDbEntity
  8
AM_0
 62
     7
100
AcDbLine
 10
142.429368
 20
333.526241
 30
0.0
 11
142.429368
 21
249.579398
 31
0.0
  0
ARC
  5
63A
330
2
100
AcDbEntity
  8
AM_0
100
AcDbCircle
 10
245.429368
 20
166.829398
 30
0.0
 40
207.25
100
AcDbArc
 50
64.04263199999999
 51
115.957368
  0
ARC
  5
63B
330
2
100
AcDbEntity
  8
AM_0
100
AcDbCircle
 10
245.429368
 20
166.829398
 30
0.0
 40
206.0
100
AcDbArc
 50
90.90174300000001
 51
109.594274
  0
LINE
  5
63C
330
2
100
AcDbEntity
  8
AM_0
100
AcDbLine
 10
142.429368
 20
246.926459
 30
0.0
 11
280.380545
 21
246.926459
 31
0.0
  0
HATCH
  5
63D
330
2
100
AcDbEntity
  8
AM_8
100
AcDbHatch
 10
0.0
 20
0.0
 30
0.0
210
0.0
220
0.0
230
1.0
  2
ANSI31
 70
     0
 71
     0
 91
        1
 92
        5
 93
        4
 72
     1
 10
242.187395
 20
372.803886
 11
242.187395
 21
374.05404
 72
     2
 10
245.429368
 20
166.829398
 40
207.25
 50
90.896304
 51
109.847827
 73
     1
 72
     4
 94
        3
 73
     0
 74
     0
 95
        8
 96
        4
 40
0.0
 40
0.0
 40
0.0
 40
0.0
 40
1.547940999999999
 40
1.547940999999999
 40
1.547940999999999
 40
1.547940999999999
 10
175.063187
 20
361.7682680000001
 10
175.486395
 20
361.47309
 10
175.913964
 20
361.183775
 10
176.345738
 20
360.900138
 72
     2
 10
245.429368
 20
166.829398
 40
206.0
 50
250.405726
 51
269.098257
 73
     0
 97
        0
 75
     0
 76
     1
 52
90.0
 41
1.0
 77
     0
 78
     1
 53
135.0
 43
82.44945799999999
 44
28.102069
 45
-2.245064030267287
 46
-2.245064030267287
 79
     0
 47
0.092292
 98
        1
 10
206.073503
 20
369.360588
  0
ARC
  5
63E
330
2
100
AcDbEntity
  8
AM_0
100
AcDbCircle
 10
326.5793680000001
 20
158.18933
 30
0.0
 40
21.85
100
AcDbArc
 50
295.957368
 51
0.0
1001
GENIUS_GENODEF_13
1002
{
1000
HIER
1070
     0
1002
}
1002
{
1000
MANEDIT
1070
     0
1002
}
1002
{
1000
NOSEL
1070
     0
1002
}
1002
{
1000
BEHIND
1070
     0
1002
}
1002
{
1000
REACTOR
1002
}
1001
GENIUS_GENOBJ-N-FIL_13
1002
{
1000
OWNER
1000
GEN
1002
}
  0
ARC
  5
63F
330
2
100
AcDbEntity
  8
AM_0
100
AcDbCircle
 10
326.5793680000001
 20
158.18933
 30
0.0
 40
20.6
100
AcDbArc
 50
295.957368
 51
0.0
1001
GENIUS_GENODEF_13
1002
{
1000
HIER
1070
     0
1002
}
1002
{
1000
MANEDIT
1070
     0
1002
}
1002
{
1000
NOSEL
1070
     0
1002
}
1002
{
1000
BEHIND
1070
     0
1002
}
1002
{
1000
REACTOR
1002
}
1001
GENIUS_GENOBJ-N-FIL_13
1002
{
1000
OWNER
1000
GEN
1002
}
  0
LINE
  5
640
330
2
100
AcDbEntity
  8
AM_0
100
AcDbLine
 10
287.179368
 20
116.006928
 30
0.0
 11
288.929368
 21
116.006928
 31
0.0
  0
LINE
  5
641
330
2
100
AcDbEntity
  8
AM_0
100
AcDbLine
 10
287.179368
 20
118.006928
 30
0.0
 11
288.929368
 21
118.006928
 31
0.0
  0
LINE
  5
642
330
2
100
AcDbEntity
  8
AM_0
100
AcDbLine
 10
287.179368
 20
118.006928
 30
0.0
 11
287.179368
 21
116.006928
 31
0.0
  0
LINE
  5
643
330
2
100
AcDbEntity
  8
AM_0
100
AcDbLine
 10
293.179368
 20
113.756928
 30
0.0
 11
293.179368
 21
109.956928
 31
0.0
  0
ARC
  5
644
330
2
100
AcDbEntity
  8
AM_0
100
AcDbCircle
 10
288.929368
 20
113.756928
 30
0.0
 40
1.0
100
AcDbArc
 50
0.0
 51
90.0
  0
ARC
  5
645
330
2
100
AcDbEntity
  8
AM_0
100
AcDbCircle
 10
289.661419
 20
107.956928
 30
0.0
 40
1.0
100
AcDbArc
 50
90.0
 51
150.0
1001
GENIUS_GENODEF_13
1002
{
1000
HIER
1070
     0
1002
}
1002
{
1000
MANEDIT
1070
     0
1002
}
1002
{
1000
NOSEL
1070
     0
1002
}
1002
{
1000
BEHIND
1070
     0
1002
}
1002
{
1000
REACTOR
1002
}
1001
GENIUS_GENOBJ-N-FIL_13
1002
{
1000
OWNER
1000
GEN
1002
}
  0
ARC
  5
646
330
2
100
AcDbEntity
  8
AM_0
100
AcDbCircle
 10
287.929368
 20
108.956928
 30
0.0
 40
1.0
100
AcDbArc
 50
210.0
 51
330.0
  0
LINE
  5
647
330
2
100
AcDbEntity
  8
AM_0
100
AcDbLine
 10
287.179368
 20
114.756928
 30
0.0
 11
288.929368
 21
114.756928
 31
0.0
  0
LINE
  5
648
330
2
100
AcDbEntity
  8
AM_0
100
AcDbLine
 10
291.179368
 20
109.956928
 30
0.0
 11
291.179368
 21
113.756928
 31
0.0
  0
LINE
  5
649
330
2
100
AcDbEntity
  8
AM_0
100
AcDbLine
 10
289.929368
 20
108.956928
 30
0.0
 11
289.929368
 21
113.756928
 31
0.0
  0
ARC
  5
64A
330
2
100
AcDbEntity
  8
AM_0
100
AcDbCircle
 10
290.979368
 20
109.956928
 30
0.0
 40
0.2
100
AcDbArc
 50
270.0
 51
0.0
  0
LINE
  5
64B
330
2
100
AcDbEntity
  8
AM_0
100
AcDbLine
 10
289.929368
 20
109.756928
 30
0.0
 11
290.979368
 21
109.756928
 31
0.0
  0
LINE
  5
64C
330
2
100
AcDbEntity
  8
AM_0
100
AcDbLine
 10
290.165436
 20
106.956928
 30
0.0
 11
290.179368
 21
106.956928
 31
0.0
  0
ARC
  5
64D
330
2
100
AcDbEntity
  8
AM_0
100
AcDbCircle
 10
290.179368
 20
109.956928
 30
0.0
 40
1.0
100
AcDbArc
 50
270.0
 51
0.0
1001
GENIUS_GENODEF_13
1002
{
1000
HIER
1070
     0
1002
}
1002
{
1000
MANEDIT
1070
     0
1002
}
1002
{
1000
NOSEL
1070
     0
1002
}
1002
{
1000
BEHIND
1070
     0
1002
}
1002
{
1000
REACTOR
1002
}
1001
GENIUS_GENOBJ-N-FIL_13
1002
{
1000
OWNER
1000
GEN
1002
}
  0
LINE
  5
64E
330
2
100
AcDbEntity
  8
AM_0
100
AcDbLine
 10
289.661419
 20
108.956928
 30
0.0
 11
290.179368
 21
108.956928
 31
0.0
  0
ARC
  5
64F
330
2
100
AcDbEntity
  8
AM_0
100
AcDbCircle
 10
288.929368
 20
113.756928
 30
0.0
 40
2.25
100
AcDbArc
 50
0.0
 51
90.0
  0
ARC
  5
650
330
2
100
AcDbEntity
  8
AM_0
100
AcDbCircle
 10
288.929368
 20
113.756928
 30
0.0
 40
4.25
100
AcDbArc
 50
0.0
 51
90.0
  0
ARC
  5
651
330
2
100
AcDbEntity
  8
AM_0
100
AcDbCircle
 10
272.249517
 20
148.877598
 30
0.0
 40
30.0
100
AcDbArc
 50
301.6029759999999
 51
0.0
1001
GENIUS_GENODEF_13
1002
{
1000
HIER
1070
     0
1002
}
1002
{
1000
MANEDIT
1070
     0
1002
}
1002
{
1000
NOSEL
1070
     0
1002
}
1002
{
1000
BEHIND
1070
     0
1002
}
1002
{
1000
REACTOR
1002
}
1001
GENIUS_GENOBJ-N-FIL_13
1002
{
1000
OWNER
1000
GEN
1002
}
  0
ARC
  5
652
330
2
100
AcDbEntity
  8
AM_0
100
AcDbCircle
 10
245.429368
 20
324.886173
 30
0.0
 40
207.25
100
AcDbArc
 50
281.565041
 51
295.957368
  0
ARC
  5
653
330
2
100
AcDbEntity
  8
AM_0
100
AcDbCircle
 10
245.429368
 20
324.886173
 30
0.0
 40
206.0
100
AcDbArc
 50
281.6211120000001
 51
295.957368
  0
LINE
  5
654
330
2
100
AcDbEntity
  8
AM_0
100
AcDbLine
 10
302.229368
 20
189.496905
 30
0.0
 11
302.229368
 21
147.778278
 31
0.0
  0
LINE
  5
655
330
2
100
AcDbEntity
  8
AM_0
100
AcDbLine
 10
300.429368
 20
189.411236
 30
0.0
 11
300.429368
 21
149.096809
 31
0.0
  0
LINE
  5
656
330
2
100
AcDbEntity
  8
AM_0
100
AcDbLine
 10
284.429368
 20
125.611236
 30
0.0
 11
284.429368
 21
125.611236
 31
0.0
  0
ARC
  5
657
330
2
100
AcDbEntity
  8
AM_0
100
AcDbCircle
 10
268.943545
 20
126.547007
 30
0.0
 40
0.5
100
AcDbArc
 50
30.0
 51
80.0
  0
LINE
  5
658
330
2
100
AcDbEntity
  8
AM_0
100
AcDbLine
 10
284.929368
 20
117.006928
 30
0.0
 11
284.929368
 21
120.660195
 31
0.0
  0
LINE
  5
659
330
2
100
AcDbEntity
  8
AM_0
100
AcDbLine
 10
286.179368
 20
117.006928
 30
0.0
 11
286.179368
 21
120.864115
 31
0.0
  0
ARC
  5
65A
330
2
100
AcDbEntity
  8
AM_0
100
AcDbCircle
 10
278.929368
 20
118.306928
 30
0.0
 40
1.0
100
AcDbArc
 50
0.0
 51
90.0
1001
GENIUS_GENODEF_13
1002
{
1000
HIER
1070
     0
1002
}
1002
{
1000
MANEDIT
1070
     0
1002
}
1002
{
1000
NOSEL
1070
     0
1002
}
1002
{
1000
BEHIND
1070
     0
1002
}
1002
{
1000
REACTOR
1002
}
1001
GENIUS_GENOBJ-N-FIL_13
1002
{
1000
OWNER
1000
GEN
1002
}
  0
ARC
  5
65B
330
2
100
AcDbEntity
  8
AM_0
100
AcDbCircle
 10
278.929368
 20
118.306928
 30
0.0
 40
3.0
100
AcDbArc
 50
0.0
 51
90.0
1001
GENIUS_GENODEF_13
1002
{
1000
HIER
1070
     0
1002
}
1002
{
1000
MANEDIT
1070
     0
1002
}
1002
{
1000
NOSEL
1070
     0
1002
}
1002
{
1000
BEHIND
1070
     0
1002
}
1002
{
1000
REACTOR
1002
}
1001
GENIUS_GENOBJ-N-FIL_13
1002
{
1000
OWNER
1000
GEN
1002
}
  0
LINE
  5
65C
330
2
100
AcDbEntity
  8
AM_0
100
AcDbLine
 10
282.929368
 20
108.956928
 30
0.0
 11
286.197318
 21
108.956928
 31
0.0
  0
ARC
  5
65D
330
2
100
AcDbEntity
  8
AM_0
100
AcDbCircle
 10
282.929368
 20
109.956928
 30
0.0
 40
1.0
100
AcDbArc
 50
180.0
 51
270.0
1001
GENIUS_GENODEF_13
1002
{
1000
HIER
1070
     0
1002
}
1002
{
1000
MANEDIT
1070
     0
1002
}
1002
{
1000
NOSEL
1070
     0
1002
}
1002
{
1000
BEHIND
1070
     0
1002
}
1002
{
1000
REACTOR
1002
}
1001
GENIUS_GENOBJ-N-FIL_13
1002
{
1000
OWNER
1000
GEN
1002
}
  0
LINE
  5
65E
330
2
100
AcDbEntity
  8
AM_0
100
AcDbLine
 10
281.929368
 20
106.956928
 30
0.0
 11
281.929368
 21
106.956928
 31
0.0
  0
LINE
  5
65F
330
2
100
AcDbEntity
  8
AM_0
100
AcDbLine
 10
281.929368
 20
109.956928
 30
0.0
 11
281.929368
 21
123.111236
 31
0.0
  0
LINE
  5
660
330
2
100
AcDbEntity
  8
AM_0
100
AcDbLine
 10
279.929368
 20
118.306928
 30
0.0
 11
279.929368
 21
109.956928
 31
0.0
  0
ARC
  5
661
330
2
100
AcDbEntity
  8
AM_0
100
AcDbCircle
 10
269.937883
 20
121.806928
 30
0.0
 40
0.5
100
AcDbArc
 50
210.0
 51
270.0
  0
ARC
  5
662
330
2
100
AcDbEntity
  8
AM_0
100
AcDbCircle
 10
271.420133
 20
122.257431
 30
0.0
 40
0.5
100
AcDbArc
 50
280.0
 51
30.0
  0
LINE
  5
663
330
2
100
AcDbEntity
  8
AM_0
100
AcDbLine
 10
268.908949
 20
121.306928
 30
0.0
 11
271.506957
 21
121.765027
 31
0.0
  0
LINE
  5
664
330
2
100
AcDbEntity
  8
AM_0
100
AcDbLine
 10
269.504871
 20
121.556928
 30
0.0
 11
268.783183
 21
122.806928
 31
0.0
  0
LINE
  5
665
330
2
100
AcDbEntity
  8
AM_0
100
AcDbLine
 10
271.853145
 20
122.507431
 30
0.0
 11
269.376557
 21
126.797007
 31
0.0
  0
ARC
  5
666
330
2
100
AcDbEntity
  8
AM_0
100
AcDbCircle
 10
284.429368
 20
123.111236
 30
0.0
 40
2.5
100
AcDbArc
 50
109.103324
 51
180.0
1001
GENIUS_GENODEF_13
1002
{
1000
HIER
1070
     0
1002
}
1002
{
1000
MANEDIT
1070
     0
1002
}
1002
{
1000
NOSEL
1070
     0
1002
}
1002
{
1000
BEHIND
1070
     0
1002
}
1002
{
1000
REACTOR
1002
}
1001
GENIUS_GENOBJ-N-FIL_13
1002
{
1000
OWNER
1000
GEN
1002
}
  0
ARC
  5
667
330
2
100
AcDbEntity
  8
AM_0
100
AcDbCircle
 10
245.001725
 20
130.799215
 30
0.0
 40
0.5
100
AcDbArc
 50
80.0
 51
100.0
  0
LINE
  5
668
330
2
100
AcDbEntity
  8
AM_7
100
AcDbLine
 10
240.251725
 20
133.469375
 30
0.0
 11
240.251725
 21
123.268329
 31
0.0
  0
LINE
  5
669
330
2
100
AcDbEntity
  8
AM_0
100
AcDbLine
 10
255.228077
 20
122.806928
 30
0.0
 11
255.228077
 21
119.706928
 31
0.0
  0
LINE
  5
66A
330
2
100
AcDbEntity
  8
AM_0
100
AcDbLine
 10
257.08323
 20
121.306928
 30
0.0
 11
257.08323
 21
118.306928
 31
0.0
  0
LINE
  5
66B
330
2
100
AcDbEntity
  8
AM_0
100
AcDbLine
 10
255.228077
 20
119.706928
 30
0.0
 11
256.228077
 21
119.706928
 31
0.0
  0
LINE
  5
66C
330
2
100
AcDbEntity
  8
AM_0
100
AcDbLine
 10
258.649368
 20
118.306928
 30
0.0
 11
256.228077
 21
118.306928
 31
0.0
  0
LINE
  5
66D
330
2
100
AcDbEntity
  8
AM_0
100
AcDbLine
 10
258.649368
 20
106.956928
 30
0.0
 11
284.929368
 21
106.956928
 31
0.0
  0
LINE
  5
66E
330
2
100
AcDbEntity
  8
AM_0
100
AcDbLine
 10
256.228077
 20
119.306928
 30
0.0
 11
278.929368
 21
119.306928
 31
0.0
  0
LINE
  5
66F
330
2
100
AcDbEntity
  8
AM_0
100
AcDbLine
 10
244.914901
 20
131.291619
 30
0.0
 11
269.030369
 21
127.039411
 31
0.0
  0
LINE
  5
670
330
2
100
AcDbEntity
  8
AM_0
100
AcDbLine
 10
255.228077
 20
121.306928
 30
0.0
 11
278.929368
 21
121.306928
 31
0.0
  0
LINE
  5
671
330
2
100
AcDbEntity
  8
AM_0
100
AcDbLine
 10
255.228077
 20
122.806928
 30
0.0
 11
268.783183
 21
122.806928
 31
0.0
  0
LINE
  5
672
330
2
100
AcDbEntity
  8
AM_0
100
AcDbLine
 10
234.751725
 20
129.499577
 30
0.0
 11
234.751725
 21
125.306928
 31
0.0
  0
LINE
  5
673
330
2
100
AcDbEntity
  8
AM_0
100
AcDbLine
 10
237.751725
 20
130.028558
 30
0.0
 11
237.751725
 21
125.306928
 31
0.0
  0
LINE
  5
674
330
2
100
AcDbEntity
  8
AM_0
100
AcDbLine
 10
238.751725
 20
130.204885
 30
0.0
 11
238.751725
 21
125.306928
 31
0.0
  0
LINE
  5
675
330
2
100
AcDbEntity
  8
AM_0
100
AcDbLine
 10
233.751725
 20
129.32325
 30
0.0
 11
233.751725
 21
125.306928
 31
0.0
  0
LINE
  5
676
330
2
100
AcDbEntity
  8
AM_0
100
AcDbLine
 10
230.751725
 20
128.794269
 30
0.0
 11
230.751725
 21
125.306928
 31
0.0
  0
LINE
  5
677
330
2
100
AcDbEntity
  8
AM_0
100
AcDbLine
 10
229.751725
 20
128.617942
 30
0.0
 11
229.751725
 21
125.306928
 31
0.0
  0
LINE
  5
678
330
2
100
AcDbEntity
  8
AM_7
100
AcDbLine
 10
232.251725
 20
132.058759
 30
0.0
 11
232.251725
 21
123.268329
 31
0.0
  0
LINE
  5
679
330
2
100
AcDbEntity
  8
AM_7
100
AcDbLine
 10
236.251725
 20
132.764067
 30
0.0
 11
236.251725
 21
123.268329
 31
0.0
  0
ARC
  5
67A
330
2
100
AcDbEntity
  8
AM_0
100
AcDbCircle
 10
223.807605
 20
124.806928
 30
0.0
 40
0.5
100
AcDbArc
 50
90.0
 51
150.0
  0
LINE
  5
67B
330
2
100
AcDbEntity
  8
AM_0
100
AcDbLine
 10
226.751725
 20
128.088961
 30
0.0
 11
226.751725
 21
125.306928
 31
0.0
  0
ARC
  5
67C
330
2
100
AcDbEntity
  8
AM_0
100
AcDbCircle
 10
220.886258
 20
126.547007
 30
0.0
 40
0.5
100
AcDbArc
 50
100.0
 51
150.0
  0
LINE
  5
67D
330
2
100
AcDbEntity
  8
AM_7
100
AcDbLine
 10
228.251725
 20
131.353451
 30
0.0
 11
228.251725
 21
123.268329
 31
0.0
  0
LINE
  5
67E
330
2
100
AcDbEntity
  8
AM_0
100
AcDbLine
 10
234.601725
 20
122.806928
 30
0.0
 11
234.601725
 21
118.306928
 31
0.0
  0
LINE
  5
67F
330
2
100
AcDbEntity
  8
AM_0
100
AcDbLine
 10
233.529368
 20
119.306928
 30
0.0
 11
233.529368
 21
121.306928
 31
0.0
  0
LINE
  5
680
330
2
100
AcDbEntity
  8
AM_0
100
AcDbLine
 10
232.209368
 20
118.306928
 30
0.0
 11
234.601725
 21
118.306928
 31
0.0
  0
ARC
  5
681
330
2
100
AcDbEntity
  8
AM_0
100
AcDbCircle
 10
220.920853
 20
121.806928
 30
0.0
 40
0.5
100
AcDbArc
 50
270.0
 51
330.0
  0
ARC
  5
682
330
2
100
AcDbEntity
  8
AM_0
100
AcDbCircle
 10
218.40967
 20
122.257431
 30
0.0
 40
0.5
100
AcDbArc
 50
150.0
 51
260.0
  0
LINE
  5
683
330
2
100
AcDbEntity
  8
AM_0
100
AcDbLine
 10
220.920853
 20
121.306928
 30
0.0
 11
218.322846
 21
121.765027
 31
0.0
  0
LINE
  5
684
330
2
100
AcDbEntity
  8
AM_0
100
AcDbLine
 10
234.601725
 20
122.806928
 30
0.0
 11
222.075554
 21
122.806928
 31
0.0
  0
LINE
  5
685
330
2
100
AcDbEntity
  8
AM_0
100
AcDbLine
 10
217.976657
 20
122.507431
 30
0.0
 11
220.453245
 21
126.797007
 31
0.0
  0
LINE
  5
686
330
2
100
AcDbEntity
  8
AM_0
100
AcDbLine
 10
221.353866
 20
121.556928
 30
0.0
 11
223.374592
 21
125.056928
 31
0.0
  0
LINE
  5
687
330
2
100
AcDbEntity
  8
AM_0
100
AcDbLine
 10
205.929368
 20
117.006928
 30
0.0
 11
205.929368
 21
120.660195
 31
0.0
  0
ARC
  5
688
330
2
100
AcDbEntity
  8
AM_0
100
AcDbCircle
 10
211.929368
 20
118.306928
 30
0.0
 40
3.0
100
AcDbArc
 50
90.0
 51
180.0
1001
GENIUS_GENODEF_13
1002
{
1000
HIER
1070
     0
1002
}
1002
{
1000
MANEDIT
1070
     0
1002
}
1002
{
1000
NOSEL
1070
     0
1002
}
1002
{
1000
BEHIND
1070
     0
1002
}
1002
{
1000
REACTOR
1002
}
1001
GENIUS_GENOBJ-N-FIL_13
1002
{
1000
OWNER
1000
GEN
1002
}
  0
ARC
  5
689
330
2
100
AcDbEntity
  8
AM_0
100
AcDbCircle
 10
211.929368
 20
118.306928
 30
0.0
 40
1.0
100
AcDbArc
 50
90.0
 51
180.0
1001
GENIUS_GENODEF_13
1002
{
1000
HIER
1070
     0
1002
}
1002
{
1000
MANEDIT
1070
     0
1002
}
1002
{
1000
NOSEL
1070
     0
1002
}
1002
{
1000
BEHIND
1070
     0
1002
}
1002
{
1000
REACTOR
1002
}
1001
GENIUS_GENOBJ-N-FIL_13
1002
{
1000
OWNER
1000
GEN
1002
}
  0
LINE
  5
68A
330
2
100
AcDbEntity
  8
AM_0
100
AcDbLine
 10
205.929368
 20
106.956928
 30
0.0
 11
232.209368
 21
106.956928
 31
0.0
  0
LINE
  5
68B
330
2
100
AcDbEntity
  8
AM_0
100
AcDbLine
 10
208.929368
 20
106.956928
 30
0.0
 11
208.929368
 21
106.956928
 31
0.0
  0
ARC
  5
68C
330
2
100
AcDbEntity
  8
AM_0
100
AcDbCircle
 10
207.929368
 20
109.956928
 30
0.0
 40
1.0
100
AcDbArc
 50
270.0
 51
0.0
1001
GENIUS_GENODEF_13
1002
{
1000
HIER
1070
     0
1002
}
1002
{
1000
MANEDIT
1070
     0
1002
}
1002
{
1000
NOSEL
1070
     0
1002
}
1002
{
1000
BEHIND
1070
     0
1002
}
1002
{
1000
REACTOR
1002
}
1001
GENIUS_GENOBJ-N-FIL_13
1002
{
1000
OWNER
1000
GEN
1002
}
  0
LINE
  5
68D
330
2
100
AcDbEntity
  8
AM_0
100
AcDbLine
 10
208.929368
 20
109.956928
 30
0.0
 11
208.929368
 21
123.111236
 31
0.0
  0
LINE
  5
68E
330
2
100
AcDbEntity
  8
AM_0
100
AcDbLine
 10
210.929368
 20
118.306928
 30
0.0
 11
210.929368
 21
109.956928
 31
0.0
  0
ARC
  5
68F
330
2
100
AcDbEntity
  8
AM_0
100
AcDbCircle
 10
203.679368
 20
117.006928
 30
0.0
 40
1.0
100
AcDbArc
 50
270.0
 51
0.0
  0
LINE
  5
690
330
2
100
AcDbEntity
  8
AM_0
100
AcDbLine
 10
203.679368
 20
116.006928
 30
0.0
 11
201.929368
 21
116.006928
 31
0.0
  0
LINE
  5
691
330
2
100
AcDbEntity
  8
AM_0
100
AcDbLine
 10
203.679368
 20
118.006928
 30
0.0
 11
201.929368
 21
118.006928
 31
0.0
  0
LINE
  5
692
330
2
100
AcDbEntity
  8
AM_0
100
AcDbLine
 10
203.679368
 20
118.006928
 30
0.0
 11
203.679368
 21
116.006928
 31
0.0
  0
LINE
  5
693
330
2
100
AcDbEntity
  8
AM_0
100
AcDbLine
 10
204.679368
 20
117.006928
 30
0.0
 11
204.679368
 21
120.864115
 31
0.0
  0
ARC
  5
694
330
2
100
AcDbEntity
  8
AM_0
100
AcDbCircle
 10
203.679368
 20
120.864115
 30
0.0
 40
1.0
100
AcDbArc
 50
0.0
 51
78.43495899999999
1001
GENIUS_GENODEF_13
1002
{
1000
HIER
1070
     0
1002
}
1002
{
1000
MANEDIT
1070
     0
1002
}
1002
{
1000
NOSEL
1070
     0
1002
}
1002
{
1000
BEHIND
1070
     0
1002
}
1002
{
1000
REACTOR
1002
}
1001
GENIUS_GENOBJ-N-FIL_13
1002
{
1000
OWNER
1000
GEN
1002
}
  0
LINE
  5
695
330
2
100
AcDbEntity
  8
AM_0
100
AcDbLine
 10
199.679368
 20
109.956928
 30
0.0
 11
199.679368
 21
113.756928
 31
0.0
  0
LINE
  5
696
330
2
100
AcDbEntity
  8
AM_0
100
AcDbLine
 10
200.929368
 20
108.956928
 30
0.0
 11
200.929368
 21
113.756928
 31
0.0
  0
ARC
  5
697
330
2
100
AcDbEntity
  8
AM_0
100
AcDbCircle
 10
199.879368
 20
109.956928
 30
0.0
 40
0.2
100
AcDbArc
 50
180.0
 51
270.0
  0
ARC
  5
698
330
2
100
AcDbEntity
  8
AM_0
100
AcDbCircle
 10
204.661419
 20
107.956928
 30
0.0
 40
1.0
100
AcDbArc
 50
90.0
 51
150.0
1001
GENIUS_GENODEF_13
1002
{
1000
HIER
1070
     0
1002
}
1002
{
1000
MANEDIT
1070
     0
1002
}
1002
{
1000
NOSEL
1070
     0
1002
}
1002
{
1000
BEHIND
1070
     0
1002
}
1002
{
1000
REACTOR
1002
}
1001
GENIUS_GENOBJ-N-FIL_13
1002
{
1000
OWNER
1000
GEN
1002
}
  0
LINE
  5
699
330
2
100
AcDbEntity
  8
AM_0
100
AcDbLine
 10
200.929368
 20
109.756928
 30
0.0
 11
199.879368
 21
109.756928
 31
0.0
  0
ARC
  5
69A
330
2
100
AcDbEntity
  8
AM_0
100
AcDbCircle
 10
202.929368
 20
108.956928
 30
0.0
 40
1.0
100
AcDbArc
 50
210.0
 51
330.0
  0
LINE
  5
69B
330
2
100
AcDbEntity
  8
AM_0
100
AcDbLine
 10
201.197318
 20
108.956928
 30
0.0
 11
200.679368
 21
108.956928
 31
0.0
  0
ARC
  5
69C
330
2
100
AcDbEntity
  8
AM_0
100
AcDbCircle
 10
201.197318
 20
107.956928
 30
0.0
 40
1.0
100
AcDbArc
 50
30.0
 51
90.0
1001
GENIUS_GENODEF_13
1002
{
1000
HIER
1070
     0
1002
}
1002
{
1000
MANEDIT
1070
     0
1002
}
1002
{
1000
NOSEL
1070
     0
1002
}
1002
{
1000
BEHIND
1070
     0
1002
}
1002
{
1000
REACTOR
1002
}
1001
GENIUS_GENOBJ-N-FIL_13
1002
{
1000
OWNER
1000
GEN
1002
}
  0
LINE
  5
69D
330
2
100
AcDbEntity
  8
AM_0
100
AcDbLine
 10
203.679368
 20
114.756928
 30
0.0
 11
201.929368
 21
114.756928
 31
0.0
  0
ARC
  5
69E
330
2
100
AcDbEntity
  8
AM_0
100
AcDbCircle
 10
201.929368
 20
113.756928
 30
0.0
 40
1.0
100
AcDbArc
 50
90.0
 51
180.0
  0
LINE
  5
69F
330
2
100
AcDbEntity
  8
AM_0
100
AcDbLine
 10
197.679368
 20
113.756928
 30
0.0
 11
197.679368
 21
109.956928
 31
0.0
  0
ARC
  5
6A0
330
2
100
AcDbEntity
  8
AM_0
100
AcDbCircle
 10
200.679368
 20
109.956928
 30
0.0
 40
1.0
100
AcDbArc
 50
180.0
 51
270.0
1001
GENIUS_GENODEF_13
1002
{
1000
HIER
1070
     0
1002
}
1002
{
1000
MANEDIT
1070
     0
1002
}
1002
{
1000
NOSEL
1070
     0
1002
}
1002
{
1000
BEHIND
1070
     0
1002
}
1002
{
1000
REACTOR
1002
}
1001
GENIUS_GENOBJ-N-FIL_13
1002
{
1000
OWNER
1000
GEN
1002
}
  0
ARC
  5
6A1
330
2
100
AcDbEntity
  8
AM_0
100
AcDbCircle
 10
201.929368
 20
113.756928
 30
0.0
 40
4.25
100
AcDbArc
 50
90.0
 51
180.0
  0
ARC
  5
6A2
330
2
100
AcDbEntity
  8
AM_0
100
AcDbCircle
 10
201.929368
 20
113.756928
 30
0.0
 40
2.25
100
AcDbArc
 50
90.0
 51
180.0
  0
LINE
  5
6A3
330
2
100
AcDbEntity
  8
AM_0
100
AcDbLine
 10
207.929368
 20
108.956928
 30
0.0
 11
204.661419
 21
108.956928
 31
0.0
  0
ARC
  5
6A4
330
2
100
AcDbEntity
  8
AM_0
100
AcDbCircle
 10
203.679368
 20
117.006928
 30
0.0
 40
2.25
100
AcDbArc
 50
270.0
 51
0.0
  0
ARC
  5
6A5
330
2
100
AcDbEntity
  8
AM_0
100
AcDbCircle
 10
206.429368
 20
123.111236
 30
0.0
 40
2.5
100
AcDbArc
 50
0.0
 51
70.896676
1001
GENIUS_GENODEF_13
1002
{
1000
HIER
1070
     0
1002
}
1002
{
1000
MANEDIT
1070
     0
1002
}
1002
{
1000
NOSEL
1070
     0
1002
}
1002
{
1000
BEHIND
1070
     0
1002
}
1002
{
1000
REACTOR
1002
}
1001
GENIUS_GENOBJ-N-FIL_13
1002
{
1000
OWNER
1000
GEN
1002
}
  0
ARC
  5
6A6
330
2
100
AcDbEntity
  8
AM_0
100
AcDbCircle
 10
203.429368
 20
120.660195
 30
0.0
 40
2.5
100
AcDbArc
 50
0.0
 51
78.378888
1001
GENIUS_GENODEF_13
1002
{
1000
HIER
1070
     0
1002
}
1002
{
1000
MANEDIT
1070
     0
1002
}
1002
{
1000
NOSEL
1070
     0
1002
}
1002
{
1000
BEHIND
1070
     0
1002
}
1002
{
1000
REACTOR
1002
}
1001
GENIUS_GENOBJ-N-FIL_13
1002
{
1000
OWNER
1000
GEN
1002
}
  0
LINE
  5
6A7
330
2
100
AcDbEntity
  8
AM_0
100
AcDbLine
 10
211.929368
 20
121.306928
 30
0.0
 11
234.601725
 21
121.306928
 31
0.0
  0
LINE
  5
6A8
330
2
100
AcDbEntity
  8
AM_0
100
AcDbLine
 10
211.929368
 20
119.306928
 30
0.0
 11
234.601725
 21
119.306928
 31
0.0
  0
HATCH
  5
6A9
330
2
100
AcDbEntity
  8
AM_8
100
AcDbHatch
 10
0.0
 20
0.0
 30
0.0
210
0.0
220
0.0
230
1.0
  2
_U
 70
     0
 71
     0
 91
        1
 92
        1
 93
        5
 72
     1
 10
233.529368
 20
121.306928
 11
211.929368
 21
121.306928
 72
     2
 10
211.929368
 20
118.306928
 40
3.0
 50
90.0
 51
130.826857
 73
     1
 72
     2
 10
239.957116
 20
376.825268
 40
257.997137
 50
263.324963
 51
266.508815
 73
     1
 72
     1
 10
224.246387
 20
119.306928
 11
233.529368
 21
119.306928
 72
     1
 10
233.529368
 20
119.306928
 11
233.529368
 21
121.306928
 97
        0
 75
     0
 76
     0
 52
45.0
 41
2.5
 77
     0
 78
     1
 53
45.0
 43
34.336322
 44
1.310626
 45
-1.767766952966368
 46
1.767766952966368
 79
     0
 98
        1
 10
34.336322
 20
1.310626
1001
GENIUS_GENODEF_13
1002
{
1000
HIER
1070
     0
1002
}
1002
{
1000
MANEDIT
1070
     0
1002
}
1002
{
1000
NOSEL
1070
     0
1002
}
1002
{
1000
BEHIND
1070
     0
1002
}
1002
{
1000
REACTOR
1002
}
1001
GENIUS_GENOBJ-N-HTC_13
1002
{
1000
OWNER
1000
GEN
1002
}
1001
GENIUS_GENHATCH_13
1002
{
1000
DATA
1040
45.0
1042
2.5
1000
_U
1070
     0
1011
228.880926
1021
120.185857
1031
0.0
1002
}
1002
{
1000
UCS
1010
0.0
1020
0.0
1030
0.0
1010
1.0
1020
0.0
1030
0.0
1010
0.0
1020
1.0
1030
0.0
1002
}
  0
LINE
  5
6AA
330
2
100
AcDbEntity
  8
AM_0
100
AcDbLine
 10
241.751725
 20
125.306928
 30
0.0
 11
223.807605
 21
125.306928
 31
0.0
  0
LINE
  5
6AB
330
2
100
AcDbEntity
  8
AM_0
100
AcDbLine
 10
244.914901
 20
131.291619
 30
0.0
 11
220.799434
 21
127.039411
 31
0.0
  0
ARC
  5
6AC
330
2
100
AcDbEntity
  8
AM_0
100
AcDbCircle
 10
286.197318
 20
107.956928
 30
0.0
 40
1.0
100
AcDbArc
 50
30.0
 51
90.0
1001
GENIUS_GENODEF_13
1002
{
1000
HIER
1070
     0
1002
}
1002
{
1000
MANEDIT
1070
     0
1002
}
1002
{
1000
NOSEL
1070
     0
1002
}
1002
{
1000
BEHIND
1070
     0
1002
}
1002
{
1000
REACTOR
1002
}
1001
GENIUS_GENOBJ-N-FIL_13
1002
{
1000
OWNER
1000
GEN
1002
}
  0
ARC
  5
6AD
330
2
100
AcDbEntity
  8
AM_0
100
AcDbCircle
 10
287.179368
 20
117.006928
 30
0.0
 40
2.25
100
AcDbArc
 50
180.0
 51
270.0
  0
ARC
  5
6AE
330
2
100
AcDbEntity
  8
AM_0
100
AcDbCircle
 10
287.179368
 20
117.006928
 30
0.0
 40
1.0
100
AcDbArc
 50
180.0
 51
270.0
  0
ARC
  5
6AF
330
2
100
AcDbEntity
  8
AM_0
100
AcDbCircle
 10
275.429368
 20
149.096809
 30
0.0
 40
25.0
100
AcDbArc
 50
289.103324
 51
0.0
1001
GENIUS_GENODEF_13
1002
{
1000
HIER
1070
     0
1002
}
1002
{
1000
MANEDIT
1070
     0
1002
}
1002
{
1000
NOSEL
1070
     0
1002
}
1002
{
1000
BEHIND
1070
     0
1002
}
1002
{
1000
REACTOR
1002
}
1001
GENIUS_GENOBJ-N-FIL_13
1002
{
1000
OWNER
1000
GEN
1002
}
  0
ARC
  5
6B0
330
2
100
AcDbEntity
  8
AM_0
100
AcDbCircle
 10
287.179368
 20
120.864115
 30
0.0
 40
1.0
100
AcDbArc
 50
101.565041
 51
180.0
1001
GENIUS_GENODEF_13
1002
{
1000
HIER
1070
     0
1002
}
1002
{
1000
MANEDIT
1070
     0
1002
}
1002
{
1000
NOSEL
1070
     0
1002
}
1002
{
1000
BEHIND
1070
     0
1002
}
1002
{
1000
REACTOR
1002
}
1001
GENIUS_GENOBJ-N-FIL_13
1002
{
1000
OWNER
1000
GEN
1002
}
  0
ARC
  5
6B1
330
2
100
AcDbEntity
  8
AM_0
100
AcDbCircle
 10
287.429368
 20
120.660195
 30
0.0
 40
2.5
100
AcDbArc
 50
101.621112
 51
180.0
1001
GENIUS_GENODEF_13
1002
{
1000
HIER
1070
     0
1002
}
1002
{
1000
MANEDIT
1070
     0
1002
}
1002
{
1000
NOSEL
1070
     0
1002
}
1002
{
1000
BEHIND
1070
     0
1002
}
1002
{
1000
REACTOR
1002
}
1001
GENIUS_GENOBJ-N-FIL_13
1002
{
1000
OWNER
1000
GEN
1002
}
  0
LINE
  5
6B2
330
2
100
AcDbEntity
  8
AM_0
100
AcDbLine
 10
247.925844
 20
45.26776599999999
 30
0.0
 11
242.81925
 21
45.26776599999999
 31
0.0
  0
LINE
  5
6B3
330
2
100
AcDbEntity
  8
AM_0
100
AcDbLine
 10
245.429287
 20
56.052051
 30
0.0
 11
247.925844
 21
45.26776599999999
 31
0.0
  0
LINE
  5
6B4
330
2
100
AcDbEntity
  8
AM_0
100
AcDbLine
 10
242.81925
 20
45.26776599999999
 30
0.0
 11
245.429287
 21
56.052051
 31
0.0
  0
SOLID
  5
6B5
330
2
100
AcDbEntity
  8
AM_0
100
AcDbTrace
 10
245.429287
 20
56.052051
 30
0.0
 11
247.925844
 21
45.26776599999999
 31
0.0
 12
242.81925
 22
45.26776599999999
 32
0.0
 13
242.81925
 23
45.26776599999999
 33
0.0
  0
LINE
  5
6B6
330
2
100
AcDbEntity
  8
AM_0
100
AcDbLine
 10
256.228077
 20
80.306928
 30
0.0
 11
257.114782
 21
80.306928
 31
0.0
  0
LINE
  5
6B7
330
2
100
AcDbEntity
  8
AM_0
100
AcDbLine
 10
256.228077
 20
80.306928
 30
0.0
 11
255.929368
 21
76.306928
 31
0.0
  0
LINE
  5
6B8
330
2
100
AcDbEntity
  8
AM_0
100
AcDbLine
 10
257.114782
 20
80.306928
 30
0.0
 11
258.649368
 21
81.84151400000001
 31
0.0
  0
ARC
  5
6B9
330
2
100
AcDbEntity
  8
AM_0
100
AcDbCircle
 10
253.929368
 20
67.30692799999999
 30
0.0
 40
2.0
100
AcDbArc
 50
270.0
 51
0.0
1001
GENIUS_GENODEF_13
1002
{
1000
HIER
1070
     0
1002
}
1002
{
1000
MANEDIT
1070
     0
1002
}
1002
{
1000
NOSEL
1070
     0
1002
}
1002
{
1000
BEHIND
1070
     0
1002
}
1002
{
1000
OTHER
1070
     0
1002
}
1002
{
1000
REACTOR
1002
}
1001
GENIUS_GENOBJ-N-FIL_13
1002
{
1000
OWNER
1000
GEN
1002
}
  0
MTEXT
  5
6BA
330
2
100
AcDbEntity
  8
AM_6
 62
     7
100
AcDbMText
 10
253.158494
 20
36.641046
 30
0.0
 40
5.0
 41
0.0
 71
     8
 72
     5
  1
Y
 73
     1
 44
1.0
  0
LINE
  5
6BB
330
2
100
AcDbEntity
  8
AM_0
100
AcDbLine
 10
255.929368
 20
76.306928
 30
0.0
 11
255.929368
 21
67.30692799999999
 31
0.0
  0
LINE
  5
6BC
330
2
100
AcDbEntity
  8
AM_0
100
AcDbLine
 10
233.743954
 20
80.306928
 30
0.0
 11
232.209368
 21
81.84151400000001
 31
0.0
  0
LINE
  5
6BD
330
2
100
AcDbEntity
  8
AM_0
100
AcDbLine
 10
233.743954
 20
80.306928
 30
0.0
 11
234.209368
 21
80.306928
 31
0.0
  0
LINE
  5
6BE
330
2
100
AcDbEntity
  8
AM_0
100
AcDbLine
 10
234.209368
 20
80.306928
 30
0.0
 11
234.929368
 21
76.306928
 31
0.0
  0
ARC
  5
6BF
330
2
100
AcDbEntity
  8
AM_0
100
AcDbCircle
 10
202.929368
 20
108.956928
 30
0.0
 40
3.0
100
AcDbArc
 50
231.783482
 51
306.869898
  0
LINE
  5
6C0
330
2
100
AcDbEntity
  8
AM_0
100
AcDbLine
 10
232.209368
 20
105.957135
 30
0.0
 11
202.894115
 21
105.957135
 31
0.0
  0
ARC
  5
6C1
330
2
100
AcDbEntity
  8
AM_0
100
AcDbCircle
 10
236.929368
 20
67.30692799999999
 30
0.0
 40
2.0
100
AcDbArc
 50
180.0
 51
270.0
1001
GENIUS_GENOBJ-N-FIL_13
1002
{
1000
OWNER
1000
GEN
1002
}
1001
GENIUS_GENODEF_13
1002
{
1000
HIER
1070
     0
1002
}
1002
{
1000
MANEDIT
1070
     0
1002
}
1002
{
1000
NOSEL
1070
     0
1002
}
1002
{
1000
BEHIND
1070
     0
1002
}
1002
{
1000
OTHER
1070
     0
1002
}
1002
{
1000
REACTOR
1002
}
  0
LINE
  5
6C2
330
2
100
AcDbEntity
  8
AM_0
100
AcDbLine
 10
234.929368
 20
76.306928
 30
0.0
 11
234.929368
 21
67.30692799999999
 31
0.0
  0
LINE
  5
6C3
330
2
100
AcDbEntity
  8
AM_0
100
AcDbLine
 10
236.929368
 20
65.306928
 30
0.0
 11
253.929368
 21
65.306928
 31
0.0
  0
DIMENSION
  5
6C4
330
2
100
AcDbEntity
  8
AM_5
100
AcDbDimension
  2
*D3
 10
258.649368
 20
57.905598
 30
0.0
 11
275.399368
 21
57.905598
 31
0.0
 70
   160
  1
ISO228-G 3/4
 71
     5
 42
-1.0
  3
AM_DIN
100
AcDbAlignedDimension
 13
232.209368
 23
81.84151400000001
 33
0.0
 14
258.649368
 24
81.84151400000001
 34
0.0
100
AcDbRotatedDimension
  0
ARC
  5
6D2
330
2
100
AcDbEntity
  8
AM_0
100
AcDbCircle
 10
287.929368
 20
108.956928
 30
0.0
 40
3.0
100
AcDbArc
 50
233.130102
 51
308.216518
  0
LINE
  5
6D3
330
2
100
AcDbEntity
  8
AM_0
100
AcDbLine
 10
287.964622
 20
105.957135
 30
0.0
 11
258.649368
 21
105.957135
 31
0.0
  0
LINE
  5
6E5
330
2
100
AcDbEntity
  8
AM_0
100
AcDbLine
 10
234.209368
 20
80.306928
 30
0.0
 11
234.209368
 21
118.306928
 31
0.0
  0
LINE
  5
6E6
330
2
100
AcDbEntity
  8
AM_0
100
AcDbLine
 10
232.209368
 20
81.84151400000001
 30
0.0
 11
232.209368
 21
118.306928
 31
0.0
  0
ARC
  5
6E7
330
2
100
AcDbEntity
  8
AM_0
100
AcDbCircle
 10
207.929368
 20
109.956928
 30
0.0
 40
3.0
100
AcDbArc
 50
270.0
 51
0.0
1001
GENIUS_GENODEF_13
1002
{
1000
HIER
1070
     0
1002
}
1002
{
1000
MANEDIT
1070
     0
1002
}
1002
{
1000
NOSEL
1070
     0
1002
}
1002
{
1000
BEHIND
1070
     0
1002
}
1002
{
1000
REACTOR
1002
}
1001
GENIUS_GENOBJ-N-FIL_13
1002
{
1000
OWNER
1000
GEN
1002
}
  0
ARC
  5
6E8
330
2
100
AcDbEntity
  8
AM_0
100
AcDbCircle
 10
200.679368
 20
109.956928
 30
0.0
 40
3.0
100
AcDbArc
 50
180.0
 51
260.29154
1001
GENIUS_GENODEF_13
1002
{
1000
HIER
1070
     0
1002
}
1002
{
1000
MANEDIT
1070
     0
1002
}
1002
{
1000
NOSEL
1070
     0
1002
}
1002
{
1000
BEHIND
1070
     0
1002
}
1002
{
1000
REACTOR
1002
}
1001
GENIUS_GENOBJ-N-FIL_13
1002
{
1000
OWNER
1000
GEN
1002
}
  0
ARC
  5
6E9
330
2
100
AcDbEntity
  8
AM_0
100
AcDbCircle
 10
205.929368
 20
104.956928
 30
0.0
 40
2.0
100
AcDbArc
 50
90.0
 51
126.869898
1001
GENIUS_GENODEF_13
1002
{
1000
HIER
1070
     0
1002
}
1002
{
1000
MANEDIT
1070
     0
1002
}
1002
{
1000
NOSEL
1070
     0
1002
}
1002
{
1000
BEHIND
1070
     0
1002
}
1002
{
1000
REACTOR
1002
}
1001
GENIUS_GENOBJ-N-FIL_13
1002
{
1000
OWNER
1000
GEN
1002
}
  0
ARC
  5
6EA
330
2
100
AcDbEntity
  8
AM_0
100
AcDbCircle
 10
199.836194
 20
105.028535
 30
0.0
 40
2.0
100
AcDbArc
 50
51.783482
 51
80.29154
1001
GENIUS_GENODEF_13
1002
{
1000
HIER
1070
     0
1002
}
1002
{
1000
MANEDIT
1070
     0
1002
}
1002
{
1000
NOSEL
1070
     0
1002
}
1002
{
1000
BEHIND
1070
     0
1002
}
1002
{
1000
REACTOR
1002
}
1001
GENIUS_GENOBJ-N-FIL_13
1002
{
1000
OWNER
1000
GEN
1002
}
  0
LINE
  5
6EB
330
2
100
AcDbEntity
  8
AM_4
100
AcDbLine
 10
233.637028
 20
80.413855
 30
0.0
 11
233.637028
 21
108.306928
 31
0.0
  0
LINE
  5
6EC
330
2
100
AcDbEntity
  8
AM_0
100
AcDbLine
 10
256.228077
 20
119.706928
 30
0.0
 11
256.228077
 21
80.306928
 31
0.0
  0
LINE
  5
6FF
330
2
100
AcDbEntity
  8
AM_0
100
AcDbLine
 10
258.649368
 20
81.84151400000001
 30
0.0
 11
258.649368
 21
118.306928
 31
0.0
  0
LINE
  5
700
330
2
100
AcDbEntity
  8
AM_0
100
AcDbLine
 10
256.649368
 20
80.306928
 30
0.0
 11
256.649368
 21
118.306928
 31
0.0
  0
LINE
  5
701
330
2
100
AcDbEntity
  8
AM_0
100
AcDbLine
 10
241.751725
 20
130.733866
 30
0.0
 11
241.751725
 21
65.306928
 31
0.0
  0
LINE
  5
702
330
2
100
AcDbEntity
  8
AM_4
100
AcDbLine
 10
257.221709
 20
80.413855
 30
0.0
 11
257.221709
 21
108.306928
 31
0.0
  0
ARC
  5
703
330
2
100
AcDbEntity
  8
AM_0
100
AcDbCircle
 10
282.929368
 20
109.956928
 30
0.0
 40
3.0
100
AcDbArc
 50
180.0
 51
270.0
1001
GENIUS_GENODEF_13
1002
{
1000
HIER
1070
     0
1002
}
1002
{
1000
MANEDIT
1070
     0
1002
}
1002
{
1000
NOSEL
1070
     0
1002
}
1002
{
1000
BEHIND
1070
     0
1002
}
1002
{
1000
REACTOR
1002
}
1001
GENIUS_GENOBJ-N-FIL_13
1002
{
1000
OWNER
1000
GEN
1002
}
  0
ARC
  5
704
330
2
100
AcDbEntity
  8
AM_0
100
AcDbCircle
 10
284.929368
 20
104.956928
 30
0.0
 40
2.0
100
AcDbArc
 50
53.130102
 51
90.0
1001
GENIUS_GENODEF_13
1002
{
1000
HIER
1070
     0
1002
}
1002
{
1000
MANEDIT
1070
     0
1002
}
1002
{
1000
NOSEL
1070
     0
1002
}
1002
{
1000
BEHIND
1070
     0
1002
}
1002
{
1000
REACTOR
1002
}
1001
GENIUS_GENOBJ-N-FIL_13
1002
{
1000
OWNER
1000
GEN
1002
}
  0
ARC
  5
705
330
2
100
AcDbEntity
  8
AM_0
100
AcDbCircle
 10
291.022543
 20
105.028535
 30
0.0
 40
2.0
100
AcDbArc
 50
99.70846000000001
 51
128.216518
1001
GENIUS_GENODEF_13
1002
{
1000
HIER
1070
     0
1002
}
1002
{
1000
MANEDIT
1070
     0
1002
}
1002
{
1000
NOSEL
1070
     0
1002
}
1002
{
1000
BEHIND
1070
     0
1002
}
1002
{
1000
REACTOR
1002
}
1001
GENIUS_GENOBJ-N-FIL_13
1002
{
1000
OWNER
1000
GEN
1002
}
  0
ARC
  5
706
330
2
100
AcDbEntity
  8
AM_0
100
AcDbCircle
 10
290.179368
 20
109.956928
 30
0.0
 40
3.0
100
AcDbArc
 50
279.70846
 51
0.0
1001
GENIUS_GENODEF_13
1002
{
1000
HIER
1070
     0
1002
}
1002
{
1000
MANEDIT
1070
     0
1002
}
1002
{
1000
NOSEL
1070
     0
1002
}
1002
{
1000
BEHIND
1070
     0
1002
}
1002
{
1000
REACTOR
1002
}
1001
GENIUS_GENOBJ-N-FIL_13
1002
{
1000
OWNER
1000
GEN
1002
}
  0
HATCH
  5
707
330
2
100
AcDbEntity
  8
AM_8
100
AcDbHatch
 10
0.0
 20
0.0
 30
0.0
210
0.0
220
0.0
230
1.0
  2
_U
 70
     0
 71
     0
 91
        1
 92
        1
 93
       28
 72
     2
 10
207.929368
 20
109.956928
 40
3.0
 50
270.0
 51
360.0
 73
     1
 72
     1
 10
210.929368
 20
109.956928
 11
210.929368
 21
118.306928
 72
     2
 10
211.929368
 20
118.306928
 40
1.0
 50
180.0
 51
270.0
 73
     0
 72
     1
 10
211.929368
 20
119.306928
 11
224.246387
 21
119.306928
 72
     2
 10
239.957116
 20
376.825268
 40
257.997137
 50
93.49118500000001
 51
96.67503700000001
 73
     0
 72
     2
 10
211.929368
 20
118.306928
 40
3.0
 50
130.826857
 51
180.0
 73
     1
 72
     1
 10
208.929368
 20
118.306928
 11
208.929368
 21
109.956928
 72
     2
 10
207.929368
 20
109.956928
 40
1.0
 50
360.0
 51
450.0
 73
     0
 72
     1
 10
207.929368
 20
108.956928
 11
204.661419
 21
108.956928
 72
     2
 10
204.661419
 20
107.956928
 40
1.0
 50
90.0
 51
150.0
 73
     1
 72
     2
 10
202.929368
 20
108.956928
 40
1.0
 50
30.0
 51
150.0
 73
     0
 72
     2
 10
201.197318
 20
107.956928
 40
1.0
 50
30.0
 51
90.0
 73
     1
 72
     1
 10
201.197318
 20
108.956928
 11
200.679368
 21
108.956928
 72
     2
 10
200.679368
 20
109.956928
 40
1.0
 50
90.0
 51
180.0
 73
     0
 72
     1
 10
199.679368
 20
109.956928
 11
199.679368
 21
113.756928
 72
     2
 10
201.929368
 20
113.756928
 40
2.25
 50
180.0
 51
270.0
 73
     0
 72
     1
 10
201.929368
 20
116.006928
 11
203.679368
 21
116.006928
 72
     1
 10
203.679368
 20
116.006928
 11
203.679368
 21
118.006928
 72
     1
 10
203.679368
 20
118.006928
 11
201.929368
 21
118.006928
 72
     2
 10
201.929368
 20
113.756928
 40
4.25
 50
90.0
 51
180.0
 73
     1
 72
     1
 10
197.679368
 20
113.756928
 11
197.679368
 21
109.956928
 72
     2
 10
200.679368
 20
109.956928
 40
3.0
 50
180.0
 51
260.29154
 73
     1
 72
     2
 10
199.836194
 20
105.028535
 40
2.0
 50
279.70846
 51
308.216518
 73
     0
 72
     2
 10
202.929368
 20
108.956928
 40
3.0
 50
231.783482
 51
269.32669
 73
     1
 72
     1
 10
202.894115
 20
105.957135
 11
202.964622
 21
105.957135
 72
     2
 10
202.929368
 20
108.956928
 40
3.0
 50
270.67331
 51
306.869898
 73
     1
 72
     2
 10
205.929368
 20
104.956928
 40
2.0
 50
233.130102
 51
270.0
 73
     0
 72
     1
 10
205.929368
 20
106.956928
 11
207.929368
 21
106.956928
 97
        0
 75
     0
 76
     0
 52
45.0
 41
2.5
 77
     0
 78
     1
 53
45.0
 43
34.336322
 44
1.310626
 45
-1.767766952966368
 46
1.767766952966368
 79
     0
 98
        1
 10
34.336322
 20
1.310626
1001
GENIUS_GENODEF_13
1002
{
1000
HIER
1070
     0
1002
}
1002
{
1000
MANEDIT
1070
     0
1002
}
1002
{
1000
NOSEL
1070
     0
1002
}
1002
{
1000
BEHIND
1070
     0
1002
}
1002
{
1000
REACTOR
1002
}
1001
GENIUS_GENOBJ-N-HTC_13
1002
{
1000
OWNER
1000
GEN
1002
}
1001
GENIUS_GENHATCH_13
1002
{
1000
DATA
1040
45.0
1042
2.5
1000
_U
1070
     0
1011
205.451868
1021
107.732565
1031
0.0
1002
}
1002
{
1000
UCS
1010
0.0
1020
0.0
1030
0.0
1010
1.0
1020
0.0
1030
0.0
1010
0.0
1020
1.0
1030
0.0
1002
}
  0
HATCH
  5
708
330
2
100
AcDbEntity
  8
AM_8
100
AcDbHatch
 10
0.0
 20
0.0
 30
0.0
210
0.0
220
0.0
230
1.0
  2
_U
 70
     0
 71
     0
 91
        1
 92
        1
 93
       27
 72
     1
 10
257.08323
 20
119.306928
 11
278.929368
 21
119.306928
 72
     2
 10
278.929368
 20
118.306928
 40
1.0
 50
270.0
 51
360.0
 73
     0
 72
     1
 10
279.929368
 20
118.306928
 11
279.929368
 21
109.956928
 72
     2
 10
282.929368
 20
109.956928
 40
3.0
 50
180.0
 51
270.0
 73
     1
 72
     1
 10
282.929368
 20
106.956928
 11
284.929368
 21
106.956928
 72
     2
 10
284.929368
 20
104.956928
 40
2.0
 50
270.0
 51
306.869898
 73
     0
 72
     2
 10
287.929368
 20
108.956928
 40
3.0
 50
233.130102
 51
308.216518
 73
     1
 72
     2
 10
291.022543
 20
105.028535
 40
2.0
 50
231.783482
 51
260.29154
 73
     0
 72
     2
 10
290.179368
 20
109.956928
 40
3.0
 50
279.70846
 51
360.0
 73
     1
 72
     1
 10
293.179368
 20
109.956928
 11
293.179368
 21
113.756928
 72
     2
 10
288.929368
 20
113.756928
 40
4.25
 50
0.0
 51
90.0
 73
     1
 72
     1
 10
288.929368
 20
118.006928
 11
287.179368
 21
118.006928
 72
     1
 10
287.179368
 20
118.006928
 11
287.179368
 21
116.006928
 72
     1
 10
287.179368
 20
116.006928
 11
288.929368
 21
116.006928
 72
     2
 10
288.929368
 20
113.756928
 40
2.25
 50
270.0
 51
360.0
 73
     0
 72
     1
 10
291.179368
 20
113.756928
 11
291.179368
 21
109.956928
 72
     2
 10
290.179368
 20
109.956928
 40
1.0
 50
360.0
 51
450.0
 73
     0
 72
     1
 10
290.179368
 20
108.956928
 11
289.661419
 21
108.956928
 72
     2
 10
289.661419
 20
107.956928
 40
1.0
 50
90.0
 51
150.0
 73
     1
 72
     2
 10
287.929368
 20
108.956928
 40
1.0
 50
30.0
 51
150.0
 73
     0
 72
     2
 10
286.197318
 20
107.956928
 40
1.0
 50
30.0
 51
90.0
 73
     1
 72
     1
 10
286.197318
 20
108.956928
 11
282.929368
 21
108.956928
 72
     2
 10
282.929368
 20
109.956928
 40
1.0
 50
90.0
 51
180.0
 73
     0
 72
     1
 10
281.929368
 20
109.956928
 11
281.929368
 21
118.306928
 72
     2
 10
278.929368
 20
118.306928
 40
3.0
 50
0.0
 51
90.0
 73
     1
 72
     1
 10
278.929368
 20
121.306928
 11
257.08323
 21
121.306928
 72
     1
 10
257.08323
 20
121.306928
 11
257.08323
 21
119.306928
 97
        0
 75
     0
 76
     0
 52
45.0
 41
2.5
 77
     0
 78
     1
 53
45.0
 43
104.483108
 44
56.86159899999999
 45
-1.767766952966368
 46
1.767766952966368
 79
     0
 98
        1
 10
104.483108
 20
56.86159899999999
1001
GENIUS_GENODEF_13
1002
{
1000
HIER
1070
     0
1002
}
1002
{
1000
MANEDIT
1070
     0
1002
}
1002
{
1000
NOSEL
1070
     0
1002
}
1002
{
1000
BEHIND
1070
     0
1002
}
1002
{
1000
REACTOR
1002
}
1001
GENIUS_GENOBJ-N-HTC_13
1002
{
1000
OWNER
1000
GEN
1002
}
1001
GENIUS_GENHATCH_13
1002
{
1000
DATA
1040
45.0
1042
2.5
1000
_U
1070
     0
1011
274.115734
1021
120.368054
1031
0.0
1002
}
1002
{
1000
UCS
1010
0.0
1020
0.0
1030
0.0
1010
1.0
1020
0.0
1030
0.0
1010
0.0
1020
1.0
1030
0.0
1002
}
  0
LINE
  5
709
330
2
100
AcDbEntity
  8
AM_0
100
AcDbLine
 10
188.629368
 20
189.496905
 30
0.0
 11
190.977519
 21
214.109793
 31
0.0
  0
LINE
  5
70A
330
2
100
AcDbEntity
  8
AM_0
100
AcDbLine
 10
190.429368
 20
189.411236
 30
0.0
 11
192.824174
 21
214.513155
 31
0.0
  0
ARC
  5
70B
330
2
100
AcDbEntity
  8
AM_0
100
AcDbCircle
 10
164.279368
 20
158.18933
 30
0.0
 40
21.85
100
AcDbArc
 50
180.0
 51
244.042632
1001
GENIUS_GENODEF_13
1002
{
1000
HIER
1070
     0
1002
}
1002
{
1000
MANEDIT
1070
     0
1002
}
1002
{
1000
NOSEL
1070
     0
1002
}
1002
{
1000
BEHIND
1070
     0
1002
}
1002
{
1000
REACTOR
1002
}
1001
GENIUS_GENOBJ-N-FIL_13
1002
{
1000
OWNER
1000
GEN
1002
}
  0
ARC
  5
70C
330
2
100
AcDbEntity
  8
AM_0
100
AcDbCircle
 10
164.279368
 20
158.18933
 30
0.0
 40
20.6
100
AcDbArc
 50
180.0
 51
244.042632
1001
GENIUS_GENODEF_13
1002
{
1000
HIER
1070
     0
1002
}
1002
{
1000
MANEDIT
1070
     0
1002
}
1002
{
1000
NOSEL
1070
     0
1002
}
1002
{
1000
BEHIND
1070
     0
1002
}
1002
{
1000
REACTOR
1002
}
1001
GENIUS_GENOBJ-N-FIL_13
1002
{
1000
OWNER
1000
GEN
1002
}
  0
LINE
  5
70D
330
2
100
AcDbEntity
  8
AM_0
 62
     7
100
AcDbLine
 10
143.679368
 20
206.507451
 30
0.0
 11
143.679368
 21
158.18933
 31
0.0
  0
LINE
  5
70E
330
2
100
AcDbEntity
  8
AM_0
100
AcDbLine
 10
188.629368
 20
189.496905
 30
0.0
 11
188.629368
 21
147.778278
 31
0.0
  0
LINE
  5
70F
330
2
100
AcDbEntity
  8
AM_0
100
AcDbLine
 10
190.429368
 20
189.411236
 30
0.0
 11
190.429368
 21
149.096809
 31
0.0
  0
ARC
  5
710
330
2
100
AcDbEntity
  8
AM_0
100
AcDbCircle
 10
245.429368
 20
324.886173
 30
0.0
 40
207.25
100
AcDbArc
 50
244.042632
 51
258.434959
  0
ARC
  5
711
330
2
100
AcDbEntity
  8
AM_0
100
AcDbCircle
 10
245.429368
 20
324.886173
 30
0.0
 40
206.0
100
AcDbArc
 50
244.042632
 51
258.378888
  0
ARC
  5
712
330
2
100
AcDbEntity
  8
AM_0
100
AcDbCircle
 10
215.429368
 20
149.096809
 30
0.0
 40
25.0
100
AcDbArc
 50
180.0
 51
250.896676
1001
GENIUS_GENODEF_13
1002
{
1000
HIER
1070
     0
1002
}
1002
{
1000
MANEDIT
1070
     0
1002
}
1002
{
1000
NOSEL
1070
     0
1002
}
1002
{
1000
BEHIND
1070
     0
1002
}
1002
{
1000
REACTOR
1002
}
1001
GENIUS_GENOBJ-N-FIL_13
1002
{
1000
OWNER
1000
GEN
1002
}
  0
ARC
  5
713
330
2
100
AcDbEntity
  8
AM_0
100
AcDbCircle
 10
218.60922
 20
148.877598
 30
0.0
 40
30.0
100
AcDbArc
 50
182.100016
 51
238.397024
1001
GENIUS_GENODEF_13
1002
{
1000
HIER
1070
     0
1002
}
1002
{
1000
MANEDIT
1070
     0
1002
}
1002
{
1000
NOSEL
1070
     0
1002
}
1002
{
1000
BEHIND
1070
     0
1002
}
1002
{
1000
REACTOR
1002
}
1001
GENIUS_GENOBJ-N-FIL_13
1002
{
1000
OWNER
1000
GEN
1002
}
  0
HATCH
  5
714
330
2
100
AcDbEntity
  8
AM_8
100
AcDbHatch
 10
0.0
 20
0.0
 30
0.0
210
0.0
220
0.0
230
1.0
  2
ANSI37
 70
     0
 71
     0
 91
        1
 92
        5
 93
       23
 72
     1
 10
208.929368
 20
118.306928
 11
208.929368
 21
123.111236
 72
     2
 10
206.429368
 20
123.111236
 40
2.5
 50
0.0
 51
70.896676
 73
     1
 72
     2
 10
215.429368
 20
149.096809
 40
25.0
 50
109.103324
 51
180.0
 73
     0
 72
     1
 10
190.429368
 20
149.096809
 11
190.429368
 21
189.411236
 72
     1
 10
190.429368
 20
189.411236
 11
192.824174
 21
214.513155
 72
     4
 94
        3
 73
     0
 74
     0
 95
        8
 96
        4
 40
278.352936
 40
278.352936
 40
278.352936
 40
278.352936
 40
280.166866
 40
280.166866
 40
280.166866
 40
280.166866
 10
192.824174
 20
214.513155
 10
192.206423
 20
214.379411
 10
191.590918
 20
214.24488
 10
190.977519
 20
214.109793
 72
     1
 10
190.977519
 20
214.109793
 11
188.629368
 21
189.496905
 72
     1
 10
188.629368
 20
189.496905
 11
188.629368
 21
147.778278
 72
     2
 10
218.60922
 20
148.877598
 40
30.0
 50
182.100016
 51
238.397024
 73
     1
 72
     2
 10
245.429368
 20
324.886173
 40
206.0
 50
258.0820950000001
 51
258.378888
 73
     1
 72
     2
 10
203.429368
 20
120.660195
 40
2.5
 50
281.6211120000001
 51
360.0
 73
     0
 72
     1
 10
205.929368
 20
120.660195
 11
205.929368
 21
117.006928
 72
     2
 10
203.679368
 20
117.006928
 40
2.25
 50
0.0
 51
90.0
 73
     0
 72
     1
 10
203.679368
 20
114.756928
 11
201.929368
 21
114.756928
 72
     2
 10
201.929368
 20
113.756928
 40
1.0
 50
90.0
 51
180.0
 73
     1
 72
     1
 10
200.929368
 20
113.756928
 11
200.929368
 21
108.956928
 72
     1
 10
200.929368
 20
108.956928
 11
201.197318
 21
108.956928
 72
     2
 10
201.197318
 20
107.956928
 40
1.0
 50
270.0
 51
330.0
 73
     0
 72
     2
 10
202.929368
 20
108.956928
 40
1.0
 50
210.0
 51
330.0
 73
     1
 72
     2
 10
204.661419
 20
107.956928
 40
1.0
 50
210.0
 51
270.0
 73
     0
 72
     1
 10
204.661419
 20
108.956928
 11
207.929368
 21
108.956928
 72
     2
 10
207.929368
 20
109.956928
 40
1.0
 50
270.0
 51
360.0
 73
     1
 72
     1
 10
208.929368
 20
109.956928
 11
208.929368
 21
118.306928
 97
        0
 75
     0
 76
     1
 52
0.0
 41
1.0
 77
     0
 78
     2
 53
45.0
 43
82.44945799999999
 44
28.102069
 45
-2.245064030267287
 46
2.245064030267287
 79
     0
 53
135.0
 43
82.44945799999999
 44
28.102069
 45
-2.245064030267287
 46
-2.245064030267287
 79
     0
 47
0.166942
 98
        1
 10
205.590908
 20
114.79947
  0
HATCH
  5
715
330
2
100
AcDbEntity
  8
AM_8
100
AcDbHatch
 10
0.0
 20
0.0
 30
0.0
210
0.0
220
0.0
230
1.0
  2
ANSI31
 70
     0
 71
     0
 91
        1
 92
        5
 93
       22
 72
     4
 94
        3
 73
     0
 74
     0
 95
        8
 96
        4
 40
328.561327
 40
328.561327
 40
328.561327
 40
328.561327
 40
329.813938
 40
329.813938
 40
329.813938
 40
329.813938
 10
143.679368
 20
206.507451
 10
143.263521
 20
206.507483
 10
142.84687
 20
206.510196
 10
142.429368
 20
206.515665
 72
     1
 10
142.429368
 20
206.515665
 11
142.429368
 21
158.18933
 72
     2
 10
164.279368
 20
158.18933
 40
21.85
 50
180.0
 51
244.042632
 73
     1
 72
     2
 10
245.429368
 20
324.886173
 40
207.25
 50
244.042632
 51
258.434959
 73
     1
 72
     2
 10
203.679368
 20
120.864115
 40
1.0
 50
281.565041
 51
360.0
 73
     0
 72
     1
 10
204.679368
 20
120.864115
 11
204.679368
 21
117.006928
 72
     2
 10
203.679368
 20
117.006928
 40
1.0
 50
0.0
 51
90.0
 73
     0
 72
     1
 10
203.679368
 20
116.006928
 11
201.929368
 21
116.006928
 72
     2
 10
201.929368
 20
113.756928
 40
2.25
 50
90.0
 51
180.0
 73
     1
 72
     1
 10
199.679368
 20
113.756928
 11
199.679368
 21
109.956928
 72
     2
 10
199.879368
 20
109.956928
 40
0.2
 50
180.0
 51
270.0
 73
     1
 72
     1
 10
199.879368
 20
109.756928
 11
200.929368
 21
109.756928
 72
     1
 10
200.929368
 20
109.756928
 11
200.929368
 21
113.756928
 72
     2
 10
201.929368
 20
113.756928
 40
1.0
 50
180.0
 51
270.0
 73
     0
 72
     1
 10
201.929368
 20
114.756928
 11
203.679368
 21
114.756928
 72
     2
 10
203.679368
 20
117.006928
 40
2.25
 50
270.0
 51
360.0
 73
     1
 72
     1
 10
205.929368
 20
117.006928
 11
205.929368
 21
120.166869
 72
     1
 10
205.929368
 20
120.166869
 11
205.929368
 21
120.660195
 72
     2
 10
203.429368
 20
120.660195
 40
2.5
 50
0.0
 51
78.378888
 73
     1
 72
     2
 10
245.429368
 20
324.886173
 40
206.0
 50
101.621112
 51
115.957368
 73
     0
 72
     2
 10
164.279368
 20
158.18933
 40
20.6
 50
115.957368
 51
180.0
 73
     0
 72
     1
 10
143.679368
 20
158.18933
 11
143.679368
 21
206.507451
 97
        0
 75
     0
 76
     1
 52
0.0
 41
1.0
 77
     0
 78
     1
 53
45.0
 43
82.44945799999999
 44
28.102069
 45
-2.245064030267287
 46
2.245064030267287
 79
     0
 47
0.132592
 98
        1
 10
143.2251179999999
 20
169.398843
  0
LINE
  5
717
330
2
100
AcDbEntity
  8
AM_0
 62
     7
100
AcDbLine
 10
347.179368
 20
246.811449
 30
0.0
 11
347.179368
 21
158.18933
 31
0.0
  0
LINE
  5
718
330
2
100
AcDbEntity
  8
AM_0
 62
     7
100
AcDbLine
 10
348.429368
 20
246.926459
 30
0.0
 11
348.429368
 21
158.18933
 31
0.0
  0
LINE
  5
719
330
2
100
AcDbEntity
  8
AM_7
100
AcDbLine
 10
245.429368
 20
404.332639
 30
0.0
 11
245.429368
 21
60.86186600000001
 31
0.0
  0
LINE
  5
71A
330
2
100
AcDbEntity
  8
AM_0
 62
     7
100
AcDbLine
 10
142.429368
 20
246.926459
 30
0.0
 11
142.429368
 21
158.18933
 31
0.0
  0
SPLINE
  5
71B
330
2
100
AcDbEntity
  8
AM_4
100
AcDbSpline
210
0.0
220
0.0
230
1.0
 70
     8
 71
     3
 72
    12
 73
     8
 74
     6
 42
0.0000000001
 43
0.0000000001
 44
0.0000000001
 12
0.8202026674070001
 22
-0.5720730586021701
 32
0.0
 13
-0.9999142106048644
 23
0.0130985277970892
 33
0.0
 40
0.0
 40
0.0
 40
0.0
 40
0.0
 40
105.7001756181733
 40
146.6970534525443
 40
186.6229347362085
 40
270.9632367304784
 40
329.8139381205962
 40
329.8139381205962
 40
329.8139381205962
 40
329.8139381205962
 10
175.06318702367
 20
361.7682680402193
 30
0.0
 10
203.9617090194747
 20
341.6121937866611
 30
0.0
 10
272.2827446630747
 20
351.5854904972871
 30
0.0
 10
288.8865022716605
 20
285.4983651823689
 30
0.0
 10
282.9156767867833
 20
224.7828501434492
 30
0.0
 10
205.2041270731255
 20
220.438317279003
 30
0.0
 10
162.0445858680804
 20
206.258712201077
 30
0.0
 10
142.4293683267331
 20
206.5156647170892
 30
0.0
 11
175.06318702367
 21
361.7682680402193
 31
0.0
 11
273.722745323718
 21
323.8365045463859
 31
0.0
 11
286.3835205663134
 21
284.8435723352425
 31
0.0
 11
279.5398588266323
 21
245.5085969282326
 31
0.0
 11
200.4955553451507
 21
216.0928761719418
 31
0.0
 11
142.4293683267331
 21
206.5156647170892
 31
0.0
  0
LINE
  5
71C
330
2
100
AcDbEntity
  8
AM_0
100
AcDbLine
 10
302.229368
 20
189.496905
 30
0.0
 11
294.606077
 21
269.402857
 31
0.0
  0
LINE
  5
71D
330
2
100
AcDbEntity
  8
AM_0
100
AcDbLine
 10
300.429368
 20
189.411236
 30
0.0
 11
292.814213
 21
269.231907
 31
0.0
  0
HATCH
  5
71E
330
2
100
AcDbEntity
  8
AM_8
100
AcDbHatch
 10
0.0
 20
0.0
 30
0.0
210
0.0
220
0.0
230
1.0
  2
_U
 70
     0
 71
     0
 91
        1
 92
        1
 93
       22
 72
     2
 10
287.429368
 20
120.660195
 40
2.5
 50
180.0
 51
258.378888
 73
     0
 72
     2
 10
245.429368
 20
324.886173
 40
206.0
 50
281.6211120000001
 51
281.917905
 73
     1
 72
     2
 10
272.249517
 20
148.877598
 40
30.0
 50
301.6029759999999
 51
357.899984
 73
     1
 72
     1
 10
302.229368
 20
147.778278
 11
302.229368
 21
189.496905
 72
     1
 10
302.229368
 20
189.496905
 11
296.432433
 21
250.25933
 72
     1
 10
296.432433
 20
250.25933
 11
294.62426
 21
250.25933
 72
     1
 10
294.62426
 20
250.25933
 11
300.429368
 21
189.411236
 72
     1
 10
300.429368
 20
189.411236
 11
300.429368
 21
149.096809
 72
     2
 10
275.429368
 20
149.096809
 40
25.0
 50
0.0
 51
70.896676
 73
     0
 72
     2
 10
284.429368
 20
123.111236
 40
2.5
 50
109.103324
 51
180.0
 73
     1
 72
     1
 10
281.929368
 20
123.111236
 11
281.929368
 21
109.956928
 72
     2
 10
282.929368
 20
109.956928
 40
1.0
 50
180.0
 51
270.0
 73
     1
 72
     1
 10
282.929368
 20
108.956928
 11
286.197318
 21
108.956928
 72
     2
 10
286.197318
 20
107.956928
 40
1.0
 50
270.0
 51
330.0
 73
     0
 72
     2
 10
287.929368
 20
108.956928
 40
1.0
 50
210.0
 51
330.0
 73
     1
 72
     2
 10
289.661419
 20
107.956928
 40
1.0
 50
210.0
 51
270.0
 73
     0
 72
     1
 10
289.661419
 20
108.956928
 11
289.929368
 21
108.956928
 72
     1
 10
289.929368
 20
108.956928
 11
289.929368
 21
113.756928
 72
     2
 10
288.929368
 20
113.756928
 40
1.0
 50
0.0
 51
90.0
 73
     1
 72
     1
 10
288.929368
 20
114.756928
 11
287.179368
 21
114.756928
 72
     2
 10
287.179368
 20
117.006928
 40
2.25
 50
90.0
 51
180.0
 73
     0
 72
     1
 10
284.929368
 20
117.006928
 11
284.929368
 21
120.660195
 97
        0
 75
     0
 76
     0
 52
45.0
 41
2.299999999999999
 77
     1
 78
     2
 53
45.0
 43
82.44945799999999
 44
28.102069
 45
-1.626345596729059
 46
1.626345596729059
 79
     0
 53
135.0
 43
82.44945799999999
 44
28.102069
 45
-1.626345596729059
 46
-1.626345596729058
 79
     0
 98
        1
 10
82.44945799999999
 20
28.102069
1001
GENIUS_GENODEF_13
1002
{
1000
HIER
1070
     0
1002
}
1002
{
1000
MANEDIT
1070
     0
1002
}
1002
{
1000
NOSEL
1070
     0
1002
}
1002
{
1000
BEHIND
1070
     0
1002
}
1002
{
1000
REACTOR
1002
}
1001
GENIUS_GENOBJ-N-HTC_13
1002
{
1000
OWNER
1000
GEN
1002
}
1001
GENIUS_GENHATCH_13
1002
{
1000
DATA
1040
45.0
1042
2.299999999999999
1000
_U
1070
     1
1011
286.88522
1021
112.296376
1031
0.0
1002
}
1002
{
1000
UCS
1010
0.0
1020
0.0
1030
0.0
1010
1.0
1020
0.0
1030
0.0
1010
0.0
1020
1.0
1030
0.0
1002
}
  0
HATCH
  5
71F
330
2
100
AcDbEntity
  8
AM_8
100
AcDbHatch
 10
0.0
 20
0.0
 30
0.0
210
0.0
220
0.0
230
1.0
  2
ANSI31
 70
     0
 71
     0
 91
        4
 92
        7
 72
     1
 73
     1
 93
        4
 10
347.1793683267331
 20
166.8328502640865
 42
0.0
 10
348.429368326733
 20
166.216577666556
 42
0.0
 10
348.429368326733
 20
234.4737509962842
 42
-0.031041773610071
 10
347.1793683267331
 20
234.4117898552762
 42
0.0
 97
        0
 92
        7
 72
     1
 73
     1
 93
        6
 10
347.1793683267331
 20
234.4117898552762
 42
0.0310417736100696
 10
348.429368326733
 20
234.4737509962842
 42
0.0
 10
348.429368326733
 20
246.92645869048
 42
0.0
 10
347.1860039722112
 20
246.9264586904795
 42
0.0288242005644912
 10
347.1793683267331
 20
246.8114488684418
 42
0.0
 10
347.1793683267331
 20
240.0793980608731
 42
0.0
 97
        0
 92
        7
 72
     1
 73
     1
 93
        8
 10
335.5960349934
 20
139.6674583611851
 42
-0.0022229060850088
 10
333.945599878635
 20
138.8730638323603
 42
0.0
 10
335.2417048482673
 20
138.1074088456407
 42
0.0012079938501333
 10
336.1431628251164
 20
138.5435583942125
 42
0.2869467072285014
 10
348.429368326733
 20
158.1893298169056
 42
0.0
 10
348.429368326733
 20
166.216577666556
 42
0.0
 10
347.1793683267331
 20
166.8328502640865
 42
0.0
 10
347.1793683267331
 20
158.1893298169056
 42
-0.2869467072285147
 97
        0
 92
        7
 72
     1
 73
     1
 93
       17
 10
335.2417048482673
 20
138.1074088456407
 42
0.0
 10
333.945599878635
 20
138.8730638323603
 42
-0.0604041221220349
 10
286.9257712044316
 20
123.1089478700391
 42
0.3559801892879712
 10
284.9293683267331
 20
120.6601951388697
 42
0.0
 10
284.9293683267331
 20
117.0069282321987
 42
0.4142135623730859
 10
287.179368326733
 20
114.7569282321987
 42
0.0
 10
288.9293683267331
 20
114.7569282321987
 42
-0.4142135623730951
 10
289.929368326733
 20
113.7569282321987
 42
0.0
 10
289.929368326733
 20
109.7569282321987
 42
0.0
 10
290.9793683267332
 20
109.7569282321987
 42
0.4142135623731575
 10
291.1793683267331
 20
109.956928232199
 42
0.0
 10
291.1793683267331
 20
113.7569282321987
 42
0.4142135623730951
 10
288.9293683267331
 20
116.0069282321987
 42
0.0
 10
287.179368326733
 20
116.0069282321987
 42
-0.4142135623730869
 10
286.179368326733
 20
117.0069282321987
 42
0.0
 10
286.179368326733
 20
120.8641152873555
 42
-0.3562558717876471
 10
286.9788881346563
 20
121.8438130430867
 42
0.0616683791608881
 97
        0
 75
     0
 76
     1
 52
0.0
 41
1.0
 77
     0
 78
     1
 53
45.0
 43
82.44945799999999
 44
28.102069
 45
-2.245064030267287
 46
2.245064030267287
 79
     0
 47
0.197059
 98
        4
 10
347.54111
 20
209.248009
 10
347.738253
 20
237.624559
 10
345.766813
 20
149.736079
 10
326.052403
 20
135.153685
  0
CIRCLE
  5
720
330
2
100
AcDbEntity
  8
AM_0
100
AcDbCircle
 10
436.194997
 20
244.963254
 30
0.0
 40
43.75
  0
CIRCLE
  5
721
330
2
100
AcDbEntity
  8
AM_4
100
AcDbCircle
 10
436.194997
 20
244.963254
 30
0.0
 40
37.267949
  0
CIRCLE
  5
722
330
2
100
AcDbEntity
  8
AM_4
100
AcDbCircle
 10
436.194997
 20
244.963254
 30
0.0
 40
39.732051
  0
ARC
  5
DF2
330
2
100
AcDbEntity
  8
AM_4
100
AcDbCircle
 10
515.8263892435742
 20
82.90121991605932
 30
0.0
 40
1.022382199999999
100
AcDbArc
 50
0.0
 51
90.0
  0
ARC
  5
DF3
330
2
100
AcDbEntity
  8
AM_4
100
AcDbCircle
 10
515.8263892435742
 20
82.90121991605932
 30
0.0
 40
1.285916099999999
100
AcDbArc
 50
0.0
 51
90.0
  0
ARC
  5
DF4
330
2
100
AcDbEntity
  8
AM_4
100
AcDbCircle
 10
515.8263892435742
 20
82.90121991605932
 30
0.0
 40
1.000157199999999
100
AcDbArc
 50
0.0
 51
90.0
  0
LINE
  5
DF5
330
2
100
AcDbEntity
  8
AM_4
100
AcDbLine
 10
516.9549313435742
 20
83.13106981605931
 30
0.0
 11
516.9694262435741
 21
82.90121991605932
 31
0.0
  0
LINE
  5
DF6
330
2
100
AcDbEntity
  8
AM_4
100
AcDbLine
 10
516.8824561435742
 20
83.34849541605931
 30
0.0
 11
516.9549313435742
 21
83.13106981605931
 31
0.0
  0
LINE
  5
DF7
330
2
100
AcDbEntity
  8
AM_4
100
AcDbLine
 10
516.7809904435741
 20
83.5369305160593
 30
0.0
 11
516.8824561435742
 21
83.34849541605931
 31
0.0
  0
LINE
  5
DF8
330
2
100
AcDbEntity
  8
AM_4
100
AcDbLine
 10
516.6360400435742
 20
83.71087071605931
 30
0.0
 11
516.7809904435741
 21
83.5369305160593
 31
0.0
  0
LINE
  5
DF9
330
2
100
AcDbEntity
  8
AM_4
100
AcDbLine
 10
516.4620998435741
 20
83.84132621605932
 30
0.0
 11
516.6360400435742
 21
83.71087071605931
 31
0.0
  0
LINE
  5
DFA
330
2
100
AcDbEntity
  8
AM_4
100
AcDbLine
 10
516.2736647435742
 20
83.95728611605932
 30
0.0
 11
516.4620998435741
 21
83.84132621605932
 31
0.0
  0
LINE
  5
DFB
330
2
100
AcDbEntity
  8
AM_4
100
AcDbLine
 10
516.0562391435742
 20
84.01526641605931
 30
0.0
 11
516.2736647435742
 21
83.95728611605932
 31
0.0
  0
LINE
  5
DFC
330
2
100
AcDbEntity
  8
AM_4
100
AcDbLine
 10
515.8263892435742
 20
84.04425691605931
 30
0.0
 11
516.0562391435742
 21
84.01526641605931
 31
0.0
  0
LINE
  5
DFD
330
2
100
AcDbEntity
  8
AM_4
100
AcDbLine
 10
515.8263892435742
 20
84.18713601605929
 30
0.0
 11
515.8263892435742
 21
84.18713601605929
 31
0.0
  0
LINE
  5
DFE
330
2
100
AcDbEntity
  8
AM_4
100
AcDbLine
 10
515.8263892435742
 20
83.9013771160593
 30
0.0
 11
515.8263892435742
 21
84.18713601605929
 31
0.0
  0
LINE
  5
DFF
330
2
100
AcDbEntity
  8
AM_4
100
AcDbLine
 10
517.1123053435742
 20
82.90121991605932
 30
0.0
 11
517.1123053435742
 21
82.90121991605932
 31
0.0
  0
LINE
  5
E00
330
2
100
AcDbEntity
  8
AM_4
100
AcDbLine
 10
516.8265464435742
 20
82.90121991605932
 30
0.0
 11
517.1123053435742
 21
82.90121991605932
 31
0.0
  0
LINE
  5
E01
330
2
100
AcDbEntity
  8
AM_4
100
AcDbLine
 10
516.8224052435743
 20
83.00268491605931
 30
0.0
 11
516.8265464435742
 21
82.95091711605932
 31
0.0
  0
LINE
  5
E02
330
2
100
AcDbEntity
  8
AM_4
100
AcDbLine
 10
516.8161927435741
 20
83.0503115160593
 30
0.0
 11
516.8224052435743
 21
83.00268491605931
 31
0.0
  0
LINE
  5
E03
330
2
100
AcDbEntity
  8
AM_4
100
AcDbLine
 10
516.8079103435742
 20
83.10000871605931
 30
0.0
 11
516.8161927435741
 21
83.0503115160593
 31
0.0
  0
LINE
  5
E04
330
2
100
AcDbEntity
  8
AM_4
100
AcDbLine
 10
516.7954860435742
 20
83.14763531605931
 30
0.0
 11
516.8079103435742
 21
83.10000871605931
 31
0.0
  0
LINE
  5
E05
330
2
100
AcDbEntity
  8
AM_4
100
AcDbLine
 10
516.7830610435742
 20
83.1952619160593
 30
0.0
 11
516.7954860435742
 21
83.14763531605931
 31
0.0
  0
LINE
  5
E06
330
2
100
AcDbEntity
  8
AM_4
100
AcDbLine
 10
516.7499300435742
 20
83.2863739160593
 30
0.0
 11
516.7830610435742
 21
83.1952619160593
 31
0.0
  0
LINE
  5
E07
330
2
100
AcDbEntity
  8
AM_4
100
AcDbLine
 10
516.7292226435741
 20
83.33192921605931
 30
0.0
 11
516.7499300435742
 21
83.2863739160593
 31
0.0
  0
LINE
  5
E08
330
2
100
AcDbEntity
  8
AM_4
100
AcDbLine
 10
516.7064446435743
 20
83.37334401605932
 30
0.0
 11
516.7292226435741
 21
83.33192921605931
 31
0.0
  0
LINE
  5
E09
330
2
100
AcDbEntity
  8
AM_4
100
AcDbLine
 10
516.6836666435741
 20
83.41682871605931
 30
0.0
 11
516.7064446435743
 21
83.37334401605932
 31
0.0
  0
LINE
  5
E0A
330
2
100
AcDbEntity
  8
AM_4
100
AcDbLine
 10
516.6567474435741
 20
83.45617221605932
 30
0.0
 11
516.6836666435741
 21
83.41682871605931
 31
0.0
  0
LINE
  5
E0B
330
2
100
AcDbEntity
  8
AM_4
100
AcDbLine
 10
516.6298282435742
 20
83.4955164160593
 30
0.0
 11
516.6567474435741
 21
83.45617221605932
 31
0.0
  0
LINE
  5
E0C
330
2
100
AcDbEntity
  8
AM_4
100
AcDbLine
 10
516.6008384435741
 20
83.5348599160593
 30
0.0
 11
516.6298282435742
 21
83.4955164160593
 31
0.0
  0
LINE
  5
E0D
330
2
100
AcDbEntity
  8
AM_4
100
AcDbLine
 10
516.5677067435742
 20
83.57006221605931
 30
0.0
 11
516.6008384435741
 21
83.5348599160593
 31
0.0
  0
LINE
  5
E0E
330
2
100
AcDbEntity
  8
AM_4
100
AcDbLine
 10
516.5366456435743
 20
83.60526451605931
 30
0.0
 11
516.5677067435742
 21
83.57006221605931
 31
0.0
  0
LINE
  5
E0F
330
2
100
AcDbEntity
  8
AM_4
100
AcDbLine
 10
516.5014433435742
 20
83.63839551605931
 30
0.0
 11
516.5366456435743
 21
83.60526451605931
 31
0.0
  0
LINE
  5
E10
330
2
100
AcDbEntity
  8
AM_4
100
AcDbLine
 10
516.4641704435742
 20
83.67152721605931
 30
0.0
 11
516.5014433435742
 21
83.63839551605931
 31
0.0
  0
LINE
  5
E11
330
2
100
AcDbEntity
  8
AM_4
100
AcDbLine
 10
516.4268975435742
 20
83.7005170160593
 30
0.0
 11
516.4641704435742
 21
83.67152721605931
 31
0.0
  0
LINE
  5
E12
330
2
100
AcDbEntity
  8
AM_4
100
AcDbLine
 10
516.3875540435742
 20
83.7295075160593
 30
0.0
 11
516.4268975435742
 21
83.7005170160593
 31
0.0
  0
LINE
  5
E13
330
2
100
AcDbEntity
  8
AM_4
100
AcDbLine
 10
516.3461399435743
 20
83.75435611605931
 30
0.0
 11
516.3875540435742
 21
83.7295075160593
 31
0.0
  0
LINE
  5
E14
330
2
100
AcDbEntity
  8
AM_4
100
AcDbLine
 10
516.3047251435743
 20
83.7792047160593
 30
0.0
 11
516.3461399435743
 21
83.75435611605931
 31
0.0
  0
LINE
  5
E15
330
2
100
AcDbEntity
  8
AM_4
100
AcDbLine
 10
516.2612404435741
 20
83.80198271605932
 30
0.0
 11
516.3047251435743
 21
83.7792047160593
 31
0.0
  0
LINE
  5
E16
330
2
100
AcDbEntity
  8
AM_4
100
AcDbLine
 10
516.2177550435742
 20
83.8226894160593
 30
0.0
 11
516.2612404435741
 21
83.80198271605932
 31
0.0
  0
LINE
  5
E17
330
2
100
AcDbEntity
  8
AM_4
100
AcDbLine
 10
516.1721997435742
 20
83.83925561605932
 30
0.0
 11
516.2177550435742
 21
83.8226894160593
 31
0.0
  0
LINE
  5
E18
330
2
100
AcDbEntity
  8
AM_4
100
AcDbLine
 10
516.1245731435742
 20
83.85582111605931
 30
0.0
 11
516.1721997435742
 21
83.83925561605932
 31
0.0
  0
LINE
  5
E19
330
2
100
AcDbEntity
  8
AM_4
100
AcDbLine
 10
516.0769465435743
 20
83.87031601605931
 30
0.0
 11
516.1245731435742
 21
83.85582111605931
 31
0.0
  0
LINE
  5
E1A
330
2
100
AcDbEntity
  8
AM_4
100
AcDbLine
 10
516.0293199435742
 20
83.88066971605931
 30
0.0
 11
516.0769465435743
 21
83.87031601605931
 31
0.0
  0
LINE
  5
E1B
330
2
100
AcDbEntity
  8
AM_4
100
AcDbLine
 10
515.9299255435741
 20
83.8972359160593
 30
0.0
 11
516.0293199435742
 21
83.88066971605931
 31
0.0
  0
LINE
  5
E1C
330
2
100
AcDbEntity
  8
AM_4
100
AcDbLine
 10
515.8781570435742
 20
83.9013771160593
 30
0.0
 11
515.9299255435741
 21
83.8972359160593
 31
0.0
  0
LINE
  5
E1D
330
2
100
AcDbEntity
  8
AM_4
100
AcDbLine
 10
515.8926526435741
 20
84.1850654160593
 30
0.0
 11
515.8263892435742
 21
84.18713601605929
 31
0.0
  0
LINE
  5
E1E
330
2
100
AcDbEntity
  8
AM_4
100
AcDbLine
 10
515.9568447435741
 20
84.17885361605931
 30
0.0
 11
515.8926526435741
 21
84.1850654160593
 31
0.0
  0
LINE
  5
E1F
330
2
100
AcDbEntity
  8
AM_4
100
AcDbLine
 10
516.0231074435743
 20
84.17057051605931
 30
0.0
 11
515.9568447435741
 21
84.17885361605931
 31
0.0
  0
LINE
  5
E20
330
2
100
AcDbEntity
  8
AM_4
100
AcDbLine
 10
516.0852289435743
 20
84.16021681605931
 30
0.0
 11
516.0231074435743
 21
84.17057051605931
 31
0.0
  0
LINE
  5
E21
330
2
100
AcDbEntity
  8
AM_4
100
AcDbLine
 10
516.1494217435741
 20
84.1457219160593
 30
0.0
 11
516.0852289435743
 21
84.16021681605931
 31
0.0
  0
LINE
  5
E22
330
2
100
AcDbEntity
  8
AM_4
100
AcDbLine
 10
516.2094726435742
 20
84.12708511605931
 30
0.0
 11
516.1494217435741
 21
84.1457219160593
 31
0.0
  0
LINE
  5
E23
330
2
100
AcDbEntity
  8
AM_4
100
AcDbLine
 10
516.2695228435742
 20
84.10637841605931
 30
0.0
 11
516.2094726435742
 21
84.12708511605931
 31
0.0
  0
LINE
  5
E24
330
2
100
AcDbEntity
  8
AM_4
100
AcDbLine
 10
516.3295737435742
 20
84.08360041605931
 30
0.0
 11
516.2695228435742
 21
84.10637841605931
 31
0.0
  0
LINE
  5
E25
330
2
100
AcDbEntity
  8
AM_4
100
AcDbLine
 10
516.3854834435742
 20
84.0587518160593
 30
0.0
 11
516.3295737435742
 21
84.08360041605931
 31
0.0
  0
LINE
  5
E26
330
2
100
AcDbEntity
  8
AM_4
100
AcDbLine
 10
516.4413931435742
 20
84.0297613160593
 30
0.0
 11
516.3854834435742
 21
84.0587518160593
 31
0.0
  0
LINE
  5
E27
330
2
100
AcDbEntity
  8
AM_4
100
AcDbLine
 10
516.4952315435742
 20
83.99870091605931
 30
0.0
 11
516.4413931435742
 21
84.0297613160593
 31
0.0
  0
LINE
  5
E28
330
2
100
AcDbEntity
  8
AM_4
100
AcDbLine
 10
516.4952315435742
 20
83.99870091605931
 30
0.0
 11
516.5987671435742
 21
83.92829631605932
 31
0.0
  0
LINE
  5
E29
330
2
100
AcDbEntity
  8
AM_4
100
AcDbLine
 10
516.6463937435742
 20
83.88895281605931
 30
0.0
 11
516.5987671435742
 21
83.92829631605932
 31
0.0
  0
LINE
  5
E2A
330
2
100
AcDbEntity
  8
AM_4
100
AcDbLine
 10
516.6940203435742
 20
83.84753871605932
 30
0.0
 11
516.6463937435742
 21
83.88895281605931
 31
0.0
  0
LINE
  5
E2B
330
2
100
AcDbEntity
  8
AM_4
100
AcDbLine
 10
516.7375057435741
 20
83.8061239160593
 30
0.0
 11
516.6940203435742
 21
83.84753871605932
 31
0.0
  0
LINE
  5
E2C
330
2
100
AcDbEntity
  8
AM_4
100
AcDbLine
 10
516.7375057435741
 20
83.8061239160593
 30
0.0
 11
516.8203346435742
 21
83.71501261605931
 31
0.0
  0
LINE
  5
E2D
330
2
100
AcDbEntity
  8
AM_4
100
AcDbLine
 10
516.8576075435741
 20
83.66531541605931
 30
0.0
 11
516.8203346435742
 21
83.71501261605931
 31
0.0
  0
LINE
  5
E2E
330
2
100
AcDbEntity
  8
AM_4
100
AcDbLine
 10
516.8928091435741
 20
83.61561821605929
 30
0.0
 11
516.8576075435741
 21
83.66531541605931
 31
0.0
  0
LINE
  5
E2F
330
2
100
AcDbEntity
  8
AM_4
100
AcDbLine
 10
516.9280114435743
 20
83.5617791160593
 30
0.0
 11
516.8928091435741
 21
83.61561821605929
 31
0.0
  0
LINE
  5
E30
330
2
100
AcDbEntity
  8
AM_4
100
AcDbLine
 10
516.9570019435743
 20
83.5079407160593
 30
0.0
 11
516.9280114435743
 21
83.5617791160593
 31
0.0
  0
LINE
  5
E31
330
2
100
AcDbEntity
  8
AM_4
100
AcDbLine
 10
516.9859917435742
 20
83.45410161605931
 30
0.0
 11
516.9570019435743
 21
83.5079407160593
 31
0.0
  0
LINE
  5
E32
330
2
100
AcDbEntity
  8
AM_4
100
AcDbLine
 10
517.0108403435742
 20
83.3961220160593
 30
0.0
 11
516.9859917435742
 21
83.45410161605931
 31
0.0
  0
LINE
  5
E33
330
2
100
AcDbEntity
  8
AM_4
100
AcDbLine
 10
517.0336183435742
 20
83.33814171605931
 30
0.0
 11
517.0108403435742
 21
83.3961220160593
 31
0.0
  0
LINE
  5
E34
330
2
100
AcDbEntity
  8
AM_4
100
AcDbLine
 10
517.0543257435741
 20
83.27809081605932
 30
0.0
 11
517.0336183435742
 21
83.33814171605931
 31
0.0
  0
LINE
  5
E35
330
2
100
AcDbEntity
  8
AM_4
100
AcDbLine
 10
517.0708912435742
 20
83.2180399160593
 30
0.0
 11
517.0543257435741
 21
83.27809081605932
 31
0.0
  0
LINE
  5
E36
330
2
100
AcDbEntity
  8
AM_4
100
AcDbLine
 10
517.0853861435741
 20
83.15591841605931
 30
0.0
 11
517.0708912435742
 21
83.2180399160593
 31
0.0
  0
LINE
  5
E37
330
2
100
AcDbEntity
  8
AM_4
100
AcDbLine
 10
517.0978104435741
 20
83.09379691605931
 30
0.0
 11
517.0853861435741
 21
83.15591841605931
 31
0.0
  0
LINE
  5
E38
330
2
100
AcDbEntity
  8
AM_4
100
AcDbLine
 10
517.0978104435741
 20
83.09379691605931
 30
0.0
 11
517.1102347435741
 21
82.96541201605931
 31
0.0
  0
LINE
  5
E39
330
2
100
AcDbEntity
  8
AM_4
100
AcDbLine
 10
517.1123053435742
 20
82.90121991605932
 30
0.0
 11
517.1102347435741
 21
82.96541201605931
 31
0.0
  0
LINE
  5
E3A
330
2
100
AcDbEntity
  8
AM_4
100
AcDbLine
 10
516.9549313435742
 20
72.6925774160593
 30
0.0
 11
516.8824561435742
 21
72.48964671605929
 31
0.0
  0
LINE
  5
E3B
330
2
100
AcDbEntity
  8
AM_4
100
AcDbLine
 10
516.9694262435741
 20
72.9224273160593
 30
0.0
 11
516.9549313435742
 21
72.6925774160593
 31
0.0
  0
LINE
  5
E3C
330
2
100
AcDbEntity
  8
AM_4
100
AcDbLine
 10
513.3982096435742
 20
75.7646401160593
 30
0.0
 11
513.3982096435742
 21
74.1817826160593
 31
0.0
  0
LINE
  5
E3D
330
2
100
AcDbEntity
  8
AM_4
100
AcDbLine
 10
513.3605223435742
 20
76.17919831605931
 30
0.0
 11
513.3982096435742
 21
75.7646401160593
 31
0.0
  0
LINE
  5
E3E
330
2
100
AcDbEntity
  8
AM_4
100
AcDbLine
 10
513.2474611435742
 20
76.51838191605929
 30
0.0
 11
513.3605223435742
 21
76.17919831605931
 31
0.0
  0
LINE
  5
E3F
330
2
100
AcDbEntity
  8
AM_4
100
AcDbLine
 10
513.1155566435742
 20
76.7794994160593
 30
0.0
 11
513.2474611435742
 21
76.51838191605929
 31
0.0
  0
LINE
  5
E40
330
2
100
AcDbEntity
  8
AM_4
100
AcDbLine
 10
512.9459648435742
 20
76.9867785160593
 30
0.0
 11
513.1155566435742
 21
76.7794994160593
 31
0.0
  0
LINE
  5
E41
330
2
100
AcDbEntity
  8
AM_4
100
AcDbLine
 10
512.7952163435742
 20
77.13752631605931
 30
0.0
 11
512.9459648435742
 21
76.9867785160593
 31
0.0
  0
LINE
  5
E42
330
2
100
AcDbEntity
  8
AM_4
100
AcDbLine
 10
512.6444678435742
 20
77.23174421605929
 30
0.0
 11
512.7952163435742
 21
77.13752631605931
 31
0.0
  0
LINE
  5
E43
330
2
100
AcDbEntity
  8
AM_4
100
AcDbLine
 10
512.5152548435742
 20
77.30711811605932
 30
0.0
 11
512.6444678435742
 21
77.23174421605929
 31
0.0
  0
LINE
  5
E44
330
2
100
AcDbEntity
  8
AM_4
100
AcDbLine
 10
512.7763730435742
 20
77.47671061605931
 30
0.0
 11
512.5152548435742
 21
77.30711811605932
 31
0.0
  0
LINE
  5
E45
330
2
100
AcDbEntity
  8
AM_4
100
AcDbLine
 10
512.9648081435743
 20
77.7028330160593
 30
0.0
 11
512.7763730435742
 21
77.47671061605931
 31
0.0
  0
LINE
  5
E46
330
2
100
AcDbEntity
  8
AM_4
100
AcDbLine
 10
513.1155566435742
 20
77.94779871605931
 30
0.0
 11
512.9648081435743
 21
77.7028330160593
 31
0.0
  0
LINE
  5
E47
330
2
100
AcDbEntity
  8
AM_4
100
AcDbLine
 10
513.2097738435742
 20
78.19276511605931
 30
0.0
 11
513.1155566435742
 21
77.94779871605931
 31
0.0
  0
LINE
  5
E48
330
2
100
AcDbEntity
  8
AM_4
100
AcDbLine
 10
513.2851484435742
 20
78.60732261605931
 30
0.0
 11
513.2097738435742
 21
78.19276511605931
 31
0.0
  0
LINE
  5
E49
330
2
100
AcDbEntity
  8
AM_4
100
AcDbLine
 10
513.2851484435742
 20
78.60732261605931
 30
0.0
 11
513.2851484435742
 21
80.05558341605931
 31
0.0
  0
LINE
  5
E4A
330
2
100
AcDbEntity
  8
AM_4
100
AcDbLine
 10
516.7085152435743
 20
72.45237381605931
 30
0.0
 11
516.6836666435741
 21
72.4130303160593
 31
0.0
  0
LINE
  5
E4B
330
2
100
AcDbEntity
  8
AM_4
100
AcDbLine
 10
516.7085152435743
 20
72.45237381605931
 30
0.0
 11
516.7499300435742
 21
72.5393439160593
 31
0.0
  0
LINE
  5
E4C
330
2
100
AcDbEntity
  8
AM_4
100
AcDbLine
 10
516.7499300435742
 20
72.5393439160593
 30
0.0
 11
516.7830610435742
 21
72.6304559160593
 31
0.0
  0
LINE
  5
E4D
330
2
100
AcDbEntity
  8
AM_4
100
AcDbLine
 10
516.7954860435742
 20
72.67601121605929
 30
0.0
 11
516.7830610435742
 21
72.6304559160593
 31
0.0
  0
LINE
  5
E4E
330
2
100
AcDbEntity
  8
AM_4
100
AcDbLine
 10
516.8079103435742
 20
72.72363781605929
 30
0.0
 11
516.7954860435742
 21
72.67601121605929
 31
0.0
  0
LINE
  5
E4F
330
2
100
AcDbEntity
  8
AM_4
100
AcDbLine
 10
516.8161927435741
 20
72.77333501605929
 30
0.0
 11
516.8079103435742
 21
72.72363781605929
 31
0.0
  0
LINE
  5
E50
330
2
100
AcDbEntity
  8
AM_4
100
AcDbLine
 10
516.8224052435743
 20
72.8230322160593
 30
0.0
 11
516.8161927435741
 21
72.77333501605929
 31
0.0
  0
LINE
  5
E51
330
2
100
AcDbEntity
  8
AM_4
100
AcDbLine
 10
516.8265464435742
 20
72.8727301160593
 30
0.0
 11
516.8224052435743
 21
72.8230322160593
 31
0.0
  0
LINE
  5
E52
330
2
100
AcDbEntity
  8
AM_4
100
AcDbLine
 10
517.1123053435742
 20
72.9224273160593
 30
0.0
 11
516.8265464435742
 21
72.9224273160593
 31
0.0
  0
LINE
  5
E53
330
2
100
AcDbEntity
  8
AM_4
100
AcDbLine
 10
517.1102347435741
 20
72.85823451605931
 30
0.0
 11
517.1123053435742
 21
72.9224273160593
 31
0.0
  0
LINE
  5
E54
330
2
100
AcDbEntity
  8
AM_4
100
AcDbLine
 10
517.0978104435741
 20
72.7298503160593
 30
0.0
 11
517.1102347435741
 21
72.85823451605931
 31
0.0
  0
LINE
  5
E55
330
2
100
AcDbEntity
  8
AM_4
100
AcDbLine
 10
517.0853861435741
 20
72.6677288160593
 30
0.0
 11
517.0978104435741
 21
72.7298503160593
 31
0.0
  0
LINE
  5
E56
330
2
100
AcDbEntity
  8
AM_4
100
AcDbLine
 10
517.0708912435742
 20
72.60560731605931
 30
0.0
 11
517.0853861435741
 21
72.6677288160593
 31
0.0
  0
LINE
  5
E57
330
2
100
AcDbEntity
  8
AM_4
100
AcDbLine
 10
517.0543257435741
 20
72.5455564160593
 30
0.0
 11
517.0708912435742
 21
72.60560731605931
 31
0.0
  0
LINE
  5
E58
330
2
100
AcDbEntity
  8
AM_4
100
AcDbLine
 10
517.0336183435742
 20
72.4855055160593
 30
0.0
 11
517.0543257435741
 21
72.5455564160593
 31
0.0
  0
LINE
  5
E59
330
2
100
AcDbEntity
  8
AM_4
100
AcDbLine
 10
517.0108403435742
 20
72.42752521605931
 30
0.0
 11
517.0336183435742
 21
72.4855055160593
 31
0.0
  0
LINE
  5
E5A
330
2
100
AcDbEntity
  8
AM_4
100
AcDbLine
 10
517.1123053435742
 20
72.9224273160593
 30
0.0
 11
517.1123053435742
 21
72.9224273160593
 31
0.0
  0
LINE
  5
E5B
330
2
100
AcDbEntity
  8
AM_4
100
AcDbLine
 10
508.3346812435742
 20
80.05558341605931
 30
0.0
 11
508.3346812435742
 21
80.05558341605931
 31
0.0
  0
LINE
  5
E5C
330
2
100
AcDbEntity
  8
AM_4
100
AcDbLine
 10
508.3346812435742
 20
78.7769144160593
 30
0.0
 11
508.3346812435742
 21
80.05558341605931
 31
0.0
  0
LINE
  5
E5D
330
2
100
AcDbEntity
  8
AM_4
100
AcDbLine
 10
508.3723685435741
 20
78.38120021605931
 30
0.0
 11
508.3346812435742
 21
78.7769144160593
 31
0.0
  0
LINE
  5
E5E
330
2
100
AcDbEntity
  8
AM_4
100
AcDbLine
 10
508.4665857435742
 20
78.0797032160593
 30
0.0
 11
508.3723685435741
 21
78.38120021605931
 31
0.0
  0
LINE
  5
E5F
330
2
100
AcDbEntity
  8
AM_4
100
AcDbLine
 10
508.5796476435741
 20
77.8158942160593
 30
0.0
 11
508.4665857435742
 21
78.0797032160593
 31
0.0
  0
LINE
  5
E60
330
2
100
AcDbEntity
  8
AM_4
100
AcDbLine
 10
508.7303954435742
 20
77.6274584160593
 30
0.0
 11
508.5796476435741
 21
77.8158942160593
 31
0.0
  0
LINE
  5
E61
330
2
100
AcDbEntity
  8
AM_4
100
AcDbLine
 10
508.8811439435742
 20
77.47671061605931
 30
0.0
 11
508.7303954435742
 21
77.6274584160593
 31
0.0
  0
LINE
  5
E62
330
2
100
AcDbEntity
  8
AM_4
100
AcDbLine
 10
508.9942051435741
 20
77.3824927160593
 30
0.0
 11
508.8811439435742
 21
77.47671061605931
 31
0.0
  0
LINE
  5
E63
330
2
100
AcDbEntity
  8
AM_4
100
AcDbLine
 10
509.1261096435742
 20
77.30711811605932
 30
0.0
 11
508.9942051435741
 21
77.3824927160593
 31
0.0
  0
LINE
  5
E64
330
2
100
AcDbEntity
  8
AM_4
100
AcDbLine
 10
508.9565178435742
 20
77.23174421605929
 30
0.0
 11
509.1261096435742
 21
77.30711811605932
 31
0.0
  0
LINE
  5
E65
330
2
100
AcDbEntity
  8
AM_4
100
AcDbLine
 10
508.8246133435742
 20
77.13752631605931
 30
0.0
 11
508.9565178435742
 21
77.23174421605929
 31
0.0
  0
LINE
  5
E66
330
2
100
AcDbEntity
  8
AM_4
100
AcDbLine
 10
508.6173342435741
 20
76.9114039160593
 30
0.0
 11
508.8246133435742
 21
77.13752631605931
 31
0.0
  0
LINE
  5
E67
330
2
100
AcDbEntity
  8
AM_4
100
AcDbLine
 10
508.4477424435743
 20
76.64759491605931
 30
0.0
 11
508.6173342435741
 21
76.9114039160593
 31
0.0
  0
LINE
  5
E68
330
2
100
AcDbEntity
  8
AM_4
100
AcDbLine
 10
508.3535245435743
 20
76.38647671605932
 30
0.0
 11
508.4477424435743
 21
76.64759491605931
 31
0.0
  0
LINE
  5
E69
330
2
100
AcDbEntity
  8
AM_4
100
AcDbLine
 10
508.2781506435742
 20
76.1415110160593
 30
0.0
 11
508.3535245435743
 21
76.38647671605932
 31
0.0
  0
LINE
  5
E6A
330
2
100
AcDbEntity
  8
AM_4
100
AcDbLine
 10
508.2404633435742
 20
75.9342319160593
 30
0.0
 11
508.2781506435742
 21
76.1415110160593
 31
0.0
  0
LINE
  5
E6B
330
2
100
AcDbEntity
  8
AM_4
100
AcDbLine
 10
508.2216200435742
 20
75.74579681605931
 30
0.0
 11
508.2404633435742
 21
75.9342319160593
 31
0.0
  0
LINE
  5
E6C
330
2
100
AcDbEntity
  8
AM_4
100
AcDbLine
 10
508.2216200435742
 20
74.1817826160593
 30
0.0
 11
508.2216200435742
 21
75.74579681605931
 31
0.0
  0
LINE
  5
E6D
330
2
100
AcDbEntity
  8
AM_4
100
AcDbLine
 10
510.1032823435741
 20
74.1817826160593
 30
0.0
 11
508.2216200435742
 21
74.1817826160593
 31
0.0
  0
LINE
  5
E6E
330
2
100
AcDbEntity
  8
AM_4
100
AcDbLine
 10
510.1032823435741
 20
75.6138916160593
 30
0.0
 11
510.1032823435741
 21
74.1817826160593
 31
0.0
  0
LINE
  5
E6F
330
2
100
AcDbEntity
  8
AM_4
100
AcDbLine
 10
510.1221256435742
 20
75.7646401160593
 30
0.0
 11
510.1032823435741
 21
75.6138916160593
 31
0.0
  0
LINE
  5
E70
330
2
100
AcDbEntity
  8
AM_4
100
AcDbLine
 10
510.1409689435743
 20
75.89654461605931
 30
0.0
 11
510.1221256435742
 21
75.7646401160593
 31
0.0
  0
LINE
  5
E71
330
2
100
AcDbEntity
  8
AM_4
100
AcDbLine
 10
510.1786562435742
 20
76.0661371160593
 30
0.0
 11
510.1409689435743
 21
75.89654461605931
 31
0.0
  0
LINE
  5
E72
330
2
100
AcDbEntity
  8
AM_4
100
AcDbLine
 10
510.2728741435742
 20
76.21688491605931
 30
0.0
 11
510.1786562435742
 21
76.0661371160593
 31
0.0
  0
LINE
  5
E73
330
2
100
AcDbEntity
  8
AM_4
100
AcDbLine
 10
510.4047786435741
 20
76.36763341605931
 30
0.0
 11
510.2728741435742
 21
76.21688491605931
 31
0.0
  0
LINE
  5
E74
330
2
100
AcDbEntity
  8
AM_4
100
AcDbLine
 10
510.5932137435742
 20
76.46185131605929
 30
0.0
 11
510.4047786435741
 21
76.36763341605931
 31
0.0
  0
LINE
  5
E75
330
2
100
AcDbEntity
  8
AM_4
100
AcDbLine
 10
510.8570234435742
 20
76.4995379160593
 30
0.0
 11
510.5932137435742
 21
76.46185131605929
 31
0.0
  0
LINE
  5
E76
330
2
100
AcDbEntity
  8
AM_4
100
AcDbLine
 10
511.1019898435741
 20
76.46185131605929
 30
0.0
 11
510.8570234435742
 21
76.4995379160593
 31
0.0
  0
LINE
  5
E77
330
2
100
AcDbEntity
  8
AM_4
100
AcDbLine
 10
511.2904249435742
 20
76.36763341605931
 30
0.0
 11
511.1019898435741
 21
76.46185131605929
 31
0.0
  0
LINE
  5
E78
330
2
100
AcDbEntity
  8
AM_4
100
AcDbLine
 10
511.4034861435742
 20
76.21688491605931
 30
0.0
 11
511.2904249435742
 21
76.36763341605931
 31
0.0
  0
LINE
  5
E79
330
2
100
AcDbEntity
  8
AM_4
100
AcDbLine
 10
511.4788607435742
 20
76.04729311605931
 30
0.0
 11
511.4034861435742
 21
76.21688491605931
 31
0.0
  0
LINE
  5
E7A
330
2
100
AcDbEntity
  8
AM_4
100
AcDbLine
 10
511.5165473435742
 20
75.89654461605931
 30
0.0
 11
511.4788607435742
 21
76.04729311605931
 31
0.0
  0
LINE
  5
E7B
330
2
100
AcDbEntity
  8
AM_4
100
AcDbLine
 10
511.5353913435741
 20
75.74579681605931
 30
0.0
 11
511.5165473435742
 21
75.89654461605931
 31
0.0
  0
LINE
  5
E7C
330
2
100
AcDbEntity
  8
AM_4
100
AcDbLine
 10
511.5353913435741
 20
74.1817826160593
 30
0.0
 11
511.5353913435741
 21
75.74579681605931
 31
0.0
  0
LINE
  5
E7D
330
2
100
AcDbEntity
  8
AM_4
100
AcDbLine
 10
511.5165473435742
 20
78.9841935160593
 30
0.0
 11
511.5165473435742
 21
80.05558341605931
 31
0.0
  0
LINE
  5
E7E
330
2
100
AcDbEntity
  8
AM_4
100
AcDbLine
 10
511.4977040435742
 20
78.8522890160593
 30
0.0
 11
511.5165473435742
 21
78.9841935160593
 31
0.0
  0
LINE
  5
E7F
330
2
100
AcDbEntity
  8
AM_4
100
AcDbLine
 10
511.4223301435742
 20
78.5884793160593
 30
0.0
 11
511.4977040435742
 21
78.8522890160593
 31
0.0
  0
LINE
  5
E80
330
2
100
AcDbEntity
  8
AM_4
100
AcDbLine
 10
511.3469555435741
 20
78.4565741160593
 30
0.0
 11
511.4223301435742
 21
78.5884793160593
 31
0.0
  0
LINE
  5
E81
330
2
100
AcDbEntity
  8
AM_4
100
AcDbLine
 10
511.2150510435741
 20
78.32466961605931
 30
0.0
 11
511.3469555435741
 21
78.4565741160593
 31
0.0
  0
LINE
  5
E82
330
2
100
AcDbEntity
  8
AM_4
100
AcDbLine
 10
511.0266152435741
 20
78.2304517160593
 30
0.0
 11
511.2150510435741
 21
78.32466961605931
 31
0.0
  0
LINE
  5
E83
330
2
100
AcDbEntity
  8
AM_4
100
AcDbLine
 10
510.8004928435741
 20
78.2116084160593
 30
0.0
 11
511.0266152435741
 21
78.2304517160593
 31
0.0
  0
LINE
  5
E84
330
2
100
AcDbEntity
  8
AM_4
100
AcDbLine
 10
510.5743704435741
 20
78.2304517160593
 30
0.0
 11
510.8004928435741
 21
78.2116084160593
 31
0.0
  0
LINE
  5
E85
330
2
100
AcDbEntity
  8
AM_4
100
AcDbLine
 10
510.3859353435742
 20
78.32466961605931
 30
0.0
 11
510.5743704435741
 21
78.2304517160593
 31
0.0
  0
LINE
  5
E86
330
2
100
AcDbEntity
  8
AM_4
100
AcDbLine
 10
510.2728741435742
 20
78.43773081605931
 30
0.0
 11
510.3859353435742
 21
78.32466961605931
 31
0.0
  0
LINE
  5
E87
330
2
100
AcDbEntity
  8
AM_4
100
AcDbLine
 10
510.1974995435742
 20
78.5884793160593
 30
0.0
 11
510.2728741435742
 21
78.43773081605931
 31
0.0
  0
LINE
  5
E88
330
2
100
AcDbEntity
  8
AM_4
100
AcDbLine
 10
510.1409689435743
 20
78.8522890160593
 30
0.0
 11
510.1974995435742
 21
78.5884793160593
 31
0.0
  0
LINE
  5
E89
330
2
100
AcDbEntity
  8
AM_4
100
AcDbLine
 10
510.1409689435743
 20
78.8522890160593
 30
0.0
 11
510.1409689435743
 21
80.05558341605931
 31
0.0
  0
LINE
  5
E8A
330
2
100
AcDbEntity
  8
AM_4
100
AcDbLine
 10
508.3346812435742
 20
80.05558341605931
 30
0.0
 11
510.1409689435743
 21
80.05558341605931
 31
0.0
  0
LINE
  5
E8B
330
2
100
AcDbEntity
  8
AM_4
100
AcDbLine
 10
505.7181211435743
 20
78.4565741160593
 30
0.0
 11
505.5673726435741
 21
78.5319487160593
 31
0.0
  0
LINE
  5
E8C
330
2
100
AcDbEntity
  8
AM_4
100
AcDbLine
 10
505.8500263435742
 20
78.38120021605931
 30
0.0
 11
505.7181211435743
 21
78.4565741160593
 31
0.0
  0
LINE
  5
E8D
330
2
100
AcDbEntity
  8
AM_4
100
AcDbLine
 10
507.6563140435742
 20
76.44300731605929
 30
0.0
 11
507.6563140435742
 21
76.44300731605929
 31
0.0
  0
LINE
  5
E8E
330
2
100
AcDbEntity
  8
AM_4
100
AcDbLine
 10
507.2417558435741
 20
76.16035431605931
 30
0.0
 11
507.6563140435742
 21
76.44300731605929
 31
0.0
  0
LINE
  5
E8F
330
2
100
AcDbEntity
  8
AM_4
100
AcDbLine
 10
506.8298898435741
 20
75.9342319160593
 30
0.0
 11
507.2417558435741
 21
76.16035431605931
 31
0.0
  0
LINE
  5
E90
330
2
100
AcDbEntity
  8
AM_4
100
AcDbLine
 10
506.3588017435742
 20
75.7646401160593
 30
0.0
 11
506.8298898435741
 21
75.9342319160593
 31
0.0
  0
LINE
  5
E91
330
2
100
AcDbEntity
  8
AM_4
100
AcDbLine
 10
506.1326793435743
 20
75.70810951605929
 30
0.0
 11
506.3588017435742
 21
75.7646401160593
 31
0.0
  0
LINE
  5
E92
330
2
100
AcDbEntity
  8
AM_4
100
AcDbLine
 10
505.9065569435743
 20
75.68926621605931
 30
0.0
 11
506.1326793435743
 21
75.70810951605929
 31
0.0
  0
LINE
  5
E93
330
2
100
AcDbEntity
  8
AM_4
100
AcDbLine
 10
505.5296860435742
 20
75.68926621605931
 30
0.0
 11
505.9065569435743
 21
75.68926621605931
 31
0.0
  0
LINE
  5
E94
330
2
100
AcDbEntity
  8
AM_4
100
AcDbLine
 10
507.7882185435742
 20
78.5884793160593
 30
0.0
 11
507.9578103435742
 21
78.2116084160593
 31
0.0
  0
LINE
  5
E95
330
2
100
AcDbEntity
  8
AM_4
100
AcDbLine
 10
507.5432528435742
 20
78.96535021605931
 30
0.0
 11
507.7882185435742
 21
78.5884793160593
 31
0.0
  0
LINE
  5
E96
330
2
100
AcDbEntity
  8
AM_4
100
AcDbLine
 10
507.2605998435741
 20
79.2829983160593
 30
0.0
 11
507.5432528435742
 21
78.96535021605931
 31
0.0
  0
LINE
  5
E97
330
2
100
AcDbEntity
  8
AM_4
100
AcDbLine
 10
506.9052644435742
 20
79.58449461605932
 30
0.0
 11
507.2605998435741
 21
79.2829983160593
 31
0.0
  0
LINE
  5
E98
330
2
100
AcDbEntity
  8
AM_4
100
AcDbLine
 10
506.5095502435743
 20
79.82946101605931
 30
0.0
 11
506.9052644435742
 21
79.58449461605932
 31
0.0
  0
LINE
  5
E99
330
2
100
AcDbEntity
  8
AM_4
100
AcDbLine
 10
506.0761487435741
 20
80.01789611605932
 30
0.0
 11
506.5095502435743
 21
79.82946101605931
 31
0.0
  0
LINE
  5
E9A
330
2
100
AcDbEntity
  8
AM_4
100
AcDbLine
 10
505.6050599435742
 20
80.1498006160593
 30
0.0
 11
506.0761487435741
 21
80.01789611605932
 31
0.0
  0
LINE
  5
E9B
330
2
100
AcDbEntity
  8
AM_4
100
AcDbLine
 10
506.0761487435741
 20
74.10640871605931
 30
0.0
 11
505.6427472435742
 21
74.08756541605931
 31
0.0
  0
LINE
  5
E9C
330
2
100
AcDbEntity
  8
AM_4
100
AcDbLine
 10
506.4718629435741
 20
74.16293931605929
 30
0.0
 11
506.0761487435741
 21
74.10640871605931
 31
0.0
  0
LINE
  5
E9D
330
2
100
AcDbEntity
  8
AM_4
100
AcDbLine
 10
506.8298898435741
 20
74.23831321605931
 30
0.0
 11
506.4718629435741
 21
74.16293931605929
 31
0.0
  0
LINE
  5
E9E
330
2
100
AcDbEntity
  8
AM_4
100
AcDbLine
 10
507.1125428435741
 20
74.3325311160593
 30
0.0
 11
506.8298898435741
 21
74.23831321605931
 31
0.0
  0
LINE
  5
E9F
330
2
100
AcDbEntity
  8
AM_4
100
AcDbLine
 10
507.5244088435741
 20
74.5209669160593
 30
0.0
 11
507.1125428435741
 21
74.3325311160593
 31
0.0
  0
LINE
  5
EA0
330
2
100
AcDbEntity
  8
AM_4
100
AcDbLine
 10
507.6563140435742
 20
74.59634081605931
 30
0.0
 11
507.5244088435741
 21
74.5209669160593
 31
0.0
  0
LINE
  5
EA1
330
2
100
AcDbEntity
  8
AM_4
100
AcDbLine
 10
507.6563140435742
 20
76.44300731605929
 30
0.0
 11
507.6563140435742
 21
74.59634081605931
 31
0.0
  0
LINE
  5
EA2
330
2
100
AcDbEntity
  8
AM_4
100
AcDbLine
 10
513.3982096435742
 20
74.1817826160593
 30
0.0
 11
511.5353913435741
 21
74.1817826160593
 31
0.0
  0
LINE
  5
EA3
330
2
100
AcDbEntity
  8
AM_4
100
AcDbLine
 10
511.5165473435742
 20
80.05558341605931
 30
0.0
 11
513.2851484435742
 21
80.05558341605931
 31
0.0
  0
LINE
  5
EA4
330
2
100
AcDbEntity
  8
AM_4
100
AcDbLine
 10
516.8487721435742
 20
82.90121991605932
 30
0.0
 11
516.8487721435742
 21
72.9224273160593
 31
0.0
  0
LINE
  5
EA5
330
2
100
AcDbEntity
  8
AM_4
100
AcDbLine
 10
517.1123053435742
 20
82.90121991605932
 30
0.0
 11
517.1123053435742
 21
72.9224273160593
 31
0.0
  0
LINE
  5
EA6
330
2
100
AcDbEntity
  8
AM_4
100
AcDbLine
 10
516.9694262435741
 20
82.90121991605932
 30
0.0
 11
516.9694262435741
 21
72.9224273160593
 31
0.0
  0
LINE
  5
EA7
330
2
100
AcDbEntity
  8
AM_4
100
AcDbLine
 10
516.8265464435742
 20
72.8727301160593
 30
0.0
 11
516.8265464435742
 21
82.95091711605932
 31
0.0
  0
LINE
  5
EA8
330
2
100
AcDbEntity
  8
AM_4
100
AcDbLine
 10
499.8254770435742
 20
82.33295991605931
 30
0.0
 11
499.8254770435742
 21
82.33295991605931
 31
0.0
  0
LINE
  5
EA9
330
2
100
AcDbEntity
  8
AM_4
100
AcDbLine
 10
501.7286748435741
 20
82.33295991605931
 30
0.0
 11
499.8254770435742
 21
82.33295991605931
 31
0.0
  0
LINE
  5
EAA
330
2
100
AcDbEntity
  8
AM_4
100
AcDbLine
 10
498.1887811435742
 20
82.31411591605931
 30
0.0
 11
498.5468087435741
 21
82.33295991605931
 31
0.0
  0
LINE
  5
EAB
330
2
100
AcDbEntity
  8
AM_4
100
AcDbLine
 10
497.8684415435743
 20
82.25758531605931
 30
0.0
 11
498.1887811435742
 21
82.31411591605931
 31
0.0
  0
LINE
  5
EAC
330
2
100
AcDbEntity
  8
AM_4
100
AcDbLine
 10
497.5857878435741
 20
82.16336741605932
 30
0.0
 11
497.8684415435743
 21
82.25758531605931
 31
0.0
  0
LINE
  5
EAD
330
2
100
AcDbEntity
  8
AM_4
100
AcDbLine
 10
497.3408221435741
 20
82.06915021605931
 30
0.0
 11
497.5857878435741
 21
82.16336741605932
 31
0.0
  0
LINE
  5
EAE
330
2
100
AcDbEntity
  8
AM_4
100
AcDbLine
 10
497.1523870435743
 20
81.93724501605931
 30
0.0
 11
497.3408221435741
 21
82.06915021605931
 31
0.0
  0
LINE
  5
EAF
330
2
100
AcDbEntity
  8
AM_4
100
AcDbLine
 10
496.9827945435741
 20
81.80803271605929
 30
0.0
 11
497.1523870435743
 21
81.93724501605931
 31
0.0
  0
LINE
  5
EB0
330
2
100
AcDbEntity
  8
AM_4
100
AcDbLine
 10
496.8508900435741
 20
81.65728421605932
 30
0.0
 11
496.9827945435741
 21
81.80803271605929
 31
0.0
  0
LINE
  5
EB1
330
2
100
AcDbEntity
  8
AM_4
100
AcDbLine
 10
496.7566721435741
 20
81.50653571605928
 30
0.0
 11
496.8508900435741
 21
81.65728421605932
 31
0.0
  0
LINE
  5
EB2
330
2
100
AcDbEntity
  8
AM_4
100
AcDbLine
 10
498.5468087435741
 20
82.33295991605931
 30
0.0
 11
499.2224837435742
 21
82.33295991605931
 31
0.0
  0
LINE
  5
EB3
330
2
100
AcDbEntity
  8
AM_4
100
AcDbLine
 10
502.9508132435742
 20
79.26415431605929
 30
0.0
 11
503.3653707435742
 21
79.64102521605932
 31
0.0
  0
LINE
  5
EB4
330
2
100
AcDbEntity
  8
AM_4
100
AcDbLine
 10
503.5538058435742
 20
74.69055871605931
 30
0.0
 11
503.3088401435742
 21
74.87899381605931
 31
0.0
  0
LINE
  5
EB5
330
2
100
AcDbEntity
  8
AM_4
100
AcDbLine
 10
499.1498020435742
 20
79.62218191605931
 30
0.0
 11
499.1498020435742
 21
78.2116084160593
 31
0.0
  0
LINE
  5
EB6
330
2
100
AcDbEntity
  8
AM_4
100
AcDbLine
 10
502.8000647435742
 20
79.05956741605931
 30
0.0
 11
502.9508132435742
 21
79.26415431605929
 31
0.0
  0
LINE
  5
EB7
330
2
100
AcDbEntity
  8
AM_4
100
AcDbLine
 10
502.6493162435741
 20
78.8334450160593
 30
0.0
 11
502.8000647435742
 21
79.05956741605931
 31
0.0
  0
LINE
  5
EB8
330
2
100
AcDbEntity
  8
AM_4
100
AcDbLine
 10
502.5174117435742
 20
78.5884793160593
 30
0.0
 11
502.6493162435741
 21
78.8334450160593
 31
0.0
  0
LINE
  5
EB9
330
2
100
AcDbEntity
  8
AM_4
100
AcDbLine
 10
502.4231938435741
 20
78.34351291605931
 30
0.0
 11
502.5174117435742
 21
78.5884793160593
 31
0.0
  0
LINE
  5
EBA
330
2
100
AcDbEntity
  8
AM_4
100
AcDbLine
 10
502.2912893435742
 20
77.83473751605931
 30
0.0
 11
502.4231938435741
 21
78.34351291605931
 31
0.0
  0
LINE
  5
EBB
330
2
100
AcDbEntity
  8
AM_4
100
AcDbLine
 10
502.2347587435741
 20
77.30711811605932
 30
0.0
 11
502.2912893435742
 21
77.83473751605931
 31
0.0
  0
LINE
  5
EBC
330
2
100
AcDbEntity
  8
AM_4
100
AcDbLine
 10
502.2536020435742
 20
76.9114039160593
 30
0.0
 11
502.2347587435741
 21
77.30711811605932
 31
0.0
  0
LINE
  5
EBD
330
2
100
AcDbEntity
  8
AM_4
100
AcDbLine
 10
502.3101326435742
 20
76.5560685160593
 30
0.0
 11
502.2536020435742
 21
76.9114039160593
 31
0.0
  0
LINE
  5
EBE
330
2
100
AcDbEntity
  8
AM_4
100
AcDbLine
 10
502.4043505435741
 20
76.21688491605931
 30
0.0
 11
502.3101326435742
 21
76.5560685160593
 31
0.0
  0
LINE
  5
EBF
330
2
100
AcDbEntity
  8
AM_4
100
AcDbLine
 10
502.5362550435742
 20
75.89654461605931
 30
0.0
 11
502.4043505435741
 21
76.21688491605931
 31
0.0
  0
LINE
  5
EC0
330
2
100
AcDbEntity
  8
AM_4
100
AcDbLine
 10
502.6870035435742
 20
75.6138916160593
 30
0.0
 11
502.5362550435742
 21
75.89654461605931
 31
0.0
  0
LINE
  5
EC1
330
2
100
AcDbEntity
  8
AM_4
100
AcDbLine
 10
502.8565953435742
 20
75.35008261605931
 30
0.0
 11
502.6870035435742
 21
75.6138916160593
 31
0.0
  0
LINE
  5
EC2
330
2
100
AcDbEntity
  8
AM_4
100
AcDbLine
 10
503.0638744435741
 20
75.10511621605932
 30
0.0
 11
502.8565953435742
 21
75.35008261605931
 31
0.0
  0
LINE
  5
EC3
330
2
100
AcDbEntity
  8
AM_4
100
AcDbLine
 10
503.3088401435742
 20
74.87899381605931
 30
0.0
 11
503.0638744435741
 21
75.10511621605932
 31
0.0
  0
LINE
  5
EC4
330
2
100
AcDbEntity
  8
AM_4
100
AcDbLine
 10
499.8254770435742
 20
74.1817826160593
 30
0.0
 11
501.7286748435741
 21
74.1817826160593
 31
0.0
  0
LINE
  5
EC5
330
2
100
AcDbEntity
  8
AM_4
100
AcDbLine
 10
504.0248946435743
 20
76.8548733160593
 30
0.0
 11
504.0248946435743
 21
76.8548733160593
 31
0.0
  0
LINE
  5
EC6
330
2
100
AcDbEntity
  8
AM_4
100
AcDbLine
 10
503.9683640435741
 20
76.9867785160593
 30
0.0
 11
504.0248946435743
 21
76.8548733160593
 31
0.0
  0
LINE
  5
EC7
330
2
100
AcDbEntity
  8
AM_4
100
AcDbLine
 10
503.9306767435743
 20
77.13752631605931
 30
0.0
 11
503.9683640435741
 21
76.9867785160593
 31
0.0
  0
LINE
  5
EC8
330
2
100
AcDbEntity
  8
AM_4
100
AcDbLine
 10
503.8929901435741
 20
77.3259621160593
 30
0.0
 11
503.9306767435743
 21
77.13752631605931
 31
0.0
  0
LINE
  5
EC9
330
2
100
AcDbEntity
  8
AM_4
100
AcDbLine
 10
503.9118334435742
 20
77.5520845160593
 30
0.0
 11
503.8929901435741
 21
77.3259621160593
 31
0.0
  0
LINE
  5
ECA
330
2
100
AcDbEntity
  8
AM_4
100
AcDbLine
 10
503.9683640435741
 20
77.79705021605932
 30
0.0
 11
503.9118334435742
 21
77.5520845160593
 31
0.0
  0
LINE
  5
ECB
330
2
100
AcDbEntity
  8
AM_4
100
AcDbLine
 10
504.1002685435741
 20
78.06085991605931
 30
0.0
 11
503.9683640435741
 21
77.79705021605932
 31
0.0
  0
LINE
  5
ECC
330
2
100
AcDbEntity
  8
AM_4
100
AcDbLine
 10
504.3263916435742
 20
78.32466961605931
 30
0.0
 11
504.1002685435741
 21
78.06085991605931
 31
0.0
  0
LINE
  5
ECD
330
2
100
AcDbEntity
  8
AM_4
100
AcDbLine
 10
504.5875091435743
 20
78.5131047160593
 30
0.0
 11
504.3263916435742
 21
78.32466961605931
 31
0.0
  0
LINE
  5
ECE
330
2
100
AcDbEntity
  8
AM_4
100
AcDbLine
 10
504.8701621435742
 20
78.60732261605931
 30
0.0
 11
504.5875091435743
 21
78.5131047160593
 31
0.0
  0
LINE
  5
ECF
330
2
100
AcDbEntity
  8
AM_4
100
AcDbLine
 10
505.1339718435742
 20
78.62616591605931
 30
0.0
 11
504.8701621435742
 21
78.60732261605931
 31
0.0
  0
LINE
  5
ED0
330
2
100
AcDbEntity
  8
AM_4
100
AcDbLine
 10
505.3600942435743
 20
78.5884793160593
 30
0.0
 11
505.1339718435742
 21
78.62616591605931
 31
0.0
  0
LINE
  5
ED1
330
2
100
AcDbEntity
  8
AM_4
100
AcDbLine
 10
505.1528151435741
 20
75.7646401160593
 30
0.0
 11
505.2658763435742
 21
75.74579681605931
 31
0.0
  0
LINE
  5
ED2
330
2
100
AcDbEntity
  8
AM_4
100
AcDbLine
 10
504.7571009435741
 20
80.16864461605932
 30
0.0
 11
505.1151278435741
 21
80.18748791605929
 31
0.0
  0
LINE
  5
ED3
330
2
100
AcDbEntity
  8
AM_4
100
AcDbLine
 10
504.4394528435742
 20
80.11211401605931
 30
0.0
 11
504.7571009435741
 21
80.16864461605932
 31
0.0
  0
LINE
  5
ED4
330
2
100
AcDbEntity
  8
AM_4
100
AcDbLine
 10
504.1379558435742
 20
80.0367394160593
 30
0.0
 11
504.4394528435742
 21
80.11211401605931
 31
0.0
  0
LINE
  5
ED5
330
2
100
AcDbEntity
  8
AM_4
100
AcDbLine
 10
503.8553028435742
 20
79.9236782160593
 30
0.0
 11
504.1379558435742
 21
80.0367394160593
 31
0.0
  0
LINE
  5
ED6
330
2
100
AcDbEntity
  8
AM_4
100
AcDbLine
 10
503.5914931435741
 20
79.79177371605931
 30
0.0
 11
503.8553028435742
 21
79.9236782160593
 31
0.0
  0
LINE
  5
ED7
330
2
100
AcDbEntity
  8
AM_4
100
AcDbLine
 10
503.3653707435742
 20
79.64102521605932
 30
0.0
 11
503.5914931435741
 21
79.79177371605931
 31
0.0
  0
LINE
  5
ED8
330
2
100
AcDbEntity
  8
AM_4
100
AcDbLine
 10
503.8176155435742
 20
74.53981021605931
 30
0.0
 11
503.5538058435742
 21
74.69055871605931
 31
0.0
  0
LINE
  5
ED9
330
2
100
AcDbEntity
  8
AM_4
100
AcDbLine
 10
504.1002685435741
 20
74.3890617160593
 30
0.0
 11
503.8176155435742
 21
74.53981021605931
 31
0.0
  0
LINE
  5
EDA
330
2
100
AcDbEntity
  8
AM_4
100
AcDbLine
 10
504.3829222435741
 20
74.2760005160593
 30
0.0
 11
504.1002685435741
 21
74.3890617160593
 31
0.0
  0
LINE
  5
EDB
330
2
100
AcDbEntity
  8
AM_4
100
AcDbLine
 10
504.7005703435742
 20
74.20062661605931
 30
0.0
 11
504.3829222435741
 21
74.2760005160593
 31
0.0
  0
LINE
  5
EDC
330
2
100
AcDbEntity
  8
AM_4
100
AcDbLine
 10
505.0020666435742
 20
74.1252520160593
 30
0.0
 11
504.7005703435742
 21
74.20062661605931
 31
0.0
  0
LINE
  5
EDD
330
2
100
AcDbEntity
  8
AM_4
100
AcDbLine
 10
505.3224069435742
 20
74.08756541605931
 30
0.0
 11
505.0020666435742
 21
74.1252520160593
 31
0.0
  0
LINE
  5
EDE
330
2
100
AcDbEntity
  8
AM_4
100
AcDbLine
 10
494.2908605435742
 20
75.70810951605929
 30
0.0
 11
494.5169829435742
 21
75.7646401160593
 31
0.0
  0
LINE
  5
EDF
330
2
100
AcDbEntity
  8
AM_4
100
AcDbLine
 10
496.1186837435741
 20
78.2116084160593
 30
0.0
 11
493.3136885435742
 21
75.7646401160593
 31
0.0
  0
LINE
  5
EE0
330
2
100
AcDbEntity
  8
AM_4
100
AcDbLine
 10
494.2343299435743
 20
80.01789611605932
 30
0.0
 11
494.6677314435742
 21
79.82946101605931
 31
0.0
  0
LINE
  5
EE1
330
2
100
AcDbEntity
  8
AM_4
100
AcDbLine
 10
494.6300441435742
 20
74.16293931605929
 30
0.0
 11
494.2343299435743
 21
74.10640871605931
 31
0.0
  0
LINE
  5
EE2
330
2
100
AcDbEntity
  8
AM_4
100
AcDbLine
 10
494.0647381435742
 20
75.68926621605931
 30
0.0
 11
494.2908605435742
 21
75.70810951605929
 31
0.0
  0
LINE
  5
EE3
330
2
100
AcDbEntity
  8
AM_4
100
AcDbLine
 10
493.6905594435741
 20
75.68926621605931
 30
0.0
 11
494.0647381435742
 21
75.68926621605931
 31
0.0
  0
LINE
  5
EE4
330
2
100
AcDbEntity
  8
AM_4
100
AcDbLine
 10
493.4267497435741
 20
75.74579681605931
 30
0.0
 11
493.6905594435741
 21
75.68926621605931
 31
0.0
  0
LINE
  5
EE5
330
2
100
AcDbEntity
  8
AM_4
100
AcDbLine
 10
493.3136885435742
 20
75.7646401160593
 30
0.0
 11
493.4267497435741
 21
75.74579681605931
 31
0.0
  0
LINE
  5
EE6
330
2
100
AcDbEntity
  8
AM_4
100
AcDbLine
 10
493.7659333435743
 20
80.1498006160593
 30
0.0
 11
494.2343299435743
 21
80.01789611605932
 31
0.0
  0
LINE
  5
EE7
330
2
100
AcDbEntity
  8
AM_4
100
AcDbLine
 10
493.2760012435742
 20
80.18748791605929
 30
0.0
 11
493.7659333435743
 21
80.1498006160593
 31
0.0
  0
LINE
  5
EE8
330
2
100
AcDbEntity
  8
AM_4
100
AcDbLine
 10
492.9179743435741
 20
80.16864461605932
 30
0.0
 11
493.2760012435742
 21
80.18748791605929
 31
0.0
  0
LINE
  5
EE9
330
2
100
AcDbEntity
  8
AM_4
100
AcDbLine
 10
493.1629400435741
 20
74.1252520160593
 30
0.0
 11
492.8614437435742
 21
74.20062661605931
 31
0.0
  0
LINE
  5
EEA
330
2
100
AcDbEntity
  8
AM_4
100
AcDbLine
 10
493.4832803435742
 20
74.08756541605931
 30
0.0
 11
493.1629400435741
 21
74.1252520160593
 31
0.0
  0
LINE
  5
EEB
330
2
100
AcDbEntity
  8
AM_4
100
AcDbLine
 10
493.8009284435742
 20
74.08756541605931
 30
0.0
 11
493.4832803435742
 21
74.08756541605931
 31
0.0
  0
LINE
  5
EEC
330
2
100
AcDbEntity
  8
AM_4
100
AcDbLine
 10
494.2343299435743
 20
74.10640871605931
 30
0.0
 11
493.8009284435742
 21
74.08756541605931
 31
0.0
  0
LINE
  5
EED
330
2
100
AcDbEntity
  8
AM_4
100
AcDbLine
 10
493.0310355435742
 20
78.60732261605931
 30
0.0
 11
492.7483825435741
 21
78.5131047160593
 31
0.0
  0
LINE
  5
EEE
330
2
100
AcDbEntity
  8
AM_4
100
AcDbLine
 10
493.2948452435741
 20
78.62616591605931
 30
0.0
 11
493.0310355435742
 21
78.60732261605931
 31
0.0
  0
LINE
  5
EEF
330
2
100
AcDbEntity
  8
AM_4
100
AcDbLine
 10
493.5209676435741
 20
78.5884793160593
 30
0.0
 11
493.2948452435741
 21
78.62616591605931
 31
0.0
  0
LINE
  5
EF0
330
2
100
AcDbEntity
  8
AM_4
100
AcDbLine
 10
493.7282467435742
 20
78.5319487160593
 30
0.0
 11
493.5209676435741
 21
78.5884793160593
 31
0.0
  0
LINE
  5
EF1
330
2
100
AcDbEntity
  8
AM_4
100
AcDbLine
 10
493.8763030435742
 20
78.4565741160593
 30
0.0
 11
493.7282467435742
 21
78.5319487160593
 31
0.0
  0
LINE
  5
EF2
330
2
100
AcDbEntity
  8
AM_4
100
AcDbLine
 10
494.0082075435742
 20
78.38120021605931
 30
0.0
 11
493.8763030435742
 21
78.4565741160593
 31
0.0
  0
LINE
  5
EF3
330
2
100
AcDbEntity
  8
AM_4
100
AcDbLine
 10
495.8171874435741
 20
76.44300731605929
 30
0.0
 11
495.8171874435741
 21
76.44300731605929
 31
0.0
  0
LINE
  5
EF4
330
2
100
AcDbEntity
  8
AM_4
100
AcDbLine
 10
495.4026292435742
 20
76.16035431605931
 30
0.0
 11
495.8171874435741
 21
76.44300731605929
 31
0.0
  0
LINE
  5
EF5
330
2
100
AcDbEntity
  8
AM_4
100
AcDbLine
 10
494.9880717435742
 20
75.9342319160593
 30
0.0
 11
495.4026292435742
 21
76.16035431605931
 31
0.0
  0
LINE
  5
EF6
330
2
100
AcDbEntity
  8
AM_4
100
AcDbLine
 10
494.5169829435742
 20
75.7646401160593
 30
0.0
 11
494.9880717435742
 21
75.9342319160593
 31
0.0
  0
LINE
  5
EF7
330
2
100
AcDbEntity
  8
AM_4
100
AcDbLine
 10
495.9490919435742
 20
78.5884793160593
 30
0.0
 11
496.1186837435741
 21
78.2116084160593
 31
0.0
  0
LINE
  5
EF8
330
2
100
AcDbEntity
  8
AM_4
100
AcDbLine
 10
495.7041262435742
 20
78.96535021605931
 30
0.0
 11
495.9490919435742
 21
78.5884793160593
 31
0.0
  0
LINE
  5
EF9
330
2
100
AcDbEntity
  8
AM_4
100
AcDbLine
 10
495.4214732435742
 20
79.2829983160593
 30
0.0
 11
495.7041262435742
 21
78.96535021605931
 31
0.0
  0
LINE
  5
EFA
330
2
100
AcDbEntity
  8
AM_4
100
AcDbLine
 10
495.0634456435742
 20
79.58449461605932
 30
0.0
 11
495.4214732435742
 21
79.2829983160593
 31
0.0
  0
LINE
  5
EFB
330
2
100
AcDbEntity
  8
AM_4
100
AcDbLine
 10
494.6677314435742
 20
79.82946101605931
 30
0.0
 11
495.0634456435742
 21
79.58449461605932
 31
0.0
  0
LINE
  5
EFC
330
2
100
AcDbEntity
  8
AM_4
100
AcDbLine
 10
494.9692277435742
 20
74.23831321605931
 30
0.0
 11
494.6300441435742
 21
74.16293931605929
 31
0.0
  0
LINE
  5
EFD
330
2
100
AcDbEntity
  8
AM_4
100
AcDbLine
 10
495.2707247435742
 20
74.3325311160593
 30
0.0
 11
494.9692277435742
 21
74.23831321605931
 31
0.0
  0
LINE
  5
EFE
330
2
100
AcDbEntity
  8
AM_4
100
AcDbLine
 10
495.6852822435742
 20
74.5209669160593
 30
0.0
 11
495.2707247435742
 21
74.3325311160593
 31
0.0
  0
LINE
  5
EFF
330
2
100
AcDbEntity
  8
AM_4
100
AcDbLine
 10
495.8171874435741
 20
74.59634081605931
 30
0.0
 11
495.6852822435742
 21
74.5209669160593
 31
0.0
  0
LINE
  5
F00
330
2
100
AcDbEntity
  8
AM_4
100
AcDbLine
 10
495.8171874435741
 20
76.44300731605929
 30
0.0
 11
495.8171874435741
 21
74.59634081605931
 31
0.0
  0
LINE
  5
F01
330
2
100
AcDbEntity
  8
AM_4
100
AcDbLine
 10
496.5117064435743
 20
74.1817826160593
 30
0.0
 11
496.5117064435743
 21
74.1817826160593
 31
0.0
  0
LINE
  5
F02
330
2
100
AcDbEntity
  8
AM_4
100
AcDbLine
 10
498.3395296435742
 20
74.1817826160593
 30
0.0
 11
496.5117064435743
 21
74.1817826160593
 31
0.0
  0
LINE
  5
F03
330
2
100
AcDbEntity
  8
AM_4
100
AcDbLine
 10
498.3395296435742
 20
78.2116084160593
 30
0.0
 11
498.3395296435742
 21
74.1817826160593
 31
0.0
  0
LINE
  5
F04
330
2
100
AcDbEntity
  8
AM_4
100
AcDbLine
 10
498.3395296435742
 20
80.24401851605929
 30
0.0
 11
498.3395296435742
 21
79.62218191605931
 31
0.0
  0
LINE
  5
F05
330
2
100
AcDbEntity
  8
AM_4
100
AcDbLine
 10
498.3772169435742
 20
80.45129761605929
 30
0.0
 11
498.3395296435742
 21
80.24401851605929
 31
0.0
  0
LINE
  5
F06
330
2
100
AcDbEntity
  8
AM_4
100
AcDbLine
 10
498.4525908435743
 20
80.6020461160593
 30
0.0
 11
498.3772169435742
 21
80.45129761605929
 31
0.0
  0
LINE
  5
F07
330
2
100
AcDbEntity
  8
AM_4
100
AcDbLine
 10
498.5656520435742
 20
80.71510731605929
 30
0.0
 11
498.4525908435743
 21
80.6020461160593
 31
0.0
  0
LINE
  5
F08
330
2
100
AcDbEntity
  8
AM_4
100
AcDbLine
 10
498.6787132435742
 20
80.80932451605931
 30
0.0
 11
498.5656520435742
 21
80.71510731605929
 31
0.0
  0
LINE
  5
F09
330
2
100
AcDbEntity
  8
AM_4
100
AcDbLine
 10
498.9236796435742
 20
80.8658551160593
 30
0.0
 11
498.6787132435742
 21
80.80932451605931
 31
0.0
  0
LINE
  5
F0A
330
2
100
AcDbEntity
  8
AM_4
100
AcDbLine
 10
499.0178968435742
 20
80.8846991160593
 30
0.0
 11
498.9236796435742
 21
80.8658551160593
 31
0.0
  0
LINE
  5
F0B
330
2
100
AcDbEntity
  8
AM_4
100
AcDbLine
 10
496.5305497435742
 20
80.9223857160593
 30
0.0
 11
496.6059243435743
 21
81.2050394160593
 31
0.0
  0
LINE
  5
F0C
330
2
100
AcDbEntity
  8
AM_4
100
AcDbLine
 10
496.5117064435743
 20
80.6774200160593
 30
0.0
 11
496.5305497435742
 21
80.9223857160593
 31
0.0
  0
LINE
  5
F0D
330
2
100
AcDbEntity
  8
AM_4
100
AcDbLine
 10
496.5117064435743
 20
74.1817826160593
 30
0.0
 11
496.5117064435743
 21
80.6774200160593
 31
0.0
  0
LINE
  5
F0E
330
2
100
AcDbEntity
  8
AM_4
100
AcDbLine
 10
499.1498020435742
 20
78.2116084160593
 30
0.0
 11
498.3395296435742
 21
78.2116084160593
 31
0.0
  0
LINE
  5
F0F
330
2
100
AcDbEntity
  8
AM_4
100
AcDbLine
 10
498.3395296435742
 20
79.62218191605931
 30
0.0
 11
499.1498020435742
 21
79.62218191605931
 31
0.0
  0
LINE
  5
F10
330
2
100
AcDbEntity
  8
AM_4
100
AcDbLine
 10
499.2224837435742
 20
80.8846991160593
 30
0.0
 11
499.0178968435742
 21
80.8846991160593
 31
0.0
  0
LINE
  5
F11
330
2
100
AcDbEntity
  8
AM_4
100
AcDbLine
 10
499.2224837435742
 20
82.33295991605931
 30
0.0
 11
499.2224837435742
 21
80.8846991160593
 31
0.0
  0
LINE
  5
F12
330
2
100
AcDbEntity
  8
AM_4
100
AcDbLine
 10
496.6059243435743
 20
81.2050394160593
 30
0.0
 11
496.7566721435741
 21
81.50653571605928
 31
0.0
  0
LINE
  5
F13
330
2
100
AcDbEntity
  8
AM_4
100
AcDbLine
 10
501.7286748435741
 20
74.1817826160593
 30
0.0
 11
501.7286748435741
 21
82.33295991605931
 31
0.0
  0
LINE
  5
F14
330
2
100
AcDbEntity
  8
AM_4
100
AcDbLine
 10
499.8254770435742
 20
82.33295991605931
 30
0.0
 11
499.8254770435742
 21
74.1817826160593
 31
0.0
  0
LINE
  5
F15
330
2
100
AcDbEntity
  8
AM_4
100
AcDbLine
 10
505.5673726435741
 20
78.5319487160593
 30
0.0
 11
505.3600942435743
 21
78.5884793160593
 31
0.0
  0
LINE
  5
F16
330
2
100
AcDbEntity
  8
AM_4
100
AcDbLine
 10
504.0248946435743
 20
76.8548733160593
 30
0.0
 11
505.8500263435742
 21
78.38120021605931
 31
0.0
  0
LINE
  5
F17
330
2
100
AcDbEntity
  8
AM_4
100
AcDbLine
 10
505.2658763435742
 20
75.74579681605931
 30
0.0
 11
505.5296860435742
 21
75.68926621605931
 31
0.0
  0
LINE
  5
F18
330
2
100
AcDbEntity
  8
AM_4
100
AcDbLine
 10
507.9578103435742
 20
78.2116084160593
 30
0.0
 11
505.1528151435741
 21
75.7646401160593
 31
0.0
  0
LINE
  5
F19
330
2
100
AcDbEntity
  8
AM_4
100
AcDbLine
 10
505.1151278435741
 20
80.18748791605929
 30
0.0
 11
505.6050599435742
 21
80.1498006160593
 31
0.0
  0
LINE
  5
F1A
330
2
100
AcDbEntity
  8
AM_4
100
AcDbLine
 10
505.6427472435742
 20
74.08756541605931
 30
0.0
 11
505.3224069435742
 21
74.08756541605931
 31
0.0
  0
LINE
  5
F1B
330
2
100
AcDbEntity
  8
AM_4
100
AcDbLine
 10
516.7809904435741
 20
72.2867167160593
 30
0.0
 11
516.6360400435742
 21
72.1272714160593
 31
0.0
  0
LINE
  5
F1C
330
2
100
AcDbEntity
  8
AM_4
100
AcDbLine
 10
516.3875540435742
 20
72.10449341605931
 30
0.0
 11
516.4662417435742
 21
72.16247301605929
 31
0.0
  0
LINE
  5
F1D
330
2
100
AcDbEntity
  8
AM_4
100
AcDbLine
 10
516.8182633435742
 20
72.11484711605931
 30
0.0
 11
516.8576075435741
 21
72.16247301605929
 31
0.0
  0
LINE
  5
F1E
330
2
100
AcDbEntity
  8
AM_4
100
AcDbLine
 10
516.0562391435742
 20
71.80838011605931
 30
0.0
 11
515.8263892435742
 21
71.79388521605931
 31
0.0
  0
LINE
  5
F1F
330
2
100
AcDbEntity
  8
AM_4
100
AcDbLine
 10
516.2736647435742
 20
71.8808553160593
 30
0.0
 11
516.0562391435742
 21
71.80838011605931
 31
0.0
  0
LINE
  5
F20
330
2
100
AcDbEntity
  8
AM_4
100
AcDbLine
 10
516.4620998435741
 20
71.9823210160593
 30
0.0
 11
516.2736647435742
 21
71.8808553160593
 31
0.0
  0
LINE
  5
F21
330
2
100
AcDbEntity
  8
AM_4
100
AcDbLine
 10
516.6360400435742
 20
72.1272714160593
 30
0.0
 11
516.4620998435741
 21
71.9823210160593
 31
0.0
  0
LINE
  5
F22
330
2
100
AcDbEntity
  8
AM_4
100
AcDbLine
 10
515.8263892435742
 20
71.65100611605931
 30
0.0
 11
515.8263892435742
 21
71.9367650160593
 31
0.0
  0
LINE
  5
F23
330
2
100
AcDbEntity
  8
AM_4
100
AcDbLine
 10
515.8263892435742
 20
71.65100611605931
 30
0.0
 11
515.8263892435742
 21
71.65100611605931
 31
0.0
  0
LINE
  5
F24
330
2
100
AcDbEntity
  8
AM_4
100
AcDbLine
 10
515.9299255435741
 20
71.9409062160593
 30
0.0
 11
515.8781570435742
 21
71.9367650160593
 31
0.0
  0
LINE
  5
F25
330
2
100
AcDbEntity
  8
AM_4
100
AcDbLine
 10
515.9796227435743
 20
71.94711871605931
 30
0.0
 11
515.9299255435741
 21
71.9409062160593
 31
0.0
  0
LINE
  5
F26
330
2
100
AcDbEntity
  8
AM_4
100
AcDbLine
 10
515.9796227435743
 20
71.94711871605931
 30
0.0
 11
516.0790171435742
 21
71.96782541605931
 31
0.0
  0
LINE
  5
F27
330
2
100
AcDbEntity
  8
AM_4
100
AcDbLine
 10
516.1266437435741
 20
71.9802504160593
 30
0.0
 11
516.0790171435742
 21
71.96782541605931
 31
0.0
  0
LINE
  5
F28
330
2
100
AcDbEntity
  8
AM_4
100
AcDbLine
 10
516.1266437435741
 20
71.9802504160593
 30
0.0
 11
516.2177550435742
 21
72.0133814160593
 31
0.0
  0
LINE
  5
F29
330
2
100
AcDbEntity
  8
AM_4
100
AcDbLine
 10
516.2633110435741
 20
72.0340888160593
 30
0.0
 11
516.2177550435742
 21
72.0133814160593
 31
0.0
  0
LINE
  5
F2A
330
2
100
AcDbEntity
  8
AM_4
100
AcDbLine
 10
516.3067964435742
 20
72.0547962160593
 30
0.0
 11
516.2633110435741
 21
72.0340888160593
 31
0.0
  0
LINE
  5
F2B
330
2
100
AcDbEntity
  8
AM_4
100
AcDbLine
 10
516.3482105435742
 20
72.0796448160593
 30
0.0
 11
516.3067964435742
 21
72.0547962160593
 31
0.0
  0
LINE
  5
F2C
330
2
100
AcDbEntity
  8
AM_4
100
AcDbLine
 10
516.3875540435742
 20
72.10449341605931
 30
0.0
 11
516.3482105435742
 21
72.0796448160593
 31
0.0
  0
LINE
  5
F2D
330
2
100
AcDbEntity
  8
AM_4
100
AcDbLine
 10
516.7789198435741
 20
72.06722051605931
 30
0.0
 11
516.8182633435742
 21
72.11484711605931
 31
0.0
  0
LINE
  5
F2E
330
2
100
AcDbEntity
  8
AM_4
100
AcDbLine
 10
516.7375057435741
 20
72.0237351160593
 30
0.0
 11
516.7789198435741
 21
72.06722051605931
 31
0.0
  0
LINE
  5
F2F
330
2
100
AcDbEntity
  8
AM_4
100
AcDbLine
 10
516.6463937435742
 20
71.9409062160593
 30
0.0
 11
516.7375057435741
 21
72.0237351160593
 31
0.0
  0
LINE
  5
F30
330
2
100
AcDbEntity
  8
AM_4
100
AcDbLine
 10
516.5966965435742
 20
71.90363331605931
 30
0.0
 11
516.6463937435742
 21
71.9409062160593
 31
0.0
  0
LINE
  5
F31
330
2
100
AcDbEntity
  8
AM_4
100
AcDbLine
 10
516.5469993435741
 20
71.8684310160593
 30
0.0
 11
516.5966965435742
 21
71.90363331605931
 31
0.0
  0
LINE
  5
F32
330
2
100
AcDbEntity
  8
AM_4
100
AcDbLine
 10
516.4931609435742
 20
71.8353000160593
 30
0.0
 11
516.5469993435741
 21
71.8684310160593
 31
0.0
  0
LINE
  5
F33
330
2
100
AcDbEntity
  8
AM_4
100
AcDbLine
 10
516.4393218435742
 20
71.8042389160593
 30
0.0
 11
516.4931609435742
 21
71.8353000160593
 31
0.0
  0
LINE
  5
F34
330
2
100
AcDbEntity
  8
AM_4
100
AcDbLine
 10
516.3854834435742
 20
71.77731971605931
 30
0.0
 11
516.4393218435742
 21
71.8042389160593
 31
0.0
  0
LINE
  5
F35
330
2
100
AcDbEntity
  8
AM_4
100
AcDbLine
 10
516.3275031435743
 20
71.7504005160593
 30
0.0
 11
516.3854834435742
 21
71.77731971605931
 31
0.0
  0
LINE
  5
F36
330
2
100
AcDbEntity
  8
AM_4
100
AcDbLine
 10
516.2695228435742
 20
71.72969311605931
 30
0.0
 11
516.3275031435743
 21
71.7504005160593
 31
0.0
  0
LINE
  5
F37
330
2
100
AcDbEntity
  8
AM_4
100
AcDbLine
 10
516.2094726435742
 20
71.7089857160593
 30
0.0
 11
516.2695228435742
 21
71.72969311605931
 31
0.0
  0
LINE
  5
F38
330
2
100
AcDbEntity
  8
AM_4
100
AcDbLine
 10
516.1473504435742
 20
71.6903496160593
 30
0.0
 11
516.2094726435742
 21
71.7089857160593
 31
0.0
  0
LINE
  5
F39
330
2
100
AcDbEntity
  8
AM_4
100
AcDbLine
 10
516.0231074435743
 20
71.66550101605931
 30
0.0
 11
516.1473504435742
 21
71.6903496160593
 31
0.0
  0
LINE
  5
F3A
330
2
100
AcDbEntity
  8
AM_4
100
AcDbLine
 10
515.8905813435742
 20
71.6530767160593
 30
0.0
 11
516.0231074435743
 21
71.66550101605931
 31
0.0
  0
LINE
  5
F3B
330
2
100
AcDbEntity
  8
AM_4
100
AcDbLine
 10
515.8263892435742
 20
71.65100611605931
 30
0.0
 11
515.8905813435742
 21
71.6530767160593
 31
0.0
  0
LINE
  5
F3C
330
2
100
AcDbEntity
  8
AM_4
100
AcDbLine
 10
516.5014433435742
 20
72.19353411605931
 30
0.0
 11
516.4662417435742
 21
72.16247301605929
 31
0.0
  0
LINE
  5
F3D
330
2
100
AcDbEntity
  8
AM_4
100
AcDbLine
 10
516.5366456435743
 20
72.22666581605931
 30
0.0
 11
516.5014433435742
 21
72.19353411605931
 31
0.0
  0
LINE
  5
F3E
330
2
100
AcDbEntity
  8
AM_4
100
AcDbLine
 10
516.5697773435741
 20
72.25979681605929
 30
0.0
 11
516.5366456435743
 21
72.22666581605931
 31
0.0
  0
LINE
  5
F3F
330
2
100
AcDbEntity
  8
AM_4
100
AcDbLine
 10
516.6008384435741
 20
72.2949991160593
 30
0.0
 11
516.5697773435741
 21
72.25979681605929
 31
0.0
  0
LINE
  5
F40
330
2
100
AcDbEntity
  8
AM_4
100
AcDbLine
 10
516.6298282435742
 20
72.3343426160593
 30
0.0
 11
516.6008384435741
 21
72.2949991160593
 31
0.0
  0
LINE
  5
F41
330
2
100
AcDbEntity
  8
AM_4
100
AcDbLine
 10
516.6588180435742
 20
72.37161621605931
 30
0.0
 11
516.6298282435742
 21
72.3343426160593
 31
0.0
  0
LINE
  5
F42
330
2
100
AcDbEntity
  8
AM_4
100
AcDbLine
 10
516.9570019435743
 20
72.3177771160593
 30
0.0
 11
516.9859917435742
 21
72.37161621605931
 31
0.0
  0
LINE
  5
F43
330
2
100
AcDbEntity
  8
AM_4
100
AcDbLine
 10
516.9259408435742
 20
72.2639387160593
 30
0.0
 11
516.9570019435743
 21
72.3177771160593
 31
0.0
  0
LINE
  5
F44
330
2
100
AcDbEntity
  8
AM_4
100
AcDbLine
 10
516.8928091435741
 20
72.2121702160593
 30
0.0
 11
516.9259408435742
 21
72.2639387160593
 31
0.0
  0
LINE
  5
F45
330
2
100
AcDbEntity
  8
AM_4
100
AcDbLine
 10
516.8576075435741
 20
72.16247301605929
 30
0.0
 11
516.8928091435741
 21
72.2121702160593
 31
0.0
  0
ARC
  5
F46
330
2
100
AcDbEntity
  8
AM_4
100
AcDbCircle
 10
515.8410066435742
 20
72.9224273160593
 30
0.0
 40
1.007765499999999
100
AcDbArc
 50
275.1191169999988
 51
0.0
  0
ARC
  5
F47
330
2
100
AcDbEntity
  8
AM_4
100
AcDbCircle
 10
515.8410066435742
 20
72.9224273160593
 30
0.0
 40
1.271299399999999
100
AcDbArc
 50
274.5582890000006
 51
0.0
  0
ARC
  5
F48
330
2
100
AcDbEntity
  8
AM_4
100
AcDbCircle
 10
515.8410066435742
 20
72.9224273160593
 30
0.0
 40
0.9855397999999999
100
AcDbArc
 50
275.1764689999991
 51
0.0
  0
HATCH
  5
F49
330
2
100
AcDbEntity
  8
AM_4
100
AcDbHatch
 10
0.0
 20
0.0
 30
0.0
210
0.0
220
0.0
230
1.0
  2
SOLID
 70
     1
 71
     0
 91
        2
 92
        7
 72
     0
 73
     1
 93
        4
 10
516.969426064199
 20
82.90121997591034
 10
516.8265464806563
 20
82.90121997591034
 10
516.8265464806563
 20
72.92242703254292
 10
516.969426064199
 20
72.92242703254292
 97
        0
 92
        7
 72
     0
 73
     1
 93
       42
 10
516.8824558829127
 20
72.48964684471085
 10
516.9549310339846
 20
72.6925772677132
 10
516.969426064199
 20
72.92242703254292
 10
516.8265464806563
 20
72.92242703254292
 10
516.8265464806563
 20
72.87272978609294
 10
516.8224050434528
 20
72.8230325396424
 10
516.816192887647
 20
72.77333529319867
 10
516.8079100132383
 20
72.72363804674416
 10
516.7954857016228
 20
72.67601151888922
 10
516.783061390013
 20
72.63045570965251
 10
516.7664956411961
 20
72.5848999004059
 10
516.7499298923814
 20
72.53934409116158
 10
516.7292227063588
 20
72.4958590005169
 10
516.7085155203383
 20
72.45237390987333
 10
516.6836668971141
 20
72.41303025643202
 10
516.6588182738894
 20
72.37161588439301
 10
516.6298282134602
 20
72.33434294955356
 10
516.6008381530312
 20
72.29499929611549
 10
516.5697773740012
 20
72.2597970798825
 10
516.5366458763649
 20
72.22666558224759
 10
516.5014436601338
 20
72.19353408461515
 10
516.4662414438971
 20
72.16247330558349
 10
516.426897790457
 20
72.13348324515482
 10
516.3875541370173
 20
72.10449318472521
 10
516.3482104835748
 20
72.0796445615001
 10
516.3067961115378
 20
72.05479593827599
 10
516.2633110208941
 20
72.03408875225427
 10
516.2177552116482
 20
72.01338156623527
 10
516.1721994024029
 20
71.99681581741845
 10
516.1266435931577
 20
71.98025006860186
 10
516.0790170653084
 20
71.96782575698904
 10
516.0293198188602
 20
71.95747216397904
 10
515.97962257241
 20
71.94711857096888
 10
515.929925325961
 20
71.94090641516265
 10
515.8781573609096
 20
71.93676497795829
 10
515.8263893958576
 20
71.93676497795829
 10
515.8263893958576
 20
71.79388539441572
 10
516.0562391606872
 20
71.80838042463026
 10
516.2736646139046
 20
71.88085557570267
 10
516.4621000066921
 20
71.98232078720415
 10
516.6360403692668
 20
72.12727108934934
 10
516.7809906714105
 20
72.28671642170795
 97
        0
 75
     0
 76
     1
 47
0.013813
 98
        2
 10
516.9257840435742
 20
80.47841001605929
 10
516.7619154435741
 20
72.4336733160593
450
        0
451
        0
460
0.0
461
0.0
452
        0
462
0.0
453
        0
470

  0
LINE
  5
F4A
330
2
100
AcDbEntity
  8
AM_4
100
AcDbLine
 10
516.8824561435742
 20
72.48964671605929
 30
0.0
 11
516.7809904435741
 21
72.2867167160593
 31
0.0
  0
LINE
  5
F4B
330
2
100
AcDbEntity
  8
AM_4
100
AcDbLine
 10
516.6836666435741
 20
72.4130303160593
 30
0.0
 11
516.6588180435742
 21
72.37161621605931
 31
0.0
  0
LINE
  5
F4C
330
2
100
AcDbEntity
  8
AM_4
100
AcDbLine
 10
516.9859917435742
 20
72.37161621605931
 30
0.0
 11
517.0108403435742
 21
72.42752521605931
 31
0.0
  0
ARC
  5
F4D
330
2
100
AcDbEntity
  8
AM_4
100
AcDbCircle
 10
485.2128853435742
 20
82.90121991605932
 30
0.0
 40
1.022382199999999
100
AcDbArc
 50
90.0
 51
180.0
  0
ARC
  5
F4E
330
2
100
AcDbEntity
  8
AM_4
100
AcDbCircle
 10
485.2128853435742
 20
82.90121991605932
 30
0.0
 40
1.285916099999999
100
AcDbArc
 50
90.0
 51
180.0
  0
ARC
  5
F4F
330
2
100
AcDbEntity
  8
AM_4
100
AcDbCircle
 10
485.2128853435742
 20
82.90121991605932
 30
0.0
 40
1.000157199999999
100
AcDbArc
 50
90.0
 51
180.0
  0
LINE
  5
F50
330
2
100
AcDbEntity
  8
AM_4
100
AcDbLine
 10
485.2128853435742
 20
84.04425691605931
 30
0.0
 11
485.2128853435742
 21
84.04425691605931
 31
0.0
  0
LINE
  5
F51
330
2
100
AcDbEntity
  8
AM_4
100
AcDbLine
 10
484.9830361435742
 20
84.01526641605931
 30
0.0
 11
485.2128853435742
 21
84.04425691605931
 31
0.0
  0
LINE
  5
F52
330
2
100
AcDbEntity
  8
AM_4
100
AcDbLine
 10
484.7801054435741
 20
83.95728611605932
 30
0.0
 11
484.9830361435742
 21
84.01526641605931
 31
0.0
  0
LINE
  5
F53
330
2
100
AcDbEntity
  8
AM_4
100
AcDbLine
 10
484.5771747435742
 20
83.84132621605932
 30
0.0
 11
484.7801054435741
 21
83.95728611605932
 31
0.0
  0
LINE
  5
F54
330
2
100
AcDbEntity
  8
AM_4
100
AcDbLine
 10
484.4177294435742
 20
83.71087071605931
 30
0.0
 11
484.5771747435742
 21
83.84132621605932
 31
0.0
  0
LINE
  5
F55
330
2
100
AcDbEntity
  8
AM_4
100
AcDbLine
 10
484.2727790435742
 20
83.5369305160593
 30
0.0
 11
484.4177294435742
 21
83.71087071605931
 31
0.0
  0
LINE
  5
F56
330
2
100
AcDbEntity
  8
AM_4
100
AcDbLine
 10
484.1713140435741
 20
83.34849541605931
 30
0.0
 11
484.2727790435742
 21
83.5369305160593
 31
0.0
  0
LINE
  5
F57
330
2
100
AcDbEntity
  8
AM_4
100
AcDbLine
 10
484.0988388435741
 20
83.13106981605931
 30
0.0
 11
484.1713140435741
 21
83.34849541605931
 31
0.0
  0
LINE
  5
F58
330
2
100
AcDbEntity
  8
AM_4
100
AcDbLine
 10
484.0698490435742
 20
82.90121991605932
 30
0.0
 11
484.0988388435741
 21
83.13106981605931
 31
0.0
  0
LINE
  5
F59
330
2
100
AcDbEntity
  8
AM_4
100
AcDbLine
 10
485.2128853435742
 20
84.18713601605929
 30
0.0
 11
485.2128853435742
 21
83.9013771160593
 31
0.0
  0
LINE
  5
F5A
330
2
100
AcDbEntity
  8
AM_4
100
AcDbLine
 10
485.2128853435742
 20
84.18713601605929
 30
0.0
 11
485.2128853435742
 21
84.18713601605929
 31
0.0
  0
LINE
  5
F5B
330
2
100
AcDbEntity
  8
AM_4
100
AcDbLine
 10
485.1134909435741
 20
83.8972359160593
 30
0.0
 11
485.1631881435742
 21
83.9013771160593
 31
0.0
  0
LINE
  5
F5C
330
2
100
AcDbEntity
  8
AM_4
100
AcDbLine
 10
485.0637937435742
 20
83.89102341605932
 30
0.0
 11
485.1134909435741
 21
83.8972359160593
 31
0.0
  0
LINE
  5
F5D
330
2
100
AcDbEntity
  8
AM_4
100
AcDbLine
 10
485.0140965435742
 20
83.88066971605931
 30
0.0
 11
485.0637937435742
 21
83.89102341605932
 31
0.0
  0
LINE
  5
F5E
330
2
100
AcDbEntity
  8
AM_4
100
AcDbLine
 10
484.9664699435741
 20
83.87031601605931
 30
0.0
 11
485.0140965435742
 21
83.88066971605931
 31
0.0
  0
LINE
  5
F5F
330
2
100
AcDbEntity
  8
AM_4
100
AcDbLine
 10
484.9188433435743
 20
83.85582111605931
 30
0.0
 11
484.9664699435741
 21
83.87031601605931
 31
0.0
  0
LINE
  5
F60
330
2
100
AcDbEntity
  8
AM_4
100
AcDbLine
 10
484.8277320435743
 20
83.8226894160593
 30
0.0
 11
484.9188433435743
 21
83.85582111605931
 31
0.0
  0
LINE
  5
F61
330
2
100
AcDbEntity
  8
AM_4
100
AcDbLine
 10
484.7842466435742
 20
83.80198271605932
 30
0.0
 11
484.8277320435743
 21
83.8226894160593
 31
0.0
  0
LINE
  5
F62
330
2
100
AcDbEntity
  8
AM_4
100
AcDbLine
 10
484.7407619435741
 20
83.7792047160593
 30
0.0
 11
484.7842466435742
 21
83.80198271605932
 31
0.0
  0
LINE
  5
F63
330
2
100
AcDbEntity
  8
AM_4
100
AcDbLine
 10
484.6579330435742
 20
83.7295075160593
 30
0.0
 11
484.7407619435741
 21
83.7792047160593
 31
0.0
  0
LINE
  5
F64
330
2
100
AcDbEntity
  8
AM_4
100
AcDbLine
 10
484.6185895435742
 20
83.7005170160593
 30
0.0
 11
484.6579330435742
 21
83.7295075160593
 31
0.0
  0
LINE
  5
F65
330
2
100
AcDbEntity
  8
AM_4
100
AcDbLine
 10
484.5440437435741
 20
83.63839551605931
 30
0.0
 11
484.6185895435742
 21
83.7005170160593
 31
0.0
  0
LINE
  5
F66
330
2
100
AcDbEntity
  8
AM_4
100
AcDbLine
 10
484.5088414435743
 20
83.60526451605931
 30
0.0
 11
484.5440437435741
 21
83.63839551605931
 31
0.0
  0
LINE
  5
F67
330
2
100
AcDbEntity
  8
AM_4
100
AcDbLine
 10
484.4757097435741
 20
83.57006221605931
 30
0.0
 11
484.5088414435743
 21
83.60526451605931
 31
0.0
  0
LINE
  5
F68
330
2
100
AcDbEntity
  8
AM_4
100
AcDbLine
 10
484.4425780435742
 20
83.53278931605931
 30
0.0
 11
484.4757097435741
 21
83.57006221605931
 31
0.0
  0
LINE
  5
F69
330
2
100
AcDbEntity
  8
AM_4
100
AcDbLine
 10
484.4135882435741
 20
83.4955164160593
 30
0.0
 11
484.4425780435742
 21
83.53278931605931
 31
0.0
  0
LINE
  5
F6A
330
2
100
AcDbEntity
  8
AM_4
100
AcDbLine
 10
484.3845984435741
 20
83.45617221605932
 30
0.0
 11
484.4135882435741
 21
83.4955164160593
 31
0.0
  0
LINE
  5
F6B
330
2
100
AcDbEntity
  8
AM_4
100
AcDbLine
 10
484.3349012435742
 20
83.37334401605932
 30
0.0
 11
484.3845984435741
 21
83.45617221605932
 31
0.0
  0
LINE
  5
F6C
330
2
100
AcDbEntity
  8
AM_4
100
AcDbLine
 10
484.3121232435741
 20
83.32985861605932
 30
0.0
 11
484.3349012435742
 21
83.37334401605932
 31
0.0
  0
LINE
  5
F6D
330
2
100
AcDbEntity
  8
AM_4
100
AcDbLine
 10
484.2914158435742
 20
83.2863739160593
 30
0.0
 11
484.3121232435741
 21
83.32985861605932
 31
0.0
  0
LINE
  5
F6E
330
2
100
AcDbEntity
  8
AM_4
100
AcDbLine
 10
484.2727790435742
 20
83.24081791605932
 30
0.0
 11
484.2914158435742
 21
83.2863739160593
 31
0.0
  0
LINE
  5
F6F
330
2
100
AcDbEntity
  8
AM_4
100
AcDbLine
 10
484.2582841435741
 20
83.19319131605931
 30
0.0
 11
484.2727790435742
 21
83.24081791605932
 31
0.0
  0
LINE
  5
F70
330
2
100
AcDbEntity
  8
AM_4
100
AcDbLine
 10
484.2437892435742
 20
83.14763531605931
 30
0.0
 11
484.2582841435741
 21
83.19319131605931
 31
0.0
  0
LINE
  5
F71
330
2
100
AcDbEntity
  8
AM_4
100
AcDbLine
 10
484.2334355435743
 20
83.10000871605931
 30
0.0
 11
484.2437892435742
 21
83.14763531605931
 31
0.0
  0
LINE
  5
F72
330
2
100
AcDbEntity
  8
AM_4
100
AcDbLine
 10
484.2230818435742
 20
83.0503115160593
 30
0.0
 11
484.2334355435743
 21
83.10000871605931
 31
0.0
  0
LINE
  5
F73
330
2
100
AcDbEntity
  8
AM_4
100
AcDbLine
 10
484.2168700435742
 20
83.0006143160593
 30
0.0
 11
484.2230818435742
 21
83.0503115160593
 31
0.0
  0
LINE
  5
F74
330
2
100
AcDbEntity
  8
AM_4
100
AcDbLine
 10
484.2127288435742
 20
82.95091711605932
 30
0.0
 11
484.2168700435742
 21
83.0006143160593
 31
0.0
  0
LINE
  5
F75
330
2
100
AcDbEntity
  8
AM_4
100
AcDbLine
 10
483.9269692435742
 20
82.90121991605932
 30
0.0
 11
484.2127288435742
 21
82.90121991605932
 31
0.0
  0
LINE
  5
F76
330
2
100
AcDbEntity
  8
AM_4
100
AcDbLine
 10
483.9290398435742
 20
82.96541201605931
 30
0.0
 11
483.9269692435742
 21
82.90121991605932
 31
0.0
  0
LINE
  5
F77
330
2
100
AcDbEntity
  8
AM_4
100
AcDbLine
 10
483.9352523435742
 20
83.0296048160593
 30
0.0
 11
483.9290398435742
 21
82.96541201605931
 31
0.0
  0
LINE
  5
F78
330
2
100
AcDbEntity
  8
AM_4
100
AcDbLine
 10
483.9435347435742
 20
83.09379691605931
 30
0.0
 11
483.9352523435742
 21
83.0296048160593
 31
0.0
  0
LINE
  5
F79
330
2
100
AcDbEntity
  8
AM_4
100
AcDbLine
 10
483.9538884435742
 20
83.1579890160593
 30
0.0
 11
483.9435347435742
 21
83.09379691605931
 31
0.0
  0
LINE
  5
F7A
330
2
100
AcDbEntity
  8
AM_4
100
AcDbLine
 10
483.9683840435742
 20
83.22011051605931
 30
0.0
 11
483.9538884435742
 21
83.1579890160593
 31
0.0
  0
LINE
  5
F7B
330
2
100
AcDbEntity
  8
AM_4
100
AcDbLine
 10
483.9870201435742
 20
83.28016141605932
 30
0.0
 11
483.9683840435742
 21
83.22011051605931
 31
0.0
  0
LINE
  5
F7C
330
2
100
AcDbEntity
  8
AM_4
100
AcDbLine
 10
484.0077275435742
 20
83.3402123160593
 30
0.0
 11
483.9870201435742
 21
83.28016141605932
 31
0.0
  0
LINE
  5
F7D
330
2
100
AcDbEntity
  8
AM_4
100
AcDbLine
 10
484.0305055435742
 20
83.3981926160593
 30
0.0
 11
484.0077275435742
 21
83.3402123160593
 31
0.0
  0
LINE
  5
F7E
330
2
100
AcDbEntity
  8
AM_4
100
AcDbLine
 10
484.0553541435741
 20
83.45410161605931
 30
0.0
 11
484.0305055435742
 21
83.3981926160593
 31
0.0
  0
LINE
  5
F7F
330
2
100
AcDbEntity
  8
AM_4
100
AcDbLine
 10
484.0843439435742
 20
83.51001131605931
 30
0.0
 11
484.0553541435741
 21
83.45410161605931
 31
0.0
  0
LINE
  5
F80
330
2
100
AcDbEntity
  8
AM_4
100
AcDbLine
 10
484.1154050435742
 20
83.56384971605931
 30
0.0
 11
484.0843439435742
 21
83.51001131605931
 31
0.0
  0
LINE
  5
F81
330
2
100
AcDbEntity
  8
AM_4
100
AcDbLine
 10
484.1506066435742
 20
83.61561821605929
 30
0.0
 11
484.1154050435742
 21
83.56384971605931
 31
0.0
  0
LINE
  5
F82
330
2
100
AcDbEntity
  8
AM_4
100
AcDbLine
 10
484.1858089435742
 20
83.66531541605931
 30
0.0
 11
484.1506066435742
 21
83.61561821605929
 31
0.0
  0
LINE
  5
F83
330
2
100
AcDbEntity
  8
AM_4
100
AcDbLine
 10
484.2251531435741
 20
83.71501261605931
 30
0.0
 11
484.1858089435742
 21
83.66531541605931
 31
0.0
  0
LINE
  5
F84
330
2
100
AcDbEntity
  8
AM_4
100
AcDbLine
 10
484.2644966435741
 20
83.76056791605931
 30
0.0
 11
484.2251531435741
 21
83.71501261605931
 31
0.0
  0
LINE
  5
F85
330
2
100
AcDbEntity
  8
AM_4
100
AcDbLine
 10
484.3079813435742
 20
83.8061239160593
 30
0.0
 11
484.2644966435741
 21
83.76056791605931
 31
0.0
  0
LINE
  5
F86
330
2
100
AcDbEntity
  8
AM_4
100
AcDbLine
 10
484.3514667435742
 20
83.84960931605929
 30
0.0
 11
484.3079813435742
 21
83.8061239160593
 31
0.0
  0
LINE
  5
F87
330
2
100
AcDbEntity
  8
AM_4
100
AcDbLine
 10
484.3990933435742
 20
83.88895281605931
 30
0.0
 11
484.3514667435742
 21
83.84960931605929
 31
0.0
  0
LINE
  5
F88
330
2
100
AcDbEntity
  8
AM_4
100
AcDbLine
 10
484.4487905435742
 20
83.92829631605932
 30
0.0
 11
484.3990933435742
 21
83.88895281605931
 31
0.0
  0
LINE
  5
F89
330
2
100
AcDbEntity
  8
AM_4
100
AcDbLine
 10
484.4984877435742
 20
83.9634986160593
 30
0.0
 11
484.4487905435742
 21
83.92829631605932
 31
0.0
  0
LINE
  5
F8A
330
2
100
AcDbEntity
  8
AM_4
100
AcDbLine
 10
484.5502555435742
 20
83.99870091605931
 30
0.0
 11
484.4984877435742
 21
83.9634986160593
 31
0.0
  0
LINE
  5
F8B
330
2
100
AcDbEntity
  8
AM_4
100
AcDbLine
 10
484.6040946435742
 20
84.0297613160593
 30
0.0
 11
484.5502555435742
 21
83.99870091605931
 31
0.0
  0
LINE
  5
F8C
330
2
100
AcDbEntity
  8
AM_4
100
AcDbLine
 10
484.6600036435741
 20
84.0587518160593
 30
0.0
 11
484.6040946435742
 21
84.0297613160593
 31
0.0
  0
LINE
  5
F8D
330
2
100
AcDbEntity
  8
AM_4
100
AcDbLine
 10
484.7159133435742
 20
84.08360041605931
 30
0.0
 11
484.6600036435741
 21
84.0587518160593
 31
0.0
  0
LINE
  5
F8E
330
2
100
AcDbEntity
  8
AM_4
100
AcDbLine
 10
484.7738929435742
 20
84.10637841605931
 30
0.0
 11
484.7159133435742
 21
84.08360041605931
 31
0.0
  0
LINE
  5
F8F
330
2
100
AcDbEntity
  8
AM_4
100
AcDbLine
 10
484.8339438435742
 20
84.12708511605931
 30
0.0
 11
484.7738929435742
 21
84.10637841605931
 31
0.0
  0
LINE
  5
F90
330
2
100
AcDbEntity
  8
AM_4
100
AcDbLine
 10
484.8939947435742
 20
84.1457219160593
 30
0.0
 11
484.8339438435742
 21
84.12708511605931
 31
0.0
  0
LINE
  5
F91
330
2
100
AcDbEntity
  8
AM_4
100
AcDbLine
 10
484.9561162435742
 20
84.16021681605931
 30
0.0
 11
484.8939947435742
 21
84.1457219160593
 31
0.0
  0
LINE
  5
F92
330
2
100
AcDbEntity
  8
AM_4
100
AcDbLine
 10
485.0203090435742
 20
84.17057051605931
 30
0.0
 11
484.9561162435742
 21
84.16021681605931
 31
0.0
  0
LINE
  5
F93
330
2
100
AcDbEntity
  8
AM_4
100
AcDbLine
 10
485.0845011435742
 20
84.17885361605931
 30
0.0
 11
485.0203090435742
 21
84.17057051605931
 31
0.0
  0
LINE
  5
F94
330
2
100
AcDbEntity
  8
AM_4
100
AcDbLine
 10
485.1486932435742
 20
84.1850654160593
 30
0.0
 11
485.0845011435742
 21
84.17885361605931
 31
0.0
  0
LINE
  5
F95
330
2
100
AcDbEntity
  8
AM_4
100
AcDbLine
 10
485.2128853435742
 20
84.18713601605929
 30
0.0
 11
485.1486932435742
 21
84.1850654160593
 31
0.0
  0
LINE
  5
F96
330
2
100
AcDbEntity
  8
AM_4
100
AcDbLine
 10
483.9269692435742
 20
82.90121991605932
 30
0.0
 11
483.9269692435742
 21
82.90121991605932
 31
0.0
  0
LINE
  5
F97
330
2
100
AcDbEntity
  8
AM_4
100
AcDbLine
 10
492.2961377435743
 20
80.0367394160593
 30
0.0
 11
492.5976340435742
 21
80.11211401605931
 31
0.0
  0
LINE
  5
F98
330
2
100
AcDbEntity
  8
AM_4
100
AcDbLine
 10
492.0134840435742
 20
79.9236782160593
 30
0.0
 11
492.2961377435743
 21
80.0367394160593
 31
0.0
  0
LINE
  5
F99
330
2
100
AcDbEntity
  8
AM_4
100
AcDbLine
 10
491.7496750435741
 20
79.79177371605931
 30
0.0
 11
492.0134840435742
 21
79.9236782160593
 31
0.0
  0
LINE
  5
F9A
330
2
100
AcDbEntity
  8
AM_4
100
AcDbLine
 10
491.5235526435741
 20
79.64102521605932
 30
0.0
 11
491.7496750435741
 21
79.79177371605931
 31
0.0
  0
LINE
  5
F9B
330
2
100
AcDbEntity
  8
AM_4
100
AcDbLine
 10
491.1089944435741
 20
79.26415431605929
 30
0.0
 11
491.5235526435741
 21
79.64102521605932
 31
0.0
  0
LINE
  5
F9C
330
2
100
AcDbEntity
  8
AM_4
100
AcDbLine
 10
490.9420948435742
 20
79.05956741605931
 30
0.0
 11
491.1089944435741
 21
79.26415431605929
 31
0.0
  0
LINE
  5
F9D
330
2
100
AcDbEntity
  8
AM_4
100
AcDbLine
 10
490.8101896435742
 20
78.8334450160593
 30
0.0
 11
490.9420948435742
 21
79.05956741605931
 31
0.0
  0
LINE
  5
F9E
330
2
100
AcDbEntity
  8
AM_4
100
AcDbLine
 10
490.6782851435742
 20
78.5884793160593
 30
0.0
 11
490.8101896435742
 21
78.8334450160593
 31
0.0
  0
LINE
  5
F9F
330
2
100
AcDbEntity
  8
AM_4
100
AcDbLine
 10
490.5840672435743
 20
78.34351291605931
 30
0.0
 11
490.6782851435742
 21
78.5884793160593
 31
0.0
  0
LINE
  5
FA0
330
2
100
AcDbEntity
  8
AM_4
100
AcDbLine
 10
490.4521627435742
 20
77.83473751605931
 30
0.0
 11
490.5840672435743
 21
78.34351291605931
 31
0.0
  0
LINE
  5
FA1
330
2
100
AcDbEntity
  8
AM_4
100
AcDbLine
 10
490.3956321435742
 20
77.30711811605932
 30
0.0
 11
490.4521627435742
 21
77.83473751605931
 31
0.0
  0
LINE
  5
FA2
330
2
100
AcDbEntity
  8
AM_4
100
AcDbLine
 10
490.4144754435742
 20
76.9114039160593
 30
0.0
 11
490.3956321435742
 21
77.30711811605932
 31
0.0
  0
LINE
  5
FA3
330
2
100
AcDbEntity
  8
AM_4
100
AcDbLine
 10
490.4710060435742
 20
76.5560685160593
 30
0.0
 11
490.4144754435742
 21
76.9114039160593
 31
0.0
  0
LINE
  5
FA4
330
2
100
AcDbEntity
  8
AM_4
100
AcDbLine
 10
490.5652239435742
 20
76.21688491605931
 30
0.0
 11
490.4710060435742
 21
76.5560685160593
 31
0.0
  0
LINE
  5
FA5
330
2
100
AcDbEntity
  8
AM_4
100
AcDbLine
 10
490.6971284435742
 20
75.89654461605931
 30
0.0
 11
490.5652239435742
 21
76.21688491605931
 31
0.0
  0
LINE
  5
FA6
330
2
100
AcDbEntity
  8
AM_4
100
AcDbLine
 10
490.8478769435742
 20
75.6138916160593
 30
0.0
 11
490.6971284435742
 21
75.89654461605931
 31
0.0
  0
LINE
  5
FA7
330
2
100
AcDbEntity
  8
AM_4
100
AcDbLine
 10
491.0174687435742
 20
75.35008261605931
 30
0.0
 11
490.8478769435742
 21
75.6138916160593
 31
0.0
  0
LINE
  5
FA8
330
2
100
AcDbEntity
  8
AM_4
100
AcDbLine
 10
491.2220556435742
 20
75.10511621605932
 30
0.0
 11
491.0174687435742
 21
75.35008261605931
 31
0.0
  0
LINE
  5
FA9
330
2
100
AcDbEntity
  8
AM_4
100
AcDbLine
 10
491.4481780435743
 20
74.87899381605931
 30
0.0
 11
491.2220556435742
 21
75.10511621605932
 31
0.0
  0
LINE
  5
FAA
330
2
100
AcDbEntity
  8
AM_4
100
AcDbLine
 10
491.7119877435742
 20
74.69055871605931
 30
0.0
 11
491.4481780435743
 21
74.87899381605931
 31
0.0
  0
LINE
  5
FAB
330
2
100
AcDbEntity
  8
AM_4
100
AcDbLine
 10
491.9757974435742
 20
74.53981021605931
 30
0.0
 11
491.7119877435742
 21
74.69055871605931
 31
0.0
  0
LINE
  5
FAC
330
2
100
AcDbEntity
  8
AM_4
100
AcDbLine
 10
492.2584504435741
 20
74.3890617160593
 30
0.0
 11
491.9757974435742
 21
74.53981021605931
 31
0.0
  0
LINE
  5
FAD
330
2
100
AcDbEntity
  8
AM_4
100
AcDbLine
 10
492.5411034435742
 20
74.2760005160593
 30
0.0
 11
492.2584504435741
 21
74.3890617160593
 31
0.0
  0
LINE
  5
FAE
330
2
100
AcDbEntity
  8
AM_4
100
AcDbLine
 10
489.4157679435742
 20
77.91011141605931
 30
0.0
 11
489.4157679435742
 21
77.91011141605931
 31
0.0
  0
LINE
  5
FAF
330
2
100
AcDbEntity
  8
AM_4
100
AcDbLine
 10
489.4157679435742
 20
74.16293931605929
 30
0.0
 11
489.4157679435742
 21
77.91011141605931
 31
0.0
  0
LINE
  5
FB0
330
2
100
AcDbEntity
  8
AM_4
100
AcDbLine
 10
487.5906362435741
 20
74.16293931605929
 30
0.0
 11
489.4157679435742
 21
74.16293931605929
 31
0.0
  0
LINE
  5
FB1
330
2
100
AcDbEntity
  8
AM_4
100
AcDbLine
 10
487.5906362435741
 20
78.4754181160593
 30
0.0
 11
487.5906362435741
 21
74.16293931605929
 31
0.0
  0
LINE
  5
FB2
330
2
100
AcDbEntity
  8
AM_4
100
AcDbLine
 10
487.6094802435742
 20
78.72038381605931
 30
0.0
 11
487.5906362435741
 21
78.4754181160593
 31
0.0
  0
LINE
  5
FB3
330
2
100
AcDbEntity
  8
AM_4
100
AcDbLine
 10
487.6848541435741
 20
78.9841935160593
 30
0.0
 11
487.6094802435742
 21
78.72038381605931
 31
0.0
  0
LINE
  5
FB4
330
2
100
AcDbEntity
  8
AM_4
100
AcDbLine
 10
487.8167586435742
 20
79.3018416160593
 30
0.0
 11
487.6848541435741
 21
78.9841935160593
 31
0.0
  0
LINE
  5
FB5
330
2
100
AcDbEntity
  8
AM_4
100
AcDbLine
 10
487.9298198435741
 20
79.45259011605931
 30
0.0
 11
487.8167586435742
 21
79.3018416160593
 31
0.0
  0
LINE
  5
FB6
330
2
100
AcDbEntity
  8
AM_4
100
AcDbLine
 10
488.0617250435742
 20
79.60333861605931
 30
0.0
 11
487.9298198435741
 21
79.45259011605931
 31
0.0
  0
LINE
  5
FB7
330
2
100
AcDbEntity
  8
AM_4
100
AcDbLine
 10
488.2313168435741
 20
79.73524311605931
 30
0.0
 11
488.0617250435742
 21
79.60333861605931
 31
0.0
  0
LINE
  5
FB8
330
2
100
AcDbEntity
  8
AM_4
100
AcDbLine
 10
488.4170604435742
 20
79.8671476160593
 30
0.0
 11
488.2313168435741
 21
79.73524311605931
 31
0.0
  0
LINE
  5
FB9
330
2
100
AcDbEntity
  8
AM_4
100
AcDbLine
 10
488.6620261435743
 20
79.96136551605932
 30
0.0
 11
488.4170604435742
 21
79.8671476160593
 31
0.0
  0
LINE
  5
FBA
330
2
100
AcDbEntity
  8
AM_4
100
AcDbLine
 10
488.9258358435742
 20
80.05558341605931
 30
0.0
 11
488.6620261435743
 21
79.96136551605932
 31
0.0
  0
LINE
  5
FBB
330
2
100
AcDbEntity
  8
AM_4
100
AcDbLine
 10
489.2461761435742
 20
80.0932700160593
 30
0.0
 11
488.9258358435742
 21
80.05558341605931
 31
0.0
  0
LINE
  5
FBC
330
2
100
AcDbEntity
  8
AM_4
100
AcDbLine
 10
489.6230470435742
 20
80.11211401605931
 30
0.0
 11
489.2461761435742
 21
80.0932700160593
 31
0.0
  0
LINE
  5
FBD
330
2
100
AcDbEntity
  8
AM_4
100
AcDbLine
 10
490.3014142435742
 20
80.11211401605931
 30
0.0
 11
489.6230470435742
 21
80.11211401605931
 31
0.0
  0
LINE
  5
FBE
330
2
100
AcDbEntity
  8
AM_4
100
AcDbLine
 10
490.3014142435742
 20
78.5507920160593
 30
0.0
 11
490.3014142435742
 21
80.11211401605931
 31
0.0
  0
LINE
  5
FBF
330
2
100
AcDbEntity
  8
AM_4
100
AcDbLine
 10
490.0941351435742
 20
78.5507920160593
 30
0.0
 11
490.3014142435742
 21
78.5507920160593
 31
0.0
  0
LINE
  5
FC0
330
2
100
AcDbEntity
  8
AM_4
100
AcDbLine
 10
489.9810739435743
 20
78.5319487160593
 30
0.0
 11
490.0941351435742
 21
78.5507920160593
 31
0.0
  0
LINE
  5
FC1
330
2
100
AcDbEntity
  8
AM_4
100
AcDbLine
 10
489.7549515435742
 20
78.4754181160593
 30
0.0
 11
489.9810739435743
 21
78.5319487160593
 31
0.0
  0
LINE
  5
FC2
330
2
100
AcDbEntity
  8
AM_4
100
AcDbLine
 10
489.6418903435742
 20
78.38120021605931
 30
0.0
 11
489.7549515435742
 21
78.4754181160593
 31
0.0
  0
LINE
  5
FC3
330
2
100
AcDbEntity
  8
AM_4
100
AcDbLine
 10
489.5288291435742
 20
78.2681390160593
 30
0.0
 11
489.6418903435742
 21
78.38120021605931
 31
0.0
  0
LINE
  5
FC4
330
2
100
AcDbEntity
  8
AM_4
100
AcDbLine
 10
489.4534552435742
 20
78.1173905160593
 30
0.0
 11
489.5288291435742
 21
78.2681390160593
 31
0.0
  0
LINE
  5
FC5
330
2
100
AcDbEntity
  8
AM_4
100
AcDbLine
 10
489.4157679435742
 20
77.91011141605931
 30
0.0
 11
489.4534552435742
 21
78.1173905160593
 31
0.0
  0
LINE
  5
FC6
330
2
100
AcDbEntity
  8
AM_4
100
AcDbLine
 10
492.1830765435743
 20
76.8548733160593
 30
0.0
 11
492.1830765435743
 21
76.8548733160593
 31
0.0
  0
LINE
  5
FC7
330
2
100
AcDbEntity
  8
AM_4
100
AcDbLine
 10
492.1265452435742
 20
76.9867785160593
 30
0.0
 11
492.1830765435743
 21
76.8548733160593
 31
0.0
  0
LINE
  5
FC8
330
2
100
AcDbEntity
  8
AM_4
100
AcDbLine
 10
492.0888586435743
 20
77.13752631605931
 30
0.0
 11
492.1265452435742
 21
76.9867785160593
 31
0.0
  0
LINE
  5
FC9
330
2
100
AcDbEntity
  8
AM_4
100
AcDbLine
 10
492.0511713435741
 20
77.3259621160593
 30
0.0
 11
492.0888586435743
 21
77.13752631605931
 31
0.0
  0
LINE
  5
FCA
330
2
100
AcDbEntity
  8
AM_4
100
AcDbLine
 10
492.0700146435742
 20
77.5520845160593
 30
0.0
 11
492.0511713435741
 21
77.3259621160593
 31
0.0
  0
LINE
  5
FCB
330
2
100
AcDbEntity
  8
AM_4
100
AcDbLine
 10
492.1265452435742
 20
77.79705021605932
 30
0.0
 11
492.0700146435742
 21
77.5520845160593
 31
0.0
  0
LINE
  5
FCC
330
2
100
AcDbEntity
  8
AM_4
100
AcDbLine
 10
492.2584504435741
 20
78.06085991605931
 30
0.0
 11
492.1265452435742
 21
77.79705021605932
 31
0.0
  0
LINE
  5
FCD
330
2
100
AcDbEntity
  8
AM_4
100
AcDbLine
 10
492.4845728435742
 20
78.32466961605931
 30
0.0
 11
492.2584504435741
 21
78.06085991605931
 31
0.0
  0
ARC
  5
FCE
330
2
100
AcDbEntity
  8
AM_4
100
AcDbCircle
 10
484.8777701435741
 20
72.9002737160593
 30
0.0
 40
0.6876240000000001
100
AcDbArc
 50
178.153773
 51
186.666075
  0
LINE
  5
FCF
330
2
100
AcDbEntity
  8
AM_4
100
AcDbLine
 10
484.0988388435741
 20
72.6925774160593
 30
0.0
 11
484.0698490435742
 21
72.9224273160593
 31
0.0
  0
LINE
  5
FD0
330
2
100
AcDbEntity
  8
AM_4
100
AcDbLine
 10
484.1713140435741
 20
72.48964671605929
 30
0.0
 11
484.0988388435741
 21
72.6925774160593
 31
0.0
  0
LINE
  5
FD1
330
2
100
AcDbEntity
  8
AM_4
100
AcDbLine
 10
483.9269692435742
 20
72.9224273160593
 30
0.0
 11
483.9269692435742
 21
72.9224273160593
 31
0.0
  0
LINE
  5
FD2
330
2
100
AcDbEntity
  8
AM_4
100
AcDbLine
 10
484.2127288435742
 20
72.9224273160593
 30
0.0
 11
483.9269692435742
 21
72.9224273160593
 31
0.0
  0
LINE
  5
FD3
330
2
100
AcDbEntity
  8
AM_4
100
AcDbLine
 10
484.2168700435742
 20
72.8230322160593
 30
0.0
 11
484.2127288435742
 21
72.8727301160593
 31
0.0
  0
LINE
  5
FD4
330
2
100
AcDbEntity
  8
AM_4
100
AcDbLine
 10
484.2230818435742
 20
72.77333501605929
 30
0.0
 11
484.2168700435742
 21
72.8230322160593
 31
0.0
  0
LINE
  5
FD5
330
2
100
AcDbEntity
  8
AM_4
100
AcDbLine
 10
484.2334355435743
 20
72.72570841605929
 30
0.0
 11
484.2230818435742
 21
72.77333501605929
 31
0.0
  0
LINE
  5
FD6
330
2
100
AcDbEntity
  8
AM_4
100
AcDbLine
 10
484.2437892435742
 20
72.67808251605931
 30
0.0
 11
484.2334355435743
 21
72.72570841605929
 31
0.0
  0
LINE
  5
FD7
330
2
100
AcDbEntity
  8
AM_4
100
AcDbLine
 10
484.2562135435741
 20
72.6304559160593
 30
0.0
 11
484.2437892435742
 21
72.67808251605931
 31
0.0
  0
LINE
  5
FD8
330
2
100
AcDbEntity
  8
AM_4
100
AcDbLine
 10
484.2727790435742
 20
72.5848999160593
 30
0.0
 11
484.2562135435741
 21
72.6304559160593
 31
0.0
  0
LINE
  5
FD9
330
2
100
AcDbEntity
  8
AM_4
100
AcDbLine
 10
484.2914158435742
 20
72.5393439160593
 30
0.0
 11
484.2727790435742
 21
72.5848999160593
 31
0.0
  0
LINE
  5
FDA
330
2
100
AcDbEntity
  8
AM_4
100
AcDbLine
 10
484.3121232435741
 20
72.4979298160593
 30
0.0
 11
484.2914158435742
 21
72.5393439160593
 31
0.0
  0
LINE
  5
FDB
330
2
100
AcDbEntity
  8
AM_4
100
AcDbLine
 10
484.3328299435742
 20
72.4544444160593
 30
0.0
 11
484.3121232435741
 21
72.4979298160593
 31
0.0
  0
LINE
  5
FDC
330
2
100
AcDbEntity
  8
AM_4
100
AcDbLine
 10
484.3576785435742
 20
72.4130303160593
 30
0.0
 11
484.3328299435742
 21
72.4544444160593
 31
0.0
  0
LINE
  5
FDD
330
2
100
AcDbEntity
  8
AM_4
100
AcDbLine
 10
484.0077275435742
 20
72.4855055160593
 30
0.0
 11
484.0305055435742
 21
72.42752521605931
 31
0.0
  0
LINE
  5
FDE
330
2
100
AcDbEntity
  8
AM_4
100
AcDbLine
 10
483.9870201435742
 20
72.5455564160593
 30
0.0
 11
484.0077275435742
 21
72.4855055160593
 31
0.0
  0
LINE
  5
FDF
330
2
100
AcDbEntity
  8
AM_4
100
AcDbLine
 10
483.9683840435742
 20
72.60560731605931
 30
0.0
 11
483.9870201435742
 21
72.5455564160593
 31
0.0
  0
LINE
  5
FE0
330
2
100
AcDbEntity
  8
AM_4
100
AcDbLine
 10
483.9538884435742
 20
72.6677288160593
 30
0.0
 11
483.9683840435742
 21
72.60560731605931
 31
0.0
  0
LINE
  5
FE1
330
2
100
AcDbEntity
  8
AM_4
100
AcDbLine
 10
483.9435347435742
 20
72.7298503160593
 30
0.0
 11
483.9538884435742
 21
72.6677288160593
 31
0.0
  0
LINE
  5
FE2
330
2
100
AcDbEntity
  8
AM_4
100
AcDbLine
 10
483.9352523435742
 20
72.79404241605931
 30
0.0
 11
483.9435347435742
 21
72.7298503160593
 31
0.0
  0
LINE
  5
FE3
330
2
100
AcDbEntity
  8
AM_4
100
AcDbLine
 10
483.9290398435742
 20
72.85823451605931
 30
0.0
 11
483.9352523435742
 21
72.79404241605931
 31
0.0
  0
LINE
  5
FE4
330
2
100
AcDbEntity
  8
AM_4
100
AcDbLine
 10
483.9269692435742
 20
72.9224273160593
 30
0.0
 11
483.9290398435742
 21
72.85823451605931
 31
0.0
  0
LINE
  5
FE5
330
2
100
AcDbEntity
  8
AM_4
100
AcDbLine
 10
484.1905031435742
 20
72.9224273160593
 30
0.0
 11
484.1905031435742
 21
82.90121991605932
 31
0.0
  0
LINE
  5
FE6
330
2
100
AcDbEntity
  8
AM_4
100
AcDbLine
 10
483.9269692435742
 20
72.9224273160593
 30
0.0
 11
483.9269692435742
 21
82.90121991605932
 31
0.0
  0
LINE
  5
FE7
330
2
100
AcDbEntity
  8
AM_4
100
AcDbLine
 10
484.0698490435742
 20
72.9224273160593
 30
0.0
 11
484.0698490435742
 21
82.90121991605932
 31
0.0
  0
LINE
  5
FE8
330
2
100
AcDbEntity
  8
AM_4
100
AcDbLine
 10
484.2127288435742
 20
72.8727301160593
 30
0.0
 11
484.2127288435742
 21
82.95091711605932
 31
0.0
  0
LINE
  5
FE9
330
2
100
AcDbEntity
  8
AM_4
100
AcDbLine
 10
484.4177294435742
 20
72.1272714160593
 30
0.0
 11
484.2727790435742
 21
72.2867167160593
 31
0.0
  0
LINE
  5
FEA
330
2
100
AcDbEntity
  8
AM_4
100
AcDbLine
 10
484.6165189435743
 20
72.13348321605931
 30
0.0
 11
484.5792453435742
 21
72.16247301605929
 31
0.0
  0
LINE
  5
FEB
330
2
100
AcDbEntity
  8
AM_4
100
AcDbLine
 10
484.1858089435742
 20
72.16247301605929
 30
0.0
 11
484.2251531435741
 21
72.11484711605931
 31
0.0
  0
LINE
  5
FEC
330
2
100
AcDbEntity
  8
AM_4
100
AcDbLine
 10
484.5771747435742
 20
71.9823210160593
 30
0.0
 11
484.4177294435742
 21
72.1272714160593
 31
0.0
  0
LINE
  5
FED
330
2
100
AcDbEntity
  8
AM_4
100
AcDbLine
 10
484.7801054435741
 20
71.8808553160593
 30
0.0
 11
484.5771747435742
 21
71.9823210160593
 31
0.0
  0
LINE
  5
FEE
330
2
100
AcDbEntity
  8
AM_4
100
AcDbLine
 10
484.9830361435742
 20
71.80838011605931
 30
0.0
 11
484.7801054435741
 21
71.8808553160593
 31
0.0
  0
LINE
  5
FEF
330
2
100
AcDbEntity
  8
AM_4
100
AcDbLine
 10
485.2128853435742
 20
71.79388521605931
 30
0.0
 11
484.9830361435742
 21
71.80838011605931
 31
0.0
  0
LINE
  5
FF0
330
2
100
AcDbEntity
  8
AM_4
100
AcDbLine
 10
485.2128853435742
 20
71.65100611605931
 30
0.0
 11
485.2128853435742
 21
71.65100611605931
 31
0.0
  0
LINE
  5
FF1
330
2
100
AcDbEntity
  8
AM_4
100
AcDbLine
 10
485.2128853435742
 20
71.9367650160593
 30
0.0
 11
485.2128853435742
 21
71.65100611605931
 31
0.0
  0
LINE
  5
FF2
330
2
100
AcDbEntity
  8
AM_4
100
AcDbLine
 10
484.6579330435742
 20
72.1065640160593
 30
0.0
 11
484.6165189435743
 21
72.13348321605931
 31
0.0
  0
LINE
  5
FF3
330
2
100
AcDbEntity
  8
AM_4
100
AcDbLine
 10
484.6972765435741
 20
72.0796448160593
 30
0.0
 11
484.6579330435742
 21
72.1065640160593
 31
0.0
  0
LINE
  5
FF4
330
2
100
AcDbEntity
  8
AM_4
100
AcDbLine
 10
484.7407619435741
 20
72.0547962160593
 30
0.0
 11
484.6972765435741
 21
72.0796448160593
 31
0.0
  0
LINE
  5
FF5
330
2
100
AcDbEntity
  8
AM_4
100
AcDbLine
 10
484.7821760435741
 20
72.0340888160593
 30
0.0
 11
484.7407619435741
 21
72.0547962160593
 31
0.0
  0
LINE
  5
FF6
330
2
100
AcDbEntity
  8
AM_4
100
AcDbLine
 10
484.8277320435743
 20
72.0133814160593
 30
0.0
 11
484.7821760435741
 21
72.0340888160593
 31
0.0
  0
LINE
  5
FF7
330
2
100
AcDbEntity
  8
AM_4
100
AcDbLine
 10
484.8277320435743
 20
72.0133814160593
 30
0.0
 11
484.9188433435743
 21
71.9802504160593
 31
0.0
  0
LINE
  5
FF8
330
2
100
AcDbEntity
  8
AM_4
100
AcDbLine
 10
484.9188433435743
 20
71.9802504160593
 30
0.0
 11
485.0140965435742
 21
71.9554011160593
 31
0.0
  0
LINE
  5
FF9
330
2
100
AcDbEntity
  8
AM_4
100
AcDbLine
 10
485.0617231435742
 20
71.94711871605931
 30
0.0
 11
485.0140965435742
 21
71.9554011160593
 31
0.0
  0
LINE
  5
FFA
330
2
100
AcDbEntity
  8
AM_4
100
AcDbLine
 10
485.1114203435741
 20
71.9409062160593
 30
0.0
 11
485.0617231435742
 21
71.94711871605931
 31
0.0
  0
LINE
  5
FFB
330
2
100
AcDbEntity
  8
AM_4
100
AcDbLine
 10
485.1631881435742
 20
71.9367650160593
 30
0.0
 11
485.1114203435741
 21
71.9409062160593
 31
0.0
  0
LINE
  5
FFC
330
2
100
AcDbEntity
  8
AM_4
100
AcDbLine
 10
485.1486932435742
 20
71.6530767160593
 30
0.0
 11
485.2128853435742
 21
71.65100611605931
 31
0.0
  0
LINE
  5
FFD
330
2
100
AcDbEntity
  8
AM_4
100
AcDbLine
 10
485.0203090435742
 20
71.66550101605931
 30
0.0
 11
485.1486932435742
 21
71.6530767160593
 31
0.0
  0
LINE
  5
FFE
330
2
100
AcDbEntity
  8
AM_4
100
AcDbLine
 10
484.8960653435742
 20
71.6903496160593
 30
0.0
 11
485.0203090435742
 21
71.66550101605931
 31
0.0
  0
LINE
  5
FFF
330
2
100
AcDbEntity
  8
AM_4
100
AcDbLine
 10
484.8360151435741
 20
71.7089857160593
 30
0.0
 11
484.8960653435742
 21
71.6903496160593
 31
0.0
  0
LINE
  5
1000
330
2
100
AcDbEntity
  8
AM_4
100
AcDbLine
 10
484.7759642435741
 20
71.72969311605931
 30
0.0
 11
484.8360151435741
 21
71.7089857160593
 31
0.0
  0
LINE
  5
1001
330
2
100
AcDbEntity
  8
AM_4
100
AcDbLine
 10
484.7179839435742
 20
71.7504005160593
 30
0.0
 11
484.7759642435741
 21
71.72969311605931
 31
0.0
  0
LINE
  5
1002
330
2
100
AcDbEntity
  8
AM_4
100
AcDbLine
 10
484.6600036435741
 20
71.77731971605931
 30
0.0
 11
484.7179839435742
 21
71.7504005160593
 31
0.0
  0
LINE
  5
1003
330
2
100
AcDbEntity
  8
AM_4
100
AcDbLine
 10
484.6040946435742
 20
71.8042389160593
 30
0.0
 11
484.6600036435741
 21
71.77731971605931
 31
0.0
  0
LINE
  5
1004
330
2
100
AcDbEntity
  8
AM_4
100
AcDbLine
 10
484.5523261435743
 20
71.8353000160593
 30
0.0
 11
484.6040946435742
 21
71.8042389160593
 31
0.0
  0
LINE
  5
1005
330
2
100
AcDbEntity
  8
AM_4
100
AcDbLine
 10
484.4984877435742
 20
71.8684310160593
 30
0.0
 11
484.5523261435743
 21
71.8353000160593
 31
0.0
  0
LINE
  5
1006
330
2
100
AcDbEntity
  8
AM_4
100
AcDbLine
 10
484.4487905435742
 20
71.90363331605931
 30
0.0
 11
484.4984877435742
 21
71.8684310160593
 31
0.0
  0
LINE
  5
1007
330
2
100
AcDbEntity
  8
AM_4
100
AcDbLine
 10
484.4011639435742
 20
71.9409062160593
 30
0.0
 11
484.4487905435742
 21
71.90363331605931
 31
0.0
  0
LINE
  5
1008
330
2
100
AcDbEntity
  8
AM_4
100
AcDbLine
 10
484.3535373435742
 20
71.9823210160593
 30
0.0
 11
484.4011639435742
 21
71.9409062160593
 31
0.0
  0
LINE
  5
1009
330
2
100
AcDbEntity
  8
AM_4
100
AcDbLine
 10
484.3079813435742
 20
72.0237351160593
 30
0.0
 11
484.3535373435742
 21
71.9823210160593
 31
0.0
  0
LINE
  5
100A
330
2
100
AcDbEntity
  8
AM_4
100
AcDbLine
 10
484.2665672435741
 20
72.06722051605931
 30
0.0
 11
484.3079813435742
 21
72.0237351160593
 31
0.0
  0
LINE
  5
100B
330
2
100
AcDbEntity
  8
AM_4
100
AcDbLine
 10
484.2251531435741
 20
72.11484711605931
 30
0.0
 11
484.2665672435741
 21
72.06722051605931
 31
0.0
  0
LINE
  5
100C
330
2
100
AcDbEntity
  8
AM_4
100
AcDbLine
 10
484.4135882435741
 20
72.3343426160593
 30
0.0
 11
484.3845984435741
 21
72.37368681605929
 31
0.0
  0
LINE
  5
100D
330
2
100
AcDbEntity
  8
AM_4
100
AcDbLine
 10
484.4425780435742
 20
72.29706971605931
 30
0.0
 11
484.4135882435741
 21
72.3343426160593
 31
0.0
  0
LINE
  5
100E
330
2
100
AcDbEntity
  8
AM_4
100
AcDbLine
 10
484.4736391435742
 20
72.26186811605931
 30
0.0
 11
484.4425780435742
 21
72.29706971605931
 31
0.0
  0
LINE
  5
100F
330
2
100
AcDbEntity
  8
AM_4
100
AcDbLine
 10
484.4736391435742
 20
72.26186811605931
 30
0.0
 11
484.5419724435742
 21
72.19353411605931
 31
0.0
  0
LINE
  5
1010
330
2
100
AcDbEntity
  8
AM_4
100
AcDbLine
 10
484.5792453435742
 20
72.16247301605929
 30
0.0
 11
484.5419724435742
 21
72.19353411605931
 31
0.0
  0
LINE
  5
1011
330
2
100
AcDbEntity
  8
AM_4
100
AcDbLine
 10
484.1506066435742
 20
72.2121702160593
 30
0.0
 11
484.1858089435742
 21
72.16247301605929
 31
0.0
  0
LINE
  5
1012
330
2
100
AcDbEntity
  8
AM_4
100
AcDbLine
 10
484.1174756435743
 20
72.2639387160593
 30
0.0
 11
484.1506066435742
 21
72.2121702160593
 31
0.0
  0
LINE
  5
1013
330
2
100
AcDbEntity
  8
AM_4
100
AcDbLine
 10
484.0864145435743
 20
72.31570651605931
 30
0.0
 11
484.1174756435743
 21
72.2639387160593
 31
0.0
  0
LINE
  5
1014
330
2
100
AcDbEntity
  8
AM_4
100
AcDbLine
 10
484.0574247435742
 20
72.37161621605931
 30
0.0
 11
484.0864145435743
 21
72.31570651605931
 31
0.0
  0
ARC
  5
1015
330
2
100
AcDbEntity
  8
AM_4
100
AcDbCircle
 10
485.2127502435742
 20
72.93942401605931
 30
0.0
 40
1.024883999999999
100
AcDbArc
 50
186.666075
 51
270.0077250000006
  0
ARC
  5
1016
330
2
100
AcDbEntity
  8
AM_4
100
AcDbCircle
 10
485.2127502435742
 20
72.93942401605931
 30
0.0
 40
1.288417899999999
100
AcDbArc
 50
186.666075
 51
270.0077250000006
  0
ARC
  5
1017
330
2
100
AcDbEntity
  8
AM_4
100
AcDbCircle
 10
485.2127502435742
 20
72.93942401605931
 30
0.0
 40
1.002658999999999
100
AcDbArc
 50
186.666075
 51
270.0077250000006
  0
LINE
  5
1018
330
2
100
AcDbEntity
  8
AM_4
100
AcDbLine
 10
484.2727790435742
 20
72.2867167160593
 30
0.0
 11
484.1713140435741
 21
72.48964671605929
 31
0.0
  0
LINE
  5
1019
330
2
100
AcDbEntity
  8
AM_4
100
AcDbLine
 10
484.3845984435741
 20
72.37368681605929
 30
0.0
 11
484.3576785435742
 21
72.4130303160593
 31
0.0
  0
LINE
  5
101A
330
2
100
AcDbEntity
  8
AM_4
100
AcDbLine
 10
484.0305055435742
 20
72.42752521605931
 30
0.0
 11
484.0574247435742
 21
72.37161621605931
 31
0.0
  0
LINE
  5
101B
330
2
100
AcDbEntity
  8
AM_4
100
AcDbLine
 10
515.9309258435741
 20
71.9186812160593
 30
0.0
 11
485.2128888435742
 21
71.91453931605931
 31
0.0
  0
LINE
  5
101C
330
2
100
AcDbEntity
  8
AM_4
100
AcDbLine
 10
485.2128853435742
 20
83.92360281605929
 30
0.0
 11
515.8263892435742
 21
83.92360281605929
 31
0.0
  0
LINE
  5
101D
330
2
100
AcDbEntity
  8
AM_4
100
AcDbLine
 10
515.9420404435742
 20
71.6551487160593
 30
0.0
 11
485.2129238435742
 21
71.65100611605931
 31
0.0
  0
LINE
  5
101E
330
2
100
AcDbEntity
  8
AM_4
100
AcDbLine
 10
485.2128853435742
 20
84.18713601605929
 30
0.0
 11
515.8263892435742
 21
84.18713601605929
 31
0.0
  0
LINE
  5
101F
330
2
100
AcDbEntity
  8
AM_4
100
AcDbLine
 10
515.9299255435741
 20
71.9409062160593
 30
0.0
 11
485.2128853435742
 21
71.9367650160593
 31
0.0
  0
LINE
  5
1020
330
2
100
AcDbEntity
  8
AM_4
100
AcDbLine
 10
515.8263892435742
 20
71.79388521605931
 30
0.0
 11
485.2128853435742
 21
71.79388521605931
 31
0.0
  0
LINE
  5
1021
330
2
100
AcDbEntity
  8
AM_4
100
AcDbLine
 10
485.2128853435742
 20
84.04425691605931
 30
0.0
 11
515.8263892435742
 21
84.04425691605931
 31
0.0
  0
LINE
  5
1022
330
2
100
AcDbEntity
  8
AM_4
100
AcDbLine
 10
485.2128853435742
 20
71.65100611605931
 30
0.0
 11
515.8263892435742
 21
71.65100611605931
 31
0.0
  0
LINE
  5
1023
330
2
100
AcDbEntity
  8
AM_4
100
AcDbLine
 10
485.1631881435742
 20
83.9013771160593
 30
0.0
 11
515.8781570435742
 21
83.9013771160593
 31
0.0
  0
LINE
  5
1024
330
2
100
AcDbEntity
  8
AM_4
100
AcDbLine
 10
485.1631881435742
 20
71.9367650160593
 30
0.0
 11
515.8781570435742
 21
71.9367650160593
 31
0.0
  0
HATCH
  5
1025
330
2
100
AcDbEntity
  8
AM_4
100
AcDbHatch
 10
0.0
 20
0.0
 30
0.0
210
0.0
220
0.0
230
1.0
  2
SOLID
 70
     1
 71
     0
 91
       13
 92
        7
 72
     0
 73
     1
 93
        4
 10
484.2127284980799
 20
82.90121997591034
 10
484.0698489145374
 20
82.90121997591034
 10
484.0698489145374
 20
72.92242703254292
 10
484.2127284980805
 20
72.92242703254292
 97
        0
 92
        7
 72
     0
 73
     1
 93
        4
 10
515.8263893958568
 20
71.93676497795829
 10
485.2128855828794
 20
71.93676497795829
 10
485.2128855828794
 20
71.79388539441572
 10
515.8263893958576
 20
71.79388539441572
 97
        0
 92
        7
 72
     0
 73
     1
 93
        4
 10
515.8263893958576
 20
84.04425664425204
 10
485.2128855828794
 20
84.04425664425204
 10
485.2128855828794
 20
83.9013770607093
 10
515.8263893958576
 20
83.9013770607093
 97
        0
 92
        7
 72
     0
 73
     1
 93
        4
 10
517.1123056477418
 20
82.90121997591034
 10
516.969426064199
 20
82.90121997591034
 10
516.969426064199
 20
72.92242703254292
 10
517.1123056477418
 20
72.92242703254292
 97
        0
 92
        7
 72
     0
 73
     1
 93
       42
 10
484.7801053950473
 20
83.95728646296513
 10
484.9830358180498
 20
84.015266583823
 10
485.2128855828794
 20
84.04425664425204
 10
485.2128855828794
 20
84.18713622779462
 10
485.148693306215
 20
84.18506550919273
 10
485.0845010295522
 20
84.17885335338651
 10
485.0203087528867
 20
84.17057047897802
 10
484.9561164762231
 20
84.16021688596766
 10
484.8939949181611
 20
84.14572185575352
 10
484.8339440787007
 20
84.12708538833504
 10
484.7738932392391
 20
84.10637820231352
 10
484.7159131183822
 20
84.08360029769127
 10
484.6600037161269
 20
84.05875167446581
 10
484.6040943138713
 20
84.0297616140379
 10
484.5502556302165
 20
83.99870083500696
 10
484.4984876651728
 20
83.96349861877116
 10
484.448790418715
 20
83.92829640253683
 10
484.3990931722689
 20
83.88895274909591
 10
484.3514666444193
 20
83.84960909565762
 10
484.3079815537747
 20
83.80612400501348
 10
484.2644964631319
 20
83.76056819576708
 10
484.2251528096938
 20
83.7150123865241
 10
484.1858091562532
 20
83.66531514007471
 10
484.1506069400181
 20
83.61561789362188
 10
484.1154047237821
 20
83.56384992857114
 10
484.0843439447517
 20
83.51001124491645
 10
484.055353884323
 20
83.4541018426627
 10
484.0305052610988
 20
83.39819244040915
 10
484.0077273564753
 20
83.34021231955089
 10
483.9870201704534
 20
83.28016148008655
 10
483.9683837030358
 20
83.22011064062754
 10
483.9538886728221
 20
83.15798908256718
 10
483.9435350798118
 20
83.09379680590195
 10
483.9352522054032
 20
83.02960452923704
 10
483.9290400495972
 20
82.96541225257485
 10
483.9269693309948
 20
82.90121997591034
 10
484.0698489145374
 20
82.90121997591034
 10
484.0988389749661
 20
83.13106974073948
 10
484.171314126038
 20
83.34849519395653
 10
484.2727793375404
 20
83.53693058674569
 10
484.4177296396857
 20
83.7108709493188
 10
484.5771749720438
 20
83.84132622124951
 97
        0
 92
        7
 72
     0
 73
     1
 93
       42
 10
484.8277319228949
 20
83.82268975383082
 10
484.8732877321399
 20
83.83925550264724
 10
484.9188435413867
 20
83.85582125146385
 10
484.9664700692329
 20
83.87031628167799
 10
485.0140965970808
 20
83.88066987468798
 10
485.0637938435307
 20
83.89102346769911
 10
485.1134910899803
 20
83.89723562350514
 10
485.1631883364295
 20
83.9013770607093
 10
485.2128855828794
 20
83.9013770607093
 10
485.2128855828794
 20
84.04425664425204
 10
484.9830358180498
 20
84.015266583823
 10
484.7801053950465
 20
83.95728646296493
 10
484.5771749720446
 20
83.84132622124914
 10
484.417729639685
 20
83.71087094931846
 10
484.2727793375404
 20
83.53693058674492
 10
484.1713141260393
 20
83.34849519395712
 10
484.0988389749661
 20
83.1310697407393
 10
484.0698489145374
 20
82.90121997591034
 10
484.2127284980805
 20
82.90121997591015
 10
484.2127284980805
 20
82.95091722236069
 10
484.2168699352848
 20
83.00061446880992
 10
484.2230820910907
 20
83.05031171525877
 10
484.2334356840985
 20
83.10000896171422
 10
484.2437892771117
 20
83.14763548955665
 10
484.2582843073286
 20
83.19319129880701
 10
484.2727793375404
 20
83.24081782664944
 10
484.2914158049604
 20
83.28637363589487
 10
484.3121229909806
 20
83.32985872653711
 10
484.3349008956013
 20
83.37334381718125
 10
484.3597495188268
 20
83.41475818922312
 10
484.3845981420518
 20
83.45617256126461
 10
484.4135882024834
 20
83.495516214708
 10
484.4425782629101
 20
83.53278914954307
 10
484.4757097605422
 20
83.57006208437699
 10
484.5088412581763
 20
83.60526430061339
 10
484.5440434744116
 20
83.63839579824583
 10
484.5813164092488
 20
83.66945657727768
 10
484.6185893440857
 20
83.70051735630864
 10
484.6579329975253
 20
83.72950741673767
 10
484.6993473695664
 20
83.7543560399624
 10
484.7407617416068
 20
83.7792046631873
 10
484.7842468322514
 20
83.80198256781008
 97
        0
 92
        7
 72
     0
 73
     1
 93
        4
 10
515.8263893958576
 20
71.79388539441572
 10
485.2128855828794
 20
71.79388539441572
 10
485.2128855828794
 20
71.65100581087315
 10
515.8263893958576
 20
71.65100581087315
 97
        0
 92
       22
 72
     0
 73
     1
 93
       42
 10
516.7809906714111
 20
72.28671642170775
 10
516.8824558829122
 20
72.48964684471051
 10
516.9549310339846
 20
72.6925772677134
 10
516.969426064199
 20
72.92242703254292
 10
516.8265464806563
 20
72.92242703254292
 10
516.8265464806563
 20
72.87272978609275
 10
516.8224050434522
 20
72.8230325396424
 10
516.8161928876466
 20
72.77333529319299
 10
516.8079100132383
 20
72.72363804674433
 10
516.7954857016228
 20
72.67601151888563
 10
516.783061390013
 20
72.63045570965137
 10
516.7664956411961
 20
72.5848999004059
 10
516.7499298923814
 20
72.53934409116158
 10
516.7292227063588
 20
72.4958590005169
 10
516.7085155203383
 20
72.45237390987333
 10
516.6836668971141
 20
72.41303025643202
 10
516.6588182738894
 20
72.37161588439301
 10
516.6298282134602
 20
72.33434294955356
 10
516.6008381530312
 20
72.29499929611549
 10
516.5697773740012
 20
72.2597970798825
 10
516.5366458763649
 20
72.22666558224759
 10
516.5014436601338
 20
72.19353408461515
 10
516.4662414438971
 20
72.16247330558349
 10
516.426897790457
 20
72.13348324515482
 10
516.3875541370173
 20
72.10449318472521
 10
516.3482104835748
 20
72.0796445615001
 10
516.3067961115378
 20
72.05479593827599
 10
516.2633110208941
 20
72.03408875225427
 10
516.2177552116482
 20
72.01338156623527
 10
516.1721994024029
 20
71.99681581741845
 10
516.1266435931577
 20
71.98025006860186
 10
516.0790170653084
 20
71.96782575698904
 10
516.0293198188602
 20
71.95747216397904
 10
515.97962257241
 20
71.94711857096888
 10
515.929925325961
 20
71.94090641516265
 10
515.8781573609096
 20
71.93676497795829
 10
515.8263893958576
 20
71.93676497795829
 10
515.8263893958576
 20
71.79388539441572
 10
516.0562391606872
 20
71.80838042463026
 10
516.2736646139046
 20
71.88085557570267
 10
516.4621000066921
 20
71.98232078720415
 10
516.6360403692668
 20
72.12727108934934
 97
        0
 92
        7
 72
     0
 73
     1
 93
       42
 10
516.8182636062483
 20
72.11484677773634
 10
516.8576072596883
 20
72.16247330558442
 10
516.8928094759232
 20
72.2121705520327
 10
516.9259409735563
 20
72.26393851708533
 10
516.9570017525845
 20
72.31777720073606
 10
516.985991813016
 20
72.37161588439374
 10
517.0108404362418
 20
72.4275252866477
 10
517.0336183408644
 20
72.48550540750636
 10
517.054325526884
 20
72.5455562469682
 10
517.0708912756997
 20
72.60560708642344
 10
517.0853863059155
 20
72.66772864448984
 10
517.0978106175271
 20
72.72985020255058
 10
517.1040227733335
 20
72.79404247921468
 10
517.11023492914
 20
72.85823475587995
 10
517.1123056477418
 20
72.92242703254292
 10
516.969426064199
 20
72.92242703254292
 10
516.9549310339846
 20
72.6925772677136
 10
516.8824558829122
 20
72.4896468447103
 10
516.7809906714105
 20
72.28671642170795
 10
516.6360403692656
 20
72.12727108934821
 10
516.4621000066921
 20
71.98232078720375
 10
516.2736646139037
 20
71.8808555757025
 10
516.0562391606872
 20
71.80838042463026
 10
515.8263893958576
 20
71.79388539441572
 10
515.8263893958576
 20
71.65100581087315
 10
515.8905816725216
 20
71.65307652947504
 10
515.9568446677875
 20
71.65928868528128
 10
516.0231076630544
 20
71.66550084108749
 10
516.085229221116
 20
71.67792515269974
 10
516.147350779177
 20
71.69034946431219
 10
516.2094723372407
 20
71.70898593173126
 10
516.2695231766936
 20
71.72969311775124
 10
516.3275032975582
 20
71.75040030377218
 10
516.3854834184136
 20
71.77731964559801
 10
516.4393221020719
 20
71.80423898742685
 10
516.4931607857226
 20
71.83529976645742
 10
516.5469994693779
 20
71.86843126408965
 10
516.5966967158255
 20
71.90363348032494
 10
516.6463939622754
 20
71.94090641516244
 10
516.6919497715221
 20
71.98232078720394
 10
516.737505580767
 20
72.02373515924583
 10
516.7789199528097
 20
72.06722024988899
 97
        0
 92
        7
 72
     0
 73
     1
 93
       42
 10
516.6360403692656
 20
83.71087094931903
 10
516.4621000066926
 20
83.84132622124894
 10
516.2736646139037
 20
83.95728646296513
 10
516.0562391606872
 20
84.015266583823
 10
515.8263893958568
 20
84.04425664425204
 10
515.8263893958576
 20
83.9013770607093
 10
515.8781573609091
 20
83.9013770607093
 10
515.9299253259614
 20
83.89723562350514
 10
515.97962257241
 20
83.88895274909666
 10
516.0293198188602
 20
83.88066987468855
 10
516.0769463467075
 20
83.87031628167818
 10
516.1245728745552
 20
83.85582125146365
 10
516.1721994024031
 20
83.83925550264706
 10
516.2177552116482
 20
83.82268975383082
 10
516.2612403022925
 20
83.80198256781008
 10
516.3047253929343
 20
83.77920466318764
 10
516.3461397649772
 20
83.7543560399624
 10
516.3875541370183
 20
83.72950741673729
 10
516.4268977904559
 20
83.70051735630902
 10
516.4641707252951
 20
83.67152729587941
 10
516.50144366013
 20
83.63839579824659
 10
516.5366458763673
 20
83.60526430061321
 10
516.5677066553974
 20
83.57006208437965
 10
516.6008381530304
 20
83.53485986814323
 10
516.6298282134606
 20
83.49551621470423
 10
516.6567475552872
 20
83.45617256126461
 10
516.6836668971135
 20
83.41682890782536
 10
516.7064448017359
 20
83.37334381718145
 10
516.7292227063598
 20
83.33192944513957
 10
516.7499298923805
 20
83.28637363589374
 10
516.7664956411961
 20
83.24081782664944
 10
516.783061390013
 20
83.19526201740245
 10
516.7954857016256
 20
83.14763548955625
 10
516.8079100132383
 20
83.10000896170834
 10
516.8161928876449
 20
83.05031171526216
 10
516.8224050434522
 20
83.00268518741388
 10
516.8265464806563
 20
82.95091722235994
 10
516.8265464806563
 20
82.90121997591034
 10
516.969426064199
 20
82.90121997591034
 10
516.9549310339846
 20
83.13106974074063
 10
516.8824558829127
 20
83.34849519395673
 10
516.7809906714111
 20
83.53693058674492
 97
        0
 92
        7
 72
     0
 73
     1
 93
       42
 10
516.6940204901232
 20
83.84753837705629
 10
516.6463939622773
 20
83.88895274909607
 10
516.5987674344288
 20
83.92829640253646
 10
516.5469994693768
 20
83.96349861877133
 10
516.4952315043255
 20
83.99870083500658
 10
516.4413928206715
 20
84.02976161403774
 10
516.3854834184166
 20
84.05875167446581
 10
516.3295740161607
 20
84.08360029769108
 10
516.2695231767001
 20
84.10637820231391
 10
516.2094723372399
 20
84.12708538833465
 10
516.1494214977802
 20
84.14572185575352
 10
516.0852292211158
 20
84.16021688596803
 10
516.0231076630532
 20
84.17057047897818
 10
515.9568446677875
 20
84.17885335338651
 10
515.8926523911236
 20
84.18506550919255
 10
515.8263893958576
 20
84.18713622779462
 10
515.8263893958576
 20
84.04425664425204
 10
516.0562391606872
 20
84.015266583823
 10
516.2736646139037
 20
83.95728646296513
 10
516.4621000066926
 20
83.8413262212493
 10
516.6360403692656
 20
83.71087094931903
 10
516.7809906714111
 20
83.53693058674551
 10
516.8824558829127
 20
83.34849519395673
 10
516.9549310339846
 20
83.13106974073965
 10
516.969426064199
 20
82.90121997591034
 10
517.1123056477418
 20
82.90121997591034
 10
517.11023492914
 20
82.96541225257351
 10
517.1040227733335
 20
83.02960452923839
 10
517.0978106175271
 20
83.09379680590213
 10
517.0853863059144
 20
83.15591836397041
 10
517.0708912756997
 20
83.21803992202754
 10
517.054325526884
 20
83.27809076148657
 10
517.0336183408636
 20
83.3381416009456
 10
517.0108404362401
 20
83.39612172180366
 10
516.985991813016
 20
83.45410184266254
 10
516.9570017525873
 20
83.50794052631625
 10
516.9280116921583
 20
83.56177920996984
 10
516.8928094759232
 20
83.61561789362378
 10
516.8576072596859
 20
83.66531514007224
 10
516.8203343248498
 20
83.71501238652298
 10
516.7789199528086
 20
83.76056819576859
 10
516.737505580767
 20
83.80612400501387
 97
        0
 92
       23
 72
     0
 73
     1
 93
       42
 10
484.5088412581763
 20
72.22666558224798
 10
484.4736390419414
 20
72.26186779848285
 10
484.4425782629114
 20
72.29707001471737
 10
484.4135882024828
 20
72.33434294955603
 10
484.3845981420521
 20
72.37368660299449
 10
484.357678800224
 20
72.41303025643488
 10
484.3328301769998
 20
72.4544446284756
 10
484.3121229909806
 20
72.49792971911671
 10
484.2914158049592
 20
72.53934409115953
 10
484.2727793375383
 20
72.584899900408
 10
484.2562135887235
 20
72.6304557096508
 10
484.2437892771108
 20
72.6780822375002
 10
484.2334356841006
 20
72.72570876534641
 10
484.2230820910907
 20
72.77333529319337
 10
484.2168699352837
 20
72.82303253964316
 10
484.2127284980805
 20
72.87272978609391
 10
484.2127284980805
 20
72.92242703254292
 10
484.0698489145374
 20
72.92242703254292
 10
484.0988389749661
 20
72.69257726771266
 10
484.171314126038
 20
72.48964684471144
 10
484.2727793375404
 20
72.28671642170795
 10
484.417729639685
 20
72.12727108934918
 10
484.5771749720438
 20
71.98232078720394
 10
484.7801053950465
 20
71.88085557570267
 10
484.9830358180494
 20
71.80838042463026
 10
485.2128855828794
 20
71.79388539441572
 10
485.2128855828794
 20
71.93676497795829
 10
485.1631883364295
 20
71.93676497795829
 10
485.1114203713779
 20
71.94090641516244
 10
485.0617231249279
 20
71.94711857096888
 10
485.01409659708
 20
71.95540144537699
 10
484.9664700692329
 20
71.96782575698941
 10
484.9188435413867
 20
71.98025006860169
 10
484.8732877321399
 20
71.99681581741845
 10
484.8277319228947
 20
72.01338156623506
 10
484.7821761136489
 20
72.03408875225543
 10
484.7407617416064
 20
72.05479593827672
 10
484.6972766509651
 20
72.07964456150088
 10
484.6579329975253
 20
72.10656390332821
 10
484.6165186254834
 20
72.13348324515482
 10
484.5792456906464
 20
72.16247330558349
 10
484.5419727558093
 20
72.19353408461478
 97
        0
 92
        7
 72
     0
 73
     1
 93
       42
 10
484.4177296396841
 20
72.12727108934918
 10
484.2727793375404
 20
72.28671642170795
 10
484.171314126038
 20
72.48964684471144
 10
484.0988389749661
 20
72.69257726771304
 10
484.0698489145374
 20
72.92242703254292
 10
483.9269693309948
 20
72.92242703254292
 10
483.9290400495972
 20
72.85823475587938
 10
483.9352522054032
 20
72.79404247921334
 10
483.9435350798114
 20
72.72985020254999
 10
483.9538886728221
 20
72.66772864448815
 10
483.9683837030358
 20
72.60560708642495
 10
483.9870201704553
 20
72.54555624696592
 10
484.0077273564745
 20
72.48550540750824
 10
484.0305052610976
 20
72.42752528664957
 10
484.0574246029266
 20
72.3716158843894
 10
484.0864146633532
 20
72.31570648213793
 10
484.1174754423868
 20
72.26393851708285
 10
484.1506069400188
 20
72.2121705520327
 10
484.1858091562532
 20
72.16247330558442
 10
484.225152809692
 20
72.11484677773729
 10
484.2665671817325
 20
72.06722024988899
 10
484.3079815537755
 20
72.02373515924583
 10
484.3535373630215
 20
71.98232078720545
 10
484.4011638908691
 20
71.94090641516187
 10
484.4487904187161
 20
71.90363348032548
 10
484.4984876651648
 20
71.86843126409041
 10
484.5523263488164
 20
71.83529976645798
 10
484.6040943138709
 20
71.8042389874263
 10
484.6600037161266
 20
71.77731964559952
 10
484.7179838369842
 20
71.75040030377255
 10
484.7759639578385
 20
71.72969311775293
 10
484.8360147973032
 20
71.70898593173086
 10
484.8960656367633
 20
71.69034946431219
 10
484.9581871948254
 20
71.67792515269974
 10
485.0203087528872
 20
71.66550084108749
 10
485.0845010295511
 20
71.65928868528128
 10
485.148693306215
 20
71.65307652947523
 10
485.2128855828794
 20
71.65100581087315
 10
485.2128855828794
 20
71.79388539441572
 10
484.9830358180494
 20
71.80838042463026
 10
484.7801053950473
 20
71.88085557570267
 10
484.5771749720438
 20
71.98232078720394
 97
        0
 75
     0
 76
     1
 47
0.02498
 98
       13
 10
484.1242929435742
 20
79.13263271605931
 10
490.5263256435741
 20
71.82690911605931
 10
497.9481561435742
 20
83.94648161605932
 10
517.0409494435741
 20
79.64233351605931
 10
484.3431647435742
 20
83.83515081605931
 10
484.5736572435741
 20
83.80223681605929
 10
504.8571813435741
 20
71.72235361605931
 10
516.6124052435742
 20
72.24899791605931
 10
516.7770452435742
 20
72.0844216160593
 10
516.6124052435742
 20
83.67057521605932
 10
516.6782605435741
 20
83.83515081605931
 10
484.4419466435741
 20
72.18316711605931
 10
484.4090200435742
 20
72.0185908160593
450
        0
451
        0
460
0.0
461
0.0
452
        0
462
0.0
453
        0
470

  0
HATCH
  5
1026
330
2
100
AcDbEntity
  8
AM_4
100
AcDbHatch
 10
0.0
 20
0.0
 30
0.0
210
0.0
220
0.0
230
1.0
  2
SOLID
 70
     1
 71
     0
 91
        3
 92
        7
 72
     0
 73
     1
 93
        4
 10
515.8263893958576
 20
84.18713622779462
 10
485.2128855828794
 20
84.18713622779462
 10
485.2128855828794
 20
84.04425664425204
 10
515.8263893958576
 20
84.04425664425204
 97
        0
 92
        7
 72
     0
 73
     1
 93
        4
 10
484.0698489145374
 20
82.90121997591034
 10
483.9269693309948
 20
82.90121997591034
 10
483.9269693309948
 20
72.92242703254292
 10
484.0698489145374
 20
72.92242703254292
 97
        0
 92
        7
 72
     0
 73
     1
 93
       42
 10
484.3349008956009
 20
83.37334381718088
 10
484.3597495188268
 20
83.41475818922312
 10
484.3845981420518
 20
83.45617256126461
 10
484.4135882024834
 20
83.495516214708
 10
484.4425782629101
 20
83.53278914954307
 10
484.4757097605422
 20
83.57006208437699
 10
484.5088412581763
 20
83.60526430061339
 10
484.5440434744116
 20
83.63839579824583
 10
484.5813164092488
 20
83.66945657727768
 10
484.6185893440857
 20
83.70051735630864
 10
484.6579329975253
 20
83.72950741673767
 10
484.6993473695664
 20
83.7543560399624
 10
484.7407617416068
 20
83.7792046631873
 10
484.7842468322514
 20
83.80198256781008
 10
484.8277319228947
 20
83.82268975383082
 10
484.8732877321399
 20
83.83925550264724
 10
484.9188435413867
 20
83.85582125146385
 10
484.9664700692329
 20
83.87031628167799
 10
485.0140965970808
 20
83.88066987468798
 10
485.0637938435307
 20
83.89102346769911
 10
485.1134910899803
 20
83.89723562350514
 10
485.1631883364295
 20
83.9013770607093
 10
485.2128855828794
 20
83.9013770607093
 10
485.2128855828794
 20
84.04425664425204
 10
484.9830358180498
 20
84.015266583823
 10
484.7801053950465
 20
83.95728646296493
 10
484.5771749720446
 20
83.84132622124914
 10
484.417729639685
 20
83.71087094931846
 10
484.2727793375404
 20
83.53693058674492
 10
484.1713141260393
 20
83.34849519395712
 10
484.0988389749661
 20
83.1310697407393
 10
484.0698489145374
 20
82.90121997591034
 10
484.2127284980805
 20
82.90121997591015
 10
484.2127284980805
 20
82.95091722236069
 10
484.2168699352848
 20
83.00061446880992
 10
484.2230820910907
 20
83.05031171525877
 10
484.2334356840985
 20
83.10000896171422
 10
484.2437892771117
 20
83.14763548955665
 10
484.2582843073286
 20
83.19319129880701
 10
484.2727793375404
 20
83.24081782664944
 10
484.2914158049604
 20
83.28637363589487
 10
484.3121229909806
 20
83.32985872653711
 97
        0
 75
     0
 76
     1
 47
0.005631
 98
        3
 10
486.7928679435741
 20
84.0944546160593
 10
483.9794902435742
 20
82.65491161605931
 10
484.2170310435741
 20
83.3301603160593
450
        0
451
        0
460
0.0
461
0.0
452
        0
462
0.0
453
        0
470

  0
HATCH
  5
1027
330
2
100
AcDbEntity
  8
AM_4
100
AcDbHatch
 10
0.0
 20
0.0
 30
0.0
210
0.0
220
0.0
230
1.0
  2
SOLID
 70
     1
 71
     0
 91
        8
 92
        7
 72
     0
 73
     1
 93
       23
 10
489.4157678605401
 20
77.91011170996029
 10
489.453454939098
 20
78.1173906420272
 10
489.5288290962124
 20
78.26813895625761
 10
489.6418903318852
 20
78.38120019192977
 10
489.7549515675591
 20
78.47541788832472
 10
489.9810740389036
 20
78.53194850616111
 10
490.0941352745777
 20
78.55079204544003
 10
490.3014142066449
 20
78.55079204544003
 10
490.3014142066449
 20
80.11211387139963
 10
489.6230467926068
 20
80.11211387139963
 10
489.2461760070309
 20
80.09327033212072
 10
488.925835839291
 20
80.05558325356309
 10
488.662026289385
 20
79.96136555716926
 10
488.4170602787622
 20
79.86714786077486
 10
488.2313168201554
 20
79.73524308582452
 10
488.0617249666483
 20
79.60333831087211
 10
487.9298201916965
 20
79.45258999664099
 10
487.8167589560234
 20
79.30184168240987
 10
487.6848541810717
 20
78.9841934488528
 10
487.6094800239563
 20
78.72038389894969
 10
487.5906364846768
 20
78.47541788832566
 10
487.5906364846768
 20
74.16293932765722
 10
489.4157678605401
 20
74.16293932765722
 97
        0
 92
        7
 72
     0
 73
     1
 93
       54
 10
496.1186839754358
 20
78.21160833842104
 10
495.949092121926
 20
78.58847912399766
 10
495.7041261113009
 20
78.96534990957445
 10
495.421473022119
 20
79.28299814313132
 10
495.0634457758212
 20
79.58449477159264
 10
494.667731450966
 20
79.82946078221741
 10
494.2343300475523
 20
80.01789617500543
 10
493.7659334997653
 20
80.14980094995726
 10
493.276001478516
 20
80.1874880285149
 10
492.9179742322185
 20
80.16864448923602
 10
492.5976340644776
 20
80.11211387139983
 10
492.2961374360166
 20
80.03673971428453
 10
492.0134843468351
 20
79.92367847861103
 10
491.7496747969318
 20
79.79177370365937
 10
491.5235523255855
 20
79.64102538942957
 10
491.3162733935183
 20
79.45258999664081
 10
491.1089944614511
 20
79.26415460385371
 10
490.9420945421258
 20
79.05956760596885
 10
490.8101897671733
 20
78.83344513462242
 10
490.6782849922211
 20
78.58847912399669
 10
490.5840672958277
 20
78.34351311337363
 10
490.452162520875
 20
77.83473755284444
 10
490.3956319030381
 20
77.30711845303858
 10
490.4144754423183
 20
76.91140412818382
 10
490.4710060601542
 20
76.55606881606761
 10
490.5652237565477
 20
76.2168851090494
 10
490.6971285314995
 20
75.89654494130821
 10
490.8478768457312
 20
75.61389185212616
 10
491.0174686992392
 20
75.35008230222363
 10
491.2220556971231
 20
75.10511629159868
 10
491.4481781684702
 20
74.87899382025244
 10
491.7119877183731
 20
74.69055842746442
 10
491.9757972682742
 20
74.53981011323499
 10
492.25845035746
 20
74.38906179900289
 10
492.5411034466415
 20
74.27600056332997
 10
492.8614436143845
 20
74.20062640621411
 10
493.1629402428434
 20
74.12525224909959
 10
493.4832804105829
 20
74.08756517054195
 10
493.800928644142
 20
74.08756517054195
 10
494.2343300475523
 20
74.10640870982087
 10
494.6300443724084
 20
74.16293932765722
 10
494.969228079428
 20
74.23831348477292
 10
495.2707247078883
 20
74.33253118116673
 10
495.6852825720211
 20
74.52096657395472
 10
495.8171873469743
 20
74.59634073107003
 10
495.8171873469743
 20
76.44300758039469
 10
495.4026294828394
 20
76.16035449121264
 10
494.9880716187059
 20
75.93423201986659
 10
494.516983136734
 20
75.76464016635672
 10
494.2908606653897
 20
75.70810954852056
 10
494.0647381940445
 20
75.68926600924183
 10
493.69055934265
 20
75.68926600924183
 10
493.426749792747
 20
75.74579662707802
 10
493.3136885570741
 20
75.76464016635714
 97
        0
 92
       22
 72
     0
 73
     1
 93
       15
 10
492.1830762003438
 20
76.85487351034556
 10
492.1265455825073
 20
76.98677828529778
 10
492.0888585039506
 20
77.13752659952416
 10
492.0511714253929
 20
77.32596199231693
 10
492.0700149646711
 20
77.55208446366276
 10
492.1265455825073
 20
77.79705047428717
 10
492.25845035746
 20
78.06086002419085
 10
492.4845728288054
 20
78.32466957409417
 10
492.7483823787079
 20
78.51310496688218
 10
493.0310354678912
 20
78.60732266327656
 10
493.2948450177944
 20
78.62616620255528
 10
493.520967489141
 20
78.58847912399766
 10
493.7282464212077
 20
78.53194850616128
 10
493.8763028012557
 20
78.4565743490458
 10
494.0082075762071
 20
78.38120019193053
 97
        0
 92
        7
 72
     0
 73
     1
 93
       27
 10
498.3395296761533
 20
78.21160833842125
 10
499.1498018651426
 20
78.21160833842125
 10
499.1498018651426
 20
79.6221818501501
 10
498.3395296761533
 20
79.6221818501501
 10
498.3395296761533
 20
80.24401864635089
 10
498.3772167547114
 20
80.45129757841824
 10
498.4525909118258
 20
80.60204589264898
 10
498.5656521475006
 20
80.71510712832191
 10
498.6787133831722
 20
80.80932482471611
 10
498.9236793937961
 20
80.86585544255248
 10
499.0178970901911
 20
80.88469898183122
 10
499.2224840880753
 20
80.88469898183122
 10
499.2224840880753
 20
82.3329595721179
 10
498.5468086082204
 20
82.3329595721179
 10
498.1887813619226
 20
82.31411603283916
 10
497.868441194184
 20
82.2575854150026
 10
497.5857881050026
 20
82.16336771860918
 10
497.3408220943762
 20
82.06915002221458
 10
497.152386701587
 20
81.93724524726295
 10
496.9827948480781
 20
81.8080324064943
 10
496.8508900731266
 20
81.65728409226316
 10
496.7566723767338
 20
81.50653577803351
 10
496.605924062502
 20
81.20503914957183
 10
496.5305499053867
 20
80.92238606038884
 10
496.5117063661077
 20
80.67742004976272
 10
496.5117063661077
 20
74.18178286693614
 10
498.3395296761533
 20
74.18178286693614
 97
        0
 92
        7
 72
     0
 73
     1
 93
        4
 10
501.7286748121591
 20
82.3329595721179
 10
499.825477344998
 20
82.3329595721179
 10
499.825477344998
 20
74.18178286693614
 10
501.7286748121591
 20
74.18178286693614
 97
        0
 92
        7
 72
     0
 73
     1
 93
       54
 10
507.9578105109006
 20
78.21160833842104
 10
507.7882186573912
 20
78.58847912399804
 10
507.5432526467665
 20
78.96534990957445
 10
507.2605995575846
 20
79.28299814313132
 10
506.9052642454687
 20
79.58449477159284
 10
506.509549920615
 20
79.82946078221684
 10
506.0761485172013
 20
80.01789617500543
 10
505.6050600352305
 20
80.14980094995726
 10
505.1151280139813
 20
80.1874880285149
 10
504.7571007676839
 20
80.16864448923602
 10
504.4394525341252
 20
80.11211387139983
 10
504.1379559056653
 20
80.03673971428435
 10
503.8553028164811
 20
79.92367847861103
 10
503.5914932665787
 20
79.79177370365921
 10
503.365370795233
 20
79.64102538942881
 10
503.1580918631674
 20
79.45258999664081
 10
502.9508129311002
 20
79.26415460385259
 10
502.8000646168695
 20
79.05956760596828
 10
502.649316302639
 20
78.83344513462299
 10
502.5174115276866
 20
78.58847912399804
 10
502.4231938312924
 20
78.34351311337363
 10
502.291289056341
 20
77.83473755284521
 10
502.2347584385037
 20
77.30711845303744
 10
502.2536019777827
 20
76.91140412818324
 10
502.3101325956196
 20
76.55606881606797
 10
502.4043502920137
 20
76.2168851090492
 10
502.5362550669659
 20
75.89654494130837
 10
502.6870033811968
 20
75.61389185212371
 10
502.8565952347058
 20
75.35008230222288
 10
503.0638741667721
 20
75.10511629159847
 10
503.3088401773972
 20
74.87899382025282
 10
503.5538061880221
 20
74.69055842746422
 10
503.8176157379242
 20
74.53981011323365
 10
504.1002688271079
 20
74.38906179900289
 10
504.3829219162902
 20
74.27600056333017
 10
504.7005701498489
 20
74.20062640621411
 10
505.0020667783075
 20
74.12525224909959
 10
505.3224069460485
 20
74.08756517054195
 10
505.6427471137871
 20
74.08756517054195
 10
506.0761485172003
 20
74.10640870982087
 10
506.4718628420572
 20
74.16293932765722
 10
506.8298900883534
 20
74.23831348477233
 10
507.112543177537
 20
74.33253118116653
 10
507.5244091074863
 20
74.52096657395514
 10
507.6563138824392
 20
74.59634073107003
 10
507.65631388244
 20
76.44300758039449
 10
507.2417560183063
 20
76.16035449121264
 10
506.8298900883545
 20
75.93423201986621
 10
506.3588016063842
 20
75.76464016635731
 10
506.1326791350373
 20
75.70810954852056
 10
505.9065566636917
 20
75.68926600924183
 10
505.5296858781156
 20
75.68926600924183
 10
505.2658763282123
 20
75.74579662707839
 10
505.1528150925395
 20
75.76464016635731
 97
        0
 92
       22
 72
     0
 73
     1
 93
       15
 10
503.8929898950402
 20
77.32596199231655
 10
503.9118334343187
 20
77.5520844636622
 10
503.9683640521563
 20
77.79705047428717
 10
504.1002688271074
 20
78.06086002419028
 10
504.3263912984541
 20
78.32466957409417
 10
504.5875089141735
 20
78.51310496688236
 10
504.8701620033563
 20
78.60732266327656
 10
505.1339715532597
 20
78.62616620255528
 10
505.3600940246063
 20
78.58847912399766
 10
505.5673729566725
 20
78.53194850616128
 10
505.7181212709037
 20
78.45657434904563
 10
505.8500260458555
 20
78.38120019193053
 10
504.0248946699927
 20
76.85487351034609
 10
503.9683640521563
 20
76.98677828529719
 10
503.9306769735986
 20
77.13752659952493
 97
        0
 92
        7
 72
     0
 73
     1
 93
       66
 10
512.7952162371918
 20
77.13752659952854
 10
512.6444679229615
 20
77.23174429592273
 10
512.5152550821927
 20
77.30711845303781
 10
512.7763726979134
 20
77.47671030654693
 10
512.9648080907016
 20
77.70283277789201
 10
513.1155564049326
 20
77.9477987885183
 10
513.2097741013271
 20
78.1927647991425
 10
513.2851482584416
 20
78.60732266327639
 10
513.2851482584416
 20
78.79575805606478
 10
513.2851482584416
 20
80.05558325356309
 10
511.5165475004149
 20
80.05558325356309
 10
511.5165475004159
 20
78.98419344885414
 10
511.4977039611366
 20
78.85228867390171
 10
511.4223298040217
 20
78.58847912399824
 10
511.3469556469058
 20
78.45657434904601
 10
511.2150508719538
 20
78.32466957409417
 10
511.0266154791662
 20
78.23045187769995
 10
510.8004930078202
 20
78.21160833842125
 10
510.5743705364739
 20
78.23045187769995
 10
510.385935143686
 20
78.32466957409417
 10
510.2728739080133
 20
78.43773080976689
 10
510.1974997508976
 20
78.58847912399766
 10
510.1409691330615
 20
78.85228867390153
 10
510.1409691330615
 20
78.96534990957409
 10
510.1409691330615
 20
80.05558325356309
 10
508.3346812964768
 20
80.05558325356309
 10
508.3346812964768
 20
78.77691451678548
 10
508.3723683750352
 20
78.3812001919311
 10
508.4665860714285
 20
78.07970356346996
 10
508.5796473071019
 20
77.8158940135659
 10
508.7303956213323
 20
77.62745862077884
 10
508.8811439355638
 20
77.47671030654693
 10
508.9942051712363
 20
77.38249261015292
 10
509.1261099461883
 20
77.30711845303781
 10
508.9565180926792
 20
77.2317442959229
 10
508.8246133177278
 20
77.1375265995289
 10
508.6173343856595
 20
76.91140412818324
 10
508.4477425321506
 20
76.64759457827898
 10
508.3535248357552
 20
76.38647696255869
 10
508.2781506786407
 20
76.1415109519341
 10
508.2404636000833
 20
75.93423201986585
 10
508.2216200608041
 20
75.74579662707726
 10
508.2216200608041
 20
74.18178286693614
 10
510.1032820545044
 20
74.18178286693614
 10
510.1032820545035
 20
75.61389185212729
 10
510.1221255937828
 20
75.7646401663592
 10
510.1409691330622
 20
75.89654494130858
 10
510.1786562116189
 20
76.06613679481824
 10
510.2728739080125
 20
76.21688510904843
 10
510.4047786829652
 20
76.36763342327938
 10
510.5932140757536
 20
76.46185111967361
 10
510.8570236256571
 20
76.49953819823124
 10
511.101989636281
 20
76.46185111967361
 10
511.2904250290694
 20
76.3676334232792
 10
511.4034862647425
 20
76.21688510904881
 10
511.4788604218581
 20
76.04729325554028
 10
511.5165475004159
 20
75.89654494130764
 10
511.5353910396944
 20
75.74579662707839
 10
511.5353910396944
 20
75.61389185212675
 10
511.5353910396944
 20
74.18178286693614
 10
513.3982094941154
 20
74.18178286693614
 10
513.3982094941154
 20
75.76464016635807
 10
513.3605224155576
 20
76.17919803049139
 10
513.2474611798849
 20
76.5183817375092
 10
513.1155564049317
 20
76.77949935323121
 10
512.9459645514231
 20
76.98677828529799
 97
        0
 75
     0
 76
     1
 47
0.04298
 98
        8
 10
488.5984752435742
 20
77.61121701605929
 10
492.3547116435742
 20
75.91787361605931
 10
492.3547116435742
 20
75.91787361605931
 10
497.5103341435741
 20
76.6541091160593
 10
500.8983124435742
 20
77.02222721605931
 10
503.1815157435742
 20
77.39034461605931
 10
503.1815157435742
 20
77.39034461605931
 10
509.6628661435743
 20
77.09585111605931
450
        0
451
        0
460
0.0
461
0.0
452
        0
462
0.0
453
        0
470

  0
LINE
  5
1028
330
2
100
AcDbEntity
  8
AM_4
100
AcDbLine
 10
492.5976340435742
 20
80.11211401605931
 30
0.0
 11
492.9179743435741
 21
80.16864461605932
 31
0.0
  0
LINE
  5
1029
330
2
100
AcDbEntity
  8
AM_4
100
AcDbLine
 10
492.8614437435742
 20
74.20062661605931
 30
0.0
 11
492.5411034435742
 21
74.2760005160593
 31
0.0
  0
LINE
  5
102A
330
2
100
AcDbEntity
  8
AM_4
100
AcDbLine
 10
492.7483825435741
 20
78.5131047160593
 30
0.0
 11
492.4845728435742
 21
78.32466961605931
 31
0.0
  0
LINE
  5
102B
330
2
100
AcDbEntity
  8
AM_4
100
AcDbLine
 10
492.1830765435743
 20
76.8548733160593
 30
0.0
 11
494.0082075435742
 21
78.38120021605931
 31
0.0
  0
TEXT
  5
102C
330
2
100
AcDbEntity
  8
AM_6
100
AcDbText
 10
484.2501151074501
 20
59.38514061605931
 30
0.0
 40
4.199999999999999
  1
59227 Ahlen
 72
     1
 11
499.6635649435742
 21
59.38514061605931
 31
0.0
100
AcDbText
  0
TEXT
  5
102D
330
2
100
AcDbEntity
  8
0
100
AcDbText
 10
387.2571078435742
 20
64.3053118160593
 30
0.0
 40
7.0
  1
Typ refix DD 8l
 72
     1
 11
418.7571078435742
 21
62.20531181605931
 31
0.0
100
AcDbText
 73
     1
  0
TEXT
  5
102E
330
2
100
AcDbEntity
  8
AM_6
100
AcDbText
 10
470.0691070435742
 20
65.27759291605931
 30
0.0
 40
4.199999999999999
  1
Reflex Winkelmann GmbH
 41
0.95
 72
     1
 11
499.5951070435742
 21
65.27759291605931
 31
0.0
100
AcDbText
  0
TEXT
  5
102F
330
2
100
AcDbEntity
  8
0
100
AcDbText
 10
367.5308767834513
 20
77.6053118160593
 30
0.0
 40
7.0
  1
Druckausdehnungsgefäß
 72
     1
 11
418.7571078435742
 21
75.5053118160593
 31
0.0
100
AcDbText
 73
     1
  0
TEXT
  5
1030
330
2
100
AcDbEntity
  8
0
100
AcDbText
 10
390.8459857963301
 20
51.00531181605931
 30
0.0
 40
7.0
  1
25 bar - 70°C
 72
     1
 11
418.7571078435742
 21
48.90531181605931
 31
0.0
100
AcDbText
 73
     1
  0
LINE
  5
1293
330
2
100
AcDbEntity
  8
0
 62
     0
100
AcDbLine
 10
258.649368
 20
98.222938
 30
0.0
 11
256.649368
 21
96.22293800000001
 31
0.0
  0
LINE
  5
1294
330
2
100
AcDbEntity
  8
0
 62
     0
100
AcDbLine
 10
258.649368
 20
101.051365
 30
0.0
 11
256.649368
 21
99.05136500000001
 31
0.0
  0
LINE
  5
1295
330
2
100
AcDbEntity
  8
0
 62
     0
100
AcDbLine
 10
258.649368
 20
103.879792
 30
0.0
 11
256.649368
 21
101.879792
 31
0.0
  0
LINE
  5
1296
330
2
100
AcDbEntity
  8
0
 62
     0
100
AcDbLine
 10
258.649368
 20
106.708219
 30
0.0
 11
256.649368
 21
104.708219
 31
0.0
  0
LINE
  5
1297
330
2
100
AcDbEntity
  8
0
 62
     0
100
AcDbLine
 10
258.649368
 20
109.536646
 30
0.0
 11
257.41965
 21
108.306928
 31
0.0
  0
LINE
  5
1298
330
2
100
AcDbEntity
  8
0
 62
     0
100
AcDbLine
 10
257.221709
 20
108.108987
 30
0.0
 11
256.649368
 21
107.536646
 31
0.0
  0
LINE
  5
1299
330
2
100
AcDbEntity
  8
0
 62
     0
100
AcDbLine
 10
258.649368
 20
112.365073
 30
0.0
 11
256.649368
 21
110.365073
 31
0.0
  0
LINE
  5
129A
330
2
100
AcDbEntity
  8
0
 62
     0
100
AcDbLine
 10
258.649368
 20
115.193501
 30
0.0
 11
256.649368
 21
113.193501
 31
0.0
  0
LINE
  5
129B
330
2
100
AcDbEntity
  8
0
 62
     0
100
AcDbLine
 10
258.649368
 20
118.021928
 30
0.0
 11
256.649368
 21
116.021928
 31
0.0
  0
LINE
  5
129C
330
2
100
AcDbEntity
  8
0
 62
     0
100
AcDbLine
 10
258.649368
 20
95.39451099999999
 30
0.0
 11
256.649368
 21
93.39451099999999
 31
0.0
  0
LINE
  5
129D
330
2
100
AcDbEntity
  8
0
 62
     0
100
AcDbLine
 10
258.649368
 20
92.56608400000001
 30
0.0
 11
256.649368
 21
90.566084
 31
0.0
  0
LINE
  5
129E
330
2
100
AcDbEntity
  8
0
 62
     0
100
AcDbLine
 10
258.649368
 20
89.737656
 30
0.0
 11
256.649368
 21
87.737656
 31
0.0
  0
LINE
  5
129F
330
2
100
AcDbEntity
  8
0
 62
     0
100
AcDbLine
 10
258.649368
 20
86.90922900000002
 30
0.0
 11
256.649368
 21
84.90922900000001
 31
0.0
  0
LINE
  5
12A0
330
2
100
AcDbEntity
  8
0
 62
     0
100
AcDbLine
 10
258.649368
 20
84.080802
 30
0.0
 11
256.649368
 21
82.08080200000001
 31
0.0
  0
LINE
  5
12A1
330
2
100
AcDbEntity
  8
0
 62
     0
100
AcDbLine
 10
234.209368
 20
99.238782
 30
0.0
 11
232.209368
 21
97.23878200000001
 31
0.0
  0
LINE
  5
12A2
330
2
100
AcDbEntity
  8
0
 62
     0
100
AcDbLine
 10
234.209368
 20
102.067209
 30
0.0
 11
232.209368
 21
100.067209
 31
0.0
  0
LINE
  5
12A3
330
2
100
AcDbEntity
  8
0
 62
     0
100
AcDbLine
 10
234.209368
 20
104.895636
 30
0.0
 11
232.209368
 21
102.895636
 31
0.0
  0
LINE
  5
12A4
330
2
100
AcDbEntity
  8
0
 62
     0
100
AcDbLine
 10
234.209368
 20
107.724063
 30
0.0
 11
232.209368
 21
105.724063
 31
0.0
  0
LINE
  5
12A5
330
2
100
AcDbEntity
  8
0
 62
     0
100
AcDbLine
 10
234.209368
 20
110.55249
 30
0.0
 11
232.209368
 21
108.55249
 31
0.0
  0
LINE
  5
12A6
330
2
100
AcDbEntity
  8
0
 62
     0
100
AcDbLine
 10
234.209368
 20
113.380918
 30
0.0
 11
232.209368
 21
111.380918
 31
0.0
  0
LINE
  5
12A7
330
2
100
AcDbEntity
  8
0
 62
     0
100
AcDbLine
 10
234.209368
 20
116.209345
 30
0.0
 11
232.209368
 21
114.209345
 31
0.0
  0
LINE
  5
12A8
330
2
100
AcDbEntity
  8
0
 62
     0
100
AcDbLine
 10
234.209368
 20
96.410355
 30
0.0
 11
232.209368
 21
94.41035500000001
 31
0.0
  0
LINE
  5
12A9
330
2
100
AcDbEntity
  8
0
 62
     0
100
AcDbLine
 10
234.209368
 20
93.58192800000001
 30
0.0
 11
232.209368
 21
91.581928
 31
0.0
  0
LINE
  5
12AA
330
2
100
AcDbEntity
  8
0
 62
     0
100
AcDbLine
 10
234.209368
 20
90.75350099999999
 30
0.0
 11
232.209368
 21
88.753501
 31
0.0
  0
LINE
  5
12AB
330
2
100
AcDbEntity
  8
0
 62
     0
100
AcDbLine
 10
234.209368
 20
87.925073
 30
0.0
 11
232.209368
 21
85.92507299999999
 31
0.0
  0
LINE
  5
12AC
330
2
100
AcDbEntity
  8
0
 62
     0
100
AcDbLine
 10
234.209368
 20
85.09664599999998
 30
0.0
 11
232.209368
 21
83.09664599999999
 31
0.0
  0
LINE
  5
12AD
330
2
100
AcDbEntity
  8
0
 62
     0
100
AcDbLine
 10
234.209368
 20
82.26821899999999
 30
0.0
 11
232.996016
 21
81.054867
 31
0.0
  0
LINE
  5
12AE
330
2
100
AcDbEntity
  8
AM_0
100
AcDbLine
 10
245.429368
 20
47.76517899999999
 30
0.0
 11
245.429368
 21
34.937556
 31
0.0
  0
LINE
  5
12AF
330
2
100
AcDbEntity
  8
AM_0
100
AcDbLine
 10
233.637028
 20
108.306928
 30
0.0
 11
232.209368
 21
108.306928
 31
0.0
  0
LINE
  5
12B0
330
2
100
AcDbEntity
  8
AM_0
100
AcDbLine
 10
257.221709
 20
108.306928
 30
0.0
 11
258.649368
 21
108.306928
 31
0.0
  0
LWPOLYLINE
  5
14E2
330
2
100
AcDbEntity
  8
AM_0
100
AcDbPolyline
 90
        4
 70
     1
 43
0.0
 10
82.48888096068094
 20
419.4125603323819
 10
556.0155591280406
 20
419.4125603323819
 10
556.0155591280406
 20
26.45505607496665
 10
82.48888096068094
 20
26.45505607496671
1001
GENIUS_GENREC_14
1002
{
1000
PYDIR
1011
82.48888096068091
1021
26.45505607496665
1031
0.0
1002
}
1002
{
1000
PXDIR
1011
556.0155591280406
1021
419.4125603323819
1031
0.0
1002
}
1002
{
1000
PORI
1011
82.48888096068094
1021
419.4125603323819
1031
0.0
1002
}
1002
{
1000
PINS
1011
82.48888096068094
1021
419.4125603323819
1031
0.0
1002
}
1002
{
1000
PINS2
1011
556.0155591280406
1021
26.45505607496665
1031
0.0
1002
}
1002
{
1000
C
1070
     1
1002
}
1001
GENIUS_GENODEF_13
1002
{
1000
HIER
1070
     0
1002
}
1002
{
1000
MANEDIT
1070
     0
1002
}
1002
{
1000
NOSEL
1070
     0
1002
}
1002
{
1000
BEHIND
1070
     0
1002
}
1002
{
1000
OTHER
1070
     0
1002
}
1002
{
1000
REACTOR
1002
}
1001
GENIUS_GENOBJ-N-REC_13
1002
{
1000
OWNER
1000
GEN
1002
}
  0
ENDSEC
  0
SECTION
  2
OBJECTS
  0
DICTIONARY
  5
8
330
0
100
AcDbDictionary
281
     1
  3
ACAD_COLOR
350
13E6
  3
ACAD_GROUP
350
22
  3
ACAD_LAYOUT
350
7
  3
ACAD_MATERIAL
350
13D1
  3
ACAD_MLINESTYLE
350
23
  3
ACAD_PLOTSETTINGS
350
24
  3
ACAD_PLOTSTYLENAME
350
10
  3
ACAD_TABLESTYLE
350
13E7
  3
ACAD_VISUALSTYLE
350
13D5
  3
ACDBVARIABLEDICTIONARY
350
79A
  3
ACMDICTIONARY
350
43
  3
AMG
350
57
  3
AMGSNAPSETTINGS
350
7B8
  0
DICTIONARY
  5
3
330
2
100
AcDbDictionary
280
     1
281
     1
  3
ACAD_INDEX
360
133B
  3
ACAD_LAYOUTSELFREF
360
138F
  0
DICTIONARY
  5
135A
330
9
100
AcDbDictionary
280
     1
281
     1
  3
ACAD_LAYOUTSELFREF
360
1394
  0
DICTIONARY
  5
13E6
102
{ACAD_REACTORS
330
8
102
}
330
8
100
AcDbDictionary
281
     1
  0
DICTIONARY
  5
22
102
{ACAD_REACTORS
330
8
102
}
330
8
100
AcDbDictionary
281
     1
  0
DICTIONARY
  5
7
102
{ACAD_REACTORS
330
8
102
}
330
8
100
AcDbDictionary
281
     1
  3
LAYOUT1
350
C
  3
MODEL
350
6
  0
DICTIONARY
  5
13D1
102
{ACAD_REACTORS
330
8
102
}
330
8
100
AcDbDictionary
281
     1
  3
ByBlock
350
13D3
  3
ByLayer
350
13D2
  3
Global
350
13D4
  0
DICTIONARY
  5
23
102
{ACAD_REACTORS
330
8
102
}
330
8
100
AcDbDictionary
281
     1
  3
STANDARD
350
26
  0
DICTIONARY
  5
24
102
{ACAD_REACTORS
330
8
102
}
330
8
100
AcDbDictionary
281
     1
  0
ACDBDICTIONARYWDFLT
  5
10
102
{ACAD_REACTORS
330
8
102
}
330
8
100
AcDbDictionary
281
     1
  3
Normal
350
F
100
AcDbDictionaryWithDefault
340
F
  0
DICTIONARY
  5
13E7
102
{ACAD_REACTORS
330
8
102
}
330
8
100
AcDbDictionary
281
     1
  3
Standard
350
13E8
  0
DICTIONARY
  5
13D5
102
{ACAD_REACTORS
330
8
102
}
330
8
100
AcDbDictionary
281
     1
  3
2dWireframe
350
13DB
  3
3D Hidden
350
13DD
  3
3dWireframe
350
13DC
  3
Basic
350
13DA
  3
Brighten
350
13E1
  3
ColorChange
350
13E5
  3
Conceptual
350
13DE
  3
Dim
350
13E0
  3
EdgeColorOff
350
14D6
  3
Facepattern
350
13E4
  3
Flat
350
13D6
  3
FlatWithEdges
350
13D7
  3
Gouraud
350
13D8
  3
GouraudWithEdges
350
13D9
  3
JitterOff
350
14D9
  3
Linepattern
350
13E3
  3
OverhangOff
350
14DC
  3
Realistic
350
13DF
  3
Thicken
350
13E2
  0
DICTIONARY
  5
79A
102
{ACAD_REACTORS
330
8
102
}
330
8
100
AcDbDictionary
281
     1
  3
CTABLESTYLE
350
14EC
  3
DIMASSOC
350
79C
  3
HIDETEXT
350
79B
  3
INDEXCTL
350
B73
  0
DICTIONARY
  5
43
102
{ACAD_REACTORS
330
8
102
}
330
8
100
AcDbDictionary
281
     1
  3
ACMBOM
350
B3E
  3
ACMSTDDICTIONARY
350
42
  0
DICTIONARY
  5
57
102
{ACAD_REACTORS
330
8
102
}
330
8
100
AcDbDictionary
281
     1
  0
DICTIONARY
  5
7B8
102
{ACAD_REACTORS
330
8
102
}
330
8
100
AcDbDictionary
281
     1
  0
DICTIONARY
  5
133B
102
{ACAD_REACTORS
330
3
102
}
330
3
100
AcDbDictionary
281
     1
  3
*A1
350
133C
  0
XRECORD
  5
138F
102
{ACAD_REACTORS
330
3
102
}
330
3
100
AcDbXrecord
280
     1
340
2
  0
XRECORD
  5
1394
102
{ACAD_REACTORS
330
135A
102
}
330
135A
100
AcDbXrecord
280
     1
340
9
  0
LAYOUT
  5
C
102
{ACAD_REACTORS
330
7
102
}
330
7
100
AcDbPlotSettings
  1

  2
none_device
  4
Letter_(8.50_x_11.00_Inches)
  6

 40
6.349999904632568
 41
6.349999904632568
 42
6.350006103515625
 43
6.350006103515625
 44
215.8999938964844
 45
279.3999938964844
 46
0.0
 47
0.0
 48
0.0
 49
0.0
140
0.0
141
0.0
142
1.0
143
1.0
 70
 15024
 72
     1
 73
     1
 74
     5
  7
ganz_fein_1.ctb
 75
    16
147
1.0
 76
     0
 77
     2
 78
   300
148
0.0
149
0.0
100
AcDbLayout
  1
Layout1
 70
     1
 71
     1
 10
0.0
 20
0.0
 11
420.0
 21
297.0
 12
0.0
 22
0.0
 32
0.0
 14
1.000000000000000E+20
 24
1.000000000000000E+20
 34
1.000000000000000E+20
 15
-1.000000000000000E+20
 25
-1.000000000000000E+20
 35
-1.000000000000000E+20
146
0.0
 13
0.0
 23
0.0
 33
0.0
 16
1.0
 26
0.0
 36
0.0
 17
0.0
 27
1.0
 37
0.0
 76
     0
330
9
  0
LAYOUT
  5
6
102
{ACAD_REACTORS
330
7
102
}
330
7
100
AcDbPlotSettings
  1

  2
Adobe PDF
  4
A4
  6
AM_VIEW6
 40
3.174999952316284
 41
3.174999952316284
 42
3.175003051757812
 43
3.17498779296875
 44
209.9733276367187
 45
297.0318298339844
 46
0.0
 47
22.65452942943418
 48
-197.316382039319
 49
-190.6460999250333
140
276.2102961280407
141
202.3114043323819
142
1.0
143
1.929825598154567
 70
 11956
 72
     1
 73
     1
 74
     4
  7
ganz_fein_1.ctb
 75
     0
147
0.5181815398014562
 76
     0
 77
     2
 78
   300
148
197.316382039319
149
190.6460999250333
100
AcDbLayout
  1
Model
 70
     1
 71
     0
 10
0.0
 20
0.0
 11
12.0
 21
9.0
 12
0.0
 22
0.0
 32
0.0
 14
0.0
 24
0.0
 34
0.0
 15
0.0
 25
0.0
 35
0.0
146
0.0
 13
0.0
 23
0.0
 33
0.0
 16
1.0
 26
0.0
 36
0.0
 17
0.0
 27
1.0
 37
0.0
 76
     0
330
2
331
1358
1001
ACAD_PSEXT
1000
Adobe PDF
1000
Adobe PDF Converter
1000
Documents\*.pdf
1000

1070
     0
  0
MATERIAL
  5
13D3
102
{ACAD_XDICTIONARY
360
14EF
102
}
102
{ACAD_REACTORS
330
13D1
102
}
330
13D1
100
AcDbMaterial
  1
ByBlock
  0
MATERIAL
  5
13D2
102
{ACAD_XDICTIONARY
360
14ED
102
}
102
{ACAD_REACTORS
330
13D1
102
}
330
13D1
100
AcDbMaterial
  1
ByLayer
  0
MATERIAL
  5
13D4
102
{ACAD_XDICTIONARY
360
14F1
102
}
102
{ACAD_REACTORS
330
13D1
102
}
330
13D1
100
AcDbMaterial
  1
Global
  0
MLINESTYLE
  5
26
102
{ACAD_REACTORS
330
23
102
}
330
23
100
AcDbMlineStyle
  2
STANDARD
 70
     0
  3

 62
   256
 51
90.0
 52
90.0
 71
     2
 49
0.5
 62
   256
  6
BYLAYER
 49
-0.5
 62
   256
  6
BYLAYER
  0
ACDBPLACEHOLDER
  5
F
102
{ACAD_REACTORS
330
10
102
}
330
10
  0
TABLESTYLE
  5
13E8
102
{ACAD_XDICTIONARY
360
14F3
102
}
102
{ACAD_REACTORS
330
13E7
102
}
330
13E7
100
AcDbTableStyle
  3
Standard
 70
     0
 71
     0
 40
1.5
 41
1.5
280
     0
281
     0
  7
STANDARD
140
4.5
170
     2
 62
     0
 63
     7
283
     0
274
    -2
284
     1
 64
     0
275
    -2
285
     1
 65
     0
276
    -2
286
     1
 66
     0
277
    -2
287
     1
 67
     0
278
    -2
288
     1
 68
     0
279
    -2
289
     1
 69
     0
  7
STANDARD
140
6.0
170
     5
 62
     0
 63
     7
283
     0
274
    -2
284
     1
 64
     0
275
    -2
285
     1
 65
     0
276
    -2
286
     1
 66
     0
277
    -2
287
     1
 67
     0
278
    -2
288
     1
 68
     0
279
    -2
289
     1
 69
     0
  7
STANDARD
140
4.5
170
     5
 62
     0
 63
     7
283
     0
274
    -2
284
     1
 64
     0
275
    -2
285
     1
 65
     0
276
    -2
286
     1
 66
     0
277
    -2
287
     1
 67
     0
278
    -2
288
     1
 68
     0
279
    -2
289
     1
 69
     0
  0
VISUALSTYLE
  5
13DB
102
{ACAD_REACTORS
330
13D5
102
}
330
13D5
100
AcDbVisualStyle
  2
2dWireframe
 70
     4
 71
     0
 72
     2
 73
     0
 90
        0
 40
-0.6
 41
-30.0
 62
     5
 63
     7
421
 16777215
 74
     1
 91
        4
 64
     7
 65
   257
 75
     1
175
     1
 42
1.0
 92
        0
 66
   257
 43
1.0
 76
     1
 77
     6
 78
     2
 67
     7
 79
     5
170
     0
171
     0
290
     0
174
     0
 93
        1
 44
0.0
173
     0
291
     0
 45
0.0
1001
ACAD
1000
AcDbSavedByObjectVersion
1070
     0
  0
VISUALSTYLE
  5
13DD
102
{ACAD_REACTORS
330
13D5
102
}
330
13D5
100
AcDbVisualStyle
  2
3D Hidden
 70
     6
 71
     1
 72
     2
 73
     2
 90
        0
 40
-0.6
 41
-30.0
 62
     5
 63
     7
421
 16777215
 74
     2
 91
        2
 64
     7
 65
   257
 75
     2
175
     1
 42
40.0
 92
        0
 66
   257
 43
1.0
 76
     1
 77
     6
 78
     2
 67
     7
 79
     3
170
     0
171
     0
290
     0
174
     0
 93
        1
 44
0.0
173
     0
291
     0
 45
0.0
1001
ACAD
1000
AcDbSavedByObjectVersion
1070
     0
  0
VISUALSTYLE
  5
13DC
102
{ACAD_REACTORS
330
13D5
102
}
330
13D5
100
AcDbVisualStyle
  2
3dWireframe
 70
     5
 71
     0
 72
     2
 73
     0
 90
        0
 40
-0.6
 41
-30.0
 62
     5
 63
     7
421
 16777215
 74
     1
 91
        4
 64
     7
 65
   257
 75
     1
175
     1
 42
1.0
 92
        0
 66
   257
 43
1.0
 76
     1
 77
     6
 78
     2
 67
     7
 79
     5
170
     0
171
     0
290
     0
174
     0
 93
        1
 44
0.0
173
     0
291
     0
 45
0.0
1001
ACAD
1000
AcDbSavedByObjectVersion
1070
     0
  0
VISUALSTYLE
  5
13DA
102
{ACAD_REACTORS
330
13D5
102
}
330
13D5
100
AcDbVisualStyle
  2
Basic
 70
     7
 71
     1
 72
     0
 73
     1
 90
        0
 40
-0.6
 41
-30.0
 62
     5
 63
     7
421
 16777215
 74
     0
 91
        4
 64
     7
 65
   257
 75
     1
175
     1
 42
1.0
 92
        8
 66
     7
 43
1.0
 76
     1
 77
     6
 78
     2
 67
     7
 79
     5
170
     0
171
     0
290
     0
174
     0
 93
        1
 44
0.0
173
     0
291
     1
 45
0.0
1001
ACAD
1000
AcDbSavedByObjectVersion
1070
     0
  0
VISUALSTYLE
  5
13E1
102
{ACAD_REACTORS
330
13D5
102
}
330
13D5
100
AcDbVisualStyle
  2
Brighten
 70
    12
 71
     2
 72
     2
 73
     0
 90
        0
 40
-0.6
 41
-30.0
 62
     5
 63
     7
421
 16777215
 74
     1
 91
        4
 64
     7
 65
   257
 75
     1
175
     1
 42
1.0
 92
        8
 66
     7
 43
1.0
 76
     1
 77
     6
 78
     2
 67
     7
 79
     5
170
     0
171
     0
290
     0
174
     0
 93
        1
 44
50.0
173
     0
291
     1
 45
0.0
1001
ACAD
1000
AcDbSavedByObjectVersion
1070
     0
  0
VISUALSTYLE
  5
13E5
102
{ACAD_REACTORS
330
13D5
102
}
330
13D5
100
AcDbVisualStyle
  2
ColorChange
 70
    16
 71
     2
 72
     2
 73
     3
 90
        0
 40
-0.6
 41
-30.0
 62
     5
 63
     8
421
  8421504
 74
     1
 91
        4
 64
     7
 65
   257
 75
     1
175
     1
 42
1.0
 92
        8
 66
     8
424
  8421504
 43
1.0
 76
     1
 77
     6
 78
     2
 67
     7
 79
     5
170
     0
171
     0
290
     0
174
     0
 93
        1
 44
0.0
173
     0
291
     1
 45
0.0
1001
ACAD
1000
AcDbSavedByObjectVersion
1070
     0
  0
VISUALSTYLE
  5
13DE
102
{ACAD_REACTORS
330
13D5
102
}
330
13D5
100
AcDbVisualStyle
  2
Conceptual
 70
     9
 71
     3
 72
     2
 73
     0
 90
        0
 40
-0.6
 41
-30.0
 62
     5
 63
     7
421
 16777215
 74
     2
 91
        2
 64
     7
 65
   257
 75
     1
175
     1
 42
40.0
 92
        8
 66
     7
 43
1.0
 76
     1
 77
     6
 78
     2
 67
     7
 79
     3
170
     0
171
     0
290
     0
174
     0
 93
        1
 44
0.0
173
     0
291
     0
 45
0.0
1001
ACAD
1000
AcDbSavedByObjectVersion
1070
     0
  0
VISUALSTYLE
  5
13E0
102
{ACAD_REACTORS
330
13D5
102
}
330
13D5
100
AcDbVisualStyle
  2
Dim
 70
    11
 71
     2
 72
     2
 73
     0
 90
        0
 40
-0.6
 41
-30.0
 62
     5
 63
     7
421
 16777215
 74
     1
 91
        4
 64
     7
 65
   257
 75
     1
175
     1
 42
1.0
 92
        8
 66
     7
 43
1.0
 76
     1
 77
     6
 78
     2
 67
     7
 79
     5
170
     0
171
     0
290
     0
174
     0
 93
        1
 44
-50.0
173
     0
291
     1
 45
0.0
1001
ACAD
1000
AcDbSavedByObjectVersion
1070
     0
  0
VISUALSTYLE
  5
14D6
102
{ACAD_XDICTIONARY
360
14D7
102
}
102
{ACAD_REACTORS
330
13D5
102
}
330
13D5
100
AcDbVisualStyle
  2
EdgeColorOff
 70
    22
 71
     2
 72
     2
 73
     0
 90
        0
 40
-0.6
 41
-30.0
 62
     5
 63
     7
 74
     1
 91
        4
 64
     7
 65
   257
 75
     1
175
     1
 42
1.0
 92
        8
 66
     7
 43
1.0
 76
     1
 77
     6
 78
     2
 67
     7
 79
     5
170
     0
171
     0
290
     0
174
     0
 93
        1
 44
0.0
173
     0
291
     1
 45
0.0
1001
ACAD
1000
AcDbSavedByObjectVersion
1070
     0
  0
VISUALSTYLE
  5
13E4
102
{ACAD_REACTORS
330
13D5
102
}
330
13D5
100
AcDbVisualStyle
  2
Facepattern
 70
    15
 71
     2
 72
     2
 73
     0
 90
        0
 40
-0.6
 41
-30.0
 62
     5
 63
     7
421
 16777215
 74
     1
 91
        4
 64
     7
 65
   257
 75
     1
175
     1
 42
1.0
 92
        8
 66
     7
 43
1.0
 76
     1
 77
     6
 78
     2
 67
     7
 79
     5
170
     0
171
     0
290
     0
174
     0
 93
        1
 44
0.0
173
     0
291
     1
 45
0.0
1001
ACAD
1000
AcDbSavedByObjectVersion
1070
     0
  0
VISUALSTYLE
  5
13D6
102
{ACAD_REACTORS
330
13D5
102
}
330
13D5
100
AcDbVisualStyle
  2
Flat
 70
     0
 71
     2
 72
     1
 73
     1
 90
        2
 40
-0.6
 41
30.0
 62
     5
 63
     7
421
 16777215
 74
     0
 91
        4
 64
     7
 65
   257
 75
     1
175
     1
 42
1.0
 92
        8
 66
     7
 43
1.0
 76
     1
 77
     6
 78
     2
 67
     7
 79
     5
170
     0
171
     0
290
     0
174
     0
 93
       13
 44
0.0
173
     0
291
     1
 45
0.0
1001
ACAD
1000
AcDbSavedByObjectVersion
1070
     0
  0
VISUALSTYLE
  5
13D7
102
{ACAD_REACTORS
330
13D5
102
}
330
13D5
100
AcDbVisualStyle
  2
FlatWithEdges
 70
     1
 71
     2
 72
     1
 73
     1
 90
        2
 40
-0.6
 41
30.0
 62
     5
 63
     7
421
 16777215
 74
     1
 91
        4
 64
     7
 65
   257
 75
     1
175
     1
 42
1.0
 92
        0
 66
   257
 43
1.0
 76
     1
 77
     6
 78
     2
 67
     7
 79
     5
170
     0
171
     0
290
     0
174
     0
 93
       13
 44
0.0
173
     0
291
     1
 45
0.0
1001
ACAD
1000
AcDbSavedByObjectVersion
1070
     0
  0
VISUALSTYLE
  5
13D8
102
{ACAD_REACTORS
330
13D5
102
}
330
13D5
100
AcDbVisualStyle
  2
Gouraud
 70
     2
 71
     2
 72
     2
 73
     1
 90
        2
 40
-0.6
 41
30.0
 62
     5
 63
     7
421
 16777215
 74
     0
 91
        4
 64
     7
 65
   257
 75
     1
175
     1
 42
1.0
 92
        0
 66
     7
 43
1.0
 76
     1
 77
     6
 78
     2
 67
     7
 79
     5
170
     0
171
     0
290
     0
174
     0
 93
       13
 44
0.0
173
     0
291
     1
 45
0.0
1001
ACAD
1000
AcDbSavedByObjectVersion
1070
     0
  0
VISUALSTYLE
  5
13D9
102
{ACAD_REACTORS
330
13D5
102
}
330
13D5
100
AcDbVisualStyle
  2
GouraudWithEdges
 70
     3
 71
     2
 72
     2
 73
     1
 90
        2
 40
-0.6
 41
30.0
 62
     5
 63
     7
421
 16777215
 74
     1
 91
        4
 64
     7
 65
   257
 75
     1
175
     1
 42
1.0
 92
        0
 66
   257
 43
1.0
 76
     1
 77
     6
 78
     2
 67
     7
 79
     5
170
     0
171
     0
290
     0
174
     0
 93
       13
 44
0.0
173
     0
291
     1
 45
0.0
1001
ACAD
1000
AcDbSavedByObjectVersion
1070
     0
  0
VISUALSTYLE
  5
14D9
102
{ACAD_XDICTIONARY
360
14DA
102
}
102
{ACAD_REACTORS
330
13D5
102
}
330
13D5
100
AcDbVisualStyle
  2
JitterOff
 70
    20
 71
     2
 72
     2
 73
     0
 90
        0
 40
-0.6
 41
-30.0
 62
     5
 63
     7
 74
     1
 91
        4
 64
     7
 65
   257
 75
     1
175
     1
 42
1.0
 92
       10
 66
     7
 43
1.0
 76
     1
 77
     6
 78
     2
 67
     7
 79
     5
170
     0
171
     0
290
     0
174
     0
 93
        1
 44
0.0
173
     0
291
     1
 45
0.0
1001
ACAD
1000
AcDbSavedByObjectVersion
1070
     0
  0
VISUALSTYLE
  5
13E3
102
{ACAD_REACTORS
330
13D5
102
}
330
13D5
100
AcDbVisualStyle
  2
Linepattern
 70
    14
 71
     2
 72
     2
 73
     0
 90
        0
 40
-0.6
 41
-30.0
 62
     5
 63
     7
421
 16777215
 74
     1
 91
        4
 64
     7
 65
   257
 75
     7
175
     7
 42
1.0
 92
        8
 66
     7
 43
1.0
 76
     1
 77
     6
 78
     2
 67
     7
 79
     5
170
     0
171
     0
290
     0
174
     0
 93
        1
 44
0.0
173
     0
291
     1
 45
0.0
1001
ACAD
1000
AcDbSavedByObjectVersion
1070
     0
  0
VISUALSTYLE
  5
14DC
102
{ACAD_XDICTIONARY
360
14DD
102
}
102
{ACAD_REACTORS
330
13D5
102
}
330
13D5
100
AcDbVisualStyle
  2
OverhangOff
 70
    21
 71
     2
 72
     2
 73
     0
 90
        0
 40
-0.6
 41
-30.0
 62
     5
 63
     7
 74
     1
 91
        4
 64
     7
 65
   257
 75
     1
175
     1
 42
1.0
 92
        9
 66
     7
 43
1.0
 76
     1
 77
     6
 78
     2
 67
     7
 79
     5
170
     0
171
     0
290
     0
174
     0
 93
        1
 44
0.0
173
     0
291
     1
 45
0.0
1001
ACAD
1000
AcDbSavedByObjectVersion
1070
     0
  0
VISUALSTYLE
  5
13DF
102
{ACAD_REACTORS
330
13D5
102
}
330
13D5
100
AcDbVisualStyle
  2
Realistic
 70
     8
 71
     2
 72
     2
 73
     0
 90
        0
 40
-0.6
 41
-30.0
 62
     5
 63
     7
421
 16777215
 74
     1
 91
        0
 64
     7
 65
   257
 75
     1
175
     1
 42
1.0
 92
        8
 66
     8
424
  7895160
 43
1.0
 76
     1
 77
     6
 78
     2
 67
     7
 79
     5
170
     0
171
     0
290
     0
174
     0
 93
       13
 44
0.0
173
     0
291
     0
 45
0.0
1001
ACAD
1000
AcDbSavedByObjectVersion
1070
     0
  0
VISUALSTYLE
  5
13E2
102
{ACAD_REACTORS
330
13D5
102
}
330
13D5
100
AcDbVisualStyle
  2
Thicken
 70
    13
 71
     2
 72
     2
 73
     0
 90
        0
 40
-0.6
 41
-30.0
 62
     5
 63
     7
421
 16777215
 74
     1
 91
        4
 64
     7
 65
   257
 75
     1
175
     1
 42
1.0
 92
       12
 66
     7
 43
1.0
 76
     1
 77
     6
 78
     2
 67
     7
 79
     5
170
     0
171
     0
290
     0
174
     0
 93
        1
 44
0.0
173
     0
291
     1
 45
0.0
1001
ACAD
1000
AcDbSavedByObjectVersion
1070
     0
  0
DICTIONARYVAR
  5
14EC
102
{ACAD_REACTORS
330
79A
102
}
330
79A
100
DictionaryVariables
280
     0
  1
STANDARD
  0
DICTIONARYVAR
  5
79C
102
{ACAD_REACTORS
330
79A
102
}
330
79A
100
DictionaryVariables
280
     0
  1
1
  0
DICTIONARYVAR
  5
79B
102
{ACAD_REACTORS
330
79A
102
}
330
79A
100
DictionaryVariables
280
     0
  1
1
  0
DICTIONARYVAR
  5
B73
102
{ACAD_REACTORS
330
79A
102
}
330
79A
100
DictionaryVariables
280
     0
  1
1
  0
DICTIONARY
  5
B3E
102
{ACAD_REACTORS
330
43
102
}
330
43
100
AcDbDictionary
281
     1
  0
DICTIONARY
  5
42
102
{ACAD_REACTORS
330
43
102
}
330
43
100
AcDbDictionary
281
     1
  0
LAYER_INDEX
  5
133C
102
{ACAD_REACTORS
330
133B
102
}
330
133B
100
AcDbIndex
 40
2456156.387550914
100
AcDbLayerIndex
  8
0
360
133D
 90
       30
  8
AM_0
360
133E
 90
      322
  8
AM_5
360
133F
 90
        5
  8
DEFPOINTS
360
1340
 90
        2
  8
AM_7
360
1341
 90
        7
  8
AM_8
360
1342
 90
       18
  8
AM_4
360
1343
 90
      577
  8
AM_6
360
1344
 90
        3
  0
DICTIONARY
  5
14EF
330
13D3
100
AcDbDictionary
280
     1
281
     1
  3
ACAD_XREC_ROUNDTRIP
360
14F0
  0
DICTIONARY
  5
14ED
330
13D2
100
AcDbDictionary
280
     1
281
     1
  3
ACAD_XREC_ROUNDTRIP
360
14EE
  0
DICTIONARY
  5
14F1
330
13D4
100
AcDbDictionary
280
     1
281
     1
  3
ACAD_XREC_ROUNDTRIP
360
14F2
  0
DICTIONARY
  5
14F3
330
13E8
100
AcDbDictionary
280
     1
281
     1
  3
ACAD_XREC_ROUNDTRIP
360
14F4
  0
DICTIONARY
  5
14D7
330
14D6
100
AcDbDictionary
280
     1
281
     1
  3
ACAD_XREC_ROUNDTRIP
360
14D8
  0
DICTIONARY
  5
14DA
330
14D9
100
AcDbDictionary
280
     1
281
     1
  3
ACAD_XREC_ROUNDTRIP
360
14DB
  0
DICTIONARY
  5
14DD
330
14DC
100
AcDbDictionary
280
     1
281
     1
  3
ACAD_XREC_ROUNDTRIP
360
14DE
  0
IDBUFFER
  5
133D
330
0
100
AcDbIdBuffer
330
102D
330
102F
330
1030
330
1293
330
1294
330
1295
330
1296
330
1297
330
1298
330
1299
330
129A
330
129B
330
129C
330
129D
330
129E
330
129F
330
12A0
330
12A1
330
12A2
330
12A3
330
12A4
330
12A5
330
12A6
330
12A7
330
12A8
330
12A9
330
12AA
330
12AB
330
12AC
330
12AD
  0
IDBUFFER
  5
133E
330
0
100
AcDbIdBuffer
330
1D8
330
1D9
330
1DA
330
1DB
330
1DC
330
1DD
330
1DE
330
1DF
330
1E0
330
1E1
330
1E2
330
1E3
330
1E4
330
1E5
330
1E6
330
1E7
330
1E8
330
1E9
330
1EA
330
1EB
330
1EC
330
1ED
330
1EE
330
1EF
330
1F0
330
1F1
330
1F2
330
1F3
330
1F4
330
1F5
330
1F6
330
1F7
330
1F8
330
1F9
330
1FA
330
1FB
330
1FC
330
1FD
330
1FE
330
1FF
330
200
330
201
330
202
330
203
330
204
330
205
330
206
330
207
330
208
330
209
330
20A
330
20B
330
20C
330
20D
330
20E
330
20F
330
210
330
211
330
212
330
213
330
214
330
215
330
216
330
217
330
218
330
219
330
21A
330
21B
330
21C
330
21D
330
21E
330
220
330
221
330
222
330
223
330
224
330
225
330
226
330
227
330
5E6
330
5E7
330
5E8
330
5E9
330
5EA
330
5EB
330
5EC
330
5ED
330
5EE
330
5EF
330
5F0
330
5F1
330
5F2
330
5F3
330
5F4
330
5F5
330
5F6
330
5F7
330
5F8
330
5FA
330
5FB
330
5FC
330
5FD
330
5FE
330
5FF
330
600
330
601
330
602
330
603
330
604
330
605
330
606
330
607
330
609
330
60A
330
60B
330
60C
330
60D
330
60E
330
60F
330
610
330
611
330
612
330
613
330
614
330
616
330
617
330
618
330
619
330
61A
330
61B
330
61D
330
61E
330
620
330
621
330
622
330
623
330
624
330
625
330
626
330
627
330
628
330
629
330
62A
330
62C
330
62D
330
62E
330
62F
330
630
330
632
330
635
330
636
330
637
330
638
330
639
330
63A
330
63B
330
63C
330
63E
330
63F
330
640
330
641
330
642
330
643
330
644
330
645
330
646
330
647
330
648
330
649
330
64A
330
64B
330
64C
330
64D
330
64E
330
64F
330
650
330
651
330
652
330
653
330
654
330
655
330
656
330
657
330
658
330
659
330
65A
330
65B
330
65C
330
65D
330
65E
330
65F
330
660
330
661
330
662
330
663
330
664
330
665
330
666
330
667
330
669
330
66A
330
66B
330
66C
330
66D
330
66E
330
66F
330
670
330
671
330
672
330
673
330
674
330
675
330
676
330
677
330
67A
330
67B
330
67C
330
67E
330
67F
330
680
330
681
330
682
330
683
330
684
330
685
330
686
330
687
330
688
330
689
330
68A
330
68B
330
68C
330
68D
330
68E
330
68F
330
690
330
691
330
692
330
693
330
694
330
695
330
696
330
697
330
698
330
699
330
69A
330
69B
330
69C
330
69D
330
69E
330
69F
330
6A0
330
6A1
330
6A2
330
6A3
330
6A4
330
6A5
330
6A6
330
6A7
330
6A8
330
6AA
330
6AB
330
6AC
330
6AD
330
6AE
330
6AF
330
6B0
330
6B1
330
6B2
330
6B3
330
6B4
330
6B5
330
6B6
330
6B7
330
6B8
330
6B9
330
6BB
330
6BC
330
6BD
330
6BE
330
6BF
330
6C0
330
6C1
330
6C2
330
6C3
330
6D2
330
6D3
330
6E5
330
6E6
330
6E7
330
6E8
330
6E9
330
6EA
330
6EC
330
6FF
330
700
330
701
330
703
330
704
330
705
330
706
330
709
330
70A
330
70B
330
70C
330
70D
330
70E
330
70F
330
710
330
711
330
712
330
713
330
717
330
718
330
71A
330
71C
330
71D
330
720
330
12AE
330
12AF
330
12B0
330
14E2
  0
IDBUFFER
  5
133F
330
0
100
AcDbIdBuffer
330
30
330
87
330
A5
330
B2
330
6C4
  0
IDBUFFER
  5
1340
330
0
100
AcDbIdBuffer
330
5E5
330
5F9
  0
IDBUFFER
  5
1341
330
0
100
AcDbIdBuffer
330
C3
330
C5
330
668
330
678
330
679
330
67D
330
719
  0
IDBUFFER
  5
1342
330
0
100
AcDbIdBuffer
330
27
330
2C
330
2D
330
2E
330
2F
330
608
330
615
330
61C
330
631
330
633
330
63D
330
6A9
330
707
330
708
330
714
330
715
330
71E
330
71F
  0
IDBUFFER
  5
1343
330
0
100
AcDbIdBuffer
330
21F
330
62B
330
6EB
330
702
330
71B
330
721
330
722
330
DF2
330
DF3
330
DF4
330
DF5
330
DF6
330
DF7
330
DF8
330
DF9
330
DFA
330
DFB
330
DFC
330
DFD
330
DFE
330
DFF
330
E00
330
E01
330
E02
330
E03
330
E04
330
E05
330
E06
330
E07
330
E08
330
E09
330
E0A
330
E0B
330
E0C
330
E0D
330
E0E
330
E0F
330
E10
330
E11
330
E12
330
E13
330
E14
330
E15
330
E16
330
E17
330
E18
330
E19
330
E1A
330
E1B
330
E1C
330
E1D
330
E1E
330
E1F
330
E20
330
E21
330
E22
330
E23
330
E24
330
E25
330
E26
330
E27
330
E28
330
E29
330
E2A
330
E2B
330
E2C
330
E2D
330
E2E
330
E2F
330
E30
330
E31
330
E32
330
E33
330
E34
330
E35
330
E36
330
E37
330
E38
330
E39
330
E3A
330
E3B
330
E3C
330
E3D
330
E3E
330
E3F
330
E40
330
E41
330
E42
330
E43
330
E44
330
E45
330
E46
330
E47
330
E48
330
E49
330
E4A
330
E4B
330
E4C
330
E4D
330
E4E
330
E4F
330
E50
330
E51
330
E52
330
E53
330
E54
330
E55
330
E56
330
E57
330
E58
330
E59
330
E5A
330
E5B
330
E5C
330
E5D
330
E5E
330
E5F
330
E60
330
E61
330
E62
330
E63
330
E64
330
E65
330
E66
330
E67
330
E68
330
E69
330
E6A
330
E6B
330
E6C
330
E6D
330
E6E
330
E6F
330
E70
330
E71
330
E72
330
E73
330
E74
330
E75
330
E76
330
E77
330
E78
330
E79
330
E7A
330
E7B
330
E7C
330
E7D
330
E7E
330
E7F
330
E80
330
E81
330
E82
330
E83
330
E84
330
E85
330
E86
330
E87
330
E88
330
E89
330
E8A
330
E8B
330
E8C
330
E8D
330
E8E
330
E8F
330
E90
330
E91
330
E92
330
E93
330
E94
330
E95
330
E96
330
E97
330
E98
330
E99
330
E9A
330
E9B
330
E9C
330
E9D
330
E9E
330
E9F
330
EA0
330
EA1
330
EA2
330
EA3
330
EA4
330
EA5
330
EA6
330
EA7
330
EA8
330
EA9
330
EAA
330
EAB
330
EAC
330
EAD
330
EAE
330
EAF
330
EB0
330
EB1
330
EB2
330
EB3
330
EB4
330
EB5
330
EB6
330
EB7
330
EB8
330
EB9
330
EBA
330
EBB
330
EBC
330
EBD
330
EBE
330
EBF
330
EC0
330
EC1
330
EC2
330
EC3
330
EC4
330
EC5
330
EC6
330
EC7
330
EC8
330
EC9
330
ECA
330
ECB
330
ECC
330
ECD
330
ECE
330
ECF
330
ED0
330
ED1
330
ED2
330
ED3
330
ED4
330
ED5
330
ED6
330
ED7
330
ED8
330
ED9
330
EDA
330
EDB
330
EDC
330
EDD
330
EDE
330
EDF
330
EE0
330
EE1
330
EE2
330
EE3
330
EE4
330
EE5
330
EE6
330
EE7
330
EE8
330
EE9
330
EEA
330
EEB
330
EEC
330
EED
330
EEE
330
EEF
330
EF0
330
EF1
330
EF2
330
EF3
330
EF4
330
EF5
330
EF6
330
EF7
330
EF8
330
EF9
330
EFA
330
EFB
330
EFC
330
EFD
330
EFE
330
EFF
330
F00
330
F01
330
F02
330
F03
330
F04
330
F05
330
F06
330
F07
330
F08
330
F09
330
F0A
330
F0B
330
F0C
330
F0D
330
F0E
330
F0F
330
F10
330
F11
330
F12
330
F13
330
F14
330
F15
330
F16
330
F17
330
F18
330
F19
330
F1A
330
F1B
330
F1C
330
F1D
330
F1E
330
F1F
330
F20
330
F21
330
F22
330
F23
330
F24
330
F25
330
F26
330
F27
330
F28
330
F29
330
F2A
330
F2B
330
F2C
330
F2D
330
F2E
330
F2F
330
F30
330
F31
330
F32
330
F33
330
F34
330
F35
330
F36
330
F37
330
F38
330
F39
330
F3A
330
F3B
330
F3C
330
F3D
330
F3E
330
F3F
330
F40
330
F41
330
F42
330
F43
330
F44
330
F45
330
F46
330
F47
330
F48
330
F49
330
F4A
330
F4B
330
F4C
330
F4D
330
F4E
330
F4F
330
F50
330
F51
330
F52
330
F53
330
F54
330
F55
330
F56
330
F57
330
F58
330
F59
330
F5A
330
F5B
330
F5C
330
F5D
330
F5E
330
F5F
330
F60
330
F61
330
F62
330
F63
330
F64
330
F65
330
F66
330
F67
330
F68
330
F69
330
F6A
330
F6B
330
F6C
330
F6D
330
F6E
330
F6F
330
F70
330
F71
330
F72
330
F73
330
F74
330
F75
330
F76
330
F77
330
F78
330
F79
330
F7A
330
F7B
330
F7C
330
F7D
330
F7E
330
F7F
330
F80
330
F81
330
F82
330
F83
330
F84
330
F85
330
F86
330
F87
330
F88
330
F89
330
F8A
330
F8B
330
F8C
330
F8D
330
F8E
330
F8F
330
F90
330
F91
330
F92
330
F93
330
F94
330
F95
330
F96
330
F97
330
F98
330
F99
330
F9A
330
F9B
330
F9C
330
F9D
330
F9E
330
F9F
330
FA0
330
FA1
330
FA2
330
FA3
330
FA4
330
FA5
330
FA6
330
FA7
330
FA8
330
FA9
330
FAA
330
FAB
330
FAC
330
FAD
330
FAE
330
FAF
330
FB0
330
FB1
330
FB2
330
FB3
330
FB4
330
FB5
330
FB6
330
FB7
330
FB8
330
FB9
330
FBA
330
FBB
330
FBC
330
FBD
330
FBE
330
FBF
330
FC0
330
FC1
330
FC2
330
FC3
330
FC4
330
FC5
330
FC6
330
FC7
330
FC8
330
FC9
330
FCA
330
FCB
330
FCC
330
FCD
330
FCE
330
FCF
330
FD0
330
FD1
330
FD2
330
FD3
330
FD4
330
FD5
330
FD6
330
FD7
330
FD8
330
FD9
330
FDA
330
FDB
330
FDC
330
FDD
330
FDE
330
FDF
330
FE0
330
FE1
330
FE2
330
FE3
330
FE4
330
FE5
330
FE6
330
FE7
330
FE8
330
FE9
330
FEA
330
FEB
330
FEC
330
FED
330
FEE
330
FEF
330
FF0
330
FF1
330
FF2
330
FF3
330
FF4
330
FF5
330
FF6
330
FF7
330
FF8
330
FF9
330
FFA
330
FFB
330
FFC
330
FFD
330
FFE
330
FFF
330
1000
330
1001
330
1002
330
1003
330
1004
330
1005
330
1006
330
1007
330
1008
330
1009
330
100A
330
100B
330
100C
330
100D
330
100E
330
100F
330
1010
330
1011
330
1012
330
1013
330
1014
330
1015
330
1016
330
1017
330
1018
330
1019
330
101A
330
101B
330
101C
330
101D
330
101E
330
101F
330
1020
330
1021
330
1022
330
1023
330
1024
330
1025
330
1026
330
1027
330
1028
330
1029
330
102A
330
102B
  0
IDBUFFER
  5
1344
330
0
100
AcDbIdBuffer
330
6BA
330
102C
330
102E
  0
XRECORD
  5
14F0
102
{ACAD_REACTORS
330
14EF
102
}
330
14EF
100
AcDbXrecord
280
     1
102
MATERIAL
148
0.0
149
0.0
149
0.0
 93
        0
 94
       63
282
     0
 72
     1
 77
     1
171
     1
175
     1
179
     1
273
     0
  0
XRECORD
  5
14EE
102
{ACAD_REACTORS
330
14ED
102
}
330
14ED
100
AcDbXrecord
280
     1
102
MATERIAL
148
0.0
149
0.0
149
0.0
 93
        0
 94
       63
282
     0
 72
     1
 77
     1
171
     1
175
     1
179
     1
273
     0
  0
XRECORD
  5
14F2
102
{ACAD_REACTORS
330
14F1
102
}
330
14F1
100
AcDbXrecord
280
     1
102
MATERIAL
148
0.0
149
0.0
149
0.0
 93
        0
 94
       63
282
     0
 72
     1
 77
     1
171
     1
175
     1
179
     1
273
     0
  0
XRECORD
  5
14F4
102
{ACAD_REACTORS
330
14F3
102
}
330
14F3
100
AcDbXrecord
280
     1
102
ACAD_ROUNDTRIP_PRE2007_TABLESTYLE
 90
      512
 91
        0
  1

 92
      512
 93
        0
  2

 94
      512
 95
        0
  3

  0
XRECORD
  5
14D8
102
{ACAD_REACTORS
330
14D7
102
}
330
14D7
100
AcDbXrecord
280
     1
102
RTVSPropertyOp0
 70
     0
102
RTVSPropertyOp1
 70
     0
102
RTVSPropertyOp2
 70
     0
102
RTVSPropertyOp3
 70
     0
102
RTVSPropertyOp4
 70
     0
102
RTVSPropertyOp5
 70
     0
102
RTVSPropertyOp6
 70
     0
102
RTVSPropertyOp7
 70
     0
102
RTVSPropertyOp8
 70
     0
102
RTVSPropertyOp9
 70
     0
102
RTVSPropertyOp10
 70
     0
102
RTVSPropertyOp11
 70
     0
102
RTVSPropertyOp12
 70
     0
102
RTVSPropertyOp13
 70
     0
102
RTVSPropertyOp14
 70
     2
102
RTVSPropertyOp15
 70
     0
102
RTVSPropertyOp16
 70
     0
102
RTVSPropertyOp17
 70
     0
102
RTVSPropertyOp18
 70
     0
102
RTVSPropertyOp19
 70
     0
102
RTVSPropertyOp20
 70
     0
102
RTVSPropertyOp21
 70
     0
102
RTVSPropertyOp22
 70
     0
102
RTVSPropertyOp23
 70
     0
102
RTVSPropertyOp24
 70
     0
102
RTVSPropertyOp25
 70
     0
102
RTVSPropertyOp26
 70
     0
102
RTVSPropertyOp27
 70
     0
  0
XRECORD
  5
14DB
102
{ACAD_REACTORS
330
14DA
102
}
330
14DA
100
AcDbXrecord
280
     1
102
RTVSPropertyOp0
 70
     0
102
RTVSPropertyOp1
 70
     0
102
RTVSPropertyOp2
 70
     0
102
RTVSPropertyOp3
 70
     0
102
RTVSPropertyOp4
 70
     0
102
RTVSPropertyOp5
 70
     0
102
RTVSPropertyOp6
 70
     0
102
RTVSPropertyOp7
 70
     0
102
RTVSPropertyOp8
 70
     0
102
RTVSPropertyOp9
 70
     0
102
RTVSPropertyOp10
 70
     0
102
RTVSPropertyOp11
 70
     0
102
RTVSPropertyOp12
 70
     0
102
RTVSPropertyOp13
 70
     0
102
RTVSPropertyOp14
 70
     2
102
RTVSPropertyOp15
 70
     0
102
RTVSPropertyOp16
 70
     0
102
RTVSPropertyOp17
 70
     0
102
RTVSPropertyOp18
 70
     0
102
RTVSPropertyOp19
 70
     0
102
RTVSPropertyOp20
 70
     0
102
RTVSPropertyOp21
 70
     0
102
RTVSPropertyOp22
 70
     0
102
RTVSPropertyOp23
 70
     0
102
RTVSPropertyOp24
 70
     0
102
RTVSPropertyOp25
 70
     0
102
RTVSPropertyOp26
 70
     0
102
RTVSPropertyOp27
 70
     0
  0
XRECORD
  5
14DE
102
{ACAD_REACTORS
330
14DD
102
}
330
14DD
100
AcDbXrecord
280
     1
102
RTVSPropertyOp0
 70
     0
102
RTVSPropertyOp1
 70
     0
102
RTVSPropertyOp2
 70
     0
102
RTVSPropertyOp3
 70
     0
102
RTVSPropertyOp4
 70
     0
102
RTVSPropertyOp5
 70
     0
102
RTVSPropertyOp6
 70
     0
102
RTVSPropertyOp7
 70
     0
102
RTVSPropertyOp8
 70
     0
102
RTVSPropertyOp9
 70
     0
102
RTVSPropertyOp10
 70
     0
102
RTVSPropertyOp11
 70
     0
102
RTVSPropertyOp12
 70
     0
102
RTVSPropertyOp13
 70
     0
102
RTVSPropertyOp14
 70
     2
102
RTVSPropertyOp15
 70
     0
102
RTVSPropertyOp16
 70
     0
102
RTVSPropertyOp17
 70
     0
102
RTVSPropertyOp18
 70
     0
102
RTVSPropertyOp19
 70
     0
102
RTVSPropertyOp20
 70
     0
102
RTVSPropertyOp21
 70
     0
102
RTVSPropertyOp22
 70
     0
102
RTVSPropertyOp23
 70
     0
102
RTVSPropertyOp24
 70
     0
102
RTVSPropertyOp25
 70
     0
102
RTVSPropertyOp26
 70
     0
102
RTVSPropertyOp27
 70
     0
  0
ENDSEC
  0
EOF
