  0
SECTION
  2
HEADER
  9
$ACADVER
  1
AC1018
  9
$ACADMAINTVER
 70
   104
  9
$DWGCODEPAGE
  3
ANSI_1252
  9
$LASTSAVEDBY
  1
oberdoer
  9
$CUSTOMPROPERTYTAG
  1
AmdtFileType
  9
$CUSTOMPROPERTY
  1
84
  9
$INSBASE
 10
-3590.80497
 20
1642.593988
 30
0.0
  9
$EXTMIN
 10
14.9669163599076
 20
14.99481100127764
 30
-0.0015258207003583
  9
$EXTMAX
 10
599.005500317586
 20
425.0280928219145
 30
0.0000000349246037
  9
$LIMMIN
 10
-2.537711
 20
2.672257
  9
$LIMMAX
 10
616.557358
 20
437.3174839999999
  9
$ORTHOMODE
 70
     0
  9
$REGENMODE
 70
     1
  9
$FILLMODE
 70
     1
  9
$QTEXTMODE
 70
     0
  9
$MIRRTEXT
 70
     0
  9
$LTSCALE
 40
1.0
  9
$ATTMODE
 70
     1
  9
$TEXTSIZE
 40
50.0
  9
$TRACEWID
 40
1.0
  9
$TEXTSTYLE
  7
STANDARD
  9
$CLAYER
  8
AM_0
  9
$CELTYPE
  6
BYLAYER
  9
$CECOLOR
 62
   256
  9
$CELTSCALE
 40
1.0
  9
$DISPSILH
 70
     0
  9
$DIMSCALE
 40
1.0
  9
$DIMASZ
 40
2.5
  9
$DIMEXO
 40
0.0
  9
$DIMDLI
 40
10.0
  9
$DIMRND
 40
0.0
  9
$DIMDLE
 40
0.0
  9
$DIMEXE
 40
1.0
  9
$DIMTP
 40
5.0
  9
$DIMTM
 40
5.0
  9
$DIMTXT
 40
3.0
  9
$DIMCEN
 40
0.0
  9
$DIMTSZ
 40
0.0
  9
$DIMTOL
 70
     0
  9
$DIMLIM
 70
     0
  9
$DIMTIH
 70
     0
  9
$DIMTOH
 70
     0
  9
$DIMSE1
 70
     0
  9
$DIMSE2
 70
     0
  9
$DIMTAD
 70
     1
  9
$DIMZIN
 70
     8
  9
$DIMBLK
  1

  9
$DIMASO
 70
     1
  9
$DIMSHO
 70
     1
  9
$DIMPOST
  1

  9
$DIMAPOST
  1
"
  9
$DIMALT
 70
     0
  9
$DIMALTD
 70
     2
  9
$DIMALTF
 40
0.03937
  9
$DIMLFAC
 40
1.0
  9
$DIMTOFL
 70
     1
  9
$DIMTVP
 40
0.0
  9
$DIMTIX
 70
     0
  9
$DIMSOXD
 70
     0
  9
$DIMSAH
 70
     0
  9
$DIMBLK1
  1

  9
$DIMBLK2
  1

  9
$DIMSTYLE
  2
AM_DIN
  9
$DIMCLRD
 70
   256
  9
$DIMCLRE
 70
   256
  9
$DIMCLRT
 70
     2
  9
$DIMTFAC
 40
0.71
  9
$DIMGAP
 40
0.7
  9
$DIMJUST
 70
     0
  9
$DIMSD1
 70
     0
  9
$DIMSD2
 70
     0
  9
$DIMTOLJ
 70
     0
  9
$DIMTZIN
 70
     8
  9
$DIMALTZ
 70
     0
  9
$DIMALTTZ
 70
     0
  9
$DIMUPT
 70
     0
  9
$DIMDEC
 70
     0
  9
$DIMTDEC
 70
     2
  9
$DIMALTU
 70
     2
  9
$DIMALTTD
 70
     2
  9
$DIMTXSTY
  7
STANDARD
  9
$DIMAUNIT
 70
     0
  9
$DIMADEC
 70
     0
  9
$DIMALTRND
 40
0.0
  9
$DIMAZIN
 70
     2
  9
$DIMDSEP
 70
    46
  9
$DIMATFIT
 70
     3
  9
$DIMFRAC
 70
     0
  9
$DIMLDRBLK
  1

  9
$DIMLUNIT
 70
     2
  9
$DIMLWD
 70
    -1
  9
$DIMLWE
 70
    -1
  9
$DIMTMOVE
 70
     0
  9
$LUNITS
 70
     2
  9
$LUPREC
 70
     2
  9
$SKETCHINC
 40
1.0
  9
$FILLETRAD
 40
5.0
  9
$AUNITS
 70
     0
  9
$AUPREC
 70
     0
  9
$MENU
  1
.
  9
$ELEVATION
 40
0.0
  9
$PELEVATION
 40
0.0
  9
$THICKNESS
 40
0.0
  9
$LIMCHECK
 70
     0
  9
$CHAMFERA
 40
2.5
  9
$CHAMFERB
 40
2.5
  9
$CHAMFERC
 40
20.0
  9
$CHAMFERD
 40
0.0
  9
$SKPOLY
 70
     0
  9
$TDCREATE
 40
2452908.589511528
  9
$TDUCREATE
 40
2452908.506178195
  9
$TDUPDATE
 40
2456156.376576111
  9
$TDUUPDATE
 40
2456156.293242778
  9
$TDINDWG
 40
2.8668968171
  9
$TDUSRTIMER
 40
2.8668962847
  9
$USRTIMER
 70
     1
  9
$ANGBASE
 50
0.0
  9
$ANGDIR
 70
     0
  9
$PDMODE
 70
     0
  9
$PDSIZE
 40
0.0
  9
$PLINEWID
 40
0.0
  9
$SPLFRAME
 70
     0
  9
$SPLINETYPE
 70
     6
  9
$SPLINESEGS
 70
     8
  9
$HANDSEED
  5
16BE
  9
$SURFTAB1
 70
     6
  9
$SURFTAB2
 70
     6
  9
$SURFTYPE
 70
     6
  9
$SURFU
 70
     6
  9
$SURFV
 70
     6
  9
$UCSBASE
  2

  9
$UCSNAME
  2

  9
$UCSORG
 10
0.0
 20
0.0
 30
0.0
  9
$UCSXDIR
 10
1.0
 20
0.0
 30
0.0
  9
$UCSYDIR
 10
0.0
 20
1.0
 30
0.0
  9
$UCSORTHOREF
  2

  9
$UCSORTHOVIEW
 70
     0
  9
$UCSORGTOP
 10
0.0
 20
0.0
 30
0.0
  9
$UCSORGBOTTOM
 10
0.0
 20
0.0
 30
0.0
  9
$UCSORGLEFT
 10
0.0
 20
0.0
 30
0.0
  9
$UCSORGRIGHT
 10
0.0
 20
0.0
 30
0.0
  9
$UCSORGFRONT
 10
0.0
 20
0.0
 30
0.0
  9
$UCSORGBACK
 10
0.0
 20
0.0
 30
0.0
  9
$PUCSBASE
  2

  9
$PUCSNAME
  2

  9
$PUCSORG
 10
0.0
 20
0.0
 30
0.0
  9
$PUCSXDIR
 10
1.0
 20
0.0
 30
0.0
  9
$PUCSYDIR
 10
0.0
 20
1.0
 30
0.0
  9
$PUCSORTHOREF
  2

  9
$PUCSORTHOVIEW
 70
     0
  9
$PUCSORGTOP
 10
0.0
 20
0.0
 30
0.0
  9
$PUCSORGBOTTOM
 10
0.0
 20
0.0
 30
0.0
  9
$PUCSORGLEFT
 10
0.0
 20
0.0
 30
0.0
  9
$PUCSORGRIGHT
 10
0.0
 20
0.0
 30
0.0
  9
$PUCSORGFRONT
 10
0.0
 20
0.0
 30
0.0
  9
$PUCSORGBACK
 10
0.0
 20
0.0
 30
0.0
  9
$USERI1
 70
     0
  9
$USERI2
 70
     0
  9
$USERI3
 70
     0
  9
$USERI4
 70
     0
  9
$USERI5
 70
     0
  9
$USERR1
 40
0.0
  9
$USERR2
 40
0.0
  9
$USERR3
 40
0.0
  9
$USERR4
 40
0.0
  9
$USERR5
 40
0.0
  9
$WORLDVIEW
 70
     1
  9
$SHADEDGE
 70
     3
  9
$SHADEDIF
 70
    70
  9
$TILEMODE
 70
     1
  9
$MAXACTVP
 70
    48
  9
$PINSBASE
 10
0.0
 20
0.0
 30
0.0
  9
$PLIMCHECK
 70
     0
  9
$PEXTMIN
 10
1.000000000000000E+20
 20
1.000000000000000E+20
 30
1.000000000000000E+20
  9
$PEXTMAX
 10
-1.000000000000000E+20
 20
-1.000000000000000E+20
 30
-1.000000000000000E+20
  9
$PLIMMIN
 10
0.0
 20
0.0
  9
$PLIMMAX
 10
420.0
 20
297.0
  9
$UNITMODE
 70
     0
  9
$VISRETAIN
 70
     1
  9
$PLINEGEN
 70
     0
  9
$PSLTSCALE
 70
     1
  9
$TREEDEPTH
 70
  3020
  9
$CMLSTYLE
  2
STANDARD
  9
$CMLJUST
 70
     0
  9
$CMLSCALE
 40
20.0
  9
$PROXYGRAPHICS
 70
     1
  9
$MEASUREMENT
 70
     1
  9
$CELWEIGHT
370
    -1
  9
$ENDCAPS
280
     0
  9
$JOINSTYLE
280
     0
  9
$LWDISPLAY
290
     0
  9
$INSUNITS
 70
     4
  9
$HYPERLINKBASE
  1

  9
$STYLESHEET
  1
ganz_fein_1.ctb
  9
$XEDIT
290
     1
  9
$CEPSNTYPE
380
     0
  9
$PSTYLEMODE
290
     1
  9
$FINGERPRINTGUID
  2
{3784B30D-4D27-11D4-B99F-00C04F7995CB}
  9
$VERSIONGUID
  2
{0FC2EED0-9A5C-4ED8-889B-A393D27A9747}
  9
$EXTNAMES
290
     1
  9
$PSVPSCALE
 40
0.0
  9
$OLESTARTUP
290
     0
  9
$SORTENTS
280
   127
  9
$INDEXCTL
280
     1
  9
$HIDETEXT
280
     1
  9
$XCLIPFRAME
290
     0
  9
$HALOGAP
280
     0
  9
$OBSCOLOR
 70
   257
  9
$OBSLTYPE
280
     0
  9
$INTERSECTIONDISPLAY
280
     0
  9
$INTERSECTIONCOLOR
 70
   257
  9
$DIMASSOC
280
     1
  9
$PROJECTNAME
  1

  0
ENDSEC
  0
SECTION
  2
CLASSES
  0
CLASS
  1
ACDBDICTIONARYWDFLT
  2
AcDbDictionaryWithDefault
  3
ObjectDBX Classes
 90
        0
 91
        2
280
     0
281
     0
  0
CLASS
  1
ACDBPLACEHOLDER
  2
AcDbPlaceHolder
  3
ObjectDBX Classes
 90
        0
 91
        2
280
     0
281
     0
  0
CLASS
  1
LAYOUT
  2
AcDbLayout
  3
ObjectDBX Classes
 90
        0
 91
        4
280
     0
281
     0
  0
CLASS
  1
AMGSETTINGSOBJ
  2
AmgSettingsObj
  3
"AcadM|Product Description: AutoCAD Mechanical|Company: Autodesk"
 90
        0
 91
        2
280
     1
281
     0
  0
CLASS
  1
ACME_DOCUMENT
  2
AcMeDbDoc
  3
AcMeServices
 90
        0
 91
        1
280
     0
281
     0
  0
CLASS
  1
ACMESCOPE
  2
AcMeScope
  3
AcMeServices
 90
        0
 91
        1
280
     0
281
     0
  0
CLASS
  1
ACMECOMMANDHISTORY
  2
AcMeCommandHistory
  3
AcMeServices
 90
        0
 91
        1
280
     0
281
     0
  0
CLASS
  1
DICTIONARYVAR
  2
AcDbDictionaryVar
  3
ObjectDBX Classes
 90
        0
 91
        4
280
     0
281
     0
  0
CLASS
  1
ACIMSYSVARMAN
  2
AcImSysVarManager
  3
AcMeServices
 90
        0
 91
        5
280
     0
281
     0
  0
CLASS
  1
ACIMREALSYSVAR
  2
AcImRealSysVar
  3
AcMeServices
 90
        0
 91
        1
280
     0
281
     0
  0
CLASS
  1
ACIMINTSYSVAR
  2
AcImIntSysVar
  3
AcMeServices
 90
        0
 91
       27
280
     0
281
     0
  0
CLASS
  1
ACMEDRAWINGMAN
  2
AcMeDrawingMan
  3
AcMeServices
 90
        0
 91
        1
280
     0
281
     0
  0
CLASS
  1
ACMEVIEW
  2
AcMeView
  3
AcMeServices
 90
        0
 91
        1
280
     0
281
     0
  0
CLASS
  1
ACDBENTITYCACHE
  2
AcMeEntityCache
  3
AcMeServices
 90
        0
 91
        1
280
     0
281
     0
  0
CLASS
  1
GSMANAGER
  2
AcMeGSManager
  3
AcMeServices
 90
        0
 91
        1
280
     0
281
     0
  0
CLASS
  1
AMDTINTERNALREACTOR
  2
AmdtInternalReactor
  3
AcMeServices
 90
        0
 91
        2
280
     0
281
     0
  0
CLASS
  1
ACMESTATEMGR
  2
AcMeStateMgr
  3
AcMeServices
 90
        0
 91
        1
280
     0
281
     0
  0
CLASS
  1
ACGREFMASTER
  2
AcGrefMaster
  3
AcAttribServices
 90
        0
 91
        2
280
     0
281
     0
  0
CLASS
  1
ACME_DATABASE
  2
AcMeDbDatabase
  3
AcMeServices
 90
        0
 91
        1
280
     0
281
     0
  0
CLASS
  1
ACRFINSADJUSTERMGR
  2
AcRfInsAdjusterMgr
  3
AcMeServices
 90
        0
 91
        1
280
     0
281
     0
  0
CLASS
  1
ACGREFACADMASTER
  2
AcGrefacadMaster
  3
AcGrefServices
 90
        0
 91
        2
280
     0
281
     0
  0
CLASS
  1
AMIMASTER
  2
AmiMaster
  3
AmiServices
 90
        0
 91
        2
280
     0
281
     0
  0
CLASS
  1
ACIMSTRSYSVAR
  2
AcImStrSysVar
  3
AcMeServices
 90
        0
 91
        5
280
     0
281
     0
  0
CLASS
  1
ACMSTANDARDDIN
  2
AcmStandardDIN
  3
"Amdt_StdImp|Product Description: AutoCAD Mechanical|Company: Autodesk"
 90
        0
 91
        1
280
     0
281
     0
  0
CLASS
  1
AMGOBJPROPCFG
  2
AmgObjPropCfg
  3
"AmgLay|Product Description: AutoCAD Mechanical|Company: Autodesk"
 90
        1
 91
        2
280
     0
281
     0
  0
CLASS
  1
AMDTEDGESTANDARDDIN
  2
AmdtEdgeStdDIN
  3
"Amdt_StdImp|Product Description: AutoCAD Mechanical|Company: Autodesk"
 90
        0
 91
        0
280
     0
281
     0
  0
CLASS
  1
ACMSURFSTANDARDDIN
  2
AcmSurfTextStdDIN
  3
"Amdt_StdImp|Product Description: AutoCAD Mechanical|Company: Autodesk"
 90
        0
 91
        1
280
     0
281
     0
  0
CLASS
  1
ACMFCFSTANDARDDIN
  2
AcmFCFStdDIN
  3
"Amdt_StdImp|Product Description: AutoCAD Mechanical|Company: Autodesk"
 90
        0
 91
        1
280
     0
281
     0
  0
CLASS
  1
ACMWELDSTANDARDDIN
  2
AcmWeldingStdDIN
  3
"Amdt_StdImp|Product Description: AutoCAD Mechanical|Company: Autodesk"
 90
        0
 91
        1
280
     0
281
     0
  0
CLASS
  1
ACMIDSTANDARDDIN
  2
AcmIdStdDIN
  3
"Amdt_StdImp|Product Description: AutoCAD Mechanical|Company: Autodesk"
 90
        0
 91
        1
280
     0
281
     0
  0
CLASS
  1
ACMDATUMSTANDARDDIN
  2
AcmDatumStdDIN
  3
"Amdt_StdImp|Product Description: AutoCAD Mechanical|Company: Autodesk"
 90
        0
 91
        1
280
     0
281
     0
  0
CLASS
  1
ACMBOMSTANDARDDIN
  2
AcmBOMStdDIN
  3
"Amdt_StdImp|Product Description: AutoCAD Mechanical|Company: Autodesk"
 90
        0
 91
        1
280
     0
281
     0
  0
CLASS
  1
ACMDETAILSTANDARDDIN
  2
AmdtDetailSymStdDIN
  3
"Amdt_StdImp|Product Description: AutoCAD Mechanical|Company: Autodesk"
 90
        0
 91
        1
280
     0
281
     0
  0
CLASS
  1
ACMSECTIONSTANDARDDIN
  2
AmdtSectionSymStdDIN
  3
"Amdt_StdImp|Product Description: AutoCAD Mechanical|Company: Autodesk"
 90
        0
 91
        1
280
     0
281
     0
  0
CLASS
  1
ACMCENTERLINESTANDARDDIN
  2
AmdtCenterLineStdDIN
  3
"Amdt_StdImp|Product Description: AutoCAD Mechanical|Company: Autodesk"
 90
        0
 91
        1
280
     0
281
     0
  0
CLASS
  1
ACMTHREADLINESTANDARDDIN
  2
AmdtThreadLineStdDIN
  3
"Amdt_StdImp|Product Description: AutoCAD Mechanical|Company: Autodesk"
 90
        0
 91
        1
280
     0
281
     0
  0
CLASS
  1
ACAMGLAYSTD
  2
AcAmgLayStd
  3
"AmgLay|Product Description: AutoCAD Mechanical|Company: Autodesk"
 90
        0
 91
        2
280
     0
281
     0
  0
CLASS
  1
ACAMGDIMSTD
  2
AcAmgDimStd
  3
"AmgDim|Product Description: AutoCAD Mechanical|Company: Autodesk"
 90
        0
 91
        2
280
     0
281
     0
  0
CLASS
  1
ACAMGTITLESTD
  2
AcAmgTitleStd
  3
"AmgTitle|Product Description: AutoCAD Mechanical|Company: Autodesk"
 90
        0
 91
        2
280
     0
281
     0
  0
CLASS
  1
ACMDATADICTIONARY
  2
AcmDataDictionary
  3
"AcmSymBB|Product Description: AutoCAD Mechanical|Company: Autodesk"
 90
        0
 91
        1
280
     0
281
     0
  0
CLASS
  1
ACMDATAENTRYBLOCK
  2
AcmDataEntryBlock
  3
"AcmSymBB|Product Description: AutoCAD Mechanical|Company: Autodesk"
 90
        0
 91
        0
280
     0
281
     0
  0
CLASS
  1
LAYER_INDEX
  2
AcDbLayerIndex
  3
ObjectDBX Classes
 90
        0
 91
        1
280
     0
281
     0
  0
CLASS
  1
IDBUFFER
  2
AcDbIdBuffer
  3
ObjectDBX Classes
 90
        0
 91
        8
280
     0
281
     0
  0
CLASS
  1
AM_DRAWING_MGR
  2
AcDmDwgMgr
  3
AcMechDwgViewMgmt
 90
        0
 91
        1
280
     1
281
     0
  0
CLASS
  1
AM_DWG_DOCUMENT
  2
AcDmDwgDocument
  3
AcMechDwgViewMgmt
 90
        0
 91
        1
280
     1
281
     0
  0
CLASS
  1
AM_DWG_SHEET
  2
AcDmSheet
  3
AcMechDwgViewMgmt
 90
        0
 91
        1
280
     1
281
     0
  0
CLASS
  1
AM_VIEWDIMPARMAP
  2
AcDmViewDimParMap
  3
AcMechDwgViewMgmt
 90
        0
 91
        1
280
     1
281
     0
  0
CLASS
  1
AM_DWGMGR_NAME
  2
AcDmDwgMgrName
  3
AcMechDwgViewMgmt
 90
        0
 91
        1
280
     1
281
     0
  0
CLASS
  1
AMDTMENUSTATEMGR
  2
AmdtMenuStateMgr
  3
McadcomServices
 90
        0
 91
        1
280
     1
281
     0
  0
CLASS
  1
AMDTMCOMMENUSTATE
  2
AmdtMcomMenuState
  3
McadcomServices
 90
        0
 91
        1
280
     1
281
     0
  0
CLASS
  1
ASAPP
  2
AcAsAppObject
  3
AutoSurfServices
 90
        0
 91
        0
280
     1
281
     0
  0
CLASS
  1
IM_STATIC_MAN
  2
AcImStaticVarManager
  3
AcMeServices
 90
        0
 91
        0
280
     0
281
     0
  0
CLASS
  1
ACIMDBLSTATICVAR
  2
AcImDblStaticVar
  3
AcMeServices
 90
        0
 91
        0
280
     0
281
     0
  0
CLASS
  1
ACIMSTRSTATICVAR
  2
AcImStrStaticVar
  3
AcMeServices
 90
        0
 91
        0
280
     0
281
     0
  0
CLASS
  1
ACIMINTSTATICVAR
  2
AcImIntStaticVar
  3
AcMeServices
 90
        0
 91
        0
280
     0
281
     0
  0
CLASS
  1
ACASGREFMASTER
  2
AcAsGrefMaster
  3
AutoSurfResolverServices
 90
        0
 91
        0
280
     1
281
     0
  0
CLASS
  1
ACADGREFMODULE
  2
AcAdGrefModule
  3
AdGrefServices
 90
        0
 91
        0
280
     1
281
     0
  0
CLASS
  1
AMDTMAPISURFMOUDULE
  2
AmdtMApiSurfModule
  3
MApiSurfServices
 90
        0
 91
        0
280
     1
281
     0
  0
CLASS
  1
MAPIAMMOUDLE
  2
MApiAmModule
  3
MApiAmServices
 90
        0
 91
        1
280
     1
281
     0
  0
CLASS
  1
AMDTADMENUSTATE
  2
AmdtAdMenuState
  3
DesignerServices
 90
        0
 91
        1
280
     1
281
     0
  0
CLASS
  1
ADAPPL
  2
AcAdAppl
  3
DesignerServices
 90
        0
 91
        1
280
     1
281
     0
  0
CLASS
  1
DEPMGR
  2
AcAdDepMgr
  3
DesignerServices
 90
        0
 91
        1
280
     1
281
     0
  0
CLASS
  1
PARAMMGR
  2
AcAdParamMgr
  3
DesignerServices
 90
        0
 91
        1
280
     1
281
     0
  0
CLASS
  1
PARAMSCOPE
  2
AcAdParamScope
  3
DesignerServices
 90
        0
 91
        1
280
     1
281
     0
  0
CLASS
  1
NAMEDAPPL
  2
AcAdNamedAppl
  3
DesignerServices
 90
        0
 91
        1
280
     1
281
     0
  0
CLASS
  1
ADHNTMPLT
  2
AdHoleNoteTemplateMgr
  3
DesignerServices
 90
        0
 91
        0
280
     1
281
     0
  0
CLASS
  1
AM_HNTEMPLATE_MGR_NAME
  2
AdHoleNoteTemplateMgrName
  3
DesignerServices
 90
        0
 91
        0
280
     1
281
     0
  0
CLASS
  1
AMDTDMMENUSTATE
  2
AmdtDmMenuState
  3
AcMechDwgViewMgmt
 90
        0
 91
        1
280
     1
281
     0
  0
CLASS
  1
MAPIADMODULE
  2
MApiAdModule
  3
MApiAdServices
 90
        0
 91
        0
280
     1
281
     0
  0
CLASS
  1
AMDTAMMENUSTATE
  2
AmdtAmMenuState
  3
DesignerAssemblies
 90
        0
 91
        1
280
     1
281
     0
  0
CLASS
  1
ACAMPROJECT
  2
AcAmProject
  3
DesignerAssemblies
 90
        0
 91
        1
280
     1
281
     0
  0
CLASS
  1
ACAMGRCOMPDEF
  2
AcAmGrCompDef
  3
DesignerAssemblies
 90
        0
 91
        1
280
     1
281
     0
  0
CLASS
  1
ACCMCONTEXT
  2
AcCmContext
  3
DesignerAssemblies
 90
        0
 91
        1
280
     1
281
     0
  0
CLASS
  1
ACAMCOMPDEF
  2
AcAmCompDef
  3
DesignerAssemblies
 90
        0
 91
        1
280
     1
281
     0
  0
CLASS
  1
ACAMCOMPDEFMGR
  2
AcAmCompDefMgr
  3
DesignerAssemblies
 90
        0
 91
        1
280
     1
281
     0
  0
CLASS
  1
AMCONTEXTMGR
  2
AcAmContextMgr
  3
DesignerAssemblies
 90
        0
 91
        1
280
     1
281
     0
  0
CLASS
  1
ACAMCONTEXTMODELER
  2
AcAmContextModeler
  3
DesignerAssemblies
 90
        0
 91
        1
280
     1
281
     0
  0
CLASS
  1
CATALOGSTATE
  2
AcAmCatalogState
  3
DesignerAssemblies
 90
        0
 91
        1
280
     1
281
     0
  0
CLASS
  1
ACAMGRCOMPDEFSET
  2
AcAmGrCompDefSet
  3
DesignerAssemblies
 90
        0
 91
        1
280
     1
281
     0
  0
CLASS
  1
AMDTBROWSERDBTAB
  2
AmdtBrowserDbTab
  3
McadcomServices
 90
        0
 91
        1
280
     1
281
     0
  0
CLASS
  1
CBROWSERAPPOBJECT
  2
CBrowserAppObject
  3
McadcomServices
 90
        0
 91
        3
280
     1
281
     0
  0
CLASS
  1
DM_PLACEHOLDER
  2
AcDmSelsetPlaceholder
  3
AcMechDwgViewMgmt
 90
        0
 91
        1
280
     1
281
     0
  0
CLASS
  1
ACAMGFILTERDAT
  2
AcAmgFilterDat
  3
"AcadM|Product Description: AutoCAD Mechanical|Company: Autodesk"
 90
        0
 91
        0
280
     0
281
     0
  0
CLASS
  1
AMDTFORMULAUPDATEDISPATCHER
  2
AmdtFormulaUpdateDispatcher
  3
AcMeServices
 90
        0
 91
        0
280
     0
281
     0
  0
CLASS
  1
ACMNOTESTANDARDDIN
  2
AmdtNoteStdDIN
  3
"Amdt_StdImp|Product Description: AutoCAD Mechanical|Company: Autodesk"
 90
        0
 91
        1
280
     0
281
     0
  0
CLASS
  1
ACAMGHOLECHARTSTDDIN
  2
AcAmgHoleChartStdDIN
  3
ACMSYMBB_MODULE_NAME
 90
        0
 91
        1
280
     0
281
     0
  0
CLASS
  1
AMDTNOTE
  2
AmdtNote
  3
"AcmSymBB|Product Description: AutoCAD Mechanical|Company: Autodesk"
 90
     3071
 91
        0
280
     0
281
     1
  0
CLASS
  1
ACMPARTREF
  2
AcmPartRef
  3
"AcmSymBB|Product Description: AutoCAD Mechanical|Company: Autodesk"
 90
     3071
 91
        0
280
     0
281
     1
  0
CLASS
  1
ACDBLINERES
  2
AcDbLineRes
  3
AcGrefServices
 90
        0
 91
        0
280
     0
281
     0
  0
CLASS
  1
ACRFINSADJ
  2
AcRfInsAdjuster
  3
AcMeServices
 90
        0
 91
        0
280
     0
281
     0
  0
CLASS
  1
ACMDATAENTRYPART
  2
AcmDataEntryPart
  3
"AcmSymBB|Product Description: AutoCAD Mechanical|Company: Autodesk"
 90
        0
 91
        0
280
     0
281
     0
  0
CLASS
  1
ACMPICKOBJ
  2
AcmPickEnt
  3
"AcmSymBB|Product Description: AutoCAD Mechanical|Company: Autodesk"
 90
        0
 91
        0
280
     0
281
     1
  0
CLASS
  1
ACMDATAENTRY
  2
AcmDataEntry
  3
"AcmSymBB|Product Description: AutoCAD Mechanical|Company: Autodesk"
 90
        0
 91
        0
280
     0
281
     0
  0
CLASS
  1
ACMBOM
  2
AcmBom
  3
"AcmSymBB|Product Description: AutoCAD Mechanical|Company: Autodesk"
 90
        0
 91
        0
280
     0
281
     0
  0
CLASS
  1
ACMBOMROW
  2
AcmBomRow
  3
"AcmSymBB|Product Description: AutoCAD Mechanical|Company: Autodesk"
 90
        0
 91
        0
280
     0
281
     0
  0
CLASS
  1
ACMPARTLIST
  2
AcmPartList
  3
"AcmSymBB|Product Description: AutoCAD Mechanical|Company: Autodesk"
 90
     3071
 91
        0
280
     0
281
     1
  0
CLASS
  1
ACDBCIRCARCRES
  2
AcDbCircArcRes
  3
AcGrefServices
 90
        0
 91
        0
280
     0
281
     0
  0
CLASS
  1
ACMBALLOON
  2
AcmBalloon
  3
"AcmSymBB|Product Description: AutoCAD Mechanical|Company: Autodesk"
 90
     3071
 91
        0
280
     0
281
     1
  0
CLASS
  1
ACMSTANDARDISO
  2
AcmStandardISO
  3
"Amdt_StdImp|Product Description: AutoCAD Mechanical|Company: Autodesk"
 90
        0
 91
        1
280
     0
281
     0
  0
CLASS
  1
AMDTEDGESTANDARDISO
  2
AmdtEdgeStdISO
  3
"Amdt_StdImp|Product Description: AutoCAD Mechanical|Company: Autodesk"
 90
        0
 91
        1
280
     0
281
     0
  0
CLASS
  1
ACMSURFSTANDARDISO
  2
AcmSurfTextStdISO
  3
"Amdt_StdImp|Product Description: AutoCAD Mechanical|Company: Autodesk"
 90
        0
 91
        1
280
     0
281
     0
  0
CLASS
  1
ACMFCFSTANDARDISO
  2
AcmFCFStdISO
  3
"Amdt_StdImp|Product Description: AutoCAD Mechanical|Company: Autodesk"
 90
        0
 91
        1
280
     0
281
     0
  0
CLASS
  1
ACMWELDSTANDARDISO
  2
AcmWeldingStdISO
  3
"Amdt_StdImp|Product Description: AutoCAD Mechanical|Company: Autodesk"
 90
        0
 91
        1
280
     0
281
     0
  0
CLASS
  1
ACMIDSTANDARDISO
  2
AcmIdStdISO
  3
"Amdt_StdImp|Product Description: AutoCAD Mechanical|Company: Autodesk"
 90
        0
 91
        1
280
     0
281
     0
  0
CLASS
  1
ACMDATUMSTANDARDISO
  2
AcmDatumStdISO
  3
"Amdt_StdImp|Product Description: AutoCAD Mechanical|Company: Autodesk"
 90
        0
 91
        1
280
     0
281
     0
  0
CLASS
  1
ACMBOMSTANDARDISO
  2
AcmBOMStdISO
  3
"Amdt_StdImp|Product Description: AutoCAD Mechanical|Company: Autodesk"
 90
        0
 91
        1
280
     0
281
     0
  0
CLASS
  1
ACMDETAILSTANDARDISO
  2
AmdtDetailSymStdISO
  3
"Amdt_StdImp|Product Description: AutoCAD Mechanical|Company: Autodesk"
 90
        0
 91
        1
280
     0
281
     0
  0
CLASS
  1
ACMSECTIONSTANDARDISO
  2
AmdtSectionSymStdISO
  3
"Amdt_StdImp|Product Description: AutoCAD Mechanical|Company: Autodesk"
 90
        0
 91
        1
280
     0
281
     0
  0
CLASS
  1
ACMCENTERLINESTANDARDISO
  2
AmdtCenterLineStdISO
  3
"Amdt_StdImp|Product Description: AutoCAD Mechanical|Company: Autodesk"
 90
        0
 91
        1
280
     0
281
     0
  0
CLASS
  1
ACMNOTESTANDARDISO
  2
AmdtNoteStdISO
  3
"Amdt_StdImp|Product Description: AutoCAD Mechanical|Company: Autodesk"
 90
        0
 91
        1
280
     0
281
     0
  0
CLASS
  1
ACAMGHOLECHARTSTDISO
  2
AcAmgHoleChartStdISO
  3
ACMSYMBB_MODULE_NAME
 90
        0
 91
        1
280
     0
281
     0
  0
CLASS
  1
ACDBOPPOLYLINERES
  2
AcDbOpPolylineRes
  3
AcGrefServices
 90
        0
 91
        0
280
     0
281
     0
  0
CLASS
  1
ACMSURFSYM
  2
AcmSurfaceTexture
  3
"AcmSymBB|Product Description: AutoCAD Mechanical|Company: Autodesk"
 90
     3071
 91
        0
280
     0
281
     1
  0
CLASS
  1
ACMWELDSYM
  2
AcmWelding
  3
"AcmSymBB|Product Description: AutoCAD Mechanical|Company: Autodesk"
 90
     3071
 91
        0
280
     0
281
     1
  0
CLASS
  1
STDPART2D
  2
AmgStdPart
  3
"g3vace|Class: AmgStdPart|Product Description: AutoCAD Mechanical|Company: Autodesk"
 90
     3071
 91
        0
280
     1
281
     1
  0
CLASS
  1
ACDBSTDPARTRES_LINE
  2
AcDbStdPartRes_Line
  3
"g3vace|Class: AcDbStdPartRes_Line|Product Description: AutoCAD Mechanical|Company: Autodesk"
 90
        0
 91
        0
280
     1
281
     0
  0
CLASS
  1
ACDBSTDPARTRES_ARC
  2
AcDbStdPartRes_Arc
  3
"g3vace|Class: AcDbStdPartRes_Arc|Product Description: AutoCAD Mechanical|Company: Autodesk"
 90
        0
 91
        0
280
     1
281
     0
  0
CLASS
  1
ACDBDIMENSIONRES
  2
AcDbDimensionRes
  3
L"AcDbDimensionRes|Product Description: AutoCAD Mechanical 2000|Company: Autodesk"
 90
        0
 91
        0
280
     0
281
     0
  0
CLASS
  1
ACDBPOLYLINERES
  2
AcDbPolylineRes
  3
AcGrefServices
 90
        0
 91
        0
280
     0
281
     0
  0
CLASS
  1
ACDBELLIPSERES
  2
AcDbEllipseRes
  3
AcGrefServices
 90
        0
 91
        0
280
     0
281
     0
  0
CLASS
  1
ACMDIMBREAKPERSREACTOR
  2
AcmDimBreakPersReactor
  3
amgDimApp().moduleName()
 90
     3071
 91
        0
280
     0
281
     0
  0
CLASS
  1
AMDTACMWBLOCKBOMENTITY
  2
AmdtAcmWblockBomEntity
  3
"AcmSymBB|Product Description: AutoCAD Mechanical|Company: Autodesk"
 90
     3071
 91
        0
280
     0
281
     1
  0
CLASS
  1
LONG_TRANSACTION
  2
AcDbLongTransaction
  3
ObjectDBX Classes
 90
        0
 91
        0
280
     0
281
     0
  0
CLASS
  1
LWPOLYLINE
  2
AcDbPolyline
  3
ObjectDBX Classes
 90
        0
 91
        0
280
     0
281
     1
  0
CLASS
  1
HATCH
  2
AcDbHatch
  3
ObjectDBX Classes
 90
        0
 91
       22
280
     0
281
     1
  0
CLASS
  1
XRECORD
  2
AcDbXrecord
  3
ObjectDBX Classes
 90
        0
 91
       82
280
     0
281
     0
  0
CLASS
  1
MATERIAL
  2
AcDbMaterial
  3
ObjectDBX Classes
 90
     1024
 91
        3
280
     0
281
     0
  0
CLASS
  1
VISUALSTYLE
  2
AcDbVisualStyle
  3
ObjectDBX Classes
 90
     4095
 91
       19
280
     0
281
     0
  0
CLASS
  1
TABLESTYLE
  2
AcDbTableStyle
  3
ObjectDBX Classes
 90
     4095
 91
        1
280
     0
281
     0
  0
CLASS
  1
AMDTEDGESTANDARDDIN13715
  2
AmdtEdgeStdDIN13715
  3
"Amdt_StdImp|Product Description: AutoCAD Mechanical|Company: Autodesk"
 90
        0
 91
        1
280
     0
281
     0
  0
CLASS
  1
AMDTNOTETEMPLATEDB
  2
AmdtNoteTemplateDB
  3
AMDT_STDIMP_MODULE_NAME
 90
        0
 91
        9
280
     0
281
     0
  0
CLASS
  1
ACMTAPERSTANDARDDIN
  2
AcmTaperStdDIN
  3
"Amdt_StdImp|Product Description: AutoCAD Mechanical|Company: Autodesk"
 90
        0
 91
        1
280
     0
281
     0
  0
CLASS
  1
ACMTHREADLINESTANDARDISO
  2
AmdtThreadLineStdISO
  3
"Amdt_StdImp|Product Description: AutoCAD Mechanical|Company: Autodesk"
 90
        0
 91
        1
280
     0
281
     0
  0
CLASS
  1
ACMTAPERSTANDARDISO
  2
AcmTaperStdISO
  3
"Amdt_StdImp|Product Description: AutoCAD Mechanical|Company: Autodesk"
 90
        0
 91
        1
280
     0
281
     0
  0
ENDSEC
  0
SECTION
  2
TABLES
  0
TABLE
  2
VPORT
  5
1A
330
0
100
AcDbSymbolTable
 70
     1
  0
VPORT
  5
1522
330
1A
100
AcDbSymbolTableRecord
100
AcDbViewportTableRecord
  2
*ACTIVE
 70
     0
 10
0.0
 20
0.0
 11
1.0
 21
1.0
 12
27.18094533874684
 22
2.910295911596051
 13
-5403.981393999999
 23
2760.242742000001
 14
2.5
 24
2.5
 15
10.0
 25
10.0
 16
0.0
 26
0.0
 36
1.0
 17
279.805263
 27
217.101156
 37
0.0
 40
412.5617501566325
 41
1.845679012345679
 42
50.0
 43
0.0
 44
0.0
 50
0.0
 51
0.0
 71
     0
 72
  3000
 73
     1
 74
     2
 75
     0
 76
     0
 77
     0
 78
     0
281
     0
 65
     1
110
0.0
120
0.0
130
0.0
111
1.0
121
0.0
131
0.0
112
0.0
122
1.0
132
0.0
 79
     0
146
0.0
  0
ENDTAB
  0
TABLE
  2
LTYPE
  5
15
330
0
100
AcDbSymbolTable
 70
    62
  0
LTYPE
  5
16
330
15
100
AcDbSymbolTableRecord
100
AcDbLinetypeTableRecord
  2
BYBLOCK
 70
     0
  3

 72
    65
 73
     0
 40
0.0
  0
LTYPE
  5
17
330
15
100
AcDbSymbolTableRecord
100
AcDbLinetypeTableRecord
  2
BYLAYER
 70
     0
  3

 72
    65
 73
     0
 40
0.0
  0
LTYPE
  5
11
330
15
100
AcDbSymbolTableRecord
100
AcDbLinetypeTableRecord
  2
CONTINUOUS
 70
     0
  3
Solid line
 72
    65
 73
     0
 40
0.0
  0
LTYPE
  5
9C
330
15
100
AcDbSymbolTableRecord
100
AcDbLinetypeTableRecord
  2
Amconstr
 70
     0
  3
_______________________
 72
    65
 73
     2
 40
9999.0
 49
9999.0
 74
     0
 49
0.0
 74
     0
  0
LTYPE
  5
9F
330
15
100
AcDbSymbolTableRecord
100
AcDbLinetypeTableRecord
  2
Amzigzag
 70
     0
  3
/\/-/\/-/\/-/\/-/\/-/\/
 72
    65
 73
     2
 40
11.0001
 49
0.0001
 74
     4
 75
   135
340
A0
 46
0.04
 50
0.0
 44
0.0
 45
0.0
 49
-11.0
 74
     0
  0
LTYPE
  5
9A
330
15
100
AcDbSymbolTableRecord
100
AcDbLinetypeTableRecord
  2
AM_DIN_F_W050
 70
     0
  3
__ __ __ __ __ __ __ __ __ __ __ __ __ __ __
 72
    65
 73
     2
 40
6.25
 49
4.75
 74
     0
 49
-1.5
 74
     0
  0
LTYPE
  5
29
330
15
100
AcDbSymbolTableRecord
100
AcDbLinetypeTableRecord
  2
AM_DIN_G_W050
 70
     0
  3
____ . ____ . ____ . ____ . ____ . ____ . ____
 72
    65
 73
     4
 40
13.75
 49
9.75
 74
     0
 49
-1.5
 74
     0
 49
1.0
 74
     0
 49
-1.5
 74
     0
  0
LTYPE
  5
9B
330
15
100
AcDbSymbolTableRecord
100
AcDbLinetypeTableRecord
  2
AM_DIN_K_W050
 70
     0
  3
_____ . . _____ . . _____ . . ____ .. ____
 72
    65
 73
     6
 40
16.25
 49
9.75
 74
     0
 49
-1.5
 74
     0
 49
1.0
 74
     0
 49
-1.5
 74
     0
 49
1.0
 74
     0
 49
-1.5
 74
     0
  0
LTYPE
  5
9D
330
15
100
AcDbSymbolTableRecord
100
AcDbLinetypeTableRecord
  2
AM_DIN_G_W050x2
 70
     0
  3
__ . __ . __ . __ . __ . __
 72
    65
 73
     4
 40
6.875
 49
4.75
 74
     0
 49
-0.875
 74
     0
 49
0.375
 74
     0
 49
-0.875
 74
     0
  0
LTYPE
  5
9E
330
15
100
AcDbSymbolTableRecord
100
AcDbLinetypeTableRecord
  2
AM_DIN_F_W050x2
 70
     0
  3
 _ _ _ _ _ _ _ _ _ _ _ _
 72
    65
 73
     2
 40
3.125
 49
2.25
 74
     0
 49
-0.875
 74
     0
  0
LTYPE
  5
8C
330
15
100
AcDbSymbolTableRecord
100
AcDbLinetypeTableRecord
  2
ACDINWELD
 70
     0
  3
_ _ _ _ _
 72
    65
 73
     2
 40
2.0
 49
2.0
 74
     0
 49
-1.0
 74
     0
  0
LTYPE
  5
8F
330
15
100
AcDbSymbolTableRecord
100
AcDbLinetypeTableRecord
  2
ACDINTGB
 70
     0
  3
__ . . __ . .
 72
    65
 73
     6
 40
9.0
 49
4.0
 74
     0
 49
-1.0
 74
     0
 49
1.0
 74
     0
 49
-1.0
 74
     0
 49
1.0
 74
     0
 49
-1.0
 74
     0
  0
LTYPE
  5
90
330
15
100
AcDbSymbolTableRecord
100
AcDbLinetypeTableRecord
  2
ACDINTGL
 70
     0
  3
_ _ _ _ _
 72
    65
 73
     2
 40
3.0
 49
2.0
 74
     0
 49
-1.0
 74
     0
  0
LTYPE
  5
94
330
15
100
AcDbSymbolTableRecord
100
AcDbLinetypeTableRecord
  2
CENTER
 70
     0
  3
__ . __
 72
    65
 73
     4
 40
7.0
 49
4.0
 74
     0
 49
-1.0
 74
     0
 49
1.0
 74
     0
 49
-1.0
 74
     0
  0
LTYPE
  5
84E
330
15
100
AcDbSymbolTableRecord
100
AcDbLinetypeTableRecord
  2
ACISOWELD
 70
     0
  3
_ _ _ _ _
 72
    65
 73
     2
 40
2.0
 49
2.0
 74
     0
 49
-1.0
 74
     0
  0
LTYPE
  5
84F
330
15
100
AcDbSymbolTableRecord
100
AcDbLinetypeTableRecord
  2
ACISOTGB
 70
     0
  3
__ . . __ . .
 72
    65
 73
     6
 40
9.0
 49
4.0
 74
     0
 49
-1.0
 74
     0
 49
1.0
 74
     0
 49
-1.0
 74
     0
 49
1.0
 74
     0
 49
-1.0
 74
     0
  0
LTYPE
  5
850
330
15
100
AcDbSymbolTableRecord
100
AcDbLinetypeTableRecord
  2
ACISOTGL
 70
     0
  3
_ _ _ _ _
 72
    65
 73
     2
 40
3.0
 49
2.0
 74
     0
 49
-1.0
 74
     0
  0
LTYPE
  5
15E6
330
15
100
AcDbSymbolTableRecord
100
AcDbLinetypeTableRecord
  2
HIDDEN
 70
     0
  3
Verdeckt
 72
    65
 73
     2
 40
9.525
 49
6.349999999999999
 74
     0
 49
-3.174999999999999
 74
     0
  0
LTYPE
  5
15E7
330
15
100
AcDbSymbolTableRecord
100
AcDbLinetypeTableRecord
  2
PHANTOM2
 70
     0
  3
Phantom (.5x) ___ _ _ ___ _ _ ___ _ _ ___ _ _
 72
    65
 73
     6
 40
31.75
 49
15.875
 74
     0
 49
-3.174999999999999
 74
     0
 49
3.174999999999999
 74
     0
 49
-3.174999999999999
 74
     0
 49
3.174999999999999
 74
     0
 49
-3.174999999999999
 74
     0
  0
LTYPE
  5
1635
330
15
100
AcDbSymbolTableRecord
100
AcDbLinetypeTableRecord
  2
AM_ISO02W050
 70
     0
  3
__ __ __ __ __ __ __ __ __ __ __ __ __ __ __
 72
    65
 73
     2
 40
7.5
 49
6.0
 74
     0
 49
-1.5
 74
     0
  0
LTYPE
  5
1636
330
15
100
AcDbSymbolTableRecord
100
AcDbLinetypeTableRecord
  2
AM_ISO08W050
 70
     0
  3
____ . ____ . ____ . ____ . ____ . ____ . ____
 72
    65
 73
     4
 40
18.0
 49
12.0
 74
     0
 49
-1.5
 74
     0
 49
3.0
 74
     0
 49
-1.5
 74
     0
  0
LTYPE
  5
1637
330
15
100
AcDbSymbolTableRecord
100
AcDbLinetypeTableRecord
  2
AM_ISO09W050
 70
     0
  3
_____ . . _____ . . _____ . . ____ .. ____
 72
    65
 73
     6
 40
22.5
 49
12.0
 74
     0
 49
-1.5
 74
     0
 49
3.0
 74
     0
 49
-1.5
 74
     0
 49
3.0
 74
     0
 49
-1.5
 74
     0
  0
LTYPE
  5
1638
330
15
100
AcDbSymbolTableRecord
100
AcDbLinetypeTableRecord
  2
AM_ISO08W050x2
 70
     0
  3
__ . __ . __ . __ . __ . __
 72
    65
 73
     4
 40
9.0
 49
6.0
 74
     0
 49
-0.75
 74
     0
 49
1.5
 74
     0
 49
-0.75
 74
     0
  0
LTYPE
  5
1639
330
15
100
AcDbSymbolTableRecord
100
AcDbLinetypeTableRecord
  2
AM_ISO02W050x2
 70
     0
  3
 _ _ _ _ _ _ _ _ _ _ _ _
 72
    65
 73
     2
 40
3.75
 49
3.0
 74
     0
 49
-0.75
 74
     0
  0
LTYPE
  5
1668
330
15
100
AcDbSymbolTableRecord
100
AcDbLinetypeTableRecord
  2
BORDER
 70
     0
  3
Border __ __ . __ __ . __ __ . __ __ . __ __ .
 72
    65
 73
     6
 40
1.75
 49
0.5
 74
     0
 49
-0.25
 74
     0
 49
0.5
 74
     0
 49
-0.25
 74
     0
 49
0.0
 74
     0
 49
-0.25
 74
     0
  0
LTYPE
  5
1669
330
15
100
AcDbSymbolTableRecord
100
AcDbLinetypeTableRecord
  2
BORDER2
 70
     0
  3
Border (.5x) __.__.__.__.__.__.__.__.__.__.__.
 72
    65
 73
     6
 40
0.875
 49
0.25
 74
     0
 49
-0.125
 74
     0
 49
0.25
 74
     0
 49
-0.125
 74
     0
 49
0.0
 74
     0
 49
-0.125
 74
     0
  0
LTYPE
  5
166A
330
15
100
AcDbSymbolTableRecord
100
AcDbLinetypeTableRecord
  2
BORDERX2
 70
     0
  3
Border (2x) ____  ____  .  ____  ____  .  ___
 72
    65
 73
     6
 40
3.5
 49
1.0
 74
     0
 49
-0.5
 74
     0
 49
1.0
 74
     0
 49
-0.5
 74
     0
 49
0.0
 74
     0
 49
-0.5
 74
     0
  0
LTYPE
  5
166B
330
15
100
AcDbSymbolTableRecord
100
AcDbLinetypeTableRecord
  2
CENTER2
 70
     0
  3
Center (.5x) ___ _ ___ _ ___ _ ___ _ ___ _ ___
 72
    65
 73
     4
 40
1.125
 49
0.75
 74
     0
 49
-0.125
 74
     0
 49
0.125
 74
     0
 49
-0.125
 74
     0
  0
LTYPE
  5
166C
330
15
100
AcDbSymbolTableRecord
100
AcDbLinetypeTableRecord
  2
CENTERX2
 70
     0
  3
Center (2x) ________  __  ________  __  _____
 72
    65
 73
     4
 40
4.0
 49
2.5
 74
     0
 49
-0.5
 74
     0
 49
0.5
 74
     0
 49
-0.5
 74
     0
  0
LTYPE
  5
166D
330
15
100
AcDbSymbolTableRecord
100
AcDbLinetypeTableRecord
  2
DASHDOT
 70
     0
  3
Dash dot __ . __ . __ . __ . __ . __ . __ . __
 72
    65
 73
     4
 40
1.0
 49
0.5
 74
     0
 49
-0.25
 74
     0
 49
0.0
 74
     0
 49
-0.25
 74
     0
  0
LTYPE
  5
166E
330
15
100
AcDbSymbolTableRecord
100
AcDbLinetypeTableRecord
  2
DASHDOT2
 70
     0
  3
Dash dot (.5x) _._._._._._._._._._._._._._._.
 72
    65
 73
     4
 40
0.5
 49
0.25
 74
     0
 49
-0.125
 74
     0
 49
0.0
 74
     0
 49
-0.125
 74
     0
  0
LTYPE
  5
166F
330
15
100
AcDbSymbolTableRecord
100
AcDbLinetypeTableRecord
  2
DASHDOTX2
 70
     0
  3
Dash dot (2x) ____  .  ____  .  ____  .  ___
 72
    65
 73
     4
 40
2.0
 49
1.0
 74
     0
 49
-0.5
 74
     0
 49
0.0
 74
     0
 49
-0.5
 74
     0
  0
LTYPE
  5
1670
330
15
100
AcDbSymbolTableRecord
100
AcDbLinetypeTableRecord
  2
DASHED
 70
     0
  3
Dashed __ __ __ __ __ __ __ __ __ __ __ __ __ _
 72
    65
 73
     2
 40
0.75
 49
0.5
 74
     0
 49
-0.25
 74
     0
  0
LTYPE
  5
1671
330
15
100
AcDbSymbolTableRecord
100
AcDbLinetypeTableRecord
  2
DASHED2
 70
     0
  3
Dashed (.5x) _ _ _ _ _ _ _ _ _ _ _ _ _ _ _ _ _
 72
    65
 73
     2
 40
0.375
 49
0.25
 74
     0
 49
-0.125
 74
     0
  0
LTYPE
  5
1672
330
15
100
AcDbSymbolTableRecord
100
AcDbLinetypeTableRecord
  2
DASHEDX2
 70
     0
  3
Dashed (2x) ____  ____  ____  ____  ____  ___
 72
    65
 73
     2
 40
1.5
 49
1.0
 74
     0
 49
-0.5
 74
     0
  0
LTYPE
  5
1673
330
15
100
AcDbSymbolTableRecord
100
AcDbLinetypeTableRecord
  2
DIVIDE
 70
     0
  3
Divide ____ . . ____ . . ____ . . ____ . . ____
 72
    65
 73
     6
 40
1.25
 49
0.5
 74
     0
 49
-0.25
 74
     0
 49
0.0
 74
     0
 49
-0.25
 74
     0
 49
0.0
 74
     0
 49
-0.25
 74
     0
  0
LTYPE
  5
1674
330
15
100
AcDbSymbolTableRecord
100
AcDbLinetypeTableRecord
  2
DIVIDE2
 70
     0
  3
Divide (.5x) __..__..__..__..__..__..__..__.._
 72
    65
 73
     6
 40
0.625
 49
0.25
 74
     0
 49
-0.125
 74
     0
 49
0.0
 74
     0
 49
-0.125
 74
     0
 49
0.0
 74
     0
 49
-0.125
 74
     0
  0
LTYPE
  5
1675
330
15
100
AcDbSymbolTableRecord
100
AcDbLinetypeTableRecord
  2
DIVIDEX2
 70
     0
  3
Divide (2x) ________  .  .  ________  .  .  _
 72
    65
 73
     6
 40
2.5
 49
1.0
 74
     0
 49
-0.5
 74
     0
 49
0.0
 74
     0
 49
-0.5
 74
     0
 49
0.0
 74
     0
 49
-0.5
 74
     0
  0
LTYPE
  5
1676
330
15
100
AcDbSymbolTableRecord
100
AcDbLinetypeTableRecord
  2
DOT
 70
     0
  3
Dot . . . . . . . . . . . . . . . . . . . . . .
 72
    65
 73
     2
 40
0.25
 49
0.0
 74
     0
 49
-0.25
 74
     0
  0
LTYPE
  5
1677
330
15
100
AcDbSymbolTableRecord
100
AcDbLinetypeTableRecord
  2
DOT2
 70
     0
  3
Dot (.5x) .....................................
 72
    65
 73
     2
 40
0.125
 49
0.0
 74
     0
 49
-0.125
 74
     0
  0
LTYPE
  5
1678
330
15
100
AcDbSymbolTableRecord
100
AcDbLinetypeTableRecord
  2
DOTX2
 70
     0
  3
Dot (2x) .  .  .  .  .  .  .  .  .  .  .  .  . 
 72
    65
 73
     2
 40
0.5
 49
0.0
 74
     0
 49
-0.5
 74
     0
  0
LTYPE
  5
1679
330
15
100
AcDbSymbolTableRecord
100
AcDbLinetypeTableRecord
  2
GAS_LINE
 70
     0
  3
Gas line ----GAS----GAS----GAS----GAS----GAS---
 72
    65
 73
     3
 40
0.95
 49
0.5
 74
     0
 49
-0.2
 74
     2
 75
     0
340
13
 46
0.1
 50
0.0
 44
-0.1
 45
-0.05
  9
GAS
 49
-0.25
 74
     0
  0
LTYPE
  5
167A
330
15
100
AcDbSymbolTableRecord
100
AcDbLinetypeTableRecord
  2
HIDDEN2
 70
     0
  3
Hidden (.5x) _ _ _ _ _ _ _ _ _ _ _ _ _ _ _ _ _
 72
    65
 73
     2
 40
0.1875
 49
0.125
 74
     0
 49
-0.0625
 74
     0
  0
LTYPE
  5
167B
330
15
100
AcDbSymbolTableRecord
100
AcDbLinetypeTableRecord
  2
HIDDENX2
 70
     0
  3
Hidden (2x) ____ ____ ____ ____ ____ ____ ____
 72
    65
 73
     2
 40
0.75
 49
0.5
 74
     0
 49
-0.25
 74
     0
  0
LTYPE
  5
167C
330
15
100
AcDbSymbolTableRecord
100
AcDbLinetypeTableRecord
  2
PHANTOM
 70
     0
  3
Phantom ______  __  __  ______  __  __  ______
 72
    65
 73
     6
 40
2.5
 49
1.25
 74
     0
 49
-0.25
 74
     0
 49
0.25
 74
     0
 49
-0.25
 74
     0
 49
0.25
 74
     0
 49
-0.25
 74
     0
  0
LTYPE
  5
167D
330
15
100
AcDbSymbolTableRecord
100
AcDbLinetypeTableRecord
  2
PHANTOMX2
 70
     0
  3
Phantom (2x) ____________    ____    ____   _
 72
    65
 73
     6
 40
5.0
 49
2.5
 74
     0
 49
-0.5
 74
     0
 49
0.5
 74
     0
 49
-0.5
 74
     0
 49
0.5
 74
     0
 49
-0.5
 74
     0
  0
LTYPE
  5
167E
330
15
100
AcDbSymbolTableRecord
100
AcDbLinetypeTableRecord
  2
ZIGZAG
 70
     0
  3
Zig zag /\/\/\/\/\/\/\/\/\/\/\/\/\/\/\/\/\/\/\/
 72
    65
 73
     4
 40
0.8001000000000001
 49
0.0001
 74
     0
 49
-0.2
 74
     4
 75
   131
340
1692
 46
0.2
 50
0.0
 44
-0.2
 45
0.0
 49
-0.4
 74
     4
 75
   131
340
1692
 46
0.2
 50
180.0
 44
0.2
 45
0.0
 49
-0.2
 74
     0
  0
LTYPE
  5
167F
330
15
100
AcDbSymbolTableRecord
100
AcDbLinetypeTableRecord
  2
CPFLEX
 70
     0
  3
CP flex /\/\/\/\/\/\/\/\/\/\/\/\/\/\/\/\/\/\/\/
 72
    65
 73
     4
 40
0.8001000000000001
 49
0.0001
 74
     0
 49
-0.2
 74
     4
 75
   131
340
1692
 46
0.2
 50
0.0
 44
-0.2
 45
0.0
 49
-0.4
 74
     4
 75
   131
340
1692
 46
0.2
 50
180.0
 44
0.2
 45
0.0
 49
-0.2
 74
     0
  0
LTYPE
  5
1680
330
15
100
AcDbSymbolTableRecord
100
AcDbLinetypeTableRecord
  2
CIRC
 70
     0
  3
 ----- ~ ----- ~ ---- ~ -----
 72
    65
 73
     3
 40
9.0
 49
7.0
 74
     0
 49
-1.0
 74
     2
 75
     0
340
13
 46
1.0
 50
0.0
 44
-0.3
 45
-0.6
  9
~
 49
-1.0
 74
     0
  0
LTYPE
  5
1681
330
15
100
AcDbSymbolTableRecord
100
AcDbLinetypeTableRecord
  2
DN 010
 70
     0
  3
 DN10  ---- 10 ---- 10 ---- 10 ----
 72
    65
 73
     3
 40
9.0
 49
5.0
 74
     0
 49
-2.0
 74
     2
 75
     0
340
13
 46
1.0
 50
0.0
 44
-0.5
 45
-0.5
  9
10
 49
-2.0
 74
     0
  0
LTYPE
  5
1682
330
15
100
AcDbSymbolTableRecord
100
AcDbLinetypeTableRecord
  2
DN 015
 70
     0
  3
 DN15  ---- 15 ---- 15 ---- 15 ----
 72
    65
 73
     3
 40
9.0
 49
5.0
 74
     0
 49
-2.0
 74
     2
 75
     0
340
13
 46
1.0
 50
0.0
 44
-0.5
 45
-0.5
  9
15
 49
-2.0
 74
     0
  0
LTYPE
  5
1683
330
15
100
AcDbSymbolTableRecord
100
AcDbLinetypeTableRecord
  2
DN 020
 70
     0
  3
 DN20  ---- 20 ---- 20 ---- 20 ----
 72
    65
 73
     3
 40
9.0
 49
5.0
 74
     0
 49
-2.0
 74
     2
 75
     0
340
13
 46
1.0
 50
0.0
 44
-0.5
 45
-0.5
  9
20
 49
-2.0
 74
     0
  0
LTYPE
  5
1684
330
15
100
AcDbSymbolTableRecord
100
AcDbLinetypeTableRecord
  2
DN 025
 70
     0
  3
 DN25  ---- 25 ---- 25 ---- 25 ----
 72
    65
 73
     3
 40
9.0
 49
5.0
 74
     0
 49
-2.0
 74
     2
 75
     0
340
13
 46
1.0
 50
0.0
 44
-0.5
 45
-0.5
  9
25
 49
-2.0
 74
     0
  0
LTYPE
  5
1685
330
15
100
AcDbSymbolTableRecord
100
AcDbLinetypeTableRecord
  2
DN 032
 70
     0
  3
 DN32  ---- 32 ---- 32 ---- 32 ----
 72
    65
 73
     3
 40
9.0
 49
5.0
 74
     0
 49
-2.0
 74
     2
 75
     0
340
13
 46
1.0
 50
0.0
 44
-0.5
 45
-0.5
  9
32
 49
-2.0
 74
     0
  0
LTYPE
  5
1686
330
15
100
AcDbSymbolTableRecord
100
AcDbLinetypeTableRecord
  2
DN 040
 70
     0
  3
 DN40  ---- 40 ---- 40 ---- 40 ----
 72
    65
 73
     3
 40
9.0
 49
5.0
 74
     0
 49
-2.0
 74
     2
 75
     0
340
13
 46
1.0
 50
0.0
 44
-0.5
 45
-0.5
  9
40
 49
-2.0
 74
     0
  0
LTYPE
  5
1687
330
15
100
AcDbSymbolTableRecord
100
AcDbLinetypeTableRecord
  2
DN 050
 70
     0
  3
 DN50  ---- 50 ---- 50 ---- 50 ----
 72
    65
 73
     3
 40
9.0
 49
5.0
 74
     0
 49
-2.0
 74
     2
 75
     0
340
13
 46
1.0
 50
0.0
 44
-0.5
 45
-0.5
  9
50
 49
-2.0
 74
     0
  0
LTYPE
  5
1688
330
15
100
AcDbSymbolTableRecord
100
AcDbLinetypeTableRecord
  2
DN 065
 70
     0
  3
 DN65  ---- 65 ---- 65 ---- 65 ----
 72
    65
 73
     3
 40
9.0
 49
5.0
 74
     0
 49
-2.0
 74
     2
 75
     0
340
13
 46
1.0
 50
0.0
 44
-0.5
 45
-0.5
  9
65
 49
-2.0
 74
     0
  0
LTYPE
  5
1689
330
15
100
AcDbSymbolTableRecord
100
AcDbLinetypeTableRecord
  2
DN 080
 70
     0
  3
 DN80  ---- 80 ---- 80 ---- 80 ----
 72
    65
 73
     3
 40
9.0
 49
5.0
 74
     0
 49
-2.0
 74
     2
 75
     0
340
13
 46
1.0
 50
0.0
 44
-0.5
 45
-0.5
  9
80
 49
-2.0
 74
     0
  0
LTYPE
  5
168A
330
15
100
AcDbSymbolTableRecord
100
AcDbLinetypeTableRecord
  2
DN 100
 70
     0
  3
 DN100 ---- 100 --- 100 --- 100 ---
 72
    65
 73
     3
 40
9.0
 49
5.0
 74
     0
 49
-2.0
 74
     2
 75
     0
340
13
 46
1.0
 50
0.0
 44
-1.0
 45
-0.5
  9
100
 49
-2.0
 74
     0
  0
LTYPE
  5
168B
330
15
100
AcDbSymbolTableRecord
100
AcDbLinetypeTableRecord
  2
DN 125
 70
     0
  3
 DN125 ---- 125 --- 125 --- 125 ---
 72
    65
 73
     3
 40
9.0
 49
5.0
 74
     0
 49
-2.0
 74
     2
 75
     0
340
13
 46
1.0
 50
0.0
 44
-1.0
 45
-0.5
  9
125
 49
-2.0
 74
     0
  0
LTYPE
  5
168C
330
15
100
AcDbSymbolTableRecord
100
AcDbLinetypeTableRecord
  2
DN 150
 70
     0
  3
 DN150 ---- 150 --- 150 --- 150 ---
 72
    65
 73
     3
 40
9.0
 49
5.0
 74
     0
 49
-2.0
 74
     2
 75
     0
340
13
 46
1.0
 50
0.0
 44
-1.0
 45
-0.5
  9
150
 49
-2.0
 74
     0
  0
LTYPE
  5
168D
330
15
100
AcDbSymbolTableRecord
100
AcDbLinetypeTableRecord
  2
DN 200
 70
     0
  3
 DN200 ---- 200 --- 200 --- 200 ---
 72
    65
 73
     3
 40
9.0
 49
5.0
 74
     0
 49
-2.0
 74
     2
 75
     0
340
13
 46
1.0
 50
0.0
 44
-1.0
 45
-0.5
  9
200
 49
-2.0
 74
     0
  0
LTYPE
  5
168E
330
15
100
AcDbSymbolTableRecord
100
AcDbLinetypeTableRecord
  2
DN 250
 70
     0
  3
 DN250 ---- 250 --- 250 --- 250 ---
 72
    65
 73
     3
 40
9.0
 49
5.0
 74
     0
 49
-2.0
 74
     2
 75
     0
340
13
 46
1.0
 50
0.0
 44
-1.0
 45
-0.5
  9
250
 49
-2.0
 74
     0
  0
LTYPE
  5
168F
330
15
100
AcDbSymbolTableRecord
100
AcDbLinetypeTableRecord
  2
DN 300
 70
     0
  3
 DN300 ---- 300 --- 300 --- 300 ---
 72
    65
 73
     3
 40
9.0
 49
5.0
 74
     0
 49
-2.0
 74
     2
 75
     0
340
13
 46
1.0
 50
0.0
 44
-1.0
 45
-0.5
  9
300
 49
-2.0
 74
     0
  0
ENDTAB
  0
TABLE
  2
LAYER
  5
D
330
0
100
AcDbSymbolTable
 70
     8
  0
LAYER
  5
E
330
D
100
AcDbSymbolTableRecord
100
AcDbLayerTableRecord
  2
0
 70
     0
 62
     7
  6
CONTINUOUS
370
    -3
390
F
  0
LAYER
  5
25
330
D
100
AcDbSymbolTableRecord
100
AcDbLayerTableRecord
  2
AM_0
 70
     0
 62
     7
  6
CONTINUOUS
370
    -3
390
F
  0
LAYER
  5
149
330
D
100
AcDbSymbolTableRecord
100
AcDbLayerTableRecord
  2
AM_5
 70
     0
 62
     3
  6
CONTINUOUS
370
    -3
390
F
  0
LAYER
  5
128
330
D
100
AcDbSymbolTableRecord
100
AcDbLayerTableRecord
  2
DEFPOINTS
 70
     0
 62
     7
  6
CONTINUOUS
290
     0
370
    -3
390
F
  0
LAYER
  5
28
330
D
100
AcDbSymbolTableRecord
100
AcDbLayerTableRecord
  2
AM_7
 70
     0
 62
     4
  6
AM_DIN_G_W050
370
    -3
390
F
  0
LAYER
  5
120
330
D
100
AcDbSymbolTableRecord
100
AcDbLayerTableRecord
  2
AM_8
 70
     0
 62
     1
  6
CONTINUOUS
370
    -3
390
F
  0
LAYER
  5
75
330
D
100
AcDbSymbolTableRecord
100
AcDbLayerTableRecord
  2
AM_4
 70
     0
 62
     3
  6
CONTINUOUS
370
    -3
390
F
  0
LAYER
  5
B8
330
D
100
AcDbSymbolTableRecord
100
AcDbLayerTableRecord
  2
AM_6
 70
     0
 62
     2
  6
CONTINUOUS
370
    -3
390
F
  0
ENDTAB
  0
TABLE
  2
STYLE
  5
12
330
0
100
AcDbSymbolTable
 70
    14
  0
STYLE
  5
13
330
12
100
AcDbSymbolTableRecord
100
AcDbTextStyleTableRecord
  2
STANDARD
 70
     0
 40
0.0
 41
1.0
 50
0.0
 71
     0
 42
50.0
  3
ISOCP.SHX
  4

  0
STYLE
  5
A0
330
12
100
AcDbSymbolTableRecord
100
AcDbTextStyleTableRecord
  2

 70
     1
 40
0.0
 41
1.0
 50
0.0
 71
     0
 42
2.5
  3
ltypeshp.shx
  4

  0
STYLE
  5
86
330
12
100
AcDbSymbolTableRecord
100
AcDbTextStyleTableRecord
  2
ACDINTS
 70
     0
 40
1.0
 41
1.0
 50
0.0
 71
     0
 42
2.5
  3
isocp.shx
  4

  0
STYLE
  5
8A
330
12
100
AcDbSymbolTableRecord
100
AcDbTextStyleTableRecord
  2
ACDINGDT
 70
     0
 40
0.0
 41
1.0
 50
0.0
 71
     0
 42
2.5
  3
amgdt.shx
  4

  0
STYLE
  5
851
330
12
100
AcDbSymbolTableRecord
100
AcDbTextStyleTableRecord
  2
ACISOTS
 70
     0
 40
1.0
 41
1.0
 50
0.0
 71
     0
 42
2.5
  3
isocp.shx
  4
bigfont.shx
  0
STYLE
  5
852
330
12
100
AcDbSymbolTableRecord
100
AcDbTextStyleTableRecord
  2
ACISOGDT
 70
     0
 40
0.0
 41
1.0
 50
0.0
 71
     0
 42
2.5
  3
amgdt.shx
  4
bigfont.shx
  0
STYLE
  5
1690
330
12
100
AcDbSymbolTableRecord
100
AcDbTextStyleTableRecord
  2
Annotative
 70
     0
 40
0.0
 41
1.0
 50
0.0
 71
     0
 42
2.5
  3
ARIAL.TTF
  4

1001
AcadAnnotative
1000
AnnotativeData
1002
{
1070
     1
1070
     1
1002
}
1001
ACAD
1000
Arial
1071
       34
  0
STYLE
  5
1691
330
12
100
AcDbSymbolTableRecord
100
AcDbTextStyleTableRecord
  2
CP_TXT
 70
     0
 40
0.0
 41
1.0
 50
0.0
 71
     0
 42
2.5
  3
ROMANS.SHX
  4

  0
STYLE
  5
1692
330
12
100
AcDbSymbolTableRecord
100
AcDbTextStyleTableRecord
  2

 70
     1
 40
0.0
 41
1.0
 50
0.0
 71
     0
 42
2.5
  3
LTYPESHP.SHX
  4

  0
STYLE
  5
1693
330
12
100
AcDbSymbolTableRecord
100
AcDbTextStyleTableRecord
  2
CP_ATTR
 70
     0
 40
0.0
 41
1.0
 50
0.0
 71
     0
 42
0.2
  3
ROMANS.SHX
  4

  0
STYLE
  5
1694
330
12
100
AcDbSymbolTableRecord
100
AcDbTextStyleTableRecord
  2
CP_TXT_IT
 70
     0
 40
0.0
 41
1.0
 50
15.0
 71
     0
 42
2.5
  3
ROMANS.SHX
  4

  0
STYLE
  5
1695
330
12
100
AcDbSymbolTableRecord
100
AcDbTextStyleTableRecord
  2
CP_TXTCON
 70
     0
 40
0.0
 41
0.8
 50
0.0
 71
     0
 42
2.5
  3
ROMANS.SHX
  4

  0
STYLE
  5
1696
330
12
100
AcDbSymbolTableRecord
100
AcDbTextStyleTableRecord
  2
CP_TXTCON_IT
 70
     0
 40
0.0
 41
0.8
 50
15.0
 71
     0
 42
2.5
  3
ROMANS.SHX
  4

  0
ENDTAB
  0
TABLE
  2
VIEW
  5
18
330
0
100
AcDbSymbolTable
 70
     1
  0
VIEW
  5
14ED
330
18
100
AcDbSymbolTableRecord
100
AcDbViewTableRecord
  2
AM_VIEW6
 70
     0
 40
434.6408789999999
 10
27.20456
 20
2.893715
 41
828.777591
 11
0.0
 21
0.0
 31
1.0
 12
279.805263
 22
217.101156
 32
0.0
 42
50.0
 43
0.0
 44
0.0
 50
0.0
 71
     0
281
     0
 72
     0
  0
ENDTAB
  0
TABLE
  2
UCS
  5
19
330
0
100
AcDbSymbolTable
 70
     0
  0
ENDTAB
  0
TABLE
  2
APPID
  5
1C
330
0
100
AcDbSymbolTable
 70
    82
  0
APPID
  5
1D
330
1C
100
AcDbSymbolTableRecord
100
AcDbRegAppTableRecord
  2
ACAD
 70
     0
  0
APPID
  5
1BD
330
1C
100
AcDbSymbolTableRecord
100
AcDbRegAppTableRecord
  2
GENIUS_GENDTOL_13
 70
     0
  0
APPID
  5
1E7
330
1C
100
AcDbSymbolTableRecord
100
AcDbRegAppTableRecord
  2
GENIUS_GENTRA_14
 70
     0
  0
APPID
  5
2D
330
1C
100
AcDbSymbolTableRecord
100
AcDbRegAppTableRecord
  2
GENIUS_GENODEF_13
 70
     0
  0
APPID
  5
790
330
1C
100
AcDbSymbolTableRecord
100
AcDbRegAppTableRecord
  2
GENIUS_GENOBJ-N-TIT_13
 70
     0
  0
APPID
  5
791
330
1C
100
AcDbSymbolTableRecord
100
AcDbRegAppTableRecord
  2
GENIUS_GENTITLE_13
 70
     0
  0
APPID
  5
78F
330
1C
100
AcDbSymbolTableRecord
100
AcDbRegAppTableRecord
  2
GENIUS_GENOENT_13
 70
     0
  0
APPID
  5
5DE
330
1C
100
AcDbSymbolTableRecord
100
AcDbRegAppTableRecord
  2
GENIUS_GENOREF_13
 70
     0
  0
APPID
  5
78E
330
1C
100
AcDbSymbolTableRecord
100
AcDbRegAppTableRecord
  2
GENIUS_GENOLIS_13
 70
     0
  0
APPID
  5
16F
330
1C
100
AcDbSymbolTableRecord
100
AcDbRegAppTableRecord
  2
GENIUS_GENOBJ-N-SDF_13
 70
     0
  0
APPID
  5
170
330
1C
100
AcDbSymbolTableRecord
100
AcDbRegAppTableRecord
  2
GENIUS_GENSCREG_15
 70
     0
  0
APPID
  5
2E
330
1C
100
AcDbSymbolTableRecord
100
AcDbRegAppTableRecord
  2
GENIUS_GENOBJ-N-FIL_13
 70
     0
  0
APPID
  5
121
330
1C
100
AcDbSymbolTableRecord
100
AcDbRegAppTableRecord
  2
GENIUS_GENOBJ-N-HTC_13
 70
     0
  0
APPID
  5
122
330
1C
100
AcDbSymbolTableRecord
100
AcDbRegAppTableRecord
  2
GENIUS_GENHATCH_13
 70
     0
  0
APPID
  5
1DB
330
1C
100
AcDbSymbolTableRecord
100
AcDbRegAppTableRecord
  2
GENIUS_GENREC_14
 70
     0
  0
APPID
  5
1DC
330
1C
100
AcDbSymbolTableRecord
100
AcDbRegAppTableRecord
  2
GENIUS_GENOBJ-N-REC_13
 70
     0
  0
APPID
  5
7A1
330
1C
100
AcDbSymbolTableRecord
100
AcDbRegAppTableRecord
  2
MCAD_NO_VIS
 70
     0
  0
APPID
  5
7A2
330
1C
100
AcDbSymbolTableRecord
100
AcDbRegAppTableRecord
  2
ACAD_TEMP_GRAPHIC
 70
     0
  0
APPID
  5
7AF
330
1C
100
AcDbSymbolTableRecord
100
AcDbRegAppTableRecord
  2
ACATTRIBSERVICES
 70
     0
  0
APPID
  5
7C4
330
1C
100
AcDbSymbolTableRecord
100
AcDbRegAppTableRecord
  2
GENIUS_GENBLLY_14
 70
     0
  0
APPID
  5
859
330
1C
100
AcDbSymbolTableRecord
100
AcDbRegAppTableRecord
  2
GENIUS_GENCFG_13
 70
     0
  0
APPID
  5
85A
330
1C
100
AcDbSymbolTableRecord
100
AcDbRegAppTableRecord
  2
GENIUS_GENCFG0_13
 70
     0
  0
APPID
  5
85B
330
1C
100
AcDbSymbolTableRecord
100
AcDbRegAppTableRecord
  2
GENIUS_GENCFG1_13
 70
     0
  0
APPID
  5
85C
330
1C
100
AcDbSymbolTableRecord
100
AcDbRegAppTableRecord
  2
GENIUS_GENCFG2_13
 70
     0
  0
APPID
  5
85D
330
1C
100
AcDbSymbolTableRecord
100
AcDbRegAppTableRecord
  2
GENIUS_GENCFG3_13
 70
     0
  0
APPID
  5
85E
330
1C
100
AcDbSymbolTableRecord
100
AcDbRegAppTableRecord
  2
GENIUS_GENCFG4_13
 70
     0
  0
APPID
  5
85F
330
1C
100
AcDbSymbolTableRecord
100
AcDbRegAppTableRecord
  2
GENIUS_GEVCFG0_13
 70
     0
  0
APPID
  5
860
330
1C
100
AcDbSymbolTableRecord
100
AcDbRegAppTableRecord
  2
GENIUS_VERSION1
 70
     0
  0
APPID
  5
861
330
1C
100
AcDbSymbolTableRecord
100
AcDbRegAppTableRecord
  2
GENIUS_GENDIM_13
 70
     0
  0
APPID
  5
862
330
1C
100
AcDbSymbolTableRecord
100
AcDbRegAppTableRecord
  2
GENIUS_GE3DTOL_13
 70
     0
  0
APPID
  5
863
330
1C
100
AcDbSymbolTableRecord
100
AcDbRegAppTableRecord
  2
AD_DRAW
 70
     0
  0
APPID
  5
864
330
1C
100
AcDbSymbolTableRecord
100
AcDbRegAppTableRecord
  2
ASURF_PCURVE_APPNAME
 70
     0
  0
APPID
  5
865
330
1C
100
AcDbSymbolTableRecord
100
AcDbRegAppTableRecord
  2
AMG_3D2D_5_0
 70
     0
  0
APPID
  5
866
330
1C
100
AcDbSymbolTableRecord
100
AcDbRegAppTableRecord
  2
DESIGNERASSEMBLIES
 70
     0
  0
APPID
  5
867
330
1C
100
AcDbSymbolTableRecord
100
AcDbRegAppTableRecord
  2
ACADM_DIM_EDIT
 70
     0
  0
APPID
  5
868
330
1C
100
AcDbSymbolTableRecord
100
AcDbRegAppTableRecord
  2
GENIUS_GEFCFG0_13
 70
     0
  0
APPID
  5
869
330
1C
100
AcDbSymbolTableRecord
100
AcDbRegAppTableRecord
  2
GENIUS_GENBLKED_14
 70
     0
  0
APPID
  5
86A
330
1C
100
AcDbSymbolTableRecord
100
AcDbRegAppTableRecord
  2
GENIUS_GENZVEED_13
 70
     0
  0
APPID
  5
86B
330
1C
100
AcDbSymbolTableRecord
100
AcDbRegAppTableRecord
  2
GENIUS_GENSCREG_13
 70
     0
  0
APPID
  5
86C
330
1C
100
AcDbSymbolTableRecord
100
AcDbRegAppTableRecord
  2
DCO15
 70
     0
  0
APPID
  5
86D
330
1C
100
AcDbSymbolTableRecord
100
AcDbRegAppTableRecord
  2
GENIUS_GENOBJ-N-CEN_13
 70
     0
  0
APPID
  5
86E
330
1C
100
AcDbSymbolTableRecord
100
AcDbRegAppTableRecord
  2
GENIUS_GENBH_13
 70
     0
  0
APPID
  5
86F
330
1C
100
AcDbSymbolTableRecord
100
AcDbRegAppTableRecord
  2
GENIUS_GENOBJ-NBEHI-BHB_13
 70
     0
  0
APPID
  5
870
330
1C
100
AcDbSymbolTableRecord
100
AcDbRegAppTableRecord
  2
GENIUS_GENHINW_13
 70
     0
  0
APPID
  5
871
330
1C
100
AcDbSymbolTableRecord
100
AcDbRegAppTableRecord
  2
GENIUS_FIRSTVISTXT_14
 70
     0
  0
APPID
  5
872
330
1C
100
AcDbSymbolTableRecord
100
AcDbRegAppTableRecord
  2
GENIUS_GENOBJ-N-LEADER_13
 70
     0
  0
APPID
  5
873
330
1C
100
AcDbSymbolTableRecord
100
AcDbRegAppTableRecord
  2
GENIUS_SECONDVISTXT_14
 70
     0
  0
APPID
  5
874
330
1C
100
AcDbSymbolTableRecord
100
AcDbRegAppTableRecord
  2
GENIUS_GENOBJ-N-HINW_13
 70
     0
  0
APPID
  5
875
330
1C
100
AcDbSymbolTableRecord
100
AcDbRegAppTableRecord
  2
GENIUS_GEFWELD_13
 70
     0
  0
APPID
  5
876
330
1C
100
AcDbSymbolTableRecord
100
AcDbRegAppTableRecord
  2
GENIUS_GENOBJ-F-WEL_13
 70
     0
  0
APPID
  5
877
330
1C
100
AcDbSymbolTableRecord
100
AcDbRegAppTableRecord
  2
GEVID980252217
 70
     0
  0
APPID
  5
878
330
1C
100
AcDbSymbolTableRecord
100
AcDbRegAppTableRecord
  2
GEVPT
 70
     0
  0
APPID
  5
879
330
1C
100
AcDbSymbolTableRecord
100
AcDbRegAppTableRecord
  2
GEVIT
 70
     0
  0
APPID
  5
87A
330
1C
100
AcDbSymbolTableRecord
100
AcDbRegAppTableRecord
  2
VCC
 70
     0
  0
APPID
  5
87B
330
1C
100
AcDbSymbolTableRecord
100
AcDbRegAppTableRecord
  2
GENBH
 70
     0
  0
APPID
  5
87C
330
1C
100
AcDbSymbolTableRecord
100
AcDbRegAppTableRecord
  2
GENIUS_GENOBJ-NBEHI-BHF_13
 70
     0
  0
APPID
  5
87D
330
1C
100
AcDbSymbolTableRecord
100
AcDbRegAppTableRecord
  2
GENIUS_GENOBJ-F-PART_13
 70
     0
  0
APPID
  5
87E
330
1C
100
AcDbSymbolTableRecord
100
AcDbRegAppTableRecord
  2
GENIUS_GEFSTDP_13
 70
     0
  0
APPID
  5
87F
330
1C
100
AcDbSymbolTableRecord
100
AcDbRegAppTableRecord
  2
GENIUS_GEFPARTINS_13
 70
     0
  0
APPID
  5
880
330
1C
100
AcDbSymbolTableRecord
100
AcDbRegAppTableRecord
  2
GEVID980252219
 70
     0
  0
APPID
  5
881
330
1C
100
AcDbSymbolTableRecord
100
AcDbRegAppTableRecord
  2
GENIUS_GENDREL_13
 70
     0
  0
APPID
  5
882
330
1C
100
AcDbSymbolTableRecord
100
AcDbRegAppTableRecord
  2
GEV_VCCNULL_SWITCH_OFF
 70
     0
  0
APPID
  5
883
330
1C
100
AcDbSymbolTableRecord
100
AcDbRegAppTableRecord
  2
ACA_CADIMENU
 70
     0
  0
APPID
  5
884
330
1C
100
AcDbSymbolTableRecord
100
AcDbRegAppTableRecord
  2
GENIUS_GENCFG5_13
 70
     0
  0
APPID
  5
885
330
1C
100
AcDbSymbolTableRecord
100
AcDbRegAppTableRecord
  2
GENIUS_GENOBJ-N-CRS_13
 70
     0
  0
APPID
  5
886
330
1C
100
AcDbSymbolTableRecord
100
AcDbRegAppTableRecord
  2
GENIUS_GENDIMSH_14
 70
     0
  0
APPID
  5
887
330
1C
100
AcDbSymbolTableRecord
100
AcDbRegAppTableRecord
  2
GENIUS_GENOBJ-F-SCPASSM_13
 70
     0
  0
APPID
  5
888
330
1C
100
AcDbSymbolTableRecord
100
AcDbRegAppTableRecord
  2
GENIUS_GENIUS_GENBHEDTMP_13
 70
     0
  0
APPID
  5
889
330
1C
100
AcDbSymbolTableRecord
100
AcDbRegAppTableRecord
  2
GEVID1032351709
 70
     0
  0
APPID
  5
88A
330
1C
100
AcDbSymbolTableRecord
100
AcDbRegAppTableRecord
  2
GEVDC
 70
     0
  0
APPID
  5
88B
330
1C
100
AcDbSymbolTableRecord
100
AcDbRegAppTableRecord
  2
GENIUS_GENOBJ-F-WELS_13
 70
     0
  0
APPID
  5
88C
330
1C
100
AcDbSymbolTableRecord
100
AcDbRegAppTableRecord
  2
GEVID1036052968
 70
     0
  0
APPID
  5
88D
330
1C
100
AcDbSymbolTableRecord
100
AcDbRegAppTableRecord
  2
GEVID1036052969
 70
     0
  0
APPID
  5
88E
330
1C
100
AcDbSymbolTableRecord
100
AcDbRegAppTableRecord
  2
GEVID1036052971
 70
     0
  0
APPID
  5
88F
330
1C
100
AcDbSymbolTableRecord
100
AcDbRegAppTableRecord
  2
GENIUS_GENOBJ-N-DIM_13
 70
     0
  0
APPID
  5
15B6
330
1C
100
AcDbSymbolTableRecord
100
AcDbRegAppTableRecord
  2
AMDT_DM_ADJ
 70
     0
  0
APPID
  5
169A
330
1C
100
AcDbSymbolTableRecord
100
AcDbRegAppTableRecord
  2
ACAD_PSEXT
 70
     0
  0
APPID
  5
169B
330
1C
100
AcDbSymbolTableRecord
100
AcDbRegAppTableRecord
  2
AcadAnnoPO
 70
     0
  0
APPID
  5
169C
330
1C
100
AcDbSymbolTableRecord
100
AcDbRegAppTableRecord
  2
AcadAnnotative
 70
     0
  0
APPID
  5
169D
330
1C
100
AcDbSymbolTableRecord
100
AcDbRegAppTableRecord
  2
ACAD_DSTYLE_DIMJAG
 70
     0
  0
APPID
  5
169E
330
1C
100
AcDbSymbolTableRecord
100
AcDbRegAppTableRecord
  2
ACAD_DSTYLE_DIMTALN
 70
     0
  0
APPID
  5
169F
330
1C
100
AcDbSymbolTableRecord
100
AcDbRegAppTableRecord
  2
ACAD_MLEADERVER
 70
     0
  0
ENDTAB
  0
TABLE
  2
DIMSTYLE
  5
1E
330
0
100
AcDbSymbolTable
 70
    19
100
AcDbDimStyleTable
 71
     1
340
1F
  0
DIMSTYLE
105
1F
102
{ACAD_REACTORS
330
6C4
330
1CC
330
1BF
330
1B0
102
}
330
1E
100
AcDbSymbolTableRecord
100
AcDbDimStyleTableRecord
  2
AM_DIN
 70
     0
  4
"
 41
2.5
 42
1.0
 43
10.0
 44
1.0
 47
0.1
 48
0.1
 73
     0
 74
     0
 77
     1
 78
     8
 79
     2
140
3.5
141
0.0
143
0.0393701
146
0.71
147
1.5
172
     1
176
   256
177
   256
178
     2
271
     2
272
     3
274
     4
283
     0
284
     8
340
13
371
    -1
372
    -1
  0
DIMSTYLE
105
A3
330
1E
100
AcDbSymbolTableRecord
100
AcDbDimStyleTableRecord
  2
AM_DIN$3
 70
     0
  4
"
 41
2.5
 42
1.0
 43
10.0
 44
1.0
 47
0.1
 48
0.1
 73
     0
 77
     1
 78
     8
 79
     2
140
3.5
141
0.0
143
0.0393701
146
0.71
147
1.5
176
   256
177
   256
178
     2
271
     2
272
     3
274
     4
283
     0
284
     8
288
     1
289
     0
340
13
371
    -1
372
    -1
  0
DIMSTYLE
105
A4
330
1E
100
AcDbSymbolTableRecord
100
AcDbDimStyleTableRecord
  2
AM_DIN$4
 70
     0
  4
"
 41
2.5
 42
1.0
 43
10.0
 44
1.0
 47
0.1
 48
0.1
 73
     0
 77
     1
 78
     8
 79
     2
140
3.5
141
0.0
143
0.0393701
146
0.71
147
1.5
176
   256
177
   256
178
     2
271
     2
272
     3
274
     4
283
     0
284
     8
288
     1
289
     0
340
13
371
    -1
372
    -1
  0
DIMSTYLE
105
A5
330
1E
100
AcDbSymbolTableRecord
100
AcDbDimStyleTableRecord
  2
AM_DIN$6
 70
     0
  4
"
 41
2.5
 42
1.0
 43
10.0
 44
1.0
 47
0.1
 48
0.1
 73
     0
 74
     0
 78
     8
 79
     2
140
3.5
141
0.0
143
0.0393701
146
0.71
147
1.5
172
     1
176
   256
177
   256
178
     2
271
     2
272
     3
274
     4
283
     0
284
     8
340
13
371
    -1
372
    -1
  0
DIMSTYLE
105
A6
330
1E
100
AcDbSymbolTableRecord
100
AcDbDimStyleTableRecord
  2
AM_DIN$7
 70
     0
  4
"
 41
2.5
 42
1.0
 43
10.0
 44
1.0
 47
0.1
 48
0.1
 73
     0
 74
     0
 77
     1
 78
     8
 79
     2
140
5.0
141
0.0
143
0.0393701
146
0.71
147
1.5
172
     1
176
   256
177
   256
178
     2
271
     2
272
     3
274
     4
283
     0
284
     8
340
13
371
    -1
372
    -1
  0
DIMSTYLE
105
A7
330
1E
100
AcDbSymbolTableRecord
100
AcDbDimStyleTableRecord
  2
AM_DIN$SF
 70
     0
  4
"
 41
2.5
 42
1.0
 43
10.0
 44
1.0
 47
0.1
 48
0.1
 73
     0
 74
     0
 75
     1
 76
     1
 77
     1
 78
     8
 79
     2
140
3.5
141
0.0
143
0.0393701
146
0.71
147
1.5
172
     1
176
   256
177
   256
178
     2
271
     2
272
     3
274
     4
283
     0
284
     8
340
13
371
    -1
372
    -1
  0
DIMSTYLE
105
A8
330
1E
100
AcDbSymbolTableRecord
100
AcDbDimStyleTableRecord
  2
AM_DIN$SH
 70
     0
  4
"
 41
2.5
 42
1.0
 43
10.0
 44
1.0
 47
0.1
 48
0.1
 73
     0
 74
     0
 75
     1
 76
     1
 77
     1
 78
     8
 79
     2
140
3.5
141
0.0
143
0.0393701
144
2.0
146
0.71
147
1.5
172
     1
173
     1
176
   256
177
   256
178
     2
271
     2
272
     3
274
     4
283
     0
284
     8
340
13
343
A9
371
    -1
372
    -1
  0
DIMSTYLE
105
20
330
1E
100
AcDbSymbolTableRecord
100
AcDbDimStyleTableRecord
  2
AM_ISO
 70
     0
  4
"
 41
2.5
 42
1.0
 43
10.0
 44
1.0
 47
0.1
 48
0.1
 73
     0
 74
     0
 77
     1
 78
     8
 79
     2
140
3.5
141
0.0
143
0.0393701
146
0.71
147
1.5
172
     1
176
   256
177
   256
178
     2
271
     2
272
     3
274
     4
283
     0
284
     8
340
13
371
    -1
372
    -1
  0
DIMSTYLE
105
A2
330
1E
100
AcDbSymbolTableRecord
100
AcDbDimStyleTableRecord
  2
AM_DIN$2
 70
     0
  4
"
 41
2.5
 42
0.0
 43
8.0
 44
1.0
 47
0.1
 48
0.1
 73
     0
 74
     0
 77
     1
 78
     8
140
3.0
141
0.0
143
0.03937
146
0.71
147
0.7
172
     1
176
   256
177
   256
178
     2
271
     2
272
     2
283
     0
284
     8
340
13
  0
DIMSTYLE
105
853
330
1E
100
AcDbSymbolTableRecord
100
AcDbDimStyleTableRecord
  2
AM_ISO$3
 70
     0
  4
"
 41
2.5
 42
1.0
 43
10.0
 44
1.0
 47
0.1
 48
0.1
 73
     0
 77
     1
 78
     8
 79
     2
140
3.5
141
0.0
143
0.0393701
146
0.71
147
1.5
176
   256
177
   256
178
     2
271
     2
272
     3
274
     4
283
     0
284
     8
288
     1
289
     0
340
13
371
    -1
372
    -1
  0
DIMSTYLE
105
854
330
1E
100
AcDbSymbolTableRecord
100
AcDbDimStyleTableRecord
  2
AM_ISO$4
 70
     0
  4
"
 41
2.5
 42
1.0
 43
10.0
 44
1.0
 47
0.1
 48
0.1
 73
     0
 77
     1
 78
     8
 79
     2
140
3.5
141
0.0
143
0.0393701
146
0.71
147
1.5
176
   256
177
   256
178
     2
271
     2
272
     3
274
     4
283
     0
284
     8
288
     1
289
     0
340
13
371
    -1
372
    -1
  0
DIMSTYLE
105
855
330
1E
100
AcDbSymbolTableRecord
100
AcDbDimStyleTableRecord
  2
AM_ISO$6
 70
     0
  4
"
 41
2.5
 42
1.0
 43
10.0
 44
1.0
 47
0.1
 48
0.1
 73
     0
 74
     0
 78
     8
 79
     2
140
3.5
141
0.0
143
0.0393701
146
0.71
147
1.5
172
     1
176
   256
177
   256
178
     2
271
     2
272
     3
274
     4
283
     0
284
     8
340
13
371
    -1
372
    -1
  0
DIMSTYLE
105
856
330
1E
100
AcDbSymbolTableRecord
100
AcDbDimStyleTableRecord
  2
AM_ISO$7
 70
     0
  4
"
 41
2.5
 42
1.0
 43
10.0
 44
1.0
 47
0.1
 48
0.1
 73
     0
 74
     0
 77
     1
 78
     8
 79
     2
140
5.0
141
0.0
143
0.0393701
146
0.71
147
1.5
172
     1
176
   256
177
   256
178
     2
271
     2
272
     3
274
     4
283
     0
284
     8
340
13
371
    -1
372
    -1
  0
DIMSTYLE
105
857
330
1E
100
AcDbSymbolTableRecord
100
AcDbDimStyleTableRecord
  2
AM_ISO$SF
 70
     0
  4
"
 41
2.5
 42
1.0
 43
10.0
 44
1.0
 47
0.1
 48
0.1
 73
     0
 74
     0
 75
     1
 76
     1
 77
     1
 78
     8
 79
     2
140
3.5
141
0.0
143
0.0393701
146
0.71
147
1.5
172
     1
176
   256
177
   256
178
     2
271
     2
272
     3
274
     4
283
     0
284
     8
340
13
371
    -1
372
    -1
  0
DIMSTYLE
105
858
330
1E
100
AcDbSymbolTableRecord
100
AcDbDimStyleTableRecord
  2
AM_ISO$SH
 70
     0
  4
"
 41
2.5
 42
1.0
 43
10.0
 44
1.0
 47
0.1
 48
0.1
 73
     0
 74
     0
 75
     1
 76
     1
 77
     1
 78
     8
 79
     2
140
3.5
141
0.0
143
0.0393701
144
2.0
146
0.71
147
1.5
172
     1
173
     1
176
   256
177
   256
178
     2
271
     2
272
     3
274
     4
283
     0
284
     8
340
13
343
A9
371
    -1
372
    -1
  0
DIMSTYLE
105
1697
330
1E
100
AcDbSymbolTableRecord
100
AcDbDimStyleTableRecord
  2
Standard
 70
     0
340
13
  0
DIMSTYLE
105
1698
330
1E
100
AcDbSymbolTableRecord
100
AcDbDimStyleTableRecord
  2
Opisowy
 70
     0
 40
0.0
 41
2.5
 42
0.625
 43
3.75
 44
1.25
 73
     0
 74
     0
 77
     1
 78
     8
140
2.5
141
2.5
143
0.03937007874016
147
0.625
171
     3
172
     1
271
     2
272
     2
274
     3
278
    44
283
     0
284
     8
340
13
1001
AcadAnnotative
1000
AnnotativeData
1002
{
1070
     1
1070
     1
1002
}
1001
ACAD_DSTYLE_DIMJAG
1070
   388
1040
1.5
1001
ACAD_DSTYLE_DIMTALN
1070
   392
1070
     0
  0
DIMSTYLE
105
1699
330
1E
100
AcDbSymbolTableRecord
100
AcDbDimStyleTableRecord
  2
ISO-25
 70
     0
 41
2.5
 42
0.625
 43
3.75
 44
1.25
 73
     0
 74
     0
 77
     1
 78
     8
140
2.5
141
2.5
143
0.03937007874016
147
0.625
171
     3
172
     1
271
     2
272
     2
274
     3
278
    44
283
     0
284
     8
340
13
  0
ENDTAB
  0
TABLE
  2
BLOCK_RECORD
  5
1
330
0
100
AcDbSymbolTable
 70
     7
  0
BLOCK_RECORD
  5
2
102
{ACAD_XDICTIONARY
360
3
102
}
330
1
100
AcDbSymbolTableRecord
100
AcDbBlockTableRecord
  2
*MODEL_SPACE
340
6
  0
BLOCK_RECORD
  5
9
102
{ACAD_XDICTIONARY
360
1524
102
}
330
1
100
AcDbSymbolTableRecord
100
AcDbBlockTableRecord
  2
*PAPER_SPACE
340
C
  0
BLOCK_RECORD
  5
A9
330
1
100
AcDbSymbolTableRecord
100
AcDbBlockTableRecord
  2
GENAXEH
340
0
  0
BLOCK_RECORD
  5
9CB
330
1
100
AcDbSymbolTableRecord
100
AcDbBlockTableRecord
  2
*D1
340
0
  0
BLOCK_RECORD
  5
9D7
330
1
100
AcDbSymbolTableRecord
100
AcDbBlockTableRecord
  2
*D2
340
0
  0
BLOCK_RECORD
  5
9E3
330
1
100
AcDbSymbolTableRecord
100
AcDbBlockTableRecord
  2
*D3
340
0
  0
BLOCK_RECORD
  5
A13
330
1
100
AcDbSymbolTableRecord
100
AcDbBlockTableRecord
  2
*D4
340
0
  0
ENDTAB
  0
ENDSEC
  0
SECTION
  2
BLOCKS
  0
BLOCK
  5
4
330
2
100
AcDbEntity
  8
0
100
AcDbBlockBegin
  2
*MODEL_SPACE
 70
     0
 10
0.0
 20
0.0
 30
0.0
  3
*MODEL_SPACE
  1

  0
ENDBLK
  5
5
330
2
100
AcDbEntity
  8
0
100
AcDbBlockEnd
  0
BLOCK
  5
A
330
9
100
AcDbEntity
 67
     1
  8
0
100
AcDbBlockBegin
  2
*PAPER_SPACE
 70
     0
 10
0.0
 20
0.0
 30
0.0
  3
*PAPER_SPACE
  1

  0
ENDBLK
  5
B
330
9
100
AcDbEntity
 67
     1
  8
0
100
AcDbBlockEnd
  0
BLOCK
  5
1619
330
A9
100
AcDbEntity
  8
0
100
AcDbBlockBegin
  2
GENAXEH
 70
     0
 10
0.0
 20
0.0
 30
0.0
  3
GENAXEH
  1

  0
LINE
  5
161A
330
A9
100
AcDbEntity
  8
0
100
AcDbLine
 10
-1.0
 20
0.0
 30
0.0
 11
1.0
 21
0.0
 31
0.0
  0
ENDBLK
  5
161B
330
A9
100
AcDbEntity
  8
0
100
AcDbBlockEnd
  0
BLOCK
  5
9D5
330
9CB
100
AcDbEntity
  8
0
100
AcDbBlockBegin
  2
*D1
 70
     1
 10
0.0
 20
0.0
 30
0.0
  3
*D1
  1

  0
LINE
  5
1500
330
9CB
100
AcDbEntity
  8
AM_5
100
AcDbLine
 10
231.674138
 20
78.400672
 30
0.0
 11
111.361715
 21
78.400672
 31
0.0
  0
LINE
  5
1501
330
9CB
100
AcDbEntity
  8
AM_5
100
AcDbLine
 10
239.988713
 20
398.904366
 30
0.0
 11
111.361715
 21
398.904366
 31
0.0
  0
LINE
  5
1502
330
9CB
100
AcDbEntity
  8
AM_5
100
AcDbLine
 10
112.361715
 20
80.900672
 30
0.0
 11
112.361715
 21
396.4043660000001
 31
0.0
  0
SOLID
  5
1503
330
9CB
100
AcDbEntity
  8
AM_5
100
AcDbTrace
 10
111.945049
 20
80.900672
 30
0.0
 11
112.778382
 21
80.900672
 31
0.0
 12
112.361715
 22
78.400672
 32
0.0
 13
112.361715
 23
78.400672
 33
0.0
  0
SOLID
  5
1504
330
9CB
100
AcDbEntity
  8
AM_5
100
AcDbTrace
 10
111.945049
 20
396.4043660000001
 30
0.0
 11
112.778382
 21
396.4043660000001
 31
0.0
 12
112.361715
 22
398.904366
 32
0.0
 13
112.361715
 23
398.904366
 33
0.0
  0
MTEXT
  5
1505
330
9CB
100
AcDbEntity
  8
AM_5
 62
     2
100
AcDbMText
 10
110.16142
 20
238.652519
 30
0.0
 40
3.0
 41
0.0
 71
     5
 72
     1
  1
321 {}{\C2;%%p5}
 11
0.0
 21
1.0
 31
0.0
 73
     1
 44
1.0
  0
POINT
  5
1506
330
9CB
100
AcDbEntity
  8
DEFPOINTS
 62
     0
100
AcDbPoint
 10
231.674138
 20
78.400672
 30
0.0
  0
POINT
  5
1507
330
9CB
100
AcDbEntity
  8
DEFPOINTS
 62
     0
100
AcDbPoint
 10
239.988713
 20
398.904366
 30
0.0
  0
POINT
  5
1508
330
9CB
100
AcDbEntity
  8
DEFPOINTS
 62
     0
100
AcDbPoint
 10
112.361715
 20
398.904366
 30
0.0
  0
ENDBLK
  5
9D6
330
9CB
100
AcDbEntity
  8
0
100
AcDbBlockEnd
  0
BLOCK
  5
9E1
330
9D7
100
AcDbEntity
  8
0
100
AcDbBlockBegin
  2
*D2
 70
     1
 10
0.0
 20
0.0
 30
0.0
  3
*D2
  1

  0
LINE
  5
1509
330
9D7
100
AcDbEntity
  8
AM_5
100
AcDbLine
 10
230.139552
 20
79.93525799999999
 30
0.0
 11
230.139552
 21
51.402169
 31
0.0
  0
LINE
  5
150A
330
9D7
100
AcDbEntity
  8
AM_5
100
AcDbLine
 10
256.579552
 20
79.93525799999999
 30
0.0
 11
256.579552
 21
51.402169
 31
0.0
  0
LINE
  5
150B
330
9D7
100
AcDbEntity
  8
AM_5
100
AcDbLine
 10
232.639552
 20
52.402169
 30
0.0
 11
254.079552
 21
52.402169
 31
0.0
  0
SOLID
  5
150C
330
9D7
100
AcDbEntity
  8
AM_5
100
AcDbTrace
 10
232.639552
 20
52.818836
 30
0.0
 11
232.639552
 21
51.985502
 31
0.0
 12
230.139552
 22
52.402169
 32
0.0
 13
230.139552
 23
52.402169
 33
0.0
  0
SOLID
  5
150D
330
9D7
100
AcDbEntity
  8
AM_5
100
AcDbTrace
 10
254.079552
 20
52.818836
 30
0.0
 11
254.079552
 21
51.985502
 31
0.0
 12
256.579552
 22
52.402169
 32
0.0
 13
256.579552
 23
52.402169
 33
0.0
  0
MTEXT
  5
150E
330
9D7
100
AcDbEntity
  8
AM_5
 62
     2
100
AcDbMText
 10
243.631068
 20
54.60749899999999
 30
0.0
 40
3.0
 41
0.0
 71
     5
 72
     1
  1
G 3/4
 73
     1
 44
1.0
  0
POINT
  5
150F
330
9D7
100
AcDbEntity
  8
DEFPOINTS
 62
     0
100
AcDbPoint
 10
230.139552
 20
79.93525799999999
 30
0.0
  0
POINT
  5
1510
330
9D7
100
AcDbEntity
  8
DEFPOINTS
 62
     0
100
AcDbPoint
 10
256.579552
 20
79.93525799999999
 30
0.0
  0
POINT
  5
1511
330
9D7
100
AcDbEntity
  8
DEFPOINTS
 62
     0
100
AcDbPoint
 10
256.579552
 20
52.402169
 30
0.0
  0
ENDBLK
  5
9E2
330
9D7
100
AcDbEntity
  8
0
100
AcDbBlockEnd
  0
BLOCK
  5
9ED
330
9E3
100
AcDbEntity
  8
0
100
AcDbBlockBegin
  2
*D3
 70
     1
 10
0.0
 20
0.0
 30
0.0
  3
*D3
  1

  0
LINE
  5
14EE
330
9E3
100
AcDbEntity
  8
AM_5
100
AcDbLine
 10
140.359552
 20
285.115688
 30
0.0
 11
140.359552
 21
286.115688
 31
0.0
  0
LINE
  5
14EF
330
9E3
100
AcDbEntity
  8
AM_5
100
AcDbLine
 10
346.359552
 20
285.115688
 30
0.0
 11
346.359552
 21
286.115688
 31
0.0
  0
LINE
  5
14F0
330
9E3
100
AcDbEntity
  8
AM_5
100
AcDbLine
 10
142.859552
 20
285.115688
 30
0.0
 11
343.859552
 21
285.115688
 31
0.0
  0
SOLID
  5
14F1
330
9E3
100
AcDbEntity
  8
AM_5
100
AcDbTrace
 10
142.859552
 20
285.532355
 30
0.0
 11
142.859552
 21
284.699022
 31
0.0
 12
140.359552
 22
285.115688
 32
0.0
 13
140.359552
 23
285.115688
 33
0.0
  0
SOLID
  5
14F2
330
9E3
100
AcDbEntity
  8
AM_5
100
AcDbTrace
 10
343.859552
 20
285.532355
 30
0.0
 11
343.859552
 21
284.699022
 31
0.0
 12
346.359552
 22
285.115688
 32
0.0
 13
346.359552
 23
285.115688
 33
0.0
  0
MTEXT
  5
14F3
330
9E3
100
AcDbEntity
  8
AM_5
 62
     2
100
AcDbMText
 10
188.25553
 20
287.3159839999999
 30
0.0
 40
3.0
 41
0.0
 71
     5
 72
     1
  1
%%c206
 73
     1
 44
1.0
  0
POINT
  5
14F4
330
9E3
100
AcDbEntity
  8
DEFPOINTS
 62
     0
100
AcDbPoint
 10
140.359552
 20
285.115688
 30
0.0
  0
POINT
  5
14F5
330
9E3
100
AcDbEntity
  8
DEFPOINTS
 62
     0
100
AcDbPoint
 10
346.359552
 20
285.115688
 30
0.0
  0
POINT
  5
14F6
330
9E3
100
AcDbEntity
  8
DEFPOINTS
 62
     0
100
AcDbPoint
 10
346.359552
 20
285.115688
 30
0.0
  0
ENDBLK
  5
9EE
330
9E3
100
AcDbEntity
  8
0
100
AcDbBlockEnd
  0
BLOCK
  5
A1D
330
A13
100
AcDbEntity
  8
0
100
AcDbBlockBegin
  2
*D4
 70
     1
 10
0.0
 20
0.0
 30
0.0
  3
*D4
  1

  0
LINE
  5
14F7
330
A13
100
AcDbEntity
  8
AM_5
100
AcDbLine
 10
240.117579
 20
372.147783
 30
0.0
 11
124.476421
 21
372.147783
 31
0.0
  0
LINE
  5
14F8
330
A13
100
AcDbEntity
  8
AM_5
100
AcDbLine
 10
200.824298
 20
104.050879
 30
0.0
 11
124.476421
 21
104.050879
 31
0.0
  0
LINE
  5
14F9
330
A13
100
AcDbEntity
  8
AM_5
100
AcDbLine
 10
125.476421
 20
369.647783
 30
0.0
 11
125.476421
 21
106.550879
 31
0.0
  0
SOLID
  5
14FA
330
A13
100
AcDbEntity
  8
AM_5
100
AcDbTrace
 10
125.059755
 20
369.647783
 30
0.0
 11
125.893088
 21
369.647783
 31
0.0
 12
125.476421
 22
372.147783
 32
0.0
 13
125.476421
 23
372.147783
 33
0.0
  0
SOLID
  5
14FB
330
A13
100
AcDbEntity
  8
AM_5
100
AcDbTrace
 10
125.059755
 20
106.550879
 30
0.0
 11
125.893088
 21
106.550879
 31
0.0
 12
125.476421
 22
104.050879
 32
0.0
 13
125.476421
 23
104.050879
 33
0.0
  0
MTEXT
  5
14FC
330
A13
100
AcDbEntity
  8
AM_5
 62
     2
100
AcDbMText
 10
123.276126
 20
238.099331
 30
0.0
 40
3.0
 41
0.0
 71
     5
 72
     1
  1
268 {}{\C2;%%p3}
 11
0.0
 21
1.0
 31
0.0
 73
     1
 44
1.0
  0
POINT
  5
14FD
330
A13
100
AcDbEntity
  8
DEFPOINTS
 62
     0
100
AcDbPoint
 10
240.117579
 20
372.147783
 30
0.0
  0
POINT
  5
14FE
330
A13
100
AcDbEntity
  8
DEFPOINTS
 62
     0
100
AcDbPoint
 10
200.824298
 20
104.050879
 30
0.0
  0
POINT
  5
14FF
330
A13
100
AcDbEntity
  8
DEFPOINTS
 62
     0
100
AcDbPoint
 10
125.476421
 20
104.050879
 30
0.0
  0
ENDBLK
  5
A1E
330
A13
100
AcDbEntity
  8
0
100
AcDbBlockEnd
  0
ENDSEC
  0
SECTION
  2
ENTITIES
  0
LINE
  5
27
330
2
100
AcDbEntity
  8
AM_7
100
AcDbLine
 10
434.242269
 20
291.326769
 30
0.0
 11
434.242269
 21
193.826769
 31
0.0
  0
LINE
  5
2A
330
2
100
AcDbEntity
  8
AM_7
100
AcDbLine
 10
482.992269
 20
242.576769
 30
0.0
 11
385.492269
 21
242.576769
 31
0.0
  0
TEXT
  5
2B
330
2
100
AcDbEntity
  8
AM_0
100
AcDbText
 10
418.0724589999999
 20
297.812721
 30
0.0
 40
6.0
  1
Ansicht Y
100
AcDbText
  0
ARC
  5
2C
330
2
100
AcDbEntity
  8
AM_0
100
AcDbCircle
 10
443.305011
 20
248.811085
 30
0.0
 40
0.5
100
AcDbArc
 50
135.0
 51
214.524318
1001
GENIUS_GENODEF_13
1002
{
1000
HIER
1070
     0
1002
}
1002
{
1000
MANEDIT
1070
     0
1002
}
1002
{
1000
NOSEL
1070
     0
1002
}
1002
{
1000
BEHIND
1070
     0
1002
}
1002
{
1000
REACTOR
1002
}
1001
GENIUS_GENOBJ-N-FIL_13
1002
{
1000
OWNER
1000
GEN
1002
}
  0
ARC
  5
2F
330
2
100
AcDbEntity
  8
AM_0
100
AcDbCircle
 10
442.979319
 20
249.899606
 30
0.0
 40
0.5
100
AcDbArc
 50
315.0
 51
39.967587
1001
GENIUS_GENODEF_13
1002
{
1000
HIER
1070
     0
1002
}
1002
{
1000
MANEDIT
1070
     0
1002
}
1002
{
1000
NOSEL
1070
     0
1002
}
1002
{
1000
BEHIND
1070
     0
1002
}
1002
{
1000
REACTOR
1002
}
1001
GENIUS_GENOBJ-N-FIL_13
1002
{
1000
OWNER
1000
GEN
1002
}
  0
LINE
  5
30
330
2
100
AcDbEntity
  8
AM_0
100
AcDbLine
 10
442.651398
 20
248.864578
 30
0.0
 11
443.332873
 21
249.546053
 31
0.0
  0
ARC
  5
31
330
2
100
AcDbEntity
  8
AM_0
100
AcDbCircle
 10
434.242269
 20
242.576769
 30
0.0
 40
9.9
100
AcDbArc
 50
37.231782
 51
51.73972299999999
  0
ARC
  5
32
330
2
100
AcDbEntity
  8
AM_0
100
AcDbCircle
 10
434.242269
 20
242.576769
 30
0.0
 40
10.05
100
AcDbArc
 50
37.348426
 51
51.638674
  0
LINE
  5
33
330
2
100
AcDbEntity
  8
AM_0
100
AcDbLine
 10
441.128998
 20
251.106612
 30
0.0
 11
442.896765
 21
249.338845
 31
0.0
  0
ARC
  5
34
330
2
100
AcDbEntity
  8
AM_0
100
AcDbCircle
 10
434.242269
 20
242.576769
 30
0.0
 40
10.05
100
AcDbArc
 50
82.898603
 51
97.188295
  0
ARC
  5
35
330
2
100
AcDbEntity
  8
AM_0
100
AcDbCircle
 10
434.242269
 20
242.576769
 30
0.0
 40
9.9
100
AcDbArc
 50
82.79043900000001
 51
97.29779700000001
  0
LINE
  5
36
330
2
100
AcDbEntity
  8
AM_0
100
AcDbLine
 10
432.9847059999999
 20
253.444553
 30
0.0
 11
435.4847059999999
 21
253.444553
 31
0.0
  0
LINE
  5
37
330
2
100
AcDbEntity
  8
AM_0
100
AcDbLine
 10
425.151664
 20
249.546053
 30
0.0
 11
425.8331389999999
 21
248.864578
 31
0.0
  0
ARC
  5
38
330
2
100
AcDbEntity
  8
AM_0
100
AcDbCircle
 10
425.1795259999999
 20
248.811085
 30
0.0
 40
0.5
100
AcDbArc
 50
325.475682
 51
45.0
1001
GENIUS_GENODEF_13
1002
{
1000
HIER
1070
     0
1002
}
1002
{
1000
MANEDIT
1070
     0
1002
}
1002
{
1000
NOSEL
1070
     0
1002
}
1002
{
1000
BEHIND
1070
     0
1002
}
1002
{
1000
REACTOR
1002
}
1001
GENIUS_GENOBJ-N-FIL_13
1002
{
1000
OWNER
1000
GEN
1002
}
  0
ARC
  5
39
330
2
100
AcDbEntity
  8
AM_0
100
AcDbCircle
 10
425.5052179999999
 20
249.899606
 30
0.0
 40
0.5
100
AcDbArc
 50
140.032413
 51
225.0
1001
GENIUS_GENODEF_13
1002
{
1000
HIER
1070
     0
1002
}
1002
{
1000
MANEDIT
1070
     0
1002
}
1002
{
1000
NOSEL
1070
     0
1002
}
1002
{
1000
BEHIND
1070
     0
1002
}
1002
{
1000
REACTOR
1002
}
1001
GENIUS_GENOBJ-N-FIL_13
1002
{
1000
OWNER
1000
GEN
1002
}
  0
ARC
  5
3A
330
2
100
AcDbEntity
  8
AM_0
100
AcDbCircle
 10
434.242269
 20
242.576769
 30
0.0
 40
9.9
100
AcDbArc
 50
128.322597
 51
142.8306889999999
  0
ARC
  5
3B
330
2
100
AcDbEntity
  8
AM_0
100
AcDbCircle
 10
434.242269
 20
242.576769
 30
0.0
 40
10.05
100
AcDbArc
 50
128.422703
 51
142.713096
  0
LINE
  5
3C
330
2
100
AcDbEntity
  8
AM_0
100
AcDbLine
 10
425.572648
 20
249.338845
 30
0.0
 11
427.3404150000001
 21
251.106612
 31
0.0
  0
ARC
  5
3D
330
2
100
AcDbEntity
  8
AM_0
100
AcDbCircle
 10
434.242269
 20
242.576769
 30
0.0
 40
11.9
100
AcDbArc
 50
39.967587
 51
140.032413
  0
ARC
  5
3E
330
2
100
AcDbEntity
  8
AM_0
100
AcDbCircle
 10
434.242269
 20
242.576769
 30
0.0
 40
10.05
100
AcDbArc
 50
352.094833
 51
6.385783999999999
  0
ARC
  5
3F
330
2
100
AcDbEntity
  8
AM_0
100
AcDbCircle
 10
434.242269
 20
242.576769
 30
0.0
 40
9.9
100
AcDbArc
 50
351.974275
 51
6.482949999999999
  0
LINE
  5
40
330
2
100
AcDbEntity
  8
AM_0
100
AcDbLine
 10
445.234706
 20
243.694553
 30
0.0
 11
445.234706
 21
241.194553
 31
0.0
  0
ARC
  5
41
330
2
100
AcDbEntity
  8
AM_0
100
AcDbCircle
 10
434.242269
 20
242.576769
 30
0.0
 40
11.9
100
AcDbArc
 50
354.9675870000001
 51
5.032413
  0
ARC
  5
42
330
2
100
AcDbEntity
  8
AM_0
100
AcDbCircle
 10
445.5983240000001
 20
241.576769
 30
0.0
 40
0.5
100
AcDbArc
 50
270.0
 51
354.9675870000001
1001
GENIUS_GENODEF_13
1002
{
1000
HIER
1070
     0
1002
}
1002
{
1000
MANEDIT
1070
     0
1002
}
1002
{
1000
NOSEL
1070
     0
1002
}
1002
{
1000
BEHIND
1070
     0
1002
}
1002
{
1000
REACTOR
1002
}
1001
GENIUS_GENOBJ-N-FIL_13
1002
{
1000
OWNER
1000
GEN
1002
}
  0
LINE
  5
43
330
2
100
AcDbEntity
  8
AM_0
100
AcDbLine
 10
444.634573
 20
241.076769
 30
0.0
 11
445.5983240000001
 21
241.076769
 31
0.0
  0
ARC
  5
44
330
2
100
AcDbEntity
  8
AM_0
100
AcDbCircle
 10
445.058922
 20
240.576769
 30
0.0
 40
0.5
100
AcDbArc
 50
90.0
 51
169.524318
1001
GENIUS_GENODEF_13
1002
{
1000
HIER
1070
     0
1002
}
1002
{
1000
MANEDIT
1070
     0
1002
}
1002
{
1000
NOSEL
1070
     0
1002
}
1002
{
1000
BEHIND
1070
     0
1002
}
1002
{
1000
REACTOR
1002
}
1001
GENIUS_GENOBJ-N-FIL_13
1002
{
1000
OWNER
1000
GEN
1002
}
  0
ARC
  5
45
330
2
100
AcDbEntity
  8
AM_0
100
AcDbCircle
 10
445.5983240000001
 20
243.576769
 30
0.0
 40
0.5
100
AcDbArc
 50
5.032413
 51
90.0
1001
GENIUS_GENODEF_13
1002
{
1000
HIER
1070
     0
1002
}
1002
{
1000
MANEDIT
1070
     0
1002
}
1002
{
1000
NOSEL
1070
     0
1002
}
1002
{
1000
BEHIND
1070
     0
1002
}
1002
{
1000
REACTOR
1002
}
1001
GENIUS_GENOBJ-N-FIL_13
1002
{
1000
OWNER
1000
GEN
1002
}
  0
LINE
  5
46
330
2
100
AcDbEntity
  8
AM_0
100
AcDbLine
 10
444.634573
 20
244.076769
 30
0.0
 11
445.5983240000001
 21
244.076769
 31
0.0
  0
ARC
  5
47
330
2
100
AcDbEntity
  8
AM_0
100
AcDbCircle
 10
445.058922
 20
244.576769
 30
0.0
 40
0.5
100
AcDbArc
 50
190.475682
 51
270.0
1001
GENIUS_GENODEF_13
1002
{
1000
HIER
1070
     0
1002
}
1002
{
1000
MANEDIT
1070
     0
1002
}
1002
{
1000
NOSEL
1070
     0
1002
}
1002
{
1000
BEHIND
1070
     0
1002
}
1002
{
1000
REACTOR
1002
}
1001
GENIUS_GENOBJ-N-FIL_13
1002
{
1000
OWNER
1000
GEN
1002
}
  0
LINE
  5
48
330
2
100
AcDbEntity
  8
AM_0
100
AcDbLine
 10
437.2524730000001
 20
241.194553
 30
0.0
 11
445.205479
 21
241.194553
 31
0.0
  0
LINE
  5
49
330
2
100
AcDbEntity
  8
AM_0
100
AcDbLine
 10
437.2524730000001
 20
243.694553
 30
0.0
 11
445.2355869999999
 21
243.694553
 31
0.0
  0
ARC
  5
4A
330
2
100
AcDbEntity
  8
AM_0
100
AcDbCircle
 10
443.305011
 20
236.342453
 30
0.0
 40
0.5
100
AcDbArc
 50
145.475682
 51
225.0
1001
GENIUS_GENODEF_13
1002
{
1000
HIER
1070
     0
1002
}
1002
{
1000
MANEDIT
1070
     0
1002
}
1002
{
1000
NOSEL
1070
     0
1002
}
1002
{
1000
BEHIND
1070
     0
1002
}
1002
{
1000
REACTOR
1002
}
1001
GENIUS_GENOBJ-N-FIL_13
1002
{
1000
OWNER
1000
GEN
1002
}
  0
ARC
  5
4B
330
2
100
AcDbEntity
  8
AM_0
100
AcDbCircle
 10
442.979319
 20
235.253932
 30
0.0
 40
0.5
100
AcDbArc
 50
320.032413
 51
45.0
1001
GENIUS_GENODEF_13
1002
{
1000
HIER
1070
     0
1002
}
1002
{
1000
MANEDIT
1070
     0
1002
}
1002
{
1000
NOSEL
1070
     0
1002
}
1002
{
1000
BEHIND
1070
     0
1002
}
1002
{
1000
REACTOR
1002
}
1001
GENIUS_GENOBJ-N-FIL_13
1002
{
1000
OWNER
1000
GEN
1002
}
  0
LINE
  5
4C
330
2
100
AcDbEntity
  8
AM_0
100
AcDbLine
 10
442.651398
 20
236.28896
 30
0.0
 11
443.332873
 21
235.607485
 31
0.0
  0
ARC
  5
4D
330
2
100
AcDbEntity
  8
AM_0
100
AcDbCircle
 10
434.242269
 20
242.576769
 30
0.0
 40
9.9
100
AcDbArc
 50
307.169311
 51
321.677403
  0
ARC
  5
4E
330
2
100
AcDbEntity
  8
AM_0
100
AcDbCircle
 10
434.242269
 20
242.576769
 30
0.0
 40
10.05
100
AcDbArc
 50
307.286904
 51
321.5772970000001
  0
LINE
  5
4F
330
2
100
AcDbEntity
  8
AM_0
100
AcDbLine
 10
442.896765
 20
235.550262
 30
0.0
 11
441.128998
 21
233.782495
 31
0.0
  0
LINE
  5
50
330
2
100
AcDbEntity
  8
AM_0
100
AcDbLine
 10
437.2524730000001
 20
241.194553
 30
0.0
 11
442.827278
 21
235.619749
 31
0.0
  0
ARC
  5
51
330
2
100
AcDbEntity
  8
AM_0
100
AcDbCircle
 10
434.242269
 20
242.576769
 30
0.0
 40
10.5
100
AcDbArc
 50
323.213211
 51
351.786789
  0
LINE
  5
52
330
2
100
AcDbEntity
  8
AM_0
100
AcDbLine
 10
435.4847059999999
 20
239.426787
 30
0.0
 11
435.4847059999999
 21
231.596839
 31
0.0
  0
LINE
  5
53
330
2
100
AcDbEntity
  8
AM_0
100
AcDbLine
 10
432.9847059999999
 20
239.426787
 30
0.0
 11
432.9847059999999
 21
231.598561
 31
0.0
  0
ARC
  5
54
330
2
100
AcDbEntity
  8
AM_0
100
AcDbCircle
 10
434.242269
 20
242.576769
 30
0.0
 40
10.05
100
AcDbArc
 50
262.811705
 51
277.101397
  0
ARC
  5
55
330
2
100
AcDbEntity
  8
AM_0
100
AcDbCircle
 10
434.242269
 20
242.576769
 30
0.0
 40
9.9
100
AcDbArc
 50
262.702203
 51
277.209561
  0
LINE
  5
56
330
2
100
AcDbEntity
  8
AM_0
100
AcDbLine
 10
435.4847059999999
 20
231.444553
 30
0.0
 11
432.9847059999999
 21
231.444553
 31
0.0
  0
ARC
  5
57
330
2
100
AcDbEntity
  8
AM_0
100
AcDbCircle
 10
434.242269
 20
242.576769
 30
0.0
 40
10.05
100
AcDbArc
 50
218.361326
 51
232.651574
  0
ARC
  5
58
330
2
100
AcDbEntity
  8
AM_0
100
AcDbCircle
 10
434.242269
 20
242.576769
 30
0.0
 40
9.9
100
AcDbArc
 50
218.260277
 51
232.768218
  0
LINE
  5
59
330
2
100
AcDbEntity
  8
AM_0
100
AcDbLine
 10
427.3404150000001
 20
233.782495
 30
0.0
 11
425.572648
 21
235.550262
 31
0.0
  0
LINE
  5
5A
330
2
100
AcDbEntity
  8
AM_0
100
AcDbLine
 10
425.151664
 20
235.607485
 30
0.0
 11
425.8331389999999
 21
236.28896
 31
0.0
  0
ARC
  5
5B
330
2
100
AcDbEntity
  8
AM_0
100
AcDbCircle
 10
425.5052179999999
 20
235.253932
 30
0.0
 40
0.5
100
AcDbArc
 50
135.0
 51
219.967587
1001
GENIUS_GENODEF_13
1002
{
1000
HIER
1070
     0
1002
}
1002
{
1000
MANEDIT
1070
     0
1002
}
1002
{
1000
NOSEL
1070
     0
1002
}
1002
{
1000
BEHIND
1070
     0
1002
}
1002
{
1000
REACTOR
1002
}
1001
GENIUS_GENOBJ-N-FIL_13
1002
{
1000
OWNER
1000
GEN
1002
}
  0
ARC
  5
5C
330
2
100
AcDbEntity
  8
AM_0
100
AcDbCircle
 10
425.1795259999999
 20
236.342453
 30
0.0
 40
0.5
100
AcDbArc
 50
315.0
 51
34.524318
1001
GENIUS_GENODEF_13
1002
{
1000
HIER
1070
     0
1002
}
1002
{
1000
MANEDIT
1070
     0
1002
}
1002
{
1000
NOSEL
1070
     0
1002
}
1002
{
1000
BEHIND
1070
     0
1002
}
1002
{
1000
REACTOR
1002
}
1001
GENIUS_GENOBJ-N-FIL_13
1002
{
1000
OWNER
1000
GEN
1002
}
  0
LINE
  5
5D
330
2
100
AcDbEntity
  8
AM_0
100
AcDbLine
 10
432.9847059999999
 20
239.426787
 30
0.0
 11
427.432453
 21
233.874533
 31
0.0
  0
LINE
  5
5E
330
2
100
AcDbEntity
  8
AM_0
100
AcDbLine
 10
431.21694
 20
241.194553
 30
0.0
 11
425.650493
 21
235.628107
 31
0.0
  0
CIRCLE
  5
5F
330
2
100
AcDbEntity
  8
AM_0
100
AcDbCircle
 10
434.242269
 20
242.576769
 30
0.0
 40
3.25
  0
LINE
  5
60
330
2
100
AcDbEntity
  8
AM_0
100
AcDbLine
 10
435.4847059999999
 20
239.426787
 30
0.0
 11
441.043596
 21
233.867897
 31
0.0
  0
ARC
  5
61
330
2
100
AcDbEntity
  8
AM_0
100
AcDbCircle
 10
434.242269
 20
242.576769
 30
0.0
 40
11.9
100
AcDbArc
 50
219.967587
 51
320.032413
  0
ARC
  5
62
330
2
100
AcDbEntity
  8
AM_0
100
AcDbCircle
 10
434.242269
 20
242.576769
 30
0.0
 40
11.9
100
AcDbArc
 50
174.967587
 51
185.032413
  0
LINE
  5
63
330
2
100
AcDbEntity
  8
AM_0
100
AcDbLine
 10
423.2347059999999
 20
241.194553
 30
0.0
 11
423.2347059999999
 21
243.694553
 31
0.0
  0
ARC
  5
64
330
2
100
AcDbEntity
  8
AM_0
100
AcDbCircle
 10
434.242269
 20
242.576769
 30
0.0
 40
10.05
100
AcDbArc
 50
173.614216
 51
187.905167
  0
ARC
  5
65
330
2
100
AcDbEntity
  8
AM_0
100
AcDbCircle
 10
434.242269
 20
242.576769
 30
0.0
 40
9.9
100
AcDbArc
 50
173.51705
 51
188.025725
  0
ARC
  5
66
330
2
100
AcDbEntity
  8
AM_0
100
AcDbCircle
 10
423.425615
 20
240.576769
 30
0.0
 40
0.5
100
AcDbArc
 50
10.475682
 51
90.0
1001
GENIUS_GENODEF_13
1002
{
1000
HIER
1070
     0
1002
}
1002
{
1000
MANEDIT
1070
     0
1002
}
1002
{
1000
NOSEL
1070
     0
1002
}
1002
{
1000
BEHIND
1070
     0
1002
}
1002
{
1000
REACTOR
1002
}
1001
GENIUS_GENOBJ-N-FIL_13
1002
{
1000
OWNER
1000
GEN
1002
}
  0
LINE
  5
67
330
2
100
AcDbEntity
  8
AM_0
100
AcDbLine
 10
422.886213
 20
241.076769
 30
0.0
 11
423.8499639999999
 21
241.076769
 31
0.0
  0
ARC
  5
68
330
2
100
AcDbEntity
  8
AM_0
100
AcDbCircle
 10
422.886213
 20
241.576769
 30
0.0
 40
0.5
100
AcDbArc
 50
185.032413
 51
270.0
1001
GENIUS_GENODEF_13
1002
{
1000
HIER
1070
     0
1002
}
1002
{
1000
MANEDIT
1070
     0
1002
}
1002
{
1000
NOSEL
1070
     0
1002
}
1002
{
1000
BEHIND
1070
     0
1002
}
1002
{
1000
REACTOR
1002
}
1001
GENIUS_GENOBJ-N-FIL_13
1002
{
1000
OWNER
1000
GEN
1002
}
  0
ARC
  5
69
330
2
100
AcDbEntity
  8
AM_0
100
AcDbCircle
 10
423.425615
 20
244.576769
 30
0.0
 40
0.5
100
AcDbArc
 50
270.0
 51
349.524318
1001
GENIUS_GENODEF_13
1002
{
1000
HIER
1070
     0
1002
}
1002
{
1000
MANEDIT
1070
     0
1002
}
1002
{
1000
NOSEL
1070
     0
1002
}
1002
{
1000
BEHIND
1070
     0
1002
}
1002
{
1000
REACTOR
1002
}
1001
GENIUS_GENOBJ-N-FIL_13
1002
{
1000
OWNER
1000
GEN
1002
}
  0
LINE
  5
6A
330
2
100
AcDbEntity
  8
AM_0
100
AcDbLine
 10
422.886213
 20
244.076769
 30
0.0
 11
423.8499639999999
 21
244.076769
 31
0.0
  0
ARC
  5
6B
330
2
100
AcDbEntity
  8
AM_0
100
AcDbCircle
 10
422.886213
 20
243.576769
 30
0.0
 40
0.5
100
AcDbArc
 50
90.0
 51
174.967587
1001
GENIUS_GENODEF_13
1002
{
1000
HIER
1070
     0
1002
}
1002
{
1000
MANEDIT
1070
     0
1002
}
1002
{
1000
NOSEL
1070
     0
1002
}
1002
{
1000
BEHIND
1070
     0
1002
}
1002
{
1000
REACTOR
1002
}
1001
GENIUS_GENOBJ-N-FIL_13
1002
{
1000
OWNER
1000
GEN
1002
}
  0
ARC
  5
6C
330
2
100
AcDbEntity
  8
AM_0
100
AcDbCircle
 10
434.242269
 20
242.576769
 30
0.0
 40
10.5
100
AcDbArc
 50
188.213211
 51
216.786789
  0
LINE
  5
6D
330
2
100
AcDbEntity
  8
AM_0
100
AcDbLine
 10
431.21694
 20
241.194553
 30
0.0
 11
423.279058
 21
241.194553
 31
0.0
  0
LINE
  5
6E
330
2
100
AcDbEntity
  8
AM_0
100
AcDbLine
 10
431.21694
 20
243.694553
 30
0.0
 11
423.2489499999999
 21
243.694553
 31
0.0
  0
CIRCLE
  5
6F
330
2
100
AcDbEntity
  8
AM_0
100
AcDbCircle
 10
434.242269
 20
242.576769
 30
0.0
 40
30.5
  0
CIRCLE
  5
70
330
2
100
AcDbEntity
  8
AM_0
100
AcDbCircle
 10
434.242269
 20
242.576769
 30
0.0
 40
11.05
  0
CIRCLE
  5
71
330
2
100
AcDbEntity
  8
AM_0
100
AcDbCircle
 10
434.242269
 20
242.576769
 30
0.0
 40
11.06378
  0
CIRCLE
  5
72
330
2
100
AcDbEntity
  8
AM_0
100
AcDbCircle
 10
434.242269
 20
242.576769
 30
0.0
 40
11.21836
  0
CIRCLE
  5
73
330
2
100
AcDbEntity
  8
AM_0
100
AcDbCircle
 10
434.242269
 20
242.576769
 30
0.0
 40
13.22
  0
ARC
  5
74
330
2
100
AcDbEntity
  8
AM_4
100
AcDbCircle
 10
434.242269
 20
242.576769
 30
0.0
 40
12.228684
100
AcDbArc
 50
117.600169
 51
108.18241
  0
ARC
  5
76
330
2
100
AcDbEntity
  8
AM_0
100
AcDbCircle
 10
434.242269
 20
242.576769
 30
0.0
 40
10.5
100
AcDbArc
 50
143.213211
 51
171.786789
  0
LINE
  5
77
330
2
100
AcDbEntity
  8
AM_0
100
AcDbLine
 10
435.4847059999999
 20
245.579909
 30
0.0
 11
435.4847059999999
 21
253.556698
 31
0.0
  0
LINE
  5
78
330
2
100
AcDbEntity
  8
AM_0
100
AcDbLine
 10
432.9847059999999
 20
245.573607
 30
0.0
 11
432.9847059999999
 21
253.554976
 31
0.0
  0
LINE
  5
79
330
2
100
AcDbEntity
  8
AM_0
100
AcDbLine
 10
432.907156
 20
245.539871
 30
0.0
 11
427.285249
 21
251.161778
 31
0.0
  0
LINE
  5
7A
330
2
100
AcDbEntity
  8
AM_0
100
AcDbLine
 10
431.21694
 20
243.694553
 30
0.0
 11
425.5333969999999
 21
249.378096
 31
0.0
  0
LINE
  5
7B
330
2
100
AcDbEntity
  8
AM_0
100
AcDbLine
 10
435.56694
 20
245.544554
 30
0.0
 11
441.1909299999999
 21
251.168544
 31
0.0
  0
LINE
  5
7C
330
2
100
AcDbEntity
  8
AM_0
100
AcDbLine
 10
437.2524730000001
 20
243.694553
 30
0.0
 11
442.944504
 21
249.386585
 31
0.0
  0
ARC
  5
7D
330
2
100
AcDbEntity
  8
AM_0
100
AcDbCircle
 10
434.242269
 20
242.576769
 30
0.0
 40
10.5
100
AcDbArc
 50
8.213210999999999
 51
36.786789
  0
CIRCLE
  5
7E
330
2
100
AcDbEntity
  8
AM_0
100
AcDbCircle
 10
434.242269
 20
242.576769
 30
0.0
 40
43.75
  0
CIRCLE
  5
7F
330
2
100
AcDbEntity
  8
AM_4
100
AcDbCircle
 10
434.242269
 20
242.576769
 30
0.0
 40
37.267949
  0
CIRCLE
  5
80
330
2
100
AcDbEntity
  8
AM_4
100
AcDbCircle
 10
434.242269
 20
242.576769
 30
0.0
 40
39.732051
  0
HATCH
  5
173
330
2
100
AcDbEntity
  8
AM_8
100
AcDbHatch
 10
0.0
 20
0.0
 30
0.0
210
0.0
220
0.0
230
1.0
  2
_U
 70
     0
 71
     0
 91
        1
 92
        1
 93
       10
 72
     1
 10
224.681909
 20
126.182704
 11
218.729618
 21
125.133155
 72
     2
 10
218.816442
 20
124.640751
 40
0.5
 50
100.0
 51
150.0
 73
     1
 72
     1
 10
218.383429
 20
124.890751
 11
215.906841
 21
120.601174
 72
     2
 10
216.339854
 20
120.351174
 40
0.5
 50
150.0
 51
260.0
 73
     1
 72
     1
 10
216.253029
 20
119.858771
 11
218.851037
 21
119.400672
 72
     2
 10
218.851037
 20
119.900672
 40
0.5
 50
270.0
 51
330.0
 73
     1
 72
     1
 10
219.28405
 20
119.650672
 11
221.304776
 21
123.150672
 72
     2
 10
221.737788
 20
122.900672
 40
0.5
 50
210.0
 51
270.0
 73
     0
 72
     1
 10
221.737788
 20
123.400672
 11
224.681909
 21
123.400672
 72
     1
 10
224.681909
 20
123.400672
 11
224.681909
 21
126.182704
 97
        0
 75
     0
 76
     0
 52
45.0
 41
2.299999999999999
 77
     1
 78
     2
 53
45.0
 43
-1732.796782
 44
1143.844566
 45
-1.626345596729059
 46
1.626345596729059
 79
     0
 53
135.0
 43
-1732.796782
 44
1143.844566
 45
-1.626345596729059
 46
-1.626345596729058
 79
     0
 98
        1
 10
3671.184612
 20
-1616.398176
1001
GENIUS_GENOBJ-N-HTC_13
1002
{
1000
OWNER
1000
GEN
1002
}
1001
GENIUS_GENODEF_13
1002
{
1000
HIER
1070
     0
1002
}
1002
{
1000
MANEDIT
1070
     0
1002
}
1002
{
1000
NOSEL
1070
     0
1002
}
1002
{
1000
BEHIND
1070
     0
1002
}
1002
{
1000
OTHER
1070
     0
1002
}
1002
{
1000
REACTOR
1002
}
1001
GENIUS_GENHATCH_13
1002
{
1000
DATA
1040
45.0
1042
2.299999999999999
1000
_U
1070
     1
1011
222.268573
1021
124.171776
1031
0.0
1002
}
1002
{
1000
UCS
1010
0.0
1020
0.0
1030
0.0
1010
1.0
1020
0.0
1030
0.0
1010
0.0
1020
1.0
1030
0.0
1002
}
  0
HATCH
  5
174
330
2
100
AcDbEntity
  8
AM_8
100
AcDbHatch
 10
0.0
 20
0.0
 30
0.0
210
0.0
220
0.0
230
1.0
  2
_U
 70
     0
 71
     0
 91
        1
 92
        1
 93
        4
 72
     1
 10
227.681909
 20
126.711685
 11
227.681909
 21
123.400672
 72
     1
 10
227.681909
 20
123.400672
 11
228.681909
 21
123.400672
 72
     1
 10
228.681909
 20
123.400672
 11
228.681909
 21
126.888012
 72
     1
 10
228.681909
 20
126.888012
 11
227.681909
 21
126.711685
 97
        0
 75
     0
 76
     0
 52
45.0
 41
2.299999999999999
 77
     1
 78
     2
 53
45.0
 43
-1732.796782
 44
1143.844566
 45
-1.626345596729059
 46
1.626345596729059
 79
     0
 53
135.0
 43
-1732.796782
 44
1143.844566
 45
-1.626345596729059
 46
-1.626345596729058
 79
     0
 98
        1
 10
3671.184612
 20
-1616.398176
1001
GENIUS_GENOBJ-N-HTC_13
1002
{
1000
OWNER
1000
GEN
1002
}
1001
GENIUS_GENODEF_13
1002
{
1000
HIER
1070
     0
1002
}
1002
{
1000
MANEDIT
1070
     0
1002
}
1002
{
1000
NOSEL
1070
     0
1002
}
1002
{
1000
BEHIND
1070
     0
1002
}
1002
{
1000
OTHER
1070
     0
1002
}
1002
{
1000
REACTOR
1002
}
1001
GENIUS_GENHATCH_13
1002
{
1000
DATA
1040
45.0
1042
2.299999999999999
1000
_U
1070
     1
1011
228.626932
1021
124.742069
1031
0.0
1002
}
1002
{
1000
UCS
1010
0.0
1020
0.0
1030
0.0
1010
1.0
1020
0.0
1030
0.0
1010
0.0
1020
1.0
1030
0.0
1002
}
  0
HATCH
  5
175
330
2
100
AcDbEntity
  8
AM_8
100
AcDbHatch
 10
0.0
 20
0.0
 30
0.0
210
0.0
220
0.0
230
1.0
  2
_U
 70
     0
 71
     0
 91
        1
 92
        1
 93
        4
 72
     1
 10
231.681909
 20
127.416993
 11
231.681909
 21
123.400672
 72
     1
 10
231.681909
 20
123.400672
 11
232.681909
 21
123.400672
 72
     1
 10
232.681909
 20
123.400672
 11
232.681909
 21
127.59332
 72
     1
 10
232.681909
 20
127.59332
 11
231.681909
 21
127.416993
 97
        0
 75
     0
 76
     0
 52
45.0
 41
2.299999999999999
 77
     1
 78
     2
 53
45.0
 43
-1732.796782
 44
1143.844566
 45
-1.626345596729059
 46
1.626345596729059
 79
     0
 53
135.0
 43
-1732.796782
 44
1143.844566
 45
-1.626345596729059
 46
-1.626345596729058
 79
     0
 98
        1
 10
3671.184612
 20
-1616.398176
1001
GENIUS_GENODEF_13
1002
{
1000
HIER
1070
     0
1002
}
1002
{
1000
MANEDIT
1070
     0
1002
}
1002
{
1000
NOSEL
1070
     0
1002
}
1002
{
1000
BEHIND
1070
     0
1002
}
1002
{
1000
OTHER
1070
     0
1002
}
1002
{
1000
REACTOR
1002
}
1001
GENIUS_GENOBJ-N-HTC_13
1002
{
1000
OWNER
1000
GEN
1002
}
1001
GENIUS_GENHATCH_13
1002
{
1000
DATA
1040
45.0
1042
2.299999999999999
1000
_U
1070
     1
1011
232.376744
1021
125.475314
1031
0.0
1002
}
1002
{
1000
UCS
1010
0.0
1020
0.0
1030
0.0
1010
1.0
1020
0.0
1030
0.0
1010
0.0
1020
1.0
1030
0.0
1002
}
  0
HATCH
  5
176
330
2
100
AcDbEntity
  8
AM_8
100
AcDbHatch
 10
0.0
 20
0.0
 30
0.0
210
0.0
220
0.0
230
1.0
  2
_U
 70
     0
 71
     0
 91
        1
 92
        1
 93
        4
 72
     1
 10
236.681909
 20
123.400672
 11
236.681909
 21
128.298628
 72
     1
 10
236.681909
 20
128.298628
 11
235.681909
 21
128.122301
 72
     1
 10
235.681909
 20
128.122301
 11
235.681909
 21
123.400672
 72
     1
 10
235.681909
 20
123.400672
 11
236.681909
 21
123.400672
 97
        0
 75
     0
 76
     0
 52
45.0
 41
2.299999999999999
 77
     1
 78
     2
 53
45.0
 43
-1732.796782
 44
1143.844566
 45
-1.626345596729059
 46
1.626345596729059
 79
     0
 53
135.0
 43
-1732.796782
 44
1143.844566
 45
-1.626345596729059
 46
-1.626345596729058
 79
     0
 98
        1
 10
3671.184612
 20
-1616.398176
1001
GENIUS_GENODEF_13
1002
{
1000
HIER
1070
     0
1002
}
1002
{
1000
MANEDIT
1070
     0
1002
}
1002
{
1000
NOSEL
1070
     0
1002
}
1002
{
1000
BEHIND
1070
     0
1002
}
1002
{
1000
OTHER
1070
     0
1002
}
1002
{
1000
REACTOR
1002
}
1001
GENIUS_GENOBJ-N-HTC_13
1002
{
1000
OWNER
1000
GEN
1002
}
1001
GENIUS_GENHATCH_13
1002
{
1000
DATA
1040
45.0
1042
2.299999999999999
1000
_U
1070
     1
1011
236.045037
1021
125.149429
1031
0.0
1002
}
1002
{
1000
UCS
1010
0.0
1020
0.0
1030
0.0
1010
1.0
1020
0.0
1030
0.0
1010
0.0
1020
1.0
1030
0.0
1002
}
  0
HATCH
  5
177
330
2
100
AcDbEntity
  8
AM_8
100
AcDbHatch
 10
0.0
 20
0.0
 30
0.0
210
0.0
220
0.0
230
1.0
  2
_U
 70
     0
 71
     0
 91
        1
 92
        1
 93
       17
 72
     2
 10
251.859552
 20
65.400672
 40
2.0
 50
270.0
 51
360.0
 73
     1
 72
     1
 10
253.859552
 20
65.400672
 11
253.859552
 21
74.400672
 72
     1
 10
253.859552
 20
74.400672
 11
254.158261
 21
78.400672
 72
     1
 10
254.158261
 20
78.400672
 11
254.158261
 21
117.800672
 72
     1
 10
254.158261
 20
117.800672
 11
253.158261
 21
117.800672
 72
     1
 10
253.158261
 20
117.800672
 11
253.158261
 21
120.900672
 72
     1
 10
253.158261
 20
120.900672
 11
266.713367
 21
120.900672
 72
     1
 10
266.713367
 20
120.900672
 11
267.435054
 21
119.650672
 72
     2
 10
267.868067
 20
119.900672
 40
0.5
 50
210.0
 51
228.863169
 73
     1
 72
     1
 10
267.539137
 20
119.524101
 11
269.43714
 21
119.858771
 72
     2
 10
269.350316
 20
120.351174
 40
0.5
 50
280.0
 51
390.0
 73
     1
 72
     1
 10
269.783329
 20
120.601174
 11
267.306741
 21
124.890751
 72
     2
 10
266.873728
 20
124.640751
 40
0.5
 50
30.0
 51
80.0
 73
     1
 72
     1
 10
266.960552
 20
125.133155
 11
242.845085
 21
129.385362
 72
     1
 10
242.845085
 20
129.385362
 11
239.681909
 21
128.827609
 72
     1
 10
239.681909
 20
128.827609
 11
239.681909
 21
63.400672
 72
     1
 10
239.681909
 20
63.400672
 11
251.859552
 21
63.400672
 97
        0
 75
     0
 76
     0
 52
45.0
 41
2.299999999999999
 77
     1
 78
     2
 53
45.0
 43
-1732.796782
 44
1143.844566
 45
-1.626345596729059
 46
1.626345596729059
 79
     0
 53
135.0
 43
-1732.796782
 44
1143.844566
 45
-1.626345596729059
 46
-1.626345596729058
 79
     0
 98
        1
 10
3671.184612
 20
-1616.398176
1001
GENIUS_GENOBJ-N-HTC_13
1002
{
1000
OWNER
1000
GEN
1002
}
1001
GENIUS_GENODEF_13
1002
{
1000
HIER
1070
     0
1002
}
1002
{
1000
MANEDIT
1070
     0
1002
}
1002
{
1000
NOSEL
1070
     0
1002
}
1002
{
1000
BEHIND
1070
     0
1002
}
1002
{
1000
OTHER
1070
     0
1002
}
1002
{
1000
REACTOR
1002
}
1001
GENIUS_GENHATCH_13
1002
{
1000
DATA
1040
45.0
1042
2.299999999999999
1000
_U
1070
     1
1011
244.441334
1021
112.27698
1031
0.0
1002
}
1002
{
1000
UCS
1010
0.0
1020
0.0
1030
0.0
1010
1.0
1020
0.0
1030
0.0
1010
0.0
1020
1.0
1030
0.0
1002
}
  0
DIMENSION
  5
1B0
330
2
100
AcDbEntity
  8
AM_5
100
AcDbDimension
  2
*D3
 10
346.359552
 20
285.115688
 30
0.0
 11
188.25553
 21
285.115688
 31
0.0
 70
   160
  1
%%c<>
 71
     5
 42
-1.0
  3
AM_DIN
100
AcDbAlignedDimension
 13
140.359552
 23
285.115688
 33
0.0
 14
346.359552
 24
285.115688
 34
0.0
100
AcDbRotatedDimension
1001
GENIUS_GENDTOL_13
1000

1000
h7
1000

1040
0.0
1000
%%c<>
  0
DIMENSION
  5
1BF
330
2
100
AcDbEntity
  8
AM_5
100
AcDbDimension
  2
*D4
 10
125.476421
 20
104.050879
 30
0.0
 11
123.276126
 21
238.099331
 31
0.0
 70
    32
  1
<> {}{\C2;%%p3}
 71
     5
 42
-1.0
  3
AM_DIN
100
AcDbAlignedDimension
 13
240.117579
 23
372.147783
 33
0.0
 14
200.824298
 24
104.050879
 34
0.0
 50
90.0
100
AcDbRotatedDimension
1001
ACAD
1000
DSTYLE
1002
{
1070
    47
1040
3.0
1070
    48
1040
3.0
1070
   271
1070
     0
1002
}
1001
GENIUS_GENDTOL_13
1000
TolPm
1000
h7
1000
{$3%%p$P}
1040
268.0
  0
DIMENSION
  5
1CC
330
2
100
AcDbEntity
  8
AM_5
100
AcDbDimension
  2
*D1
 10
112.361715
 20
398.904366
 30
0.0
 11
110.16142
 21
238.652519
 31
0.0
 70
    32
  1
<> {}{\C2;%%p5}
 71
     5
 42
-1.0
  3
AM_DIN
100
AcDbAlignedDimension
 13
231.674138
 23
78.400672
 33
0.0
 14
239.988713
 24
398.904366
 34
0.0
 50
90.0
100
AcDbRotatedDimension
1001
ACAD
1000
DSTYLE
1002
{
1070
    47
1040
5.0
1070
    48
1040
5.0
1070
   271
1070
     0
1002
}
1001
GENIUS_GENDTOL_13
1000
TolPm
1000

1000
{$3%%p$P}
1040
321.0
  0
POINT
  5
5E6
330
2
100
AcDbEntity
  8
DEFPOINTS
  6
ByBlock
 62
     0
100
AcDbPoint
 10
264.440364
 20
373.6516509999999
 30
0.0
  0
ARC
  5
5E7
330
2
100
AcDbEntity
  8
AM_0
100
AcDbCircle
 10
263.156845
 20
373.173142
 30
0.0
 40
1.0
100
AcDbArc
 50
270.0
 51
30.0
  0
ARC
  5
5E8
330
2
100
AcDbEntity
  8
AM_0
100
AcDbCircle
 10
252.930033
 20
384.8865
 30
0.0
 40
1.0
100
AcDbArc
 50
30.0
 51
180.0
  0
LINE
  5
5E9
330
2
100
AcDbEntity
  8
AM_0
100
AcDbLine
 10
248.654909
 20
395.887628
 30
0.0
 11
248.654909
 21
398.449224
 31
0.0
  0
LINE
  5
5EA
330
2
100
AcDbEntity
  8
AM_0
100
AcDbLine
 10
239.988713
 20
398.904366
 30
0.0
 11
246.730391
 21
398.904366
 31
0.0
  0
LINE
  5
5EB
330
2
100
AcDbEntity
  8
AM_0
100
AcDbLine
 10
249.654909
 20
385.48522
 30
0.0
 11
247.395162
 21
385.48522
 31
0.0
  0
LINE
  5
5EC
330
2
100
AcDbEntity
  8
AM_0
100
AcDbLine
 10
244.489335
 20
390.361204
 30
0.0
 11
244.489335
 21
384.361204
 31
0.0
  0
LINE
  5
5ED
330
2
100
AcDbEntity
  8
AM_0
100
AcDbLine
 10
245.401146
 20
390.361204
 30
0.0
 11
245.401146
 21
384.361204
 31
0.0
  0
LINE
  5
5EE
330
2
100
AcDbEntity
  8
AM_0
100
AcDbLine
 10
246.312956
 20
390.361204
 30
0.0
 11
246.312956
 21
384.361204
 31
0.0
  0
LINE
  5
5EF
330
2
100
AcDbEntity
  8
AM_0
100
AcDbLine
 10
239.395162
 20
390.361204
 30
0.0
 11
247.395162
 21
390.361204
 31
0.0
  0
LINE
  5
5F0
330
2
100
AcDbEntity
  8
AM_0
100
AcDbLine
 10
239.395162
 20
384.115835
 30
0.0
 11
247.395162
 21
384.115835
 31
0.0
  0
LINE
  5
5F1
330
2
100
AcDbEntity
  8
AM_0
100
AcDbLine
 10
240.477369
 20
390.361204
 30
0.0
 11
240.477369
 21
384.361204
 31
0.0
  0
LINE
  5
5F2
330
2
100
AcDbEntity
  8
AM_0
100
AcDbLine
 10
242.30099
 20
390.361204
 30
0.0
 11
242.30099
 21
384.361204
 31
0.0
  0
LINE
  5
5F3
330
2
100
AcDbEntity
  8
AM_0
100
AcDbLine
 10
241.389179
 20
390.361204
 30
0.0
 11
241.389179
 21
384.361204
 31
0.0
  0
LINE
  5
5F4
330
2
100
AcDbEntity
  8
AM_0
100
AcDbLine
 10
243.395162
 20
390.361204
 30
0.0
 11
243.395162
 21
384.361204
 31
0.0
  0
LINE
  5
5F5
330
2
100
AcDbEntity
  8
AM_0
100
AcDbLine
 10
241.806168
 20
395.887628
 30
0.0
 11
241.806168
 21
390.361204
 31
0.0
  0
LINE
  5
5F6
330
2
100
AcDbEntity
  8
AM_0
100
AcDbLine
 10
244.912936
 20
395.887628
 30
0.0
 11
244.912936
 21
390.361204
 31
0.0
  0
ARC
  5
5F7
330
2
100
AcDbEntity
  8
AM_0
100
AcDbCircle
 10
248.654909
 20
394.887628
 30
0.0
 40
1.0
100
AcDbArc
 50
0.0
 51
90.0
  0
ARC
  5
5F8
330
2
100
AcDbEntity
  8
AM_0
100
AcDbCircle
 10
246.570618
 20
393.904366
 30
0.0
 40
5.0
100
AcDbArc
 50
28.588084
 51
90.0
  0
ARC
  5
5F9
330
2
100
AcDbEntity
  8
AM_0
100
AcDbCircle
 10
250.930033
 20
378.525497
 30
0.0
 40
1.0
100
AcDbArc
 50
210.0
 51
0.0
  0
POINT
  5
5FA
330
2
100
AcDbEntity
  8
DEFPOINTS
  6
ByBlock
 62
     0
100
AcDbPoint
 10
260.323982
 20
371.583059
 30
0.0
  0
LINE
  5
5FB
330
2
100
AcDbEntity
  8
AM_0
100
AcDbLine
 10
250.395162
 20
374.361204
 30
0.0
 11
250.395162
 21
372.085128
 31
0.0
  0
LINE
  5
5FC
330
2
100
AcDbEntity
  8
AM_0
100
AcDbLine
 10
247.842873
 20
381.872617
 30
0.0
 11
249.654909
 21
381.872617
 31
0.0
  0
LINE
  5
5FD
330
2
100
AcDbEntity
  8
AM_0
100
AcDbLine
 10
246.672746
 20
372.153626
 30
0.0
 11
246.672746
 21
368.357392
 31
0.0
  0
LINE
  5
5FE
330
2
100
AcDbEntity
  8
AM_0
100
AcDbLine
 10
240.117579
 20
368.357392
 30
0.0
 11
246.672746
 21
368.357392
 31
0.0
  0
LINE
  5
5FF
330
2
100
AcDbEntity
  8
AM_0
100
AcDbLine
 10
240.117579
 20
372.154456
 30
0.0
 11
240.117579
 21
368.357392
 31
0.0
  0
LINE
  5
600
330
2
100
AcDbEntity
  8
AM_0
100
AcDbLine
 10
247.842873
 20
381.872617
 30
0.0
 11
250.064008
 21
378.025497
 31
0.0
  0
LINE
  5
601
330
2
100
AcDbEntity
  8
AM_0
100
AcDbLine
 10
251.930033
 20
384.8865
 30
0.0
 11
251.930033
 21
378.525497
 31
0.0
  0
LINE
  5
602
330
2
100
AcDbEntity
  8
AM_0
100
AcDbLine
 10
247.395162
 20
390.361204
 30
0.0
 11
247.395162
 21
374.361204
 31
0.0
  0
LINE
  5
603
330
2
100
AcDbEntity
  8
AM_0
100
AcDbLine
 10
239.395162
 20
390.361204
 30
0.0
 11
239.395162
 21
374.361204
 31
0.0
  0
LINE
  5
604
330
2
100
AcDbEntity
  8
AM_0
100
AcDbLine
 10
249.654909
 20
381.872617
 30
0.0
 11
249.654909
 21
397.839737
 31
0.0
  0
LINE
  5
605
330
2
100
AcDbEntity
  8
AM_0
100
AcDbLine
 10
253.796059
 20
385.3865
 30
0.0
 11
261.136119
 21
372.673142
 31
0.0
  0
ARC
  5
606
330
2
100
AcDbEntity
  8
AM_0
100
AcDbCircle
 10
262.002145
 20
373.173142
 30
0.0
 40
1.0
100
AcDbArc
 50
210.0
 51
270.0
  0
LINE
  5
607
330
2
100
AcDbEntity
  8
AM_0
100
AcDbLine
 10
250.96103
 20
396.296913
 30
0.0
 11
264.022871
 21
373.673142
 31
0.0
  0
LINE
  5
608
330
2
100
AcDbEntity
  8
AM_0
100
AcDbLine
 10
250.395162
 20
372.173142
 30
0.0
 11
263.156845
 21
372.173142
 31
0.0
  0
HATCH
  5
609
330
2
100
AcDbEntity
  8
AM_8
100
AcDbHatch
 10
0.0
 20
0.0
 30
0.0
210
0.0
220
0.0
230
1.0
  2
_U
 70
     0
 71
     0
 91
        1
 92
        1
 93
       12
 72
     1
 10
247.842873
 20
381.872617
 11
250.064008
 21
378.025497
 72
     2
 10
250.930033
 20
378.525497
 40
1.0
 50
210.0
 51
360.0
 73
     1
 72
     1
 10
251.930033
 20
378.525497
 11
251.930033
 21
384.8865
 72
     2
 10
252.930033
 20
384.8865
 40
1.0
 50
180.0
 51
330.0
 73
     0
 72
     1
 10
253.796059
 20
385.3865
 11
261.136119
 21
372.673142
 72
     2
 10
262.002145
 20
373.173142
 40
1.0
 50
210.0
 51
270.0
 73
     1
 72
     1
 10
262.002145
 20
372.173142
 11
263.156845
 21
372.173142
 72
     2
 10
263.156845
 20
373.173142
 40
1.0
 50
270.0
 51
390.0
 73
     1
 72
     1
 10
264.022871
 20
373.673142
 11
250.96103
 21
396.296913
 72
     2
 10
246.570618
 20
393.904366
 40
5.0
 50
28.588084
 51
51.912926
 73
     1
 72
     1
 10
249.654909
 20
397.839737
 11
249.654909
 21
381.872617
 72
     1
 10
249.654909
 20
381.872617
 11
247.842873
 21
381.872617
 97
        0
 75
     0
 76
     0
 52
45.0
 41
2.5
 77
     0
 78
     1
 53
45.0
 43
80.37964200000001
 44
26.195812
 45
-1.767766952966368
 46
1.767766952966368
 79
     0
 98
        1
 10
80.37964200000001
 20
26.195812
1001
GENIUS_GENOBJ-N-HTC_13
1002
{
1000
OWNER
1000
GEN
1002
}
1001
GENIUS_GENODEF_13
1002
{
1000
HIER
1070
     0
1002
}
1002
{
1000
MANEDIT
1070
     0
1002
}
1002
{
1000
NOSEL
1070
     0
1002
}
1002
{
1000
BEHIND
1070
     0
1002
}
1002
{
1000
OTHER
1070
     0
1002
}
1002
{
1000
REACTOR
1002
}
1001
GENIUS_GENHATCH_13
1002
{
1000
DATA
1040
45.0
1042
2.5
1000
_U
1070
     0
1011
251.331121
1021
391.611034
1031
0.0
1002
}
1002
{
1000
UCS
1010
0.0
1020
0.0
1030
0.0
1010
1.0
1020
0.0
1030
0.0
1010
0.0
1020
1.0
1030
0.0
1002
}
  0
LINE
  5
60A
330
2
100
AcDbEntity
  8
AM_0
100
AcDbLine
 10
238.064195
 20
395.887628
 30
0.0
 11
238.064195
 21
398.449224
 31
0.0
  0
ARC
  5
60B
330
2
100
AcDbEntity
  8
AM_0
100
AcDbCircle
 10
238.064195
 20
394.887628
 30
0.0
 40
1.0
100
AcDbArc
 50
90.0
 51
180.0
  0
ARC
  5
60C
330
2
100
AcDbEntity
  8
AM_0
100
AcDbCircle
 10
233.789071
 20
384.8865
 30
0.0
 40
1.0
100
AcDbArc
 50
0.0
 51
150.0
  0
ARC
  5
60D
330
2
100
AcDbEntity
  8
AM_0
100
AcDbCircle
 10
235.789071
 20
378.525497
 30
0.0
 40
1.0
100
AcDbArc
 50
180.0
 51
330.0
  0
LINE
  5
60E
330
2
100
AcDbEntity
  8
AM_0
100
AcDbLine
 10
234.789071
 20
378.525497
 30
0.0
 11
234.789071
 21
384.8865
 31
0.0
  0
LINE
  5
60F
330
2
100
AcDbEntity
  8
AM_0
100
AcDbLine
 10
236.395162
 20
374.361204
 30
0.0
 11
236.395162
 21
372.0869009999999
 31
0.0
  0
ARC
  5
610
330
2
100
AcDbEntity
  8
AM_0
100
AcDbCircle
 10
224.716959
 20
373.173142
 30
0.0
 40
1.0
100
AcDbArc
 50
270.0
 51
330.0
  0
ARC
  5
611
330
2
100
AcDbEntity
  8
AM_0
100
AcDbCircle
 10
223.562259
 20
373.173142
 30
0.0
 40
1.0
100
AcDbArc
 50
150.0
 51
270.0
  0
LINE
  5
612
330
2
100
AcDbEntity
  8
AM_0
100
AcDbLine
 10
223.562259
 20
372.173142
 30
0.0
 11
236.395162
 21
372.173142
 31
0.0
  0
LINE
  5
613
330
2
100
AcDbEntity
  8
AM_0
100
AcDbLine
 10
232.923045
 20
385.3865
 30
0.0
 11
225.536703
 21
372.592979
 31
0.0
  0
LINE
  5
614
330
2
100
AcDbEntity
  8
AM_0
100
AcDbLine
 10
237.064195
 20
381.872617
 30
0.0
 11
237.064195
 21
397.839737
 31
0.0
  0
LINE
  5
615
330
2
100
AcDbEntity
  8
AM_0
100
AcDbLine
 10
235.758074
 20
396.296913
 30
0.0
 11
222.696233
 21
373.673142
 31
0.0
  0
HATCH
  5
616
330
2
100
AcDbEntity
  8
AM_8
100
AcDbHatch
 10
0.0
 20
0.0
 30
0.0
210
0.0
220
0.0
230
1.0
  2
_U
 70
     0
 71
     0
 91
        1
 92
        1
 93
       14
 72
     1
 10
235.758074
 20
396.296913
 11
222.696233
 21
373.673142
 72
     2
 10
223.562259
 20
373.173142
 40
1.0
 50
150.0
 51
270.0
 73
     1
 72
     1
 10
223.562259
 20
372.173142
 11
224.716959
 21
372.173142
 72
     2
 10
224.716959
 20
373.173142
 40
1.0
 50
270.0
 51
330.0
 73
     1
 72
     1
 10
225.582985
 20
372.673142
 11
232.923045
 21
385.3865
 72
     2
 10
233.789071
 20
384.8865
 40
1.0
 50
210.0
 51
360.0
 73
     0
 72
     1
 10
234.789071
 20
384.8865
 11
234.789071
 21
384.48522
 72
     1
 10
234.789071
 20
384.48522
 11
234.789071
 21
384.324423
 72
     1
 10
234.789071
 20
384.324423
 11
234.789071
 21
378.525497
 72
     2
 10
235.789071
 20
378.525497
 40
1.0
 50
180.0
 51
330.0
 73
     1
 72
     1
 10
236.655096
 20
378.025497
 11
238.876232
 21
381.872617
 72
     1
 10
238.876232
 20
381.872617
 11
237.064195
 21
381.872617
 72
     1
 10
237.064195
 20
381.872617
 11
237.064195
 21
397.839737
 72
     2
 10
240.148486
 20
393.904366
 40
5.0
 50
128.087074
 51
151.411916
 73
     1
 97
        0
 75
     0
 76
     0
 52
45.0
 41
2.5
 77
     0
 78
     1
 53
45.0
 43
80.37964200000001
 44
26.195812
 45
-1.767766952966368
 46
1.767766952966368
 79
     0
 98
        1
 10
80.37964200000001
 20
26.195812
1001
GENIUS_GENOBJ-N-HTC_13
1002
{
1000
OWNER
1000
GEN
1002
}
1001
GENIUS_GENODEF_13
1002
{
1000
HIER
1070
     0
1002
}
1002
{
1000
MANEDIT
1070
     0
1002
}
1002
{
1000
NOSEL
1070
     0
1002
}
1002
{
1000
BEHIND
1070
     0
1002
}
1002
{
1000
OTHER
1070
     0
1002
}
1002
{
1000
REACTOR
1002
}
1001
GENIUS_GENHATCH_13
1002
{
1000
DATA
1040
45.0
1042
2.5
1000
_U
1070
     0
1011
234.916423
1021
389.69858
1031
0.0
1002
}
1002
{
1000
UCS
1010
0.0
1020
0.0
1030
0.0
1010
1.0
1020
0.0
1030
0.0
1010
0.0
1020
1.0
1030
0.0
1002
}
  0
LINE
  5
617
330
2
100
AcDbEntity
  8
AM_0
100
AcDbLine
 10
238.064195
 20
395.887628
 30
0.0
 11
248.654909
 21
395.887628
 31
0.0
  0
ARC
  5
618
330
2
100
AcDbEntity
  8
AM_0
100
AcDbCircle
 10
240.148486
 20
393.904366
 30
0.0
 40
5.0
100
AcDbArc
 50
90.0
 51
151.411916
  0
LINE
  5
619
330
2
100
AcDbEntity
  8
AM_0
100
AcDbLine
 10
236.395162
 20
374.361204
 30
0.0
 11
250.395162
 21
374.361204
 31
0.0
  0
LINE
  5
61A
330
2
100
AcDbEntity
  8
AM_0
100
AcDbLine
 10
237.064195
 20
381.872617
 30
0.0
 11
238.876232
 21
381.872617
 31
0.0
  0
LINE
  5
61B
330
2
100
AcDbEntity
  8
AM_0
100
AcDbLine
 10
238.876232
 20
381.872617
 30
0.0
 11
236.655096
 21
378.025497
 31
0.0
  0
LINE
  5
61C
330
2
100
AcDbEntity
  8
AM_0
100
AcDbLine
 10
237.064195
 20
385.48522
 30
0.0
 11
239.491139
 21
385.48522
 31
0.0
  0
HATCH
  5
61D
330
2
100
AcDbEntity
  8
AM_8
100
AcDbHatch
 10
0.0
 20
0.0
 30
0.0
210
0.0
220
0.0
230
1.0
  2
_U
 70
     0
 71
     0
 91
        1
 92
        1
 93
       12
 72
     1
 10
238.064195
 20
398.449224
 11
238.064195
 21
395.887628
 72
     1
 10
238.064195
 20
395.887628
 11
242.340794
 21
395.887628
 72
     1
 10
242.340794
 20
395.887628
 11
243.302455
 21
395.887628
 72
     1
 10
243.302455
 20
395.887628
 11
243.393248
 21
395.887628
 72
     1
 10
243.393248
 20
395.887628
 11
243.41665
 21
395.887628
 72
     1
 10
243.41665
 20
395.887628
 11
244.354909
 21
395.887628
 72
     1
 10
244.354909
 20
395.887628
 11
248.621299
 21
395.887628
 72
     1
 10
248.621299
 20
395.887628
 11
248.654909
 21
395.887628
 72
     1
 10
248.654909
 20
395.887628
 11
248.654909
 21
398.449224
 72
     2
 10
246.570618
 20
393.904366
 40
5.0
 50
65.363602
 51
90.0
 73
     1
 72
     1
 10
246.570618
 20
398.904366
 11
240.148486
 21
398.904366
 72
     2
 10
240.148486
 20
393.904366
 40
5.0
 50
90.0
 51
114.636398
 73
     1
 97
        0
 75
     0
 76
     0
 52
45.0
 41
2.5
 77
     0
 78
     1
 53
45.0
 43
80.37964200000001
 44
26.195812
 45
-1.767766952966368
 46
1.767766952966368
 79
     0
 98
        1
 10
80.37964200000001
 20
26.195812
1001
GENIUS_GENODEF_13
1002
{
1000
HIER
1070
     0
1002
}
1002
{
1000
MANEDIT
1070
     0
1002
}
1002
{
1000
NOSEL
1070
     0
1002
}
1002
{
1000
BEHIND
1070
     0
1002
}
1002
{
1000
OTHER
1070
     0
1002
}
1002
{
1000
REACTOR
1002
}
1001
GENIUS_GENOBJ-N-HTC_13
1002
{
1000
OWNER
1000
GEN
1002
}
1001
GENIUS_GENHATCH_13
1002
{
1000
DATA
1040
45.0
1042
2.5
1000
_U
1070
     0
1011
241.864975
1021
397.650364
1031
0.0
1002
}
1002
{
1000
UCS
1010
0.0
1020
0.0
1030
0.0
1010
1.0
1020
0.0
1030
0.0
1010
0.0
1020
1.0
1030
0.0
1002
}
  0
ARC
  5
61E
330
2
100
AcDbEntity
  8
AM_0
100
AcDbCircle
 10
324.509552
 20
331.619985
 30
0.0
 40
20.6
100
AcDbArc
 50
0.0
 51
64.04263199999999
1001
GENIUS_GENODEF_13
1002
{
1000
HIER
1070
     0
1002
}
1002
{
1000
MANEDIT
1070
     0
1002
}
1002
{
1000
NOSEL
1070
     0
1002
}
1002
{
1000
BEHIND
1070
     0
1002
}
1002
{
1000
REACTOR
1002
}
1001
GENIUS_GENOBJ-N-FIL_13
1002
{
1000
OWNER
1000
GEN
1002
}
  0
ARC
  5
61F
330
2
100
AcDbEntity
  8
AM_0
100
AcDbCircle
 10
324.509552
 20
331.619985
 30
0.0
 40
21.85
100
AcDbArc
 50
0.0
 51
64.04263199999999
1001
GENIUS_GENODEF_13
1002
{
1000
HIER
1070
     0
1002
}
1002
{
1000
MANEDIT
1070
     0
1002
}
1002
{
1000
NOSEL
1070
     0
1002
}
1002
{
1000
BEHIND
1070
     0
1002
}
1002
{
1000
REACTOR
1002
}
1001
GENIUS_GENOBJ-N-FIL_13
1002
{
1000
OWNER
1000
GEN
1002
}
  0
ARC
  5
621
330
2
100
AcDbEntity
  8
AM_0
100
AcDbCircle
 10
344.109552
 20
247.941091
 30
0.0
 40
1.0
100
AcDbArc
 50
330.0
 51
0.0
1001
GENIUS_GENODEF_13
1002
{
1000
HIER
1070
     0
1002
}
1002
{
1000
MANEDIT
1070
     0
1002
}
1002
{
1000
NOSEL
1070
     0
1002
}
1002
{
1000
BEHIND
1070
     0
1002
}
1002
{
1000
REACTOR
1002
}
1001
GENIUS_GENOBJ-N-FIL_13
1002
{
1000
OWNER
1000
GEN
1002
}
  0
LINE
  5
622
330
2
100
AcDbEntity
  8
AM_0
100
AcDbLine
 10
346.359552
 20
245.020202
 30
0.0
 11
345.116188
 21
245.020202
 31
0.0
  0
LINE
  5
623
330
2
100
AcDbEntity
  8
AM_0
100
AcDbLine
 10
345.243527
 20
245.405192
 30
0.0
 11
346.192084
 21
247.048142
 31
0.0
  0
ARC
  5
624
330
2
100
AcDbEntity
  8
AM_0
100
AcDbCircle
 10
346.109552
 20
244.905192
 30
0.0
 40
1.0
100
AcDbArc
 50
150.0
 51
180.0
1001
GENIUS_GENODEF_13
1002
{
1000
HIER
1070
     0
1002
}
1002
{
1000
MANEDIT
1070
     0
1002
}
1002
{
1000
NOSEL
1070
     0
1002
}
1002
{
1000
BEHIND
1070
     0
1002
}
1002
{
1000
REACTOR
1002
}
1001
GENIUS_GENOBJ-N-FIL_13
1002
{
1000
OWNER
1000
GEN
1002
}
  0
ARC
  5
625
330
2
100
AcDbEntity
  8
AM_0
100
AcDbCircle
 10
345.109552
 20
245.173142
 30
0.0
 40
1.25
100
AcDbArc
 50
150.0
 51
180.0
1001
GENIUS_GENODEF_13
1002
{
1000
HIER
1070
     0
1002
}
1002
{
1000
MANEDIT
1070
     0
1002
}
1002
{
1000
NOSEL
1070
     0
1002
}
1002
{
1000
BEHIND
1070
     0
1002
}
1002
{
1000
REACTOR
1002
}
1001
GENIUS_GENOBJ-N-FIL_13
1002
{
1000
OWNER
1000
GEN
1002
}
  0
LINE
  5
626
330
2
100
AcDbEntity
  8
AM_0
100
AcDbLine
 10
344.02702
 20
245.798142
 30
0.0
 11
344.975577
 21
247.441091
 31
0.0
  0
ARC
  5
627
330
2
100
AcDbEntity
  8
AM_0
100
AcDbCircle
 10
345.109552
 20
247.673142
 30
0.0
 40
1.25
100
AcDbArc
 50
330.0
 51
0.0
1001
GENIUS_GENODEF_13
1002
{
1000
HIER
1070
     0
1002
}
1002
{
1000
MANEDIT
1070
     0
1002
}
1002
{
1000
NOSEL
1070
     0
1002
}
1002
{
1000
BEHIND
1070
     0
1002
}
1002
{
1000
REACTOR
1002
}
1001
GENIUS_GENOBJ-N-FIL_13
1002
{
1000
OWNER
1000
GEN
1002
}
  0
LINE
  5
628
330
2
100
AcDbEntity
  8
AM_0
100
AcDbLine
 10
343.859552
 20
240.173142
 30
0.0
 11
344.109552
 21
240.173142
 31
0.0
  0
LINE
  5
629
330
2
100
AcDbEntity
  8
AM_0
100
AcDbLine
 10
344.109552
 20
240.173142
 30
0.0
 11
344.109552
 21
238.173142
 31
0.0
  0
LINE
  5
62A
330
2
100
AcDbEntity
  8
AM_0
100
AcDbLine
 10
345.109552
 20
244.905192
 30
0.0
 11
345.109552
 21
238.173142
 31
0.0
  0
LINE
  5
62B
330
2
100
AcDbEntity
  8
AM_0
100
AcDbLine
 10
343.859552
 20
245.173142
 30
0.0
 11
343.859552
 21
240.173142
 31
0.0
  0
LINE
  5
62C
330
2
100
AcDbEntity
  8
AM_4
100
AcDbLine
 10
294.362616
 20
248.353074
 30
0.0
 11
344.263529
 21
248.353074
 31
0.0
  0
LINE
  5
62D
330
2
100
AcDbEntity
  8
AM_0
100
AcDbLine
 10
295.333816
 20
238.173142
 30
0.0
 11
345.109552
 21
238.173142
 31
0.0
  0
LINE
  5
62E
330
2
100
AcDbEntity
  8
AM_0
 62
     7
100
AcDbLine
 10
345.109552
 20
331.619985
 30
0.0
 11
345.109552
 21
247.941091
 31
0.0
  0
LINE
  5
62F
330
2
100
AcDbEntity
  8
AM_0
 62
     7
100
AcDbLine
 10
346.359552
 20
331.619985
 30
0.0
 11
346.359552
 21
247.673142
 31
0.0
  0
ARC
  5
630
330
2
100
AcDbEntity
  8
AM_0
100
AcDbCircle
 10
243.359552
 20
262.80498
 30
0.0
 40
49.4
100
AcDbArc
 50
5.449711999999999
 51
35.95260800000001
  0
ARC
  5
631
330
2
100
AcDbEntity
  8
AM_0
100
AcDbCircle
 10
243.359552
 20
262.80498
 30
0.0
 40
47.6
100
AcDbArc
 50
5.449711999999999
 51
31.668949
  0
HATCH
  5
632
330
2
100
AcDbEntity
  8
AM_8
100
AcDbHatch
 10
0.0
 20
0.0
 30
0.0
210
0.0
220
0.0
230
1.0
  2
ANSI37
 70
     0
 71
     0
 91
        1
 92
        5
 93
        6
 72
     1
 10
290.744397
 20
267.32565
 11
292.554443
 21
248.353074
 72
     1
 10
292.554443
 20
248.353074
 11
294.362616
 21
248.353074
 72
     1
 10
294.362616
 20
248.353074
 11
292.536261
 21
267.4966
 72
     2
 10
243.359552
 20
262.80498
 40
49.4
 50
5.449711999999999
 51
35.95260800000001
 73
     1
 72
     4
 94
        3
 73
     0
 74
     0
 95
        8
 96
        4
 40
138.436694
 40
138.436694
 40
138.436694
 40
138.436694
 40
142.194458
 40
142.194458
 40
142.194458
 40
142.194458
 10
283.348996
 20
291.808504
 10
283.547531
 20
290.479694
 10
283.721328
 20
289.140848
 10
283.87171
 20
287.795479
 72
     2
 10
243.359552
 20
262.80498
 40
47.6
 50
328.331051
 51
354.550288
 73
     0
 97
        0
 75
     0
 76
     1
 52
0.0
 41
1.0
 77
     0
 78
     2
 53
45.0
 43
80.37964200000001
 44
26.195812
 45
-2.245064030267287
 46
2.245064030267287
 79
     0
 53
135.0
 43
80.37964200000001
 44
26.195812
 45
-2.245064030267287
 46
-2.245064030267287
 79
     0
 47
0.078674
 98
        1
 10
290.270662
 20
273.702176
  0
ARC
  5
633
330
2
100
AcDbEntity
  8
AM_0
100
AcDbCircle
 10
243.359552
 20
164.923142
 30
0.0
 40
206.0
100
AcDbArc
 50
64.04263199999999
 51
89.078446
  0
HATCH
  5
634
330
2
100
AcDbEntity
  8
AM_8
100
AcDbHatch
 10
0.0
 20
0.0
 30
0.0
210
0.0
220
0.0
230
1.0
  2
ANSI31
 70
     0
 71
     0
 91
        3
 92
        7
 72
     1
 73
     1
 93
        8
 10
346.3595520626344
 20
331.6199846384147
 42
0.2869467072285143
 10
334.0733465610163
 20
351.2657560611082
 42
0.1097005020363507
 10
246.6727462169036
 20
372.1466567192023
 42
0.0
 10
246.6727462169036
 20
370.8964959896293
 42
-0.1096759557937396
 10
333.5262187293009
 20
350.1418560941346
 42
-0.2869467072285146
 10
345.1095520626343
 20
331.6199846384147
 42
0.0
 10
345.1095520626343
 20
297.5684384446472
 42
0.0
 10
346.3595520626344
 20
298.0308808514446
 42
0.0
 97
        0
 92
        7
 72
     1
 73
     1
 93
        4
 10
346.3595520626344
 20
298.0308808514446
 42
0.0
 10
345.1095520626343
 20
297.5684384446472
 42
0.0
 10
345.1095520626343
 20
252.6822521864269
 42
-0.031041773610071
 10
346.3595520626344
 20
252.6202910454189
 42
0.0
 97
        0
 92
        7
 72
     1
 73
     1
 93
       14
 10
346.3595520626344
 20
247.6731415369331
 42
0.0
 10
346.3595520626344
 20
252.6202910454189
 42
0.031041773610071
 10
345.1095520626343
 20
252.6822521864269
 42
0.0
 10
345.1095520626343
 20
247.9410907293645
 42
-0.1316524975873781
 10
344.9755774664188
 20
247.4410907293645
 42
0.0
 10
344.0270203079038
 20
245.7981415369331
 42
0.1316524975873637
 10
343.8595520626344
 20
245.1731415369331
 42
0.0
 10
343.8595520626344
 20
240.1731415369331
 42
0.0
 10
344.1095520626344
 20
240.1731415369331
 42
0.0
 10
344.1095520626344
 20
238.1731415369331
 42
0.0
 10
345.1095520626343
 20
238.1731415369331
 42
0.0
 10
345.1095520626343
 20
244.9051923445017
 42
-0.1316524975874139
 10
345.2435266588498
 20
245.4051923445021
 42
0.0
 10
346.1920838173649
 20
247.0481415369331
 42
0.1316524975874043
 97
        0
 75
     0
 76
     1
 52
90.0
 41
1.0
 77
     0
 78
     1
 53
135.0
 43
80.37964200000001
 44
26.195812
 45
-2.245064030267287
 46
-2.245064030267287
 79
     0
 47
0.194716
 98
        3
 10
345.443487
 20
323.745219
 10
345.638287
 20
276.234624
 10
345.443487
 20
247.027291
  0
ARC
  5
636
330
2
100
AcDbEntity
  8
AM_0
100
AcDbCircle
 10
162.209552
 20
331.619985
 30
0.0
 40
21.85
100
AcDbArc
 50
115.957368
 51
180.0
1001
GENIUS_GENODEF_13
1002
{
1000
HIER
1070
     0
1002
}
1002
{
1000
MANEDIT
1070
     0
1002
}
1002
{
1000
NOSEL
1070
     0
1002
}
1002
{
1000
BEHIND
1070
     0
1002
}
1002
{
1000
REACTOR
1002
}
1001
GENIUS_GENOBJ-N-FIL_13
1002
{
1000
OWNER
1000
GEN
1002
}
  0
ARC
  5
637
330
2
100
AcDbEntity
  8
AM_0
100
AcDbCircle
 10
140.609552
 20
244.905192
 30
0.0
 40
1.0
100
AcDbArc
 50
6.604191999999999
 51
30.0
1001
GENIUS_GENODEF_13
1002
{
1000
HIER
1070
     0
1002
}
1002
{
1000
MANEDIT
1070
     0
1002
}
1002
{
1000
NOSEL
1070
     0
1002
}
1002
{
1000
BEHIND
1070
     0
1002
}
1002
{
1000
REACTOR
1002
}
1001
GENIUS_GENOBJ-N-FIL_13
1002
{
1000
OWNER
1000
GEN
1002
}
  0
LINE
  5
638
330
2
100
AcDbEntity
  8
AM_0
100
AcDbLine
 10
141.475577
 20
245.405192
 30
0.0
 11
140.52702
 21
247.048142
 31
0.0
  0
ARC
  5
639
330
2
100
AcDbEntity
  8
AM_0
100
AcDbCircle
 10
141.609552
 20
247.673142
 30
0.0
 40
1.25
100
AcDbArc
 50
180.0
 51
210.0
1001
GENIUS_GENODEF_13
1002
{
1000
HIER
1070
     0
1002
}
1002
{
1000
MANEDIT
1070
     0
1002
}
1002
{
1000
NOSEL
1070
     0
1002
}
1002
{
1000
BEHIND
1070
     0
1002
}
1002
{
1000
REACTOR
1002
}
1001
GENIUS_GENOBJ-N-FIL_13
1002
{
1000
OWNER
1000
GEN
1002
}
  0
LINE
  5
63A
330
2
100
AcDbEntity
  8
AM_0
 62
     7
100
AcDbLine
 10
140.359552
 20
331.619985
 30
0.0
 11
140.359552
 21
247.673142
 31
0.0
  0
ARC
  5
63B
330
2
100
AcDbEntity
  8
AM_0
100
AcDbCircle
 10
243.359552
 20
164.923142
 30
0.0
 40
207.25
100
AcDbArc
 50
64.04263199999999
 51
115.957368
  0
ARC
  5
63C
330
2
100
AcDbEntity
  8
AM_0
100
AcDbCircle
 10
243.359552
 20
164.923142
 30
0.0
 40
206.0
100
AcDbArc
 50
90.90174300000001
 51
109.594274
  0
LINE
  5
63D
330
2
100
AcDbEntity
  8
AM_0
100
AcDbLine
 10
140.359552
 20
245.020202
 30
0.0
 11
278.310729
 21
245.020202
 31
0.0
  0
HATCH
  5
63E
330
2
100
AcDbEntity
  8
AM_8
100
AcDbHatch
 10
0.0
 20
0.0
 30
0.0
210
0.0
220
0.0
230
1.0
  2
ANSI31
 70
     0
 71
     0
 91
        1
 92
        5
 93
        4
 72
     1
 10
240.117579
 20
370.897629
 11
240.117579
 21
372.147783
 72
     2
 10
243.359552
 20
164.923142
 40
207.25
 50
90.896304
 51
109.847827
 73
     1
 72
     4
 94
        3
 73
     0
 74
     0
 95
        8
 96
        4
 40
0.0
 40
0.0
 40
0.0
 40
0.0
 40
1.547940999999999
 40
1.547940999999999
 40
1.547940999999999
 40
1.547940999999999
 10
172.993371
 20
359.862012
 10
173.416579
 20
359.566833
 10
173.844147
 20
359.277519
 10
174.275922
 20
358.993881
 72
     2
 10
243.359552
 20
164.923142
 40
206.0
 50
250.405726
 51
269.098257
 73
     0
 97
        0
 75
     0
 76
     1
 52
90.0
 41
1.0
 77
     0
 78
     1
 53
135.0
 43
80.37964200000001
 44
26.195812
 45
-2.245064030267287
 46
-2.245064030267287
 79
     0
 47
0.092292
 98
        1
 10
204.003687
 20
367.454331
  0
ARC
  5
63F
330
2
100
AcDbEntity
  8
AM_0
100
AcDbCircle
 10
324.509552
 20
156.283073
 30
0.0
 40
21.85
100
AcDbArc
 50
295.957368
 51
0.0
1001
GENIUS_GENODEF_13
1002
{
1000
HIER
1070
     0
1002
}
1002
{
1000
MANEDIT
1070
     0
1002
}
1002
{
1000
NOSEL
1070
     0
1002
}
1002
{
1000
BEHIND
1070
     0
1002
}
1002
{
1000
REACTOR
1002
}
1001
GENIUS_GENOBJ-N-FIL_13
1002
{
1000
OWNER
1000
GEN
1002
}
  0
ARC
  5
640
330
2
100
AcDbEntity
  8
AM_0
100
AcDbCircle
 10
324.509552
 20
156.283073
 30
0.0
 40
20.6
100
AcDbArc
 50
295.957368
 51
0.0
1001
GENIUS_GENODEF_13
1002
{
1000
HIER
1070
     0
1002
}
1002
{
1000
MANEDIT
1070
     0
1002
}
1002
{
1000
NOSEL
1070
     0
1002
}
1002
{
1000
BEHIND
1070
     0
1002
}
1002
{
1000
REACTOR
1002
}
1001
GENIUS_GENOBJ-N-FIL_13
1002
{
1000
OWNER
1000
GEN
1002
}
  0
LINE
  5
641
330
2
100
AcDbEntity
  8
AM_0
100
AcDbLine
 10
285.109552
 20
114.100672
 30
0.0
 11
286.859552
 21
114.100672
 31
0.0
  0
LINE
  5
642
330
2
100
AcDbEntity
  8
AM_0
100
AcDbLine
 10
285.109552
 20
116.100672
 30
0.0
 11
286.859552
 21
116.100672
 31
0.0
  0
LINE
  5
643
330
2
100
AcDbEntity
  8
AM_0
100
AcDbLine
 10
285.109552
 20
116.100672
 30
0.0
 11
285.109552
 21
114.100672
 31
0.0
  0
LINE
  5
644
330
2
100
AcDbEntity
  8
AM_0
100
AcDbLine
 10
291.109552
 20
111.850672
 30
0.0
 11
291.109552
 21
108.050672
 31
0.0
  0
ARC
  5
645
330
2
100
AcDbEntity
  8
AM_0
100
AcDbCircle
 10
286.859552
 20
111.850672
 30
0.0
 40
1.0
100
AcDbArc
 50
0.0
 51
90.0
  0
ARC
  5
646
330
2
100
AcDbEntity
  8
AM_0
100
AcDbCircle
 10
287.5916029999999
 20
106.050672
 30
0.0
 40
1.0
100
AcDbArc
 50
90.0
 51
150.0
1001
GENIUS_GENODEF_13
1002
{
1000
HIER
1070
     0
1002
}
1002
{
1000
MANEDIT
1070
     0
1002
}
1002
{
1000
NOSEL
1070
     0
1002
}
1002
{
1000
BEHIND
1070
     0
1002
}
1002
{
1000
REACTOR
1002
}
1001
GENIUS_GENOBJ-N-FIL_13
1002
{
1000
OWNER
1000
GEN
1002
}
  0
ARC
  5
647
330
2
100
AcDbEntity
  8
AM_0
100
AcDbCircle
 10
285.859552
 20
107.050672
 30
0.0
 40
1.0
100
AcDbArc
 50
210.0
 51
330.0
  0
LINE
  5
648
330
2
100
AcDbEntity
  8
AM_0
100
AcDbLine
 10
285.109552
 20
112.850672
 30
0.0
 11
286.859552
 21
112.850672
 31
0.0
  0
LINE
  5
649
330
2
100
AcDbEntity
  8
AM_0
100
AcDbLine
 10
289.109552
 20
108.050672
 30
0.0
 11
289.109552
 21
111.850672
 31
0.0
  0
LINE
  5
64A
330
2
100
AcDbEntity
  8
AM_0
100
AcDbLine
 10
287.859552
 20
107.050672
 30
0.0
 11
287.859552
 21
111.850672
 31
0.0
  0
ARC
  5
64B
330
2
100
AcDbEntity
  8
AM_0
100
AcDbCircle
 10
288.909552
 20
108.050672
 30
0.0
 40
0.2
100
AcDbArc
 50
270.0
 51
0.0
  0
LINE
  5
64C
330
2
100
AcDbEntity
  8
AM_0
100
AcDbLine
 10
287.859552
 20
107.850672
 30
0.0
 11
288.909552
 21
107.850672
 31
0.0
  0
LINE
  5
64D
330
2
100
AcDbEntity
  8
AM_0
100
AcDbLine
 10
288.09562
 20
105.050672
 30
0.0
 11
288.109552
 21
105.050672
 31
0.0
  0
ARC
  5
64E
330
2
100
AcDbEntity
  8
AM_0
100
AcDbCircle
 10
288.109552
 20
108.050672
 30
0.0
 40
1.0
100
AcDbArc
 50
270.0
 51
0.0
1001
GENIUS_GENODEF_13
1002
{
1000
HIER
1070
     0
1002
}
1002
{
1000
MANEDIT
1070
     0
1002
}
1002
{
1000
NOSEL
1070
     0
1002
}
1002
{
1000
BEHIND
1070
     0
1002
}
1002
{
1000
REACTOR
1002
}
1001
GENIUS_GENOBJ-N-FIL_13
1002
{
1000
OWNER
1000
GEN
1002
}
  0
LINE
  5
64F
330
2
100
AcDbEntity
  8
AM_0
100
AcDbLine
 10
287.5916029999999
 20
107.050672
 30
0.0
 11
288.109552
 21
107.050672
 31
0.0
  0
ARC
  5
650
330
2
100
AcDbEntity
  8
AM_0
100
AcDbCircle
 10
286.859552
 20
111.850672
 30
0.0
 40
2.25
100
AcDbArc
 50
0.0
 51
90.0
  0
ARC
  5
651
330
2
100
AcDbEntity
  8
AM_0
100
AcDbCircle
 10
286.859552
 20
111.850672
 30
0.0
 40
4.25
100
AcDbArc
 50
0.0
 51
90.0
  0
ARC
  5
652
330
2
100
AcDbEntity
  8
AM_0
100
AcDbCircle
 10
270.1797009999999
 20
146.971341
 30
0.0
 40
30.0
100
AcDbArc
 50
301.6029759999999
 51
0.0
1001
GENIUS_GENODEF_13
1002
{
1000
HIER
1070
     0
1002
}
1002
{
1000
MANEDIT
1070
     0
1002
}
1002
{
1000
NOSEL
1070
     0
1002
}
1002
{
1000
BEHIND
1070
     0
1002
}
1002
{
1000
REACTOR
1002
}
1001
GENIUS_GENOBJ-N-FIL_13
1002
{
1000
OWNER
1000
GEN
1002
}
  0
ARC
  5
653
330
2
100
AcDbEntity
  8
AM_0
100
AcDbCircle
 10
243.359552
 20
322.979916
 30
0.0
 40
207.25
100
AcDbArc
 50
281.565041
 51
295.957368
  0
ARC
  5
654
330
2
100
AcDbEntity
  8
AM_0
100
AcDbCircle
 10
243.359552
 20
322.979916
 30
0.0
 40
206.0
100
AcDbArc
 50
281.6211120000001
 51
295.957368
  0
LINE
  5
655
330
2
100
AcDbEntity
  8
AM_0
100
AcDbLine
 10
300.159552
 20
187.590648
 30
0.0
 11
300.159552
 21
145.872022
 31
0.0
  0
LINE
  5
656
330
2
100
AcDbEntity
  8
AM_0
100
AcDbLine
 10
298.359552
 20
187.50498
 30
0.0
 11
298.359552
 21
147.190553
 31
0.0
  0
LINE
  5
657
330
2
100
AcDbEntity
  8
AM_0
100
AcDbLine
 10
282.359552
 20
123.70498
 30
0.0
 11
282.359552
 21
123.70498
 31
0.0
  0
ARC
  5
658
330
2
100
AcDbEntity
  8
AM_0
100
AcDbCircle
 10
266.873728
 20
124.640751
 30
0.0
 40
0.5
100
AcDbArc
 50
30.0
 51
80.0
  0
LINE
  5
659
330
2
100
AcDbEntity
  8
AM_0
100
AcDbLine
 10
282.859552
 20
115.100672
 30
0.0
 11
282.859552
 21
118.753939
 31
0.0
  0
LINE
  5
65A
330
2
100
AcDbEntity
  8
AM_0
100
AcDbLine
 10
284.109552
 20
115.100672
 30
0.0
 11
284.109552
 21
118.957859
 31
0.0
  0
ARC
  5
65B
330
2
100
AcDbEntity
  8
AM_0
100
AcDbCircle
 10
276.859552
 20
116.400672
 30
0.0
 40
1.0
100
AcDbArc
 50
0.0
 51
90.0
1001
GENIUS_GENODEF_13
1002
{
1000
HIER
1070
     0
1002
}
1002
{
1000
MANEDIT
1070
     0
1002
}
1002
{
1000
NOSEL
1070
     0
1002
}
1002
{
1000
BEHIND
1070
     0
1002
}
1002
{
1000
REACTOR
1002
}
1001
GENIUS_GENOBJ-N-FIL_13
1002
{
1000
OWNER
1000
GEN
1002
}
  0
ARC
  5
65C
330
2
100
AcDbEntity
  8
AM_0
100
AcDbCircle
 10
276.859552
 20
116.400672
 30
0.0
 40
3.0
100
AcDbArc
 50
0.0
 51
90.0
1001
GENIUS_GENODEF_13
1002
{
1000
HIER
1070
     0
1002
}
1002
{
1000
MANEDIT
1070
     0
1002
}
1002
{
1000
NOSEL
1070
     0
1002
}
1002
{
1000
BEHIND
1070
     0
1002
}
1002
{
1000
REACTOR
1002
}
1001
GENIUS_GENOBJ-N-FIL_13
1002
{
1000
OWNER
1000
GEN
1002
}
  0
LINE
  5
65D
330
2
100
AcDbEntity
  8
AM_0
100
AcDbLine
 10
280.859552
 20
107.050672
 30
0.0
 11
284.127501
 21
107.050672
 31
0.0
  0
ARC
  5
65E
330
2
100
AcDbEntity
  8
AM_0
100
AcDbCircle
 10
280.859552
 20
108.050672
 30
0.0
 40
1.0
100
AcDbArc
 50
180.0
 51
270.0
1001
GENIUS_GENODEF_13
1002
{
1000
HIER
1070
     0
1002
}
1002
{
1000
MANEDIT
1070
     0
1002
}
1002
{
1000
NOSEL
1070
     0
1002
}
1002
{
1000
BEHIND
1070
     0
1002
}
1002
{
1000
REACTOR
1002
}
1001
GENIUS_GENOBJ-N-FIL_13
1002
{
1000
OWNER
1000
GEN
1002
}
  0
LINE
  5
65F
330
2
100
AcDbEntity
  8
AM_0
100
AcDbLine
 10
279.859552
 20
105.050672
 30
0.0
 11
279.859552
 21
105.050672
 31
0.0
  0
LINE
  5
660
330
2
100
AcDbEntity
  8
AM_0
100
AcDbLine
 10
279.859552
 20
108.050672
 30
0.0
 11
279.859552
 21
121.20498
 31
0.0
  0
LINE
  5
661
330
2
100
AcDbEntity
  8
AM_0
100
AcDbLine
 10
277.859552
 20
116.400672
 30
0.0
 11
277.859552
 21
108.050672
 31
0.0
  0
ARC
  5
662
330
2
100
AcDbEntity
  8
AM_0
100
AcDbCircle
 10
267.868067
 20
119.900672
 30
0.0
 40
0.5
100
AcDbArc
 50
210.0
 51
270.0
  0
ARC
  5
663
330
2
100
AcDbEntity
  8
AM_0
100
AcDbCircle
 10
269.350316
 20
120.351174
 30
0.0
 40
0.5
100
AcDbArc
 50
280.0
 51
30.0
  0
LINE
  5
664
330
2
100
AcDbEntity
  8
AM_0
100
AcDbLine
 10
266.839133
 20
119.400672
 30
0.0
 11
269.43714
 21
119.858771
 31
0.0
  0
LINE
  5
665
330
2
100
AcDbEntity
  8
AM_0
100
AcDbLine
 10
267.435054
 20
119.650672
 30
0.0
 11
266.713367
 21
120.900672
 31
0.0
  0
LINE
  5
666
330
2
100
AcDbEntity
  8
AM_0
100
AcDbLine
 10
269.783329
 20
120.601174
 30
0.0
 11
267.306741
 21
124.890751
 31
0.0
  0
ARC
  5
667
330
2
100
AcDbEntity
  8
AM_0
100
AcDbCircle
 10
282.359552
 20
121.20498
 30
0.0
 40
2.5
100
AcDbArc
 50
109.103324
 51
180.0
1001
GENIUS_GENODEF_13
1002
{
1000
HIER
1070
     0
1002
}
1002
{
1000
MANEDIT
1070
     0
1002
}
1002
{
1000
NOSEL
1070
     0
1002
}
1002
{
1000
BEHIND
1070
     0
1002
}
1002
{
1000
REACTOR
1002
}
1001
GENIUS_GENOBJ-N-FIL_13
1002
{
1000
OWNER
1000
GEN
1002
}
  0
ARC
  5
668
330
2
100
AcDbEntity
  8
AM_0
100
AcDbCircle
 10
242.931909
 20
128.892958
 30
0.0
 40
0.5
100
AcDbArc
 50
80.0
 51
100.0
  0
LINE
  5
669
330
2
100
AcDbEntity
  8
AM_7
100
AcDbLine
 10
238.181909
 20
131.563119
 30
0.0
 11
238.181909
 21
121.362073
 31
0.0
  0
LINE
  5
66A
330
2
100
AcDbEntity
  8
AM_0
100
AcDbLine
 10
253.158261
 20
120.900672
 30
0.0
 11
253.158261
 21
117.800672
 31
0.0
  0
LINE
  5
66B
330
2
100
AcDbEntity
  8
AM_0
100
AcDbLine
 10
255.013414
 20
119.400672
 30
0.0
 11
255.013414
 21
116.400672
 31
0.0
  0
LINE
  5
66C
330
2
100
AcDbEntity
  8
AM_0
100
AcDbLine
 10
253.158261
 20
117.800672
 30
0.0
 11
254.158261
 21
117.800672
 31
0.0
  0
LINE
  5
66D
330
2
100
AcDbEntity
  8
AM_0
100
AcDbLine
 10
256.579552
 20
116.400672
 30
0.0
 11
254.158261
 21
116.400672
 31
0.0
  0
LINE
  5
66E
330
2
100
AcDbEntity
  8
AM_0
100
AcDbLine
 10
256.579552
 20
105.050672
 30
0.0
 11
282.859552
 21
105.050672
 31
0.0
  0
LINE
  5
66F
330
2
100
AcDbEntity
  8
AM_0
100
AcDbLine
 10
254.158261
 20
117.400672
 30
0.0
 11
276.859552
 21
117.400672
 31
0.0
  0
LINE
  5
670
330
2
100
AcDbEntity
  8
AM_0
100
AcDbLine
 10
242.845085
 20
129.385362
 30
0.0
 11
266.960552
 21
125.133155
 31
0.0
  0
LINE
  5
671
330
2
100
AcDbEntity
  8
AM_0
100
AcDbLine
 10
253.158261
 20
119.400672
 30
0.0
 11
276.859552
 21
119.400672
 31
0.0
  0
LINE
  5
672
330
2
100
AcDbEntity
  8
AM_0
100
AcDbLine
 10
253.158261
 20
120.900672
 30
0.0
 11
266.713367
 21
120.900672
 31
0.0
  0
LINE
  5
673
330
2
100
AcDbEntity
  8
AM_0
100
AcDbLine
 10
232.681909
 20
127.59332
 30
0.0
 11
232.681909
 21
123.400672
 31
0.0
  0
LINE
  5
674
330
2
100
AcDbEntity
  8
AM_0
100
AcDbLine
 10
235.681909
 20
128.122301
 30
0.0
 11
235.681909
 21
123.400672
 31
0.0
  0
LINE
  5
675
330
2
100
AcDbEntity
  8
AM_0
100
AcDbLine
 10
236.681909
 20
128.298628
 30
0.0
 11
236.681909
 21
123.400672
 31
0.0
  0
LINE
  5
676
330
2
100
AcDbEntity
  8
AM_0
100
AcDbLine
 10
231.681909
 20
127.416993
 30
0.0
 11
231.681909
 21
123.400672
 31
0.0
  0
LINE
  5
677
330
2
100
AcDbEntity
  8
AM_0
100
AcDbLine
 10
228.681909
 20
126.888012
 30
0.0
 11
228.681909
 21
123.400672
 31
0.0
  0
LINE
  5
678
330
2
100
AcDbEntity
  8
AM_0
100
AcDbLine
 10
227.681909
 20
126.711685
 30
0.0
 11
227.681909
 21
123.400672
 31
0.0
  0
LINE
  5
679
330
2
100
AcDbEntity
  8
AM_7
100
AcDbLine
 10
230.181909
 20
130.152503
 30
0.0
 11
230.181909
 21
121.362073
 31
0.0
  0
LINE
  5
67A
330
2
100
AcDbEntity
  8
AM_7
100
AcDbLine
 10
234.181909
 20
130.857811
 30
0.0
 11
234.181909
 21
121.362073
 31
0.0
  0
ARC
  5
67B
330
2
100
AcDbEntity
  8
AM_0
100
AcDbCircle
 10
221.737788
 20
122.900672
 30
0.0
 40
0.5
100
AcDbArc
 50
90.0
 51
150.0
  0
LINE
  5
67C
330
2
100
AcDbEntity
  8
AM_0
100
AcDbLine
 10
224.681909
 20
126.182704
 30
0.0
 11
224.681909
 21
123.400672
 31
0.0
  0
ARC
  5
67D
330
2
100
AcDbEntity
  8
AM_0
100
AcDbCircle
 10
218.816442
 20
124.640751
 30
0.0
 40
0.5
100
AcDbArc
 50
100.0
 51
150.0
  0
LINE
  5
67E
330
2
100
AcDbEntity
  8
AM_7
100
AcDbLine
 10
226.181909
 20
129.447195
 30
0.0
 11
226.181909
 21
121.362073
 31
0.0
  0
LINE
  5
67F
330
2
100
AcDbEntity
  8
AM_0
100
AcDbLine
 10
232.531909
 20
120.900672
 30
0.0
 11
232.531909
 21
116.400672
 31
0.0
  0
LINE
  5
680
330
2
100
AcDbEntity
  8
AM_0
100
AcDbLine
 10
231.459552
 20
117.400672
 30
0.0
 11
231.459552
 21
119.400672
 31
0.0
  0
LINE
  5
681
330
2
100
AcDbEntity
  8
AM_0
100
AcDbLine
 10
230.139552
 20
116.400672
 30
0.0
 11
232.531909
 21
116.400672
 31
0.0
  0
ARC
  5
682
330
2
100
AcDbEntity
  8
AM_0
100
AcDbCircle
 10
218.851037
 20
119.900672
 30
0.0
 40
0.5
100
AcDbArc
 50
270.0
 51
330.0
  0
ARC
  5
683
330
2
100
AcDbEntity
  8
AM_0
100
AcDbCircle
 10
216.339854
 20
120.351174
 30
0.0
 40
0.5
100
AcDbArc
 50
150.0
 51
260.0
  0
LINE
  5
684
330
2
100
AcDbEntity
  8
AM_0
100
AcDbLine
 10
218.851037
 20
119.400672
 30
0.0
 11
216.253029
 21
119.858771
 31
0.0
  0
LINE
  5
685
330
2
100
AcDbEntity
  8
AM_0
100
AcDbLine
 10
232.531909
 20
120.900672
 30
0.0
 11
220.005738
 21
120.900672
 31
0.0
  0
LINE
  5
686
330
2
100
AcDbEntity
  8
AM_0
100
AcDbLine
 10
215.906841
 20
120.601174
 30
0.0
 11
218.383429
 21
124.890751
 31
0.0
  0
LINE
  5
687
330
2
100
AcDbEntity
  8
AM_0
100
AcDbLine
 10
219.28405
 20
119.650672
 30
0.0
 11
221.304776
 21
123.150672
 31
0.0
  0
LINE
  5
688
330
2
100
AcDbEntity
  8
AM_0
100
AcDbLine
 10
203.859552
 20
115.100672
 30
0.0
 11
203.859552
 21
118.753939
 31
0.0
  0
ARC
  5
689
330
2
100
AcDbEntity
  8
AM_0
100
AcDbCircle
 10
209.859552
 20
116.400672
 30
0.0
 40
3.0
100
AcDbArc
 50
90.0
 51
180.0
1001
GENIUS_GENODEF_13
1002
{
1000
HIER
1070
     0
1002
}
1002
{
1000
MANEDIT
1070
     0
1002
}
1002
{
1000
NOSEL
1070
     0
1002
}
1002
{
1000
BEHIND
1070
     0
1002
}
1002
{
1000
REACTOR
1002
}
1001
GENIUS_GENOBJ-N-FIL_13
1002
{
1000
OWNER
1000
GEN
1002
}
  0
ARC
  5
68A
330
2
100
AcDbEntity
  8
AM_0
100
AcDbCircle
 10
209.859552
 20
116.400672
 30
0.0
 40
1.0
100
AcDbArc
 50
90.0
 51
180.0
1001
GENIUS_GENODEF_13
1002
{
1000
HIER
1070
     0
1002
}
1002
{
1000
MANEDIT
1070
     0
1002
}
1002
{
1000
NOSEL
1070
     0
1002
}
1002
{
1000
BEHIND
1070
     0
1002
}
1002
{
1000
REACTOR
1002
}
1001
GENIUS_GENOBJ-N-FIL_13
1002
{
1000
OWNER
1000
GEN
1002
}
  0
LINE
  5
68B
330
2
100
AcDbEntity
  8
AM_0
100
AcDbLine
 10
203.859552
 20
105.050672
 30
0.0
 11
230.139552
 21
105.050672
 31
0.0
  0
LINE
  5
68C
330
2
100
AcDbEntity
  8
AM_0
100
AcDbLine
 10
206.859552
 20
105.050672
 30
0.0
 11
206.859552
 21
105.050672
 31
0.0
  0
ARC
  5
68D
330
2
100
AcDbEntity
  8
AM_0
100
AcDbCircle
 10
205.859552
 20
108.050672
 30
0.0
 40
1.0
100
AcDbArc
 50
270.0
 51
0.0
1001
GENIUS_GENODEF_13
1002
{
1000
HIER
1070
     0
1002
}
1002
{
1000
MANEDIT
1070
     0
1002
}
1002
{
1000
NOSEL
1070
     0
1002
}
1002
{
1000
BEHIND
1070
     0
1002
}
1002
{
1000
REACTOR
1002
}
1001
GENIUS_GENOBJ-N-FIL_13
1002
{
1000
OWNER
1000
GEN
1002
}
  0
LINE
  5
68E
330
2
100
AcDbEntity
  8
AM_0
100
AcDbLine
 10
206.859552
 20
108.050672
 30
0.0
 11
206.859552
 21
121.20498
 31
0.0
  0
LINE
  5
68F
330
2
100
AcDbEntity
  8
AM_0
100
AcDbLine
 10
208.859552
 20
116.400672
 30
0.0
 11
208.859552
 21
108.050672
 31
0.0
  0
ARC
  5
690
330
2
100
AcDbEntity
  8
AM_0
100
AcDbCircle
 10
201.609552
 20
115.100672
 30
0.0
 40
1.0
100
AcDbArc
 50
270.0
 51
0.0
  0
LINE
  5
691
330
2
100
AcDbEntity
  8
AM_0
100
AcDbLine
 10
201.609552
 20
114.100672
 30
0.0
 11
199.859552
 21
114.100672
 31
0.0
  0
LINE
  5
692
330
2
100
AcDbEntity
  8
AM_0
100
AcDbLine
 10
201.609552
 20
116.100672
 30
0.0
 11
199.859552
 21
116.100672
 31
0.0
  0
LINE
  5
693
330
2
100
AcDbEntity
  8
AM_0
100
AcDbLine
 10
201.609552
 20
116.100672
 30
0.0
 11
201.609552
 21
114.100672
 31
0.0
  0
LINE
  5
694
330
2
100
AcDbEntity
  8
AM_0
100
AcDbLine
 10
202.609552
 20
115.100672
 30
0.0
 11
202.609552
 21
118.957859
 31
0.0
  0
ARC
  5
695
330
2
100
AcDbEntity
  8
AM_0
100
AcDbCircle
 10
201.609552
 20
118.957859
 30
0.0
 40
1.0
100
AcDbArc
 50
0.0
 51
78.43495899999999
1001
GENIUS_GENODEF_13
1002
{
1000
HIER
1070
     0
1002
}
1002
{
1000
MANEDIT
1070
     0
1002
}
1002
{
1000
NOSEL
1070
     0
1002
}
1002
{
1000
BEHIND
1070
     0
1002
}
1002
{
1000
REACTOR
1002
}
1001
GENIUS_GENOBJ-N-FIL_13
1002
{
1000
OWNER
1000
GEN
1002
}
  0
LINE
  5
696
330
2
100
AcDbEntity
  8
AM_0
100
AcDbLine
 10
197.609552
 20
108.050672
 30
0.0
 11
197.609552
 21
111.850672
 31
0.0
  0
LINE
  5
697
330
2
100
AcDbEntity
  8
AM_0
100
AcDbLine
 10
198.859552
 20
107.050672
 30
0.0
 11
198.859552
 21
111.850672
 31
0.0
  0
ARC
  5
698
330
2
100
AcDbEntity
  8
AM_0
100
AcDbCircle
 10
197.809552
 20
108.050672
 30
0.0
 40
0.2
100
AcDbArc
 50
180.0
 51
270.0
  0
ARC
  5
699
330
2
100
AcDbEntity
  8
AM_0
100
AcDbCircle
 10
202.591603
 20
106.050672
 30
0.0
 40
1.0
100
AcDbArc
 50
90.0
 51
150.0
1001
GENIUS_GENODEF_13
1002
{
1000
HIER
1070
     0
1002
}
1002
{
1000
MANEDIT
1070
     0
1002
}
1002
{
1000
NOSEL
1070
     0
1002
}
1002
{
1000
BEHIND
1070
     0
1002
}
1002
{
1000
REACTOR
1002
}
1001
GENIUS_GENOBJ-N-FIL_13
1002
{
1000
OWNER
1000
GEN
1002
}
  0
LINE
  5
69A
330
2
100
AcDbEntity
  8
AM_0
100
AcDbLine
 10
198.859552
 20
107.850672
 30
0.0
 11
197.809552
 21
107.850672
 31
0.0
  0
ARC
  5
69B
330
2
100
AcDbEntity
  8
AM_0
100
AcDbCircle
 10
200.859552
 20
107.050672
 30
0.0
 40
1.0
100
AcDbArc
 50
210.0
 51
330.0
  0
LINE
  5
69C
330
2
100
AcDbEntity
  8
AM_0
100
AcDbLine
 10
199.127501
 20
107.050672
 30
0.0
 11
198.609552
 21
107.050672
 31
0.0
  0
ARC
  5
69D
330
2
100
AcDbEntity
  8
AM_0
100
AcDbCircle
 10
199.127501
 20
106.050672
 30
0.0
 40
1.0
100
AcDbArc
 50
30.0
 51
90.0
1001
GENIUS_GENODEF_13
1002
{
1000
HIER
1070
     0
1002
}
1002
{
1000
MANEDIT
1070
     0
1002
}
1002
{
1000
NOSEL
1070
     0
1002
}
1002
{
1000
BEHIND
1070
     0
1002
}
1002
{
1000
REACTOR
1002
}
1001
GENIUS_GENOBJ-N-FIL_13
1002
{
1000
OWNER
1000
GEN
1002
}
  0
LINE
  5
69E
330
2
100
AcDbEntity
  8
AM_0
100
AcDbLine
 10
201.609552
 20
112.850672
 30
0.0
 11
199.859552
 21
112.850672
 31
0.0
  0
ARC
  5
69F
330
2
100
AcDbEntity
  8
AM_0
100
AcDbCircle
 10
199.859552
 20
111.850672
 30
0.0
 40
1.0
100
AcDbArc
 50
90.0
 51
180.0
  0
LINE
  5
6A0
330
2
100
AcDbEntity
  8
AM_0
100
AcDbLine
 10
195.609552
 20
111.850672
 30
0.0
 11
195.609552
 21
108.050672
 31
0.0
  0
ARC
  5
6A1
330
2
100
AcDbEntity
  8
AM_0
100
AcDbCircle
 10
198.609552
 20
108.050672
 30
0.0
 40
1.0
100
AcDbArc
 50
180.0
 51
270.0
1001
GENIUS_GENODEF_13
1002
{
1000
HIER
1070
     0
1002
}
1002
{
1000
MANEDIT
1070
     0
1002
}
1002
{
1000
NOSEL
1070
     0
1002
}
1002
{
1000
BEHIND
1070
     0
1002
}
1002
{
1000
REACTOR
1002
}
1001
GENIUS_GENOBJ-N-FIL_13
1002
{
1000
OWNER
1000
GEN
1002
}
  0
ARC
  5
6A2
330
2
100
AcDbEntity
  8
AM_0
100
AcDbCircle
 10
199.859552
 20
111.850672
 30
0.0
 40
4.25
100
AcDbArc
 50
90.0
 51
180.0
  0
ARC
  5
6A3
330
2
100
AcDbEntity
  8
AM_0
100
AcDbCircle
 10
199.859552
 20
111.850672
 30
0.0
 40
2.25
100
AcDbArc
 50
90.0
 51
180.0
  0
LINE
  5
6A4
330
2
100
AcDbEntity
  8
AM_0
100
AcDbLine
 10
205.859552
 20
107.050672
 30
0.0
 11
202.591603
 21
107.050672
 31
0.0
  0
ARC
  5
6A5
330
2
100
AcDbEntity
  8
AM_0
100
AcDbCircle
 10
201.609552
 20
115.100672
 30
0.0
 40
2.25
100
AcDbArc
 50
270.0
 51
0.0
  0
ARC
  5
6A6
330
2
100
AcDbEntity
  8
AM_0
100
AcDbCircle
 10
204.359552
 20
121.20498
 30
0.0
 40
2.5
100
AcDbArc
 50
0.0
 51
70.896676
1001
GENIUS_GENODEF_13
1002
{
1000
HIER
1070
     0
1002
}
1002
{
1000
MANEDIT
1070
     0
1002
}
1002
{
1000
NOSEL
1070
     0
1002
}
1002
{
1000
BEHIND
1070
     0
1002
}
1002
{
1000
REACTOR
1002
}
1001
GENIUS_GENOBJ-N-FIL_13
1002
{
1000
OWNER
1000
GEN
1002
}
  0
ARC
  5
6A7
330
2
100
AcDbEntity
  8
AM_0
100
AcDbCircle
 10
201.359552
 20
118.753939
 30
0.0
 40
2.5
100
AcDbArc
 50
0.0
 51
78.378888
1001
GENIUS_GENODEF_13
1002
{
1000
HIER
1070
     0
1002
}
1002
{
1000
MANEDIT
1070
     0
1002
}
1002
{
1000
NOSEL
1070
     0
1002
}
1002
{
1000
BEHIND
1070
     0
1002
}
1002
{
1000
REACTOR
1002
}
1001
GENIUS_GENOBJ-N-FIL_13
1002
{
1000
OWNER
1000
GEN
1002
}
  0
LINE
  5
6A8
330
2
100
AcDbEntity
  8
AM_0
100
AcDbLine
 10
209.859552
 20
119.400672
 30
0.0
 11
232.531909
 21
119.400672
 31
0.0
  0
LINE
  5
6A9
330
2
100
AcDbEntity
  8
AM_0
100
AcDbLine
 10
209.859552
 20
117.400672
 30
0.0
 11
232.531909
 21
117.400672
 31
0.0
  0
HATCH
  5
6AA
330
2
100
AcDbEntity
  8
AM_8
100
AcDbHatch
 10
0.0
 20
0.0
 30
0.0
210
0.0
220
0.0
230
1.0
  2
_U
 70
     0
 71
     0
 91
        1
 92
        1
 93
        5
 72
     1
 10
231.459552
 20
119.400672
 11
209.859552
 21
119.400672
 72
     2
 10
209.859552
 20
116.400672
 40
3.0
 50
90.0
 51
130.826857
 73
     1
 72
     2
 10
237.8873
 20
374.919012
 40
257.997137
 50
263.324963
 51
266.508815
 73
     1
 72
     1
 10
222.176571
 20
117.400672
 11
231.459552
 21
117.400672
 72
     1
 10
231.459552
 20
117.400672
 11
231.459552
 21
119.400672
 97
        0
 75
     0
 76
     0
 52
45.0
 41
2.5
 77
     0
 78
     1
 53
45.0
 43
32.266505
 44
-0.59563
 45
-1.767766952966368
 46
1.767766952966368
 79
     0
 98
        1
 10
32.266505
 20
-0.59563
1001
GENIUS_GENODEF_13
1002
{
1000
HIER
1070
     0
1002
}
1002
{
1000
MANEDIT
1070
     0
1002
}
1002
{
1000
NOSEL
1070
     0
1002
}
1002
{
1000
BEHIND
1070
     0
1002
}
1002
{
1000
REACTOR
1002
}
1001
GENIUS_GENOBJ-N-HTC_13
1002
{
1000
OWNER
1000
GEN
1002
}
1001
GENIUS_GENHATCH_13
1002
{
1000
DATA
1040
45.0
1042
2.5
1000
_U
1070
     0
1011
226.81111
1021
118.2796
1031
0.0
1002
}
1002
{
1000
UCS
1010
0.0
1020
0.0
1030
0.0
1010
1.0
1020
0.0
1030
0.0
1010
0.0
1020
1.0
1030
0.0
1002
}
  0
LINE
  5
6AB
330
2
100
AcDbEntity
  8
AM_0
100
AcDbLine
 10
239.681909
 20
123.400672
 30
0.0
 11
221.737788
 21
123.400672
 31
0.0
  0
LINE
  5
6AC
330
2
100
AcDbEntity
  8
AM_0
100
AcDbLine
 10
242.845085
 20
129.385362
 30
0.0
 11
218.729618
 21
125.133155
 31
0.0
  0
ARC
  5
6AD
330
2
100
AcDbEntity
  8
AM_0
100
AcDbCircle
 10
284.127501
 20
106.050672
 30
0.0
 40
1.0
100
AcDbArc
 50
30.0
 51
90.0
1001
GENIUS_GENODEF_13
1002
{
1000
HIER
1070
     0
1002
}
1002
{
1000
MANEDIT
1070
     0
1002
}
1002
{
1000
NOSEL
1070
     0
1002
}
1002
{
1000
BEHIND
1070
     0
1002
}
1002
{
1000
REACTOR
1002
}
1001
GENIUS_GENOBJ-N-FIL_13
1002
{
1000
OWNER
1000
GEN
1002
}
  0
ARC
  5
6AE
330
2
100
AcDbEntity
  8
AM_0
100
AcDbCircle
 10
285.109552
 20
115.100672
 30
0.0
 40
2.25
100
AcDbArc
 50
180.0
 51
270.0
  0
ARC
  5
6AF
330
2
100
AcDbEntity
  8
AM_0
100
AcDbCircle
 10
285.109552
 20
115.100672
 30
0.0
 40
1.0
100
AcDbArc
 50
180.0
 51
270.0
  0
ARC
  5
6B0
330
2
100
AcDbEntity
  8
AM_0
100
AcDbCircle
 10
273.359552
 20
147.190553
 30
0.0
 40
25.0
100
AcDbArc
 50
289.103324
 51
0.0
1001
GENIUS_GENODEF_13
1002
{
1000
HIER
1070
     0
1002
}
1002
{
1000
MANEDIT
1070
     0
1002
}
1002
{
1000
NOSEL
1070
     0
1002
}
1002
{
1000
BEHIND
1070
     0
1002
}
1002
{
1000
REACTOR
1002
}
1001
GENIUS_GENOBJ-N-FIL_13
1002
{
1000
OWNER
1000
GEN
1002
}
  0
ARC
  5
6B1
330
2
100
AcDbEntity
  8
AM_0
100
AcDbCircle
 10
285.109552
 20
118.957859
 30
0.0
 40
1.0
100
AcDbArc
 50
101.565041
 51
180.0
1001
GENIUS_GENODEF_13
1002
{
1000
HIER
1070
     0
1002
}
1002
{
1000
MANEDIT
1070
     0
1002
}
1002
{
1000
NOSEL
1070
     0
1002
}
1002
{
1000
BEHIND
1070
     0
1002
}
1002
{
1000
REACTOR
1002
}
1001
GENIUS_GENOBJ-N-FIL_13
1002
{
1000
OWNER
1000
GEN
1002
}
  0
ARC
  5
6B2
330
2
100
AcDbEntity
  8
AM_0
100
AcDbCircle
 10
285.359552
 20
118.753939
 30
0.0
 40
2.5
100
AcDbArc
 50
101.621112
 51
180.0
1001
GENIUS_GENODEF_13
1002
{
1000
HIER
1070
     0
1002
}
1002
{
1000
MANEDIT
1070
     0
1002
}
1002
{
1000
NOSEL
1070
     0
1002
}
1002
{
1000
BEHIND
1070
     0
1002
}
1002
{
1000
REACTOR
1002
}
1001
GENIUS_GENOBJ-N-FIL_13
1002
{
1000
OWNER
1000
GEN
1002
}
  0
LINE
  5
6B3
330
2
100
AcDbEntity
  8
AM_0
100
AcDbLine
 10
268.881642
 20
79.56564499999998
 30
0.0
 11
263.775049
 21
79.56564499999998
 31
0.0
  0
LINE
  5
6B4
330
2
100
AcDbEntity
  8
AM_0
100
AcDbLine
 10
266.385085
 20
90.349929
 30
0.0
 11
268.881642
 21
79.56564499999998
 31
0.0
  0
LINE
  5
6B5
330
2
100
AcDbEntity
  8
AM_0
100
AcDbLine
 10
263.775049
 20
79.56564499999998
 30
0.0
 11
266.385085
 21
90.349929
 31
0.0
  0
SOLID
  5
6B6
330
2
100
AcDbEntity
  8
AM_0
100
AcDbTrace
 10
266.385085
 20
90.349929
 30
0.0
 11
268.881642
 21
79.56564499999998
 31
0.0
 12
263.775049
 22
79.56564499999998
 32
0.0
 13
263.775049
 23
79.56564499999998
 33
0.0
  0
LINE
  5
6B7
330
2
100
AcDbEntity
  8
AM_0
100
AcDbLine
 10
254.158261
 20
78.400672
 30
0.0
 11
255.044966
 21
78.400672
 31
0.0
  0
LINE
  5
6B8
330
2
100
AcDbEntity
  8
AM_0
100
AcDbLine
 10
254.158261
 20
78.400672
 30
0.0
 11
253.859552
 21
74.400672
 31
0.0
  0
LINE
  5
6B9
330
2
100
AcDbEntity
  8
AM_0
100
AcDbLine
 10
255.044966
 20
78.400672
 30
0.0
 11
256.579552
 21
79.93525799999999
 31
0.0
  0
ARC
  5
6BA
330
2
100
AcDbEntity
  8
AM_0
100
AcDbCircle
 10
251.859552
 20
65.400672
 30
0.0
 40
2.0
100
AcDbArc
 50
270.0
 51
0.0
1001
GENIUS_GENODEF_13
1002
{
1000
HIER
1070
     0
1002
}
1002
{
1000
MANEDIT
1070
     0
1002
}
1002
{
1000
NOSEL
1070
     0
1002
}
1002
{
1000
BEHIND
1070
     0
1002
}
1002
{
1000
OTHER
1070
     0
1002
}
1002
{
1000
REACTOR
1002
}
1001
GENIUS_GENOBJ-N-FIL_13
1002
{
1000
OWNER
1000
GEN
1002
}
  0
MTEXT
  5
6BB
330
2
100
AcDbEntity
  8
AM_6
 62
     7
100
AcDbMText
 10
274.114293
 20
70.938924
 30
0.0
 40
5.0
 41
0.0
 71
     8
 72
     5
  1
Y
 73
     1
 44
1.0
  0
LINE
  5
6BC
330
2
100
AcDbEntity
  8
AM_0
100
AcDbLine
 10
253.859552
 20
74.400672
 30
0.0
 11
253.859552
 21
65.400672
 31
0.0
  0
LINE
  5
6BD
330
2
100
AcDbEntity
  8
AM_0
100
AcDbLine
 10
231.674138
 20
78.400672
 30
0.0
 11
230.139552
 21
79.93525799999999
 31
0.0
  0
LINE
  5
6BE
330
2
100
AcDbEntity
  8
AM_0
100
AcDbLine
 10
231.674138
 20
78.400672
 30
0.0
 11
232.139552
 21
78.400672
 31
0.0
  0
LINE
  5
6BF
330
2
100
AcDbEntity
  8
AM_0
100
AcDbLine
 10
232.139552
 20
78.400672
 30
0.0
 11
232.859552
 21
74.400672
 31
0.0
  0
ARC
  5
6C0
330
2
100
AcDbEntity
  8
AM_0
100
AcDbCircle
 10
200.859552
 20
107.050672
 30
0.0
 40
3.0
100
AcDbArc
 50
231.783482
 51
306.869898
  0
LINE
  5
6C1
330
2
100
AcDbEntity
  8
AM_0
100
AcDbLine
 10
230.139552
 20
104.050879
 30
0.0
 11
200.824298
 21
104.050879
 31
0.0
  0
ARC
  5
6C2
330
2
100
AcDbEntity
  8
AM_0
100
AcDbCircle
 10
234.859552
 20
65.400672
 30
0.0
 40
2.0
100
AcDbArc
 50
180.0
 51
270.0
1001
GENIUS_GENOBJ-N-FIL_13
1002
{
1000
OWNER
1000
GEN
1002
}
1001
GENIUS_GENODEF_13
1002
{
1000
HIER
1070
     0
1002
}
1002
{
1000
MANEDIT
1070
     0
1002
}
1002
{
1000
NOSEL
1070
     0
1002
}
1002
{
1000
BEHIND
1070
     0
1002
}
1002
{
1000
OTHER
1070
     0
1002
}
1002
{
1000
REACTOR
1002
}
  0
LINE
  5
6C3
330
2
100
AcDbEntity
  8
AM_0
100
AcDbLine
 10
232.859552
 20
74.400672
 30
0.0
 11
232.859552
 21
65.400672
 31
0.0
  0
DIMENSION
  5
6C4
330
2
100
AcDbEntity
  8
AM_5
100
AcDbDimension
  2
*D2
 10
256.579552
 20
52.402169
 30
0.0
 11
243.631068
 21
52.402169
 31
0.0
 70
   160
  1
G 3/4
 71
     5
 42
-1.0
  3
AM_DIN
100
AcDbAlignedDimension
 13
230.139552
 23
79.93525799999999
 33
0.0
 14
256.579552
 24
79.93525799999999
 34
0.0
100
AcDbRotatedDimension
1001
GENIUS_GENDTOL_13
1000

1000
h7
1000

1040
0.0
1000
G 3/4
  0
LINE
  5
6D1
330
2
100
AcDbEntity
  8
AM_0
100
AcDbLine
 10
234.859552
 20
63.400672
 30
0.0
 11
251.859552
 21
63.400672
 31
0.0
  0
ARC
  5
6D2
330
2
100
AcDbEntity
  8
AM_0
100
AcDbCircle
 10
285.859552
 20
107.050672
 30
0.0
 40
3.0
100
AcDbArc
 50
233.130102
 51
308.216518
  0
LINE
  5
6D3
330
2
100
AcDbEntity
  8
AM_0
100
AcDbLine
 10
285.894806
 20
104.050879
 30
0.0
 11
256.579552
 21
104.050879
 31
0.0
  0
LINE
  5
6E5
330
2
100
AcDbEntity
  8
AM_0
100
AcDbLine
 10
232.139552
 20
78.400672
 30
0.0
 11
232.139552
 21
116.400672
 31
0.0
  0
LINE
  5
6E6
330
2
100
AcDbEntity
  8
AM_0
100
AcDbLine
 10
230.139552
 20
79.93525799999999
 30
0.0
 11
230.139552
 21
116.400672
 31
0.0
  0
ARC
  5
6E7
330
2
100
AcDbEntity
  8
AM_0
100
AcDbCircle
 10
205.859552
 20
108.050672
 30
0.0
 40
3.0
100
AcDbArc
 50
270.0
 51
0.0
1001
GENIUS_GENODEF_13
1002
{
1000
HIER
1070
     0
1002
}
1002
{
1000
MANEDIT
1070
     0
1002
}
1002
{
1000
NOSEL
1070
     0
1002
}
1002
{
1000
BEHIND
1070
     0
1002
}
1002
{
1000
REACTOR
1002
}
1001
GENIUS_GENOBJ-N-FIL_13
1002
{
1000
OWNER
1000
GEN
1002
}
  0
ARC
  5
6E8
330
2
100
AcDbEntity
  8
AM_0
100
AcDbCircle
 10
198.609552
 20
108.050672
 30
0.0
 40
3.0
100
AcDbArc
 50
180.0
 51
260.29154
1001
GENIUS_GENODEF_13
1002
{
1000
HIER
1070
     0
1002
}
1002
{
1000
MANEDIT
1070
     0
1002
}
1002
{
1000
NOSEL
1070
     0
1002
}
1002
{
1000
BEHIND
1070
     0
1002
}
1002
{
1000
REACTOR
1002
}
1001
GENIUS_GENOBJ-N-FIL_13
1002
{
1000
OWNER
1000
GEN
1002
}
  0
ARC
  5
6E9
330
2
100
AcDbEntity
  8
AM_0
100
AcDbCircle
 10
203.859552
 20
103.050672
 30
0.0
 40
2.0
100
AcDbArc
 50
90.0
 51
126.869898
1001
GENIUS_GENODEF_13
1002
{
1000
HIER
1070
     0
1002
}
1002
{
1000
MANEDIT
1070
     0
1002
}
1002
{
1000
NOSEL
1070
     0
1002
}
1002
{
1000
BEHIND
1070
     0
1002
}
1002
{
1000
REACTOR
1002
}
1001
GENIUS_GENOBJ-N-FIL_13
1002
{
1000
OWNER
1000
GEN
1002
}
  0
ARC
  5
6EA
330
2
100
AcDbEntity
  8
AM_0
100
AcDbCircle
 10
197.766377
 20
103.122279
 30
0.0
 40
2.0
100
AcDbArc
 50
51.783482
 51
80.29154
1001
GENIUS_GENODEF_13
1002
{
1000
HIER
1070
     0
1002
}
1002
{
1000
MANEDIT
1070
     0
1002
}
1002
{
1000
NOSEL
1070
     0
1002
}
1002
{
1000
BEHIND
1070
     0
1002
}
1002
{
1000
REACTOR
1002
}
1001
GENIUS_GENOBJ-N-FIL_13
1002
{
1000
OWNER
1000
GEN
1002
}
  0
LINE
  5
6EB
330
2
100
AcDbEntity
  8
AM_4
100
AcDbLine
 10
231.567211
 20
78.507598
 30
0.0
 11
231.567211
 21
106.400672
 31
0.0
  0
LINE
  5
6EC
330
2
100
AcDbEntity
  8
AM_0
100
AcDbLine
 10
254.158261
 20
117.800672
 30
0.0
 11
254.158261
 21
78.400672
 31
0.0
  0
LINE
  5
6FF
330
2
100
AcDbEntity
  8
AM_0
100
AcDbLine
 10
256.579552
 20
79.93525799999999
 30
0.0
 11
256.579552
 21
116.400672
 31
0.0
  0
LINE
  5
700
330
2
100
AcDbEntity
  8
AM_0
100
AcDbLine
 10
254.579552
 20
78.400672
 30
0.0
 11
254.579552
 21
116.400672
 31
0.0
  0
LINE
  5
701
330
2
100
AcDbEntity
  8
AM_0
100
AcDbLine
 10
239.681909
 20
128.827609
 30
0.0
 11
239.681909
 21
63.400672
 31
0.0
  0
LINE
  5
702
330
2
100
AcDbEntity
  8
AM_4
100
AcDbLine
 10
255.151893
 20
78.507598
 30
0.0
 11
255.151893
 21
106.400672
 31
0.0
  0
ARC
  5
703
330
2
100
AcDbEntity
  8
AM_0
100
AcDbCircle
 10
280.859552
 20
108.050672
 30
0.0
 40
3.0
100
AcDbArc
 50
180.0
 51
270.0
1001
GENIUS_GENODEF_13
1002
{
1000
HIER
1070
     0
1002
}
1002
{
1000
MANEDIT
1070
     0
1002
}
1002
{
1000
NOSEL
1070
     0
1002
}
1002
{
1000
BEHIND
1070
     0
1002
}
1002
{
1000
REACTOR
1002
}
1001
GENIUS_GENOBJ-N-FIL_13
1002
{
1000
OWNER
1000
GEN
1002
}
  0
ARC
  5
704
330
2
100
AcDbEntity
  8
AM_0
100
AcDbCircle
 10
282.859552
 20
103.050672
 30
0.0
 40
2.0
100
AcDbArc
 50
53.130102
 51
90.0
1001
GENIUS_GENODEF_13
1002
{
1000
HIER
1070
     0
1002
}
1002
{
1000
MANEDIT
1070
     0
1002
}
1002
{
1000
NOSEL
1070
     0
1002
}
1002
{
1000
BEHIND
1070
     0
1002
}
1002
{
1000
REACTOR
1002
}
1001
GENIUS_GENOBJ-N-FIL_13
1002
{
1000
OWNER
1000
GEN
1002
}
  0
ARC
  5
705
330
2
100
AcDbEntity
  8
AM_0
100
AcDbCircle
 10
288.952727
 20
103.122279
 30
0.0
 40
2.0
100
AcDbArc
 50
99.70846000000001
 51
128.216518
1001
GENIUS_GENODEF_13
1002
{
1000
HIER
1070
     0
1002
}
1002
{
1000
MANEDIT
1070
     0
1002
}
1002
{
1000
NOSEL
1070
     0
1002
}
1002
{
1000
BEHIND
1070
     0
1002
}
1002
{
1000
REACTOR
1002
}
1001
GENIUS_GENOBJ-N-FIL_13
1002
{
1000
OWNER
1000
GEN
1002
}
  0
ARC
  5
706
330
2
100
AcDbEntity
  8
AM_0
100
AcDbCircle
 10
288.109552
 20
108.050672
 30
0.0
 40
3.0
100
AcDbArc
 50
279.70846
 51
0.0
1001
GENIUS_GENODEF_13
1002
{
1000
HIER
1070
     0
1002
}
1002
{
1000
MANEDIT
1070
     0
1002
}
1002
{
1000
NOSEL
1070
     0
1002
}
1002
{
1000
BEHIND
1070
     0
1002
}
1002
{
1000
REACTOR
1002
}
1001
GENIUS_GENOBJ-N-FIL_13
1002
{
1000
OWNER
1000
GEN
1002
}
  0
HATCH
  5
707
330
2
100
AcDbEntity
  8
AM_8
100
AcDbHatch
 10
0.0
 20
0.0
 30
0.0
210
0.0
220
0.0
230
1.0
  2
_U
 70
     0
 71
     0
 91
        1
 92
        1
 93
       28
 72
     2
 10
205.859552
 20
108.050672
 40
3.0
 50
270.0
 51
360.0
 73
     1
 72
     1
 10
208.859552
 20
108.050672
 11
208.859552
 21
116.400672
 72
     2
 10
209.859552
 20
116.400672
 40
1.0
 50
180.0
 51
270.0
 73
     0
 72
     1
 10
209.859552
 20
117.400672
 11
222.176571
 21
117.400672
 72
     2
 10
237.8873
 20
374.919012
 40
257.997137
 50
93.49118500000001
 51
96.67503700000001
 73
     0
 72
     2
 10
209.859552
 20
116.400672
 40
3.0
 50
130.826857
 51
180.0
 73
     1
 72
     1
 10
206.859552
 20
116.400672
 11
206.859552
 21
108.050672
 72
     2
 10
205.859552
 20
108.050672
 40
1.0
 50
360.0
 51
450.0
 73
     0
 72
     1
 10
205.859552
 20
107.050672
 11
202.591603
 21
107.050672
 72
     2
 10
202.591603
 20
106.050672
 40
1.0
 50
90.0
 51
150.0
 73
     1
 72
     2
 10
200.859552
 20
107.050672
 40
1.0
 50
30.0
 51
150.0
 73
     0
 72
     2
 10
199.127501
 20
106.050672
 40
1.0
 50
30.0
 51
90.0
 73
     1
 72
     1
 10
199.127501
 20
107.050672
 11
198.609552
 21
107.050672
 72
     2
 10
198.609552
 20
108.050672
 40
1.0
 50
90.0
 51
180.0
 73
     0
 72
     1
 10
197.609552
 20
108.050672
 11
197.609552
 21
111.850672
 72
     2
 10
199.859552
 20
111.850672
 40
2.25
 50
180.0
 51
270.0
 73
     0
 72
     1
 10
199.859552
 20
114.100672
 11
201.609552
 21
114.100672
 72
     1
 10
201.609552
 20
114.100672
 11
201.609552
 21
116.100672
 72
     1
 10
201.609552
 20
116.100672
 11
199.859552
 21
116.100672
 72
     2
 10
199.859552
 20
111.850672
 40
4.25
 50
90.0
 51
180.0
 73
     1
 72
     1
 10
195.609552
 20
111.850672
 11
195.609552
 21
108.050672
 72
     2
 10
198.609552
 20
108.050672
 40
3.0
 50
180.0
 51
260.29154
 73
     1
 72
     2
 10
197.766377
 20
103.122279
 40
2.0
 50
279.70846
 51
308.216518
 73
     0
 72
     2
 10
200.859552
 20
107.050672
 40
3.0
 50
231.783482
 51
269.32669
 73
     1
 72
     1
 10
200.824298
 20
104.050879
 11
200.894806
 21
104.050879
 72
     2
 10
200.859552
 20
107.050672
 40
3.0
 50
270.67331
 51
306.869898
 73
     1
 72
     2
 10
203.859552
 20
103.050672
 40
2.0
 50
233.130102
 51
270.0
 73
     0
 72
     1
 10
203.859552
 20
105.050672
 11
205.859552
 21
105.050672
 97
        0
 75
     0
 76
     0
 52
45.0
 41
2.5
 77
     0
 78
     1
 53
45.0
 43
32.266505
 44
-0.59563
 45
-1.767766952966368
 46
1.767766952966368
 79
     0
 98
        1
 10
32.266505
 20
-0.59563
1001
GENIUS_GENODEF_13
1002
{
1000
HIER
1070
     0
1002
}
1002
{
1000
MANEDIT
1070
     0
1002
}
1002
{
1000
NOSEL
1070
     0
1002
}
1002
{
1000
BEHIND
1070
     0
1002
}
1002
{
1000
REACTOR
1002
}
1001
GENIUS_GENOBJ-N-HTC_13
1002
{
1000
OWNER
1000
GEN
1002
}
1001
GENIUS_GENHATCH_13
1002
{
1000
DATA
1040
45.0
1042
2.5
1000
_U
1070
     0
1011
203.382052
1021
105.826309
1031
0.0
1002
}
1002
{
1000
UCS
1010
0.0
1020
0.0
1030
0.0
1010
1.0
1020
0.0
1030
0.0
1010
0.0
1020
1.0
1030
0.0
1002
}
  0
HATCH
  5
708
330
2
100
AcDbEntity
  8
AM_8
100
AcDbHatch
 10
0.0
 20
0.0
 30
0.0
210
0.0
220
0.0
230
1.0
  2
_U
 70
     0
 71
     0
 91
        1
 92
        1
 93
       27
 72
     1
 10
255.013414
 20
117.400672
 11
276.859552
 21
117.400672
 72
     2
 10
276.859552
 20
116.400672
 40
1.0
 50
270.0
 51
360.0
 73
     0
 72
     1
 10
277.859552
 20
116.400672
 11
277.859552
 21
108.050672
 72
     2
 10
280.859552
 20
108.050672
 40
3.0
 50
180.0
 51
270.0
 73
     1
 72
     1
 10
280.859552
 20
105.050672
 11
282.859552
 21
105.050672
 72
     2
 10
282.859552
 20
103.050672
 40
2.0
 50
270.0
 51
306.869898
 73
     0
 72
     2
 10
285.859552
 20
107.050672
 40
3.0
 50
233.130102
 51
308.216518
 73
     1
 72
     2
 10
288.952727
 20
103.122279
 40
2.0
 50
231.783482
 51
260.29154
 73
     0
 72
     2
 10
288.109552
 20
108.050672
 40
3.0
 50
279.70846
 51
360.0
 73
     1
 72
     1
 10
291.109552
 20
108.050672
 11
291.109552
 21
111.850672
 72
     2
 10
286.859552
 20
111.850672
 40
4.25
 50
0.0
 51
90.0
 73
     1
 72
     1
 10
286.859552
 20
116.100672
 11
285.109552
 21
116.100672
 72
     1
 10
285.109552
 20
116.100672
 11
285.109552
 21
114.100672
 72
     1
 10
285.109552
 20
114.100672
 11
286.859552
 21
114.100672
 72
     2
 10
286.859552
 20
111.850672
 40
2.25
 50
270.0
 51
360.0
 73
     0
 72
     1
 10
289.109552
 20
111.850672
 11
289.109552
 21
108.050672
 72
     2
 10
288.109552
 20
108.050672
 40
1.0
 50
360.0
 51
450.0
 73
     0
 72
     1
 10
288.109552
 20
107.050672
 11
287.5916029999999
 21
107.050672
 72
     2
 10
287.5916029999999
 20
106.050672
 40
1.0
 50
90.0
 51
150.0
 73
     1
 72
     2
 10
285.859552
 20
107.050672
 40
1.0
 50
30.0
 51
150.0
 73
     0
 72
     2
 10
284.127501
 20
106.050672
 40
1.0
 50
30.0
 51
90.0
 73
     1
 72
     1
 10
284.127501
 20
107.050672
 11
280.859552
 21
107.050672
 72
     2
 10
280.859552
 20
108.050672
 40
1.0
 50
90.0
 51
180.0
 73
     0
 72
     1
 10
279.859552
 20
108.050672
 11
279.859552
 21
116.400672
 72
     2
 10
276.859552
 20
116.400672
 40
3.0
 50
0.0
 51
90.0
 73
     1
 72
     1
 10
276.859552
 20
119.400672
 11
255.013414
 21
119.400672
 72
     1
 10
255.013414
 20
119.400672
 11
255.013414
 21
117.400672
 97
        0
 75
     0
 76
     0
 52
45.0
 41
2.5
 77
     0
 78
     1
 53
45.0
 43
102.413292
 44
54.955342
 45
-1.767766952966368
 46
1.767766952966368
 79
     0
 98
        1
 10
102.413292
 20
54.955342
1001
GENIUS_GENODEF_13
1002
{
1000
HIER
1070
     0
1002
}
1002
{
1000
MANEDIT
1070
     0
1002
}
1002
{
1000
NOSEL
1070
     0
1002
}
1002
{
1000
BEHIND
1070
     0
1002
}
1002
{
1000
REACTOR
1002
}
1001
GENIUS_GENOBJ-N-HTC_13
1002
{
1000
OWNER
1000
GEN
1002
}
1001
GENIUS_GENHATCH_13
1002
{
1000
DATA
1040
45.0
1042
2.5
1000
_U
1070
     0
1011
272.045918
1021
118.461797
1031
0.0
1002
}
1002
{
1000
UCS
1010
0.0
1020
0.0
1030
0.0
1010
1.0
1020
0.0
1030
0.0
1010
0.0
1020
1.0
1030
0.0
1002
}
  0
LINE
  5
709
330
2
100
AcDbEntity
  8
AM_0
100
AcDbLine
 10
186.559552
 20
187.590648
 30
0.0
 11
188.907703
 21
212.203536
 31
0.0
  0
LINE
  5
70A
330
2
100
AcDbEntity
  8
AM_0
100
AcDbLine
 10
188.359552
 20
187.50498
 30
0.0
 11
190.754358
 21
212.606899
 31
0.0
  0
ARC
  5
70B
330
2
100
AcDbEntity
  8
AM_0
100
AcDbCircle
 10
162.209552
 20
156.283073
 30
0.0
 40
21.85
100
AcDbArc
 50
180.0
 51
244.042632
1001
GENIUS_GENODEF_13
1002
{
1000
HIER
1070
     0
1002
}
1002
{
1000
MANEDIT
1070
     0
1002
}
1002
{
1000
NOSEL
1070
     0
1002
}
1002
{
1000
BEHIND
1070
     0
1002
}
1002
{
1000
REACTOR
1002
}
1001
GENIUS_GENOBJ-N-FIL_13
1002
{
1000
OWNER
1000
GEN
1002
}
  0
ARC
  5
70C
330
2
100
AcDbEntity
  8
AM_0
100
AcDbCircle
 10
162.209552
 20
156.283073
 30
0.0
 40
20.6
100
AcDbArc
 50
180.0
 51
244.042632
1001
GENIUS_GENODEF_13
1002
{
1000
HIER
1070
     0
1002
}
1002
{
1000
MANEDIT
1070
     0
1002
}
1002
{
1000
NOSEL
1070
     0
1002
}
1002
{
1000
BEHIND
1070
     0
1002
}
1002
{
1000
REACTOR
1002
}
1001
GENIUS_GENOBJ-N-FIL_13
1002
{
1000
OWNER
1000
GEN
1002
}
  0
LINE
  5
70D
330
2
100
AcDbEntity
  8
AM_0
 62
     7
100
AcDbLine
 10
141.609552
 20
204.601194
 30
0.0
 11
141.609552
 21
156.283073
 31
0.0
  0
LINE
  5
70E
330
2
100
AcDbEntity
  8
AM_0
100
AcDbLine
 10
186.559552
 20
187.590648
 30
0.0
 11
186.559552
 21
145.872022
 31
0.0
  0
LINE
  5
70F
330
2
100
AcDbEntity
  8
AM_0
100
AcDbLine
 10
188.359552
 20
187.50498
 30
0.0
 11
188.359552
 21
147.190553
 31
0.0
  0
ARC
  5
710
330
2
100
AcDbEntity
  8
AM_0
100
AcDbCircle
 10
243.359552
 20
322.979916
 30
0.0
 40
207.25
100
AcDbArc
 50
244.042632
 51
258.434959
  0
ARC
  5
711
330
2
100
AcDbEntity
  8
AM_0
100
AcDbCircle
 10
243.359552
 20
322.979916
 30
0.0
 40
206.0
100
AcDbArc
 50
244.042632
 51
258.378888
  0
ARC
  5
712
330
2
100
AcDbEntity
  8
AM_0
100
AcDbCircle
 10
213.359552
 20
147.190553
 30
0.0
 40
25.0
100
AcDbArc
 50
180.0
 51
250.896676
1001
GENIUS_GENODEF_13
1002
{
1000
HIER
1070
     0
1002
}
1002
{
1000
MANEDIT
1070
     0
1002
}
1002
{
1000
NOSEL
1070
     0
1002
}
1002
{
1000
BEHIND
1070
     0
1002
}
1002
{
1000
REACTOR
1002
}
1001
GENIUS_GENOBJ-N-FIL_13
1002
{
1000
OWNER
1000
GEN
1002
}
  0
ARC
  5
713
330
2
100
AcDbEntity
  8
AM_0
100
AcDbCircle
 10
216.539404
 20
146.971341
 30
0.0
 40
30.0
100
AcDbArc
 50
182.100016
 51
238.397024
1001
GENIUS_GENODEF_13
1002
{
1000
HIER
1070
     0
1002
}
1002
{
1000
MANEDIT
1070
     0
1002
}
1002
{
1000
NOSEL
1070
     0
1002
}
1002
{
1000
BEHIND
1070
     0
1002
}
1002
{
1000
REACTOR
1002
}
1001
GENIUS_GENOBJ-N-FIL_13
1002
{
1000
OWNER
1000
GEN
1002
}
  0
HATCH
  5
714
330
2
100
AcDbEntity
  8
AM_8
100
AcDbHatch
 10
0.0
 20
0.0
 30
0.0
210
0.0
220
0.0
230
1.0
  2
ANSI37
 70
     0
 71
     0
 91
        1
 92
        5
 93
       23
 72
     1
 10
206.859552
 20
116.400672
 11
206.859552
 21
121.20498
 72
     2
 10
204.359552
 20
121.20498
 40
2.5
 50
0.0
 51
70.896676
 73
     1
 72
     2
 10
213.359552
 20
147.190553
 40
25.0
 50
109.103324
 51
180.0
 73
     0
 72
     1
 10
188.359552
 20
147.190553
 11
188.359552
 21
187.50498
 72
     1
 10
188.359552
 20
187.50498
 11
190.754358
 21
212.606899
 72
     4
 94
        3
 73
     0
 74
     0
 95
        8
 96
        4
 40
278.352936
 40
278.352936
 40
278.352936
 40
278.352936
 40
280.166866
 40
280.166866
 40
280.166866
 40
280.166866
 10
190.754358
 20
212.606899
 10
190.136606
 20
212.473155
 10
189.521102
 20
212.338623
 10
188.907703
 20
212.203536
 72
     1
 10
188.907703
 20
212.203536
 11
186.559552
 21
187.590648
 72
     1
 10
186.559552
 20
187.590648
 11
186.559552
 21
145.872022
 72
     2
 10
216.539404
 20
146.971341
 40
30.0
 50
182.100016
 51
238.397024
 73
     1
 72
     2
 10
243.359552
 20
322.979916
 40
206.0
 50
258.0820950000001
 51
258.378888
 73
     1
 72
     2
 10
201.359552
 20
118.753939
 40
2.5
 50
281.6211120000001
 51
360.0
 73
     0
 72
     1
 10
203.859552
 20
118.753939
 11
203.859552
 21
115.100672
 72
     2
 10
201.609552
 20
115.100672
 40
2.25
 50
0.0
 51
90.0
 73
     0
 72
     1
 10
201.609552
 20
112.850672
 11
199.859552
 21
112.850672
 72
     2
 10
199.859552
 20
111.850672
 40
1.0
 50
90.0
 51
180.0
 73
     1
 72
     1
 10
198.859552
 20
111.850672
 11
198.859552
 21
107.050672
 72
     1
 10
198.859552
 20
107.050672
 11
199.127501
 21
107.050672
 72
     2
 10
199.127501
 20
106.050672
 40
1.0
 50
270.0
 51
330.0
 73
     0
 72
     2
 10
200.859552
 20
107.050672
 40
1.0
 50
210.0
 51
330.0
 73
     1
 72
     2
 10
202.591603
 20
106.050672
 40
1.0
 50
210.0
 51
270.0
 73
     0
 72
     1
 10
202.591603
 20
107.050672
 11
205.859552
 21
107.050672
 72
     2
 10
205.859552
 20
108.050672
 40
1.0
 50
270.0
 51
360.0
 73
     1
 72
     1
 10
206.859552
 20
108.050672
 11
206.859552
 21
116.400672
 97
        0
 75
     0
 76
     1
 52
0.0
 41
1.0
 77
     0
 78
     2
 53
45.0
 43
80.37964200000001
 44
26.195812
 45
-2.245064030267287
 46
2.245064030267287
 79
     0
 53
135.0
 43
80.37964200000001
 44
26.195812
 45
-2.245064030267287
 46
-2.245064030267287
 79
     0
 47
0.166942
 98
        1
 10
203.521091
 20
112.893213
  0
HATCH
  5
715
330
2
100
AcDbEntity
  8
AM_8
100
AcDbHatch
 10
0.0
 20
0.0
 30
0.0
210
0.0
220
0.0
230
1.0
  2
ANSI31
 70
     0
 71
     0
 91
        1
 92
        5
 93
       22
 72
     4
 94
        3
 73
     0
 74
     0
 95
        8
 96
        4
 40
328.561327
 40
328.561327
 40
328.561327
 40
328.561327
 40
329.813938
 40
329.813938
 40
329.813938
 40
329.813938
 10
141.609552
 20
204.601194
 10
141.193705
 20
204.601227
 10
140.777053
 20
204.603939
 10
140.359552
 20
204.609408
 72
     1
 10
140.359552
 20
204.609408
 11
140.359552
 21
156.283073
 72
     2
 10
162.209552
 20
156.283073
 40
21.85
 50
180.0
 51
244.042632
 73
     1
 72
     2
 10
243.359552
 20
322.979916
 40
207.25
 50
244.042632
 51
258.434959
 73
     1
 72
     2
 10
201.609552
 20
118.957859
 40
1.0
 50
281.565041
 51
360.0
 73
     0
 72
     1
 10
202.609552
 20
118.957859
 11
202.609552
 21
115.100672
 72
     2
 10
201.609552
 20
115.100672
 40
1.0
 50
0.0
 51
90.0
 73
     0
 72
     1
 10
201.609552
 20
114.100672
 11
199.859552
 21
114.100672
 72
     2
 10
199.859552
 20
111.850672
 40
2.25
 50
90.0
 51
180.0
 73
     1
 72
     1
 10
197.609552
 20
111.850672
 11
197.609552
 21
108.050672
 72
     2
 10
197.809552
 20
108.050672
 40
0.2
 50
180.0
 51
270.0
 73
     1
 72
     1
 10
197.809552
 20
107.850672
 11
198.859552
 21
107.850672
 72
     1
 10
198.859552
 20
107.850672
 11
198.859552
 21
111.850672
 72
     2
 10
199.859552
 20
111.850672
 40
1.0
 50
180.0
 51
270.0
 73
     0
 72
     1
 10
199.859552
 20
112.850672
 11
201.609552
 21
112.850672
 72
     2
 10
201.609552
 20
115.100672
 40
2.25
 50
270.0
 51
360.0
 73
     1
 72
     1
 10
203.859552
 20
115.100672
 11
203.859552
 21
118.260612
 72
     1
 10
203.859552
 20
118.260612
 11
203.859552
 21
118.753939
 72
     2
 10
201.359552
 20
118.753939
 40
2.5
 50
0.0
 51
78.378888
 73
     1
 72
     2
 10
243.359552
 20
322.979916
 40
206.0
 50
101.621112
 51
115.957368
 73
     0
 72
     2
 10
162.209552
 20
156.283073
 40
20.6
 50
115.957368
 51
180.0
 73
     0
 72
     1
 10
141.609552
 20
156.283073
 11
141.609552
 21
204.601194
 97
        0
 75
     0
 76
     1
 52
0.0
 41
1.0
 77
     0
 78
     1
 53
45.0
 43
80.37964200000001
 44
26.195812
 45
-2.245064030267287
 46
2.245064030267287
 79
     0
 47
0.132592
 98
        1
 10
141.155301
 20
167.492586
  0
LINE
  5
717
330
2
100
AcDbEntity
  8
AM_0
 62
     7
100
AcDbLine
 10
345.109552
 20
244.905192
 30
0.0
 11
345.109552
 21
156.283073
 31
0.0
  0
LINE
  5
718
330
2
100
AcDbEntity
  8
AM_0
 62
     7
100
AcDbLine
 10
346.359552
 20
245.020202
 30
0.0
 11
346.359552
 21
156.283073
 31
0.0
  0
LINE
  5
719
330
2
100
AcDbEntity
  8
AM_7
100
AcDbLine
 10
243.359552
 20
402.4263829999999
 30
0.0
 11
243.359552
 21
62.013309
 31
0.0
  0
LINE
  5
71A
330
2
100
AcDbEntity
  8
AM_0
 62
     7
100
AcDbLine
 10
140.359552
 20
245.020202
 30
0.0
 11
140.359552
 21
156.283073
 31
0.0
  0
SPLINE
  5
71B
330
2
100
AcDbEntity
  8
AM_4
100
AcDbSpline
210
0.0
220
0.0
230
1.0
 70
     8
 71
     3
 72
    12
 73
     8
 74
     6
 42
0.0000000001
 43
0.0000000001
 44
0.0000000001
 12
0.8202026674070001
 22
-0.5720730586021701
 32
0.0
 13
-0.9999142106048644
 23
0.0130985277970892
 33
0.0
 40
0.0
 40
0.0
 40
0.0
 40
0.0
 40
105.7001756181734
 40
146.6970534525443
 40
186.6229347362088
 40
270.9632367304786
 40
329.8139381205964
 40
329.8139381205964
 40
329.8139381205964
 40
329.8139381205964
 10
172.9933707595713
 20
359.8620115162793
 30
0.0
 10
201.891892755376
 20
339.705937262721
 30
0.0
 10
270.2129283989761
 20
349.6792339733472
 30
0.0
 10
286.8166860075618
 20
283.592108658429
 30
0.0
 10
280.8458605226846
 20
222.8765936195091
 30
0.0
 10
203.1343108090267
 20
218.5320607550631
 30
0.0
 10
159.9747696039818
 20
204.3524556771369
 30
0.0
 10
140.3595520626344
 20
204.6094081931491
 30
0.0
 11
172.9933707595713
 21
359.8620115162793
 31
0.0
 11
271.6529290596194
 21
321.930248022446
 31
0.0
 11
284.3137043022146
 21
282.9373158113027
 31
0.0
 11
277.4700425625336
 21
243.6023404042925
 31
0.0
 11
198.425739081052
 21
214.1866196480018
 31
0.0
 11
140.3595520626344
 21
204.6094081931491
 31
0.0
  0
LINE
  5
71C
330
2
100
AcDbEntity
  8
AM_0
100
AcDbLine
 10
300.159552
 20
187.590648
 30
0.0
 11
292.536261
 21
267.4966
 31
0.0
  0
LINE
  5
71D
330
2
100
AcDbEntity
  8
AM_0
100
AcDbLine
 10
298.359552
 20
187.50498
 30
0.0
 11
290.744397
 21
267.32565
 31
0.0
  0
HATCH
  5
71E
330
2
100
AcDbEntity
  8
AM_8
100
AcDbHatch
 10
0.0
 20
0.0
 30
0.0
210
0.0
220
0.0
230
1.0
  2
_U
 70
     0
 71
     0
 91
        1
 92
        1
 93
       22
 72
     2
 10
285.359552
 20
118.753939
 40
2.5
 50
180.0
 51
258.378888
 73
     0
 72
     2
 10
243.359552
 20
322.979916
 40
206.0
 50
281.6211120000001
 51
281.917905
 73
     1
 72
     2
 10
270.1797009999999
 20
146.971341
 40
30.0
 50
301.6029759999999
 51
357.899984
 73
     1
 72
     1
 10
300.159552
 20
145.872022
 11
300.159552
 21
187.590648
 72
     1
 10
300.159552
 20
187.590648
 11
294.362616
 21
248.353074
 72
     1
 10
294.362616
 20
248.353074
 11
292.554443
 21
248.353074
 72
     1
 10
292.554443
 20
248.353074
 11
298.359552
 21
187.50498
 72
     1
 10
298.359552
 20
187.50498
 11
298.359552
 21
147.190553
 72
     2
 10
273.359552
 20
147.190553
 40
25.0
 50
0.0
 51
70.896676
 73
     0
 72
     2
 10
282.359552
 20
121.20498
 40
2.5
 50
109.103324
 51
180.0
 73
     1
 72
     1
 10
279.859552
 20
121.20498
 11
279.859552
 21
108.050672
 72
     2
 10
280.859552
 20
108.050672
 40
1.0
 50
180.0
 51
270.0
 73
     1
 72
     1
 10
280.859552
 20
107.050672
 11
284.127501
 21
107.050672
 72
     2
 10
284.127501
 20
106.050672
 40
1.0
 50
270.0
 51
330.0
 73
     0
 72
     2
 10
285.859552
 20
107.050672
 40
1.0
 50
210.0
 51
330.0
 73
     1
 72
     2
 10
287.5916029999999
 20
106.050672
 40
1.0
 50
210.0
 51
270.0
 73
     0
 72
     1
 10
287.5916029999999
 20
107.050672
 11
287.859552
 21
107.050672
 72
     1
 10
287.859552
 20
107.050672
 11
287.859552
 21
111.850672
 72
     2
 10
286.859552
 20
111.850672
 40
1.0
 50
0.0
 51
90.0
 73
     1
 72
     1
 10
286.859552
 20
112.850672
 11
285.109552
 21
112.850672
 72
     2
 10
285.109552
 20
115.100672
 40
2.25
 50
90.0
 51
180.0
 73
     0
 72
     1
 10
282.859552
 20
115.100672
 11
282.859552
 21
118.753939
 97
        0
 75
     0
 76
     0
 52
45.0
 41
2.299999999999999
 77
     1
 78
     2
 53
45.0
 43
80.37964200000001
 44
26.195812
 45
-1.626345596729059
 46
1.626345596729059
 79
     0
 53
135.0
 43
80.37964200000001
 44
26.195812
 45
-1.626345596729059
 46
-1.626345596729058
 79
     0
 98
        1
 10
80.37964200000001
 20
26.195812
1001
GENIUS_GENODEF_13
1002
{
1000
HIER
1070
     0
1002
}
1002
{
1000
MANEDIT
1070
     0
1002
}
1002
{
1000
NOSEL
1070
     0
1002
}
1002
{
1000
BEHIND
1070
     0
1002
}
1002
{
1000
REACTOR
1002
}
1001
GENIUS_GENOBJ-N-HTC_13
1002
{
1000
OWNER
1000
GEN
1002
}
1001
GENIUS_GENHATCH_13
1002
{
1000
DATA
1040
45.0
1042
2.299999999999999
1000
_U
1070
     1
1011
284.815404
1021
110.39012
1031
0.0
1002
}
1002
{
1000
UCS
1010
0.0
1020
0.0
1030
0.0
1010
1.0
1020
0.0
1030
0.0
1010
0.0
1020
1.0
1030
0.0
1002
}
  0
HATCH
  5
71F
330
2
100
AcDbEntity
  8
AM_8
100
AcDbHatch
 10
0.0
 20
0.0
 30
0.0
210
0.0
220
0.0
230
1.0
  2
ANSI31
 70
     0
 71
     0
 91
        4
 92
        7
 72
     1
 73
     1
 93
        4
 10
345.1095520626343
 20
164.9265937401469
 42
0.0
 10
346.3595520626344
 20
164.3103211426159
 42
0.0
 10
346.3595520626344
 20
232.5674944723441
 42
-0.031041773610071
 10
345.1095520626343
 20
232.5055333313362
 42
0.0
 97
        0
 92
        7
 72
     1
 73
     1
 93
        6
 10
345.1095520626343
 20
232.5055333313362
 42
0.0310417736100696
 10
346.3595520626344
 20
232.5674944723441
 42
0.0
 10
346.3595520626344
 20
245.02020216654
 42
0.0
 10
345.1161877081125
 20
245.02020216654
 42
0.0288242005644912
 10
345.1095520626343
 20
244.9051923445017
 42
0.0
 10
345.1095520626343
 20
238.1731415369331
 42
0.0
 97
        0
 92
        7
 72
     1
 73
     1
 93
        8
 10
333.5262187293009
 20
137.7612018372456
 42
-0.0022229060850088
 10
331.8757836145358
 20
136.9668073084203
 42
0.0
 10
333.1718885841687
 20
136.2011523217011
 42
0.0012079938501333
 10
334.0733465610171
 20
136.6373018702724
 42
0.2869467072285014
 10
346.3595520626344
 20
156.2830732929655
 42
0.0
 10
346.3595520626344
 20
164.3103211426159
 42
0.0
 10
345.1095520626343
 20
164.9265937401469
 42
0.0
 10
345.1095520626343
 20
156.2830732929655
 42
-0.2869467072285147
 97
        0
 92
        7
 72
     1
 73
     1
 93
       17
 10
333.1718885841687
 20
136.2011523217011
 42
0.0
 10
331.8757836145363
 20
136.9668073084203
 42
-0.0604041221220349
 10
284.855954940332
 20
121.202691346099
 42
0.3559801892879712
 10
282.8595520626344
 20
118.7539386149296
 42
0.0
 10
282.8595520626344
 20
115.1006717082586
 42
0.4142135623730859
 10
285.1095520626344
 20
112.8506717082586
 42
0.0
 10
286.8595520626344
 20
112.8506717082586
 42
-0.4142135623730951
 10
287.8595520626344
 20
111.8506717082586
 42
0.0
 10
287.8595520626344
 20
107.8506717082586
 42
0.0
 10
288.9095520626345
 20
107.8506717082586
 42
0.4142135623731575
 10
289.1095520626344
 20
108.0506717082589
 42
0.0
 10
289.1095520626344
 20
111.8506717082586
 42
0.4142135623730951
 10
286.8595520626344
 20
114.1006717082586
 42
0.0
 10
285.1095520626344
 20
114.1006717082586
 42
-0.4142135623730869
 10
284.1095520626343
 20
115.1006717082586
 42
0.0
 10
284.1095520626343
 20
118.9578587634155
 42
-0.3562558717876471
 10
284.9090718705578
 20
119.9375565191467
 42
0.0616683791608881
 97
        0
 75
     0
 76
     1
 52
0.0
 41
1.0
 77
     0
 78
     1
 53
45.0
 43
80.37964200000001
 44
26.195812
 45
-2.245064030267287
 46
2.245064030267287
 79
     0
 47
0.197059
 98
        4
 10
345.471294
 20
207.341752
 10
345.668437
 20
235.718303
 10
343.696997
 20
147.829822
 10
323.982586
 20
133.247429
  0
TEXT
  5
100F
330
2
100
AcDbEntity
  8
0
100
AcDbText
 10
375.577367
 20
30.457019
 30
0.0
 40
10.0
  1
10 bar - 70°C
 72
     1
 11
414.5773669999999
 21
27.457019
 31
0.0
100
AcDbText
 73
     1
  0
TEXT
  5
1251
330
2
100
AcDbEntity
  8
0
100
AcDbText
 10
369.577367
 20
49.457019
 30
0.0
 40
10.0
  1
Typ refix DD 8l
 72
     1
 11
414.5773669999999
 21
46.457019
 31
0.0
100
AcDbText
 73
     1
  0
TEXT
  5
1252
330
2
100
AcDbEntity
  8
0
100
AcDbText
 10
341.39703691411
 20
68.45701899999999
 30
0.0
 40
10.0
  1
Druckausdehnungsgefäß
 72
     1
 11
414.5773669999999
 21
65.45701899999999
 31
0.0
100
AcDbText
 73
     1
  0
LINE
  5
1253
330
2
100
AcDbEntity
  8
AM_4
100
AcDbLine
 10
541.0109269999999
 20
70.85371399999999
 30
0.0
 11
541.4147169999999
 21
70.39993100000001
 31
0.0
  0
LINE
  5
1254
330
2
100
AcDbEntity
  8
AM_4
100
AcDbLine
 10
541.3877969999999
 20
64.05081199999999
 30
0.0
 11
540.7994169999999
 21
63.781618
 31
0.0
  0
LINE
  5
1255
330
2
100
AcDbEntity
  8
AM_4
100
AcDbLine
 10
542.0069419999999
 20
69.323157
 30
0.0
 11
537.9998059999999
 21
65.827488
 31
0.0
  0
LINE
  5
1256
330
2
100
AcDbEntity
  8
AM_4
100
AcDbLine
 10
540.984007
 20
66.39279399999999
 30
0.0
 11
541.5762329999999
 21
66.796584
 31
0.0
  0
HATCH
  5
1257
330
2
100
AcDbEntity
  8
AM_4
100
AcDbHatch
 10
0.0
 20
0.0
 30
0.0
210
0.0
220
0.0
230
1.0
  2
SOLID
 70
     1
 71
     0
 91
       13
 92
        7
 72
     0
 73
     1
 93
        4
 10
508.0853965064368
 20
76.0226020855014
 10
507.8812828156618
 20
76.0226020855014
 10
507.8812828156618
 20
61.76718359497653
 10
508.0853965064375
 20
61.76718359497653
 97
        0
 92
        7
 72
     0
 73
     1
 93
        4
 10
553.2477692175466
 20
60.35909494556992
 10
509.5141923418646
 20
60.35909494556992
 10
509.5141923418646
 20
60.15498125479481
 10
553.2477692175477
 20
60.15498125479481
 97
        0
 92
        7
 72
     0
 73
     1
 93
        4
 10
553.2477692175477
 20
77.65551161170384
 10
509.5141923418646
 20
77.65551161170384
 10
509.5141923418646
 20
77.45139792092849
 10
553.2477692175477
 20
77.45139792092849
 97
        0
 92
        7
 72
     0
 73
     1
 93
        4
 10
555.0847924345251
 20
76.0226020855014
 10
554.8806787437497
 20
76.0226020855014
 10
554.8806787437497
 20
61.76718359497653
 10
555.0847924345251
 20
61.76718359497653
 97
        0
 92
        7
 72
     0
 73
     1
 93
       42
 10
508.8959349306758
 20
77.53126849557967
 10
509.1858355349652
 20
77.61409723966234
 10
509.5141923418646
 20
77.65551161170384
 10
509.5141923418646
 20
77.85962530247893
 10
509.4224890894868
 20
77.85666713304768
 10
509.3307858371115
 20
77.84779262475307
 10
509.2390825847322
 20
77.83595994702669
 10
509.1473793323556
 20
77.82116909986901
 10
509.0586342494098
 20
77.8004619138488
 10
508.9728473358952
 20
77.77383838896525
 10
508.8870604223783
 20
77.74425669464881
 10
508.8042316782971
 20
77.71171683090277
 10
508.7243611036466
 20
77.67621879772351
 10
508.6444905289958
 20
77.63480442568365
 10
508.5675781237748
 20
77.59043188421087
 10
508.4936238879978
 20
77.540143003874
 10
508.4226278216297
 20
77.48985412353926
 10
508.3516317552781
 20
77.43364890433794
 10
508.2835938583502
 20
77.37744368514038
 10
508.2214723002864
 20
77.31532212707733
 10
508.1593507422253
 20
77.25024239958248
 10
508.1031455230281
 20
77.1851626720925
 10
508.0469403038272
 20
77.11416660573622
 10
507.9966514234913
 20
77.04317053937505
 10
507.9463625431542
 20
76.96921630358827
 10
507.9019900016821
 20
76.8923038983673
 10
507.8605756296411
 20
76.81243332371909
 10
507.8250775964638
 20
76.73256274907116
 10
507.792537732716
 20
76.64973400498792
 10
507.7629560383988
 20
76.56394709146744
 10
507.7363325135166
 20
76.47816017795455
 10
507.715625327497
 20
76.3894150950112
 10
507.7008344803394
 20
76.29771184263228
 10
507.6890018026128
 20
76.20600859025387
 10
507.6801272943185
 20
76.11430533787927
 10
507.6771691248866
 20
76.0226020855014
 10
507.8812828156618
 20
76.0226020855014
 10
507.9226971877027
 20
76.35095889240017
 10
508.0262331178055
 20
76.66156668271027
 10
508.1711834199517
 20
76.93076010098048
 10
508.3782552801593
 20
77.1792463332278
 10
508.6060343263851
 20
77.36561100741451
 97
        0
 92
        7
 72
     0
 73
     1
 93
       42
 10
508.9639728276011
 20
77.33898748253068
 10
509.0290525550939
 20
77.36265283798267
 10
509.0941322825893
 20
77.38631819343499
 10
509.1621701795125
 20
77.40702537945519
 10
509.2302080764381
 20
77.42181622661231
 10
509.301204142795
 20
77.43660707377109
 10
509.3722002091516
 20
77.44548158206541
 10
509.4431962755076
 20
77.45139792092849
 10
509.5141923418646
 20
77.45139792092849
 10
509.5141923418646
 20
77.65551161170384
 10
509.1858355349652
 20
77.61409723966234
 10
508.8959349306747
 20
77.53126849557938
 10
508.6060343263863
 20
77.36561100741397
 10
508.3782552801583
 20
77.17924633322727
 10
508.1711834199517
 20
76.93076010097939
 10
508.0262331178072
 20
76.66156668271108
 10
507.9226971877027
 20
76.3509588923999
 10
507.8812828156618
 20
76.0226020855014
 10
508.0853965064375
 20
76.02260208550116
 10
508.0853965064375
 20
76.09359815185904
 10
508.0913128453008
 20
76.1645942182151
 10
508.1001873535951
 20
76.23559028457058
 10
508.1149782007488
 20
76.30658635093553
 10
508.1297690479108
 20
76.37462424785327
 10
508.150476233935
 20
76.4397039753538
 10
508.1711834199517
 20
76.50774187227153
 10
508.1978069448373
 20
76.57282159976503
 10
508.2273886391521
 20
76.63494315782537
 10
508.2599285028958
 20
76.69706471588843
 10
508.2954265360752
 20
76.75622810451965
 10
508.3309245692537
 20
76.81539149315034
 10
508.3723389412988
 20
76.87159671235519
 10
508.4137533133371
 20
76.92484376211959
 10
508.4610840242401
 20
76.97809081188234
 10
508.5084147351458
 20
77.02837969222006
 10
508.558703615482
 20
77.07571040312355
 10
508.6119506652494
 20
77.12008294459764
 10
508.6651977150165
 20
77.1644554860704
 10
508.7214029342158
 20
77.20586985811188
 10
508.780566322846
 20
77.24136789129004
 10
508.839729711475
 20
77.27686592446847
 10
508.9018512695387
 20
77.30940578821535
 97
        0
 92
        7
 72
     0
 73
     1
 93
        4
 10
553.2477692175477
 20
60.15498125479481
 10
509.5141923418646
 20
60.15498125479481
 10
509.5141923418646
 20
59.9508675640197
 10
553.2477692175477
 20
59.9508675640197
 97
        0
 92
       22
 72
     0
 73
     1
 93
       42
 10
554.6114853254812
 20
60.85902557949771
 10
554.7564356276256
 20
61.14892618378735
 10
554.8599715577291
 20
61.43882678807722
 10
554.8806787437497
 20
61.76718359497653
 10
554.6765650529744
 20
61.76718359497653
 10
554.6765650529744
 20
61.69618752861913
 10
554.6706487141114
 20
61.62519146226149
 10
554.6617742058177
 20
61.5541953959052
 10
554.6499415280916
 20
61.48319932954996
 10
554.632192511498
 20
61.41516143260897
 10
554.6144434949126
 20
61.35008170513145
 10
554.5907781394598
 20
61.28500197763793
 10
554.5671127840103
 20
61.21992225014604
 10
554.5375310896921
 20
61.15780069208221
 10
554.5079493953773
 20
61.09567913401996
 10
554.4724513621998
 20
61.0394739148181
 10
554.4369533290216
 20
60.98031052619091
 10
554.3955389569799
 20
60.9270634764203
 10
554.3541245849386
 20
60.87085825722306
 10
554.3097520434671
 20
60.82056937689021
 10
554.2624213325583
 20
60.7732386659832
 10
554.212132452228
 20
60.72590795507972
 10
554.1618435718898
 20
60.6815354136059
 10
554.1056383526896
 20
60.64012104156495
 10
554.04943313349
 20
60.59870666952264
 10
553.9932279142865
 20
60.56320863634393
 10
553.9340645256621
 20
60.52771060316661
 10
553.8719429676
 20
60.49812890884989
 10
553.8068632401055
 20
60.46854721453701
 10
553.7417835126125
 20
60.44488185908442
 10
553.6767037851193
 20
60.42121650363217
 10
553.6086658881917
 20
60.40346748704241
 10
553.5376698218372
 20
60.38867663988529
 10
553.4666737554799
 20
60.37388579272789
 10
553.395677689124
 20
60.36501128443328
 10
553.3217234533363
 20
60.35909494556992
 10
553.2477692175477
 20
60.35909494556992
 10
553.2477692175477
 20
60.15498125479481
 10
553.5761260244471
 20
60.17568844081559
 10
553.8867338147577
 20
60.27922437091902
 10
554.1559272330256
 20
60.424174673064
 10
554.4044134652753
 20
60.63124653327141
 97
        0
 92
        7
 72
     0
 73
     1
 93
       42
 10
554.6647323752488
 20
60.61349751668139
 10
554.7209375944488
 20
60.68153541360723
 10
554.7712264747843
 20
60.75253147996193
 10
554.8185571856886
 20
60.82648571575138
 10
554.8629297271576
 20
60.9033981209667
 10
554.9043440992025
 20
60.980310526192
 10
554.9398421323822
 20
61.06018110084047
 10
554.9723819961289
 20
61.14300984492428
 10
555.0019636904425
 20
61.22879675844121
 10
555.0256290458936
 20
61.3145836719487
 10
555.0463362319161
 20
61.40332875490071
 10
555.0640852485043
 20
61.4920738378446
 10
555.072959756799
 20
61.5837770902219
 10
555.081834265094
 20
61.67548034260085
 10
555.0847924345251
 20
61.76718359497653
 10
554.8806787437497
 20
61.76718359497653
 10
554.8599715577291
 20
61.4388267880775
 10
554.7564356276256
 20
61.14892618378707
 10
554.6114853254805
 20
60.859025579498
 10
554.4044134652734
 20
60.6312465332698
 10
554.1559272330256
 20
60.42417467306342
 10
553.8867338147564
 20
60.27922437091877
 10
553.5761260244471
 20
60.17568844081559
 10
553.2477692175477
 20
60.15498125479481
 10
553.2477692175477
 20
59.9508675640197
 10
553.3394724699248
 20
59.953825733451
 10
553.4341338917332
 20
59.96270024174561
 10
553.528795313543
 20
59.97157475004019
 10
553.6175403964883
 20
59.98932376662914
 10
553.7062854794326
 20
60.00707278321836
 10
553.7950305623808
 20
60.03369630810272
 10
553.8808174758847
 20
60.06327800241697
 10
553.9636462199771
 20
60.09285969673261
 10
554.0464749640563
 20
60.13131589934094
 10
554.1233873692825
 20
60.16977210195358
 10
554.2002997744978
 20
60.21414464342581
 10
554.2772121797196
 20
60.26147535432901
 10
554.3482082460733
 20
60.31176423466511
 10
554.4192043124303
 20
60.36501128443299
 10
554.4842840399256
 20
60.42417467306371
 10
554.5493637674183
 20
60.48333806169496
 10
554.6085271560507
 20
60.54545961975661
 97
        0
 92
        7
 72
     0
 73
     1
 93
       42
 10
554.4044134652734
 20
77.17924633322809
 10
554.1559272330263
 20
77.36561100741368
 10
553.8867338147564
 20
77.53126849557967
 10
553.5761260244471
 20
77.61409723966234
 10
553.2477692175466
 20
77.65551161170384
 10
553.2477692175477
 20
77.45139792092849
 10
553.3217234533355
 20
77.45139792092849
 10
553.3956776891245
 20
77.44548158206541
 10
553.4666737554799
 20
77.43364890433902
 10
553.5376698218372
 20
77.42181622661314
 10
553.605707718762
 20
77.40702537945544
 10
553.6737456156871
 20
77.38631819343471
 10
553.7417835126128
 20
77.36265283798243
 10
553.8068632401055
 20
77.33898748253068
 10
553.8689847981689
 20
77.30940578821535
 10
553.9311063562286
 20
77.276865924469
 10
553.9902697448614
 20
77.24136789129004
 10
554.0494331334915
 20
77.20586985811134
 10
554.1056383526881
 20
77.16445548607096
 10
554.1588854024585
 20
77.12304111402864
 10
554.2121324522225
 20
77.07571040312463
 10
554.2624213325616
 20
77.0283796922198
 10
554.306793874033
 20
76.97809081188616
 10
554.3541245849374
 20
76.9278019315484
 10
554.3955389569807
 20
76.87159671234979
 10
554.43399515959
 20
76.81539149315034
 10
554.4724513621989
 20
76.75918627395145
 10
554.5049912259453
 20
76.6970647158887
 10
554.5375310896938
 20
76.63790132725745
 10
554.567112784009
 20
76.5728215997634
 10
554.5907781394598
 20
76.50774187227153
 10
554.6144434949126
 20
76.44266214477585
 10
554.6321925115019
 20
76.37462424785272
 10
554.6499415280916
 20
76.30658635092714
 10
554.6617742058152
 20
76.23559028457545
 10
554.6706487141114
 20
76.16755238764932
 10
554.6765650529744
 20
76.09359815185796
 10
554.6765650529744
 20
76.0226020855014
 10
554.8806787437497
 20
76.0226020855014
 10
554.8599715577291
 20
76.3509588924018
 10
554.7564356276263
 20
76.66156668271054
 10
554.6114853254812
 20
76.93076010097939
 97
        0
 92
        7
 72
     0
 73
     1
 93
       42
 10
554.4872422093556
 20
77.37448551570992
 10
554.419204312433
 20
77.43364890433818
 10
554.3511664155065
 20
77.48985412353872
 10
554.277212179718
 20
77.54014300387428
 10
554.2032579439303
 20
77.59043188421035
 10
554.1263455387104
 20
77.6348044256834
 10
554.0464749640606
 20
77.67621879772351
 10
553.9666043894092
 20
77.71171683090248
 10
553.8808174758941
 20
77.74425669464936
 10
553.7950305623795
 20
77.77383838896472
 10
553.7092436488657
 20
77.8004619138488
 10
553.617540396488
 20
77.82116909986952
 10
553.5287953135414
 20
77.83595994702693
 10
553.4341338917332
 20
77.84779262475307
 10
553.3424306393563
 20
77.85666713304744
 10
553.2477692175477
 20
77.85962530247893
 10
553.2477692175477
 20
77.65551161170384
 10
553.5761260244471
 20
77.61409723966234
 10
553.8867338147564
 20
77.53126849557967
 10
554.1559272330263
 20
77.36561100741423
 10
554.4044134652734
 20
77.17924633322809
 10
554.6114853254812
 20
76.93076010098021
 10
554.7564356276263
 20
76.66156668271054
 10
554.8599715577291
 20
76.35095889240045
 10
554.8806787437497
 20
76.0226020855014
 10
555.0847924345251
 20
76.0226020855014
 10
555.081834265094
 20
76.11430533787738
 10
555.072959756799
 20
76.20600859025579
 10
555.0640852485043
 20
76.29771184263255
 10
555.0463362319145
 20
76.38645692558725
 10
555.0256290458936
 20
76.475202008526
 10
555.0019636904425
 20
76.56098892203889
 10
554.9723819961277
 20
76.64677583555178
 10
554.9398421323798
 20
76.72960457963475
 10
554.9043440992025
 20
76.81243332371884
 10
554.8629297271616
 20
76.88934572893845
 10
554.82151535512
 20
76.96625813415785
 10
554.7712264747843
 20
77.04317053937774
 10
554.7209375944453
 20
77.11416660573269
 10
554.6676905446793
 20
77.18516267209087
 10
554.6085271560492
 20
77.25024239958464
 10
554.5493637674183
 20
77.31532212707787
 97
        0
 92
       23
 72
     0
 73
     1
 93
       42
 10
508.5084147351458
 20
60.77323866598374
 10
508.4581258548102
 20
60.82352754631929
 10
508.4137533133389
 20
60.8738164266543
 10
508.372338941298
 20
60.92706347642383
 10
508.3309245692541
 20
60.98326869562163
 10
508.2924683666425
 20
61.03947391482217
 10
508.2569703334652
 20
61.09863730345177
 10
508.2273886391521
 20
61.16075886151048
 10
508.1978069448356
 20
61.21992225014309
 10
508.1711834199486
 20
61.28500197764092
 10
508.1475180644989
 20
61.35008170513064
 10
508.1297690479092
 20
61.41811960205836
 10
508.114978200752
 20
61.48615749898152
 10
508.1001873535951
 20
61.55419539590575
 10
508.0913128452992
 20
61.62519146226259
 10
508.0853965064375
 20
61.69618752862078
 10
508.0853965064375
 20
61.76718359497653
 10
507.8812828156618
 20
61.76718359497653
 10
507.9226971877027
 20
61.43882678807614
 10
508.0262331178055
 20
61.14892618378869
 10
508.1711834199517
 20
60.859025579498
 10
508.3782552801583
 20
60.63124653327117
 10
508.6060343263851
 20
60.42417467306371
 10
508.8959349306747
 20
60.27922437091902
 10
509.1858355349645
 20
60.17568844081559
 10
509.5141923418646
 20
60.15498125479481
 10
509.5141923418646
 20
60.35909494556992
 10
509.4431962755076
 20
60.35909494556992
 10
509.3692420397196
 20
60.36501128443299
 10
509.2982459733625
 20
60.37388579272789
 10
509.230208076437
 20
60.38571847045375
 10
509.1621701795125
 20
60.40346748704294
 10
509.0941322825893
 20
60.4212165036319
 10
509.0290525550939
 20
60.44488185908442
 10
508.9639728276006
 20
60.46854721453673
 10
508.8988931001066
 20
60.49812890885153
 10
508.8397297114745
 20
60.52771060316768
 10
508.7776081534155
 20
60.56320863634502
 10
508.7214029342158
 20
60.6016648389555
 10
508.6622395455845
 20
60.64012104156495
 10
508.6089924958173
 20
60.6815354136059
 10
508.55574544605
 20
60.72590795507919
 97
        0
 92
        7
 72
     0
 73
     1
 93
       42
 10
508.378255280157
 20
60.63124653327117
 10
508.1711834199517
 20
60.859025579498
 10
508.0262331178055
 20
61.14892618378869
 10
507.9226971877027
 20
61.43882678807667
 10
507.8812828156618
 20
61.76718359497653
 10
507.6771691248866
 20
61.76718359497653
 10
507.6801272943185
 20
61.67548034260001
 10
507.6890018026128
 20
61.58377709021999
 10
507.7008344803388
 20
61.49207383784379
 10
507.715625327497
 20
61.40332875489827
 10
507.7363325135166
 20
61.31458367195086
 10
507.7629560384016
 20
61.22879675843797
 10
507.7925377327148
 20
61.14300984492698
 10
507.8250775964622
 20
61.06018110084318
 10
507.8635337990748
 20
60.98031052618576
 10
507.904948171113
 20
60.90043995154083
 10
507.9493207125895
 20
60.82648571574785
 10
507.9966514234923
 20
60.75253147996193
 10
508.0469403038272
 20
60.68153541360723
 10
508.1031455230253
 20
60.61349751668274
 10
508.1623089116546
 20
60.54545961975661
 10
508.2214723002874
 20
60.48333806169496
 10
508.2865520277819
 20
60.42417467306586
 10
508.3545899247071
 20
60.36501128443217
 10
508.4226278216313
 20
60.3117642346659
 10
508.4936238879866
 20
60.26147535433008
 10
508.5705362932031
 20
60.21414464342661
 10
508.6444905289953
 20
60.16977210195278
 10
508.7243611036463
 20
60.13131589934309
 10
508.8071898477286
 20
60.09285969673314
 10
508.8900185918062
 20
60.0632780024194
 10
508.9758055053272
 20
60.03369630810215
 10
509.0615924188417
 20
60.00707278321836
 10
509.1503375017873
 20
59.98932376662914
 10
509.2390825847328
 20
59.97157475004019
 10
509.3307858371098
 20
59.96270024174561
 10
509.4224890894868
 20
59.95382573345125
 10
509.5141923418646
 20
59.9508675640197
 10
509.5141923418646
 20
60.15498125479481
 10
509.1858355349645
 20
60.17568844081559
 10
508.8959349306758
 20
60.27922437091902
 10
508.6060343263851
 20
60.42417467306371
 97
        0
 75
     0
 76
     1
 47
0.02498
 98
       13
 10
507.9590599999999
 20
70.638906
 10
517.104821
 20
60.20215799999999
 10
527.707436
 20
77.515833
 10
554.9828549999999
 20
71.36705
 10
508.271734
 20
77.356789
 10
508.601009
 20
77.30976899999999
 10
537.5774719999999
 20
60.05279300000001
 10
554.370649
 20
60.805142
 10
554.605849
 20
60.57003299999999
 10
554.370649
 20
77.12168100000001
 10
554.464728
 20
77.356789
 10
508.412851
 20
60.711098
 10
508.3658129999999
 20
60.475989
450
        0
451
        0
460
0.0
461
0.0
452
        0
462
0.0
453
        0
470

  0
HATCH
  5
1258
330
2
100
AcDbEntity
  8
AM_4
100
AcDbHatch
 10
0.0
 20
0.0
 30
0.0
210
0.0
220
0.0
230
1.0
  2
SOLID
 70
     1
 71
     0
 91
        3
 92
        7
 72
     0
 73
     1
 93
        4
 10
553.2477692175477
 20
77.85962530247893
 10
509.5141923418646
 20
77.85962530247893
 10
509.5141923418646
 20
77.65551161170384
 10
553.2477692175477
 20
77.65551161170384
 97
        0
 92
        7
 72
     0
 73
     1
 93
        4
 10
507.8812828156618
 20
76.0226020855014
 10
507.6771691248866
 20
76.0226020855014
 10
507.6771691248866
 20
61.76718359497653
 10
507.8812828156618
 20
61.76718359497653
 97
        0
 92
        7
 72
     0
 73
     1
 93
       42
 10
508.2599285028952
 20
76.69706471588788
 10
508.2954265360752
 20
76.75622810451965
 10
508.3309245692537
 20
76.81539149315034
 10
508.3723389412988
 20
76.87159671235519
 10
508.4137533133371
 20
76.92484376211959
 10
508.4610840242401
 20
76.97809081188234
 10
508.5084147351458
 20
77.02837969222006
 10
508.558703615482
 20
77.07571040312355
 10
508.6119506652494
 20
77.12008294459764
 10
508.6651977150165
 20
77.1644554860704
 10
508.7214029342158
 20
77.20586985811188
 10
508.780566322846
 20
77.24136789129004
 10
508.839729711475
 20
77.27686592446847
 10
508.9018512695387
 20
77.30940578821535
 10
508.9639728276006
 20
77.33898748253068
 10
509.0290525550939
 20
77.36265283798267
 10
509.0941322825893
 20
77.38631819343499
 10
509.1621701795125
 20
77.40702537945519
 10
509.2302080764381
 20
77.42181622661231
 10
509.301204142795
 20
77.43660707377109
 10
509.3722002091516
 20
77.44548158206541
 10
509.4431962755076
 20
77.45139792092849
 10
509.5141923418646
 20
77.45139792092849
 10
509.5141923418646
 20
77.65551161170384
 10
509.1858355349652
 20
77.61409723966234
 10
508.8959349306747
 20
77.53126849557938
 10
508.6060343263863
 20
77.36561100741397
 10
508.3782552801583
 20
77.17924633322727
 10
508.1711834199517
 20
76.93076010097939
 10
508.0262331178072
 20
76.66156668271108
 10
507.9226971877027
 20
76.3509588923999
 10
507.8812828156618
 20
76.0226020855014
 10
508.0853965064375
 20
76.02260208550116
 10
508.0853965064375
 20
76.09359815185904
 10
508.0913128453008
 20
76.1645942182151
 10
508.1001873535951
 20
76.23559028457058
 10
508.1149782007488
 20
76.30658635093553
 10
508.1297690479108
 20
76.37462424785327
 10
508.150476233935
 20
76.4397039753538
 10
508.1711834199517
 20
76.50774187227153
 10
508.1978069448373
 20
76.57282159976503
 10
508.2273886391521
 20
76.63494315782537
 97
        0
 75
     0
 76
     1
 47
0.005631
 98
        3
 10
511.7713099999999
 20
77.72722299999999
 10
507.752199
 20
75.670733
 10
508.0915429999999
 20
76.635374
450
        0
451
        0
460
0.0
461
0.0
452
        0
462
0.0
453
        0
470

  0
HATCH
  5
1259
330
2
100
AcDbEntity
  8
AM_4
100
AcDbHatch
 10
0.0
 20
0.0
 30
0.0
210
0.0
220
0.0
230
1.0
  2
SOLID
 70
     1
 71
     0
 91
        8
 92
        7
 72
     0
 73
     1
 93
       23
 10
515.5183098813798
 20
68.89244741985847
 10
515.572148565034
 20
69.18856017995409
 10
515.6798259323403
 20
69.40391491456892
 10
515.8413419833014
 20
69.56543096552917
 10
516.0028580342641
 20
69.70002767466482
 10
516.3258901361849
 20
69.78078570014535
 10
516.4874061871478
 20
69.80770504197238
 10
516.7835189472439
 20
69.80770504197238
 10
516.7835189472439
 20
72.03816479334324
 10
515.8144226414751
 20
72.03816479334324
 10
515.2760358049381
 20
72.01124545151623
 10
514.8184069938811
 20
71.95740676786247
 10
514.4415362083011
 20
71.82281005872844
 10
514.0915847645543
 20
71.68821334959358
 10
513.8262369665446
 20
71.4997779568074
 10
513.5839628901059
 20
71.31134256401825
 10
513.3955274973176
 20
71.09598782940233
 10
513.2340114463561
 20
70.88063309478645
 10
513.0455760535678
 20
70.42684990399064
 10
512.9378986862603
 20
70.04997911841477
 10
512.9109793444322
 20
69.70002767466616
 10
512.9109793444322
 20
63.53934401656839
 10
515.5183098813798
 20
63.53934401656839
 97
        0
 92
        7
 72
     0
 73
     1
 93
       54
 10
525.0939043312309
 20
69.32315688908811
 10
524.8516302547882
 20
69.86154372562615
 10
524.5016788110382
 20
70.39993056216444
 10
524.0978886836353
 20
70.85371375295996
 10
523.5864211889243
 20
71.28442322219041
 10
523.0211150105597
 20
71.63437466594007
 10
522.4019701485401
 20
71.90356808420867
 10
521.7328322231301
 20
72.09200347699703
 10
521.0329293356311
 20
72.1458421606508
 10
520.5214618409204
 20
72.11892281882379
 10
520.0638330298621
 20
72.03816479334354
 10
519.633123560632
 20
71.93048742603597
 10
519.2293334332298
 20
71.76897137507385
 10
518.8524626476536
 20
71.58053598228576
 10
518.5294305457305
 20
71.36518124767174
 10
518.2333177856344
 20
71.09598782940206
 10
517.9372050255384
 20
70.82679441113481
 10
517.6987765693593
 20
70.53452727129928
 10
517.5103411765702
 20
70.21149516937581
 10
517.3219057837814
 20
69.86154372562478
 10
517.1873090746478
 20
69.51159228187754
 10
516.9988736818583
 20
68.78477005255013
 10
516.918115656377
 20
68.03102848139889
 10
516.9450349982058
 20
67.46572230303494
 10
517.0257930236856
 20
66.95810042858321
 10
517.1603897328193
 20
66.47355227570006
 10
517.3488251256076
 20
66.01592346464122
 10
517.5641798602242
 20
65.61213333723831
 10
517.8064539366642
 20
65.23526255166324
 10
518.0987210764985
 20
64.88531110791331
 10
518.4217531784228
 20
64.56227900599012
 10
518.7986239639984
 20
64.29308558772152
 10
519.1754947495715
 20
64.07773085310805
 10
519.5792848769797
 20
63.86237611849077
 10
519.983075004382
 20
63.70086006752945
 10
520.4407038154434
 20
63.59318270022109
 10
520.8714132846703
 20
63.48550533291462
 10
521.3290420957267
 20
63.43166664926084
 10
521.7828252865253
 20
63.43166664926084
 10
522.4019701485401
 20
63.45858599108789
 10
522.9672763269059
 20
63.53934401656839
 10
523.4518244797912
 20
63.64702138387649
 10
523.8825339490201
 20
63.78161809301055
 10
524.4747594692098
 20
64.05081151127911
 10
524.6631948620002
 20
64.15848887858667
 10
524.6631948620002
 20
66.79658437762189
 10
524.0709693418074
 20
66.392794250219
 10
523.4787438216167
 20
66.06976214829606
 10
522.8057602759426
 20
65.82748807185339
 10
522.4827281740222
 20
65.74673004637316
 10
522.1596960721004
 20
65.71981070454639
 10
521.6251548558225
 20
65.71981070454639
 10
521.2482840702469
 20
65.80056873002667
 10
521.0867680192855
 20
65.82748807185396
 97
        0
 92
       22
 72
     0
 73
     1
 93
       15
 10
519.4716075096708
 20
67.38496427755172
 10
519.3908494841902
 20
67.57339967034059
 10
519.3370108005377
 20
67.78875440494974
 10
519.2831721168838
 20
68.05794782322511
 10
519.3100914587099
 20
68.38097992514775
 10
519.3908494841902
 20
68.73093136889686
 10
519.5792848769797
 20
69.10780215447357
 10
519.9023169789017
 20
69.48467294004974
 10
520.2791877644767
 20
69.75386635831833
 10
520.6829778918813
 20
69.88846306745315
 10
521.0598486774573
 20
69.91538240927991
 10
521.3828807793811
 20
69.86154372562615
 10
521.6789935394764
 20
69.78078570014564
 10
521.8905026538307
 20
69.67310833283779
 10
522.0789380466185
 20
69.56543096553025
 97
        0
 92
        7
 72
     0
 73
     1
 93
       27
 10
528.2665410465415
 20
69.3231568890884
 10
529.4240727450977
 20
69.3231568890884
 10
529.4240727450977
 20
71.33826190584392
 10
528.2665410465415
 20
71.33826190584392
 10
528.2665410465415
 20
72.22660018613078
 10
528.3203797301961
 20
72.52271294622694
 10
528.4280570975023
 20
72.73806768084233
 10
528.5895731484663
 20
72.89958373180366
 10
528.7510891994257
 20
73.03418044093823
 10
529.1010406431742
 20
73.11493846641875
 10
529.2356373523099
 20
73.14185780824549
 10
529.5279044921444
 20
73.14185780824549
 10
529.5279044921444
 20
75.21080150865507
 10
528.5626538066374
 20
75.21080150865507
 10
528.0511863119263
 20
75.18388216682831
 10
527.5935575008711
 20
75.10312414134751
 10
527.1897673734692
 20
74.96852743221402
 10
526.8398159297171
 20
74.8339307230789
 10
526.5706225114468
 20
74.64549533029082
 10
526.3283484350056
 20
74.46090555776419
 10
526.1399130422176
 20
74.24555082314828
 10
526.0053163330851
 20
74.03019608853452
 10
525.7899615984682
 20
73.59948661930352
 10
525.6822842311606
 20
73.19569649189926
 10
525.6553648893336
 20
72.8457450481477
 10
525.6553648893336
 20
63.56626335839543
 10
528.2665410465415
 20
63.56626335839543
 97
        0
 92
        7
 72
     0
 73
     1
 93
        4
 10
533.1081769551214
 20
75.21080150865507
 10
530.3893234306054
 20
75.21080150865507
 10
530.3893234306054
 20
63.56626335839543
 10
533.1081769551214
 20
63.56626335839543
 97
        0
 92
        7
 72
     0
 73
     1
 93
       54
 10
542.0069422390378
 20
69.32315688908811
 10
541.7646681625956
 20
69.86154372562669
 10
541.4147167188462
 20
70.39993056216444
 10
541.0109265914434
 20
70.85371375295996
 10
540.5033047169921
 20
71.28442322219068
 10
539.9379985386298
 20
71.63437466593926
 10
539.3188536766102
 20
71.90356808420867
 10
538.6458701309375
 20
72.09200347699703
 10
537.9459672434387
 20
72.1458421606508
 10
537.4344997487281
 20
72.11892281882379
 10
536.98071655793
 20
72.03816479334354
 10
536.5500070887015
 20
71.93048742603569
 10
536.1462169612955
 20
71.76897137507385
 10
535.7693461757206
 20
71.58053598228548
 10
535.4463140737983
 20
71.36518124767069
 10
535.1502013137046
 20
71.09598782940206
 10
534.8540885536086
 20
70.82679441113318
 10
534.6387338189932
 20
70.53452727129846
 10
534.4233790843783
 20
70.21149516937663
 10
534.234943691589
 20
69.86154372562669
 10
534.1003469824546
 20
69.51159228187754
 10
533.9119115896669
 20
68.7847700525512
 10
533.831153564185
 20
68.03102848139727
 10
533.8580729060122
 20
67.4657223030341
 10
533.9388309314935
 20
66.95810042858375
 10
534.0734276406278
 20
66.47355227569978
 10
534.2618630334168
 20
66.01592346464148
 10
534.4772177680323
 20
65.61213333723481
 10
534.7194918444738
 20
65.23526255166217
 10
535.0156046045684
 20
64.88531110791303
 10
535.3655560483185
 20
64.56227900599066
 10
535.7155074920683
 20
64.29308558772124
 10
536.092378277643
 20
64.07773085310615
 10
536.4961684050481
 20
63.86237611849077
 10
536.8999585324514
 20
63.70086006752972
 10
537.3537417232496
 20
63.59318270022109
 10
537.7844511924761
 20
63.48550533291462
 10
538.2420800035347
 20
63.43166664926084
 10
538.6997088145898
 20
63.43166664926084
 10
539.3188536766087
 20
63.45858599108789
 10
539.8841598549757
 20
63.53934401656839
 10
540.3956273496845
 20
63.64702138387567
 10
540.7994174770897
 20
63.78161809301025
 10
541.3877973770172
 20
64.05081151127967
 10
541.5762327698072
 20
64.15848887858667
 10
541.5762327698083
 20
66.79658437762163
 10
540.9840072496172
 20
66.392794250219
 10
540.3956273496861
 20
66.06976214829552
 10
539.7226438040141
 20
65.82748807185422
 10
539.3996117020902
 20
65.74673004637316
 10
539.0765796001678
 20
65.71981070454639
 10
538.5381927636306
 20
65.71981070454639
 10
538.1613219780545
 20
65.80056873002721
 10
537.9998059270932
 20
65.82748807185422
 97
        0
 92
       22
 72
     0
 73
     1
 93
       15
 10
536.2000556449515
 20
68.05794782322457
 10
536.2269749867778
 20
68.38097992514693
 10
536.3077330122603
 20
68.73093136889686
 10
536.4961684050475
 20
69.10780215447275
 10
536.8192005069714
 20
69.48467294004974
 10
537.1922256722847
 20
69.75386635831859
 10
537.5960157996887
 20
69.88846306745315
 10
537.972886585265
 20
69.91538240927991
 10
538.2959186871887
 20
69.86154372562615
 10
538.5920314472834
 20
69.78078570014564
 10
538.8073861818993
 20
69.67310833283753
 10
538.9958215746876
 20
69.56543096553025
 10
536.3884910377406
 20
67.38496427755251
 10
536.3077330122603
 20
67.57339967033978
 10
536.2538943286063
 20
67.78875440495082
 97
        0
 92
        7
 72
     0
 73
     1
 93
       66
 10
548.917521848025
 20
67.78875440495595
 10
548.7021671134105
 20
67.92335111409052
 10
548.5175773408837
 20
68.03102848139781
 10
548.8906025061988
 20
68.2733025578394
 10
549.1597959244678
 20
68.59633465976092
 10
549.3751506590836
 20
68.94628610351279
 10
549.5097473682185
 20
69.29623754726165
 10
549.6174247355249
 20
69.88846306745291
 10
549.6174247355249
 20
70.15765648572204
 10
549.6174247355249
 20
71.95740676786247
 10
547.0908522240581
 20
71.95740676786247
 10
547.0908522240596
 20
70.42684990399255
 10
547.0639328822319
 20
70.23841451120336
 10
546.956255514925
 20
69.86154372562698
 10
546.8485781476166
 20
69.67310833283807
 10
546.660142754828
 20
69.48467294004974
 10
546.39094933656
 20
69.35007623091514
 10
546.0679172346372
 20
69.3231568890884
 10
545.7448851327138
 20
69.35007623091514
 10
545.4756917144455
 20
69.48467294004974
 10
545.3141756634845
 20
69.64618899101077
 10
545.2064982961762
 20
69.86154372562615
 10
545.125740270696
 20
70.2384145112031
 10
545.125740270696
 20
70.39993056216387
 10
545.125740270696
 20
71.95740676786247
 10
542.5453290755752
 20
71.95740676786247
 10
542.5453290755752
 20
70.13073714389446
 10
542.5991677592299
 20
69.56543096553104
 10
542.7337644683633
 20
69.13472149630087
 10
542.8952805193253
 20
68.75785071072363
 10
543.1106352539402
 20
68.48865729245639
 10
543.3259899885565
 20
68.2733025578394
 10
543.4875060395174
 20
68.13870584870509
 10
543.6759414323058
 20
68.03102848139781
 10
543.4336673558641
 20
67.92335111409079
 10
543.2452319630766
 20
67.7887544049565
 10
542.9491192029789
 20
67.4657223030341
 10
542.7068451265378
 20
67.0888515174566
 10
542.5722484174014
 20
66.71582635214189
 10
542.4645710500949
 20
66.3658749083925
 10
542.4107323664416
 20
66.06976214829497
 10
542.3838130246141
 20
65.8005687300256
 10
542.3838130246141
 20
63.56626335839543
 10
545.0719015870431
 20
63.56626335839543
 10
545.0719015870419
 20
65.61213333723992
 10
545.0988209288693
 20
65.82748807185692
 10
545.125740270697
 20
66.01592346464176
 10
545.1795789543496
 20
66.25819754108414
 10
545.3141756634833
 20
66.47355227569869
 10
545.5026110562728
 20
66.68890701031433
 10
545.771804474542
 20
66.82350371944892
 10
546.1486752601184
 20
66.87734240310269
 10
546.4986267038669
 20
66.82350371944892
 10
546.7678201221359
 20
66.68890701031407
 10
546.9293361730977
 20
66.47355227569922
 10
547.0370135404055
 20
66.23127819925847
 10
547.0908522240596
 20
66.01592346464039
 10
547.117771565886
 20
65.80056873002721
 10
547.117771565886
 20
65.61213333723912
 10
547.117771565886
 20
63.56626335839543
 10
549.7789407864875
 20
63.56626335839543
 10
549.7789407864875
 20
65.8274880718553
 10
549.7251021028334
 20
66.41971359204575
 10
549.5635860518724
 20
66.90426174492836
 10
549.375150659082
 20
67.27728691024552
 10
549.1328765826413
 20
67.57339967034088
 97
        0
 75
     0
 76
     1
 47
0.04298
 98
        8
 10
514.3507490000001
 20
68.46545500000001
 10
519.716801
 20
66.04639300000001
 10
519.716801
 20
66.04639300000001
 10
527.0819759999999
 20
67.098158
 10
531.921945
 20
67.62404100000001
 10
535.183664
 20
68.149923
 10
535.183664
 20
68.149923
 10
544.442736
 20
67.729218
450
        0
451
        0
460
0.0
461
0.0
452
        0
462
0.0
453
        0
470

  0
LINE
  5
125A
330
2
100
AcDbEntity
  8
AM_4
100
AcDbLine
 10
553.3971069999999
 20
60.333261
 30
0.0
 11
509.5141969999999
 21
60.32734399999999
 31
0.0
  0
LINE
  5
125B
330
2
100
AcDbEntity
  8
AM_4
100
AcDbLine
 10
553.4129849999999
 20
59.956786
 30
0.0
 11
509.5142469999999
 21
59.95086800000001
 31
0.0
  0
LINE
  5
125C
330
2
100
AcDbEntity
  8
AM_4
100
AcDbLine
 10
553.3956779999999
 20
60.36501099999999
 30
0.0
 11
509.5141919999999
 21
60.35909499999999
 31
0.0
  0
LINE
  5
125D
330
2
100
AcDbEntity
  8
AM_4
100
AcDbLine
 10
553.247769
 20
60.15498100000001
 30
0.0
 11
509.5141919999999
 21
60.15498100000001
 31
0.0
  0
LINE
  5
125E
330
2
100
AcDbEntity
  8
AM_4
100
AcDbLine
 10
509.5141919999999
 20
59.95086800000001
 30
0.0
 11
553.247769
 21
59.95086800000001
 31
0.0
  0
LINE
  5
125F
330
2
100
AcDbEntity
  8
AM_4
100
AcDbLine
 10
509.443196
 20
60.35909499999999
 30
0.0
 11
553.3217229999999
 21
60.35909499999999
 31
0.0
  0
LINE
  5
1260
330
2
100
AcDbEntity
  8
AM_4
100
AcDbLine
 10
509.5141919999999
 20
77.483149
 30
0.0
 11
553.247769
 21
77.483149
 31
0.0
  0
LINE
  5
1261
330
2
100
AcDbEntity
  8
AM_4
100
AcDbLine
 10
509.5141919999999
 20
77.859625
 30
0.0
 11
553.247769
 21
77.859625
 31
0.0
  0
LINE
  5
1262
330
2
100
AcDbEntity
  8
AM_4
100
AcDbLine
 10
509.5141919999999
 20
77.655512
 30
0.0
 11
553.247769
 21
77.655512
 31
0.0
  0
LINE
  5
1263
330
2
100
AcDbEntity
  8
AM_4
100
AcDbLine
 10
509.443196
 20
77.451398
 30
0.0
 11
553.3217229999999
 21
77.451398
 31
0.0
  0
TEXT
  5
1264
330
2
100
AcDbEntity
  8
AM_6
100
AcDbText
 10
487.880223
 20
50.84599199999999
 30
0.0
 40
6.0
  1
Reflex Winkelmann GmbH
 41
0.95
 72
     1
 11
530.060223
 21
50.84599199999999
 31
0.0
100
AcDbText
  0
TEXT
  5
1265
330
2
100
AcDbEntity
  8
AM_6
100
AcDbText
 10
508.1388059483941
 20
42.428203
 30
0.0
 40
6.0
  1
59227 Ahlen
 72
     1
 11
530.15802
 21
42.428203
 31
0.0
100
AcDbText
  0
LINE
  5
1266
330
2
100
AcDbEntity
  8
AM_4
100
AcDbLine
 10
534.073428
 20
66.47355199999999
 30
0.0
 11
533.9388309999999
 21
66.9581
 31
0.0
  0
LINE
  5
1267
330
2
100
AcDbEntity
  8
AM_4
100
AcDbLine
 10
533.1081769999999
 20
63.566263
 30
0.0
 11
533.1081769999999
 21
75.210802
 31
0.0
  0
LINE
  5
1268
330
2
100
AcDbEntity
  8
AM_4
100
AcDbLine
 10
517.16039
 20
66.47355199999999
 30
0.0
 11
517.025793
 21
66.9581
 31
0.0
  0
LINE
  5
1269
330
2
100
AcDbEntity
  8
AM_4
100
AcDbLine
 10
525.0939039999999
 20
69.323157
 30
0.0
 11
521.0867679999999
 21
65.827488
 31
0.0
  0
LINE
  5
126A
330
2
100
AcDbEntity
  8
AM_4
100
AcDbLine
 10
508.053646
 20
61.76718399999999
 30
0.0
 11
508.053646
 21
76.022602
 31
0.0
  0
LINE
  5
126B
330
2
100
AcDbEntity
  8
AM_4
100
AcDbLine
 10
507.881283
 20
61.76718399999999
 30
0.0
 11
507.881283
 21
76.022602
 31
0.0
  0
LINE
  5
126C
330
2
100
AcDbEntity
  8
AM_4
100
AcDbLine
 10
508.0853969999999
 20
61.696188
 30
0.0
 11
508.0853969999999
 21
76.093598
 31
0.0
  0
LINE
  5
126D
330
2
100
AcDbEntity
  8
AM_4
100
AcDbLine
 10
515.5183099999999
 20
63.53934399999999
 30
0.0
 11
515.5183099999999
 21
68.892447
 31
0.0
  0
LINE
  5
126E
330
2
100
AcDbEntity
  8
AM_4
100
AcDbLine
 10
512.910979
 20
69.700028
 30
0.0
 11
512.910979
 21
63.53934399999999
 31
0.0
  0
LINE
  5
126F
330
2
100
AcDbEntity
  8
AM_4
100
AcDbLine
 10
528.2665409999999
 20
69.323157
 30
0.0
 11
528.2665409999999
 21
63.566263
 31
0.0
  0
LINE
  5
1270
330
2
100
AcDbEntity
  8
AM_4
100
AcDbLine
 10
525.655365
 20
63.566263
 30
0.0
 11
525.655365
 21
72.84574499999999
 31
0.0
  0
LINE
  5
1271
330
2
100
AcDbEntity
  8
AM_4
100
AcDbLine
 10
530.3893229999999
 20
75.210802
 30
0.0
 11
530.3893229999999
 21
63.566263
 31
0.0
  0
LINE
  5
1272
330
2
100
AcDbEntity
  8
AM_4
100
AcDbLine
 10
507.677169
 20
61.76718399999999
 30
0.0
 11
507.677169
 21
76.022602
 31
0.0
  0
LINE
  5
1273
330
2
100
AcDbEntity
  8
AM_4
100
AcDbLine
 10
508.2924679999999
 20
61.039474
 30
0.0
 11
508.25697
 21
61.098637
 31
0.0
  0
LINE
  5
1274
330
2
100
AcDbEntity
  8
AM_4
100
AcDbLine
 10
508.66224
 20
60.64012099999999
 30
0.0
 11
508.608992
 21
60.681535
 31
0.0
  0
LINE
  5
1275
330
2
100
AcDbEntity
  8
AM_4
100
AcDbLine
 10
508.3723389999999
 20
60.927063
 30
0.0
 11
508.330925
 21
60.98326899999999
 31
0.0
  0
LINE
  5
1276
330
2
100
AcDbEntity
  8
AM_4
100
AcDbLine
 10
508.413753
 20
60.873816
 30
0.0
 11
508.3723389999999
 21
60.927063
 31
0.0
  0
LINE
  5
1277
330
2
100
AcDbEntity
  8
AM_4
100
AcDbLine
 10
508.458126
 20
60.823528
 30
0.0
 11
508.413753
 21
60.873816
 31
0.0
  0
LINE
  5
1278
330
2
100
AcDbEntity
  8
AM_4
100
AcDbLine
 10
508.458126
 20
60.823528
 30
0.0
 11
508.555745
 21
60.725908
 31
0.0
  0
LINE
  5
1279
330
2
100
AcDbEntity
  8
AM_4
100
AcDbLine
 10
508.608992
 20
60.681535
 30
0.0
 11
508.555745
 21
60.725908
 31
0.0
  0
LINE
  5
127A
330
2
100
AcDbEntity
  8
AM_4
100
AcDbLine
 10
508.330925
 20
60.98326899999999
 30
0.0
 11
508.2924679999999
 21
61.039474
 31
0.0
  0
LINE
  5
127B
330
2
100
AcDbEntity
  8
AM_4
100
AcDbLine
 10
508.6060339999999
 20
60.42417499999999
 30
0.0
 11
508.3782549999999
 21
60.63124699999999
 31
0.0
  0
LINE
  5
127C
330
2
100
AcDbEntity
  8
AM_4
100
AcDbLine
 10
508.8959349999999
 20
60.279224
 30
0.0
 11
508.6060339999999
 21
60.42417499999999
 31
0.0
  0
LINE
  5
127D
330
2
100
AcDbEntity
  8
AM_4
100
AcDbLine
 10
509.185836
 20
60.175688
 30
0.0
 11
508.8959349999999
 21
60.279224
 31
0.0
  0
LINE
  5
127E
330
2
100
AcDbEntity
  8
AM_4
100
AcDbLine
 10
509.5141919999999
 20
60.15498100000001
 30
0.0
 11
509.185836
 21
60.175688
 31
0.0
  0
LINE
  5
127F
330
2
100
AcDbEntity
  8
AM_4
100
AcDbLine
 10
509.5141919999999
 20
59.95086800000001
 30
0.0
 11
509.5141919999999
 21
59.95086800000001
 31
0.0
  0
LINE
  5
1280
330
2
100
AcDbEntity
  8
AM_4
100
AcDbLine
 10
509.5141919999999
 20
60.35909499999999
 30
0.0
 11
509.5141919999999
 21
59.95086800000001
 31
0.0
  0
LINE
  5
1281
330
2
100
AcDbEntity
  8
AM_4
100
AcDbLine
 10
508.777608
 20
60.56320899999999
 30
0.0
 11
508.721403
 21
60.60166500000001
 31
0.0
  0
LINE
  5
1282
330
2
100
AcDbEntity
  8
AM_4
100
AcDbLine
 10
508.8397299999999
 20
60.527711
 30
0.0
 11
508.777608
 21
60.56320899999999
 31
0.0
  0
LINE
  5
1283
330
2
100
AcDbEntity
  8
AM_4
100
AcDbLine
 10
508.898893
 20
60.498129
 30
0.0
 11
508.8397299999999
 21
60.527711
 31
0.0
  0
LINE
  5
1284
330
2
100
AcDbEntity
  8
AM_4
100
AcDbLine
 10
508.963973
 20
60.46854699999999
 30
0.0
 11
508.898893
 21
60.498129
 31
0.0
  0
LINE
  5
1285
330
2
100
AcDbEntity
  8
AM_4
100
AcDbLine
 10
508.963973
 20
60.46854699999999
 30
0.0
 11
509.0941319999999
 21
60.421217
 31
0.0
  0
LINE
  5
1286
330
2
100
AcDbEntity
  8
AM_4
100
AcDbLine
 10
509.0941319999999
 20
60.421217
 30
0.0
 11
509.230208
 21
60.385718
 31
0.0
  0
LINE
  5
1287
330
2
100
AcDbEntity
  8
AM_4
100
AcDbLine
 10
509.2982459999999
 20
60.37388599999999
 30
0.0
 11
509.230208
 21
60.385718
 31
0.0
  0
LINE
  5
1288
330
2
100
AcDbEntity
  8
AM_4
100
AcDbLine
 10
509.3692419999999
 20
60.36501099999999
 30
0.0
 11
509.2982459999999
 21
60.37388599999999
 31
0.0
  0
LINE
  5
1289
330
2
100
AcDbEntity
  8
AM_4
100
AcDbLine
 10
509.443196
 20
60.35909499999999
 30
0.0
 11
509.3692419999999
 21
60.36501099999999
 31
0.0
  0
LINE
  5
128A
330
2
100
AcDbEntity
  8
AM_4
100
AcDbLine
 10
509.4224889999999
 20
59.953826
 30
0.0
 11
509.5141919999999
 21
59.95086800000001
 31
0.0
  0
LINE
  5
128B
330
2
100
AcDbEntity
  8
AM_4
100
AcDbLine
 10
509.239083
 20
59.971575
 30
0.0
 11
509.4224889999999
 21
59.953826
 31
0.0
  0
LINE
  5
128C
330
2
100
AcDbEntity
  8
AM_4
100
AcDbLine
 10
509.061592
 20
60.007073
 30
0.0
 11
509.239083
 21
59.971575
 31
0.0
  0
LINE
  5
128D
330
2
100
AcDbEntity
  8
AM_4
100
AcDbLine
 10
508.975806
 20
60.033696
 30
0.0
 11
509.061592
 21
60.007073
 31
0.0
  0
LINE
  5
128E
330
2
100
AcDbEntity
  8
AM_4
100
AcDbLine
 10
508.890019
 20
60.06327800000001
 30
0.0
 11
508.975806
 21
60.033696
 31
0.0
  0
LINE
  5
128F
330
2
100
AcDbEntity
  8
AM_4
100
AcDbLine
 10
508.80719
 20
60.09285999999999
 30
0.0
 11
508.890019
 21
60.06327800000001
 31
0.0
  0
LINE
  5
1290
330
2
100
AcDbEntity
  8
AM_4
100
AcDbLine
 10
508.724361
 20
60.13131600000001
 30
0.0
 11
508.80719
 21
60.09285999999999
 31
0.0
  0
LINE
  5
1291
330
2
100
AcDbEntity
  8
AM_4
100
AcDbLine
 10
508.6444909999999
 20
60.16977199999999
 30
0.0
 11
508.724361
 21
60.13131600000001
 31
0.0
  0
LINE
  5
1292
330
2
100
AcDbEntity
  8
AM_4
100
AcDbLine
 10
508.570536
 20
60.21414499999999
 30
0.0
 11
508.6444909999999
 21
60.16977199999999
 31
0.0
  0
LINE
  5
1293
330
2
100
AcDbEntity
  8
AM_4
100
AcDbLine
 10
508.493624
 20
60.261475
 30
0.0
 11
508.570536
 21
60.21414499999999
 31
0.0
  0
LINE
  5
1294
330
2
100
AcDbEntity
  8
AM_4
100
AcDbLine
 10
508.422628
 20
60.311764
 30
0.0
 11
508.493624
 21
60.261475
 31
0.0
  0
LINE
  5
1295
330
2
100
AcDbEntity
  8
AM_4
100
AcDbLine
 10
508.35459
 20
60.36501099999999
 30
0.0
 11
508.422628
 21
60.311764
 31
0.0
  0
LINE
  5
1296
330
2
100
AcDbEntity
  8
AM_4
100
AcDbLine
 10
508.2865519999999
 20
60.42417499999999
 30
0.0
 11
508.35459
 21
60.36501099999999
 31
0.0
  0
LINE
  5
1297
330
2
100
AcDbEntity
  8
AM_4
100
AcDbLine
 10
508.721403
 20
60.60166500000001
 30
0.0
 11
508.66224
 21
60.64012099999999
 31
0.0
  0
ARC
  5
1298
330
2
100
AcDbEntity
  8
AM_4
100
AcDbCircle
 10
509.0354559999999
 20
61.73553599999999
 30
0.0
 40
0.9823199999999999
100
AcDbArc
 50
178.153773
 51
186.666075
  0
LINE
  5
1299
330
2
100
AcDbEntity
  8
AM_4
100
AcDbLine
 10
507.9226969999999
 20
61.438827
 30
0.0
 11
507.881283
 21
61.76718399999999
 31
0.0
  0
LINE
  5
129A
330
2
100
AcDbEntity
  8
AM_4
100
AcDbLine
 10
508.026233
 20
61.14892600000001
 30
0.0
 11
507.9226969999999
 21
61.438827
 31
0.0
  0
LINE
  5
129B
330
2
100
AcDbEntity
  8
AM_4
100
AcDbLine
 10
508.0913129999999
 20
61.625191
 30
0.0
 11
508.0853969999999
 21
61.696188
 31
0.0
  0
LINE
  5
129C
330
2
100
AcDbEntity
  8
AM_4
100
AcDbLine
 10
508.100187
 20
61.55419499999999
 30
0.0
 11
508.0913129999999
 21
61.625191
 31
0.0
  0
LINE
  5
129D
330
2
100
AcDbEntity
  8
AM_4
100
AcDbLine
 10
508.114978
 20
61.48615699999999
 30
0.0
 11
508.100187
 21
61.55419499999999
 31
0.0
  0
LINE
  5
129E
330
2
100
AcDbEntity
  8
AM_4
100
AcDbLine
 10
508.129769
 20
61.41811999999999
 30
0.0
 11
508.114978
 21
61.48615699999999
 31
0.0
  0
LINE
  5
129F
330
2
100
AcDbEntity
  8
AM_4
100
AcDbLine
 10
508.1475179999999
 20
61.35008199999999
 30
0.0
 11
508.129769
 21
61.41811999999999
 31
0.0
  0
LINE
  5
12A0
330
2
100
AcDbEntity
  8
AM_4
100
AcDbLine
 10
508.1711829999999
 20
61.285002
 30
0.0
 11
508.1475179999999
 21
61.35008199999999
 31
0.0
  0
LINE
  5
12A1
330
2
100
AcDbEntity
  8
AM_4
100
AcDbLine
 10
508.1978069999999
 20
61.219922
 30
0.0
 11
508.1711829999999
 21
61.285002
 31
0.0
  0
LINE
  5
12A2
330
2
100
AcDbEntity
  8
AM_4
100
AcDbLine
 10
508.2273889999999
 20
61.160759
 30
0.0
 11
508.1978069999999
 21
61.219922
 31
0.0
  0
LINE
  5
12A3
330
2
100
AcDbEntity
  8
AM_4
100
AcDbLine
 10
507.996651
 20
60.75253100000001
 30
0.0
 11
508.0469400000001
 21
60.681535
 31
0.0
  0
LINE
  5
12A4
330
2
100
AcDbEntity
  8
AM_4
100
AcDbLine
 10
507.9493209999999
 20
60.82648599999999
 30
0.0
 11
507.996651
 21
60.75253100000001
 31
0.0
  0
LINE
  5
12A5
330
2
100
AcDbEntity
  8
AM_4
100
AcDbLine
 10
507.9049480000001
 20
60.90044
 30
0.0
 11
507.9493209999999
 21
60.82648599999999
 31
0.0
  0
LINE
  5
12A6
330
2
100
AcDbEntity
  8
AM_4
100
AcDbLine
 10
507.8635339999999
 20
60.980311
 30
0.0
 11
507.9049480000001
 21
60.90044
 31
0.0
  0
LINE
  5
12A7
330
2
100
AcDbEntity
  8
AM_4
100
AcDbLine
 10
508.1711829999999
 20
60.859026
 30
0.0
 11
508.026233
 21
61.14892600000001
 31
0.0
  0
LINE
  5
12A8
330
2
100
AcDbEntity
  8
AM_4
100
AcDbLine
 10
507.825078
 20
61.060181
 30
0.0
 11
507.8635339999999
 21
60.980311
 31
0.0
  0
LINE
  5
12A9
330
2
100
AcDbEntity
  8
AM_4
100
AcDbLine
 10
508.1623089999999
 20
60.54546
 30
0.0
 11
508.2214719999999
 21
60.483338
 31
0.0
  0
LINE
  5
12AA
330
2
100
AcDbEntity
  8
AM_4
100
AcDbLine
 10
508.103146
 20
60.613498
 30
0.0
 11
508.1623089999999
 21
60.54546
 31
0.0
  0
LINE
  5
12AB
330
2
100
AcDbEntity
  8
AM_4
100
AcDbLine
 10
508.0469400000001
 20
60.681535
 30
0.0
 11
508.103146
 21
60.613498
 31
0.0
  0
LINE
  5
12AC
330
2
100
AcDbEntity
  8
AM_4
100
AcDbLine
 10
508.25697
 20
61.098637
 30
0.0
 11
508.2273889999999
 21
61.160759
 31
0.0
  0
LINE
  5
12AD
330
2
100
AcDbEntity
  8
AM_4
100
AcDbLine
 10
508.3782549999999
 20
60.63124699999999
 30
0.0
 11
508.1711829999999
 21
60.859026
 31
0.0
  0
LINE
  5
12AE
330
2
100
AcDbEntity
  8
AM_4
100
AcDbLine
 10
508.2214719999999
 20
60.483338
 30
0.0
 11
508.2865519999999
 21
60.42417499999999
 31
0.0
  0
ARC
  5
12AF
330
2
100
AcDbEntity
  8
AM_4
100
AcDbCircle
 10
509.5139989999999
 20
61.791465
 30
0.0
 40
1.43237
100
AcDbArc
 50
186.666075
 51
270.007725
  0
LINE
  5
12B0
330
2
100
AcDbEntity
  8
AM_4
100
AcDbLine
 10
507.677169
 20
61.76718399999999
 30
0.0
 11
507.677169
 21
61.76718399999999
 31
0.0
  0
LINE
  5
12B1
330
2
100
AcDbEntity
  8
AM_4
100
AcDbLine
 10
507.762956
 20
61.228797
 30
0.0
 11
507.7925379999999
 21
61.14301
 31
0.0
  0
LINE
  5
12B2
330
2
100
AcDbEntity
  8
AM_4
100
AcDbLine
 10
507.7363329999999
 20
61.31458399999999
 30
0.0
 11
507.762956
 21
61.228797
 31
0.0
  0
LINE
  5
12B3
330
2
100
AcDbEntity
  8
AM_4
100
AcDbLine
 10
507.7156249999999
 20
61.403329
 30
0.0
 11
507.7363329999999
 21
61.31458399999999
 31
0.0
  0
LINE
  5
12B4
330
2
100
AcDbEntity
  8
AM_4
100
AcDbLine
 10
507.7008339999999
 20
61.492074
 30
0.0
 11
507.7156249999999
 21
61.403329
 31
0.0
  0
LINE
  5
12B5
330
2
100
AcDbEntity
  8
AM_4
100
AcDbLine
 10
507.6890019999999
 20
61.583777
 30
0.0
 11
507.7008339999999
 21
61.492074
 31
0.0
  0
LINE
  5
12B6
330
2
100
AcDbEntity
  8
AM_4
100
AcDbLine
 10
507.6801269999999
 20
61.67548
 30
0.0
 11
507.6890019999999
 21
61.583777
 31
0.0
  0
LINE
  5
12B7
330
2
100
AcDbEntity
  8
AM_4
100
AcDbLine
 10
507.677169
 20
61.76718399999999
 30
0.0
 11
507.6801269999999
 21
61.67548
 31
0.0
  0
LINE
  5
12B8
330
2
100
AcDbEntity
  8
AM_4
100
AcDbLine
 10
508.0853969999999
 20
61.76718399999999
 30
0.0
 11
507.677169
 21
61.76718399999999
 31
0.0
  0
LINE
  5
12B9
330
2
100
AcDbEntity
  8
AM_4
100
AcDbLine
 10
507.7925379999999
 20
61.14301
 30
0.0
 11
507.825078
 21
61.060181
 31
0.0
  0
ARC
  5
12BA
330
2
100
AcDbEntity
  8
AM_4
100
AcDbCircle
 10
509.5139989999999
 20
61.791465
 30
0.0
 40
1.46412
100
AcDbArc
 50
186.666075
 51
270.007725
  0
ARC
  5
12BB
330
2
100
AcDbEntity
  8
AM_4
100
AcDbCircle
 10
509.5139989999999
 20
61.791465
 30
0.0
 40
1.840596999999999
100
AcDbArc
 50
186.666075
 51
270.007725
  0
LINE
  5
12BC
330
2
100
AcDbEntity
  8
AM_4
100
AcDbLine
 10
512.910979
 20
63.53934399999999
 30
0.0
 11
515.5183099999999
 21
63.53934399999999
 31
0.0
  0
LINE
  5
12BD
330
2
100
AcDbEntity
  8
AM_4
100
AcDbLine
 10
522.9672759999999
 20
63.53934399999999
 30
0.0
 11
522.40197
 21
63.45858599999999
 31
0.0
  0
LINE
  5
12BE
330
2
100
AcDbEntity
  8
AM_4
100
AcDbLine
 10
522.482728
 20
65.74673
 30
0.0
 11
522.8057599999999
 21
65.827488
 31
0.0
  0
LINE
  5
12BF
330
2
100
AcDbEntity
  8
AM_4
100
AcDbLine
 10
520.8714129999999
 20
63.485505
 30
0.0
 11
520.4407039999999
 21
63.59318299999999
 31
0.0
  0
LINE
  5
12C0
330
2
100
AcDbEntity
  8
AM_4
100
AcDbLine
 10
522.1596959999999
 20
65.71981099999999
 30
0.0
 11
522.482728
 21
65.74673
 31
0.0
  0
LINE
  5
12C1
330
2
100
AcDbEntity
  8
AM_4
100
AcDbLine
 10
521.6251549999999
 20
65.71981099999999
 30
0.0
 11
522.1596959999999
 21
65.71981099999999
 31
0.0
  0
LINE
  5
12C2
330
2
100
AcDbEntity
  8
AM_4
100
AcDbLine
 10
521.2482839999999
 20
65.80056899999999
 30
0.0
 11
521.6251549999999
 21
65.71981099999999
 31
0.0
  0
LINE
  5
12C3
330
2
100
AcDbEntity
  8
AM_4
100
AcDbLine
 10
521.3290419999999
 20
63.43166700000001
 30
0.0
 11
520.8714129999999
 21
63.485505
 31
0.0
  0
LINE
  5
12C4
330
2
100
AcDbEntity
  8
AM_4
100
AcDbLine
 10
521.782825
 20
63.43166700000001
 30
0.0
 11
521.3290419999999
 21
63.43166700000001
 31
0.0
  0
LINE
  5
12C5
330
2
100
AcDbEntity
  8
AM_4
100
AcDbLine
 10
522.40197
 20
63.45858599999999
 30
0.0
 11
521.782825
 21
63.43166700000001
 31
0.0
  0
LINE
  5
12C6
330
2
100
AcDbEntity
  8
AM_4
100
AcDbLine
 10
521.0867679999999
 20
65.827488
 30
0.0
 11
521.2482839999999
 21
65.80056899999999
 31
0.0
  0
LINE
  5
12C7
330
2
100
AcDbEntity
  8
AM_4
100
AcDbLine
 10
519.983075
 20
63.70086
 30
0.0
 11
519.5792849999999
 21
63.862376
 31
0.0
  0
LINE
  5
12C8
330
2
100
AcDbEntity
  8
AM_4
100
AcDbLine
 10
517.806454
 20
65.235263
 30
0.0
 11
517.56418
 21
65.612133
 31
0.0
  0
LINE
  5
12C9
330
2
100
AcDbEntity
  8
AM_4
100
AcDbLine
 10
518.0987209999999
 20
64.885311
 30
0.0
 11
517.806454
 21
65.235263
 31
0.0
  0
LINE
  5
12CA
330
2
100
AcDbEntity
  8
AM_4
100
AcDbLine
 10
518.421753
 20
64.562279
 30
0.0
 11
518.0987209999999
 21
64.885311
 31
0.0
  0
LINE
  5
12CB
330
2
100
AcDbEntity
  8
AM_4
100
AcDbLine
 10
518.7986239999999
 20
64.293086
 30
0.0
 11
518.421753
 21
64.562279
 31
0.0
  0
LINE
  5
12CC
330
2
100
AcDbEntity
  8
AM_4
100
AcDbLine
 10
519.175495
 20
64.07773099999999
 30
0.0
 11
518.7986239999999
 21
64.293086
 31
0.0
  0
LINE
  5
12CD
330
2
100
AcDbEntity
  8
AM_4
100
AcDbLine
 10
519.5792849999999
 20
63.862376
 30
0.0
 11
519.175495
 21
64.07773099999999
 31
0.0
  0
LINE
  5
12CE
330
2
100
AcDbEntity
  8
AM_4
100
AcDbLine
 10
517.56418
 20
65.612133
 30
0.0
 11
517.348825
 21
66.015923
 31
0.0
  0
LINE
  5
12CF
330
2
100
AcDbEntity
  8
AM_4
100
AcDbLine
 10
520.4407039999999
 20
63.59318299999999
 30
0.0
 11
519.983075
 21
63.70086
 31
0.0
  0
LINE
  5
12D0
330
2
100
AcDbEntity
  8
AM_4
100
AcDbLine
 10
517.348825
 20
66.015923
 30
0.0
 11
517.16039
 21
66.47355199999999
 31
0.0
  0
LINE
  5
12D1
330
2
100
AcDbEntity
  8
AM_4
100
AcDbLine
 10
524.663195
 20
66.796584
 30
0.0
 11
524.663195
 21
66.796584
 31
0.0
  0
LINE
  5
12D2
330
2
100
AcDbEntity
  8
AM_4
100
AcDbLine
 10
524.4747589999999
 20
64.05081199999999
 30
0.0
 11
523.8825339999999
 21
63.781618
 31
0.0
  0
LINE
  5
12D3
330
2
100
AcDbEntity
  8
AM_4
100
AcDbLine
 10
523.4787439999999
 20
66.069762
 30
0.0
 11
524.070969
 21
66.39279399999999
 31
0.0
  0
LINE
  5
12D4
330
2
100
AcDbEntity
  8
AM_4
100
AcDbLine
 10
522.8057599999999
 20
65.827488
 30
0.0
 11
523.4787439999999
 21
66.069762
 31
0.0
  0
LINE
  5
12D5
330
2
100
AcDbEntity
  8
AM_4
100
AcDbLine
 10
523.4518239999999
 20
63.64702099999999
 30
0.0
 11
522.9672759999999
 21
63.53934399999999
 31
0.0
  0
LINE
  5
12D6
330
2
100
AcDbEntity
  8
AM_4
100
AcDbLine
 10
523.8825339999999
 20
63.781618
 30
0.0
 11
523.4518239999999
 21
63.64702099999999
 31
0.0
  0
LINE
  5
12D7
330
2
100
AcDbEntity
  8
AM_4
100
AcDbLine
 10
528.2665409999999
 20
63.566263
 30
0.0
 11
525.655365
 21
63.566263
 31
0.0
  0
LINE
  5
12D8
330
2
100
AcDbEntity
  8
AM_4
100
AcDbLine
 10
524.663195
 20
64.158489
 30
0.0
 11
524.4747589999999
 21
64.05081199999999
 31
0.0
  0
LINE
  5
12D9
330
2
100
AcDbEntity
  8
AM_4
100
AcDbLine
 10
525.655365
 20
63.566263
 30
0.0
 11
525.655365
 21
63.566263
 31
0.0
  0
LINE
  5
12DA
330
2
100
AcDbEntity
  8
AM_4
100
AcDbLine
 10
524.070969
 20
66.39279399999999
 30
0.0
 11
524.663195
 21
66.796584
 31
0.0
  0
LINE
  5
12DB
330
2
100
AcDbEntity
  8
AM_4
100
AcDbLine
 10
524.663195
 20
66.796584
 30
0.0
 11
524.663195
 21
64.158489
 31
0.0
  0
LINE
  5
12DC
330
2
100
AcDbEntity
  8
AM_4
100
AcDbLine
 10
535.0156049999999
 20
64.885311
 30
0.0
 11
534.7194919999999
 21
65.235263
 31
0.0
  0
LINE
  5
12DD
330
2
100
AcDbEntity
  8
AM_4
100
AcDbLine
 10
534.7194919999999
 20
65.235263
 30
0.0
 11
534.4772179999999
 21
65.612133
 31
0.0
  0
LINE
  5
12DE
330
2
100
AcDbEntity
  8
AM_4
100
AcDbLine
 10
534.4772179999999
 20
65.612133
 30
0.0
 11
534.2618629999999
 21
66.015923
 31
0.0
  0
LINE
  5
12DF
330
2
100
AcDbEntity
  8
AM_4
100
AcDbLine
 10
534.2618629999999
 20
66.015923
 30
0.0
 11
534.073428
 21
66.47355199999999
 31
0.0
  0
LINE
  5
12E0
330
2
100
AcDbEntity
  8
AM_4
100
AcDbLine
 10
530.3893229999999
 20
63.566263
 30
0.0
 11
533.1081769999999
 21
63.566263
 31
0.0
  0
LINE
  5
12E1
330
2
100
AcDbEntity
  8
AM_4
100
AcDbLine
 10
536.8999589999999
 20
63.70086
 30
0.0
 11
536.496168
 21
63.862376
 31
0.0
  0
LINE
  5
12E2
330
2
100
AcDbEntity
  8
AM_4
100
AcDbLine
 10
535.3655559999999
 20
64.562279
 30
0.0
 11
535.0156049999999
 21
64.885311
 31
0.0
  0
LINE
  5
12E3
330
2
100
AcDbEntity
  8
AM_4
100
AcDbLine
 10
535.715507
 20
64.293086
 30
0.0
 11
535.3655559999999
 21
64.562279
 31
0.0
  0
LINE
  5
12E4
330
2
100
AcDbEntity
  8
AM_4
100
AcDbLine
 10
536.092378
 20
64.07773099999999
 30
0.0
 11
535.715507
 21
64.293086
 31
0.0
  0
LINE
  5
12E5
330
2
100
AcDbEntity
  8
AM_4
100
AcDbLine
 10
536.496168
 20
63.862376
 30
0.0
 11
536.092378
 21
64.07773099999999
 31
0.0
  0
LINE
  5
12E6
330
2
100
AcDbEntity
  8
AM_4
100
AcDbLine
 10
538.538193
 20
65.71981099999999
 30
0.0
 11
539.07658
 21
65.71981099999999
 31
0.0
  0
LINE
  5
12E7
330
2
100
AcDbEntity
  8
AM_4
100
AcDbLine
 10
539.3188539999999
 20
63.45858599999999
 30
0.0
 11
538.699709
 21
63.43166700000001
 31
0.0
  0
LINE
  5
12E8
330
2
100
AcDbEntity
  8
AM_4
100
AcDbLine
 10
538.24208
 20
63.43166700000001
 30
0.0
 11
537.784451
 21
63.485505
 31
0.0
  0
LINE
  5
12E9
330
2
100
AcDbEntity
  8
AM_4
100
AcDbLine
 10
538.1613219999999
 20
65.80056899999999
 30
0.0
 11
538.538193
 21
65.71981099999999
 31
0.0
  0
LINE
  5
12EA
330
2
100
AcDbEntity
  8
AM_4
100
AcDbLine
 10
538.699709
 20
63.43166700000001
 30
0.0
 11
538.24208
 21
63.43166700000001
 31
0.0
  0
LINE
  5
12EB
330
2
100
AcDbEntity
  8
AM_4
100
AcDbLine
 10
537.3537419999999
 20
63.59318299999999
 30
0.0
 11
536.8999589999999
 21
63.70086
 31
0.0
  0
LINE
  5
12EC
330
2
100
AcDbEntity
  8
AM_4
100
AcDbLine
 10
537.784451
 20
63.485505
 30
0.0
 11
537.3537419999999
 21
63.59318299999999
 31
0.0
  0
LINE
  5
12ED
330
2
100
AcDbEntity
  8
AM_4
100
AcDbLine
 10
537.9998059999999
 20
65.827488
 30
0.0
 11
538.1613219999999
 21
65.80056899999999
 31
0.0
  0
LINE
  5
12EE
330
2
100
AcDbEntity
  8
AM_4
100
AcDbLine
 10
540.395627
 20
66.069762
 30
0.0
 11
540.984007
 21
66.39279399999999
 31
0.0
  0
LINE
  5
12EF
330
2
100
AcDbEntity
  8
AM_4
100
AcDbLine
 10
539.722644
 20
65.827488
 30
0.0
 11
540.395627
 21
66.069762
 31
0.0
  0
LINE
  5
12F0
330
2
100
AcDbEntity
  8
AM_4
100
AcDbLine
 10
539.07658
 20
65.71981099999999
 30
0.0
 11
539.399612
 21
65.74673
 31
0.0
  0
LINE
  5
12F1
330
2
100
AcDbEntity
  8
AM_4
100
AcDbLine
 10
539.8841599999999
 20
63.53934399999999
 30
0.0
 11
539.3188539999999
 21
63.45858599999999
 31
0.0
  0
LINE
  5
12F2
330
2
100
AcDbEntity
  8
AM_4
100
AcDbLine
 10
540.395627
 20
63.64702099999999
 30
0.0
 11
539.8841599999999
 21
63.53934399999999
 31
0.0
  0
LINE
  5
12F3
330
2
100
AcDbEntity
  8
AM_4
100
AcDbLine
 10
540.7994169999999
 20
63.781618
 30
0.0
 11
540.395627
 21
63.64702099999999
 31
0.0
  0
LINE
  5
12F4
330
2
100
AcDbEntity
  8
AM_4
100
AcDbLine
 10
539.399612
 20
65.74673
 30
0.0
 11
539.722644
 21
65.827488
 31
0.0
  0
LINE
  5
12F5
330
2
100
AcDbEntity
  8
AM_4
100
AcDbLine
 10
516.783519
 20
72.03816500000001
 30
0.0
 11
515.814423
 21
72.03816500000001
 31
0.0
  0
LINE
  5
12F6
330
2
100
AcDbEntity
  8
AM_4
100
AcDbLine
 10
516.32589
 20
69.78078599999999
 30
0.0
 11
516.4874059999999
 21
69.807705
 31
0.0
  0
LINE
  5
12F7
330
2
100
AcDbEntity
  8
AM_4
100
AcDbLine
 10
513.3955269999999
 20
71.095988
 30
0.0
 11
513.234011
 21
70.88063299999999
 31
0.0
  0
LINE
  5
12F8
330
2
100
AcDbEntity
  8
AM_4
100
AcDbLine
 10
512.937899
 20
70.04997900000001
 30
0.0
 11
512.910979
 21
69.700028
 31
0.0
  0
LINE
  5
12F9
330
2
100
AcDbEntity
  8
AM_4
100
AcDbLine
 10
513.045576
 20
70.42685
 30
0.0
 11
512.937899
 21
70.04997900000001
 31
0.0
  0
LINE
  5
12FA
330
2
100
AcDbEntity
  8
AM_4
100
AcDbLine
 10
513.234011
 20
70.88063299999999
 30
0.0
 11
513.045576
 21
70.42685
 31
0.0
  0
LINE
  5
12FB
330
2
100
AcDbEntity
  8
AM_4
100
AcDbLine
 10
516.002858
 20
69.700028
 30
0.0
 11
516.32589
 21
69.78078599999999
 31
0.0
  0
LINE
  5
12FC
330
2
100
AcDbEntity
  8
AM_4
100
AcDbLine
 10
515.8413419999999
 20
69.56543100000001
 30
0.0
 11
516.002858
 21
69.700028
 31
0.0
  0
LINE
  5
12FD
330
2
100
AcDbEntity
  8
AM_4
100
AcDbLine
 10
515.6798259999999
 20
69.403915
 30
0.0
 11
515.8413419999999
 21
69.56543100000001
 31
0.0
  0
LINE
  5
12FE
330
2
100
AcDbEntity
  8
AM_4
100
AcDbLine
 10
513.583963
 20
71.31134300000001
 30
0.0
 11
513.3955269999999
 21
71.095988
 31
0.0
  0
LINE
  5
12FF
330
2
100
AcDbEntity
  8
AM_4
100
AcDbLine
 10
513.8262369999999
 20
71.49977800000001
 30
0.0
 11
513.583963
 21
71.31134300000001
 31
0.0
  0
LINE
  5
1300
330
2
100
AcDbEntity
  8
AM_4
100
AcDbLine
 10
514.0915849999999
 20
71.68821300000001
 30
0.0
 11
513.8262369999999
 21
71.49977800000001
 31
0.0
  0
LINE
  5
1301
330
2
100
AcDbEntity
  8
AM_4
100
AcDbLine
 10
514.441536
 20
71.82281
 30
0.0
 11
514.0915849999999
 21
71.68821300000001
 31
0.0
  0
LINE
  5
1302
330
2
100
AcDbEntity
  8
AM_4
100
AcDbLine
 10
514.818407
 20
71.95740699999999
 30
0.0
 11
514.441536
 21
71.82281
 31
0.0
  0
LINE
  5
1303
330
2
100
AcDbEntity
  8
AM_4
100
AcDbLine
 10
515.2760360000001
 20
72.011245
 30
0.0
 11
514.818407
 21
71.95740699999999
 31
0.0
  0
LINE
  5
1304
330
2
100
AcDbEntity
  8
AM_4
100
AcDbLine
 10
515.5183099999999
 20
68.892447
 30
0.0
 11
515.5183099999999
 21
68.892447
 31
0.0
  0
LINE
  5
1305
330
2
100
AcDbEntity
  8
AM_4
100
AcDbLine
 10
515.5183099999999
 20
68.892447
 30
0.0
 11
515.5721489999999
 21
69.18855999999999
 31
0.0
  0
LINE
  5
1306
330
2
100
AcDbEntity
  8
AM_4
100
AcDbLine
 10
515.814423
 20
72.03816500000001
 30
0.0
 11
515.2760360000001
 21
72.011245
 31
0.0
  0
LINE
  5
1307
330
2
100
AcDbEntity
  8
AM_4
100
AcDbLine
 10
515.5721489999999
 20
69.18855999999999
 30
0.0
 11
515.6798259999999
 21
69.403915
 31
0.0
  0
LINE
  5
1308
330
2
100
AcDbEntity
  8
AM_4
100
AcDbLine
 10
509.5141919999999
 20
77.655512
 30
0.0
 11
509.5141919999999
 21
77.655512
 31
0.0
  0
LINE
  5
1309
330
2
100
AcDbEntity
  8
AM_4
100
AcDbLine
 10
509.185836
 20
77.614097
 30
0.0
 11
509.5141919999999
 21
77.655512
 31
0.0
  0
LINE
  5
130A
330
2
100
AcDbEntity
  8
AM_4
100
AcDbLine
 10
508.8959349999999
 20
77.53126800000001
 30
0.0
 11
509.185836
 21
77.614097
 31
0.0
  0
LINE
  5
130B
330
2
100
AcDbEntity
  8
AM_4
100
AcDbLine
 10
508.6060339999999
 20
77.365611
 30
0.0
 11
508.8959349999999
 21
77.53126800000001
 31
0.0
  0
LINE
  5
130C
330
2
100
AcDbEntity
  8
AM_4
100
AcDbLine
 10
508.3782549999999
 20
77.17924599999999
 30
0.0
 11
508.6060339999999
 21
77.365611
 31
0.0
  0
LINE
  5
130D
330
2
100
AcDbEntity
  8
AM_4
100
AcDbLine
 10
509.5141919999999
 20
77.859625
 30
0.0
 11
509.5141919999999
 21
77.451398
 31
0.0
  0
LINE
  5
130E
330
2
100
AcDbEntity
  8
AM_4
100
AcDbLine
 10
509.5141919999999
 20
77.859625
 30
0.0
 11
509.5141919999999
 21
77.859625
 31
0.0
  0
LINE
  5
130F
330
2
100
AcDbEntity
  8
AM_4
100
AcDbLine
 10
509.3722
 20
77.445482
 30
0.0
 11
509.443196
 21
77.451398
 31
0.0
  0
LINE
  5
1310
330
2
100
AcDbEntity
  8
AM_4
100
AcDbLine
 10
509.3012039999999
 20
77.43660699999999
 30
0.0
 11
509.3722
 21
77.445482
 31
0.0
  0
LINE
  5
1311
330
2
100
AcDbEntity
  8
AM_4
100
AcDbLine
 10
509.230208
 20
77.42181600000001
 30
0.0
 11
509.3012039999999
 21
77.43660699999999
 31
0.0
  0
LINE
  5
1312
330
2
100
AcDbEntity
  8
AM_4
100
AcDbLine
 10
509.16217
 20
77.40702500000001
 30
0.0
 11
509.230208
 21
77.42181600000001
 31
0.0
  0
LINE
  5
1313
330
2
100
AcDbEntity
  8
AM_4
100
AcDbLine
 10
509.0941319999999
 20
77.386318
 30
0.0
 11
509.16217
 21
77.40702500000001
 31
0.0
  0
LINE
  5
1314
330
2
100
AcDbEntity
  8
AM_4
100
AcDbLine
 10
508.963973
 20
77.33898700000001
 30
0.0
 11
509.0941319999999
 21
77.386318
 31
0.0
  0
LINE
  5
1315
330
2
100
AcDbEntity
  8
AM_4
100
AcDbLine
 10
508.9018509999999
 20
77.30940600000001
 30
0.0
 11
508.963973
 21
77.33898700000001
 31
0.0
  0
LINE
  5
1316
330
2
100
AcDbEntity
  8
AM_4
100
AcDbLine
 10
508.8397299999999
 20
77.276866
 30
0.0
 11
508.9018509999999
 21
77.30940600000001
 31
0.0
  0
LINE
  5
1317
330
2
100
AcDbEntity
  8
AM_4
100
AcDbLine
 10
508.721403
 20
77.20586999999999
 30
0.0
 11
508.8397299999999
 21
77.276866
 31
0.0
  0
LINE
  5
1318
330
2
100
AcDbEntity
  8
AM_4
100
AcDbLine
 10
508.665198
 20
77.164455
 30
0.0
 11
508.721403
 21
77.20586999999999
 31
0.0
  0
LINE
  5
1319
330
2
100
AcDbEntity
  8
AM_4
100
AcDbLine
 10
508.558704
 20
77.07571
 30
0.0
 11
508.665198
 21
77.164455
 31
0.0
  0
LINE
  5
131A
330
2
100
AcDbEntity
  8
AM_4
100
AcDbLine
 10
508.508415
 20
77.02837999999999
 30
0.0
 11
508.558704
 21
77.07571
 31
0.0
  0
LINE
  5
131B
330
2
100
AcDbEntity
  8
AM_4
100
AcDbLine
 10
508.4610839999999
 20
76.978091
 30
0.0
 11
508.508415
 21
77.02837999999999
 31
0.0
  0
LINE
  5
131C
330
2
100
AcDbEntity
  8
AM_4
100
AcDbLine
 10
508.413753
 20
76.92484399999999
 30
0.0
 11
508.4610839999999
 21
76.978091
 31
0.0
  0
LINE
  5
131D
330
2
100
AcDbEntity
  8
AM_4
100
AcDbLine
 10
508.3723389999999
 20
76.87159699999999
 30
0.0
 11
508.413753
 21
76.92484399999999
 31
0.0
  0
LINE
  5
131E
330
2
100
AcDbEntity
  8
AM_4
100
AcDbLine
 10
508.330925
 20
76.81539100000001
 30
0.0
 11
508.3723389999999
 21
76.87159699999999
 31
0.0
  0
LINE
  5
131F
330
2
100
AcDbEntity
  8
AM_4
100
AcDbLine
 10
508.259929
 20
76.69706500000001
 30
0.0
 11
508.330925
 21
76.81539100000001
 31
0.0
  0
LINE
  5
1320
330
2
100
AcDbEntity
  8
AM_4
100
AcDbLine
 10
508.351632
 20
77.433649
 30
0.0
 11
508.283594
 21
77.377444
 31
0.0
  0
LINE
  5
1321
330
2
100
AcDbEntity
  8
AM_4
100
AcDbLine
 10
508.422628
 20
77.48985400000001
 30
0.0
 11
508.351632
 21
77.433649
 31
0.0
  0
LINE
  5
1322
330
2
100
AcDbEntity
  8
AM_4
100
AcDbLine
 10
508.493624
 20
77.540143
 30
0.0
 11
508.422628
 21
77.48985400000001
 31
0.0
  0
LINE
  5
1323
330
2
100
AcDbEntity
  8
AM_4
100
AcDbLine
 10
508.567578
 20
77.59043199999999
 30
0.0
 11
508.493624
 21
77.540143
 31
0.0
  0
LINE
  5
1324
330
2
100
AcDbEntity
  8
AM_4
100
AcDbLine
 10
508.6444909999999
 20
77.634804
 30
0.0
 11
508.567578
 21
77.59043199999999
 31
0.0
  0
LINE
  5
1325
330
2
100
AcDbEntity
  8
AM_4
100
AcDbLine
 10
508.724361
 20
77.67621899999999
 30
0.0
 11
508.6444909999999
 21
77.634804
 31
0.0
  0
LINE
  5
1326
330
2
100
AcDbEntity
  8
AM_4
100
AcDbLine
 10
508.804232
 20
77.711717
 30
0.0
 11
508.724361
 21
77.67621899999999
 31
0.0
  0
LINE
  5
1327
330
2
100
AcDbEntity
  8
AM_4
100
AcDbLine
 10
508.8870599999999
 20
77.74425699999999
 30
0.0
 11
508.804232
 21
77.711717
 31
0.0
  0
LINE
  5
1328
330
2
100
AcDbEntity
  8
AM_4
100
AcDbLine
 10
508.9728469999999
 20
77.77383799999999
 30
0.0
 11
508.8870599999999
 21
77.74425699999999
 31
0.0
  0
LINE
  5
1329
330
2
100
AcDbEntity
  8
AM_4
100
AcDbLine
 10
509.0586339999999
 20
77.800462
 30
0.0
 11
508.9728469999999
 21
77.77383799999999
 31
0.0
  0
LINE
  5
132A
330
2
100
AcDbEntity
  8
AM_4
100
AcDbLine
 10
509.147379
 20
77.821169
 30
0.0
 11
509.0586339999999
 21
77.800462
 31
0.0
  0
LINE
  5
132B
330
2
100
AcDbEntity
  8
AM_4
100
AcDbLine
 10
509.239083
 20
77.83596
 30
0.0
 11
509.147379
 21
77.821169
 31
0.0
  0
LINE
  5
132C
330
2
100
AcDbEntity
  8
AM_4
100
AcDbLine
 10
509.330786
 20
77.84779300000001
 30
0.0
 11
509.239083
 21
77.83596
 31
0.0
  0
LINE
  5
132D
330
2
100
AcDbEntity
  8
AM_4
100
AcDbLine
 10
509.4224889999999
 20
77.856667
 30
0.0
 11
509.330786
 21
77.84779300000001
 31
0.0
  0
LINE
  5
132E
330
2
100
AcDbEntity
  8
AM_4
100
AcDbLine
 10
509.5141919999999
 20
77.859625
 30
0.0
 11
509.4224889999999
 21
77.856667
 31
0.0
  0
LINE
  5
132F
330
2
100
AcDbEntity
  8
AM_4
100
AcDbLine
 10
508.026233
 20
76.66156700000001
 30
0.0
 11
508.1711829999999
 21
76.93075999999999
 31
0.0
  0
LINE
  5
1330
330
2
100
AcDbEntity
  8
AM_4
100
AcDbLine
 10
507.9226969999999
 20
76.350959
 30
0.0
 11
508.026233
 21
76.66156700000001
 31
0.0
  0
LINE
  5
1331
330
2
100
AcDbEntity
  8
AM_4
100
AcDbLine
 10
508.1978069999999
 20
76.572822
 30
0.0
 11
508.2273889999999
 21
76.634943
 31
0.0
  0
LINE
  5
1332
330
2
100
AcDbEntity
  8
AM_4
100
AcDbLine
 10
508.1711829999999
 20
76.507742
 30
0.0
 11
508.1978069999999
 21
76.572822
 31
0.0
  0
LINE
  5
1333
330
2
100
AcDbEntity
  8
AM_4
100
AcDbLine
 10
508.1504759999999
 20
76.439704
 30
0.0
 11
508.1711829999999
 21
76.507742
 31
0.0
  0
LINE
  5
1334
330
2
100
AcDbEntity
  8
AM_4
100
AcDbLine
 10
508.129769
 20
76.374624
 30
0.0
 11
508.1504759999999
 21
76.439704
 31
0.0
  0
LINE
  5
1335
330
2
100
AcDbEntity
  8
AM_4
100
AcDbLine
 10
508.114978
 20
76.306586
 30
0.0
 11
508.129769
 21
76.374624
 31
0.0
  0
LINE
  5
1336
330
2
100
AcDbEntity
  8
AM_4
100
AcDbLine
 10
508.100187
 20
76.23559
 30
0.0
 11
508.114978
 21
76.306586
 31
0.0
  0
LINE
  5
1337
330
2
100
AcDbEntity
  8
AM_4
100
AcDbLine
 10
507.860576
 20
76.812433
 30
0.0
 11
507.825078
 21
76.732563
 31
0.0
  0
LINE
  5
1338
330
2
100
AcDbEntity
  8
AM_4
100
AcDbLine
 10
507.90199
 20
76.89230400000001
 30
0.0
 11
507.860576
 21
76.812433
 31
0.0
  0
LINE
  5
1339
330
2
100
AcDbEntity
  8
AM_4
100
AcDbLine
 10
507.9463629999999
 20
76.969216
 30
0.0
 11
507.90199
 21
76.89230400000001
 31
0.0
  0
LINE
  5
133A
330
2
100
AcDbEntity
  8
AM_4
100
AcDbLine
 10
507.996651
 20
77.043171
 30
0.0
 11
507.9463629999999
 21
76.969216
 31
0.0
  0
LINE
  5
133B
330
2
100
AcDbEntity
  8
AM_4
100
AcDbLine
 10
508.0469400000001
 20
77.114167
 30
0.0
 11
507.996651
 21
77.043171
 31
0.0
  0
LINE
  5
133C
330
2
100
AcDbEntity
  8
AM_4
100
AcDbLine
 10
508.103146
 20
77.185163
 30
0.0
 11
508.0469400000001
 21
77.114167
 31
0.0
  0
LINE
  5
133D
330
2
100
AcDbEntity
  8
AM_4
100
AcDbLine
 10
508.1593509999999
 20
77.250242
 30
0.0
 11
508.103146
 21
77.185163
 31
0.0
  0
LINE
  5
133E
330
2
100
AcDbEntity
  8
AM_4
100
AcDbLine
 10
508.2214719999999
 20
77.315322
 30
0.0
 11
508.1593509999999
 21
77.250242
 31
0.0
  0
LINE
  5
133F
330
2
100
AcDbEntity
  8
AM_4
100
AcDbLine
 10
508.1711829999999
 20
76.93075999999999
 30
0.0
 11
508.3782549999999
 21
77.17924599999999
 31
0.0
  0
LINE
  5
1340
330
2
100
AcDbEntity
  8
AM_4
100
AcDbLine
 10
508.2273889999999
 20
76.634943
 30
0.0
 11
508.259929
 21
76.69706500000001
 31
0.0
  0
LINE
  5
1341
330
2
100
AcDbEntity
  8
AM_4
100
AcDbLine
 10
508.283594
 20
77.377444
 30
0.0
 11
508.2214719999999
 21
77.315322
 31
0.0
  0
LINE
  5
1342
330
2
100
AcDbEntity
  8
AM_4
100
AcDbLine
 10
508.0853969999999
 20
76.093598
 30
0.0
 11
508.0913129999999
 21
76.164594
 31
0.0
  0
LINE
  5
1343
330
2
100
AcDbEntity
  8
AM_4
100
AcDbLine
 10
507.881283
 20
76.022602
 30
0.0
 11
507.9226969999999
 21
76.350959
 31
0.0
  0
LINE
  5
1344
330
2
100
AcDbEntity
  8
AM_4
100
AcDbLine
 10
508.0913129999999
 20
76.164594
 30
0.0
 11
508.100187
 21
76.23559
 31
0.0
  0
LINE
  5
1345
330
2
100
AcDbEntity
  8
AM_4
100
AcDbLine
 10
507.7008339999999
 20
76.297712
 30
0.0
 11
507.6890019999999
 21
76.20600899999999
 31
0.0
  0
LINE
  5
1346
330
2
100
AcDbEntity
  8
AM_4
100
AcDbLine
 10
507.7156249999999
 20
76.389415
 30
0.0
 11
507.7008339999999
 21
76.297712
 31
0.0
  0
LINE
  5
1347
330
2
100
AcDbEntity
  8
AM_4
100
AcDbLine
 10
507.7363329999999
 20
76.47816
 30
0.0
 11
507.7156249999999
 21
76.389415
 31
0.0
  0
LINE
  5
1348
330
2
100
AcDbEntity
  8
AM_4
100
AcDbLine
 10
507.762956
 20
76.56394699999999
 30
0.0
 11
507.7363329999999
 21
76.47816
 31
0.0
  0
LINE
  5
1349
330
2
100
AcDbEntity
  8
AM_4
100
AcDbLine
 10
507.7925379999999
 20
76.649734
 30
0.0
 11
507.762956
 21
76.56394699999999
 31
0.0
  0
LINE
  5
134A
330
2
100
AcDbEntity
  8
AM_4
100
AcDbLine
 10
507.6801269999999
 20
76.114305
 30
0.0
 11
507.677169
 21
76.022602
 31
0.0
  0
LINE
  5
134B
330
2
100
AcDbEntity
  8
AM_4
100
AcDbLine
 10
507.677169
 20
76.022602
 30
0.0
 11
507.677169
 21
76.022602
 31
0.0
  0
LINE
  5
134C
330
2
100
AcDbEntity
  8
AM_4
100
AcDbLine
 10
507.6890019999999
 20
76.20600899999999
 30
0.0
 11
507.6801269999999
 21
76.114305
 31
0.0
  0
LINE
  5
134D
330
2
100
AcDbEntity
  8
AM_4
100
AcDbLine
 10
507.825078
 20
76.732563
 30
0.0
 11
507.7925379999999
 21
76.649734
 31
0.0
  0
LINE
  5
134E
330
2
100
AcDbEntity
  8
AM_4
100
AcDbLine
 10
507.677169
 20
76.022602
 30
0.0
 11
508.0853969999999
 21
76.022602
 31
0.0
  0
ARC
  5
134F
330
2
100
AcDbEntity
  8
AM_4
100
AcDbCircle
 10
509.5141919999999
 20
76.022602
 30
0.0
 40
1.460545999999999
100
AcDbArc
 50
90.0
 51
180.0
  0
ARC
  5
1350
330
2
100
AcDbEntity
  8
AM_4
100
AcDbCircle
 10
509.5141919999999
 20
76.022602
 30
0.0
 40
1.837022999999999
100
AcDbArc
 50
90.0
 51
180.0
  0
ARC
  5
1351
330
2
100
AcDbEntity
  8
AM_4
100
AcDbCircle
 10
509.5141919999999
 20
76.022602
 30
0.0
 40
1.428795999999999
100
AcDbArc
 50
90.0
 51
180.0
  0
LINE
  5
1352
330
2
100
AcDbEntity
  8
AM_4
100
AcDbLine
 10
529.101041
 20
73.114938
 30
0.0
 11
528.751089
 21
73.03418
 31
0.0
  0
LINE
  5
1353
330
2
100
AcDbEntity
  8
AM_4
100
AcDbLine
 10
528.5626539999999
 20
75.210802
 30
0.0
 11
529.527904
 21
75.210802
 31
0.0
  0
LINE
  5
1354
330
2
100
AcDbEntity
  8
AM_4
100
AcDbLine
 10
528.2665409999999
 20
71.338262
 30
0.0
 11
529.424073
 21
71.338262
 31
0.0
  0
LINE
  5
1355
330
2
100
AcDbEntity
  8
AM_4
100
AcDbLine
 10
529.424073
 20
69.323157
 30
0.0
 11
528.2665409999999
 21
69.323157
 31
0.0
  0
LINE
  5
1356
330
2
100
AcDbEntity
  8
AM_4
100
AcDbLine
 10
522.40197
 20
71.903568
 30
0.0
 11
523.021115
 21
71.634375
 31
0.0
  0
LINE
  5
1357
330
2
100
AcDbEntity
  8
AM_4
100
AcDbLine
 10
520.521462
 20
72.11892299999999
 30
0.0
 11
521.0329289999999
 21
72.145842
 31
0.0
  0
LINE
  5
1358
330
2
100
AcDbEntity
  8
AM_4
100
AcDbLine
 10
520.682978
 20
69.888463
 30
0.0
 11
520.2791879999999
 21
69.753866
 31
0.0
  0
LINE
  5
1359
330
2
100
AcDbEntity
  8
AM_4
100
AcDbLine
 10
521.732832
 20
72.092003
 30
0.0
 11
522.40197
 21
71.903568
 31
0.0
  0
LINE
  5
135A
330
2
100
AcDbEntity
  8
AM_4
100
AcDbLine
 10
521.0329289999999
 20
72.145842
 30
0.0
 11
521.732832
 21
72.092003
 31
0.0
  0
LINE
  5
135B
330
2
100
AcDbEntity
  8
AM_4
100
AcDbLine
 10
521.0598489999999
 20
69.91538199999999
 30
0.0
 11
520.682978
 21
69.888463
 31
0.0
  0
LINE
  5
135C
330
2
100
AcDbEntity
  8
AM_4
100
AcDbLine
 10
521.3828809999999
 20
69.861544
 30
0.0
 11
521.0598489999999
 21
69.91538199999999
 31
0.0
  0
LINE
  5
135D
330
2
100
AcDbEntity
  8
AM_4
100
AcDbLine
 10
521.6789939999999
 20
69.78078599999999
 30
0.0
 11
521.3828809999999
 21
69.861544
 31
0.0
  0
LINE
  5
135E
330
2
100
AcDbEntity
  8
AM_4
100
AcDbLine
 10
521.8905030000001
 20
69.67310799999999
 30
0.0
 11
521.6789939999999
 21
69.78078599999999
 31
0.0
  0
LINE
  5
135F
330
2
100
AcDbEntity
  8
AM_4
100
AcDbLine
 10
522.078938
 20
69.56543100000001
 30
0.0
 11
521.8905030000001
 21
69.67310799999999
 31
0.0
  0
LINE
  5
1360
330
2
100
AcDbEntity
  8
AM_4
100
AcDbLine
 10
519.310091
 20
68.38098000000001
 30
0.0
 11
519.2831719999999
 21
68.057948
 31
0.0
  0
LINE
  5
1361
330
2
100
AcDbEntity
  8
AM_4
100
AcDbLine
 10
516.918116
 20
68.03102800000001
 30
0.0
 11
516.9988739999999
 21
68.78477
 31
0.0
  0
LINE
  5
1362
330
2
100
AcDbEntity
  8
AM_4
100
AcDbLine
 10
519.471608
 20
67.38496399999999
 30
0.0
 11
519.471608
 21
67.38496399999999
 31
0.0
  0
LINE
  5
1363
330
2
100
AcDbEntity
  8
AM_4
100
AcDbLine
 10
519.390849
 20
67.57340000000001
 30
0.0
 11
519.471608
 21
67.38496399999999
 31
0.0
  0
LINE
  5
1364
330
2
100
AcDbEntity
  8
AM_4
100
AcDbLine
 10
519.337011
 20
67.788754
 30
0.0
 11
519.390849
 21
67.57340000000001
 31
0.0
  0
LINE
  5
1365
330
2
100
AcDbEntity
  8
AM_4
100
AcDbLine
 10
519.2831719999999
 20
68.057948
 30
0.0
 11
519.337011
 21
67.788754
 31
0.0
  0
LINE
  5
1366
330
2
100
AcDbEntity
  8
AM_4
100
AcDbLine
 10
516.9450349999999
 20
67.465722
 30
0.0
 11
516.918116
 21
68.03102800000001
 31
0.0
  0
LINE
  5
1367
330
2
100
AcDbEntity
  8
AM_4
100
AcDbLine
 10
517.025793
 20
66.9581
 30
0.0
 11
516.9450349999999
 21
67.465722
 31
0.0
  0
LINE
  5
1368
330
2
100
AcDbEntity
  8
AM_4
100
AcDbLine
 10
516.4874059999999
 20
69.807705
 30
0.0
 11
516.783519
 21
69.807705
 31
0.0
  0
LINE
  5
1369
330
2
100
AcDbEntity
  8
AM_4
100
AcDbLine
 10
516.783519
 20
69.807705
 30
0.0
 11
516.783519
 21
72.03816500000001
 31
0.0
  0
LINE
  5
136A
330
2
100
AcDbEntity
  8
AM_4
100
AcDbLine
 10
519.6331240000001
 20
71.930487
 30
0.0
 11
520.063833
 21
72.03816500000001
 31
0.0
  0
LINE
  5
136B
330
2
100
AcDbEntity
  8
AM_4
100
AcDbLine
 10
518.8524629999999
 20
71.58053599999999
 30
0.0
 11
519.229333
 21
71.76897099999999
 31
0.0
  0
LINE
  5
136C
330
2
100
AcDbEntity
  8
AM_4
100
AcDbLine
 10
518.5294309999999
 20
71.365181
 30
0.0
 11
518.8524629999999
 21
71.58053599999999
 31
0.0
  0
LINE
  5
136D
330
2
100
AcDbEntity
  8
AM_4
100
AcDbLine
 10
519.229333
 20
71.76897099999999
 30
0.0
 11
519.6331240000001
 21
71.930487
 31
0.0
  0
LINE
  5
136E
330
2
100
AcDbEntity
  8
AM_4
100
AcDbLine
 10
519.390849
 20
68.73093100000001
 30
0.0
 11
519.310091
 21
68.38098000000001
 31
0.0
  0
LINE
  5
136F
330
2
100
AcDbEntity
  8
AM_4
100
AcDbLine
 10
519.5792849999999
 20
69.10780200000001
 30
0.0
 11
519.390849
 21
68.73093100000001
 31
0.0
  0
LINE
  5
1370
330
2
100
AcDbEntity
  8
AM_4
100
AcDbLine
 10
519.902317
 20
69.484673
 30
0.0
 11
519.5792849999999
 21
69.10780200000001
 31
0.0
  0
LINE
  5
1371
330
2
100
AcDbEntity
  8
AM_4
100
AcDbLine
 10
517.6987769999999
 20
70.534527
 30
0.0
 11
517.9372049999999
 21
70.82679399999999
 31
0.0
  0
LINE
  5
1372
330
2
100
AcDbEntity
  8
AM_4
100
AcDbLine
 10
517.510341
 20
70.21149499999999
 30
0.0
 11
517.6987769999999
 21
70.534527
 31
0.0
  0
LINE
  5
1373
330
2
100
AcDbEntity
  8
AM_4
100
AcDbLine
 10
517.321906
 20
69.861544
 30
0.0
 11
517.510341
 21
70.21149499999999
 31
0.0
  0
LINE
  5
1374
330
2
100
AcDbEntity
  8
AM_4
100
AcDbLine
 10
517.187309
 20
69.51159200000001
 30
0.0
 11
517.321906
 21
69.861544
 31
0.0
  0
LINE
  5
1375
330
2
100
AcDbEntity
  8
AM_4
100
AcDbLine
 10
516.9988739999999
 20
68.78477
 30
0.0
 11
517.187309
 21
69.51159200000001
 31
0.0
  0
LINE
  5
1376
330
2
100
AcDbEntity
  8
AM_4
100
AcDbLine
 10
517.9372049999999
 20
70.82679399999999
 30
0.0
 11
518.5294309999999
 21
71.365181
 31
0.0
  0
LINE
  5
1377
330
2
100
AcDbEntity
  8
AM_4
100
AcDbLine
 10
519.471608
 20
67.38496399999999
 30
0.0
 11
522.078938
 21
69.56543100000001
 31
0.0
  0
LINE
  5
1378
330
2
100
AcDbEntity
  8
AM_4
100
AcDbLine
 10
520.063833
 20
72.03816500000001
 30
0.0
 11
520.521462
 21
72.11892299999999
 31
0.0
  0
LINE
  5
1379
330
2
100
AcDbEntity
  8
AM_4
100
AcDbLine
 10
520.2791879999999
 20
69.753866
 30
0.0
 11
519.902317
 21
69.484673
 31
0.0
  0
LINE
  5
137A
330
2
100
AcDbEntity
  8
AM_4
100
AcDbLine
 10
524.097889
 20
70.85371399999999
 30
0.0
 11
524.501679
 21
70.39993100000001
 31
0.0
  0
LINE
  5
137B
330
2
100
AcDbEntity
  8
AM_4
100
AcDbLine
 10
523.021115
 20
71.634375
 30
0.0
 11
523.5864209999999
 21
71.284423
 31
0.0
  0
LINE
  5
137C
330
2
100
AcDbEntity
  8
AM_4
100
AcDbLine
 10
523.5864209999999
 20
71.284423
 30
0.0
 11
524.097889
 21
70.85371399999999
 31
0.0
  0
LINE
  5
137D
330
2
100
AcDbEntity
  8
AM_4
100
AcDbLine
 10
527.593558
 20
75.103124
 30
0.0
 11
528.051186
 21
75.183882
 31
0.0
  0
LINE
  5
137E
330
2
100
AcDbEntity
  8
AM_4
100
AcDbLine
 10
525.6822839999999
 20
73.195696
 30
0.0
 11
525.789962
 21
73.599487
 31
0.0
  0
LINE
  5
137F
330
2
100
AcDbEntity
  8
AM_4
100
AcDbLine
 10
525.655365
 20
72.84574499999999
 30
0.0
 11
525.6822839999999
 21
73.195696
 31
0.0
  0
LINE
  5
1380
330
2
100
AcDbEntity
  8
AM_4
100
AcDbLine
 10
527.1897669999999
 20
74.96852700000001
 30
0.0
 11
527.593558
 21
75.103124
 31
0.0
  0
LINE
  5
1381
330
2
100
AcDbEntity
  8
AM_4
100
AcDbLine
 10
526.839816
 20
74.833931
 30
0.0
 11
527.1897669999999
 21
74.96852700000001
 31
0.0
  0
LINE
  5
1382
330
2
100
AcDbEntity
  8
AM_4
100
AcDbLine
 10
526.328348
 20
74.46090600000001
 30
0.0
 11
526.5706230000001
 21
74.645495
 31
0.0
  0
LINE
  5
1383
330
2
100
AcDbEntity
  8
AM_4
100
AcDbLine
 10
526.139913
 20
74.245551
 30
0.0
 11
526.328348
 21
74.46090600000001
 31
0.0
  0
LINE
  5
1384
330
2
100
AcDbEntity
  8
AM_4
100
AcDbLine
 10
526.005316
 20
74.03019599999999
 30
0.0
 11
526.139913
 21
74.245551
 31
0.0
  0
LINE
  5
1385
330
2
100
AcDbEntity
  8
AM_4
100
AcDbLine
 10
525.789962
 20
73.599487
 30
0.0
 11
526.005316
 21
74.03019599999999
 31
0.0
  0
LINE
  5
1386
330
2
100
AcDbEntity
  8
AM_4
100
AcDbLine
 10
526.5706230000001
 20
74.645495
 30
0.0
 11
526.839816
 21
74.833931
 31
0.0
  0
LINE
  5
1387
330
2
100
AcDbEntity
  8
AM_4
100
AcDbLine
 10
528.428057
 20
72.738068
 30
0.0
 11
528.3203799999999
 21
72.522713
 31
0.0
  0
LINE
  5
1388
330
2
100
AcDbEntity
  8
AM_4
100
AcDbLine
 10
528.589573
 20
72.89958399999999
 30
0.0
 11
528.428057
 21
72.738068
 31
0.0
  0
LINE
  5
1389
330
2
100
AcDbEntity
  8
AM_4
100
AcDbLine
 10
528.751089
 20
73.03418
 30
0.0
 11
528.589573
 21
72.89958399999999
 31
0.0
  0
LINE
  5
138A
330
2
100
AcDbEntity
  8
AM_4
100
AcDbLine
 10
528.051186
 20
75.183882
 30
0.0
 11
528.5626539999999
 21
75.210802
 31
0.0
  0
LINE
  5
138B
330
2
100
AcDbEntity
  8
AM_4
100
AcDbLine
 10
524.85163
 20
69.861544
 30
0.0
 11
525.0939039999999
 21
69.323157
 31
0.0
  0
LINE
  5
138C
330
2
100
AcDbEntity
  8
AM_4
100
AcDbLine
 10
524.501679
 20
70.39993100000001
 30
0.0
 11
524.85163
 21
69.861544
 31
0.0
  0
LINE
  5
138D
330
2
100
AcDbEntity
  8
AM_4
100
AcDbLine
 10
528.2665409999999
 20
72.22660000000001
 30
0.0
 11
528.2665409999999
 21
71.338262
 31
0.0
  0
LINE
  5
138E
330
2
100
AcDbEntity
  8
AM_4
100
AcDbLine
 10
528.3203799999999
 20
72.522713
 30
0.0
 11
528.2665409999999
 21
72.22660000000001
 31
0.0
  0
LINE
  5
138F
330
2
100
AcDbEntity
  8
AM_4
100
AcDbLine
 10
534.8540889999999
 20
70.82679399999999
 30
0.0
 11
535.4463139999999
 21
71.365181
 31
0.0
  0
LINE
  5
1390
330
2
100
AcDbEntity
  8
AM_4
100
AcDbLine
 10
533.8311539999999
 20
68.03102800000001
 30
0.0
 11
533.911912
 21
68.78477
 31
0.0
  0
LINE
  5
1391
330
2
100
AcDbEntity
  8
AM_4
100
AcDbLine
 10
533.858073
 20
67.465722
 30
0.0
 11
533.8311539999999
 21
68.03102800000001
 31
0.0
  0
LINE
  5
1392
330
2
100
AcDbEntity
  8
AM_4
100
AcDbLine
 10
533.9388309999999
 20
66.9581
 30
0.0
 11
533.858073
 21
67.465722
 31
0.0
  0
LINE
  5
1393
330
2
100
AcDbEntity
  8
AM_4
100
AcDbLine
 10
534.6387339999999
 20
70.534527
 30
0.0
 11
534.8540889999999
 21
70.82679399999999
 31
0.0
  0
LINE
  5
1394
330
2
100
AcDbEntity
  8
AM_4
100
AcDbLine
 10
534.4233789999999
 20
70.21149499999999
 30
0.0
 11
534.6387339999999
 21
70.534527
 31
0.0
  0
LINE
  5
1395
330
2
100
AcDbEntity
  8
AM_4
100
AcDbLine
 10
534.234944
 20
69.861544
 30
0.0
 11
534.4233789999999
 21
70.21149499999999
 31
0.0
  0
LINE
  5
1396
330
2
100
AcDbEntity
  8
AM_4
100
AcDbLine
 10
534.1003469999999
 20
69.51159200000001
 30
0.0
 11
534.234944
 21
69.861544
 31
0.0
  0
LINE
  5
1397
330
2
100
AcDbEntity
  8
AM_4
100
AcDbLine
 10
533.911912
 20
68.78477
 30
0.0
 11
534.1003469999999
 21
69.51159200000001
 31
0.0
  0
LINE
  5
1398
330
2
100
AcDbEntity
  8
AM_4
100
AcDbLine
 10
529.527904
 20
75.210802
 30
0.0
 11
529.527904
 21
73.141858
 31
0.0
  0
LINE
  5
1399
330
2
100
AcDbEntity
  8
AM_4
100
AcDbLine
 10
529.235637
 20
73.141858
 30
0.0
 11
529.101041
 21
73.114938
 31
0.0
  0
LINE
  5
139A
330
2
100
AcDbEntity
  8
AM_4
100
AcDbLine
 10
529.527904
 20
73.141858
 30
0.0
 11
529.235637
 21
73.141858
 31
0.0
  0
LINE
  5
139B
330
2
100
AcDbEntity
  8
AM_4
100
AcDbLine
 10
530.3893229999999
 20
75.210802
 30
0.0
 11
530.3893229999999
 21
75.210802
 31
0.0
  0
LINE
  5
139C
330
2
100
AcDbEntity
  8
AM_4
100
AcDbLine
 10
529.424073
 20
71.338262
 30
0.0
 11
529.424073
 21
69.323157
 31
0.0
  0
LINE
  5
139D
330
2
100
AcDbEntity
  8
AM_4
100
AcDbLine
 10
533.1081769999999
 20
75.210802
 30
0.0
 11
530.3893229999999
 21
75.210802
 31
0.0
  0
LINE
  5
139E
330
2
100
AcDbEntity
  8
AM_4
100
AcDbLine
 10
536.388491
 20
67.38496399999999
 30
0.0
 11
538.9958219999999
 21
69.56543100000001
 31
0.0
  0
LINE
  5
139F
330
2
100
AcDbEntity
  8
AM_4
100
AcDbLine
 10
536.550007
 20
71.930487
 30
0.0
 11
536.980717
 21
72.03816500000001
 31
0.0
  0
LINE
  5
13A0
330
2
100
AcDbEntity
  8
AM_4
100
AcDbLine
 10
536.819201
 20
69.484673
 30
0.0
 11
536.496168
 21
69.10780200000001
 31
0.0
  0
LINE
  5
13A1
330
2
100
AcDbEntity
  8
AM_4
100
AcDbLine
 10
536.226975
 20
68.38098000000001
 30
0.0
 11
536.2000559999999
 21
68.057948
 31
0.0
  0
LINE
  5
13A2
330
2
100
AcDbEntity
  8
AM_4
100
AcDbLine
 10
536.388491
 20
67.38496399999999
 30
0.0
 11
536.388491
 21
67.38496399999999
 31
0.0
  0
LINE
  5
13A3
330
2
100
AcDbEntity
  8
AM_4
100
AcDbLine
 10
536.307733
 20
67.57340000000001
 30
0.0
 11
536.388491
 21
67.38496399999999
 31
0.0
  0
LINE
  5
13A4
330
2
100
AcDbEntity
  8
AM_4
100
AcDbLine
 10
536.253894
 20
67.788754
 30
0.0
 11
536.307733
 21
67.57340000000001
 31
0.0
  0
LINE
  5
13A5
330
2
100
AcDbEntity
  8
AM_4
100
AcDbLine
 10
536.2000559999999
 20
68.057948
 30
0.0
 11
536.253894
 21
67.788754
 31
0.0
  0
LINE
  5
13A6
330
2
100
AcDbEntity
  8
AM_4
100
AcDbLine
 10
536.146217
 20
71.76897099999999
 30
0.0
 11
536.550007
 21
71.930487
 31
0.0
  0
LINE
  5
13A7
330
2
100
AcDbEntity
  8
AM_4
100
AcDbLine
 10
535.769346
 20
71.58053599999999
 30
0.0
 11
536.146217
 21
71.76897099999999
 31
0.0
  0
LINE
  5
13A8
330
2
100
AcDbEntity
  8
AM_4
100
AcDbLine
 10
535.4463139999999
 20
71.365181
 30
0.0
 11
535.769346
 21
71.58053599999999
 31
0.0
  0
LINE
  5
13A9
330
2
100
AcDbEntity
  8
AM_4
100
AcDbLine
 10
536.307733
 20
68.73093100000001
 30
0.0
 11
536.226975
 21
68.38098000000001
 31
0.0
  0
LINE
  5
13AA
330
2
100
AcDbEntity
  8
AM_4
100
AcDbLine
 10
536.496168
 20
69.10780200000001
 30
0.0
 11
536.307733
 21
68.73093100000001
 31
0.0
  0
LINE
  5
13AB
330
2
100
AcDbEntity
  8
AM_4
100
AcDbLine
 10
538.64587
 20
72.092003
 30
0.0
 11
539.3188539999999
 21
71.903568
 31
0.0
  0
LINE
  5
13AC
330
2
100
AcDbEntity
  8
AM_4
100
AcDbLine
 10
538.9958219999999
 20
69.56543100000001
 30
0.0
 11
538.807386
 21
69.67310799999999
 31
0.0
  0
LINE
  5
13AD
330
2
100
AcDbEntity
  8
AM_4
100
AcDbLine
 10
537.945967
 20
72.145842
 30
0.0
 11
538.64587
 21
72.092003
 31
0.0
  0
LINE
  5
13AE
330
2
100
AcDbEntity
  8
AM_4
100
AcDbLine
 10
538.807386
 20
69.67310799999999
 30
0.0
 11
538.5920309999999
 21
69.78078599999999
 31
0.0
  0
LINE
  5
13AF
330
2
100
AcDbEntity
  8
AM_4
100
AcDbLine
 10
537.972887
 20
69.91538199999999
 30
0.0
 11
537.5960159999999
 21
69.888463
 31
0.0
  0
LINE
  5
13B0
330
2
100
AcDbEntity
  8
AM_4
100
AcDbLine
 10
538.295919
 20
69.861544
 30
0.0
 11
537.972887
 21
69.91538199999999
 31
0.0
  0
LINE
  5
13B1
330
2
100
AcDbEntity
  8
AM_4
100
AcDbLine
 10
538.5920309999999
 20
69.78078599999999
 30
0.0
 11
538.295919
 21
69.861544
 31
0.0
  0
LINE
  5
13B2
330
2
100
AcDbEntity
  8
AM_4
100
AcDbLine
 10
536.980717
 20
72.03816500000001
 30
0.0
 11
537.4344999999999
 21
72.11892299999999
 31
0.0
  0
LINE
  5
13B3
330
2
100
AcDbEntity
  8
AM_4
100
AcDbLine
 10
537.1922259999999
 20
69.753866
 30
0.0
 11
536.819201
 21
69.484673
 31
0.0
  0
LINE
  5
13B4
330
2
100
AcDbEntity
  8
AM_4
100
AcDbLine
 10
537.5960159999999
 20
69.888463
 30
0.0
 11
537.1922259999999
 21
69.753866
 31
0.0
  0
LINE
  5
13B5
330
2
100
AcDbEntity
  8
AM_4
100
AcDbLine
 10
537.4344999999999
 20
72.11892299999999
 30
0.0
 11
537.945967
 21
72.145842
 31
0.0
  0
LINE
  5
13B6
330
2
100
AcDbEntity
  8
AM_4
100
AcDbLine
 10
539.9379989999999
 20
71.634375
 30
0.0
 11
540.5033049999999
 21
71.284423
 31
0.0
  0
LINE
  5
13B7
330
2
100
AcDbEntity
  8
AM_4
100
AcDbLine
 10
539.3188539999999
 20
71.903568
 30
0.0
 11
539.9379989999999
 21
71.634375
 31
0.0
  0
LINE
  5
13B8
330
2
100
AcDbEntity
  8
AM_4
100
AcDbLine
 10
540.5033049999999
 20
71.284423
 30
0.0
 11
541.0109269999999
 21
70.85371399999999
 31
0.0
  0
LINE
  5
13B9
330
2
100
AcDbEntity
  8
AM_4
100
AcDbLine
 10
546.4986269999999
 20
66.823504
 30
0.0
 11
546.148675
 21
66.877342
 31
0.0
  0
LINE
  5
13BA
330
2
100
AcDbEntity
  8
AM_4
100
AcDbLine
 10
546.148675
 20
66.877342
 30
0.0
 11
545.7718039999999
 21
66.823504
 31
0.0
  0
LINE
  5
13BB
330
2
100
AcDbEntity
  8
AM_4
100
AcDbLine
 10
542.5722480000001
 20
66.715826
 30
0.0
 11
542.706845
 21
67.088852
 31
0.0
  0
LINE
  5
13BC
330
2
100
AcDbEntity
  8
AM_4
100
AcDbLine
 10
554.7083159999999
 20
76.022602
 30
0.0
 11
554.7083159999999
 21
61.76718399999999
 31
0.0
  0
LINE
  5
13BD
330
2
100
AcDbEntity
  8
AM_4
100
AcDbLine
 10
555.0847919999999
 20
76.022602
 30
0.0
 11
555.0847919999999
 21
61.76718399999999
 31
0.0
  0
LINE
  5
13BE
330
2
100
AcDbEntity
  8
AM_4
100
AcDbLine
 10
554.8806789999999
 20
76.022602
 30
0.0
 11
554.8806789999999
 21
61.76718399999999
 31
0.0
  0
LINE
  5
13BF
330
2
100
AcDbEntity
  8
AM_4
100
AcDbLine
 10
554.676565
 20
61.696188
 30
0.0
 11
554.676565
 21
76.093598
 31
0.0
  0
HATCH
  5
13C0
330
2
100
AcDbEntity
  8
AM_4
100
AcDbHatch
 10
0.0
 20
0.0
 30
0.0
210
0.0
220
0.0
230
1.0
  2
SOLID
 70
     1
 71
     0
 91
        2
 92
        7
 72
     0
 73
     1
 93
        4
 10
554.8806787437497
 20
76.0226020855014
 10
554.6765650529744
 20
76.0226020855014
 10
554.6765650529744
 20
61.76718359497653
 10
554.8806787437497
 20
61.76718359497653
 97
        0
 92
        7
 72
     0
 73
     1
 93
       42
 10
554.7564356276263
 20
61.14892618378786
 10
554.8599715577291
 20
61.43882678807694
 10
554.8806787437497
 20
61.76718359497653
 10
554.6765650529744
 20
61.76718359497653
 10
554.6765650529744
 20
61.69618752861943
 10
554.6706487141123
 20
61.62519146226149
 10
554.6617742058183
 20
61.55419539591332
 10
554.6499415280916
 20
61.4831993295497
 10
554.632192511498
 20
61.41516143261412
 10
554.6144434949126
 20
61.35008170513308
 10
554.5907781394598
 20
61.28500197763793
 10
554.5671127840103
 20
61.21992225014604
 10
554.5375310896921
 20
61.15780069208221
 10
554.5079493953773
 20
61.09567913401996
 10
554.4724513621998
 20
61.0394739148181
 10
554.4369533290216
 20
60.98031052619091
 10
554.3955389569799
 20
60.9270634764203
 10
554.3541245849386
 20
60.87085825722306
 10
554.3097520434671
 20
60.82056937689021
 10
554.2624213325583
 20
60.7732386659832
 10
554.212132452228
 20
60.72590795507972
 10
554.1618435718898
 20
60.6815354136059
 10
554.1056383526896
 20
60.64012104156495
 10
554.04943313349
 20
60.59870666952264
 10
553.9932279142865
 20
60.56320863634393
 10
553.9340645256621
 20
60.52771060316661
 10
553.8719429676
 20
60.49812890884989
 10
553.8068632401055
 20
60.46854721453701
 10
553.7417835126125
 20
60.44488185908442
 10
553.6767037851193
 20
60.42121650363217
 10
553.6086658881917
 20
60.40346748704241
 10
553.5376698218372
 20
60.38867663988529
 10
553.4666737554799
 20
60.37388579272789
 10
553.395677689124
 20
60.36501128443328
 10
553.3217234533363
 20
60.35909494556992
 10
553.2477692175477
 20
60.35909494556992
 10
553.2477692175477
 20
60.15498125479481
 10
553.5761260244471
 20
60.17568844081559
 10
553.8867338147577
 20
60.27922437091902
 10
554.1559272330256
 20
60.424174673064
 10
554.4044134652753
 20
60.63124653327141
 10
554.6114853254805
 20
60.859025579498
 97
        0
 75
     0
 76
     1
 47
0.013813
 98
        2
 10
554.818333
 20
72.56144499999999
 10
554.5842349999999
 20
61.068964
450
        0
451
        0
460
0.0
461
0.0
452
        0
462
0.0
453
        0
470

  0
LINE
  5
13C1
330
2
100
AcDbEntity
  8
AM_4
100
AcDbLine
 10
549.563586
 20
66.904262
 30
0.0
 11
549.725102
 21
66.419714
 31
0.0
  0
LINE
  5
13C2
330
2
100
AcDbEntity
  8
AM_4
100
AcDbLine
 10
553.5761259999999
 20
60.175688
 30
0.0
 11
553.247769
 21
60.15498100000001
 31
0.0
  0
ARC
  5
13C3
330
2
100
AcDbEntity
  8
AM_4
100
AcDbCircle
 10
553.2686509999999
 20
61.76718399999999
 30
0.0
 40
1.439664999999999
100
AcDbArc
 50
275.119117
 51
360.0
  0
ARC
  5
13C4
330
2
100
AcDbEntity
  8
AM_4
100
AcDbCircle
 10
553.2686509999999
 20
61.76718399999999
 30
0.0
 40
1.407913999999999
100
AcDbArc
 50
275.176469
 51
0.0
  0
LINE
  5
13C5
330
2
100
AcDbEntity
  8
AM_4
100
AcDbLine
 10
553.466674
 20
60.37388599999999
 30
0.0
 11
553.3956779999999
 21
60.36501099999999
 31
0.0
  0
LINE
  5
13C6
330
2
100
AcDbEntity
  8
AM_4
100
AcDbLine
 10
553.339472
 20
59.953826
 30
0.0
 11
553.528795
 21
59.971575
 31
0.0
  0
LINE
  5
13C7
330
2
100
AcDbEntity
  8
AM_4
100
AcDbLine
 10
549.778941
 20
63.566263
 30
0.0
 11
547.1177719999999
 21
63.566263
 31
0.0
  0
LINE
  5
13C8
330
2
100
AcDbEntity
  8
AM_4
100
AcDbLine
 10
545.502611
 20
66.688907
 30
0.0
 11
545.314176
 21
66.47355199999999
 31
0.0
  0
LINE
  5
13C9
330
2
100
AcDbEntity
  8
AM_4
100
AcDbLine
 10
545.7718039999999
 20
66.823504
 30
0.0
 11
545.502611
 21
66.688907
 31
0.0
  0
LINE
  5
13CA
330
2
100
AcDbEntity
  8
AM_4
100
AcDbLine
 10
546.76782
 20
66.688907
 30
0.0
 11
546.4986269999999
 21
66.823504
 31
0.0
  0
LINE
  5
13CB
330
2
100
AcDbEntity
  8
AM_4
100
AcDbLine
 10
546.929336
 20
66.47355199999999
 30
0.0
 11
546.76782
 21
66.688907
 31
0.0
  0
LINE
  5
13CC
330
2
100
AcDbEntity
  8
AM_4
100
AcDbLine
 10
541.5762329999999
 20
66.796584
 30
0.0
 11
541.5762329999999
 21
66.796584
 31
0.0
  0
LINE
  5
13CD
330
2
100
AcDbEntity
  8
AM_4
100
AcDbLine
 10
545.1257400000001
 20
66.015923
 30
0.0
 11
545.098821
 21
65.827488
 31
0.0
  0
LINE
  5
13CE
330
2
100
AcDbEntity
  8
AM_4
100
AcDbLine
 10
545.179579
 20
66.25819799999999
 30
0.0
 11
545.1257400000001
 21
66.015923
 31
0.0
  0
LINE
  5
13CF
330
2
100
AcDbEntity
  8
AM_4
100
AcDbLine
 10
545.0719019999999
 20
65.612133
 30
0.0
 11
545.0719019999999
 21
63.566263
 31
0.0
  0
LINE
  5
13D0
330
2
100
AcDbEntity
  8
AM_4
100
AcDbLine
 10
545.098821
 20
65.827488
 30
0.0
 11
545.0719019999999
 21
65.612133
 31
0.0
  0
LINE
  5
13D1
330
2
100
AcDbEntity
  8
AM_4
100
AcDbLine
 10
547.0908519999999
 20
66.015923
 30
0.0
 11
547.0370139999999
 21
66.231278
 31
0.0
  0
LINE
  5
13D2
330
2
100
AcDbEntity
  8
AM_4
100
AcDbLine
 10
547.1177719999999
 20
63.566263
 30
0.0
 11
547.1177719999999
 21
65.80056899999999
 31
0.0
  0
LINE
  5
13D3
330
2
100
AcDbEntity
  8
AM_4
100
AcDbLine
 10
547.1177719999999
 20
65.80056899999999
 30
0.0
 11
547.0908519999999
 21
66.015923
 31
0.0
  0
LINE
  5
13D4
330
2
100
AcDbEntity
  8
AM_4
100
AcDbLine
 10
542.410732
 20
66.069762
 30
0.0
 11
542.464571
 21
66.365875
 31
0.0
  0
LINE
  5
13D5
330
2
100
AcDbEntity
  8
AM_4
100
AcDbLine
 10
541.5762329999999
 20
64.158489
 30
0.0
 11
541.3877969999999
 21
64.05081199999999
 31
0.0
  0
LINE
  5
13D6
330
2
100
AcDbEntity
  8
AM_4
100
AcDbLine
 10
542.383813
 20
63.566263
 30
0.0
 11
542.383813
 21
65.80056899999999
 31
0.0
  0
LINE
  5
13D7
330
2
100
AcDbEntity
  8
AM_4
100
AcDbLine
 10
542.383813
 20
65.80056899999999
 30
0.0
 11
542.410732
 21
66.069762
 31
0.0
  0
LINE
  5
13D8
330
2
100
AcDbEntity
  8
AM_4
100
AcDbLine
 10
545.0719019999999
 20
63.566263
 30
0.0
 11
542.383813
 21
63.566263
 31
0.0
  0
LINE
  5
13D9
330
2
100
AcDbEntity
  8
AM_4
100
AcDbLine
 10
545.314176
 20
66.47355199999999
 30
0.0
 11
545.179579
 21
66.25819799999999
 31
0.0
  0
LINE
  5
13DA
330
2
100
AcDbEntity
  8
AM_4
100
AcDbLine
 10
547.0370139999999
 20
66.231278
 30
0.0
 11
546.929336
 21
66.47355199999999
 31
0.0
  0
LINE
  5
13DB
330
2
100
AcDbEntity
  8
AM_4
100
AcDbLine
 10
542.464571
 20
66.365875
 30
0.0
 11
542.5722480000001
 21
66.715826
 31
0.0
  0
LINE
  5
13DC
330
2
100
AcDbEntity
  8
AM_4
100
AcDbLine
 10
541.5762329999999
 20
66.796584
 30
0.0
 11
541.5762329999999
 21
64.158489
 31
0.0
  0
LINE
  5
13DD
330
2
100
AcDbEntity
  8
AM_4
100
AcDbLine
 10
549.725102
 20
66.419714
 30
0.0
 11
549.778941
 21
65.827488
 31
0.0
  0
LINE
  5
13DE
330
2
100
AcDbEntity
  8
AM_4
100
AcDbLine
 10
549.778941
 20
65.827488
 30
0.0
 11
549.778941
 21
63.566263
 31
0.0
  0
LINE
  5
13DF
330
2
100
AcDbEntity
  8
AM_4
100
AcDbLine
 10
553.247769
 20
59.95086800000001
 30
0.0
 11
553.247769
 21
60.35909499999999
 31
0.0
  0
LINE
  5
13E0
330
2
100
AcDbEntity
  8
AM_4
100
AcDbLine
 10
553.247769
 20
59.95086800000001
 30
0.0
 11
553.247769
 21
59.95086800000001
 31
0.0
  0
LINE
  5
13E1
330
2
100
AcDbEntity
  8
AM_4
100
AcDbLine
 10
553.3956779999999
 20
60.36501099999999
 30
0.0
 11
553.3217229999999
 21
60.35909499999999
 31
0.0
  0
LINE
  5
13E2
330
2
100
AcDbEntity
  8
AM_4
100
AcDbLine
 10
553.247769
 20
59.95086800000001
 30
0.0
 11
553.339472
 21
59.953826
 31
0.0
  0
LINE
  5
13E3
330
2
100
AcDbEntity
  8
AM_4
100
AcDbLine
 10
553.466674
 20
60.37388599999999
 30
0.0
 11
553.6086659999999
 21
60.403467
 31
0.0
  0
LINE
  5
13E4
330
2
100
AcDbEntity
  8
AM_4
100
AcDbLine
 10
553.528795
 20
59.971575
 30
0.0
 11
553.7062849999999
 21
60.007073
 31
0.0
  0
ARC
  5
13E5
330
2
100
AcDbEntity
  8
AM_4
100
AcDbCircle
 10
553.2686509999999
 20
61.76718399999999
 30
0.0
 40
1.816141999999999
100
AcDbArc
 50
274.558289
 51
360.0
  0
LINE
  5
13E6
330
2
100
AcDbEntity
  8
AM_4
100
AcDbLine
 10
554.2121319999999
 20
60.725908
 30
0.0
 11
554.161844
 21
60.681535
 31
0.0
  0
LINE
  5
13E7
330
2
100
AcDbEntity
  8
AM_4
100
AcDbLine
 10
554.262421
 20
60.773239
 30
0.0
 11
554.2121319999999
 21
60.725908
 31
0.0
  0
LINE
  5
13E8
330
2
100
AcDbEntity
  8
AM_4
100
AcDbLine
 10
554.3097519999999
 20
60.82056899999999
 30
0.0
 11
554.262421
 21
60.773239
 31
0.0
  0
LINE
  5
13E9
330
2
100
AcDbEntity
  8
AM_4
100
AcDbLine
 10
554.3541249999999
 20
60.870858
 30
0.0
 11
554.3097519999999
 21
60.82056899999999
 31
0.0
  0
LINE
  5
13EA
330
2
100
AcDbEntity
  8
AM_4
100
AcDbLine
 10
554.3955389999999
 20
60.927063
 30
0.0
 11
554.3541249999999
 21
60.870858
 31
0.0
  0
LINE
  5
13EB
330
2
100
AcDbEntity
  8
AM_4
100
AcDbLine
 10
554.4369529999999
 20
60.980311
 30
0.0
 11
554.3955389999999
 21
60.927063
 31
0.0
  0
LINE
  5
13EC
330
2
100
AcDbEntity
  8
AM_4
100
AcDbLine
 10
554.8629299999999
 20
60.90339799999999
 30
0.0
 11
554.904344
 21
60.980311
 31
0.0
  0
LINE
  5
13ED
330
2
100
AcDbEntity
  8
AM_4
100
AcDbLine
 10
554.818557
 20
60.82648599999999
 30
0.0
 11
554.8629299999999
 21
60.90339799999999
 31
0.0
  0
LINE
  5
13EE
330
2
100
AcDbEntity
  8
AM_4
100
AcDbLine
 10
554.7712259999999
 20
60.75253100000001
 30
0.0
 11
554.818557
 21
60.82648599999999
 31
0.0
  0
LINE
  5
13EF
330
2
100
AcDbEntity
  8
AM_4
100
AcDbLine
 10
554.7209379999999
 20
60.681535
 30
0.0
 11
554.7712259999999
 21
60.75253100000001
 31
0.0
  0
LINE
  5
13F0
330
2
100
AcDbEntity
  8
AM_4
100
AcDbLine
 10
554.7564359999999
 20
61.14892600000001
 30
0.0
 11
554.611485
 21
60.859026
 31
0.0
  0
LINE
  5
13F1
330
2
100
AcDbEntity
  8
AM_4
100
AcDbLine
 10
554.4724509999999
 20
61.039474
 30
0.0
 11
554.4369529999999
 21
60.980311
 31
0.0
  0
LINE
  5
13F2
330
2
100
AcDbEntity
  8
AM_4
100
AcDbLine
 10
554.904344
 20
60.980311
 30
0.0
 11
554.939842
 21
61.060181
 31
0.0
  0
LINE
  5
13F3
330
2
100
AcDbEntity
  8
AM_4
100
AcDbLine
 10
554.8599719999999
 20
61.438827
 30
0.0
 11
554.7564359999999
 21
61.14892600000001
 31
0.0
  0
LINE
  5
13F4
330
2
100
AcDbEntity
  8
AM_4
100
AcDbLine
 10
554.8806789999999
 20
61.76718399999999
 30
0.0
 11
554.8599719999999
 21
61.438827
 31
0.0
  0
LINE
  5
13F5
330
2
100
AcDbEntity
  8
AM_4
100
AcDbLine
 10
554.507949
 20
61.095679
 30
0.0
 11
554.4724509999999
 21
61.039474
 31
0.0
  0
LINE
  5
13F6
330
2
100
AcDbEntity
  8
AM_4
100
AcDbLine
 10
554.507949
 20
61.095679
 30
0.0
 11
554.5671129999999
 21
61.219922
 31
0.0
  0
LINE
  5
13F7
330
2
100
AcDbEntity
  8
AM_4
100
AcDbLine
 10
554.5671129999999
 20
61.219922
 30
0.0
 11
554.6144429999999
 21
61.35008199999999
 31
0.0
  0
LINE
  5
13F8
330
2
100
AcDbEntity
  8
AM_4
100
AcDbLine
 10
554.6321929999999
 20
61.415161
 30
0.0
 11
554.6144429999999
 21
61.35008199999999
 31
0.0
  0
LINE
  5
13F9
330
2
100
AcDbEntity
  8
AM_4
100
AcDbLine
 10
554.6499419999999
 20
61.483199
 30
0.0
 11
554.6321929999999
 21
61.415161
 31
0.0
  0
LINE
  5
13FA
330
2
100
AcDbEntity
  8
AM_4
100
AcDbLine
 10
554.661774
 20
61.55419499999999
 30
0.0
 11
554.6499419999999
 21
61.483199
 31
0.0
  0
LINE
  5
13FB
330
2
100
AcDbEntity
  8
AM_4
100
AcDbLine
 10
554.670649
 20
61.625191
 30
0.0
 11
554.661774
 21
61.55419499999999
 31
0.0
  0
LINE
  5
13FC
330
2
100
AcDbEntity
  8
AM_4
100
AcDbLine
 10
554.676565
 20
61.696188
 30
0.0
 11
554.670649
 21
61.625191
 31
0.0
  0
LINE
  5
13FD
330
2
100
AcDbEntity
  8
AM_4
100
AcDbLine
 10
555.0847919999999
 20
61.76718399999999
 30
0.0
 11
554.676565
 21
61.76718399999999
 31
0.0
  0
LINE
  5
13FE
330
2
100
AcDbEntity
  8
AM_4
100
AcDbLine
 10
555.0818339999999
 20
61.67548
 30
0.0
 11
555.0847919999999
 21
61.76718399999999
 31
0.0
  0
LINE
  5
13FF
330
2
100
AcDbEntity
  8
AM_4
100
AcDbLine
 10
555.0640849999999
 20
61.492074
 30
0.0
 11
555.0818339999999
 21
61.67548
 31
0.0
  0
LINE
  5
1400
330
2
100
AcDbEntity
  8
AM_4
100
AcDbLine
 10
555.046336
 20
61.403329
 30
0.0
 11
555.0640849999999
 21
61.492074
 31
0.0
  0
LINE
  5
1401
330
2
100
AcDbEntity
  8
AM_4
100
AcDbLine
 10
555.025629
 20
61.31458399999999
 30
0.0
 11
555.046336
 21
61.403329
 31
0.0
  0
LINE
  5
1402
330
2
100
AcDbEntity
  8
AM_4
100
AcDbLine
 10
555.0019639999999
 20
61.228797
 30
0.0
 11
555.025629
 21
61.31458399999999
 31
0.0
  0
LINE
  5
1403
330
2
100
AcDbEntity
  8
AM_4
100
AcDbLine
 10
554.972382
 20
61.14301
 30
0.0
 11
555.0019639999999
 21
61.228797
 31
0.0
  0
LINE
  5
1404
330
2
100
AcDbEntity
  8
AM_4
100
AcDbLine
 10
554.939842
 20
61.060181
 30
0.0
 11
554.972382
 21
61.14301
 31
0.0
  0
LINE
  5
1405
330
2
100
AcDbEntity
  8
AM_4
100
AcDbLine
 10
555.0847919999999
 20
61.76718399999999
 30
0.0
 11
555.0847919999999
 21
61.76718399999999
 31
0.0
  0
LINE
  5
1406
330
2
100
AcDbEntity
  8
AM_4
100
AcDbLine
 10
553.8867339999999
 20
60.279224
 30
0.0
 11
553.5761259999999
 21
60.175688
 31
0.0
  0
LINE
  5
1407
330
2
100
AcDbEntity
  8
AM_4
100
AcDbLine
 10
554.1559269999999
 20
60.42417499999999
 30
0.0
 11
553.8867339999999
 21
60.279224
 31
0.0
  0
LINE
  5
1408
330
2
100
AcDbEntity
  8
AM_4
100
AcDbLine
 10
554.4044129999999
 20
60.63124699999999
 30
0.0
 11
554.1559269999999
 21
60.42417499999999
 31
0.0
  0
LINE
  5
1409
330
2
100
AcDbEntity
  8
AM_4
100
AcDbLine
 10
553.6767039999999
 20
60.421217
 30
0.0
 11
553.6086659999999
 21
60.403467
 31
0.0
  0
LINE
  5
140A
330
2
100
AcDbEntity
  8
AM_4
100
AcDbLine
 10
553.6767039999999
 20
60.421217
 30
0.0
 11
553.806863
 21
60.46854699999999
 31
0.0
  0
LINE
  5
140B
330
2
100
AcDbEntity
  8
AM_4
100
AcDbLine
 10
553.8719429999999
 20
60.498129
 30
0.0
 11
553.806863
 21
60.46854699999999
 31
0.0
  0
LINE
  5
140C
330
2
100
AcDbEntity
  8
AM_4
100
AcDbLine
 10
553.934065
 20
60.527711
 30
0.0
 11
553.8719429999999
 21
60.498129
 31
0.0
  0
LINE
  5
140D
330
2
100
AcDbEntity
  8
AM_4
100
AcDbLine
 10
553.993228
 20
60.56320899999999
 30
0.0
 11
553.934065
 21
60.527711
 31
0.0
  0
LINE
  5
140E
330
2
100
AcDbEntity
  8
AM_4
100
AcDbLine
 10
554.049433
 20
60.598707
 30
0.0
 11
553.993228
 21
60.56320899999999
 31
0.0
  0
LINE
  5
140F
330
2
100
AcDbEntity
  8
AM_4
100
AcDbLine
 10
554.6085269999999
 20
60.54546
 30
0.0
 11
554.664732
 21
60.613498
 31
0.0
  0
LINE
  5
1410
330
2
100
AcDbEntity
  8
AM_4
100
AcDbLine
 10
554.549364
 20
60.483338
 30
0.0
 11
554.6085269999999
 21
60.54546
 31
0.0
  0
LINE
  5
1411
330
2
100
AcDbEntity
  8
AM_4
100
AcDbLine
 10
554.419204
 20
60.36501099999999
 30
0.0
 11
554.549364
 21
60.483338
 31
0.0
  0
LINE
  5
1412
330
2
100
AcDbEntity
  8
AM_4
100
AcDbLine
 10
554.348208
 20
60.311764
 30
0.0
 11
554.419204
 21
60.36501099999999
 31
0.0
  0
LINE
  5
1413
330
2
100
AcDbEntity
  8
AM_4
100
AcDbLine
 10
554.2772119999999
 20
60.261475
 30
0.0
 11
554.348208
 21
60.311764
 31
0.0
  0
LINE
  5
1414
330
2
100
AcDbEntity
  8
AM_4
100
AcDbLine
 10
554.2003
 20
60.21414499999999
 30
0.0
 11
554.2772119999999
 21
60.261475
 31
0.0
  0
LINE
  5
1415
330
2
100
AcDbEntity
  8
AM_4
100
AcDbLine
 10
554.123387
 20
60.16977199999999
 30
0.0
 11
554.2003
 21
60.21414499999999
 31
0.0
  0
LINE
  5
1416
330
2
100
AcDbEntity
  8
AM_4
100
AcDbLine
 10
554.0464749999999
 20
60.13131600000001
 30
0.0
 11
554.123387
 21
60.16977199999999
 31
0.0
  0
LINE
  5
1417
330
2
100
AcDbEntity
  8
AM_4
100
AcDbLine
 10
553.963646
 20
60.09285999999999
 30
0.0
 11
554.0464749999999
 21
60.13131600000001
 31
0.0
  0
LINE
  5
1418
330
2
100
AcDbEntity
  8
AM_4
100
AcDbLine
 10
553.880817
 20
60.06327800000001
 30
0.0
 11
553.963646
 21
60.09285999999999
 31
0.0
  0
LINE
  5
1419
330
2
100
AcDbEntity
  8
AM_4
100
AcDbLine
 10
553.795031
 20
60.033696
 30
0.0
 11
553.880817
 21
60.06327800000001
 31
0.0
  0
LINE
  5
141A
330
2
100
AcDbEntity
  8
AM_4
100
AcDbLine
 10
553.7062849999999
 20
60.007073
 30
0.0
 11
553.795031
 21
60.033696
 31
0.0
  0
LINE
  5
141B
330
2
100
AcDbEntity
  8
AM_4
100
AcDbLine
 10
554.611485
 20
60.859026
 30
0.0
 11
554.4044129999999
 21
60.63124699999999
 31
0.0
  0
LINE
  5
141C
330
2
100
AcDbEntity
  8
AM_4
100
AcDbLine
 10
554.049433
 20
60.598707
 30
0.0
 11
554.161844
 21
60.681535
 31
0.0
  0
LINE
  5
141D
330
2
100
AcDbEntity
  8
AM_4
100
AcDbLine
 10
554.664732
 20
60.613498
 30
0.0
 11
554.7209379999999
 21
60.681535
 31
0.0
  0
LINE
  5
141E
330
2
100
AcDbEntity
  8
AM_4
100
AcDbLine
 10
553.247769
 20
77.655512
 30
0.0
 11
553.5761259999999
 21
77.614097
 31
0.0
  0
ARC
  5
141F
330
2
100
AcDbEntity
  8
AM_4
100
AcDbCircle
 10
553.247769
 20
76.022602
 30
0.0
 40
1.460545999999999
100
AcDbArc
 50
0.0
 51
90.0
  0
ARC
  5
1420
330
2
100
AcDbEntity
  8
AM_4
100
AcDbCircle
 10
553.247769
 20
76.022602
 30
0.0
 40
1.837022999999999
100
AcDbArc
 50
0.0
 51
90.0
  0
ARC
  5
1421
330
2
100
AcDbEntity
  8
AM_4
100
AcDbCircle
 10
553.247769
 20
76.022602
 30
0.0
 40
1.428795999999999
100
AcDbArc
 50
360.0
 51
90.0
  0
LINE
  5
1422
330
2
100
AcDbEntity
  8
AM_4
100
AcDbLine
 10
553.3956779999999
 20
77.445482
 30
0.0
 11
553.53767
 21
77.42181600000001
 31
0.0
  0
LINE
  5
1423
330
2
100
AcDbEntity
  8
AM_4
100
AcDbLine
 10
553.434134
 20
77.84779300000001
 30
0.0
 11
553.3424309999999
 21
77.856667
 31
0.0
  0
LINE
  5
1424
330
2
100
AcDbEntity
  8
AM_4
100
AcDbLine
 10
547.0908519999999
 20
71.95740699999999
 30
0.0
 11
549.617425
 21
71.95740699999999
 31
0.0
  0
LINE
  5
1425
330
2
100
AcDbEntity
  8
AM_4
100
AcDbLine
 10
546.0679169999999
 20
69.323157
 30
0.0
 11
546.3909489999999
 21
69.350076
 31
0.0
  0
LINE
  5
1426
330
2
100
AcDbEntity
  8
AM_4
100
AcDbLine
 10
545.7448849999999
 20
69.350076
 30
0.0
 11
546.0679169999999
 21
69.323157
 31
0.0
  0
LINE
  5
1427
330
2
100
AcDbEntity
  8
AM_4
100
AcDbLine
 10
545.475692
 20
69.484673
 30
0.0
 11
545.7448849999999
 21
69.350076
 31
0.0
  0
LINE
  5
1428
330
2
100
AcDbEntity
  8
AM_4
100
AcDbLine
 10
545.314176
 20
69.64618900000001
 30
0.0
 11
545.475692
 21
69.484673
 31
0.0
  0
LINE
  5
1429
330
2
100
AcDbEntity
  8
AM_4
100
AcDbLine
 10
545.206498
 20
69.861544
 30
0.0
 11
545.314176
 21
69.64618900000001
 31
0.0
  0
LINE
  5
142A
330
2
100
AcDbEntity
  8
AM_4
100
AcDbLine
 10
545.1257400000001
 20
70.238415
 30
0.0
 11
545.206498
 21
69.861544
 31
0.0
  0
LINE
  5
142B
330
2
100
AcDbEntity
  8
AM_4
100
AcDbLine
 10
545.1257400000001
 20
70.238415
 30
0.0
 11
545.1257400000001
 21
71.95740699999999
 31
0.0
  0
LINE
  5
142C
330
2
100
AcDbEntity
  8
AM_4
100
AcDbLine
 10
546.8485779999999
 20
69.67310799999999
 30
0.0
 11
546.9562559999999
 21
69.861544
 31
0.0
  0
LINE
  5
142D
330
2
100
AcDbEntity
  8
AM_4
100
AcDbLine
 10
546.6601429999999
 20
69.484673
 30
0.0
 11
546.8485779999999
 21
69.67310799999999
 31
0.0
  0
LINE
  5
142E
330
2
100
AcDbEntity
  8
AM_4
100
AcDbLine
 10
546.3909489999999
 20
69.350076
 30
0.0
 11
546.6601429999999
 21
69.484673
 31
0.0
  0
LINE
  5
142F
330
2
100
AcDbEntity
  8
AM_4
100
AcDbLine
 10
547.063933
 20
70.238415
 30
0.0
 11
547.0908519999999
 21
70.42685
 31
0.0
  0
LINE
  5
1430
330
2
100
AcDbEntity
  8
AM_4
100
AcDbLine
 10
546.9562559999999
 20
69.861544
 30
0.0
 11
547.063933
 21
70.238415
 31
0.0
  0
LINE
  5
1431
330
2
100
AcDbEntity
  8
AM_4
100
AcDbLine
 10
547.0908519999999
 20
70.42685
 30
0.0
 11
547.0908519999999
 21
71.95740699999999
 31
0.0
  0
LINE
  5
1432
330
2
100
AcDbEntity
  8
AM_4
100
AcDbLine
 10
543.32599
 20
68.27330299999999
 30
0.0
 11
543.110635
 21
68.48865699999999
 31
0.0
  0
LINE
  5
1433
330
2
100
AcDbEntity
  8
AM_4
100
AcDbLine
 10
543.4875059999999
 20
68.138706
 30
0.0
 11
543.32599
 21
68.27330299999999
 31
0.0
  0
LINE
  5
1434
330
2
100
AcDbEntity
  8
AM_4
100
AcDbLine
 10
543.6759409999999
 20
68.03102800000001
 30
0.0
 11
543.4875059999999
 21
68.138706
 31
0.0
  0
LINE
  5
1435
330
2
100
AcDbEntity
  8
AM_4
100
AcDbLine
 10
543.433667
 20
67.92335099999999
 30
0.0
 11
543.6759409999999
 21
68.03102800000001
 31
0.0
  0
LINE
  5
1436
330
2
100
AcDbEntity
  8
AM_4
100
AcDbLine
 10
543.245232
 20
67.788754
 30
0.0
 11
543.433667
 21
67.92335099999999
 31
0.0
  0
LINE
  5
1437
330
2
100
AcDbEntity
  8
AM_4
100
AcDbLine
 10
542.949119
 20
67.465722
 30
0.0
 11
543.245232
 21
67.788754
 31
0.0
  0
LINE
  5
1438
330
2
100
AcDbEntity
  8
AM_4
100
AcDbLine
 10
542.706845
 20
67.088852
 30
0.0
 11
542.949119
 21
67.465722
 31
0.0
  0
LINE
  5
1439
330
2
100
AcDbEntity
  8
AM_4
100
AcDbLine
 10
542.599168
 20
69.56543100000001
 30
0.0
 11
542.545329
 21
70.13073699999999
 31
0.0
  0
LINE
  5
143A
330
2
100
AcDbEntity
  8
AM_4
100
AcDbLine
 10
542.545329
 20
71.95740699999999
 30
0.0
 11
542.545329
 21
71.95740699999999
 31
0.0
  0
LINE
  5
143B
330
2
100
AcDbEntity
  8
AM_4
100
AcDbLine
 10
541.7646679999998
 20
69.861544
 30
0.0
 11
542.0069419999999
 21
69.323157
 31
0.0
  0
LINE
  5
143C
330
2
100
AcDbEntity
  8
AM_4
100
AcDbLine
 10
541.4147169999999
 20
70.39993100000001
 30
0.0
 11
541.7646679999998
 21
69.861544
 31
0.0
  0
LINE
  5
143D
330
2
100
AcDbEntity
  8
AM_4
100
AcDbLine
 10
542.545329
 20
70.13073699999999
 30
0.0
 11
542.545329
 21
71.95740699999999
 31
0.0
  0
LINE
  5
143E
330
2
100
AcDbEntity
  8
AM_4
100
AcDbLine
 10
542.7337639999999
 20
69.13472099999999
 30
0.0
 11
542.599168
 21
69.56543100000001
 31
0.0
  0
LINE
  5
143F
330
2
100
AcDbEntity
  8
AM_4
100
AcDbLine
 10
542.8952809999999
 20
68.757851
 30
0.0
 11
542.7337639999999
 21
69.13472099999999
 31
0.0
  0
LINE
  5
1440
330
2
100
AcDbEntity
  8
AM_4
100
AcDbLine
 10
543.110635
 20
68.48865699999999
 30
0.0
 11
542.8952809999999
 21
68.757851
 31
0.0
  0
LINE
  5
1441
330
2
100
AcDbEntity
  8
AM_4
100
AcDbLine
 10
542.545329
 20
71.95740699999999
 30
0.0
 11
545.1257400000001
 21
71.95740699999999
 31
0.0
  0
LINE
  5
1442
330
2
100
AcDbEntity
  8
AM_4
100
AcDbLine
 10
549.159796
 20
68.596335
 30
0.0
 11
548.890603
 21
68.27330299999999
 31
0.0
  0
LINE
  5
1443
330
2
100
AcDbEntity
  8
AM_4
100
AcDbLine
 10
548.9175219999999
 20
67.788754
 30
0.0
 11
549.1328769999999
 21
67.57340000000001
 31
0.0
  0
LINE
  5
1444
330
2
100
AcDbEntity
  8
AM_4
100
AcDbLine
 10
548.702167
 20
67.92335099999999
 30
0.0
 11
548.9175219999999
 21
67.788754
 31
0.0
  0
LINE
  5
1445
330
2
100
AcDbEntity
  8
AM_4
100
AcDbLine
 10
548.5175769999999
 20
68.03102800000001
 30
0.0
 11
548.702167
 21
67.92335099999999
 31
0.0
  0
LINE
  5
1446
330
2
100
AcDbEntity
  8
AM_4
100
AcDbLine
 10
548.890603
 20
68.27330299999999
 30
0.0
 11
548.5175769999999
 21
68.03102800000001
 31
0.0
  0
LINE
  5
1447
330
2
100
AcDbEntity
  8
AM_4
100
AcDbLine
 10
549.375151
 20
67.277287
 30
0.0
 11
549.563586
 21
66.904262
 31
0.0
  0
LINE
  5
1448
330
2
100
AcDbEntity
  8
AM_4
100
AcDbLine
 10
549.1328769999999
 20
67.57340000000001
 30
0.0
 11
549.375151
 21
67.277287
 31
0.0
  0
LINE
  5
1449
330
2
100
AcDbEntity
  8
AM_4
100
AcDbLine
 10
549.375151
 20
68.946286
 30
0.0
 11
549.159796
 21
68.596335
 31
0.0
  0
LINE
  5
144A
330
2
100
AcDbEntity
  8
AM_4
100
AcDbLine
 10
549.5097469999999
 20
69.296238
 30
0.0
 11
549.375151
 21
68.946286
 31
0.0
  0
LINE
  5
144B
330
2
100
AcDbEntity
  8
AM_4
100
AcDbLine
 10
549.617425
 20
69.888463
 30
0.0
 11
549.5097469999999
 21
69.296238
 31
0.0
  0
LINE
  5
144C
330
2
100
AcDbEntity
  8
AM_4
100
AcDbLine
 10
549.617425
 20
69.888463
 30
0.0
 11
549.617425
 21
71.95740699999999
 31
0.0
  0
LINE
  5
144D
330
2
100
AcDbEntity
  8
AM_4
100
AcDbLine
 10
553.247769
 20
77.859625
 30
0.0
 11
553.247769
 21
77.859625
 31
0.0
  0
LINE
  5
144E
330
2
100
AcDbEntity
  8
AM_4
100
AcDbLine
 10
553.247769
 20
77.451398
 30
0.0
 11
553.247769
 21
77.859625
 31
0.0
  0
LINE
  5
144F
330
2
100
AcDbEntity
  8
AM_4
100
AcDbLine
 10
553.3217229999999
 20
77.451398
 30
0.0
 11
553.3956779999999
 21
77.445482
 31
0.0
  0
LINE
  5
1450
330
2
100
AcDbEntity
  8
AM_4
100
AcDbLine
 10
553.3424309999999
 20
77.856667
 30
0.0
 11
553.247769
 21
77.859625
 31
0.0
  0
LINE
  5
1451
330
2
100
AcDbEntity
  8
AM_4
100
AcDbLine
 10
553.53767
 20
77.42181600000001
 30
0.0
 11
553.605708
 21
77.40702500000001
 31
0.0
  0
LINE
  5
1452
330
2
100
AcDbEntity
  8
AM_4
100
AcDbLine
 10
553.6175400000001
 20
77.821169
 30
0.0
 11
553.528795
 21
77.83596
 31
0.0
  0
LINE
  5
1453
330
2
100
AcDbEntity
  8
AM_4
100
AcDbLine
 10
553.528795
 20
77.83596
 30
0.0
 11
553.434134
 21
77.84779300000001
 31
0.0
  0
LINE
  5
1454
330
2
100
AcDbEntity
  8
AM_4
100
AcDbLine
 10
554.7564359999999
 20
76.66156700000001
 30
0.0
 11
554.8599719999999
 21
76.350959
 31
0.0
  0
LINE
  5
1455
330
2
100
AcDbEntity
  8
AM_4
100
AcDbLine
 10
554.611485
 20
76.93075999999999
 30
0.0
 11
554.7564359999999
 21
76.66156700000001
 31
0.0
  0
LINE
  5
1456
330
2
100
AcDbEntity
  8
AM_4
100
AcDbLine
 10
554.4044129999999
 20
77.17924599999999
 30
0.0
 11
554.611485
 21
76.93075999999999
 31
0.0
  0
LINE
  5
1457
330
2
100
AcDbEntity
  8
AM_4
100
AcDbLine
 10
554.1559269999999
 20
77.365611
 30
0.0
 11
554.4044129999999
 21
77.17924599999999
 31
0.0
  0
LINE
  5
1458
330
2
100
AcDbEntity
  8
AM_4
100
AcDbLine
 10
553.8867339999999
 20
77.53126800000001
 30
0.0
 11
554.1559269999999
 21
77.365611
 31
0.0
  0
LINE
  5
1459
330
2
100
AcDbEntity
  8
AM_4
100
AcDbLine
 10
553.5761259999999
 20
77.614097
 30
0.0
 11
553.8867339999999
 21
77.53126800000001
 31
0.0
  0
LINE
  5
145A
330
2
100
AcDbEntity
  8
AM_4
100
AcDbLine
 10
554.6499419999999
 20
76.306586
 30
0.0
 11
554.661774
 21
76.23559
 31
0.0
  0
LINE
  5
145B
330
2
100
AcDbEntity
  8
AM_4
100
AcDbLine
 10
554.6321929999999
 20
76.374624
 30
0.0
 11
554.6499419999999
 21
76.306586
 31
0.0
  0
LINE
  5
145C
330
2
100
AcDbEntity
  8
AM_4
100
AcDbLine
 10
554.6144429999999
 20
76.442662
 30
0.0
 11
554.6321929999999
 21
76.374624
 31
0.0
  0
LINE
  5
145D
330
2
100
AcDbEntity
  8
AM_4
100
AcDbLine
 10
554.5671129999999
 20
76.572822
 30
0.0
 11
554.6144429999999
 21
76.442662
 31
0.0
  0
LINE
  5
145E
330
2
100
AcDbEntity
  8
AM_4
100
AcDbLine
 10
554.5375309999999
 20
76.63790099999999
 30
0.0
 11
554.5671129999999
 21
76.572822
 31
0.0
  0
LINE
  5
145F
330
2
100
AcDbEntity
  8
AM_4
100
AcDbLine
 10
554.504991
 20
76.69706500000001
 30
0.0
 11
554.5375309999999
 21
76.63790099999999
 31
0.0
  0
LINE
  5
1460
330
2
100
AcDbEntity
  8
AM_4
100
AcDbLine
 10
554.4724509999999
 20
76.759186
 30
0.0
 11
554.504991
 21
76.69706500000001
 31
0.0
  0
LINE
  5
1461
330
2
100
AcDbEntity
  8
AM_4
100
AcDbLine
 10
554.433995
 20
76.81539100000001
 30
0.0
 11
554.4724509999999
 21
76.759186
 31
0.0
  0
LINE
  5
1462
330
2
100
AcDbEntity
  8
AM_4
100
AcDbLine
 10
554.3955389999999
 20
76.87159699999999
 30
0.0
 11
554.433995
 21
76.81539100000001
 31
0.0
  0
LINE
  5
1463
330
2
100
AcDbEntity
  8
AM_4
100
AcDbLine
 10
554.3541249999999
 20
76.927802
 30
0.0
 11
554.3955389999999
 21
76.87159699999999
 31
0.0
  0
LINE
  5
1464
330
2
100
AcDbEntity
  8
AM_4
100
AcDbLine
 10
554.3067940000001
 20
76.978091
 30
0.0
 11
554.3541249999999
 21
76.927802
 31
0.0
  0
LINE
  5
1465
330
2
100
AcDbEntity
  8
AM_4
100
AcDbLine
 10
554.262421
 20
77.02837999999999
 30
0.0
 11
554.3067940000001
 21
76.978091
 31
0.0
  0
LINE
  5
1466
330
2
100
AcDbEntity
  8
AM_4
100
AcDbLine
 10
554.2121319999999
 20
77.07571
 30
0.0
 11
554.262421
 21
77.02837999999999
 31
0.0
  0
LINE
  5
1467
330
2
100
AcDbEntity
  8
AM_4
100
AcDbLine
 10
554.1588849999999
 20
77.123041
 30
0.0
 11
554.2121319999999
 21
77.07571
 31
0.0
  0
LINE
  5
1468
330
2
100
AcDbEntity
  8
AM_4
100
AcDbLine
 10
554.1056379999999
 20
77.164455
 30
0.0
 11
554.1588849999999
 21
77.123041
 31
0.0
  0
LINE
  5
1469
330
2
100
AcDbEntity
  8
AM_4
100
AcDbLine
 10
554.049433
 20
77.20586999999999
 30
0.0
 11
554.1056379999999
 21
77.164455
 31
0.0
  0
LINE
  5
146A
330
2
100
AcDbEntity
  8
AM_4
100
AcDbLine
 10
553.9902699999999
 20
77.24136800000001
 30
0.0
 11
554.049433
 21
77.20586999999999
 31
0.0
  0
LINE
  5
146B
330
2
100
AcDbEntity
  8
AM_4
100
AcDbLine
 10
553.931106
 20
77.276866
 30
0.0
 11
553.9902699999999
 21
77.24136800000001
 31
0.0
  0
LINE
  5
146C
330
2
100
AcDbEntity
  8
AM_4
100
AcDbLine
 10
553.8689849999999
 20
77.30940600000001
 30
0.0
 11
553.931106
 21
77.276866
 31
0.0
  0
LINE
  5
146D
330
2
100
AcDbEntity
  8
AM_4
100
AcDbLine
 10
553.806863
 20
77.33898700000001
 30
0.0
 11
553.8689849999999
 21
77.30940600000001
 31
0.0
  0
LINE
  5
146E
330
2
100
AcDbEntity
  8
AM_4
100
AcDbLine
 10
553.7417839999999
 20
77.36265300000001
 30
0.0
 11
553.806863
 21
77.33898700000001
 31
0.0
  0
LINE
  5
146F
330
2
100
AcDbEntity
  8
AM_4
100
AcDbLine
 10
553.673746
 20
77.386318
 30
0.0
 11
553.7417839999999
 21
77.36265300000001
 31
0.0
  0
LINE
  5
1470
330
2
100
AcDbEntity
  8
AM_4
100
AcDbLine
 10
553.605708
 20
77.40702500000001
 30
0.0
 11
553.673746
 21
77.386318
 31
0.0
  0
LINE
  5
1471
330
2
100
AcDbEntity
  8
AM_4
100
AcDbLine
 10
553.709244
 20
77.800462
 30
0.0
 11
553.6175400000001
 21
77.821169
 31
0.0
  0
LINE
  5
1472
330
2
100
AcDbEntity
  8
AM_4
100
AcDbLine
 10
553.795031
 20
77.77383799999999
 30
0.0
 11
553.709244
 21
77.800462
 31
0.0
  0
LINE
  5
1473
330
2
100
AcDbEntity
  8
AM_4
100
AcDbLine
 10
553.880817
 20
77.74425699999999
 30
0.0
 11
553.795031
 21
77.77383799999999
 31
0.0
  0
LINE
  5
1474
330
2
100
AcDbEntity
  8
AM_4
100
AcDbLine
 10
553.9666039999999
 20
77.711717
 30
0.0
 11
553.880817
 21
77.74425699999999
 31
0.0
  0
LINE
  5
1475
330
2
100
AcDbEntity
  8
AM_4
100
AcDbLine
 10
554.0464749999999
 20
77.67621899999999
 30
0.0
 11
553.9666039999999
 21
77.711717
 31
0.0
  0
LINE
  5
1476
330
2
100
AcDbEntity
  8
AM_4
100
AcDbLine
 10
554.126346
 20
77.634804
 30
0.0
 11
554.0464749999999
 21
77.67621899999999
 31
0.0
  0
LINE
  5
1477
330
2
100
AcDbEntity
  8
AM_4
100
AcDbLine
 10
554.2032579999999
 20
77.59043199999999
 30
0.0
 11
554.126346
 21
77.634804
 31
0.0
  0
LINE
  5
1478
330
2
100
AcDbEntity
  8
AM_4
100
AcDbLine
 10
554.2032579999999
 20
77.59043199999999
 30
0.0
 11
554.351166
 21
77.48985400000001
 31
0.0
  0
LINE
  5
1479
330
2
100
AcDbEntity
  8
AM_4
100
AcDbLine
 10
554.419204
 20
77.433649
 30
0.0
 11
554.351166
 21
77.48985400000001
 31
0.0
  0
LINE
  5
147A
330
2
100
AcDbEntity
  8
AM_4
100
AcDbLine
 10
554.487242
 20
77.374486
 30
0.0
 11
554.419204
 21
77.433649
 31
0.0
  0
LINE
  5
147B
330
2
100
AcDbEntity
  8
AM_4
100
AcDbLine
 10
554.549364
 20
77.315322
 30
0.0
 11
554.487242
 21
77.374486
 31
0.0
  0
LINE
  5
147C
330
2
100
AcDbEntity
  8
AM_4
100
AcDbLine
 10
554.549364
 20
77.315322
 30
0.0
 11
554.667691
 21
77.185163
 31
0.0
  0
LINE
  5
147D
330
2
100
AcDbEntity
  8
AM_4
100
AcDbLine
 10
554.7209379999999
 20
77.114167
 30
0.0
 11
554.667691
 21
77.185163
 31
0.0
  0
LINE
  5
147E
330
2
100
AcDbEntity
  8
AM_4
100
AcDbLine
 10
554.7712259999999
 20
77.043171
 30
0.0
 11
554.7209379999999
 21
77.114167
 31
0.0
  0
LINE
  5
147F
330
2
100
AcDbEntity
  8
AM_4
100
AcDbLine
 10
554.821515
 20
76.96625799999999
 30
0.0
 11
554.7712259999999
 21
77.043171
 31
0.0
  0
LINE
  5
1480
330
2
100
AcDbEntity
  8
AM_4
100
AcDbLine
 10
554.8629299999999
 20
76.889346
 30
0.0
 11
554.821515
 21
76.96625799999999
 31
0.0
  0
LINE
  5
1481
330
2
100
AcDbEntity
  8
AM_4
100
AcDbLine
 10
554.904344
 20
76.812433
 30
0.0
 11
554.8629299999999
 21
76.889346
 31
0.0
  0
LINE
  5
1482
330
2
100
AcDbEntity
  8
AM_4
100
AcDbLine
 10
554.939842
 20
76.72960500000001
 30
0.0
 11
554.904344
 21
76.812433
 31
0.0
  0
LINE
  5
1483
330
2
100
AcDbEntity
  8
AM_4
100
AcDbLine
 10
554.972382
 20
76.646776
 30
0.0
 11
554.939842
 21
76.72960500000001
 31
0.0
  0
LINE
  5
1484
330
2
100
AcDbEntity
  8
AM_4
100
AcDbLine
 10
555.0019639999999
 20
76.560989
 30
0.0
 11
554.972382
 21
76.646776
 31
0.0
  0
LINE
  5
1485
330
2
100
AcDbEntity
  8
AM_4
100
AcDbLine
 10
555.025629
 20
76.47520199999999
 30
0.0
 11
555.0019639999999
 21
76.560989
 31
0.0
  0
LINE
  5
1486
330
2
100
AcDbEntity
  8
AM_4
100
AcDbLine
 10
555.046336
 20
76.38645699999999
 30
0.0
 11
555.025629
 21
76.47520199999999
 31
0.0
  0
LINE
  5
1487
330
2
100
AcDbEntity
  8
AM_4
100
AcDbLine
 10
555.0640849999999
 20
76.297712
 30
0.0
 11
555.046336
 21
76.38645699999999
 31
0.0
  0
LINE
  5
1488
330
2
100
AcDbEntity
  8
AM_4
100
AcDbLine
 10
555.0847919999999
 20
76.022602
 30
0.0
 11
555.0847919999999
 21
76.022602
 31
0.0
  0
LINE
  5
1489
330
2
100
AcDbEntity
  8
AM_4
100
AcDbLine
 10
554.676565
 20
76.022602
 30
0.0
 11
555.0847919999999
 21
76.022602
 31
0.0
  0
LINE
  5
148A
330
2
100
AcDbEntity
  8
AM_4
100
AcDbLine
 10
554.670649
 20
76.167552
 30
0.0
 11
554.676565
 21
76.093598
 31
0.0
  0
LINE
  5
148B
330
2
100
AcDbEntity
  8
AM_4
100
AcDbLine
 10
555.0847919999999
 20
76.022602
 30
0.0
 11
555.0818339999999
 21
76.114305
 31
0.0
  0
LINE
  5
148C
330
2
100
AcDbEntity
  8
AM_4
100
AcDbLine
 10
554.8599719999999
 20
76.350959
 30
0.0
 11
554.8806789999999
 21
76.022602
 31
0.0
  0
LINE
  5
148D
330
2
100
AcDbEntity
  8
AM_4
100
AcDbLine
 10
554.661774
 20
76.23559
 30
0.0
 11
554.670649
 21
76.167552
 31
0.0
  0
LINE
  5
148E
330
2
100
AcDbEntity
  8
AM_4
100
AcDbLine
 10
555.0640849999999
 20
76.297712
 30
0.0
 11
555.0818339999999
 21
76.114305
 31
0.0
  0
LINE
  5
14A5
330
2
100
AcDbEntity
  8
AM_0
100
AcDbLine
 10
15.0
 20
15.0
 30
0.0
 11
599.0
 21
15.0
 31
0.0
1001
GENIUS_GENREC_14
1002
{
1000
PYDIR
1011
15.0
1021
425.0
1031
0.0
1002
}
1002
{
1000
PXDIR
1011
599.0
1021
15.0
1031
0.0
1002
}
1002
{
1000
PORI
1011
15.0
1021
15.0
1031
0.0
1002
}
1002
{
1000
PINS
1011
15.0
1021
15.0
1031
0.0
1002
}
1002
{
1000
PINS2
1011
599.0
1021
425.0
1031
0.0
1002
}
1002
{
1000
H
1070
     0
1002
}
1002
{
1000
W
1070
     1
1002
}
1002
{
1000
C
1070
     1
1002
}
1001
GENIUS_GENOBJ-N-REC_13
1002
{
1000
OWNER
1000
GEN
1002
}
1001
GENIUS_GENODEF_13
1002
{
1000
HIER
1070
     0
1002
}
1002
{
1000
MANEDIT
1070
     0
1002
}
1002
{
1000
NOSEL
1070
     0
1002
}
1002
{
1000
BEHIND
1070
     0
1002
}
1002
{
1000
OTHER
1070
     0
1002
}
1002
{
1000
REACTOR
1002
}
  0
LINE
  5
14A6
330
2
100
AcDbEntity
  8
AM_0
100
AcDbLine
 10
599.0
 20
15.0
 30
0.0
 11
599.0
 21
425.0
 31
0.0
1001
GENIUS_GENREC_14
1002
{
1000
PYDIR
1011
15.0
1021
425.0
1031
0.0
1002
}
1002
{
1000
PXDIR
1011
599.0
1021
15.0
1031
0.0
1002
}
1002
{
1000
PORI
1011
15.0
1021
15.0
1031
0.0
1002
}
1002
{
1000
PINS
1011
15.0
1021
15.0
1031
0.0
1002
}
1002
{
1000
PINS2
1011
599.0
1021
425.0
1031
0.0
1002
}
1002
{
1000
H
1070
     0
1002
}
1002
{
1000
W
1070
     1
1002
}
1002
{
1000
C
1070
     1
1002
}
1001
GENIUS_GENOBJ-N-REC_13
1002
{
1000
OWNER
1000
GEN
1002
}
1001
GENIUS_GENODEF_13
1002
{
1000
HIER
1070
     0
1002
}
1002
{
1000
MANEDIT
1070
     0
1002
}
1002
{
1000
NOSEL
1070
     0
1002
}
1002
{
1000
BEHIND
1070
     0
1002
}
1002
{
1000
OTHER
1070
     0
1002
}
1002
{
1000
REACTOR
1002
}
  0
LINE
  5
14A7
330
2
100
AcDbEntity
  8
AM_0
100
AcDbLine
 10
599.0
 20
425.0
 30
0.0
 11
15.0
 21
425.0
 31
0.0
1001
GENIUS_GENREC_14
1002
{
1000
PYDIR
1011
15.0
1021
425.0
1031
0.0
1002
}
1002
{
1000
PXDIR
1011
599.0
1021
15.0
1031
0.0
1002
}
1002
{
1000
PORI
1011
15.0
1021
15.0
1031
0.0
1002
}
1002
{
1000
PINS
1011
15.0
1021
15.0
1031
0.0
1002
}
1002
{
1000
PINS2
1011
599.0
1021
425.0
1031
0.0
1002
}
1002
{
1000
H
1070
     0
1002
}
1002
{
1000
W
1070
     1
1002
}
1002
{
1000
C
1070
     1
1002
}
1001
GENIUS_GENOBJ-N-REC_13
1002
{
1000
OWNER
1000
GEN
1002
}
1001
GENIUS_GENODEF_13
1002
{
1000
HIER
1070
     0
1002
}
1002
{
1000
MANEDIT
1070
     0
1002
}
1002
{
1000
NOSEL
1070
     0
1002
}
1002
{
1000
BEHIND
1070
     0
1002
}
1002
{
1000
OTHER
1070
     0
1002
}
1002
{
1000
REACTOR
1002
}
  0
LINE
  5
14A8
330
2
100
AcDbEntity
  8
AM_0
100
AcDbLine
 10
15.0
 20
425.0
 30
0.0
 11
15.0
 21
15.0
 31
0.0
1001
GENIUS_GENREC_14
1002
{
1000
PYDIR
1011
15.0
1021
425.0
1031
0.0
1002
}
1002
{
1000
PXDIR
1011
599.0
1021
15.0
1031
0.0
1002
}
1002
{
1000
PORI
1011
15.0
1021
15.0
1031
0.0
1002
}
1002
{
1000
PINS
1011
15.0
1021
15.0
1031
0.0
1002
}
1002
{
1000
PINS2
1011
599.0
1021
425.0
1031
0.0
1002
}
1002
{
1000
H
1070
     0
1002
}
1002
{
1000
W
1070
     1
1002
}
1002
{
1000
C
1070
     1
1002
}
1001
GENIUS_GENOBJ-N-REC_13
1002
{
1000
OWNER
1000
GEN
1002
}
1001
GENIUS_GENODEF_13
1002
{
1000
HIER
1070
     0
1002
}
1002
{
1000
MANEDIT
1070
     0
1002
}
1002
{
1000
NOSEL
1070
     0
1002
}
1002
{
1000
BEHIND
1070
     0
1002
}
1002
{
1000
OTHER
1070
     0
1002
}
1002
{
1000
REACTOR
1002
}
  0
LINE
  5
14A9
330
2
100
AcDbEntity
  8
0
 62
     0
100
AcDbLine
 10
256.579552
 20
96.316681
 30
0.0
 11
254.579552
 21
94.31668100000001
 31
0.0
  0
LINE
  5
14AA
330
2
100
AcDbEntity
  8
0
 62
     0
100
AcDbLine
 10
256.579552
 20
99.145108
 30
0.0
 11
254.579552
 21
97.14510799999999
 31
0.0
  0
LINE
  5
14AB
330
2
100
AcDbEntity
  8
0
 62
     0
100
AcDbLine
 10
256.579552
 20
101.973536
 30
0.0
 11
254.579552
 21
99.973536
 31
0.0
  0
LINE
  5
14AC
330
2
100
AcDbEntity
  8
0
 62
     0
100
AcDbLine
 10
256.579552
 20
104.801963
 30
0.0
 11
254.579552
 21
102.801963
 31
0.0
  0
LINE
  5
14AD
330
2
100
AcDbEntity
  8
0
 62
     0
100
AcDbLine
 10
256.579552
 20
107.63039
 30
0.0
 11
255.349834
 21
106.400672
 31
0.0
  0
LINE
  5
14AE
330
2
100
AcDbEntity
  8
0
 62
     0
100
AcDbLine
 10
255.151893
 20
106.20273
 30
0.0
 11
254.579552
 21
105.63039
 31
0.0
  0
LINE
  5
14AF
330
2
100
AcDbEntity
  8
0
 62
     0
100
AcDbLine
 10
256.579552
 20
110.458817
 30
0.0
 11
254.579552
 21
108.458817
 31
0.0
  0
LINE
  5
14B0
330
2
100
AcDbEntity
  8
0
 62
     0
100
AcDbLine
 10
256.579552
 20
113.287244
 30
0.0
 11
254.579552
 21
111.287244
 31
0.0
  0
LINE
  5
14B1
330
2
100
AcDbEntity
  8
0
 62
     0
100
AcDbLine
 10
256.579552
 20
116.115671
 30
0.0
 11
254.579552
 21
114.115671
 31
0.0
  0
LINE
  5
14B2
330
2
100
AcDbEntity
  8
0
 62
     0
100
AcDbLine
 10
256.579552
 20
93.488254
 30
0.0
 11
254.579552
 21
91.48825399999999
 31
0.0
  0
LINE
  5
14B3
330
2
100
AcDbEntity
  8
0
 62
     0
100
AcDbLine
 10
256.579552
 20
90.65982700000001
 30
0.0
 11
254.579552
 21
88.65982700000001
 31
0.0
  0
LINE
  5
14B4
330
2
100
AcDbEntity
  8
0
 62
     0
100
AcDbLine
 10
256.579552
 20
87.83140000000001
 30
0.0
 11
254.579552
 21
85.8314
 31
0.0
  0
LINE
  5
14B5
330
2
100
AcDbEntity
  8
0
 62
     0
100
AcDbLine
 10
256.579552
 20
85.00297299999999
 30
0.0
 11
254.579552
 21
83.002973
 31
0.0
  0
LINE
  5
14B6
330
2
100
AcDbEntity
  8
0
 62
     0
100
AcDbLine
 10
256.579552
 20
82.17454599999999
 30
0.0
 11
254.579552
 21
80.17454599999998
 31
0.0
  0
LINE
  5
14B7
330
2
100
AcDbEntity
  8
0
 62
     0
100
AcDbLine
 10
232.139552
 20
97.332525
 30
0.0
 11
230.139552
 21
95.33252500000001
 31
0.0
  0
LINE
  5
14B8
330
2
100
AcDbEntity
  8
0
 62
     0
100
AcDbLine
 10
232.139552
 20
100.160953
 30
0.0
 11
230.139552
 21
98.160953
 31
0.0
  0
LINE
  5
14B9
330
2
100
AcDbEntity
  8
0
 62
     0
100
AcDbLine
 10
232.139552
 20
102.98938
 30
0.0
 11
230.139552
 21
100.98938
 31
0.0
  0
LINE
  5
14BA
330
2
100
AcDbEntity
  8
0
 62
     0
100
AcDbLine
 10
232.139552
 20
105.817807
 30
0.0
 11
230.139552
 21
103.817807
 31
0.0
  0
LINE
  5
14BB
330
2
100
AcDbEntity
  8
0
 62
     0
100
AcDbLine
 10
232.139552
 20
108.646234
 30
0.0
 11
230.139552
 21
106.646234
 31
0.0
  0
LINE
  5
14BC
330
2
100
AcDbEntity
  8
0
 62
     0
100
AcDbLine
 10
232.139552
 20
111.474661
 30
0.0
 11
230.139552
 21
109.474661
 31
0.0
  0
LINE
  5
14BD
330
2
100
AcDbEntity
  8
0
 62
     0
100
AcDbLine
 10
232.139552
 20
114.303088
 30
0.0
 11
230.139552
 21
112.303088
 31
0.0
  0
LINE
  5
14BE
330
2
100
AcDbEntity
  8
0
 62
     0
100
AcDbLine
 10
232.139552
 20
94.504098
 30
0.0
 11
230.139552
 21
92.50409799999999
 31
0.0
  0
LINE
  5
14BF
330
2
100
AcDbEntity
  8
0
 62
     0
100
AcDbLine
 10
232.139552
 20
91.67567099999999
 30
0.0
 11
230.139552
 21
89.675671
 31
0.0
  0
LINE
  5
14C0
330
2
100
AcDbEntity
  8
0
 62
     0
100
AcDbLine
 10
232.139552
 20
88.84724399999999
 30
0.0
 11
230.139552
 21
86.84724399999998
 31
0.0
  0
LINE
  5
14C1
330
2
100
AcDbEntity
  8
0
 62
     0
100
AcDbLine
 10
232.139552
 20
86.01881699999999
 30
0.0
 11
230.139552
 21
84.018817
 31
0.0
  0
LINE
  5
14C2
330
2
100
AcDbEntity
  8
0
 62
     0
100
AcDbLine
 10
232.139552
 20
83.19039000000001
 30
0.0
 11
230.139552
 21
81.19039
 31
0.0
  0
LINE
  5
14C3
330
2
100
AcDbEntity
  8
0
 62
     0
100
AcDbLine
 10
232.139552
 20
80.361963
 30
0.0
 11
230.9262
 21
79.14860999999999
 31
0.0
  0
LINE
  5
14C4
330
2
100
AcDbEntity
  8
AM_0
100
AcDbLine
 10
266.385167
 20
82.063058
 30
0.0
 11
266.385167
 21
69.23543399999999
 31
0.0
  0
LINE
  5
14C5
330
2
100
AcDbEntity
  8
AM_0
100
AcDbLine
 10
231.567211
 20
106.400672
 30
0.0
 11
230.139552
 21
106.400672
 31
0.0
  0
LINE
  5
14C6
330
2
100
AcDbEntity
  8
AM_0
100
AcDbLine
 10
255.151893
 20
106.400672
 30
0.0
 11
256.579552
 21
106.400672
 31
0.0
  0
ENDSEC
  0
SECTION
  2
OBJECTS
  0
DICTIONARY
  5
8
330
0
100
AcDbDictionary
281
     1
  3
ACAD_COLOR
350
15B0
  3
ACAD_GROUP
350
22
  3
ACAD_LAYOUT
350
7
  3
ACAD_MATERIAL
350
159B
  3
ACAD_MLINESTYLE
350
23
  3
ACAD_PLOTSETTINGS
350
24
  3
ACAD_PLOTSTYLENAME
350
10
  3
ACAD_TABLESTYLE
350
15B1
  3
ACAD_VISUALSTYLE
350
159F
  3
ACDBVARIABLEDICTIONARY
350
797
  3
ACMDICTIONARY
350
85
  3
AMG
350
99
  3
AMGSNAPSETTINGS
350
7B4
  0
DICTIONARY
  5
3
330
2
100
AcDbDictionary
280
     1
281
     1
  3
ACAD_INDEX
360
B52
  3
ACAD_LAYOUTSELFREF
360
1559
  0
DICTIONARY
  5
1524
330
9
100
AcDbDictionary
280
     1
281
     1
  3
ACAD_LAYOUTSELFREF
360
155E
  0
DICTIONARY
  5
15B0
102
{ACAD_REACTORS
330
8
102
}
330
8
100
AcDbDictionary
281
     1
  0
DICTIONARY
  5
22
102
{ACAD_REACTORS
330
8
102
}
330
8
100
AcDbDictionary
281
     1
  0
DICTIONARY
  5
7
102
{ACAD_REACTORS
330
8
102
}
330
8
100
AcDbDictionary
281
     1
  3
LAYOUT1
350
C
  3
MODEL
350
6
  0
DICTIONARY
  5
159B
102
{ACAD_REACTORS
330
8
102
}
330
8
100
AcDbDictionary
281
     1
  3
ByBlock
350
159D
  3
ByLayer
350
159C
  3
Global
350
159E
  0
DICTIONARY
  5
23
102
{ACAD_REACTORS
330
8
102
}
330
8
100
AcDbDictionary
281
     1
  3
STANDARD
350
26
  0
DICTIONARY
  5
24
102
{ACAD_REACTORS
330
8
102
}
330
8
100
AcDbDictionary
281
     1
  0
ACDBDICTIONARYWDFLT
  5
10
102
{ACAD_REACTORS
330
8
102
}
330
8
100
AcDbDictionary
281
     1
  3
Normal
350
F
100
AcDbDictionaryWithDefault
340
F
  0
DICTIONARY
  5
15B1
102
{ACAD_REACTORS
330
8
102
}
330
8
100
AcDbDictionary
281
     1
  3
Standard
350
15B2
  0
DICTIONARY
  5
159F
102
{ACAD_REACTORS
330
8
102
}
330
8
100
AcDbDictionary
281
     1
  3
2dWireframe
350
15A5
  3
3D Hidden
350
15A7
  3
3dWireframe
350
15A6
  3
Basic
350
15A4
  3
Brighten
350
15AB
  3
ColorChange
350
15AF
  3
Conceptual
350
15A8
  3
Dim
350
15AA
  3
EdgeColorOff
350
16A0
  3
Facepattern
350
15AE
  3
Flat
350
15A0
  3
FlatWithEdges
350
15A1
  3
Gouraud
350
15A2
  3
GouraudWithEdges
350
15A3
  3
JitterOff
350
16A3
  3
Linepattern
350
15AD
  3
OverhangOff
350
16A6
  3
Realistic
350
15A9
  3
Thicken
350
15AC
  0
DICTIONARY
  5
797
102
{ACAD_REACTORS
330
8
102
}
330
8
100
AcDbDictionary
281
     1
  3
CTABLESTYLE
350
16B5
  3
DIMASSOC
350
799
  3
HIDETEXT
350
798
  3
INDEXCTL
350
B60
  0
DICTIONARY
  5
85
102
{ACAD_REACTORS
330
8
102
}
330
8
100
AcDbDictionary
281
     1
  3
ACMBOM
350
B30
  3
ACMSTDDICTIONARY
350
84
  0
DICTIONARY
  5
99
102
{ACAD_REACTORS
330
8
102
}
330
8
100
AcDbDictionary
281
     1
  0
DICTIONARY
  5
7B4
102
{ACAD_REACTORS
330
8
102
}
330
8
100
AcDbDictionary
281
     1
  0
DICTIONARY
  5
B52
102
{ACAD_REACTORS
330
3
102
}
330
3
100
AcDbDictionary
281
     1
  3
*A1
350
B53
  0
XRECORD
  5
1559
102
{ACAD_REACTORS
330
3
102
}
330
3
100
AcDbXrecord
280
     1
340
2
  0
XRECORD
  5
155E
102
{ACAD_REACTORS
330
1524
102
}
330
1524
100
AcDbXrecord
280
     1
340
9
  0
LAYOUT
  5
C
102
{ACAD_REACTORS
330
7
102
}
330
7
100
AcDbPlotSettings
  1

  2
none_device
  4
Letter_(8.50_x_11.00_Inches)
  6

 40
6.349999904632568
 41
6.349999904632568
 42
6.350006103515625
 43
6.350006103515625
 44
215.8999938964844
 45
279.3999938964844
 46
0.0
 47
0.0
 48
0.0
 49
0.0
140
0.0
141
0.0
142
1.0
143
1.0
 70
 15024
 72
     1
 73
     1
 74
     5
  7
ganz_fein_1.ctb
 75
    16
147
1.0
 76
     0
 77
     2
 78
   300
148
0.0
149
0.0
100
AcDbLayout
  1
Layout1
 70
     1
 71
     1
 10
0.0
 20
0.0
 11
420.0
 21
297.0
 12
0.0
 22
0.0
 32
0.0
 14
1.000000000000000E+20
 24
1.000000000000000E+20
 34
1.000000000000000E+20
 15
-1.000000000000000E+20
 25
-1.000000000000000E+20
 35
-1.000000000000000E+20
146
0.0
 13
0.0
 23
0.0
 33
0.0
 16
1.0
 26
0.0
 36
0.0
 17
0.0
 27
1.0
 37
0.0
 76
     0
330
9
  0
LAYOUT
  5
6
102
{ACAD_REACTORS
330
7
102
}
330
7
100
AcDbPlotSettings
  1

  2
Adobe PDF
  4
A4
  6
AM_VIEW6
 40
3.174999952316284
 41
3.174999952316284
 42
3.175003051757812
 43
3.17498779296875
 44
209.9733276367187
 45
297.0318298339844
 46
0.0
 47
0.3213825254905487
 48
-264.805263
 49
-202.101156
140
319.194737
141
207.898844
142
1.0
143
2.013521784597505
 70
 11956
 72
     1
 73
     1
 74
     4
  7
ganz_fein_1.ctb
 75
     0
147
0.4966422552015724
 76
     0
 77
     2
 78
   300
148
264.805263
149
202.101156
100
AcDbLayout
  1
Model
 70
     1
 71
     0
 10
0.0
 20
0.0
 11
12.0
 21
9.0
 12
0.0
 22
0.0
 32
0.0
 14
0.0
 24
0.0
 34
0.0
 15
0.0
 25
0.0
 35
0.0
146
0.0
 13
0.0
 23
0.0
 33
0.0
 16
1.0
 26
0.0
 36
0.0
 17
0.0
 27
1.0
 37
0.0
 76
     0
330
2
331
1522
1001
ACAD_PSEXT
1000
Adobe PDF
1000
Adobe PDF Converter
1000
Documents\*.pdf
1000

1070
     0
  0
MATERIAL
  5
159D
102
{ACAD_XDICTIONARY
360
16B8
102
}
102
{ACAD_REACTORS
330
159B
102
}
330
159B
100
AcDbMaterial
  1
ByBlock
  0
MATERIAL
  5
159C
102
{ACAD_XDICTIONARY
360
16B6
102
}
102
{ACAD_REACTORS
330
159B
102
}
330
159B
100
AcDbMaterial
  1
ByLayer
  0
MATERIAL
  5
159E
102
{ACAD_XDICTIONARY
360
16BA
102
}
102
{ACAD_REACTORS
330
159B
102
}
330
159B
100
AcDbMaterial
  1
Global
  0
MLINESTYLE
  5
26
102
{ACAD_REACTORS
330
23
102
}
330
23
100
AcDbMlineStyle
  2
STANDARD
 70
     0
  3

 62
   256
 51
90.0
 52
90.0
 71
     2
 49
0.5
 62
   256
  6
BYLAYER
 49
-0.5
 62
   256
  6
BYLAYER
  0
ACDBPLACEHOLDER
  5
F
102
{ACAD_REACTORS
330
10
102
}
330
10
  0
TABLESTYLE
  5
15B2
102
{ACAD_XDICTIONARY
360
16BC
102
}
102
{ACAD_REACTORS
330
15B1
102
}
330
15B1
100
AcDbTableStyle
  3
Standard
 70
     0
 71
     0
 40
1.5
 41
1.5
280
     0
281
     0
  7
STANDARD
140
4.5
170
     2
 62
     0
 63
     7
283
     0
274
    -2
284
     1
 64
     0
275
    -2
285
     1
 65
     0
276
    -2
286
     1
 66
     0
277
    -2
287
     1
 67
     0
278
    -2
288
     1
 68
     0
279
    -2
289
     1
 69
     0
  7
STANDARD
140
6.0
170
     5
 62
     0
 63
     7
283
     0
274
    -2
284
     1
 64
     0
275
    -2
285
     1
 65
     0
276
    -2
286
     1
 66
     0
277
    -2
287
     1
 67
     0
278
    -2
288
     1
 68
     0
279
    -2
289
     1
 69
     0
  7
STANDARD
140
4.5
170
     5
 62
     0
 63
     7
283
     0
274
    -2
284
     1
 64
     0
275
    -2
285
     1
 65
     0
276
    -2
286
     1
 66
     0
277
    -2
287
     1
 67
     0
278
    -2
288
     1
 68
     0
279
    -2
289
     1
 69
     0
  0
VISUALSTYLE
  5
15A5
102
{ACAD_REACTORS
330
159F
102
}
330
159F
100
AcDbVisualStyle
  2
2dWireframe
 70
     4
 71
     0
 72
     2
 73
     0
 90
        0
 40
-0.6
 41
-30.0
 62
     5
 63
     7
421
 16777215
 74
     1
 91
        4
 64
     7
 65
   257
 75
     1
175
     1
 42
1.0
 92
        0
 66
   257
 43
1.0
 76
     1
 77
     6
 78
     2
 67
     7
 79
     5
170
     0
171
     0
290
     0
174
     0
 93
        1
 44
0.0
173
     0
291
     0
 45
0.0
1001
ACAD
1000
AcDbSavedByObjectVersion
1070
     0
  0
VISUALSTYLE
  5
15A7
102
{ACAD_REACTORS
330
159F
102
}
330
159F
100
AcDbVisualStyle
  2
3D Hidden
 70
     6
 71
     1
 72
     2
 73
     2
 90
        0
 40
-0.6
 41
-30.0
 62
     5
 63
     7
421
 16777215
 74
     2
 91
        2
 64
     7
 65
   257
 75
     2
175
     1
 42
40.0
 92
        0
 66
   257
 43
1.0
 76
     1
 77
     6
 78
     2
 67
     7
 79
     3
170
     0
171
     0
290
     0
174
     0
 93
        1
 44
0.0
173
     0
291
     0
 45
0.0
1001
ACAD
1000
AcDbSavedByObjectVersion
1070
     0
  0
VISUALSTYLE
  5
15A6
102
{ACAD_REACTORS
330
159F
102
}
330
159F
100
AcDbVisualStyle
  2
3dWireframe
 70
     5
 71
     0
 72
     2
 73
     0
 90
        0
 40
-0.6
 41
-30.0
 62
     5
 63
     7
421
 16777215
 74
     1
 91
        4
 64
     7
 65
   257
 75
     1
175
     1
 42
1.0
 92
        0
 66
   257
 43
1.0
 76
     1
 77
     6
 78
     2
 67
     7
 79
     5
170
     0
171
     0
290
     0
174
     0
 93
        1
 44
0.0
173
     0
291
     0
 45
0.0
1001
ACAD
1000
AcDbSavedByObjectVersion
1070
     0
  0
VISUALSTYLE
  5
15A4
102
{ACAD_REACTORS
330
159F
102
}
330
159F
100
AcDbVisualStyle
  2
Basic
 70
     7
 71
     1
 72
     0
 73
     1
 90
        0
 40
-0.6
 41
-30.0
 62
     5
 63
     7
421
 16777215
 74
     0
 91
        4
 64
     7
 65
   257
 75
     1
175
     1
 42
1.0
 92
        8
 66
     7
 43
1.0
 76
     1
 77
     6
 78
     2
 67
     7
 79
     5
170
     0
171
     0
290
     0
174
     0
 93
        1
 44
0.0
173
     0
291
     1
 45
0.0
1001
ACAD
1000
AcDbSavedByObjectVersion
1070
     0
  0
VISUALSTYLE
  5
15AB
102
{ACAD_REACTORS
330
159F
102
}
330
159F
100
AcDbVisualStyle
  2
Brighten
 70
    12
 71
     2
 72
     2
 73
     0
 90
        0
 40
-0.6
 41
-30.0
 62
     5
 63
     7
421
 16777215
 74
     1
 91
        4
 64
     7
 65
   257
 75
     1
175
     1
 42
1.0
 92
        8
 66
     7
 43
1.0
 76
     1
 77
     6
 78
     2
 67
     7
 79
     5
170
     0
171
     0
290
     0
174
     0
 93
        1
 44
50.0
173
     0
291
     1
 45
0.0
1001
ACAD
1000
AcDbSavedByObjectVersion
1070
     0
  0
VISUALSTYLE
  5
15AF
102
{ACAD_REACTORS
330
159F
102
}
330
159F
100
AcDbVisualStyle
  2
ColorChange
 70
    16
 71
     2
 72
     2
 73
     3
 90
        0
 40
-0.6
 41
-30.0
 62
     5
 63
     8
421
  8421504
 74
     1
 91
        4
 64
     7
 65
   257
 75
     1
175
     1
 42
1.0
 92
        8
 66
     8
424
  8421504
 43
1.0
 76
     1
 77
     6
 78
     2
 67
     7
 79
     5
170
     0
171
     0
290
     0
174
     0
 93
        1
 44
0.0
173
     0
291
     1
 45
0.0
1001
ACAD
1000
AcDbSavedByObjectVersion
1070
     0
  0
VISUALSTYLE
  5
15A8
102
{ACAD_REACTORS
330
159F
102
}
330
159F
100
AcDbVisualStyle
  2
Conceptual
 70
     9
 71
     3
 72
     2
 73
     0
 90
        0
 40
-0.6
 41
-30.0
 62
     5
 63
     7
421
 16777215
 74
     2
 91
        2
 64
     7
 65
   257
 75
     1
175
     1
 42
40.0
 92
        8
 66
     7
 43
1.0
 76
     1
 77
     6
 78
     2
 67
     7
 79
     3
170
     0
171
     0
290
     0
174
     0
 93
        1
 44
0.0
173
     0
291
     0
 45
0.0
1001
ACAD
1000
AcDbSavedByObjectVersion
1070
     0
  0
VISUALSTYLE
  5
15AA
102
{ACAD_REACTORS
330
159F
102
}
330
159F
100
AcDbVisualStyle
  2
Dim
 70
    11
 71
     2
 72
     2
 73
     0
 90
        0
 40
-0.6
 41
-30.0
 62
     5
 63
     7
421
 16777215
 74
     1
 91
        4
 64
     7
 65
   257
 75
     1
175
     1
 42
1.0
 92
        8
 66
     7
 43
1.0
 76
     1
 77
     6
 78
     2
 67
     7
 79
     5
170
     0
171
     0
290
     0
174
     0
 93
        1
 44
-50.0
173
     0
291
     1
 45
0.0
1001
ACAD
1000
AcDbSavedByObjectVersion
1070
     0
  0
VISUALSTYLE
  5
16A0
102
{ACAD_XDICTIONARY
360
16A1
102
}
102
{ACAD_REACTORS
330
159F
102
}
330
159F
100
AcDbVisualStyle
  2
EdgeColorOff
 70
    22
 71
     2
 72
     2
 73
     0
 90
        0
 40
-0.6
 41
-30.0
 62
     5
 63
     7
 74
     1
 91
        4
 64
     7
 65
   257
 75
     1
175
     1
 42
1.0
 92
        8
 66
     7
 43
1.0
 76
     1
 77
     6
 78
     2
 67
     7
 79
     5
170
     0
171
     0
290
     0
174
     0
 93
        1
 44
0.0
173
     0
291
     1
 45
0.0
1001
ACAD
1000
AcDbSavedByObjectVersion
1070
     0
  0
VISUALSTYLE
  5
15AE
102
{ACAD_REACTORS
330
159F
102
}
330
159F
100
AcDbVisualStyle
  2
Facepattern
 70
    15
 71
     2
 72
     2
 73
     0
 90
        0
 40
-0.6
 41
-30.0
 62
     5
 63
     7
421
 16777215
 74
     1
 91
        4
 64
     7
 65
   257
 75
     1
175
     1
 42
1.0
 92
        8
 66
     7
 43
1.0
 76
     1
 77
     6
 78
     2
 67
     7
 79
     5
170
     0
171
     0
290
     0
174
     0
 93
        1
 44
0.0
173
     0
291
     1
 45
0.0
1001
ACAD
1000
AcDbSavedByObjectVersion
1070
     0
  0
VISUALSTYLE
  5
15A0
102
{ACAD_REACTORS
330
159F
102
}
330
159F
100
AcDbVisualStyle
  2
Flat
 70
     0
 71
     2
 72
     1
 73
     1
 90
        2
 40
-0.6
 41
30.0
 62
     5
 63
     7
421
 16777215
 74
     0
 91
        4
 64
     7
 65
   257
 75
     1
175
     1
 42
1.0
 92
        8
 66
     7
 43
1.0
 76
     1
 77
     6
 78
     2
 67
     7
 79
     5
170
     0
171
     0
290
     0
174
     0
 93
       13
 44
0.0
173
     0
291
     1
 45
0.0
1001
ACAD
1000
AcDbSavedByObjectVersion
1070
     0
  0
VISUALSTYLE
  5
15A1
102
{ACAD_REACTORS
330
159F
102
}
330
159F
100
AcDbVisualStyle
  2
FlatWithEdges
 70
     1
 71
     2
 72
     1
 73
     1
 90
        2
 40
-0.6
 41
30.0
 62
     5
 63
     7
421
 16777215
 74
     1
 91
        4
 64
     7
 65
   257
 75
     1
175
     1
 42
1.0
 92
        0
 66
   257
 43
1.0
 76
     1
 77
     6
 78
     2
 67
     7
 79
     5
170
     0
171
     0
290
     0
174
     0
 93
       13
 44
0.0
173
     0
291
     1
 45
0.0
1001
ACAD
1000
AcDbSavedByObjectVersion
1070
     0
  0
VISUALSTYLE
  5
15A2
102
{ACAD_REACTORS
330
159F
102
}
330
159F
100
AcDbVisualStyle
  2
Gouraud
 70
     2
 71
     2
 72
     2
 73
     1
 90
        2
 40
-0.6
 41
30.0
 62
     5
 63
     7
421
 16777215
 74
     0
 91
        4
 64
     7
 65
   257
 75
     1
175
     1
 42
1.0
 92
        0
 66
     7
 43
1.0
 76
     1
 77
     6
 78
     2
 67
     7
 79
     5
170
     0
171
     0
290
     0
174
     0
 93
       13
 44
0.0
173
     0
291
     1
 45
0.0
1001
ACAD
1000
AcDbSavedByObjectVersion
1070
     0
  0
VISUALSTYLE
  5
15A3
102
{ACAD_REACTORS
330
159F
102
}
330
159F
100
AcDbVisualStyle
  2
GouraudWithEdges
 70
     3
 71
     2
 72
     2
 73
     1
 90
        2
 40
-0.6
 41
30.0
 62
     5
 63
     7
421
 16777215
 74
     1
 91
        4
 64
     7
 65
   257
 75
     1
175
     1
 42
1.0
 92
        0
 66
   257
 43
1.0
 76
     1
 77
     6
 78
     2
 67
     7
 79
     5
170
     0
171
     0
290
     0
174
     0
 93
       13
 44
0.0
173
     0
291
     1
 45
0.0
1001
ACAD
1000
AcDbSavedByObjectVersion
1070
     0
  0
VISUALSTYLE
  5
16A3
102
{ACAD_XDICTIONARY
360
16A4
102
}
102
{ACAD_REACTORS
330
159F
102
}
330
159F
100
AcDbVisualStyle
  2
JitterOff
 70
    20
 71
     2
 72
     2
 73
     0
 90
        0
 40
-0.6
 41
-30.0
 62
     5
 63
     7
 74
     1
 91
        4
 64
     7
 65
   257
 75
     1
175
     1
 42
1.0
 92
       10
 66
     7
 43
1.0
 76
     1
 77
     6
 78
     2
 67
     7
 79
     5
170
     0
171
     0
290
     0
174
     0
 93
        1
 44
0.0
173
     0
291
     1
 45
0.0
1001
ACAD
1000
AcDbSavedByObjectVersion
1070
     0
  0
VISUALSTYLE
  5
15AD
102
{ACAD_REACTORS
330
159F
102
}
330
159F
100
AcDbVisualStyle
  2
Linepattern
 70
    14
 71
     2
 72
     2
 73
     0
 90
        0
 40
-0.6
 41
-30.0
 62
     5
 63
     7
421
 16777215
 74
     1
 91
        4
 64
     7
 65
   257
 75
     7
175
     7
 42
1.0
 92
        8
 66
     7
 43
1.0
 76
     1
 77
     6
 78
     2
 67
     7
 79
     5
170
     0
171
     0
290
     0
174
     0
 93
        1
 44
0.0
173
     0
291
     1
 45
0.0
1001
ACAD
1000
AcDbSavedByObjectVersion
1070
     0
  0
VISUALSTYLE
  5
16A6
102
{ACAD_XDICTIONARY
360
16A7
102
}
102
{ACAD_REACTORS
330
159F
102
}
330
159F
100
AcDbVisualStyle
  2
OverhangOff
 70
    21
 71
     2
 72
     2
 73
     0
 90
        0
 40
-0.6
 41
-30.0
 62
     5
 63
     7
 74
     1
 91
        4
 64
     7
 65
   257
 75
     1
175
     1
 42
1.0
 92
        9
 66
     7
 43
1.0
 76
     1
 77
     6
 78
     2
 67
     7
 79
     5
170
     0
171
     0
290
     0
174
     0
 93
        1
 44
0.0
173
     0
291
     1
 45
0.0
1001
ACAD
1000
AcDbSavedByObjectVersion
1070
     0
  0
VISUALSTYLE
  5
15A9
102
{ACAD_REACTORS
330
159F
102
}
330
159F
100
AcDbVisualStyle
  2
Realistic
 70
     8
 71
     2
 72
     2
 73
     0
 90
        0
 40
-0.6
 41
-30.0
 62
     5
 63
     7
421
 16777215
 74
     1
 91
        0
 64
     7
 65
   257
 75
     1
175
     1
 42
1.0
 92
        8
 66
     8
424
  7895160
 43
1.0
 76
     1
 77
     6
 78
     2
 67
     7
 79
     5
170
     0
171
     0
290
     0
174
     0
 93
       13
 44
0.0
173
     0
291
     0
 45
0.0
1001
ACAD
1000
AcDbSavedByObjectVersion
1070
     0
  0
VISUALSTYLE
  5
15AC
102
{ACAD_REACTORS
330
159F
102
}
330
159F
100
AcDbVisualStyle
  2
Thicken
 70
    13
 71
     2
 72
     2
 73
     0
 90
        0
 40
-0.6
 41
-30.0
 62
     5
 63
     7
421
 16777215
 74
     1
 91
        4
 64
     7
 65
   257
 75
     1
175
     1
 42
1.0
 92
       12
 66
     7
 43
1.0
 76
     1
 77
     6
 78
     2
 67
     7
 79
     5
170
     0
171
     0
290
     0
174
     0
 93
        1
 44
0.0
173
     0
291
     1
 45
0.0
1001
ACAD
1000
AcDbSavedByObjectVersion
1070
     0
  0
DICTIONARYVAR
  5
16B5
102
{ACAD_REACTORS
330
797
102
}
330
797
100
DictionaryVariables
280
     0
  1
STANDARD
  0
DICTIONARYVAR
  5
799
102
{ACAD_REACTORS
330
797
102
}
330
797
100
DictionaryVariables
280
     0
  1
1
  0
DICTIONARYVAR
  5
798
102
{ACAD_REACTORS
330
797
102
}
330
797
100
DictionaryVariables
280
     0
  1
1
  0
DICTIONARYVAR
  5
B60
102
{ACAD_REACTORS
330
797
102
}
330
797
100
DictionaryVariables
280
     0
  1
1
  0
DICTIONARY
  5
B30
102
{ACAD_REACTORS
330
85
102
}
330
85
100
AcDbDictionary
281
     1
  0
DICTIONARY
  5
84
102
{ACAD_REACTORS
330
85
102
}
330
85
100
AcDbDictionary
281
     1
  0
LAYER_INDEX
  5
B53
102
{ACAD_REACTORS
330
B52
102
}
330
B52
100
AcDbIndex
 40
2456156.376576111
100
AcDbLayerIndex
  8
0
360
B54
 90
       30
  8
AM_0
360
B55
 90
      325
  8
AM_5
360
B56
 90
        4
  8
DEFPOINTS
360
B57
 90
        2
  8
AM_7
360
B58
 90
        7
  8
AM_8
360
B59
 90
       18
  8
AM_4
360
B5A
 90
      577
  8
AM_6
360
B5B
 90
        3
  0
DICTIONARY
  5
16B8
330
159D
100
AcDbDictionary
280
     1
281
     1
  3
ACAD_XREC_ROUNDTRIP
360
16B9
  0
DICTIONARY
  5
16B6
330
159C
100
AcDbDictionary
280
     1
281
     1
  3
ACAD_XREC_ROUNDTRIP
360
16B7
  0
DICTIONARY
  5
16BA
330
159E
100
AcDbDictionary
280
     1
281
     1
  3
ACAD_XREC_ROUNDTRIP
360
16BB
  0
DICTIONARY
  5
16BC
330
15B2
100
AcDbDictionary
280
     1
281
     1
  3
ACAD_XREC_ROUNDTRIP
360
16BD
  0
DICTIONARY
  5
16A1
330
16A0
100
AcDbDictionary
280
     1
281
     1
  3
ACAD_XREC_ROUNDTRIP
360
16A2
  0
DICTIONARY
  5
16A4
330
16A3
100
AcDbDictionary
280
     1
281
     1
  3
ACAD_XREC_ROUNDTRIP
360
16A5
  0
DICTIONARY
  5
16A7
330
16A6
100
AcDbDictionary
280
     1
281
     1
  3
ACAD_XREC_ROUNDTRIP
360
16A8
  0
IDBUFFER
  5
B54
330
0
100
AcDbIdBuffer
330
100F
330
1251
330
1252
330
14A9
330
14AA
330
14AB
330
14AC
330
14AD
330
14AE
330
14AF
330
14B0
330
14B1
330
14B2
330
14B3
330
14B4
330
14B5
330
14B6
330
14B7
330
14B8
330
14B9
330
14BA
330
14BB
330
14BC
330
14BD
330
14BE
330
14BF
330
14C0
330
14C1
330
14C2
330
14C3
  0
IDBUFFER
  5
B55
330
0
100
AcDbIdBuffer
330
2B
330
2C
330
2F
330
30
330
31
330
32
330
33
330
34
330
35
330
36
330
37
330
38
330
39
330
3A
330
3B
330
3C
330
3D
330
3E
330
3F
330
40
330
41
330
42
330
43
330
44
330
45
330
46
330
47
330
48
330
49
330
4A
330
4B
330
4C
330
4D
330
4E
330
4F
330
50
330
51
330
52
330
53
330
54
330
55
330
56
330
57
330
58
330
59
330
5A
330
5B
330
5C
330
5D
330
5E
330
5F
330
60
330
61
330
62
330
63
330
64
330
65
330
66
330
67
330
68
330
69
330
6A
330
6B
330
6C
330
6D
330
6E
330
6F
330
70
330
71
330
72
330
73
330
76
330
77
330
78
330
79
330
7A
330
7B
330
7C
330
7D
330
7E
330
5E7
330
5E8
330
5E9
330
5EA
330
5EB
330
5EC
330
5ED
330
5EE
330
5EF
330
5F0
330
5F1
330
5F2
330
5F3
330
5F4
330
5F5
330
5F6
330
5F7
330
5F8
330
5F9
330
5FB
330
5FC
330
5FD
330
5FE
330
5FF
330
600
330
601
330
602
330
603
330
604
330
605
330
606
330
607
330
608
330
60A
330
60B
330
60C
330
60D
330
60E
330
60F
330
610
330
611
330
612
330
613
330
614
330
615
330
617
330
618
330
619
330
61A
330
61B
330
61C
330
61E
330
61F
330
621
330
622
330
623
330
624
330
625
330
626
330
627
330
628
330
629
330
62A
330
62B
330
62D
330
62E
330
62F
330
630
330
631
330
633
330
636
330
637
330
638
330
639
330
63A
330
63B
330
63C
330
63D
330
63F
330
640
330
641
330
642
330
643
330
644
330
645
330
646
330
647
330
648
330
649
330
64A
330
64B
330
64C
330
64D
330
64E
330
64F
330
650
330
651
330
652
330
653
330
654
330
655
330
656
330
657
330
658
330
659
330
65A
330
65B
330
65C
330
65D
330
65E
330
65F
330
660
330
661
330
662
330
663
330
664
330
665
330
666
330
667
330
668
330
66A
330
66B
330
66C
330
66D
330
66E
330
66F
330
670
330
671
330
672
330
673
330
674
330
675
330
676
330
677
330
678
330
67B
330
67C
330
67D
330
67F
330
680
330
681
330
682
330
683
330
684
330
685
330
686
330
687
330
688
330
689
330
68A
330
68B
330
68C
330
68D
330
68E
330
68F
330
690
330
691
330
692
330
693
330
694
330
695
330
696
330
697
330
698
330
699
330
69A
330
69B
330
69C
330
69D
330
69E
330
69F
330
6A0
330
6A1
330
6A2
330
6A3
330
6A4
330
6A5
330
6A6
330
6A7
330
6A8
330
6A9
330
6AB
330
6AC
330
6AD
330
6AE
330
6AF
330
6B0
330
6B1
330
6B2
330
6B3
330
6B4
330
6B5
330
6B6
330
6B7
330
6B8
330
6B9
330
6BA
330
6BC
330
6BD
330
6BE
330
6BF
330
6C0
330
6C1
330
6C2
330
6C3
330
6D1
330
6D2
330
6D3
330
6E5
330
6E6
330
6E7
330
6E8
330
6E9
330
6EA
330
6EC
330
6FF
330
700
330
701
330
703
330
704
330
705
330
706
330
709
330
70A
330
70B
330
70C
330
70D
330
70E
330
70F
330
710
330
711
330
712
330
713
330
717
330
718
330
71A
330
71C
330
71D
330
14A5
330
14A6
330
14A7
330
14A8
330
14C4
330
14C5
330
14C6
  0
IDBUFFER
  5
B56
330
0
100
AcDbIdBuffer
330
1B0
330
1BF
330
1CC
330
6C4
  0
IDBUFFER
  5
B57
330
0
100
AcDbIdBuffer
330
5E6
330
5FA
  0
IDBUFFER
  5
B58
330
0
100
AcDbIdBuffer
330
27
330
2A
330
669
330
679
330
67A
330
67E
330
719
  0
IDBUFFER
  5
B59
330
0
100
AcDbIdBuffer
330
173
330
174
330
175
330
176
330
177
330
609
330
616
330
61D
330
632
330
634
330
63E
330
6AA
330
707
330
708
330
714
330
715
330
71E
330
71F
  0
IDBUFFER
  5
B5A
330
0
100
AcDbIdBuffer
330
74
330
7F
330
80
330
62C
330
6EB
330
702
330
71B
330
1253
330
1254
330
1255
330
1256
330
1257
330
1258
330
1259
330
125A
330
125B
330
125C
330
125D
330
125E
330
125F
330
1260
330
1261
330
1262
330
1263
330
1266
330
1267
330
1268
330
1269
330
126A
330
126B
330
126C
330
126D
330
126E
330
126F
330
1270
330
1271
330
1272
330
1273
330
1274
330
1275
330
1276
330
1277
330
1278
330
1279
330
127A
330
127B
330
127C
330
127D
330
127E
330
127F
330
1280
330
1281
330
1282
330
1283
330
1284
330
1285
330
1286
330
1287
330
1288
330
1289
330
128A
330
128B
330
128C
330
128D
330
128E
330
128F
330
1290
330
1291
330
1292
330
1293
330
1294
330
1295
330
1296
330
1297
330
1298
330
1299
330
129A
330
129B
330
129C
330
129D
330
129E
330
129F
330
12A0
330
12A1
330
12A2
330
12A3
330
12A4
330
12A5
330
12A6
330
12A7
330
12A8
330
12A9
330
12AA
330
12AB
330
12AC
330
12AD
330
12AE
330
12AF
330
12B0
330
12B1
330
12B2
330
12B3
330
12B4
330
12B5
330
12B6
330
12B7
330
12B8
330
12B9
330
12BA
330
12BB
330
12BC
330
12BD
330
12BE
330
12BF
330
12C0
330
12C1
330
12C2
330
12C3
330
12C4
330
12C5
330
12C6
330
12C7
330
12C8
330
12C9
330
12CA
330
12CB
330
12CC
330
12CD
330
12CE
330
12CF
330
12D0
330
12D1
330
12D2
330
12D3
330
12D4
330
12D5
330
12D6
330
12D7
330
12D8
330
12D9
330
12DA
330
12DB
330
12DC
330
12DD
330
12DE
330
12DF
330
12E0
330
12E1
330
12E2
330
12E3
330
12E4
330
12E5
330
12E6
330
12E7
330
12E8
330
12E9
330
12EA
330
12EB
330
12EC
330
12ED
330
12EE
330
12EF
330
12F0
330
12F1
330
12F2
330
12F3
330
12F4
330
12F5
330
12F6
330
12F7
330
12F8
330
12F9
330
12FA
330
12FB
330
12FC
330
12FD
330
12FE
330
12FF
330
1300
330
1301
330
1302
330
1303
330
1304
330
1305
330
1306
330
1307
330
1308
330
1309
330
130A
330
130B
330
130C
330
130D
330
130E
330
130F
330
1310
330
1311
330
1312
330
1313
330
1314
330
1315
330
1316
330
1317
330
1318
330
1319
330
131A
330
131B
330
131C
330
131D
330
131E
330
131F
330
1320
330
1321
330
1322
330
1323
330
1324
330
1325
330
1326
330
1327
330
1328
330
1329
330
132A
330
132B
330
132C
330
132D
330
132E
330
132F
330
1330
330
1331
330
1332
330
1333
330
1334
330
1335
330
1336
330
1337
330
1338
330
1339
330
133A
330
133B
330
133C
330
133D
330
133E
330
133F
330
1340
330
1341
330
1342
330
1343
330
1344
330
1345
330
1346
330
1347
330
1348
330
1349
330
134A
330
134B
330
134C
330
134D
330
134E
330
134F
330
1350
330
1351
330
1352
330
1353
330
1354
330
1355
330
1356
330
1357
330
1358
330
1359
330
135A
330
135B
330
135C
330
135D
330
135E
330
135F
330
1360
330
1361
330
1362
330
1363
330
1364
330
1365
330
1366
330
1367
330
1368
330
1369
330
136A
330
136B
330
136C
330
136D
330
136E
330
136F
330
1370
330
1371
330
1372
330
1373
330
1374
330
1375
330
1376
330
1377
330
1378
330
1379
330
137A
330
137B
330
137C
330
137D
330
137E
330
137F
330
1380
330
1381
330
1382
330
1383
330
1384
330
1385
330
1386
330
1387
330
1388
330
1389
330
138A
330
138B
330
138C
330
138D
330
138E
330
138F
330
1390
330
1391
330
1392
330
1393
330
1394
330
1395
330
1396
330
1397
330
1398
330
1399
330
139A
330
139B
330
139C
330
139D
330
139E
330
139F
330
13A0
330
13A1
330
13A2
330
13A3
330
13A4
330
13A5
330
13A6
330
13A7
330
13A8
330
13A9
330
13AA
330
13AB
330
13AC
330
13AD
330
13AE
330
13AF
330
13B0
330
13B1
330
13B2
330
13B3
330
13B4
330
13B5
330
13B6
330
13B7
330
13B8
330
13B9
330
13BA
330
13BB
330
13BC
330
13BD
330
13BE
330
13BF
330
13C0
330
13C1
330
13C2
330
13C3
330
13C4
330
13C5
330
13C6
330
13C7
330
13C8
330
13C9
330
13CA
330
13CB
330
13CC
330
13CD
330
13CE
330
13CF
330
13D0
330
13D1
330
13D2
330
13D3
330
13D4
330
13D5
330
13D6
330
13D7
330
13D8
330
13D9
330
13DA
330
13DB
330
13DC
330
13DD
330
13DE
330
13DF
330
13E0
330
13E1
330
13E2
330
13E3
330
13E4
330
13E5
330
13E6
330
13E7
330
13E8
330
13E9
330
13EA
330
13EB
330
13EC
330
13ED
330
13EE
330
13EF
330
13F0
330
13F1
330
13F2
330
13F3
330
13F4
330
13F5
330
13F6
330
13F7
330
13F8
330
13F9
330
13FA
330
13FB
330
13FC
330
13FD
330
13FE
330
13FF
330
1400
330
1401
330
1402
330
1403
330
1404
330
1405
330
1406
330
1407
330
1408
330
1409
330
140A
330
140B
330
140C
330
140D
330
140E
330
140F
330
1410
330
1411
330
1412
330
1413
330
1414
330
1415
330
1416
330
1417
330
1418
330
1419
330
141A
330
141B
330
141C
330
141D
330
141E
330
141F
330
1420
330
1421
330
1422
330
1423
330
1424
330
1425
330
1426
330
1427
330
1428
330
1429
330
142A
330
142B
330
142C
330
142D
330
142E
330
142F
330
1430
330
1431
330
1432
330
1433
330
1434
330
1435
330
1436
330
1437
330
1438
330
1439
330
143A
330
143B
330
143C
330
143D
330
143E
330
143F
330
1440
330
1441
330
1442
330
1443
330
1444
330
1445
330
1446
330
1447
330
1448
330
1449
330
144A
330
144B
330
144C
330
144D
330
144E
330
144F
330
1450
330
1451
330
1452
330
1453
330
1454
330
1455
330
1456
330
1457
330
1458
330
1459
330
145A
330
145B
330
145C
330
145D
330
145E
330
145F
330
1460
330
1461
330
1462
330
1463
330
1464
330
1465
330
1466
330
1467
330
1468
330
1469
330
146A
330
146B
330
146C
330
146D
330
146E
330
146F
330
1470
330
1471
330
1472
330
1473
330
1474
330
1475
330
1476
330
1477
330
1478
330
1479
330
147A
330
147B
330
147C
330
147D
330
147E
330
147F
330
1480
330
1481
330
1482
330
1483
330
1484
330
1485
330
1486
330
1487
330
1488
330
1489
330
148A
330
148B
330
148C
330
148D
330
148E
  0
IDBUFFER
  5
B5B
330
0
100
AcDbIdBuffer
330
6BB
330
1264
330
1265
  0
XRECORD
  5
16B9
102
{ACAD_REACTORS
330
16B8
102
}
330
16B8
100
AcDbXrecord
280
     1
102
MATERIAL
148
0.0
149
0.0
149
0.0
 93
        0
 94
       63
282
     0
 72
     1
 77
     1
171
     1
175
     1
179
     1
273
     0
  0
XRECORD
  5
16B7
102
{ACAD_REACTORS
330
16B6
102
}
330
16B6
100
AcDbXrecord
280
     1
102
MATERIAL
148
0.0
149
0.0
149
0.0
 93
        0
 94
       63
282
     0
 72
     1
 77
     1
171
     1
175
     1
179
     1
273
     0
  0
XRECORD
  5
16BB
102
{ACAD_REACTORS
330
16BA
102
}
330
16BA
100
AcDbXrecord
280
     1
102
MATERIAL
148
0.0
149
0.0
149
0.0
 93
        0
 94
       63
282
     0
 72
     1
 77
     1
171
     1
175
     1
179
     1
273
     0
  0
XRECORD
  5
16BD
102
{ACAD_REACTORS
330
16BC
102
}
330
16BC
100
AcDbXrecord
280
     1
102
ACAD_ROUNDTRIP_PRE2007_TABLESTYLE
 90
      512
 91
        0
  1

 92
      512
 93
        0
  2

 94
      512
 95
        0
  3

  0
XRECORD
  5
16A2
102
{ACAD_REACTORS
330
16A1
102
}
330
16A1
100
AcDbXrecord
280
     1
102
RTVSPropertyOp0
 70
     0
102
RTVSPropertyOp1
 70
     0
102
RTVSPropertyOp2
 70
     0
102
RTVSPropertyOp3
 70
     0
102
RTVSPropertyOp4
 70
     0
102
RTVSPropertyOp5
 70
     0
102
RTVSPropertyOp6
 70
     0
102
RTVSPropertyOp7
 70
     0
102
RTVSPropertyOp8
 70
     0
102
RTVSPropertyOp9
 70
     0
102
RTVSPropertyOp10
 70
     0
102
RTVSPropertyOp11
 70
     0
102
RTVSPropertyOp12
 70
     0
102
RTVSPropertyOp13
 70
     0
102
RTVSPropertyOp14
 70
     2
102
RTVSPropertyOp15
 70
     0
102
RTVSPropertyOp16
 70
     0
102
RTVSPropertyOp17
 70
     0
102
RTVSPropertyOp18
 70
     0
102
RTVSPropertyOp19
 70
     0
102
RTVSPropertyOp20
 70
     0
102
RTVSPropertyOp21
 70
     0
102
RTVSPropertyOp22
 70
     0
102
RTVSPropertyOp23
 70
     0
102
RTVSPropertyOp24
 70
     0
102
RTVSPropertyOp25
 70
     0
102
RTVSPropertyOp26
 70
     0
102
RTVSPropertyOp27
 70
     0
  0
XRECORD
  5
16A5
102
{ACAD_REACTORS
330
16A4
102
}
330
16A4
100
AcDbXrecord
280
     1
102
RTVSPropertyOp0
 70
     0
102
RTVSPropertyOp1
 70
     0
102
RTVSPropertyOp2
 70
     0
102
RTVSPropertyOp3
 70
     0
102
RTVSPropertyOp4
 70
     0
102
RTVSPropertyOp5
 70
     0
102
RTVSPropertyOp6
 70
     0
102
RTVSPropertyOp7
 70
     0
102
RTVSPropertyOp8
 70
     0
102
RTVSPropertyOp9
 70
     0
102
RTVSPropertyOp10
 70
     0
102
RTVSPropertyOp11
 70
     0
102
RTVSPropertyOp12
 70
     0
102
RTVSPropertyOp13
 70
     0
102
RTVSPropertyOp14
 70
     2
102
RTVSPropertyOp15
 70
     0
102
RTVSPropertyOp16
 70
     0
102
RTVSPropertyOp17
 70
     0
102
RTVSPropertyOp18
 70
     0
102
RTVSPropertyOp19
 70
     0
102
RTVSPropertyOp20
 70
     0
102
RTVSPropertyOp21
 70
     0
102
RTVSPropertyOp22
 70
     0
102
RTVSPropertyOp23
 70
     0
102
RTVSPropertyOp24
 70
     0
102
RTVSPropertyOp25
 70
     0
102
RTVSPropertyOp26
 70
     0
102
RTVSPropertyOp27
 70
     0
  0
XRECORD
  5
16A8
102
{ACAD_REACTORS
330
16A7
102
}
330
16A7
100
AcDbXrecord
280
     1
102
RTVSPropertyOp0
 70
     0
102
RTVSPropertyOp1
 70
     0
102
RTVSPropertyOp2
 70
     0
102
RTVSPropertyOp3
 70
     0
102
RTVSPropertyOp4
 70
     0
102
RTVSPropertyOp5
 70
     0
102
RTVSPropertyOp6
 70
     0
102
RTVSPropertyOp7
 70
     0
102
RTVSPropertyOp8
 70
     0
102
RTVSPropertyOp9
 70
     0
102
RTVSPropertyOp10
 70
     0
102
RTVSPropertyOp11
 70
     0
102
RTVSPropertyOp12
 70
     0
102
RTVSPropertyOp13
 70
     0
102
RTVSPropertyOp14
 70
     2
102
RTVSPropertyOp15
 70
     0
102
RTVSPropertyOp16
 70
     0
102
RTVSPropertyOp17
 70
     0
102
RTVSPropertyOp18
 70
     0
102
RTVSPropertyOp19
 70
     0
102
RTVSPropertyOp20
 70
     0
102
RTVSPropertyOp21
 70
     0
102
RTVSPropertyOp22
 70
     0
102
RTVSPropertyOp23
 70
     0
102
RTVSPropertyOp24
 70
     0
102
RTVSPropertyOp25
 70
     0
102
RTVSPropertyOp26
 70
     0
102
RTVSPropertyOp27
 70
     0
  0
ENDSEC
  0
EOF
