  0
SECTION
  2
HEADER
  9
$ACADVER
  1
AC1018
  9
$ACADMAINTVER
 70
   104
  9
$DWGCODEPAGE
  3
ANSI_1252
  9
$LASTSAVEDBY
  1
oberdoer
  9
$INSBASE
 10
0.0
 20
0.0
 30
0.0
  9
$EXTMIN
 10
106.7410141593377
 20
430.8796018122215
 30
-0.0000000000112498
  9
$EXTMAX
 10
532.7490026108225
 20
778.0404839819541
 30
0.0000000000002956
  9
$LIMMIN
 10
-182.9864404497793
 20
-2.624778689794775
  9
$LIMMAX
 10
626.9601670480072
 20
442.6145195992734
  9
$ORTHOMODE
 70
     0
  9
$REGENMODE
 70
     1
  9
$FILLMODE
 70
     1
  9
$QTEXTMODE
 70
     0
  9
$MIRRTEXT
 70
     0
  9
$LTSCALE
 40
1.0
  9
$ATTMODE
 70
     1
  9
$TEXTSIZE
 40
50.0
  9
$TRACEWID
 40
1.0
  9
$TEXTSTYLE
  7
STANDARD
  9
$CLAYER
  8
AM_0
  9
$CELTYPE
  6
ByLayer
  9
$CECOLOR
 62
   256
  9
$CELTSCALE
 40
1.0
  9
$DISPSILH
 70
     0
  9
$DIMSCALE
 40
1.0
  9
$DIMASZ
 40
2.5
  9
$DIMEXO
 40
0.0
  9
$DIMDLI
 40
10.0
  9
$DIMRND
 40
0.0
  9
$DIMDLE
 40
0.0
  9
$DIMEXE
 40
1.0
  9
$DIMTP
 40
5.0
  9
$DIMTM
 40
5.0
  9
$DIMTXT
 40
3.0
  9
$DIMCEN
 40
0.0
  9
$DIMTSZ
 40
0.0
  9
$DIMTOL
 70
     0
  9
$DIMLIM
 70
     0
  9
$DIMTIH
 70
     0
  9
$DIMTOH
 70
     0
  9
$DIMSE1
 70
     0
  9
$DIMSE2
 70
     0
  9
$DIMTAD
 70
     1
  9
$DIMZIN
 70
     8
  9
$DIMBLK
  1

  9
$DIMASO
 70
     1
  9
$DIMSHO
 70
     1
  9
$DIMPOST
  1

  9
$DIMAPOST
  1
"
  9
$DIMALT
 70
     0
  9
$DIMALTD
 70
     2
  9
$DIMALTF
 40
0.0393701
  9
$DIMLFAC
 40
1.0
  9
$DIMTOFL
 70
     1
  9
$DIMTVP
 40
0.0
  9
$DIMTIX
 70
     0
  9
$DIMSOXD
 70
     0
  9
$DIMSAH
 70
     0
  9
$DIMBLK1
  1

  9
$DIMBLK2
  1

  9
$DIMSTYLE
  2
AM_DIN
  9
$DIMCLRD
 70
   256
  9
$DIMCLRE
 70
   256
  9
$DIMCLRT
 70
     2
  9
$DIMTFAC
 40
0.71
  9
$DIMGAP
 40
0.7
  9
$DIMJUST
 70
     0
  9
$DIMSD1
 70
     0
  9
$DIMSD2
 70
     0
  9
$DIMTOLJ
 70
     0
  9
$DIMTZIN
 70
     8
  9
$DIMALTZ
 70
     0
  9
$DIMALTTZ
 70
     0
  9
$DIMUPT
 70
     0
  9
$DIMDEC
 70
     0
  9
$DIMTDEC
 70
     2
  9
$DIMALTU
 70
     2
  9
$DIMALTTD
 70
     2
  9
$DIMTXSTY
  7
STANDARD
  9
$DIMAUNIT
 70
     0
  9
$DIMADEC
 70
     0
  9
$DIMALTRND
 40
0.0
  9
$DIMAZIN
 70
     2
  9
$DIMDSEP
 70
    46
  9
$DIMATFIT
 70
     3
  9
$DIMFRAC
 70
     0
  9
$DIMLDRBLK
  1

  9
$DIMLUNIT
 70
     2
  9
$DIMLWD
 70
    -1
  9
$DIMLWE
 70
    -1
  9
$DIMTMOVE
 70
     0
  9
$LUNITS
 70
     2
  9
$LUPREC
 70
     2
  9
$SKETCHINC
 40
1.0
  9
$FILLETRAD
 40
2.0
  9
$AUNITS
 70
     0
  9
$AUPREC
 70
     0
  9
$MENU
  1
.
  9
$ELEVATION
 40
0.0
  9
$PELEVATION
 40
0.0
  9
$THICKNESS
 40
0.0
  9
$LIMCHECK
 70
     0
  9
$CHAMFERA
 40
2.5
  9
$CHAMFERB
 40
2.5
  9
$CHAMFERC
 40
20.0
  9
$CHAMFERD
 40
0.0
  9
$SKPOLY
 70
     0
  9
$TDCREATE
 40
2452908.589511528
  9
$TDUCREATE
 40
2452908.506178195
  9
$TDUPDATE
 40
2456156.375333854
  9
$TDUUPDATE
 40
2456156.292000521
  9
$TDINDWG
 40
3.5394936458
  9
$TDUSRTIMER
 40
3.5394925694
  9
$USRTIMER
 70
     1
  9
$ANGBASE
 50
0.0
  9
$ANGDIR
 70
     0
  9
$PDMODE
 70
     0
  9
$PDSIZE
 40
0.0
  9
$PLINEWID
 40
0.0
  9
$SPLFRAME
 70
     0
  9
$SPLINETYPE
 70
     6
  9
$SPLINESEGS
 70
     8
  9
$HANDSEED
  5
677
  9
$SURFTAB1
 70
     6
  9
$SURFTAB2
 70
     6
  9
$SURFTYPE
 70
     6
  9
$SURFU
 70
     6
  9
$SURFV
 70
     6
  9
$UCSBASE
  2

  9
$UCSNAME
  2

  9
$UCSORG
 10
0.0
 20
0.0
 30
0.0
  9
$UCSXDIR
 10
1.0
 20
0.0
 30
0.0
  9
$UCSYDIR
 10
0.0
 20
1.0
 30
0.0
  9
$UCSORTHOREF
  2

  9
$UCSORTHOVIEW
 70
     0
  9
$UCSORGTOP
 10
0.0
 20
0.0
 30
0.0
  9
$UCSORGBOTTOM
 10
0.0
 20
0.0
 30
0.0
  9
$UCSORGLEFT
 10
0.0
 20
0.0
 30
0.0
  9
$UCSORGRIGHT
 10
0.0
 20
0.0
 30
0.0
  9
$UCSORGFRONT
 10
0.0
 20
0.0
 30
0.0
  9
$UCSORGBACK
 10
0.0
 20
0.0
 30
0.0
  9
$PUCSBASE
  2

  9
$PUCSNAME
  2

  9
$PUCSORG
 10
0.0
 20
0.0
 30
0.0
  9
$PUCSXDIR
 10
1.0
 20
0.0
 30
0.0
  9
$PUCSYDIR
 10
0.0
 20
1.0
 30
0.0
  9
$PUCSORTHOREF
  2

  9
$PUCSORTHOVIEW
 70
     0
  9
$PUCSORGTOP
 10
0.0
 20
0.0
 30
0.0
  9
$PUCSORGBOTTOM
 10
0.0
 20
0.0
 30
0.0
  9
$PUCSORGLEFT
 10
0.0
 20
0.0
 30
0.0
  9
$PUCSORGRIGHT
 10
0.0
 20
0.0
 30
0.0
  9
$PUCSORGFRONT
 10
0.0
 20
0.0
 30
0.0
  9
$PUCSORGBACK
 10
0.0
 20
0.0
 30
0.0
  9
$USERI1
 70
     0
  9
$USERI2
 70
     0
  9
$USERI3
 70
     0
  9
$USERI4
 70
     0
  9
$USERI5
 70
     0
  9
$USERR1
 40
0.0
  9
$USERR2
 40
0.0
  9
$USERR3
 40
0.0
  9
$USERR4
 40
0.0
  9
$USERR5
 40
0.0
  9
$WORLDVIEW
 70
     1
  9
$SHADEDGE
 70
     3
  9
$SHADEDIF
 70
    70
  9
$TILEMODE
 70
     1
  9
$MAXACTVP
 70
    64
  9
$PINSBASE
 10
0.0
 20
0.0
 30
0.0
  9
$PLIMCHECK
 70
     0
  9
$PEXTMIN
 10
1.000000000000000E+20
 20
1.000000000000000E+20
 30
1.000000000000000E+20
  9
$PEXTMAX
 10
-1.000000000000000E+20
 20
-1.000000000000000E+20
 30
-1.000000000000000E+20
  9
$PLIMMIN
 10
0.0
 20
0.0
  9
$PLIMMAX
 10
420.0
 20
297.0
  9
$UNITMODE
 70
     0
  9
$VISRETAIN
 70
     1
  9
$PLINEGEN
 70
     0
  9
$PSLTSCALE
 70
     1
  9
$TREEDEPTH
 70
  3020
  9
$CMLSTYLE
  2
Standard
  9
$CMLJUST
 70
     0
  9
$CMLSCALE
 40
20.0
  9
$PROXYGRAPHICS
 70
     1
  9
$MEASUREMENT
 70
     1
  9
$CELWEIGHT
370
    -1
  9
$ENDCAPS
280
     0
  9
$JOINSTYLE
280
     0
  9
$LWDISPLAY
290
     0
  9
$INSUNITS
 70
     4
  9
$HYPERLINKBASE
  1

  9
$STYLESHEET
  1
ganz_fein_1.ctb
  9
$XEDIT
290
     1
  9
$CEPSNTYPE
380
     0
  9
$PSTYLEMODE
290
     1
  9
$FINGERPRINTGUID
  2
{83AF6503-29F1-4AD5-97F6-8D05887D4836}
  9
$VERSIONGUID
  2
{3F035ACC-797F-4AD3-B0FE-223D39E5632E}
  9
$EXTNAMES
290
     1
  9
$PSVPSCALE
 40
0.0
  9
$OLESTARTUP
290
     0
  9
$SORTENTS
280
   127
  9
$INDEXCTL
280
     0
  9
$HIDETEXT
280
     1
  9
$XCLIPFRAME
290
     0
  9
$HALOGAP
280
     0
  9
$OBSCOLOR
 70
   257
  9
$OBSLTYPE
280
     0
  9
$INTERSECTIONDISPLAY
280
     0
  9
$INTERSECTIONCOLOR
 70
   257
  9
$DIMASSOC
280
     1
  9
$PROJECTNAME
  1

  0
ENDSEC
  0
SECTION
  2
CLASSES
  0
CLASS
  1
ACDBDICTIONARYWDFLT
  2
AcDbDictionaryWithDefault
  3
ObjectDBX Classes
 90
        0
 91
        1
280
     0
281
     0
  0
CLASS
  1
AMGSETTINGSOBJ
  2
AmgSettingsObj
  3
"AcadM|Product Description: AutoCAD Mechanical|Company: Autodesk"
 90
        0
 91
        2
280
     0
281
     0
  0
CLASS
  1
ACME_DOCUMENT
  2
AcMeDbDoc
  3
AcMeServices
 90
        0
 91
        1
280
     0
281
     0
  0
CLASS
  1
ACMESCOPE
  2
AcMeScope
  3
AcMeServices
 90
        0
 91
        1
280
     0
281
     0
  0
CLASS
  1
ACMECOMMANDHISTORY
  2
AcMeCommandHistory
  3
AcMeServices
 90
        0
 91
        1
280
     0
281
     0
  0
CLASS
  1
DICTIONARYVAR
  2
AcDbDictionaryVar
  3
ObjectDBX Classes
 90
        0
 91
        4
280
     0
281
     0
  0
CLASS
  1
ACIMSYSVARMAN
  2
AcImSysVarManager
  3
AcMeServices
 90
        0
 91
        5
280
     0
281
     0
  0
CLASS
  1
ACIMREALSYSVAR
  2
AcImRealSysVar
  3
AcMeServices
 90
        0
 91
        1
280
     0
281
     0
  0
CLASS
  1
ACIMINTSYSVAR
  2
AcImIntSysVar
  3
AcMeServices
 90
        0
 91
       27
280
     0
281
     0
  0
CLASS
  1
ACMEDRAWINGMAN
  2
AcMeDrawingMan
  3
AcMeServices
 90
        0
 91
        1
280
     0
281
     0
  0
CLASS
  1
ACMEVIEW
  2
AcMeView
  3
AcMeServices
 90
        0
 91
        1
280
     0
281
     0
  0
CLASS
  1
ACDBENTITYCACHE
  2
AcMeEntityCache
  3
AcMeServices
 90
        0
 91
        1
280
     0
281
     0
  0
CLASS
  1
GSMANAGER
  2
AcMeGSManager
  3
AcMeServices
 90
        0
 91
        1
280
     0
281
     0
  0
CLASS
  1
AMDTINTERNALREACTOR
  2
AmdtInternalReactor
  3
AcMeServices
 90
        0
 91
        2
280
     0
281
     0
  0
CLASS
  1
ACMESTATEMGR
  2
AcMeStateMgr
  3
AcMeServices
 90
        0
 91
        1
280
     0
281
     0
  0
CLASS
  1
ACGREFMASTER
  2
AcGrefMaster
  3
AcAttribServices
 90
        0
 91
        1
280
     0
281
     0
  0
CLASS
  1
ACME_DATABASE
  2
AcMeDbDatabase
  3
AcMeServices
 90
        0
 91
        1
280
     0
281
     0
  0
CLASS
  1
ACRFINSADJUSTERMGR
  2
AcRfInsAdjusterMgr
  3
AcMeServices
 90
        0
 91
        1
280
     0
281
     0
  0
CLASS
  1
ACGREFACADMASTER
  2
AcGrefacadMaster
  3
AcGrefServices
 90
        0
 91
        1
280
     0
281
     0
  0
CLASS
  1
AMIMASTER
  2
AmiMaster
  3
AmiServices
 90
        0
 91
        1
280
     0
281
     0
  0
CLASS
  1
ACIMSTRSYSVAR
  2
AcImStrSysVar
  3
AcMeServices
 90
        0
 91
        5
280
     0
281
     0
  0
CLASS
  1
ACMSTANDARDDIN
  2
AcmStandardDIN
  3
"Amdt_StdImp|Product Description: AutoCAD Mechanical|Company: Autodesk"
 90
        0
 91
        1
280
     0
281
     0
  0
CLASS
  1
AMGOBJPROPCFG
  2
AmgObjPropCfg
  3
"AmgLay|Product Description: AutoCAD Mechanical|Company: Autodesk"
 90
        1
 91
        2
280
     0
281
     0
  0
CLASS
  1
AMDTEDGESTANDARDDIN
  2
AmdtEdgeStdDIN
  3
"Amdt_StdImp|Product Description: AutoCAD Mechanical|Company: Autodesk"
 90
        0
 91
        0
280
     0
281
     0
  0
CLASS
  1
ACMSURFSTANDARDDIN
  2
AcmSurfTextStdDIN
  3
"Amdt_StdImp|Product Description: AutoCAD Mechanical|Company: Autodesk"
 90
        0
 91
        1
280
     0
281
     0
  0
CLASS
  1
ACMFCFSTANDARDDIN
  2
AcmFCFStdDIN
  3
"Amdt_StdImp|Product Description: AutoCAD Mechanical|Company: Autodesk"
 90
        0
 91
        1
280
     0
281
     0
  0
CLASS
  1
ACMWELDSTANDARDDIN
  2
AcmWeldingStdDIN
  3
"Amdt_StdImp|Product Description: AutoCAD Mechanical|Company: Autodesk"
 90
        0
 91
        1
280
     0
281
     0
  0
CLASS
  1
ACMIDSTANDARDDIN
  2
AcmIdStdDIN
  3
"Amdt_StdImp|Product Description: AutoCAD Mechanical|Company: Autodesk"
 90
        0
 91
        1
280
     0
281
     0
  0
CLASS
  1
ACMDATUMSTANDARDDIN
  2
AcmDatumStdDIN
  3
"Amdt_StdImp|Product Description: AutoCAD Mechanical|Company: Autodesk"
 90
        0
 91
        1
280
     0
281
     0
  0
CLASS
  1
ACMBOMSTANDARDDIN
  2
AcmBOMStdDIN
  3
"Amdt_StdImp|Product Description: AutoCAD Mechanical|Company: Autodesk"
 90
        0
 91
        1
280
     0
281
     0
  0
CLASS
  1
ACMDETAILSTANDARDDIN
  2
AmdtDetailSymStdDIN
  3
"Amdt_StdImp|Product Description: AutoCAD Mechanical|Company: Autodesk"
 90
        0
 91
        1
280
     0
281
     0
  0
CLASS
  1
ACMSECTIONSTANDARDDIN
  2
AmdtSectionSymStdDIN
  3
"Amdt_StdImp|Product Description: AutoCAD Mechanical|Company: Autodesk"
 90
        0
 91
        1
280
     0
281
     0
  0
CLASS
  1
ACMCENTERLINESTANDARDDIN
  2
AmdtCenterLineStdDIN
  3
"Amdt_StdImp|Product Description: AutoCAD Mechanical|Company: Autodesk"
 90
        0
 91
        1
280
     0
281
     0
  0
CLASS
  1
ACMTHREADLINESTANDARDDIN
  2
AmdtThreadLineStdDIN
  3
"Amdt_StdImp|Product Description: AutoCAD Mechanical|Company: Autodesk"
 90
        0
 91
        1
280
     0
281
     0
  0
CLASS
  1
ACAMGLAYSTD
  2
AcAmgLayStd
  3
"AmgLay|Product Description: AutoCAD Mechanical|Company: Autodesk"
 90
        0
 91
        2
280
     0
281
     0
  0
CLASS
  1
ACAMGDIMSTD
  2
AcAmgDimStd
  3
"AmgDim|Product Description: AutoCAD Mechanical|Company: Autodesk"
 90
        0
 91
        2
280
     0
281
     0
  0
CLASS
  1
ACAMGTITLESTD
  2
AcAmgTitleStd
  3
"AmgTitle|Product Description: AutoCAD Mechanical|Company: Autodesk"
 90
        0
 91
        2
280
     0
281
     0
  0
CLASS
  1
ACMDATADICTIONARY
  2
AcmDataDictionary
  3
"AcmSymBB|Product Description: AutoCAD Mechanical|Company: Autodesk"
 90
        0
 91
        1
280
     0
281
     0
  0
CLASS
  1
ACMDATAENTRYBLOCK
  2
AcmDataEntryBlock
  3
"AcmSymBB|Product Description: AutoCAD Mechanical|Company: Autodesk"
 90
        0
 91
        0
280
     0
281
     0
  0
CLASS
  1
LAYER_INDEX
  2
AcDbLayerIndex
  3
ObjectDBX Classes
 90
        0
 91
        0
280
     0
281
     0
  0
CLASS
  1
IDBUFFER
  2
AcDbIdBuffer
  3
ObjectDBX Classes
 90
        0
 91
        0
280
     0
281
     0
  0
CLASS
  1
AM_DRAWING_MGR
  2
AcDmDwgMgr
  3
AcMechDwgViewMgmt
 90
        0
 91
        1
280
     0
281
     0
  0
CLASS
  1
AM_DWG_DOCUMENT
  2
AcDmDwgDocument
  3
AcMechDwgViewMgmt
 90
        0
 91
        1
280
     0
281
     0
  0
CLASS
  1
AM_DWG_SHEET
  2
AcDmSheet
  3
AcMechDwgViewMgmt
 90
        0
 91
        1
280
     0
281
     0
  0
CLASS
  1
AM_VIEWDIMPARMAP
  2
AcDmViewDimParMap
  3
AcMechDwgViewMgmt
 90
        0
 91
        1
280
     0
281
     0
  0
CLASS
  1
AM_DWGMGR_NAME
  2
AcDmDwgMgrName
  3
AcMechDwgViewMgmt
 90
        0
 91
        1
280
     0
281
     0
  0
CLASS
  1
AMDTMENUSTATEMGR
  2
AmdtMenuStateMgr
  3
McadcomServices
 90
        0
 91
        1
280
     0
281
     0
  0
CLASS
  1
AMDTMCOMMENUSTATE
  2
AmdtMcomMenuState
  3
McadcomServices
 90
        0
 91
        1
280
     0
281
     0
  0
CLASS
  1
ASAPP
  2
AcAsAppObject
  3
AutoSurfServices
 90
        0
 91
        0
280
     1
281
     0
  0
CLASS
  1
IM_STATIC_MAN
  2
AcImStaticVarManager
  3
AcMeServices
 90
        0
 91
        0
280
     0
281
     0
  0
CLASS
  1
ACIMDBLSTATICVAR
  2
AcImDblStaticVar
  3
AcMeServices
 90
        0
 91
        0
280
     0
281
     0
  0
CLASS
  1
ACIMSTRSTATICVAR
  2
AcImStrStaticVar
  3
AcMeServices
 90
        0
 91
        0
280
     0
281
     0
  0
CLASS
  1
ACIMINTSTATICVAR
  2
AcImIntStaticVar
  3
AcMeServices
 90
        0
 91
        0
280
     0
281
     0
  0
CLASS
  1
ACASGREFMASTER
  2
AcAsGrefMaster
  3
AutoSurfResolverServices
 90
        0
 91
        0
280
     1
281
     0
  0
CLASS
  1
ACADGREFMODULE
  2
AcAdGrefModule
  3
AdGrefServices
 90
        0
 91
        0
280
     1
281
     0
  0
CLASS
  1
AMDTMAPISURFMOUDULE
  2
AmdtMApiSurfModule
  3
MApiSurfServices
 90
        0
 91
        0
280
     1
281
     0
  0
CLASS
  1
MAPIAMMOUDLE
  2
MApiAmModule
  3
MApiAmServices
 90
        0
 91
        1
280
     0
281
     0
  0
CLASS
  1
AMDTADMENUSTATE
  2
AmdtAdMenuState
  3
DesignerServices
 90
        0
 91
        1
280
     0
281
     0
  0
CLASS
  1
ADAPPL
  2
AcAdAppl
  3
DesignerServices
 90
        0
 91
        1
280
     0
281
     0
  0
CLASS
  1
DEPMGR
  2
AcAdDepMgr
  3
DesignerServices
 90
        0
 91
        1
280
     0
281
     0
  0
CLASS
  1
PARAMMGR
  2
AcAdParamMgr
  3
DesignerServices
 90
        0
 91
        1
280
     0
281
     0
  0
CLASS
  1
PARAMSCOPE
  2
AcAdParamScope
  3
DesignerServices
 90
        0
 91
        1
280
     0
281
     0
  0
CLASS
  1
NAMEDAPPL
  2
AcAdNamedAppl
  3
DesignerServices
 90
        0
 91
        1
280
     0
281
     0
  0
CLASS
  1
ADHNTMPLT
  2
AdHoleNoteTemplateMgr
  3
DesignerServices
 90
        0
 91
        0
280
     0
281
     0
  0
CLASS
  1
AM_HNTEMPLATE_MGR_NAME
  2
AdHoleNoteTemplateMgrName
  3
DesignerServices
 90
        0
 91
        0
280
     0
281
     0
  0
CLASS
  1
AMDTDMMENUSTATE
  2
AmdtDmMenuState
  3
AcMechDwgViewMgmt
 90
        0
 91
        1
280
     0
281
     0
  0
CLASS
  1
MAPIADMODULE
  2
MApiAdModule
  3
MApiAdServices
 90
        0
 91
        0
280
     1
281
     0
  0
CLASS
  1
AMDTAMMENUSTATE
  2
AmdtAmMenuState
  3
DesignerAssemblies
 90
        0
 91
        1
280
     0
281
     0
  0
CLASS
  1
ACAMPROJECT
  2
AcAmProject
  3
DesignerAssemblies
 90
        0
 91
        1
280
     0
281
     0
  0
CLASS
  1
ACAMGRCOMPDEF
  2
AcAmGrCompDef
  3
DesignerAssemblies
 90
        0
 91
        1
280
     0
281
     0
  0
CLASS
  1
ACCMCONTEXT
  2
AcCmContext
  3
DesignerAssemblies
 90
        0
 91
        1
280
     0
281
     0
  0
CLASS
  1
ACAMCOMPDEF
  2
AcAmCompDef
  3
DesignerAssemblies
 90
        0
 91
        1
280
     0
281
     0
  0
CLASS
  1
ACAMCOMPDEFMGR
  2
AcAmCompDefMgr
  3
DesignerAssemblies
 90
        0
 91
        1
280
     0
281
     0
  0
CLASS
  1
AMCONTEXTMGR
  2
AcAmContextMgr
  3
DesignerAssemblies
 90
        0
 91
        1
280
     0
281
     0
  0
CLASS
  1
ACAMCONTEXTMODELER
  2
AcAmContextModeler
  3
DesignerAssemblies
 90
        0
 91
        1
280
     0
281
     0
  0
CLASS
  1
CATALOGSTATE
  2
AcAmCatalogState
  3
DesignerAssemblies
 90
        0
 91
        1
280
     0
281
     0
  0
CLASS
  1
ACAMGRCOMPDEFSET
  2
AcAmGrCompDefSet
  3
DesignerAssemblies
 90
        0
 91
        1
280
     0
281
     0
  0
CLASS
  1
AMDTBROWSERDBTAB
  2
AmdtBrowserDbTab
  3
McadcomServices
 90
        0
 91
        1
280
     0
281
     0
  0
CLASS
  1
CBROWSERAPPOBJECT
  2
CBrowserAppObject
  3
McadcomServices
 90
        0
 91
        3
280
     0
281
     0
  0
CLASS
  1
DM_PLACEHOLDER
  2
AcDmSelsetPlaceholder
  3
AcMechDwgViewMgmt
 90
        0
 91
        1
280
     0
281
     0
  0
CLASS
  1
ACAMGFILTERDAT
  2
AcAmgFilterDat
  3
"AcadM|Product Description: AutoCAD Mechanical|Company: Autodesk"
 90
        0
 91
        0
280
     0
281
     0
  0
CLASS
  1
AMDTFORMULAUPDATEDISPATCHER
  2
AmdtFormulaUpdateDispatcher
  3
AcMeServices
 90
        0
 91
        0
280
     0
281
     0
  0
CLASS
  1
ACMNOTESTANDARDDIN
  2
AmdtNoteStdDIN
  3
"Amdt_StdImp|Product Description: AutoCAD Mechanical|Company: Autodesk"
 90
        0
 91
        1
280
     0
281
     0
  0
CLASS
  1
ACAMGHOLECHARTSTDDIN
  2
AcAmgHoleChartStdDIN
  3
ACMSYMBB_MODULE_NAME
 90
        0
 91
        1
280
     0
281
     0
  0
CLASS
  1
AMDTNOTE
  2
AmdtNote
  3
"AcmSymBB|Product Description: AutoCAD Mechanical|Company: Autodesk"
 90
     3071
 91
        0
280
     0
281
     1
  0
CLASS
  1
ACMPARTREF
  2
AcmPartRef
  3
"AcmSymBB|Product Description: AutoCAD Mechanical|Company: Autodesk"
 90
     3071
 91
        0
280
     0
281
     1
  0
CLASS
  1
ACDBLINERES
  2
AcDbLineRes
  3
AcGrefServices
 90
        0
 91
        0
280
     0
281
     0
  0
CLASS
  1
ACRFINSADJ
  2
AcRfInsAdjuster
  3
AcMeServices
 90
        0
 91
        0
280
     0
281
     0
  0
CLASS
  1
ACMDATAENTRYPART
  2
AcmDataEntryPart
  3
"AcmSymBB|Product Description: AutoCAD Mechanical|Company: Autodesk"
 90
        0
 91
        0
280
     0
281
     0
  0
CLASS
  1
ACMPICKOBJ
  2
AcmPickEnt
  3
"AcmSymBB|Product Description: AutoCAD Mechanical|Company: Autodesk"
 90
        0
 91
        0
280
     0
281
     1
  0
CLASS
  1
ACMDATAENTRY
  2
AcmDataEntry
  3
"AcmSymBB|Product Description: AutoCAD Mechanical|Company: Autodesk"
 90
        0
 91
        0
280
     0
281
     0
  0
CLASS
  1
ACMBOM
  2
AcmBom
  3
"AcmSymBB|Product Description: AutoCAD Mechanical|Company: Autodesk"
 90
        0
 91
        0
280
     0
281
     0
  0
CLASS
  1
ACMBOMROW
  2
AcmBomRow
  3
"AcmSymBB|Product Description: AutoCAD Mechanical|Company: Autodesk"
 90
        0
 91
        0
280
     0
281
     0
  0
CLASS
  1
ACMPARTLIST
  2
AcmPartList
  3
"AcmSymBB|Product Description: AutoCAD Mechanical|Company: Autodesk"
 90
     3071
 91
        0
280
     0
281
     1
  0
CLASS
  1
ACDBCIRCARCRES
  2
AcDbCircArcRes
  3
AcGrefServices
 90
        0
 91
        0
280
     0
281
     0
  0
CLASS
  1
ACMBALLOON
  2
AcmBalloon
  3
"AcmSymBB|Product Description: AutoCAD Mechanical|Company: Autodesk"
 90
     3071
 91
        0
280
     0
281
     1
  0
CLASS
  1
ACMSTANDARDISO
  2
AcmStandardISO
  3
"Amdt_StdImp|Product Description: AutoCAD Mechanical|Company: Autodesk"
 90
        0
 91
        1
280
     0
281
     0
  0
CLASS
  1
AMDTEDGESTANDARDISO
  2
AmdtEdgeStdISO
  3
"Amdt_StdImp|Product Description: AutoCAD Mechanical|Company: Autodesk"
 90
        0
 91
        1
280
     0
281
     0
  0
CLASS
  1
ACMSURFSTANDARDISO
  2
AcmSurfTextStdISO
  3
"Amdt_StdImp|Product Description: AutoCAD Mechanical|Company: Autodesk"
 90
        0
 91
        1
280
     0
281
     0
  0
CLASS
  1
ACMFCFSTANDARDISO
  2
AcmFCFStdISO
  3
"Amdt_StdImp|Product Description: AutoCAD Mechanical|Company: Autodesk"
 90
        0
 91
        1
280
     0
281
     0
  0
CLASS
  1
ACMWELDSTANDARDISO
  2
AcmWeldingStdISO
  3
"Amdt_StdImp|Product Description: AutoCAD Mechanical|Company: Autodesk"
 90
        0
 91
        1
280
     0
281
     0
  0
CLASS
  1
ACMIDSTANDARDISO
  2
AcmIdStdISO
  3
"Amdt_StdImp|Product Description: AutoCAD Mechanical|Company: Autodesk"
 90
        0
 91
        1
280
     0
281
     0
  0
CLASS
  1
ACMDATUMSTANDARDISO
  2
AcmDatumStdISO
  3
"Amdt_StdImp|Product Description: AutoCAD Mechanical|Company: Autodesk"
 90
        0
 91
        1
280
     0
281
     0
  0
CLASS
  1
ACMBOMSTANDARDISO
  2
AcmBOMStdISO
  3
"Amdt_StdImp|Product Description: AutoCAD Mechanical|Company: Autodesk"
 90
        0
 91
        1
280
     0
281
     0
  0
CLASS
  1
ACMDETAILSTANDARDISO
  2
AmdtDetailSymStdISO
  3
"Amdt_StdImp|Product Description: AutoCAD Mechanical|Company: Autodesk"
 90
        0
 91
        1
280
     0
281
     0
  0
CLASS
  1
ACMSECTIONSTANDARDISO
  2
AmdtSectionSymStdISO
  3
"Amdt_StdImp|Product Description: AutoCAD Mechanical|Company: Autodesk"
 90
        0
 91
        1
280
     0
281
     0
  0
CLASS
  1
ACMCENTERLINESTANDARDISO
  2
AmdtCenterLineStdISO
  3
"Amdt_StdImp|Product Description: AutoCAD Mechanical|Company: Autodesk"
 90
        0
 91
        1
280
     0
281
     0
  0
CLASS
  1
ACMNOTESTANDARDISO
  2
AmdtNoteStdISO
  3
"Amdt_StdImp|Product Description: AutoCAD Mechanical|Company: Autodesk"
 90
        0
 91
        1
280
     0
281
     0
  0
CLASS
  1
ACAMGHOLECHARTSTDISO
  2
AcAmgHoleChartStdISO
  3
ACMSYMBB_MODULE_NAME
 90
        0
 91
        1
280
     0
281
     0
  0
CLASS
  1
ACDBOPPOLYLINERES
  2
AcDbOpPolylineRes
  3
AcGrefServices
 90
        0
 91
        0
280
     0
281
     0
  0
CLASS
  1
ACMSURFSYM
  2
AcmSurfaceTexture
  3
"AcmSymBB|Product Description: AutoCAD Mechanical|Company: Autodesk"
 90
     3071
 91
        0
280
     0
281
     1
  0
CLASS
  1
ACMWELDSYM
  2
AcmWelding
  3
"AcmSymBB|Product Description: AutoCAD Mechanical|Company: Autodesk"
 90
     3071
 91
        0
280
     0
281
     1
  0
CLASS
  1
STDPART2D
  2
AmgStdPart
  3
"g3vace|Class: AmgStdPart|Product Description: AutoCAD Mechanical|Company: Autodesk"
 90
     3071
 91
        0
280
     0
281
     1
  0
CLASS
  1
ACDBSTDPARTRES_LINE
  2
AcDbStdPartRes_Line
  3
"g3vace|Class: AcDbStdPartRes_Line|Product Description: AutoCAD Mechanical|Company: Autodesk"
 90
        0
 91
        0
280
     0
281
     0
  0
CLASS
  1
ACDBSTDPARTRES_ARC
  2
AcDbStdPartRes_Arc
  3
"g3vace|Class: AcDbStdPartRes_Arc|Product Description: AutoCAD Mechanical|Company: Autodesk"
 90
        0
 91
        0
280
     0
281
     0
  0
CLASS
  1
ACDBDIMENSIONRES
  2
AcDbDimensionRes
  3
L"AcDbDimensionRes|Product Description: AutoCAD Mechanical 2000|Company: Autodesk"
 90
        0
 91
        0
280
     0
281
     0
  0
CLASS
  1
ACDBPOLYLINERES
  2
AcDbPolylineRes
  3
AcGrefServices
 90
        0
 91
        0
280
     0
281
     0
  0
CLASS
  1
ACDBELLIPSERES
  2
AcDbEllipseRes
  3
AcGrefServices
 90
        0
 91
        0
280
     0
281
     0
  0
CLASS
  1
ACMDIMBREAKPERSREACTOR
  2
AcmDimBreakPersReactor
  3
amgDimApp().moduleName()
 90
     3071
 91
        0
280
     0
281
     0
  0
CLASS
  1
AMDTACMWBLOCKBOMENTITY
  2
AmdtAcmWblockBomEntity
  3
"AcmSymBB|Product Description: AutoCAD Mechanical|Company: Autodesk"
 90
     3071
 91
        0
280
     0
281
     1
  0
CLASS
  1
ACMSTANDARDANSI
  2
AcmStandardANSI
  3
"Amdt_StdImp|Product Description: AutoCAD Mechanical|Company: Autodesk"
 90
        0
 91
        0
280
     0
281
     0
  0
CLASS
  1
ACMSURFSTANDARDANSI
  2
AcmSurfTextStdANSI
  3
"Amdt_StdImp|Product Description: AutoCAD Mechanical|Company: Autodesk"
 90
        0
 91
        0
280
     0
281
     0
  0
CLASS
  1
ACMFCFSTANDARDANSI
  2
AcmFCFStdANSI
  3
"Amdt_StdImp|Product Description: AutoCAD Mechanical|Company: Autodesk"
 90
        0
 91
        0
280
     0
281
     0
  0
CLASS
  1
ACMWELDSTANDARDANSI
  2
AcmWeldingStdANSI
  3
"Amdt_StdImp|Product Description: AutoCAD Mechanical|Company: Autodesk"
 90
        0
 91
        0
280
     0
281
     0
  0
CLASS
  1
ACMIDSTANDARDANSI
  2
AcmIdStdANSI
  3
"Amdt_StdImp|Product Description: AutoCAD Mechanical|Company: Autodesk"
 90
        0
 91
        0
280
     0
281
     0
  0
CLASS
  1
ACMDATUMSTANDARDANSI
  2
AcmDatumStdANSI
  3
"Amdt_StdImp|Product Description: AutoCAD Mechanical|Company: Autodesk"
 90
        0
 91
        0
280
     0
281
     0
  0
CLASS
  1
ACMBOMSTANDARDANSI
  2
AcmBOMStdANSI
  3
"Amdt_StdImp|Product Description: AutoCAD Mechanical|Company: Autodesk"
 90
        0
 91
        0
280
     0
281
     0
  0
CLASS
  1
ACMDETAILSTANDARDANSI
  2
AmdtDetailSymStdANSI
  3
"Amdt_StdImp|Product Description: AutoCAD Mechanical|Company: Autodesk"
 90
        0
 91
        0
280
     0
281
     0
  0
CLASS
  1
ACMSECTIONSTANDARDANSI
  2
AmdtSectionSymStdANSI
  3
"Amdt_StdImp|Product Description: AutoCAD Mechanical|Company: Autodesk"
 90
        0
 91
        0
280
     0
281
     0
  0
CLASS
  1
ACMCENTERLINESTANDARDANSI
  2
AmdtCenterLineStdANSI
  3
"Amdt_StdImp|Product Description: AutoCAD Mechanical|Company: Autodesk"
 90
        0
 91
        0
280
     0
281
     0
  0
CLASS
  1
ACMNOTESTANDARDANSI
  2
AmdtNoteStdANSI
  3
"Amdt_StdImp|Product Description: AutoCAD Mechanical|Company: Autodesk"
 90
        0
 91
        0
280
     0
281
     0
  0
CLASS
  1
ACAMGHOLECHARTSTDANSI
  2
AcAmgHoleChartStdANSI
  3
ACMSYMBB_MODULE_NAME
 90
        0
 91
        0
280
     0
281
     0
  0
CLASS
  1
ACMTHREADLINESTANDARDISO
  2
AmdtThreadLineStdISO
  3
"Amdt_StdImp|Product Description: AutoCAD Mechanical|Company: Autodesk"
 90
        0
 91
        1
280
     0
281
     0
  0
CLASS
  1
ACMTHREADLINESTANDARDANSI
  2
AmdtThreadLineStdANSI
  3
"Amdt_StdImp|Product Description: AutoCAD Mechanical|Company: Autodesk"
 90
        0
 91
        0
280
     0
281
     0
  0
CLASS
  1
TABLESTYLE
  2
AcDbTableStyle
  3
ObjectDBX Classes
 90
     4095
 91
        1
280
     0
281
     0
  0
CLASS
  1
SORTENTSTABLE
  2
AcDbSortentsTable
  3
ObjectDBX Classes
 90
        0
 91
        1
280
     0
281
     0
  0
CLASS
  1
AMDTNOTETEMPLATEDB
  2
AmdtNoteTemplateDB
  3
AMDT_STDIMP_MODULE_NAME
 90
        0
 91
        9
280
     0
281
     0
  0
CLASS
  1
ACRFATTGENMGR
  2
AcRfAttGeneralMgr
  3
AcAttribServices
 90
        0
 91
        0
280
     0
281
     0
  0
CLASS
  1
MATERIAL
  2
AcDbMaterial
  3
ObjectDBX Classes
 90
     1024
 91
        3
280
     0
281
     0
  0
CLASS
  1
VISUALSTYLE
  2
AcDbVisualStyle
  3
ObjectDBX Classes
 90
     4095
 91
       19
280
     0
281
     0
  0
CLASS
  1
AMDTEDGESTANDARDDIN13715
  2
AmdtEdgeStdDIN13715
  3
"Amdt_StdImp|Product Description: AutoCAD Mechanical|Company: Autodesk"
 90
        0
 91
        1
280
     0
281
     0
  0
CLASS
  1
ACMTAPERSTANDARDDIN
  2
AcmTaperStdDIN
  3
"Amdt_StdImp|Product Description: AutoCAD Mechanical|Company: Autodesk"
 90
        0
 91
        1
280
     0
281
     0
  0
CLASS
  1
ACMTAPERSTANDARDISO
  2
AcmTaperStdISO
  3
"Amdt_StdImp|Product Description: AutoCAD Mechanical|Company: Autodesk"
 90
        0
 91
        1
280
     0
281
     0
  0
ENDSEC
  0
SECTION
  2
TABLES
  0
TABLE
  2
VPORT
  5
1C
330
0
100
AcDbSymbolTable
 70
     1
  0
VPORT
  5
54E
330
1C
100
AcDbSymbolTableRecord
100
AcDbViewportTableRecord
  2
*Active
 70
     0
 10
0.0
 20
0.0
 11
1.0
 21
1.0
 12
39.9397452271855
 22
387.3588871360637
 13
-5403.981393923409
 23
2760.242742226442
 14
2.5
 24
2.5
 15
10.0
 25
10.0
 16
0.0
 26
0.0
 36
1.0
 17
279.8052631578947
 27
217.1011557610242
 37
0.0
 40
349.3016481440577
 41
1.845679012345679
 42
50.0
 43
0.0
 44
0.0
 50
0.0
 51
0.0
 71
     0
 72
  3000
 73
     1
 74
     2
 75
     0
 76
     0
 77
     0
 78
     0
281
     0
 65
     0
110
0.0
120
0.0
130
0.0
111
1.0
121
0.0
131
0.0
112
0.0
122
1.0
132
0.0
 79
     0
146
0.0
  0
ENDTAB
  0
TABLE
  2
LTYPE
  5
17
330
0
100
AcDbSymbolTable
 70
    62
  0
LTYPE
  5
18
330
17
100
AcDbSymbolTableRecord
100
AcDbLinetypeTableRecord
  2
ByBlock
 70
     0
  3

 72
    65
 73
     0
 40
0.0
  0
LTYPE
  5
19
330
17
100
AcDbSymbolTableRecord
100
AcDbLinetypeTableRecord
  2
ByLayer
 70
     0
  3

 72
    65
 73
     0
 40
0.0
  0
LTYPE
  5
A
330
17
100
AcDbSymbolTableRecord
100
AcDbLinetypeTableRecord
  2
Continuous
 70
     0
  3
Solid line
 72
    65
 73
     0
 40
0.0
  0
LTYPE
  5
394
330
17
100
AcDbSymbolTableRecord
100
AcDbLinetypeTableRecord
  2
Amconstr
 70
     0
  3
_______________________
 72
    65
 73
     2
 40
9999.0
 49
9999.0
 74
     0
 49
0.0
 74
     0
  0
LTYPE
  5
397
330
17
100
AcDbSymbolTableRecord
100
AcDbLinetypeTableRecord
  2
Amzigzag
 70
     0
  3
/\/-/\/-/\/-/\/-/\/-/\/
 72
    65
 73
     2
 40
11.0001
 49
0.0001
 74
     4
 75
   135
340
398
 46
0.04
 50
0.0
 44
0.0
 45
0.0
 49
-11.0
 74
     0
  0
LTYPE
  5
392
330
17
100
AcDbSymbolTableRecord
100
AcDbLinetypeTableRecord
  2
AM_DIN_F_W050
 70
     0
  3
__ __ __ __ __ __ __ __ __ __ __ __ __ __ __
 72
    65
 73
     2
 40
6.25
 49
4.75
 74
     0
 49
-1.5
 74
     0
  0
LTYPE
  5
D7
330
17
100
AcDbSymbolTableRecord
100
AcDbLinetypeTableRecord
  2
AM_DIN_G_W050
 70
     0
  3
____ . ____ . ____ . ____ . ____ . ____ . ____
 72
    65
 73
     4
 40
13.75
 49
9.75
 74
     0
 49
-1.5
 74
     0
 49
1.0
 74
     0
 49
-1.5
 74
     0
  0
LTYPE
  5
393
330
17
100
AcDbSymbolTableRecord
100
AcDbLinetypeTableRecord
  2
AM_DIN_K_W050
 70
     0
  3
_____ . . _____ . . _____ . . ____ .. ____
 72
    65
 73
     6
 40
16.25
 49
9.75
 74
     0
 49
-1.5
 74
     0
 49
1.0
 74
     0
 49
-1.5
 74
     0
 49
1.0
 74
     0
 49
-1.5
 74
     0
  0
LTYPE
  5
395
330
17
100
AcDbSymbolTableRecord
100
AcDbLinetypeTableRecord
  2
AM_DIN_G_W050x2
 70
     0
  3
__ . __ . __ . __ . __ . __
 72
    65
 73
     4
 40
6.875
 49
4.75
 74
     0
 49
-0.875
 74
     0
 49
0.375
 74
     0
 49
-0.875
 74
     0
  0
LTYPE
  5
396
330
17
100
AcDbSymbolTableRecord
100
AcDbLinetypeTableRecord
  2
AM_DIN_F_W050x2
 70
     0
  3
 _ _ _ _ _ _ _ _ _ _ _ _
 72
    65
 73
     2
 40
3.125
 49
2.25
 74
     0
 49
-0.875
 74
     0
  0
LTYPE
  5
3AB
330
17
100
AcDbSymbolTableRecord
100
AcDbLinetypeTableRecord
  2
ACDINWELD
 70
     0
  3
_ _ _ _ _
 72
    65
 73
     2
 40
2.0
 49
2.0
 74
     0
 49
-1.0
 74
     0
  0
LTYPE
  5
3AE
330
17
100
AcDbSymbolTableRecord
100
AcDbLinetypeTableRecord
  2
ACDINTGB
 70
     0
  3
__ . . __ . .
 72
    65
 73
     6
 40
9.0
 49
4.0
 74
     0
 49
-1.0
 74
     0
 49
1.0
 74
     0
 49
-1.0
 74
     0
 49
1.0
 74
     0
 49
-1.0
 74
     0
  0
LTYPE
  5
3AF
330
17
100
AcDbSymbolTableRecord
100
AcDbLinetypeTableRecord
  2
ACDINTGL
 70
     0
  3
_ _ _ _ _
 72
    65
 73
     2
 40
3.0
 49
2.0
 74
     0
 49
-1.0
 74
     0
  0
LTYPE
  5
3B3
330
17
100
AcDbSymbolTableRecord
100
AcDbLinetypeTableRecord
  2
CENTER
 70
     0
  3
__ . __
 72
    65
 73
     4
 40
7.0
 49
4.0
 74
     0
 49
-1.0
 74
     0
 49
1.0
 74
     0
 49
-1.0
 74
     0
  0
LTYPE
  5
3EC
330
17
100
AcDbSymbolTableRecord
100
AcDbLinetypeTableRecord
  2
HIDDEN
 70
     0
  3
Verdeckt
 72
    65
 73
     2
 40
9.525
 49
6.349999999999997
 74
     0
 49
-3.174999999999998
 74
     0
  0
LTYPE
  5
3ED
330
17
100
AcDbSymbolTableRecord
100
AcDbLinetypeTableRecord
  2
PHANTOM2
 70
     0
  3
Phantom (.5x) ___ _ _ ___ _ _ ___ _ _ ___ _ _
 72
    65
 73
     6
 40
31.75
 49
15.875
 74
     0
 49
-3.174999999999998
 74
     0
 49
3.174999999999998
 74
     0
 49
-3.174999999999998
 74
     0
 49
3.174999999999998
 74
     0
 49
-3.174999999999998
 74
     0
  0
LTYPE
  5
520
330
17
100
AcDbSymbolTableRecord
100
AcDbLinetypeTableRecord
  2
ACISOWELD
 70
     0
  3
_ _ _ _ _
 72
    65
 73
     2
 40
2.0
 49
2.0
 74
     0
 49
-1.0
 74
     0
  0
LTYPE
  5
523
330
17
100
AcDbSymbolTableRecord
100
AcDbLinetypeTableRecord
  2
ACISOTGB
 70
     0
  3
__ . . __ . .
 72
    65
 73
     6
 40
9.0
 49
4.0
 74
     0
 49
-1.0
 74
     0
 49
1.0
 74
     0
 49
-1.0
 74
     0
 49
1.0
 74
     0
 49
-1.0
 74
     0
  0
LTYPE
  5
524
330
17
100
AcDbSymbolTableRecord
100
AcDbLinetypeTableRecord
  2
ACISOTGL
 70
     0
  3
_ _ _ _ _
 72
    65
 73
     2
 40
3.0
 49
2.0
 74
     0
 49
-1.0
 74
     0
  0
LTYPE
  5
537
330
17
100
AcDbSymbolTableRecord
100
AcDbLinetypeTableRecord
  2
AM_ISO02W050
 70
     0
  3
__ __ __ __ __ __ __ __ __ __ __ __ __ __ __
 72
    65
 73
     2
 40
7.5
 49
6.0
 74
     0
 49
-1.5
 74
     0
  0
LTYPE
  5
538
330
17
100
AcDbSymbolTableRecord
100
AcDbLinetypeTableRecord
  2
AM_ISO08W050
 70
     0
  3
____ . ____ . ____ . ____ . ____ . ____ . ____
 72
    65
 73
     4
 40
18.0
 49
12.0
 74
     0
 49
-1.5
 74
     0
 49
3.0
 74
     0
 49
-1.5
 74
     0
  0
LTYPE
  5
539
330
17
100
AcDbSymbolTableRecord
100
AcDbLinetypeTableRecord
  2
AM_ISO09W050
 70
     0
  3
_____ . . _____ . . _____ . . ____ .. ____
 72
    65
 73
     6
 40
22.5
 49
12.0
 74
     0
 49
-1.5
 74
     0
 49
3.0
 74
     0
 49
-1.5
 74
     0
 49
3.0
 74
     0
 49
-1.5
 74
     0
  0
LTYPE
  5
53A
330
17
100
AcDbSymbolTableRecord
100
AcDbLinetypeTableRecord
  2
AM_ISO08W050x2
 70
     0
  3
__ . __ . __ . __ . __ . __
 72
    65
 73
     4
 40
9.0
 49
6.0
 74
     0
 49
-0.75
 74
     0
 49
1.5
 74
     0
 49
-0.75
 74
     0
  0
LTYPE
  5
53B
330
17
100
AcDbSymbolTableRecord
100
AcDbLinetypeTableRecord
  2
AM_ISO02W050x2
 70
     0
  3
 _ _ _ _ _ _ _ _ _ _ _ _
 72
    65
 73
     2
 40
3.75
 49
3.0
 74
     0
 49
-0.75
 74
     0
  0
LTYPE
  5
621
330
17
100
AcDbSymbolTableRecord
100
AcDbLinetypeTableRecord
  2
BORDER
 70
     0
  3
Border __ __ . __ __ . __ __ . __ __ . __ __ .
 72
    65
 73
     6
 40
1.75
 49
0.5
 74
     0
 49
-0.25
 74
     0
 49
0.5
 74
     0
 49
-0.25
 74
     0
 49
0.0
 74
     0
 49
-0.25
 74
     0
  0
LTYPE
  5
622
330
17
100
AcDbSymbolTableRecord
100
AcDbLinetypeTableRecord
  2
BORDER2
 70
     0
  3
Border (.5x) __.__.__.__.__.__.__.__.__.__.__.
 72
    65
 73
     6
 40
0.875
 49
0.25
 74
     0
 49
-0.125
 74
     0
 49
0.25
 74
     0
 49
-0.125
 74
     0
 49
0.0
 74
     0
 49
-0.125
 74
     0
  0
LTYPE
  5
623
330
17
100
AcDbSymbolTableRecord
100
AcDbLinetypeTableRecord
  2
BORDERX2
 70
     0
  3
Border (2x) ____  ____  .  ____  ____  .  ___
 72
    65
 73
     6
 40
3.5
 49
1.0
 74
     0
 49
-0.5
 74
     0
 49
1.0
 74
     0
 49
-0.5
 74
     0
 49
0.0
 74
     0
 49
-0.5
 74
     0
  0
LTYPE
  5
624
330
17
100
AcDbSymbolTableRecord
100
AcDbLinetypeTableRecord
  2
CENTER2
 70
     0
  3
Center (.5x) ___ _ ___ _ ___ _ ___ _ ___ _ ___
 72
    65
 73
     4
 40
1.125
 49
0.75
 74
     0
 49
-0.125
 74
     0
 49
0.125
 74
     0
 49
-0.125
 74
     0
  0
LTYPE
  5
625
330
17
100
AcDbSymbolTableRecord
100
AcDbLinetypeTableRecord
  2
CENTERX2
 70
     0
  3
Center (2x) ________  __  ________  __  _____
 72
    65
 73
     4
 40
4.0
 49
2.5
 74
     0
 49
-0.5
 74
     0
 49
0.5
 74
     0
 49
-0.5
 74
     0
  0
LTYPE
  5
626
330
17
100
AcDbSymbolTableRecord
100
AcDbLinetypeTableRecord
  2
DASHDOT
 70
     0
  3
Dash dot __ . __ . __ . __ . __ . __ . __ . __
 72
    65
 73
     4
 40
1.0
 49
0.5
 74
     0
 49
-0.25
 74
     0
 49
0.0
 74
     0
 49
-0.25
 74
     0
  0
LTYPE
  5
627
330
17
100
AcDbSymbolTableRecord
100
AcDbLinetypeTableRecord
  2
DASHDOT2
 70
     0
  3
Dash dot (.5x) _._._._._._._._._._._._._._._.
 72
    65
 73
     4
 40
0.5
 49
0.25
 74
     0
 49
-0.125
 74
     0
 49
0.0
 74
     0
 49
-0.125
 74
     0
  0
LTYPE
  5
628
330
17
100
AcDbSymbolTableRecord
100
AcDbLinetypeTableRecord
  2
DASHDOTX2
 70
     0
  3
Dash dot (2x) ____  .  ____  .  ____  .  ___
 72
    65
 73
     4
 40
2.0
 49
1.0
 74
     0
 49
-0.5
 74
     0
 49
0.0
 74
     0
 49
-0.5
 74
     0
  0
LTYPE
  5
629
330
17
100
AcDbSymbolTableRecord
100
AcDbLinetypeTableRecord
  2
DASHED
 70
     0
  3
Dashed __ __ __ __ __ __ __ __ __ __ __ __ __ _
 72
    65
 73
     2
 40
0.75
 49
0.5
 74
     0
 49
-0.25
 74
     0
  0
LTYPE
  5
62A
330
17
100
AcDbSymbolTableRecord
100
AcDbLinetypeTableRecord
  2
DASHED2
 70
     0
  3
Dashed (.5x) _ _ _ _ _ _ _ _ _ _ _ _ _ _ _ _ _
 72
    65
 73
     2
 40
0.375
 49
0.25
 74
     0
 49
-0.125
 74
     0
  0
LTYPE
  5
62B
330
17
100
AcDbSymbolTableRecord
100
AcDbLinetypeTableRecord
  2
DASHEDX2
 70
     0
  3
Dashed (2x) ____  ____  ____  ____  ____  ___
 72
    65
 73
     2
 40
1.5
 49
1.0
 74
     0
 49
-0.5
 74
     0
  0
LTYPE
  5
62C
330
17
100
AcDbSymbolTableRecord
100
AcDbLinetypeTableRecord
  2
DIVIDE
 70
     0
  3
Divide ____ . . ____ . . ____ . . ____ . . ____
 72
    65
 73
     6
 40
1.25
 49
0.5
 74
     0
 49
-0.25
 74
     0
 49
0.0
 74
     0
 49
-0.25
 74
     0
 49
0.0
 74
     0
 49
-0.25
 74
     0
  0
LTYPE
  5
62D
330
17
100
AcDbSymbolTableRecord
100
AcDbLinetypeTableRecord
  2
DIVIDE2
 70
     0
  3
Divide (.5x) __..__..__..__..__..__..__..__.._
 72
    65
 73
     6
 40
0.625
 49
0.25
 74
     0
 49
-0.125
 74
     0
 49
0.0
 74
     0
 49
-0.125
 74
     0
 49
0.0
 74
     0
 49
-0.125
 74
     0
  0
LTYPE
  5
62E
330
17
100
AcDbSymbolTableRecord
100
AcDbLinetypeTableRecord
  2
DIVIDEX2
 70
     0
  3
Divide (2x) ________  .  .  ________  .  .  _
 72
    65
 73
     6
 40
2.5
 49
1.0
 74
     0
 49
-0.5
 74
     0
 49
0.0
 74
     0
 49
-0.5
 74
     0
 49
0.0
 74
     0
 49
-0.5
 74
     0
  0
LTYPE
  5
62F
330
17
100
AcDbSymbolTableRecord
100
AcDbLinetypeTableRecord
  2
DOT
 70
     0
  3
Dot . . . . . . . . . . . . . . . . . . . . . .
 72
    65
 73
     2
 40
0.25
 49
0.0
 74
     0
 49
-0.25
 74
     0
  0
LTYPE
  5
630
330
17
100
AcDbSymbolTableRecord
100
AcDbLinetypeTableRecord
  2
DOT2
 70
     0
  3
Dot (.5x) .....................................
 72
    65
 73
     2
 40
0.125
 49
0.0
 74
     0
 49
-0.125
 74
     0
  0
LTYPE
  5
631
330
17
100
AcDbSymbolTableRecord
100
AcDbLinetypeTableRecord
  2
DOTX2
 70
     0
  3
Dot (2x) .  .  .  .  .  .  .  .  .  .  .  .  . 
 72
    65
 73
     2
 40
0.5
 49
0.0
 74
     0
 49
-0.5
 74
     0
  0
LTYPE
  5
632
330
17
100
AcDbSymbolTableRecord
100
AcDbLinetypeTableRecord
  2
GAS_LINE
 70
     0
  3
Gas line ----GAS----GAS----GAS----GAS----GAS---
 72
    65
 73
     3
 40
0.95
 49
0.5
 74
     0
 49
-0.2
 74
     2
 75
     0
340
15
 46
0.1
 50
0.0
 44
-0.1
 45
-0.05
  9
GAS
 49
-0.25
 74
     0
  0
LTYPE
  5
633
330
17
100
AcDbSymbolTableRecord
100
AcDbLinetypeTableRecord
  2
HIDDEN2
 70
     0
  3
Hidden (.5x) _ _ _ _ _ _ _ _ _ _ _ _ _ _ _ _ _
 72
    65
 73
     2
 40
0.1875
 49
0.125
 74
     0
 49
-0.0625
 74
     0
  0
LTYPE
  5
634
330
17
100
AcDbSymbolTableRecord
100
AcDbLinetypeTableRecord
  2
HIDDENX2
 70
     0
  3
Hidden (2x) ____ ____ ____ ____ ____ ____ ____
 72
    65
 73
     2
 40
0.75
 49
0.5
 74
     0
 49
-0.25
 74
     0
  0
LTYPE
  5
635
330
17
100
AcDbSymbolTableRecord
100
AcDbLinetypeTableRecord
  2
PHANTOM
 70
     0
  3
Phantom ______  __  __  ______  __  __  ______
 72
    65
 73
     6
 40
2.5
 49
1.25
 74
     0
 49
-0.25
 74
     0
 49
0.25
 74
     0
 49
-0.25
 74
     0
 49
0.25
 74
     0
 49
-0.25
 74
     0
  0
LTYPE
  5
636
330
17
100
AcDbSymbolTableRecord
100
AcDbLinetypeTableRecord
  2
PHANTOMX2
 70
     0
  3
Phantom (2x) ____________    ____    ____   _
 72
    65
 73
     6
 40
5.0
 49
2.5
 74
     0
 49
-0.5
 74
     0
 49
0.5
 74
     0
 49
-0.5
 74
     0
 49
0.5
 74
     0
 49
-0.5
 74
     0
  0
LTYPE
  5
637
330
17
100
AcDbSymbolTableRecord
100
AcDbLinetypeTableRecord
  2
ZIGZAG
 70
     0
  3
Zig zag /\/\/\/\/\/\/\/\/\/\/\/\/\/\/\/\/\/\/\/
 72
    65
 73
     4
 40
0.8001000000000001
 49
0.0001
 74
     0
 49
-0.2
 74
     4
 75
   131
340
64B
 46
0.2
 50
0.0
 44
-0.2
 45
0.0
 49
-0.4
 74
     4
 75
   131
340
64B
 46
0.2
 50
180.0
 44
0.2
 45
0.0
 49
-0.2
 74
     0
  0
LTYPE
  5
638
330
17
100
AcDbSymbolTableRecord
100
AcDbLinetypeTableRecord
  2
CPFLEX
 70
     0
  3
CP flex /\/\/\/\/\/\/\/\/\/\/\/\/\/\/\/\/\/\/\/
 72
    65
 73
     4
 40
0.8001000000000001
 49
0.0001
 74
     0
 49
-0.2
 74
     4
 75
   131
340
64B
 46
0.2
 50
0.0
 44
-0.2
 45
0.0
 49
-0.4
 74
     4
 75
   131
340
64B
 46
0.2
 50
180.0
 44
0.2
 45
0.0
 49
-0.2
 74
     0
  0
LTYPE
  5
639
330
17
100
AcDbSymbolTableRecord
100
AcDbLinetypeTableRecord
  2
CIRC
 70
     0
  3
 ----- ~ ----- ~ ---- ~ -----
 72
    65
 73
     3
 40
9.0
 49
7.0
 74
     0
 49
-1.0
 74
     2
 75
     0
340
15
 46
1.0
 50
0.0
 44
-0.3
 45
-0.6
  9
~
 49
-1.0
 74
     0
  0
LTYPE
  5
63A
330
17
100
AcDbSymbolTableRecord
100
AcDbLinetypeTableRecord
  2
DN 010
 70
     0
  3
 DN10  ---- 10 ---- 10 ---- 10 ----
 72
    65
 73
     3
 40
9.0
 49
5.0
 74
     0
 49
-2.0
 74
     2
 75
     0
340
15
 46
1.0
 50
0.0
 44
-0.5
 45
-0.5
  9
10
 49
-2.0
 74
     0
  0
LTYPE
  5
63B
330
17
100
AcDbSymbolTableRecord
100
AcDbLinetypeTableRecord
  2
DN 015
 70
     0
  3
 DN15  ---- 15 ---- 15 ---- 15 ----
 72
    65
 73
     3
 40
9.0
 49
5.0
 74
     0
 49
-2.0
 74
     2
 75
     0
340
15
 46
1.0
 50
0.0
 44
-0.5
 45
-0.5
  9
15
 49
-2.0
 74
     0
  0
LTYPE
  5
63C
330
17
100
AcDbSymbolTableRecord
100
AcDbLinetypeTableRecord
  2
DN 020
 70
     0
  3
 DN20  ---- 20 ---- 20 ---- 20 ----
 72
    65
 73
     3
 40
9.0
 49
5.0
 74
     0
 49
-2.0
 74
     2
 75
     0
340
15
 46
1.0
 50
0.0
 44
-0.5
 45
-0.5
  9
20
 49
-2.0
 74
     0
  0
LTYPE
  5
63D
330
17
100
AcDbSymbolTableRecord
100
AcDbLinetypeTableRecord
  2
DN 025
 70
     0
  3
 DN25  ---- 25 ---- 25 ---- 25 ----
 72
    65
 73
     3
 40
9.0
 49
5.0
 74
     0
 49
-2.0
 74
     2
 75
     0
340
15
 46
1.0
 50
0.0
 44
-0.5
 45
-0.5
  9
25
 49
-2.0
 74
     0
  0
LTYPE
  5
63E
330
17
100
AcDbSymbolTableRecord
100
AcDbLinetypeTableRecord
  2
DN 032
 70
     0
  3
 DN32  ---- 32 ---- 32 ---- 32 ----
 72
    65
 73
     3
 40
9.0
 49
5.0
 74
     0
 49
-2.0
 74
     2
 75
     0
340
15
 46
1.0
 50
0.0
 44
-0.5
 45
-0.5
  9
32
 49
-2.0
 74
     0
  0
LTYPE
  5
63F
330
17
100
AcDbSymbolTableRecord
100
AcDbLinetypeTableRecord
  2
DN 040
 70
     0
  3
 DN40  ---- 40 ---- 40 ---- 40 ----
 72
    65
 73
     3
 40
9.0
 49
5.0
 74
     0
 49
-2.0
 74
     2
 75
     0
340
15
 46
1.0
 50
0.0
 44
-0.5
 45
-0.5
  9
40
 49
-2.0
 74
     0
  0
LTYPE
  5
640
330
17
100
AcDbSymbolTableRecord
100
AcDbLinetypeTableRecord
  2
DN 050
 70
     0
  3
 DN50  ---- 50 ---- 50 ---- 50 ----
 72
    65
 73
     3
 40
9.0
 49
5.0
 74
     0
 49
-2.0
 74
     2
 75
     0
340
15
 46
1.0
 50
0.0
 44
-0.5
 45
-0.5
  9
50
 49
-2.0
 74
     0
  0
LTYPE
  5
641
330
17
100
AcDbSymbolTableRecord
100
AcDbLinetypeTableRecord
  2
DN 065
 70
     0
  3
 DN65  ---- 65 ---- 65 ---- 65 ----
 72
    65
 73
     3
 40
9.0
 49
5.0
 74
     0
 49
-2.0
 74
     2
 75
     0
340
15
 46
1.0
 50
0.0
 44
-0.5
 45
-0.5
  9
65
 49
-2.0
 74
     0
  0
LTYPE
  5
642
330
17
100
AcDbSymbolTableRecord
100
AcDbLinetypeTableRecord
  2
DN 080
 70
     0
  3
 DN80  ---- 80 ---- 80 ---- 80 ----
 72
    65
 73
     3
 40
9.0
 49
5.0
 74
     0
 49
-2.0
 74
     2
 75
     0
340
15
 46
1.0
 50
0.0
 44
-0.5
 45
-0.5
  9
80
 49
-2.0
 74
     0
  0
LTYPE
  5
643
330
17
100
AcDbSymbolTableRecord
100
AcDbLinetypeTableRecord
  2
DN 100
 70
     0
  3
 DN100 ---- 100 --- 100 --- 100 ---
 72
    65
 73
     3
 40
9.0
 49
5.0
 74
     0
 49
-2.0
 74
     2
 75
     0
340
15
 46
1.0
 50
0.0
 44
-1.0
 45
-0.5
  9
100
 49
-2.0
 74
     0
  0
LTYPE
  5
644
330
17
100
AcDbSymbolTableRecord
100
AcDbLinetypeTableRecord
  2
DN 125
 70
     0
  3
 DN125 ---- 125 --- 125 --- 125 ---
 72
    65
 73
     3
 40
9.0
 49
5.0
 74
     0
 49
-2.0
 74
     2
 75
     0
340
15
 46
1.0
 50
0.0
 44
-1.0
 45
-0.5
  9
125
 49
-2.0
 74
     0
  0
LTYPE
  5
645
330
17
100
AcDbSymbolTableRecord
100
AcDbLinetypeTableRecord
  2
DN 150
 70
     0
  3
 DN150 ---- 150 --- 150 --- 150 ---
 72
    65
 73
     3
 40
9.0
 49
5.0
 74
     0
 49
-2.0
 74
     2
 75
     0
340
15
 46
1.0
 50
0.0
 44
-1.0
 45
-0.5
  9
150
 49
-2.0
 74
     0
  0
LTYPE
  5
646
330
17
100
AcDbSymbolTableRecord
100
AcDbLinetypeTableRecord
  2
DN 200
 70
     0
  3
 DN200 ---- 200 --- 200 --- 200 ---
 72
    65
 73
     3
 40
9.0
 49
5.0
 74
     0
 49
-2.0
 74
     2
 75
     0
340
15
 46
1.0
 50
0.0
 44
-1.0
 45
-0.5
  9
200
 49
-2.0
 74
     0
  0
LTYPE
  5
647
330
17
100
AcDbSymbolTableRecord
100
AcDbLinetypeTableRecord
  2
DN 250
 70
     0
  3
 DN250 ---- 250 --- 250 --- 250 ---
 72
    65
 73
     3
 40
9.0
 49
5.0
 74
     0
 49
-2.0
 74
     2
 75
     0
340
15
 46
1.0
 50
0.0
 44
-1.0
 45
-0.5
  9
250
 49
-2.0
 74
     0
  0
LTYPE
  5
648
330
17
100
AcDbSymbolTableRecord
100
AcDbLinetypeTableRecord
  2
DN 300
 70
     0
  3
 DN300 ---- 300 --- 300 --- 300 ---
 72
    65
 73
     3
 40
9.0
 49
5.0
 74
     0
 49
-2.0
 74
     2
 75
     0
340
15
 46
1.0
 50
0.0
 44
-1.0
 45
-0.5
  9
300
 49
-2.0
 74
     0
  0
ENDTAB
  0
TABLE
  2
LAYER
  5
13
330
0
100
AcDbSymbolTable
 70
     7
  0
LAYER
  5
6
330
13
100
AcDbSymbolTableRecord
100
AcDbLayerTableRecord
  2
0
 70
     0
 62
     7
  6
Continuous
370
    -3
390
7
  0
LAYER
  5
2A
330
13
100
AcDbSymbolTableRecord
100
AcDbLayerTableRecord
  2
AM_0
 70
     0
 62
     7
  6
Continuous
370
    50
390
7
  0
LAYER
  5
AE
330
13
100
AcDbSymbolTableRecord
100
AcDbLayerTableRecord
  2
AM_5
 70
     0
 62
     3
  6
Continuous
370
    25
390
7
  0
LAYER
  5
B9
330
13
100
AcDbSymbolTableRecord
100
AcDbLayerTableRecord
  2
DEFPOINTS
 70
     0
 62
     7
  6
Continuous
290
     0
370
    -3
390
7
  0
LAYER
  5
D6
330
13
100
AcDbSymbolTableRecord
100
AcDbLayerTableRecord
  2
AM_7
 70
     0
 62
     4
  6
AM_DIN_G_W050
370
    -3
390
7
  0
LAYER
  5
A4
330
13
100
AcDbSymbolTableRecord
100
AcDbLayerTableRecord
  2
AM_4
 70
     0
 62
     3
  6
Continuous
370
    25
390
7
  0
LAYER
  5
14A
330
13
100
AcDbSymbolTableRecord
100
AcDbLayerTableRecord
  2
AM_6
 70
     0
 62
     2
  6
Continuous
370
    35
390
7
  0
ENDTAB
  0
TABLE
  2
STYLE
  5
14
330
0
100
AcDbSymbolTable
 70
    14
  0
STYLE
  5
15
330
14
100
AcDbSymbolTableRecord
100
AcDbTextStyleTableRecord
  2
STANDARD
 70
     0
 40
0.0
 41
1.0
 50
0.0
 71
     0
 42
50.0
  3
ISOCP.SHX
  4

  0
STYLE
  5
398
330
14
100
AcDbSymbolTableRecord
100
AcDbTextStyleTableRecord
  2

 70
     1
 40
0.0
 41
1.0
 50
0.0
 71
     0
 42
2.5
  3
ltypeshp.shx
  4

  0
STYLE
  5
3A5
330
14
100
AcDbSymbolTableRecord
100
AcDbTextStyleTableRecord
  2
ACDINTS
 70
     0
 40
1.0
 41
1.0
 50
0.0
 71
     0
 42
2.5
  3
isocp.shx
  4

  0
STYLE
  5
3A9
330
14
100
AcDbSymbolTableRecord
100
AcDbTextStyleTableRecord
  2
ACDINGDT
 70
     0
 40
0.0
 41
1.0
 50
0.0
 71
     0
 42
2.5
  3
amgdt.shx
  4

  0
STYLE
  5
51A
330
14
100
AcDbSymbolTableRecord
100
AcDbTextStyleTableRecord
  2
ACISOTS
 70
     0
 40
1.0
 41
1.0
 50
0.0
 71
     0
 42
2.5
  3
isocp.shx
  4
bigfont.shx
  0
STYLE
  5
51E
330
14
100
AcDbSymbolTableRecord
100
AcDbTextStyleTableRecord
  2
ACISOGDT
 70
     0
 40
0.0
 41
1.0
 50
0.0
 71
     0
 42
2.5
  3
amgdt.shx
  4
bigfont.shx
  0
STYLE
  5
649
330
14
100
AcDbSymbolTableRecord
100
AcDbTextStyleTableRecord
  2
Annotative
 70
     0
 40
0.0
 41
1.0
 50
0.0
 71
     0
 42
2.5
  3
ARIAL.TTF
  4

1001
AcadAnnotative
1000
AnnotativeData
1002
{
1070
     1
1070
     1
1002
}
1001
ACAD
1000
Arial
1071
       34
  0
STYLE
  5
64A
330
14
100
AcDbSymbolTableRecord
100
AcDbTextStyleTableRecord
  2
CP_TXT
 70
     0
 40
0.0
 41
1.0
 50
0.0
 71
     0
 42
2.5
  3
ROMANS.SHX
  4

  0
STYLE
  5
64B
330
14
100
AcDbSymbolTableRecord
100
AcDbTextStyleTableRecord
  2

 70
     1
 40
0.0
 41
1.0
 50
0.0
 71
     0
 42
2.5
  3
LTYPESHP.SHX
  4

  0
STYLE
  5
64C
330
14
100
AcDbSymbolTableRecord
100
AcDbTextStyleTableRecord
  2
CP_ATTR
 70
     0
 40
0.0
 41
1.0
 50
0.0
 71
     0
 42
0.2
  3
ROMANS.SHX
  4

  0
STYLE
  5
64D
330
14
100
AcDbSymbolTableRecord
100
AcDbTextStyleTableRecord
  2
CP_TXT_IT
 70
     0
 40
0.0
 41
1.0
 50
15.0
 71
     0
 42
2.5
  3
ROMANS.SHX
  4

  0
STYLE
  5
64E
330
14
100
AcDbSymbolTableRecord
100
AcDbTextStyleTableRecord
  2
CP_TXTCON
 70
     0
 40
0.0
 41
0.8
 50
0.0
 71
     0
 42
2.5
  3
ROMANS.SHX
  4

  0
STYLE
  5
64F
330
14
100
AcDbSymbolTableRecord
100
AcDbTextStyleTableRecord
  2
CP_TXTCON_IT
 70
     0
 40
0.0
 41
0.8
 50
15.0
 71
     0
 42
2.5
  3
ROMANS.SHX
  4

  0
ENDTAB
  0
TABLE
  2
VIEW
  5
1A
330
0
100
AcDbSymbolTable
 70
     1
  0
VIEW
  5
E
330
1A
100
AcDbSymbolTableRecord
100
AcDbViewTableRecord
  2
AM_VIEW6
 70
     0
 40
445.2348449999998
 10
-57.81839965789473
 20
2.893714738975816
 41
848.9782729999998
 11
0.0
 21
0.0
 31
1.0
 12
279.8052631578947
 22
217.1011557610242
 32
0.0
 42
50.0
 43
0.0
 44
0.0
 50
0.0
 71
     0
281
     0
 72
     0
  0
ENDTAB
  0
TABLE
  2
UCS
  5
1B
330
0
100
AcDbSymbolTable
 70
     0
  0
ENDTAB
  0
TABLE
  2
APPID
  5
1E
330
0
100
AcDbSymbolTable
 70
    77
  0
APPID
  5
1F
330
1E
100
AcDbSymbolTableRecord
100
AcDbRegAppTableRecord
  2
ACAD
 70
     0
  0
APPID
  5
37
330
1E
100
AcDbSymbolTableRecord
100
AcDbRegAppTableRecord
  2
GENIUS_GENODEF_13
 70
     0
  0
APPID
  5
38
330
1E
100
AcDbSymbolTableRecord
100
AcDbRegAppTableRecord
  2
GENIUS_GENOBJ-N-FIL_13
 70
     0
  0
APPID
  5
7C
330
1E
100
AcDbSymbolTableRecord
100
AcDbRegAppTableRecord
  2
GENIUS_GENREC_14
 70
     0
  0
APPID
  5
7D
330
1E
100
AcDbSymbolTableRecord
100
AcDbRegAppTableRecord
  2
GENIUS_GENOBJ-N-REC_13
 70
     0
  0
APPID
  5
D8
330
1E
100
AcDbSymbolTableRecord
100
AcDbRegAppTableRecord
  2
GENIUS_GENOBJ-N-CEN_13
 70
     0
  0
APPID
  5
3FF
330
1E
100
AcDbSymbolTableRecord
100
AcDbRegAppTableRecord
  2
MCAD_NO_VIS
 70
     0
  0
APPID
  5
400
330
1E
100
AcDbSymbolTableRecord
100
AcDbRegAppTableRecord
  2
ACAD_TEMP_GRAPHIC
 70
     0
  0
APPID
  5
409
330
1E
100
AcDbSymbolTableRecord
100
AcDbRegAppTableRecord
  2
AD_DRAW
 70
     0
  0
APPID
  5
40C
330
1E
100
AcDbSymbolTableRecord
100
AcDbRegAppTableRecord
  2
ACATTRIBSERVICES
 70
     0
  0
APPID
  5
424
330
1E
100
AcDbSymbolTableRecord
100
AcDbRegAppTableRecord
  2
DESIGNERASSEMBLIES
 70
     0
  0
APPID
  5
42B
330
1E
100
AcDbSymbolTableRecord
100
AcDbRegAppTableRecord
  2
ACADM_DIM_EDIT
 70
     0
  0
APPID
  5
42C
330
1E
100
AcDbSymbolTableRecord
100
AcDbRegAppTableRecord
  2
AMDT_DM_ADJ
 70
     0
  0
APPID
  5
455
330
1E
100
AcDbSymbolTableRecord
100
AcDbRegAppTableRecord
  2
GENIUS_GENDIM_13
 70
     0
  0
APPID
  5
456
330
1E
100
AcDbSymbolTableRecord
100
AcDbRegAppTableRecord
  2
GENIUS_GENDTOL_13
 70
     0
  0
APPID
  5
457
330
1E
100
AcDbSymbolTableRecord
100
AcDbRegAppTableRecord
  2
GENIUS_GE3DTOL_13
 70
     0
  0
APPID
  5
458
330
1E
100
AcDbSymbolTableRecord
100
AcDbRegAppTableRecord
  2
ASURF_PCURVE_APPNAME
 70
     0
  0
APPID
  5
459
330
1E
100
AcDbSymbolTableRecord
100
AcDbRegAppTableRecord
  2
AMG_3D2D_5.0
 70
     0
  0
APPID
  5
45A
330
1E
100
AcDbSymbolTableRecord
100
AcDbRegAppTableRecord
  2
GENIUS_GENCFG_13
 70
     0
1001
GENIUS_GENCFG0_13
1000
GEN
  0
APPID
  5
45B
330
1E
100
AcDbSymbolTableRecord
100
AcDbRegAppTableRecord
  2
GENIUS_GEVCFG0_13
 70
     0
  0
APPID
  5
45C
330
1E
100
AcDbSymbolTableRecord
100
AcDbRegAppTableRecord
  2
GENIUS_GENCFG0_13
 70
     0
1001
GENIUS_GENCFG_13
1071
1148366038
1000
45C
1000
GEN
1070
     0
  0
APPID
  5
45D
330
1E
100
AcDbSymbolTableRecord
100
AcDbRegAppTableRecord
  2
GENIUS_GENCFG1_13
 70
     0
  0
APPID
  5
45E
330
1E
100
AcDbSymbolTableRecord
100
AcDbRegAppTableRecord
  2
GENIUS_GENCFG2_13
 70
     0
  0
APPID
  5
45F
330
1E
100
AcDbSymbolTableRecord
100
AcDbRegAppTableRecord
  2
GENIUS_GENCFG3_13
 70
     0
  0
APPID
  5
460
330
1E
100
AcDbSymbolTableRecord
100
AcDbRegAppTableRecord
  2
GENIUS_GENCFG4_13
 70
     0
  0
APPID
  5
461
330
1E
100
AcDbSymbolTableRecord
100
AcDbRegAppTableRecord
  2
GENIUS_GEFCFG0_13
 70
     0
  0
APPID
  5
462
330
1E
100
AcDbSymbolTableRecord
100
AcDbRegAppTableRecord
  2
GENIUS_GENBLKED_14
 70
     0
  0
APPID
  5
463
330
1E
100
AcDbSymbolTableRecord
100
AcDbRegAppTableRecord
  2
GENIUS_GENBLLY_14
 70
     0
  0
APPID
  5
464
330
1E
100
AcDbSymbolTableRecord
100
AcDbRegAppTableRecord
  2
GENIUS_GENTRA_14
 70
     0
  0
APPID
  5
465
330
1E
100
AcDbSymbolTableRecord
100
AcDbRegAppTableRecord
  2
GENIUS_GENOBJ-N-TIT_13
 70
     0
  0
APPID
  5
466
330
1E
100
AcDbSymbolTableRecord
100
AcDbRegAppTableRecord
  2
GENIUS_GENTITLE_13
 70
     0
  0
APPID
  5
467
330
1E
100
AcDbSymbolTableRecord
100
AcDbRegAppTableRecord
  2
GENIUS_GENOENT_13
 70
     0
  0
APPID
  5
468
330
1E
100
AcDbSymbolTableRecord
100
AcDbRegAppTableRecord
  2
GENIUS_GENOREF_13
 70
     0
  0
APPID
  5
469
330
1E
100
AcDbSymbolTableRecord
100
AcDbRegAppTableRecord
  2
GENIUS_GENOLIS_13
 70
     0
  0
APPID
  5
46A
330
1E
100
AcDbSymbolTableRecord
100
AcDbRegAppTableRecord
  2
GENIUS_GENZVEED_13
 70
     0
  0
APPID
  5
46B
330
1E
100
AcDbSymbolTableRecord
100
AcDbRegAppTableRecord
  2
GENIUS_GENOBJ-N-SDF_13
 70
     0
  0
APPID
  5
46C
330
1E
100
AcDbSymbolTableRecord
100
AcDbRegAppTableRecord
  2
GENIUS_GENSCREG_13
 70
     0
  0
APPID
  5
46D
330
1E
100
AcDbSymbolTableRecord
100
AcDbRegAppTableRecord
  2
GENIUS_GENSCREG_15
 70
     0
  0
APPID
  5
46E
330
1E
100
AcDbSymbolTableRecord
100
AcDbRegAppTableRecord
  2
DCO15
 70
     0
  0
APPID
  5
46F
330
1E
100
AcDbSymbolTableRecord
100
AcDbRegAppTableRecord
  2
GENIUS_GENOBJ-N-HTC_13
 70
     0
  0
APPID
  5
470
330
1E
100
AcDbSymbolTableRecord
100
AcDbRegAppTableRecord
  2
GENIUS_GENHATCH_13
 70
     0
  0
APPID
  5
471
330
1E
100
AcDbSymbolTableRecord
100
AcDbRegAppTableRecord
  2
GENIUS_GENBH_13
 70
     0
  0
APPID
  5
472
330
1E
100
AcDbSymbolTableRecord
100
AcDbRegAppTableRecord
  2
GENIUS_GENOBJ-NBEHI-BHB_13
 70
     0
  0
APPID
  5
473
330
1E
100
AcDbSymbolTableRecord
100
AcDbRegAppTableRecord
  2
GENIUS_GENHINW_13
 70
     0
  0
APPID
  5
474
330
1E
100
AcDbSymbolTableRecord
100
AcDbRegAppTableRecord
  2
GENIUS_FIRSTVISTXT_14
 70
     0
  0
APPID
  5
475
330
1E
100
AcDbSymbolTableRecord
100
AcDbRegAppTableRecord
  2
GENIUS_GENOBJ-N-LEADER_13
 70
     0
  0
APPID
  5
476
330
1E
100
AcDbSymbolTableRecord
100
AcDbRegAppTableRecord
  2
GENIUS_SECONDVISTXT_14
 70
     0
  0
APPID
  5
477
330
1E
100
AcDbSymbolTableRecord
100
AcDbRegAppTableRecord
  2
GENIUS_GENOBJ-N-HINW_13
 70
     0
  0
APPID
  5
478
330
1E
100
AcDbSymbolTableRecord
100
AcDbRegAppTableRecord
  2
GENIUS_GEFWELD_13
 70
     0
  0
APPID
  5
479
330
1E
100
AcDbSymbolTableRecord
100
AcDbRegAppTableRecord
  2
GENIUS_GENOBJ-F-WEL_13
 70
     0
  0
APPID
  5
47A
330
1E
100
AcDbSymbolTableRecord
100
AcDbRegAppTableRecord
  2
GENIUS_GENOBJ-NBEHI-BHF_13
 70
     0
  0
APPID
  5
47B
330
1E
100
AcDbSymbolTableRecord
100
AcDbRegAppTableRecord
  2
GENIUS_GENOBJ-F-SCPASSM_13
 70
     0
  0
APPID
  5
47C
330
1E
100
AcDbSymbolTableRecord
100
AcDbRegAppTableRecord
  2
GENIUS_GENIUS_GENBHEDTMP_13
 70
     0
  0
APPID
  5
47D
330
1E
100
AcDbSymbolTableRecord
100
AcDbRegAppTableRecord
  2
GEVID1032351709
 70
     0
  0
APPID
  5
47E
330
1E
100
AcDbSymbolTableRecord
100
AcDbRegAppTableRecord
  2
GEVDC
 70
     0
  0
APPID
  5
47F
330
1E
100
AcDbSymbolTableRecord
100
AcDbRegAppTableRecord
  2
GENIUS_GENDIMSH_14
 70
     0
  0
APPID
  5
480
330
1E
100
AcDbSymbolTableRecord
100
AcDbRegAppTableRecord
  2
GEVID980252217
 70
     0
  0
APPID
  5
481
330
1E
100
AcDbSymbolTableRecord
100
AcDbRegAppTableRecord
  2
GEVPT
 70
     0
  0
APPID
  5
482
330
1E
100
AcDbSymbolTableRecord
100
AcDbRegAppTableRecord
  2
GEVIT
 70
     0
  0
APPID
  5
483
330
1E
100
AcDbSymbolTableRecord
100
AcDbRegAppTableRecord
  2
VCC
 70
     0
  0
APPID
  5
484
330
1E
100
AcDbSymbolTableRecord
100
AcDbRegAppTableRecord
  2
GENIUS_GENOBJ-F-PART_13
 70
     0
  0
APPID
  5
485
330
1E
100
AcDbSymbolTableRecord
100
AcDbRegAppTableRecord
  2
GENIUS_GEFSTDP_13
 70
     0
  0
APPID
  5
486
330
1E
100
AcDbSymbolTableRecord
100
AcDbRegAppTableRecord
  2
GENIUS_GEFPARTINS_13
 70
     0
  0
APPID
  5
487
330
1E
100
AcDbSymbolTableRecord
100
AcDbRegAppTableRecord
  2
GEVID980252219
 70
     0
  0
APPID
  5
488
330
1E
100
AcDbSymbolTableRecord
100
AcDbRegAppTableRecord
  2
GENBH
 70
     0
  0
APPID
  5
489
330
1E
100
AcDbSymbolTableRecord
100
AcDbRegAppTableRecord
  2
GENIUS_GENOBJ-F-WELS_13
 70
     0
  0
APPID
  5
48A
330
1E
100
AcDbSymbolTableRecord
100
AcDbRegAppTableRecord
  2
GENIUS_GENOBJ-N-CRS_13
 70
     0
  0
APPID
  5
48B
330
1E
100
AcDbSymbolTableRecord
100
AcDbRegAppTableRecord
  2
GEVID1036052968
 70
     0
  0
APPID
  5
48C
330
1E
100
AcDbSymbolTableRecord
100
AcDbRegAppTableRecord
  2
GEVID1036052969
 70
     0
  0
APPID
  5
48D
330
1E
100
AcDbSymbolTableRecord
100
AcDbRegAppTableRecord
  2
GEVID1036052971
 70
     0
  0
APPID
  5
48E
330
1E
100
AcDbSymbolTableRecord
100
AcDbRegAppTableRecord
  2
GENIUS_GENOBJ-N-DIM_13
 70
     0
  0
APPID
  5
653
330
1E
100
AcDbSymbolTableRecord
100
AcDbRegAppTableRecord
  2
ACAD_PSEXT
 70
     0
  0
APPID
  5
654
330
1E
100
AcDbSymbolTableRecord
100
AcDbRegAppTableRecord
  2
AcadAnnoPO
 70
     0
  0
APPID
  5
655
330
1E
100
AcDbSymbolTableRecord
100
AcDbRegAppTableRecord
  2
AcadAnnotative
 70
     0
  0
APPID
  5
656
330
1E
100
AcDbSymbolTableRecord
100
AcDbRegAppTableRecord
  2
ACAD_DSTYLE_DIMJAG
 70
     0
  0
APPID
  5
657
330
1E
100
AcDbSymbolTableRecord
100
AcDbRegAppTableRecord
  2
ACAD_DSTYLE_DIMTALN
 70
     0
  0
APPID
  5
658
330
1E
100
AcDbSymbolTableRecord
100
AcDbRegAppTableRecord
  2
ACAD_MLEADERVER
 70
     0
  0
ENDTAB
  0
TABLE
  2
DIMSTYLE
  5
20
330
0
100
AcDbSymbolTable
 70
    19
100
AcDbDimStyleTable
 71
     1
340
21
  0
DIMSTYLE
105
21
102
{ACAD_REACTORS
330
12F
330
13C
330
AD
102
}
330
20
100
AcDbSymbolTableRecord
100
AcDbDimStyleTableRecord
  2
AM_DIN
 70
     0
  4
"
 41
2.5
 42
1.0
 43
10.0
 44
1.0
 47
0.1
 48
0.1
 73
     0
 74
     0
 77
     1
 78
     8
 79
     2
140
3.5
141
0.0
143
0.0393701
146
0.71
147
1.5
172
     1
176
   256
177
   256
178
     2
271
     2
272
     3
274
     4
283
     0
284
     8
340
15
371
    -1
372
    -1
  0
DIMSTYLE
105
3B9
330
20
100
AcDbSymbolTableRecord
100
AcDbDimStyleTableRecord
  2
AM_DIN$3
 70
     0
  4
"
 41
2.5
 42
1.0
 43
10.0
 44
1.0
 47
0.1
 48
0.1
 73
     0
 77
     1
 78
     8
 79
     2
140
3.5
141
0.0
143
0.0393701
146
0.71
147
1.5
176
   256
177
   256
178
     2
271
     2
272
     3
274
     4
283
     0
284
     8
288
     1
289
     0
340
15
371
    -1
372
    -1
  0
DIMSTYLE
105
3BA
330
20
100
AcDbSymbolTableRecord
100
AcDbDimStyleTableRecord
  2
AM_DIN$4
 70
     0
  4
"
 41
2.5
 42
1.0
 43
10.0
 44
1.0
 47
0.1
 48
0.1
 73
     0
 77
     1
 78
     8
 79
     2
140
3.5
141
0.0
143
0.0393701
146
0.71
147
1.5
176
   256
177
   256
178
     2
271
     2
272
     3
274
     4
283
     0
284
     8
288
     1
289
     0
340
15
371
    -1
372
    -1
  0
DIMSTYLE
105
3BB
330
20
100
AcDbSymbolTableRecord
100
AcDbDimStyleTableRecord
  2
AM_DIN$6
 70
     0
  4
"
 41
2.5
 42
1.0
 43
10.0
 44
1.0
 47
0.1
 48
0.1
 73
     0
 74
     0
 78
     8
 79
     2
140
3.5
141
0.0
143
0.0393701
146
0.71
147
1.5
172
     1
176
   256
177
   256
178
     2
271
     2
272
     3
274
     4
283
     0
284
     8
340
15
371
    -1
372
    -1
  0
DIMSTYLE
105
3BC
330
20
100
AcDbSymbolTableRecord
100
AcDbDimStyleTableRecord
  2
AM_DIN$7
 70
     0
  4
"
 41
2.5
 42
1.0
 43
10.0
 44
1.0
 47
0.1
 48
0.1
 73
     0
 74
     0
 77
     1
 78
     8
 79
     2
140
5.0
141
0.0
143
0.0393701
146
0.71
147
1.5
172
     1
176
   256
177
   256
178
     2
271
     2
272
     3
274
     4
283
     0
284
     8
340
15
371
    -1
372
    -1
  0
DIMSTYLE
105
3BD
330
20
100
AcDbSymbolTableRecord
100
AcDbDimStyleTableRecord
  2
AM_DIN$SF
 70
     0
  4
"
 41
2.5
 42
1.0
 43
10.0
 44
1.0
 47
0.1
 48
0.1
 73
     0
 74
     0
 75
     1
 76
     1
 77
     1
 78
     8
 79
     2
140
3.5
141
0.0
143
0.0393701
146
0.71
147
1.5
172
     1
176
   256
177
   256
178
     2
271
     2
272
     3
274
     4
283
     0
284
     8
340
15
371
    -1
372
    -1
  0
DIMSTYLE
105
3BE
330
20
100
AcDbSymbolTableRecord
100
AcDbDimStyleTableRecord
  2
AM_DIN$SH
 70
     0
  4
"
 41
2.5
 42
1.0
 43
10.0
 44
1.0
 47
0.1
 48
0.1
 73
     0
 74
     0
 75
     1
 76
     1
 77
     1
 78
     8
 79
     2
140
3.5
141
0.0
143
0.0393701
144
2.0
146
0.71
147
1.5
172
     1
173
     1
176
   256
177
   256
178
     2
271
     2
272
     3
274
     4
283
     0
284
     8
340
15
343
3BF
371
    -1
372
    -1
  0
DIMSTYLE
105
3B8
330
20
100
AcDbSymbolTableRecord
100
AcDbDimStyleTableRecord
  2
AM_DIN$2
 70
     0
  4
"
 41
2.5
 42
0.0
 43
8.0
 44
1.0
 47
0.1
 48
0.1
 73
     0
 74
     0
 77
     1
 78
     8
 79
     2
140
3.0
141
0.0
143
0.0393701
146
0.71
147
0.6999999999999999
172
     1
176
   256
177
   256
178
     2
271
     2
272
     2
283
     0
284
     8
340
15
371
    -1
372
    -1
  0
DIMSTYLE
105
52C
330
20
100
AcDbSymbolTableRecord
100
AcDbDimStyleTableRecord
  2
AM_ISO
 70
     0
  4
"
 41
2.5
 42
1.0
 43
10.0
 44
1.0
 47
0.1
 48
0.1
 73
     0
 74
     0
 77
     1
 78
     8
 79
     2
140
3.5
141
0.0
143
0.0393701
146
0.71
147
1.5
172
     1
176
   256
177
   256
178
     2
271
     2
272
     3
274
     4
283
     0
284
     8
340
15
371
    -1
372
    -1
  0
DIMSTYLE
105
52D
330
20
100
AcDbSymbolTableRecord
100
AcDbDimStyleTableRecord
  2
AM_ISO$3
 70
     0
  4
"
 41
2.5
 42
1.0
 43
10.0
 44
1.0
 47
0.1
 48
0.1
 73
     0
 77
     1
 78
     8
 79
     2
140
3.5
141
0.0
143
0.0393701
146
0.71
147
1.5
176
   256
177
   256
178
     2
271
     2
272
     3
274
     4
283
     0
284
     8
288
     1
289
     0
340
15
371
    -1
372
    -1
  0
DIMSTYLE
105
52E
330
20
100
AcDbSymbolTableRecord
100
AcDbDimStyleTableRecord
  2
AM_ISO$4
 70
     0
  4
"
 41
2.5
 42
1.0
 43
10.0
 44
1.0
 47
0.1
 48
0.1
 73
     0
 77
     1
 78
     8
 79
     2
140
3.5
141
0.0
143
0.0393701
146
0.71
147
1.5
176
   256
177
   256
178
     2
271
     2
272
     3
274
     4
283
     0
284
     8
288
     1
289
     0
340
15
371
    -1
372
    -1
  0
DIMSTYLE
105
52F
330
20
100
AcDbSymbolTableRecord
100
AcDbDimStyleTableRecord
  2
AM_ISO$6
 70
     0
  4
"
 41
2.5
 42
1.0
 43
10.0
 44
1.0
 47
0.1
 48
0.1
 73
     0
 74
     0
 78
     8
 79
     2
140
3.5
141
0.0
143
0.0393701
146
0.71
147
1.5
172
     1
176
   256
177
   256
178
     2
271
     2
272
     3
274
     4
283
     0
284
     8
340
15
371
    -1
372
    -1
  0
DIMSTYLE
105
530
330
20
100
AcDbSymbolTableRecord
100
AcDbDimStyleTableRecord
  2
AM_ISO$7
 70
     0
  4
"
 41
2.5
 42
1.0
 43
10.0
 44
1.0
 47
0.1
 48
0.1
 73
     0
 74
     0
 77
     1
 78
     8
 79
     2
140
5.0
141
0.0
143
0.0393701
146
0.71
147
1.5
172
     1
176
   256
177
   256
178
     2
271
     2
272
     3
274
     4
283
     0
284
     8
340
15
371
    -1
372
    -1
  0
DIMSTYLE
105
531
330
20
100
AcDbSymbolTableRecord
100
AcDbDimStyleTableRecord
  2
AM_ISO$SF
 70
     0
  4
"
 41
2.5
 42
1.0
 43
10.0
 44
1.0
 47
0.1
 48
0.1
 73
     0
 74
     0
 75
     1
 76
     1
 77
     1
 78
     8
 79
     2
140
3.5
141
0.0
143
0.0393701
146
0.71
147
1.5
172
     1
176
   256
177
   256
178
     2
271
     2
272
     3
274
     4
283
     0
284
     8
340
15
371
    -1
372
    -1
  0
DIMSTYLE
105
532
330
20
100
AcDbSymbolTableRecord
100
AcDbDimStyleTableRecord
  2
AM_ISO$SH
 70
     0
  4
"
 41
2.5
 42
1.0
 43
10.0
 44
1.0
 47
0.1
 48
0.1
 73
     0
 74
     0
 75
     1
 76
     1
 77
     1
 78
     8
 79
     2
140
3.5
141
0.0
143
0.0393701
144
2.0
146
0.71
147
1.5
172
     1
173
     1
176
   256
177
   256
178
     2
271
     2
272
     3
274
     4
283
     0
284
     8
340
15
343
3BF
371
    -1
372
    -1
  0
DIMSTYLE
105
650
330
20
100
AcDbSymbolTableRecord
100
AcDbDimStyleTableRecord
  2
Standard
 70
     0
340
15
  0
DIMSTYLE
105
651
330
20
100
AcDbSymbolTableRecord
100
AcDbDimStyleTableRecord
  2
Opisowy
 70
     0
 40
0.0
 41
2.5
 42
0.625
 43
3.75
 44
1.25
 73
     0
 74
     0
 77
     1
 78
     8
140
2.5
141
2.5
143
0.03937007874016
147
0.625
171
     3
172
     1
271
     2
272
     2
274
     3
278
    44
283
     0
284
     8
340
15
1001
AcadAnnotative
1000
AnnotativeData
1002
{
1070
     1
1070
     1
1002
}
1001
ACAD_DSTYLE_DIMJAG
1070
   388
1040
1.5
1001
ACAD_DSTYLE_DIMTALN
1070
   392
1070
     0
  0
DIMSTYLE
105
652
330
20
100
AcDbSymbolTableRecord
100
AcDbDimStyleTableRecord
  2
ISO-25
 70
     0
 41
2.5
 42
0.625
 43
3.75
 44
1.25
 73
     0
 74
     0
 77
     1
 78
     8
140
2.5
141
2.5
143
0.03937007874016
147
0.625
171
     3
172
     1
271
     2
272
     2
274
     3
278
    44
283
     0
284
     8
340
15
  0
ENDTAB
  0
TABLE
  2
BLOCK_RECORD
  5
1
330
0
100
AcDbSymbolTable
 70
     6
  0
BLOCK_RECORD
  5
2
102
{ACAD_XDICTIONARY
360
3
102
}
330
1
100
AcDbSymbolTableRecord
100
AcDbBlockTableRecord
  2
*Model_Space
340
C
  0
BLOCK_RECORD
  5
F
330
1
100
AcDbSymbolTableRecord
100
AcDbBlockTableRecord
  2
*Paper_Space
340
12
  0
BLOCK_RECORD
  5
3BF
330
1
100
AcDbSymbolTableRecord
100
AcDbBlockTableRecord
  2
GENAXEH
340
0
  0
BLOCK_RECORD
  5
AF
330
1
100
AcDbSymbolTableRecord
100
AcDbBlockTableRecord
  2
*D1
340
0
  0
BLOCK_RECORD
  5
130
330
1
100
AcDbSymbolTableRecord
100
AcDbBlockTableRecord
  2
*D2
340
0
  0
BLOCK_RECORD
  5
13D
330
1
100
AcDbSymbolTableRecord
100
AcDbBlockTableRecord
  2
*D3
340
0
  0
ENDTAB
  0
ENDSEC
  0
SECTION
  2
BLOCKS
  0
BLOCK
  5
5
330
2
100
AcDbEntity
  8
0
100
AcDbBlockBegin
  2
*Model_Space
 70
     0
 10
0.0
 20
0.0
 30
0.0
  3
*Model_Space
  1

  0
ENDBLK
  5
B
330
2
100
AcDbEntity
  8
0
100
AcDbBlockEnd
  0
BLOCK
  5
10
330
F
100
AcDbEntity
 67
     1
  8
0
100
AcDbBlockBegin
  2
*Paper_Space
 70
     0
 10
0.0
 20
0.0
 30
0.0
  3
*Paper_Space
  1

  0
ENDBLK
  5
11
330
F
100
AcDbEntity
 67
     1
  8
0
100
AcDbBlockEnd
  0
BLOCK
  5
5D2
330
3BF
100
AcDbEntity
  8
0
100
AcDbBlockBegin
  2
GENAXEH
 70
     0
 10
0.0
 20
0.0
 30
0.0
  3
GENAXEH
  1

  0
LINE
  5
5D3
330
3BF
100
AcDbEntity
  8
0
100
AcDbLine
 10
-1.0
 20
0.0
 30
0.0
 11
1.0
 21
0.0
 31
0.0
  0
ENDBLK
  5
5D4
330
3BF
100
AcDbEntity
  8
0
100
AcDbBlockEnd
  0
BLOCK
  5
B0
330
AF
100
AcDbEntity
  8
0
100
AcDbBlockBegin
  2
*D1
 70
     1
 10
0.0
 20
0.0
 30
0.0
  3
*D1
  1

  0
LINE
  5
B1
330
AF
100
AcDbEntity
  8
AM_5
100
AcDbLine
 10
188.1152214172791
 20
488.1038447513612
 30
0.0
 11
188.1152214172791
 21
471.0980566614844
 31
0.0
  0
LINE
  5
B2
330
AF
100
AcDbEntity
  8
AM_5
100
AcDbLine
 10
214.5552214172786
 20
488.1038447513612
 30
0.0
 11
214.5552214172786
 21
471.0980566614844
 31
0.0
  0
LINE
  5
B3
330
AF
100
AcDbEntity
  8
AM_5
100
AcDbLine
 10
190.6152214172791
 20
472.0980566614845
 30
0.0
 11
212.0552214172787
 21
472.0980566614845
 31
0.0
  0
LINE
  5
B4
330
AF
100
AcDbEntity
  8
AM_5
100
AcDbLine
 10
214.5552214172786
 20
472.0980566614845
 30
0.0
 11
263.7141048937619
 21
472.0980566614845
 31
0.0
  0
SOLID
  5
B5
330
AF
100
AcDbEntity
  8
AM_5
100
AcDbTrace
 10
190.6152214172791
 20
472.5147233281511
 30
0.0
 11
190.6152214172791
 21
471.6813899948179
 31
0.0
 12
188.1152214172791
 22
472.0980566614845
 32
0.0
 13
188.1152214172791
 23
472.0980566614845
 33
0.0
  0
SOLID
  5
B6
330
AF
100
AcDbEntity
  8
AM_5
100
AcDbTrace
 10
212.0552214172787
 20
472.5147233281511
 30
0.0
 11
212.0552214172787
 21
471.6813899948179
 31
0.0
 12
214.5552214172786
 22
472.0980566614845
 32
0.0
 13
214.5552214172786
 23
472.0980566614845
 33
0.0
  0
MTEXT
  5
B7
330
AF
100
AcDbEntity
  8
AM_5
 62
     2
100
AcDbMText
 10
240.3846631555203
 20
475.3069401379678
 30
0.0
 40
5.0
 41
0.0
 71
     5
 72
     1
  1
G 3/4 - ISO 228
 73
     1
 44
1.0
  0
POINT
  5
B8
330
AF
100
AcDbEntity
  8
DEFPOINTS
 62
     0
100
AcDbPoint
 10
188.1152214172791
 20
488.1038447513612
 30
0.0
  0
POINT
  5
BA
330
AF
100
AcDbEntity
  8
DEFPOINTS
 62
     0
100
AcDbPoint
 10
214.5552214172786
 20
488.1038447513612
 30
0.0
  0
POINT
  5
BB
330
AF
100
AcDbEntity
  8
DEFPOINTS
 62
     0
100
AcDbPoint
 10
214.5552214172786
 20
472.0980566614845
 30
0.0
  0
ENDBLK
  5
BC
330
AF
100
AcDbEntity
  8
0
100
AcDbBlockEnd
  0
BLOCK
  5
131
330
130
100
AcDbEntity
  8
0
100
AcDbBlockBegin
  2
*D2
 70
     1
 10
0.0
 20
0.0
 30
0.0
  3
*D2
  1

  0
LINE
  5
132
330
130
100
AcDbEntity
  8
AM_5
100
AcDbLine
 10
135.3352214172797
 20
640.2372080227337
 30
0.0
 11
135.3352214172797
 21
758.0376096684763
 31
0.0
  0
LINE
  5
133
330
130
100
AcDbEntity
  8
AM_5
100
AcDbLine
 10
267.3352214172798
 20
640.2372080227356
 30
0.0
 11
267.3352214172798
 21
758.0376096684763
 31
0.0
  0
LINE
  5
134
330
130
100
AcDbEntity
  8
AM_5
100
AcDbLine
 10
137.8352214172797
 20
757.0376096684762
 30
0.0
 11
264.8352214172797
 21
757.0376096684762
 31
0.0
  0
SOLID
  5
135
330
130
100
AcDbEntity
  8
AM_5
100
AcDbTrace
 10
137.8352214172797
 20
757.4542763351428
 30
0.0
 11
137.8352214172797
 21
756.6209430018097
 31
0.0
 12
135.3352214172797
 22
757.0376096684762
 32
0.0
 13
135.3352214172797
 23
757.0376096684762
 33
0.0
  0
SOLID
  5
136
330
130
100
AcDbEntity
  8
AM_5
100
AcDbTrace
 10
264.8352214172797
 20
757.4542763351428
 30
0.0
 11
264.8352214172797
 21
756.6209430018097
 31
0.0
 12
267.3352214172798
 22
757.0376096684762
 32
0.0
 13
267.3352214172798
 23
757.0376096684762
 33
0.0
  0
MTEXT
  5
137
330
130
100
AcDbEntity
  8
AM_5
 62
     2
100
AcDbMText
 10
201.3352214172797
 20
760.2381017944606
 30
0.0
 40
5.0
 41
0.0
 71
     5
 72
     1
  1
%%c132
 73
     1
 44
1.0
  0
POINT
  5
138
330
130
100
AcDbEntity
  8
DEFPOINTS
 62
     0
100
AcDbPoint
 10
135.3352214172797
 20
640.2372080227337
 30
0.0
  0
POINT
  5
139
330
130
100
AcDbEntity
  8
DEFPOINTS
 62
     0
100
AcDbPoint
 10
267.3352214172798
 20
640.2372080227356
 30
0.0
  0
POINT
  5
13A
330
130
100
AcDbEntity
  8
DEFPOINTS
 62
     0
100
AcDbPoint
 10
267.3352214172798
 20
757.0376096684762
 30
0.0
  0
ENDBLK
  5
13B
330
130
100
AcDbEntity
  8
0
100
AcDbBlockEnd
  0
BLOCK
  5
13E
330
13D
100
AcDbEntity
  8
0
100
AcDbBlockBegin
  2
*D3
 70
     1
 10
0.0
 20
0.0
 30
0.0
  3
*D3
  1

  0
LINE
  5
13F
330
13D
100
AcDbEntity
  8
AM_5
100
AcDbLine
 10
204.7060606495487
 20
746.3798695295736
 30
0.0
 11
121.8290996244969
 21
746.3798695295736
 31
0.0
  0
LINE
  5
140
330
13D
100
AcDbEntity
  8
AM_5
100
AcDbLine
 10
201.3352214172794
 20
486.5692588303024
 30
0.0
 11
121.8290996244968
 21
486.5692588303024
 31
0.0
  0
LINE
  5
141
330
13D
100
AcDbEntity
  8
AM_5
100
AcDbLine
 10
122.8290996244969
 20
743.8798695295736
 30
0.0
 11
122.8290996244968
 21
489.0692588303022
 31
0.0
  0
SOLID
  5
142
330
13D
100
AcDbEntity
  8
AM_5
100
AcDbTrace
 10
122.4124329578302
 20
743.8798695295736
 30
0.0
 11
123.2457662911635
 21
743.8798695295736
 31
0.0
 12
122.8290996244969
 22
746.3798695295736
 32
0.0
 13
122.8290996244969
 23
746.3798695295736
 33
0.0
  0
SOLID
  5
143
330
13D
100
AcDbEntity
  8
AM_5
100
AcDbTrace
 10
122.4124329578301
 20
489.0692588303022
 30
0.0
 11
123.2457662911635
 21
489.0692588303022
 31
0.0
 12
122.8290996244968
 22
486.5692588303024
 32
0.0
 13
122.8290996244968
 23
486.5692588303024
 33
0.0
  0
MTEXT
  5
144
330
13D
100
AcDbEntity
  8
AM_5
 62
     2
100
AcDbMText
 10
119.6286074985125
 20
616.4745641799379
 30
0.0
 40
5.0
 41
0.0
 71
     5
 72
     1
  1
260
 11
0.0000000000000001
 21
1.0
 31
0.0
 73
     1
 44
1.0
  0
POINT
  5
145
330
13D
100
AcDbEntity
  8
DEFPOINTS
 62
     0
100
AcDbPoint
 10
204.7060606495487
 20
746.3798695295736
 30
0.0
  0
POINT
  5
146
330
13D
100
AcDbEntity
  8
DEFPOINTS
 62
     0
100
AcDbPoint
 10
201.3352214172794
 20
486.5692588303024
 30
0.0
  0
POINT
  5
147
330
13D
100
AcDbEntity
  8
DEFPOINTS
 62
     0
100
AcDbPoint
 10
122.8290996244968
 20
486.5692588303024
 30
0.0
  0
ENDBLK
  5
148
330
13D
100
AcDbEntity
  8
0
100
AcDbBlockEnd
  0
ENDSEC
  0
SECTION
  2
ENTITIES
  0
ARC
  5
8E
330
2
100
AcDbEntity
  8
AM_0
100
AcDbCircle
 10
201.3352214172795
 20
655.7192588303022
 30
0.0
 40
66.0
100
AcDbArc
 50
104.3898831641046
 51
180.0000000000009
  0
ARC
  5
8F
330
2
100
AcDbEntity
  8
AM_0
100
AcDbCircle
 10
243.0852214172794
 20
527.3175651553835
 30
0.0
 40
1.0
100
AcDbArc
 50
128.5453827528697
 51
180.0
1001
GENIUS_GENODEF_13
1002
{
1000
HIER
1070
     0
1002
}
1002
{
1000
MANEDIT
1070
     0
1002
}
1002
{
1000
NOSEL
1070
     0
1002
}
1002
{
1000
BEHIND
1070
     0
1002
}
1002
{
1000
OTHER
1070
     0
1002
}
1002
{
1000
REACTOR
1002
}
1001
GENIUS_GENOBJ-N-FIL_13
1002
{
1000
OWNER
1000
GEN
1002
}
  0
ARC
  5
90
330
2
100
AcDbEntity
  8
AM_0
100
AcDbCircle
 10
201.3352214172798
 20
579.7192588303022
 30
0.0
 40
66.0
100
AcDbArc
 50
308.5453827528689
 51
359.9999999999988
  0
ARC
  5
91
330
2
100
AcDbEntity
  8
AM_0
100
AcDbCircle
 10
159.5852214172794
 20
527.3175651553839
 30
0.0
 40
1.0
100
AcDbArc
 50
359.999999999987
 51
51.45461724712849
1001
GENIUS_GENOBJ-N-FIL_13
1002
{
1000
OWNER
1000
GEN
1002
}
1001
GENIUS_GENODEF_13
1002
{
1000
HIER
1070
     0
1002
}
1002
{
1000
MANEDIT
1070
     0
1002
}
1002
{
1000
NOSEL
1070
     0
1002
}
1002
{
1000
BEHIND
1070
     0
1002
}
1002
{
1000
OTHER
1070
     0
1002
}
1002
{
1000
REACTOR
1002
}
  0
LINE
  5
93
330
2
100
AcDbEntity
  8
AM_0
100
AcDbLine
 10
266.6031706097105
 20
622.6833604454403
 30
0.0
 11
266.9332976286332
 21
623.2551572151658
 31
0.0
  0
ARC
  5
94
330
2
100
AcDbEntity
  8
AM_0
100
AcDbCircle
 10
268.3352214172793
 20
621.6833604454402
 30
0.0
 40
2.0
100
AcDbArc
 50
150.0
 51
180.0000000000065
1001
GENIUS_GENOBJ-N-FIL_13
1002
{
1000
OWNER
1000
GEN
1002
}
1001
GENIUS_GENODEF_13
1002
{
1000
HIER
1070
     0
1002
}
1002
{
1000
MANEDIT
1070
     0
1002
}
1002
{
1000
NOSEL
1070
     0
1002
}
1002
{
1000
BEHIND
1070
     0
1002
}
1002
{
1000
OTHER
1070
     0
1002
}
1002
{
1000
REACTOR
1002
}
  0
LINE
  5
95
330
2
100
AcDbEntity
  8
AM_0
100
AcDbLine
 10
266.3352214172794
 20
621.7192588303022
 30
0.0
 11
266.3352214172793
 21
621.68336044544
 31
0.0
  0
ARC
  5
96
330
2
100
AcDbEntity
  8
AM_0
100
AcDbCircle
 10
264.33522141728
 20
624.7551572151658
 30
0.0
 40
3.0
100
AcDbArc
 50
330.0000000000001
 51
0.0000000000009033
1001
GENIUS_GENOBJ-N-FIL_13
1002
{
1000
OWNER
1000
GEN
1002
}
1001
GENIUS_GENODEF_13
1002
{
1000
HIER
1070
     0
1002
}
1002
{
1000
MANEDIT
1070
     0
1002
}
1002
{
1000
NOSEL
1070
     0
1002
}
1002
{
1000
BEHIND
1070
     0
1002
}
1002
{
1000
OTHER
1070
     0
1002
}
1002
{
1000
REACTOR
1002
}
  0
LINE
  5
97
330
2
100
AcDbEntity
  8
AM_0
100
AcDbLine
 10
267.3352214172794
 20
579.7192588303022
 30
0.0
 11
267.3352214172794
 21
621.7192588303022
 31
0.0
  0
LINE
  5
98
330
2
100
AcDbEntity
  8
AM_0
100
AcDbLine
 10
267.3352214172794
 20
621.7192588303022
 30
0.0
 11
135.3352214172794
 21
621.7192588303022
 31
0.0
  0
ARC
  5
99
330
2
100
AcDbEntity
  8
AM_0
100
AcDbCircle
 10
134.3352214172801
 20
621.6833604454392
 30
0.0
 40
2.0
100
AcDbArc
 50
1.028468201235761
 51
30.00000000000071
1001
GENIUS_GENOBJ-N-FIL_13
1002
{
1000
OWNER
1000
GEN
1002
}
1001
GENIUS_GENODEF_13
1002
{
1000
HIER
1070
     0
1002
}
1002
{
1000
MANEDIT
1070
     0
1002
}
1002
{
1000
NOSEL
1070
     0
1002
}
1002
{
1000
BEHIND
1070
     0
1002
}
1002
{
1000
OTHER
1070
     0
1002
}
1002
{
1000
REACTOR
1002
}
  0
LINE
  5
9A
330
2
100
AcDbEntity
  8
AM_0
100
AcDbLine
 10
136.0672722248489
 20
622.6833604454395
 30
0.0
 11
135.7371452059261
 21
623.255157215165
 31
0.0
  0
ARC
  5
9B
330
2
100
AcDbEntity
  8
AM_0
100
AcDbCircle
 10
138.3352214172794
 20
624.755157215165
 30
0.0
 40
3.0
100
AcDbArc
 50
179.9999999999998
 51
210.0000000000006
1001
GENIUS_GENOBJ-N-FIL_13
1002
{
1000
OWNER
1000
GEN
1002
}
1001
GENIUS_GENODEF_13
1002
{
1000
HIER
1070
     0
1002
}
1002
{
1000
MANEDIT
1070
     0
1002
}
1002
{
1000
NOSEL
1070
     0
1002
}
1002
{
1000
BEHIND
1070
     0
1002
}
1002
{
1000
OTHER
1070
     0
1002
}
1002
{
1000
REACTOR
1002
}
  0
LINE
  5
9C
330
2
100
AcDbEntity
  8
AM_0
100
AcDbLine
 10
135.3352214172794
 20
579.7192588303022
 30
0.0
 11
135.3352214172794
 21
621.7192588303022
 31
0.0
  0
ARC
  5
9D
330
2
100
AcDbEntity
  8
AM_0
100
AcDbCircle
 10
201.3352214172794
 20
579.7192588303022
 30
0.0
 40
66.0
100
AcDbArc
 50
180.0
 51
231.4546172471307
  0
ARC
  5
9E
330
2
100
AcDbEntity
  8
AM_0
100
AcDbCircle
 10
201.3352214172795
 20
655.7192588303022
 30
0.0
 40
66.0
100
AcDbArc
 50
0.0000000000009019
 51
75.61011683589538
  0
LINE
  5
9F
330
2
100
AcDbEntity
  8
AM_0
100
AcDbLine
 10
267.3352214172795
 20
655.7192588303023
 30
0.0
 11
267.33522141728
 21
624.7551572151658
 31
0.0
  0
LINE
  5
A0
330
2
100
AcDbEntity
  8
AM_0
100
AcDbLine
 10
135.3352214172795
 20
655.7192588303022
 30
0.0
 11
135.33522141728
 21
624.755157215165
 31
0.0
  0
ARC
  5
A1
330
2
100
AcDbEntity
  8
AM_0
100
AcDbCircle
 10
246.0852214172794
 20
516.2192588303025
 30
0.0
 40
3.0
100
AcDbArc
 50
279.708460153654
 51
0.0
1001
GENIUS_GENODEF_13
1002
{
1000
HIER
1070
     0
1002
}
1002
{
1000
MANEDIT
1070
     0
1002
}
1002
{
1000
NOSEL
1070
     0
1002
}
1002
{
1000
BEHIND
1070
     0
1002
}
1002
{
1000
REACTOR
1002
}
1001
GENIUS_GENOBJ-N-FIL_13
1002
{
1000
OWNER
1000
GEN
1002
}
  0
ARC
  5
A2
330
2
100
AcDbEntity
  8
AM_0
100
AcDbCircle
 10
246.9283960386495
 20
511.2908659322194
 30
0.0
 40
2.0
100
AcDbArc
 50
99.70846015365401
 51
128.216517795502
1001
GENIUS_GENODEF_13
1002
{
1000
HIER
1070
     0
1002
}
1002
{
1000
MANEDIT
1070
     0
1002
}
1002
{
1000
NOSEL
1070
     0
1002
}
1002
{
1000
BEHIND
1070
     0
1002
}
1002
{
1000
REACTOR
1002
}
1001
GENIUS_GENOBJ-N-FIL_13
1002
{
1000
OWNER
1000
GEN
1002
}
  0
LINE
  5
A3
330
2
100
AcDbEntity
  8
AM_4
100
AcDbLine
 10
213.1275620332829
 20
486.6761853673652
 30
0.0
 11
213.1275620332829
 21
512.2194659737601
 31
0.0
  0
LINE
  5
A5
330
2
100
AcDbEntity
  8
AM_0
100
AcDbLine
 10
212.5552214172786
 20
486.5692588303024
 30
0.0
 11
212.5552214172786
 21
512.2194659737601
 31
0.0
  0
LINE
  5
A6
330
2
100
AcDbEntity
  8
AM_0
100
AcDbLine
 10
214.5552214172786
 20
488.1038447513612
 30
0.0
 11
214.5552214172786
 21
512.2194659737601
 31
0.0
  0
LINE
  5
A7
330
2
100
AcDbEntity
  8
AM_4
100
AcDbLine
 10
189.5428808012749
 20
486.6761853673652
 30
0.0
 11
189.5428808012749
 21
512.2194659737601
 31
0.0
  0
ARC
  5
A8
330
2
100
AcDbEntity
  8
AM_0
100
AcDbCircle
 10
155.7420467959093
 20
511.2908659322194
 30
0.0
 40
2.0
100
AcDbArc
 50
51.78348220449803
 51
80.29153984634602
1001
GENIUS_GENODEF_13
1002
{
1000
HIER
1070
     0
1002
}
1002
{
1000
MANEDIT
1070
     0
1002
}
1002
{
1000
NOSEL
1070
     0
1002
}
1002
{
1000
BEHIND
1070
     0
1002
}
1002
{
1000
REACTOR
1002
}
1001
GENIUS_GENOBJ-N-FIL_13
1002
{
1000
OWNER
1000
GEN
1002
}
  0
ARC
  5
A9
330
2
100
AcDbEntity
  8
AM_0
100
AcDbCircle
 10
156.5852214172794
 20
516.2192588303025
 30
0.0
 40
3.0
100
AcDbArc
 50
180.0
 51
260.291539846346
1001
GENIUS_GENODEF_13
1002
{
1000
HIER
1070
     0
1002
}
1002
{
1000
MANEDIT
1070
     0
1002
}
1002
{
1000
NOSEL
1070
     0
1002
}
1002
{
1000
BEHIND
1070
     0
1002
}
1002
{
1000
REACTOR
1002
}
1001
GENIUS_GENOBJ-N-FIL_13
1002
{
1000
OWNER
1000
GEN
1002
}
  0
LINE
  5
AA
330
2
100
AcDbEntity
  8
AM_0
100
AcDbLine
 10
188.1152214172791
 20
488.1038447513612
 30
0.0
 11
188.1152214172792
 21
512.2194659737601
 31
0.0
  0
LINE
  5
AB
330
2
100
AcDbEntity
  8
AM_0
100
AcDbLine
 10
190.1152214172791
 20
486.5692588303024
 30
0.0
 11
190.1152214172791
 21
512.2194659737601
 31
0.0
  0
ARC
  5
AC
330
2
100
AcDbEntity
  8
AM_0
100
AcDbCircle
 10
243.8352214172794
 20
515.2192588303022
 30
0.0
 40
3.0
100
AcDbArc
 50
269.3266899255939
 51
308.216517795502
  0
DIMENSION
  5
AD
330
2
100
AcDbEntity
  8
AM_5
100
AcDbDimension
  2
*D1
 10
214.5552214172786
 20
472.0980566614845
 30
0.0
 11
240.3846631555203
 21
472.0980566614845
 31
0.0
 70
   128
  1
G 3/4 - ISO 228
 71
     5
 42
26.4399999999996
  3
AM_DIN
100
AcDbAlignedDimension
 13
188.1152214172791
 23
488.1038447513612
 33
0.0
 14
214.5552214172786
 24
488.1038447513612
 34
0.0
100
AcDbRotatedDimension
1001
ACAD
1000
DSTYLE
1002
{
1070
    47
1040
5.0
1070
    48
1040
5.0
1070
   140
1040
5.0
1070
   271
1070
     0
1002
}
  0
LINE
  5
BD
330
2
100
AcDbEntity
  8
AM_0
100
AcDbLine
 10
243.8704750389391
 20
512.2194659737601
 30
0.0
 11
158.7999677956196
 21
512.2194659737601
 31
0.0
  0
ARC
  5
BE
330
2
100
AcDbEntity
  8
AM_0
100
AcDbCircle
 10
158.8352214172794
 20
515.2192588303022
 30
0.0
 40
3.0
100
AcDbArc
 50
231.783482204498
 51
270.6733100744064
  0
LINE
  5
BF
330
2
100
AcDbEntity
  8
AM_0
100
AcDbLine
 10
189.6498073383384
 20
486.5692588303024
 30
0.0
 11
188.1152214172791
 21
488.1038447513612
 31
0.0
  0
LINE
  5
C0
330
2
100
AcDbEntity
  8
AM_0
100
AcDbLine
 10
213.0206354962204
 20
486.5692588303024
 30
0.0
 11
214.5552214172786
 21
488.1038447513612
 31
0.0
  0
ARC
  5
C1
330
2
100
AcDbEntity
  8
AM_0
100
AcDbCircle
 10
157.8352214172785
 20
520.0192588303026
 30
0.0
 40
4.25
100
AcDbArc
 50
90.0
 51
180.0
  0
LINE
  5
C2
330
2
100
AcDbEntity
  8
AM_0
100
AcDbLine
 10
153.5852214172794
 20
520.0192588303026
 30
0.0
 11
153.5852214172794
 21
516.2192588303025
 31
0.0
  0
LINE
  5
C3
330
2
100
AcDbEntity
  8
AM_0
100
AcDbLine
 10
160.5852214172787
 20
524.2692588303026
 30
0.0
 11
160.5852214172794
 21
527.3175651553835
 31
0.0
  0
LINE
  5
C4
330
2
100
AcDbEntity
  8
AM_0
100
AcDbLine
 10
159.5852214172785
 20
524.2692588303026
 30
0.0
 11
157.8352214172785
 21
524.2692588303026
 31
0.0
  0
LINE
  5
C5
330
2
100
AcDbEntity
  8
AM_0
100
AcDbLine
 10
242.0852214172794
 20
524.2692588303026
 30
0.0
 11
242.0852214172794
 21
527.3175651553835
 31
0.0
  0
ARC
  5
C6
330
2
100
AcDbEntity
  8
AM_0
100
AcDbCircle
 10
244.8352214172794
 20
520.0192588303026
 30
0.0
 40
4.25
100
AcDbArc
 50
0.0
 51
90.0
  0
LINE
  5
C7
330
2
100
AcDbEntity
  8
AM_0
100
AcDbLine
 10
246.0712893947786
 20
513.2192588303022
 30
0.0
 11
246.0852214172794
 21
513.2192588303022
 31
0.0
  0
LINE
  5
C8
330
2
100
AcDbEntity
  8
AM_0
100
AcDbLine
 10
249.0852214172794
 20
520.0192588303026
 30
0.0
 11
249.0852214172794
 21
516.2192588303025
 31
0.0
  0
LINE
  5
C9
330
2
100
AcDbEntity
  8
AM_0
100
AcDbLine
 10
157.8352214172785
 20
524.2692588303026
 30
0.0
 11
244.8352214172794
 21
524.2692588303026
 31
0.0
  0
ARC
  5
CA
330
2
100
AcDbEntity
  8
AM_0
100
AcDbCircle
 10
198.1241556844733
 20
741.3798695295736
 30
0.0
 40
5.0
100
AcDbArc
 50
90.0
 51
151.411916032563
  0
LINE
  5
CB
330
2
100
AcDbEntity
  8
AM_0
100
AcDbLine
 10
193.7337431249696
 20
743.7724157793559
 30
0.0
 11
180.671902767628
 21
721.1486446400861
 31
0.0
  0
ARC
  5
CC
330
2
100
AcDbEntity
  8
AM_0
100
AcDbCircle
 10
181.5379281714121
 20
720.6486446400862
 30
0.0
 40
1.0
100
AcDbArc
 50
149.9999999999914
 51
270.0
  0
LINE
  5
CD
330
2
100
AcDbEntity
  8
AM_0
100
AcDbLine
 10
181.5379281714121
 20
719.6486446400862
 30
0.0
 11
221.1325146631451
 21
719.6486446400862
 31
0.0
  0
LINE
  5
CE
330
2
100
AcDbEntity
  8
AM_0
100
AcDbLine
 10
208.9366997095875
 20
743.7724157793559
 30
0.0
 11
221.9985400669292
 21
721.1486446400861
 31
0.0
  0
ARC
  5
CF
330
2
100
AcDbEntity
  8
AM_0
100
AcDbCircle
 10
204.5462871500839
 20
741.3798695295736
 30
0.0
 40
5.0
100
AcDbArc
 50
28.588083967437
 51
90.0
  0
LINE
  5
D0
330
2
100
AcDbEntity
  8
AM_0
100
AcDbLine
 10
197.9643821850085
 20
746.3798695295736
 30
0.0
 11
204.7060606495487
 21
746.3798695295736
 31
0.0
  0
ARC
  5
D1
330
2
100
AcDbEntity
  8
AM_0
100
AcDbCircle
 10
221.1325146631451
 20
720.6486446400862
 30
0.0
 40
1.0
100
AcDbArc
 50
270.0
 51
30.00000000000853
  0
LWPOLYLINE
  5
D2
330
2
100
AcDbEntity
  8
AM_0
100
AcDbPolyline
 90
        2
 70
     0
 43
0.0
 10
189.6498073383384
 20
486.5692588303024
 10
213.0206354962204
 20
486.5692588303024
  0
LINE
  5
D3
330
2
100
AcDbEntity
  8
AM_0
100
AcDbLine
 10
188.1152214172791
 20
488.1038447513612
 30
0.0
 11
214.5552214172786
 21
488.1038447513612
 31
0.0
  0
LINE
  5
D4
330
2
100
AcDbEntity
  8
AM_0
100
AcDbLine
 10
156.0793166444584
 20
513.2622230914523
 30
0.0
 11
246.0712893947786
 21
513.2192588303022
 31
0.0
  0
LINE
  5
D5
330
2
100
AcDbEntity
  8
AM_7
100
AcDbLine
 10
201.3352214172786
 20
748.3798695295736
 30
0.0
 11
201.3352214172794
 21
484.5692588303021
 31
0.0
1001
GENIUS_GENOBJ-N-CEN_13
1002
{
1000
OWNER
1000
GEN
1002
}
1001
GENIUS_GENODEF_13
1002
{
1000
HIER
1070
     0
1002
}
1002
{
1000
MANEDIT
1070
     0
1002
}
1002
{
1000
NOSEL
1070
     0
1002
}
1002
{
1000
BEHIND
1070
     0
1002
}
1002
{
1000
OTHER
1070
     0
1002
}
1002
{
1000
REACTOR
1002
}
  0
LINE
  5
DA
330
2
100
AcDbEntity
  8
AM_7
100
AcDbLine
 10
412.7854926660942
 20
693.6943670313906
 30
0.0
 11
412.7854926660942
 21
596.1943670313906
 31
0.0
  0
LINE
  5
DB
330
2
100
AcDbEntity
  8
AM_7
100
AcDbLine
 10
461.5354926660942
 20
644.9443670313906
 30
0.0
 11
364.0354926660943
 21
644.9443670313906
 31
0.0
  0
TEXT
  5
DC
330
2
100
AcDbEntity
  8
AM_0
100
AcDbText
 10
433.3931316748151
 20
692.1897663780807
 30
0.0
 40
6.0
  1
Ansicht Y
100
AcDbText
  0
ARC
  5
DD
330
2
100
AcDbEntity
  8
AM_0
100
AcDbCircle
 10
421.8482354988569
 20
651.1786827394067
 30
0.0
 40
0.5
100
AcDbArc
 50
134.9999999999816
 51
214.5243183036213
1001
GENIUS_GENODEF_13
1002
{
1000
HIER
1070
     0
1002
}
1002
{
1000
MANEDIT
1070
     0
1002
}
1002
{
1000
NOSEL
1070
     0
1002
}
1002
{
1000
BEHIND
1070
     0
1002
}
1002
{
1000
REACTOR
1002
}
1001
GENIUS_GENOBJ-N-FIL_13
1002
{
1000
OWNER
1000
GEN
1002
}
  0
ARC
  5
DE
330
2
100
AcDbEntity
  8
AM_0
100
AcDbCircle
 10
421.5225434072348
 20
652.2672042101581
 30
0.0
 40
0.5
100
AcDbArc
 50
314.9999999999816
 51
39.96758650449111
1001
GENIUS_GENODEF_13
1002
{
1000
HIER
1070
     0
1002
}
1002
{
1000
MANEDIT
1070
     0
1002
}
1002
{
1000
NOSEL
1070
     0
1002
}
1002
{
1000
BEHIND
1070
     0
1002
}
1002
{
1000
REACTOR
1002
}
1001
GENIUS_GENOBJ-N-FIL_13
1002
{
1000
OWNER
1000
GEN
1002
}
  0
LINE
  5
DF
330
2
100
AcDbEntity
  8
AM_0
100
AcDbLine
 10
421.1946220662244
 20
651.2321760879606
 30
0.0
 11
421.8760967978282
 21
651.9136508195647
 31
0.0
  0
ARC
  5
E0
330
2
100
AcDbEntity
  8
AM_0
100
AcDbCircle
 10
412.7854926660942
 20
644.9443670313906
 30
0.0
 40
9.9
100
AcDbArc
 50
37.23178237611068
 51
51.73972325596603
  0
ARC
  5
E1
330
2
100
AcDbEntity
  8
AM_0
100
AcDbCircle
 10
412.7854926660942
 20
644.9443670313906
 30
0.0
 40
10.05
100
AcDbArc
 50
37.34842550162968
 51
51.63867430242146
  0
LINE
  5
E2
330
2
100
AcDbEntity
  8
AM_0
100
AcDbLine
 10
419.6722217058946
 20
653.4742097584612
 30
0.0
 11
421.4399886588611
 21
651.7064428054952
 31
0.0
  0
ARC
  5
E3
330
2
100
AcDbEntity
  8
AM_0
100
AcDbCircle
 10
412.7854926660942
 20
644.9443670313906
 30
0.0
 40
10.05
100
AcDbArc
 50
82.89860346108119
 51
97.18829522215731
  0
ARC
  5
E4
330
2
100
AcDbEntity
  8
AM_0
100
AcDbCircle
 10
412.7854926660942
 20
644.9443670313906
 30
0.0
 40
9.9
100
AcDbArc
 50
82.79043939252966
 51
97.29779710635805
  0
LINE
  5
E5
330
2
100
AcDbEntity
  8
AM_0
100
AcDbLine
 10
411.5279305893257
 20
655.8121516889261
 30
0.0
 11
414.0279305893257
 21
655.8121516889261
 31
0.0
  0
LINE
  5
E6
330
2
100
AcDbEntity
  8
AM_0
100
AcDbLine
 10
403.6948885343603
 20
651.9136508195647
 30
0.0
 11
404.3763632659651
 21
651.2321760879606
 31
0.0
  0
ARC
  5
E7
330
2
100
AcDbEntity
  8
AM_0
100
AcDbCircle
 10
403.7227498333318
 20
651.1786827394067
 30
0.0
 40
0.5
100
AcDbArc
 50
325.4756816963787
 51
45.00000000001842
1001
GENIUS_GENODEF_13
1002
{
1000
HIER
1070
     0
1002
}
1002
{
1000
MANEDIT
1070
     0
1002
}
1002
{
1000
NOSEL
1070
     0
1002
}
1002
{
1000
BEHIND
1070
     0
1002
}
1002
{
1000
REACTOR
1002
}
1001
GENIUS_GENOBJ-N-FIL_13
1002
{
1000
OWNER
1000
GEN
1002
}
  0
ARC
  5
E8
330
2
100
AcDbEntity
  8
AM_0
100
AcDbCircle
 10
404.0484419249546
 20
652.2672042101581
 30
0.0
 40
0.5
100
AcDbArc
 50
140.0324134955089
 51
225.0000000000184
1001
GENIUS_GENODEF_13
1002
{
1000
HIER
1070
     0
1002
}
1002
{
1000
MANEDIT
1070
     0
1002
}
1002
{
1000
NOSEL
1070
     0
1002
}
1002
{
1000
BEHIND
1070
     0
1002
}
1002
{
1000
REACTOR
1002
}
1001
GENIUS_GENOBJ-N-FIL_13
1002
{
1000
OWNER
1000
GEN
1002
}
  0
ARC
  5
E9
330
2
100
AcDbEntity
  8
AM_0
100
AcDbCircle
 10
412.7854926660942
 20
644.9443670313906
 30
0.0
 40
9.9
100
AcDbArc
 50
128.3225967221485
 51
142.83068882227
  0
ARC
  5
EA
330
2
100
AcDbEntity
  8
AM_0
100
AcDbCircle
 10
412.7854926660942
 20
644.9443670313906
 30
0.0
 40
10.05
100
AcDbArc
 50
128.4227029481157
 51
142.7130961940401
  0
LINE
  5
EB
330
2
100
AcDbEntity
  8
AM_0
100
AcDbLine
 10
404.1158725197906
 20
651.7064428054952
 30
0.0
 11
405.883639472757
 21
653.4742097584612
 31
0.0
  0
ARC
  5
EC
330
2
100
AcDbEntity
  8
AM_0
100
AcDbCircle
 10
412.7854926660942
 20
644.9443670313906
 30
0.0
 40
11.89999999999999
100
AcDbArc
 50
39.96758650449111
 51
140.0324134955089
  0
ARC
  5
ED
330
2
100
AcDbEntity
  8
AM_0
100
AcDbCircle
 10
412.7854926660942
 20
644.9443670313906
 30
0.0
 40
10.05
100
AcDbArc
 50
352.094833338462
 51
6.385783707882473
  0
ARC
  5
EE
330
2
100
AcDbEntity
  8
AM_0
100
AcDbCircle
 10
412.7854926660942
 20
644.9443670313906
 30
0.0
 40
9.9
100
AcDbArc
 50
351.974274537491
 51
6.482949894126956
  0
LINE
  5
EF
330
2
100
AcDbEntity
  8
AM_0
100
AcDbLine
 10
423.7779305893258
 20
646.0621516889261
 30
0.0
 11
423.7779305893258
 21
643.5621516889263
 31
0.0
  0
ARC
  5
F0
330
2
100
AcDbEntity
  8
AM_0
100
AcDbCircle
 10
412.7854926660942
 20
644.9443670313906
 30
0.0
 40
11.89999999999999
100
AcDbArc
 50
354.9675865044938
 51
5.032413495506061
  0
ARC
  5
F1
330
2
100
AcDbEntity
  8
AM_0
100
AcDbCircle
 10
424.1415483193573
 20
643.9443670313906
 30
0.0
 40
0.5
100
AcDbArc
 50
270.0
 51
354.9675865044938
1001
GENIUS_GENODEF_13
1002
{
1000
HIER
1070
     0
1002
}
1002
{
1000
MANEDIT
1070
     0
1002
}
1002
{
1000
NOSEL
1070
     0
1002
}
1002
{
1000
BEHIND
1070
     0
1002
}
1002
{
1000
REACTOR
1002
}
1001
GENIUS_GENOBJ-N-FIL_13
1002
{
1000
OWNER
1000
GEN
1002
}
  0
LINE
  5
F2
330
2
100
AcDbEntity
  8
AM_0
100
AcDbLine
 10
423.1777975115077
 20
643.444367031391
 30
0.0
 11
424.1415483193573
 21
643.4443670313905
 31
0.0
  0
ARC
  5
F3
330
2
100
AcDbEntity
  8
AM_0
100
AcDbCircle
 10
423.6021464924863
 20
642.9443670313905
 30
0.0
 40
0.5
100
AcDbArc
 50
90.0
 51
169.5243183036205
1001
GENIUS_GENODEF_13
1002
{
1000
HIER
1070
     0
1002
}
1002
{
1000
MANEDIT
1070
     0
1002
}
1002
{
1000
NOSEL
1070
     0
1002
}
1002
{
1000
BEHIND
1070
     0
1002
}
1002
{
1000
REACTOR
1002
}
1001
GENIUS_GENOBJ-N-FIL_13
1002
{
1000
OWNER
1000
GEN
1002
}
  0
ARC
  5
F4
330
2
100
AcDbEntity
  8
AM_0
100
AcDbCircle
 10
424.1415483193573
 20
645.9443670313905
 30
0.0
 40
0.5
100
AcDbArc
 50
5.032413495506061
 51
90.0
1001
GENIUS_GENODEF_13
1002
{
1000
HIER
1070
     0
1002
}
1002
{
1000
MANEDIT
1070
     0
1002
}
1002
{
1000
NOSEL
1070
     0
1002
}
1002
{
1000
BEHIND
1070
     0
1002
}
1002
{
1000
REACTOR
1002
}
1001
GENIUS_GENOBJ-N-FIL_13
1002
{
1000
OWNER
1000
GEN
1002
}
  0
LINE
  5
F5
330
2
100
AcDbEntity
  8
AM_0
100
AcDbLine
 10
423.1777975115077
 20
646.444367031391
 30
0.0
 11
424.1415483193573
 21
646.4443670313905
 31
0.0
  0
ARC
  5
F6
330
2
100
AcDbEntity
  8
AM_0
100
AcDbCircle
 10
423.6021464924863
 20
646.9443670313905
 30
0.0
 40
0.5
100
AcDbArc
 50
190.4756816963794
 51
270.0
1001
GENIUS_GENODEF_13
1002
{
1000
HIER
1070
     0
1002
}
1002
{
1000
MANEDIT
1070
     0
1002
}
1002
{
1000
NOSEL
1070
     0
1002
}
1002
{
1000
BEHIND
1070
     0
1002
}
1002
{
1000
REACTOR
1002
}
1001
GENIUS_GENOBJ-N-FIL_13
1002
{
1000
OWNER
1000
GEN
1002
}
  0
LINE
  5
F7
330
2
100
AcDbEntity
  8
AM_0
100
AcDbLine
 10
415.7956975422925
 20
643.5621516889263
 30
0.0
 11
423.7487029964245
 21
643.5621516889263
 31
0.0
  0
LINE
  5
F8
330
2
100
AcDbEntity
  8
AM_0
100
AcDbLine
 10
415.7956975422925
 20
646.0621516889261
 30
0.0
 11
423.7788114306615
 21
646.0621516889261
 31
0.0
  0
ARC
  5
F9
330
2
100
AcDbEntity
  8
AM_0
100
AcDbCircle
 10
421.8482354988569
 20
638.7100513233748
 30
0.0
 40
0.5
100
AcDbArc
 50
145.4756816963787
 51
225.0000000000184
1001
GENIUS_GENODEF_13
1002
{
1000
HIER
1070
     0
1002
}
1002
{
1000
MANEDIT
1070
     0
1002
}
1002
{
1000
NOSEL
1070
     0
1002
}
1002
{
1000
BEHIND
1070
     0
1002
}
1002
{
1000
REACTOR
1002
}
1001
GENIUS_GENOBJ-N-FIL_13
1002
{
1000
OWNER
1000
GEN
1002
}
  0
ARC
  5
FA
330
2
100
AcDbEntity
  8
AM_0
100
AcDbCircle
 10
421.5225434072348
 20
637.6215298526232
 30
0.0
 40
0.5
100
AcDbArc
 50
320.0324134955089
 51
45.00000000001842
1001
GENIUS_GENODEF_13
1002
{
1000
HIER
1070
     0
1002
}
1002
{
1000
MANEDIT
1070
     0
1002
}
1002
{
1000
NOSEL
1070
     0
1002
}
1002
{
1000
BEHIND
1070
     0
1002
}
1002
{
1000
REACTOR
1002
}
1001
GENIUS_GENOBJ-N-FIL_13
1002
{
1000
OWNER
1000
GEN
1002
}
  0
LINE
  5
FB
330
2
100
AcDbEntity
  8
AM_0
100
AcDbLine
 10
421.1946220662244
 20
638.656557974821
 30
0.0
 11
421.8760967978282
 21
637.9750832432166
 31
0.0
  0
ARC
  5
FC
330
2
100
AcDbEntity
  8
AM_0
100
AcDbCircle
 10
412.7854926660942
 20
644.9443670313906
 30
0.0
 40
9.9
100
AcDbArc
 50
307.1693111777298
 51
321.6774032778515
  0
ARC
  5
FD
330
2
100
AcDbEntity
  8
AM_0
100
AcDbCircle
 10
412.7854926660942
 20
644.9443670313906
 30
0.0
 40
10.05
100
AcDbArc
 50
307.2869038059599
 51
321.5772970518843
  0
LINE
  5
FE
330
2
100
AcDbEntity
  8
AM_0
100
AcDbLine
 10
421.4399886588611
 20
637.9178605723572
 30
0.0
 11
419.6722217058946
 21
636.1500936193907
 31
0.0
  0
LINE
  5
FF
330
2
100
AcDbEntity
  8
AM_0
100
AcDbLine
 10
415.7956975422925
 20
643.5621516889263
 30
0.0
 11
421.3705016859089
 21
637.9873475453097
 31
0.0
  0
ARC
  5
100
330
2
100
AcDbEntity
  8
AM_0
100
AcDbCircle
 10
412.7854926660942
 20
644.9443670313906
 30
0.0
 40
10.5
100
AcDbArc
 50
323.2132107017195
 51
351.7867892982498
  0
LINE
  5
101
330
2
100
AcDbEntity
  8
AM_0
100
AcDbLine
 10
414.0279305893257
 20
641.7943847359597
 30
0.0
 11
414.0279305893257
 21
633.9644377052557
 31
0.0
  0
LINE
  5
102
330
2
100
AcDbEntity
  8
AM_0
100
AcDbLine
 10
411.5279305893257
 20
641.7943847359597
 30
0.0
 11
411.5279305893257
 21
633.9661596356875
 31
0.0
  0
ARC
  5
103
330
2
100
AcDbEntity
  8
AM_0
100
AcDbCircle
 10
412.7854926660942
 20
644.9443670313906
 30
0.0
 40
10.05
100
AcDbArc
 50
262.8117047778427
 51
277.1013965389188
  0
ARC
  5
104
330
2
100
AcDbEntity
  8
AM_0
100
AcDbCircle
 10
412.7854926660942
 20
644.9443670313906
 30
0.0
 40
9.9
100
AcDbArc
 50
262.702202893642
 51
277.2095606074703
  0
LINE
  5
105
330
2
100
AcDbEntity
  8
AM_0
100
AcDbLine
 10
414.0279305893257
 20
633.8121516889263
 30
0.0
 11
411.5279305893257
 21
633.8121516889263
 31
0.0
  0
ARC
  5
106
330
2
100
AcDbEntity
  8
AM_0
100
AcDbCircle
 10
412.7854926660942
 20
644.9443670313906
 30
0.0
 40
10.05
100
AcDbArc
 50
218.3613256975785
 51
232.6515744984074
  0
ARC
  5
107
330
2
100
AcDbEntity
  8
AM_0
100
AcDbCircle
 10
412.7854926660942
 20
644.9443670313906
 30
0.0
 40
9.9
100
AcDbArc
 50
218.2602767440131
 51
232.7682176238893
  0
LINE
  5
108
330
2
100
AcDbEntity
  8
AM_0
100
AcDbLine
 10
405.883639472757
 20
636.1500936193907
 30
0.0
 11
404.1158725197906
 21
637.9178605723572
 31
0.0
  0
LINE
  5
109
330
2
100
AcDbEntity
  8
AM_0
100
AcDbLine
 10
403.6948885343603
 20
637.9750832432166
 30
0.0
 11
404.3763632659651
 21
638.656557974821
 31
0.0
  0
ARC
  5
10A
330
2
100
AcDbEntity
  8
AM_0
100
AcDbCircle
 10
404.0484419249546
 20
637.6215298526232
 30
0.0
 40
0.5
100
AcDbArc
 50
134.9999999999816
 51
219.9675865044911
1001
GENIUS_GENODEF_13
1002
{
1000
HIER
1070
     0
1002
}
1002
{
1000
MANEDIT
1070
     0
1002
}
1002
{
1000
NOSEL
1070
     0
1002
}
1002
{
1000
BEHIND
1070
     0
1002
}
1002
{
1000
REACTOR
1002
}
1001
GENIUS_GENOBJ-N-FIL_13
1002
{
1000
OWNER
1000
GEN
1002
}
  0
ARC
  5
10B
330
2
100
AcDbEntity
  8
AM_0
100
AcDbCircle
 10
403.7227498333318
 20
638.7100513233748
 30
0.0
 40
0.5
100
AcDbArc
 50
314.9999999999816
 51
34.52431830362133
1001
GENIUS_GENODEF_13
1002
{
1000
HIER
1070
     0
1002
}
1002
{
1000
MANEDIT
1070
     0
1002
}
1002
{
1000
NOSEL
1070
     0
1002
}
1002
{
1000
BEHIND
1070
     0
1002
}
1002
{
1000
REACTOR
1002
}
1001
GENIUS_GENOBJ-N-FIL_13
1002
{
1000
OWNER
1000
GEN
1002
}
  0
LINE
  5
10C
330
2
100
AcDbEntity
  8
AM_0
100
AcDbLine
 10
411.5279305893257
 20
641.7943847359597
 30
0.0
 11
405.9756769613243
 21
636.2421311079586
 31
0.0
  0
LINE
  5
10D
330
2
100
AcDbEntity
  8
AM_0
100
AcDbLine
 10
409.7601636363591
 20
643.5621516889263
 30
0.0
 11
404.1937173987166
 21
637.9957054512831
 31
0.0
  0
CIRCLE
  5
10E
330
2
100
AcDbEntity
  8
AM_0
100
AcDbCircle
 10
412.7854926660942
 20
644.9443670313906
 30
0.0
 40
3.25
  0
LINE
  5
10F
330
2
100
AcDbEntity
  8
AM_0
100
AcDbLine
 10
414.0279305893257
 20
641.7943847359597
 30
0.0
 11
419.5868200033421
 21
636.2354953219435
 31
0.0
  0
ARC
  5
110
330
2
100
AcDbEntity
  8
AM_0
100
AcDbCircle
 10
412.7854926660942
 20
644.9443670313906
 30
0.0
 40
11.89999999999999
100
AcDbArc
 50
219.9675865044911
 51
320.0324134955089
  0
ARC
  5
111
330
2
100
AcDbEntity
  8
AM_0
100
AcDbCircle
 10
412.7854926660942
 20
644.9443670313906
 30
0.0
 40
11.89999999999999
100
AcDbArc
 50
174.9675865044939
 51
185.032413495506
  0
LINE
  5
112
330
2
100
AcDbEntity
  8
AM_0
100
AcDbLine
 10
401.7779305893259
 20
643.5621516889263
 30
0.0
 11
401.7779305893259
 21
646.0621516889261
 31
0.0
  0
ARC
  5
113
330
2
100
AcDbEntity
  8
AM_0
100
AcDbCircle
 10
412.7854926660942
 20
644.9443670313906
 30
0.0
 40
10.05
100
AcDbArc
 50
173.6142162921175
 51
187.9051666615381
  0
ARC
  5
114
330
2
100
AcDbEntity
  8
AM_0
100
AcDbCircle
 10
412.7854926660942
 20
644.9443670313906
 30
0.0
 40
9.9
100
AcDbArc
 50
173.517050105873
 51
188.0257254625082
  0
ARC
  5
115
330
2
100
AcDbEntity
  8
AM_0
100
AcDbCircle
 10
401.9688388397021
 20
642.9443670313905
 30
0.0
 40
0.5
100
AcDbArc
 50
10.47568169637944
 51
90.0
1001
GENIUS_GENODEF_13
1002
{
1000
HIER
1070
     0
1002
}
1002
{
1000
MANEDIT
1070
     0
1002
}
1002
{
1000
NOSEL
1070
     0
1002
}
1002
{
1000
BEHIND
1070
     0
1002
}
1002
{
1000
REACTOR
1002
}
1001
GENIUS_GENOBJ-N-FIL_13
1002
{
1000
OWNER
1000
GEN
1002
}
  0
LINE
  5
116
330
2
100
AcDbEntity
  8
AM_0
100
AcDbLine
 10
401.4294370128313
 20
643.4443670313905
 30
0.0
 11
402.3931878206815
 21
643.444367031391
 31
0.0
  0
ARC
  5
117
330
2
100
AcDbEntity
  8
AM_0
100
AcDbCircle
 10
401.4294370128313
 20
643.9443670313906
 30
0.0
 40
0.5
100
AcDbArc
 50
185.032413495506
 51
270.0
1001
GENIUS_GENODEF_13
1002
{
1000
HIER
1070
     0
1002
}
1002
{
1000
MANEDIT
1070
     0
1002
}
1002
{
1000
NOSEL
1070
     0
1002
}
1002
{
1000
BEHIND
1070
     0
1002
}
1002
{
1000
REACTOR
1002
}
1001
GENIUS_GENOBJ-N-FIL_13
1002
{
1000
OWNER
1000
GEN
1002
}
  0
ARC
  5
118
330
2
100
AcDbEntity
  8
AM_0
100
AcDbCircle
 10
401.9688388397021
 20
646.9443670313905
 30
0.0
 40
0.5
100
AcDbArc
 50
270.0
 51
349.5243183036205
1001
GENIUS_GENODEF_13
1002
{
1000
HIER
1070
     0
1002
}
1002
{
1000
MANEDIT
1070
     0
1002
}
1002
{
1000
NOSEL
1070
     0
1002
}
1002
{
1000
BEHIND
1070
     0
1002
}
1002
{
1000
REACTOR
1002
}
1001
GENIUS_GENOBJ-N-FIL_13
1002
{
1000
OWNER
1000
GEN
1002
}
  0
LINE
  5
119
330
2
100
AcDbEntity
  8
AM_0
100
AcDbLine
 10
401.4294370128313
 20
646.4443670313905
 30
0.0
 11
402.3931878206815
 21
646.444367031391
 31
0.0
  0
ARC
  5
11A
330
2
100
AcDbEntity
  8
AM_0
100
AcDbCircle
 10
401.4294370128313
 20
645.9443670313905
 30
0.0
 40
0.5
100
AcDbArc
 50
90.0
 51
174.9675865044939
1001
GENIUS_GENODEF_13
1002
{
1000
HIER
1070
     0
1002
}
1002
{
1000
MANEDIT
1070
     0
1002
}
1002
{
1000
NOSEL
1070
     0
1002
}
1002
{
1000
BEHIND
1070
     0
1002
}
1002
{
1000
REACTOR
1002
}
1001
GENIUS_GENOBJ-N-FIL_13
1002
{
1000
OWNER
1000
GEN
1002
}
  0
ARC
  5
11B
330
2
100
AcDbEntity
  8
AM_0
100
AcDbCircle
 10
412.7854926660942
 20
644.9443670313906
 30
0.0
 40
10.5
100
AcDbArc
 50
188.2132107017501
 51
216.7867892982805
  0
LINE
  5
11C
330
2
100
AcDbEntity
  8
AM_0
100
AcDbLine
 10
409.7601636363591
 20
643.5621516889263
 30
0.0
 11
401.8222823357641
 21
643.5621516889263
 31
0.0
  0
LINE
  5
11D
330
2
100
AcDbEntity
  8
AM_0
100
AcDbLine
 10
409.7601636363591
 20
646.0621516889261
 30
0.0
 11
401.7921739015276
 21
646.0621516889261
 31
0.0
  0
CIRCLE
  5
11E
330
2
100
AcDbEntity
  8
AM_0
100
AcDbCircle
 10
412.7854926660942
 20
644.9443670313906
 30
0.0
 40
30.5
  0
CIRCLE
  5
11F
330
2
100
AcDbEntity
  8
AM_0
100
AcDbCircle
 10
412.7854926660942
 20
644.9443670313906
 30
0.0
 40
11.05
  0
CIRCLE
  5
120
330
2
100
AcDbEntity
  8
AM_0
100
AcDbCircle
 10
412.7854926660942
 20
644.9443670313906
 30
0.0
 40
11.06378007031087
  0
CIRCLE
  5
121
330
2
100
AcDbEntity
  8
AM_0
100
AcDbCircle
 10
412.7854926660942
 20
644.9443670313906
 30
0.0
 40
11.2183595565167
  0
CIRCLE
  5
122
330
2
100
AcDbEntity
  8
AM_0
100
AcDbCircle
 10
412.7854926660942
 20
644.9443670313906
 30
0.0
 40
13.22
  0
ARC
  5
123
330
2
100
AcDbEntity
  8
AM_4
100
AcDbCircle
 10
412.7854926660942
 20
644.9443670313906
 30
0.0
 40
12.22868355035245
100
AcDbArc
 50
117.6001690583654
 51
108.1824097904022
  0
ARC
  5
124
330
2
100
AcDbEntity
  8
AM_0
100
AcDbCircle
 10
412.7854926660942
 20
644.9443670313906
 30
0.0
 40
10.5
100
AcDbArc
 50
143.2132107017195
 51
171.7867892982497
  0
LINE
  5
125
330
2
100
AcDbEntity
  8
AM_0
100
AcDbLine
 10
414.0279305893257
 20
647.947506722933
 30
0.0
 11
414.0279305893257
 21
655.9242963575252
 31
0.0
  0
LINE
  5
126
330
2
100
AcDbEntity
  8
AM_0
100
AcDbLine
 10
411.5279305893257
 20
647.941204968796
 30
0.0
 11
411.5279305893257
 21
655.9225744270941
 31
0.0
  0
LINE
  5
127
330
2
100
AcDbEntity
  8
AM_0
100
AcDbLine
 10
411.4503800555799
 20
647.9074691756383
 30
0.0
 11
405.8284731800135
 21
653.5293760512047
 31
0.0
  0
LINE
  5
128
330
2
100
AcDbEntity
  8
AM_0
100
AcDbLine
 10
409.7601636363591
 20
646.0621516889261
 30
0.0
 11
404.0766209566477
 21
651.7456943686381
 31
0.0
  0
LINE
  5
129
330
2
100
AcDbEntity
  8
AM_0
100
AcDbLine
 10
414.1101637583218
 20
647.9121518108882
 30
0.0
 11
419.734154246202
 21
653.5361422987691
 31
0.0
  0
LINE
  5
12A
330
2
100
AcDbEntity
  8
AM_0
100
AcDbLine
 10
415.7956975422925
 20
646.0621516889261
 30
0.0
 11
421.4877285895267
 21
651.7541827361607
 31
0.0
  0
ARC
  5
12B
330
2
100
AcDbEntity
  8
AM_0
100
AcDbCircle
 10
412.7854926660942
 20
644.9443670313906
 30
0.0
 40
10.5
100
AcDbArc
 50
8.213210701750242
 51
36.78678929828052
  0
CIRCLE
  5
12C
330
2
100
AcDbEntity
  8
AM_0
100
AcDbCircle
 10
412.7854926660942
 20
644.9443670313906
 30
0.0
 40
43.74999999999992
  0
CIRCLE
  5
12D
330
2
100
AcDbEntity
  8
AM_4
100
AcDbCircle
 10
412.7854926660942
 20
644.9443670313906
 30
0.0
 40
37.26794919243094
  0
CIRCLE
  5
12E
330
2
100
AcDbEntity
  8
AM_4
100
AcDbCircle
 10
412.7854926660942
 20
644.9443670313906
 30
0.0
 40
39.73205080756871
  0
DIMENSION
  5
12F
330
2
100
AcDbEntity
  8
AM_5
100
AcDbDimension
  2
*D2
 10
267.3352214172798
 20
757.0376096684762
 30
0.0
 11
201.3352214172797
 21
760.2381017944606
 31
0.0
  1
%%c<>
 71
     5
 42
132.0
  3
AM_DIN
100
AcDbAlignedDimension
 13
135.3352214172797
 23
640.2372080227337
 33
0.0
 14
267.3352214172798
 24
640.2372080227356
 34
0.0
100
AcDbRotatedDimension
1001
ACAD
1000
DSTYLE
1002
{
1070
   140
1040
5.0
1070
    47
1040
5.0
1070
    48
1040
5.0
1070
   271
1070
     0
1002
}
  0
DIMENSION
  5
13C
330
2
100
AcDbEntity
  8
AM_5
100
AcDbDimension
  2
*D3
 10
122.8290996244968
 20
486.5692588303024
 30
0.0
 11
119.6286074985125
 21
616.4745641799379
 31
0.0
 71
     5
 42
259.8106106992712
  3
AM_DIN
100
AcDbAlignedDimension
 13
204.7060606495487
 23
746.3798695295736
 33
0.0
 14
201.3352214172794
 24
486.5692588303024
 34
0.0
 50
90.0
100
AcDbRotatedDimension
1001
ACAD
1000
DSTYLE
1002
{
1070
    47
1040
5.0
1070
    48
1040
5.0
1070
   140
1040
5.0
1070
   271
1070
     0
1002
}
  0
TEXT
  5
149
330
2
100
AcDbEntity
  8
AM_6
100
AcDbText
 10
442.8841060576688
 20
475.7389788485479
 30
0.0
 40
6.0
  1
59227 Ahlen
 72
     1
 11
464.9033201092747
 21
475.7389788485479
 31
0.0
100
AcDbText
  0
TEXT
  5
14B
330
2
100
AcDbEntity
  8
AM_6
100
AcDbText
 10
422.6255231092746
 20
484.1567678485477
 30
0.0
 40
6.0
  1
Reflex Winkelmann GmbH
 41
0.95
 72
     1
 11
464.8055231092746
 21
484.1567678485477
 31
0.0
100
AcDbText
  0
TEXT
  5
14C
330
2
100
AcDbEntity
  8
0
100
AcDbText
 10
310.3226671092744
 20
468.9850776524956
 30
0.0
 40
10.0
  1
10 bar - 70°C
 72
     1
 11
349.3226671092744
 21
465.9850776524956
 31
0.0
100
AcDbText
 73
     1
  0
TEXT
  5
14D
330
2
100
AcDbEntity
  8
0
100
AcDbText
 10
276.1423370233844
 20
506.9850776524956
 30
0.0
 40
10.0
  1
Druckausdehnungsgefäß
 72
     1
 11
349.3226671092744
 21
503.9850776524956
 31
0.0
100
AcDbText
 73
     1
  0
TEXT
  5
14E
330
2
100
AcDbEntity
  8
0
100
AcDbText
 10
302.3226671092743
 20
487.9850776524958
 30
0.0
 40
10.0
  1
Typ refix DD  2l
 72
     1
 11
349.3226671092744
 21
484.9850776524958
 31
0.0
100
AcDbText
 73
     1
  0
HATCH
  5
14F
330
2
100
AcDbEntity
  8
AM_4
100
AcDbHatch
 10
0.0
 20
0.0
 30
0.0
210
0.0
220
0.0
230
1.0
  2
SOLID
 70
     1
 71
     0
 91
        2
 92
        7
 72
     0
 73
     1
 93
        4
 10
491.3955575351401
 20
511.8586239257921
 10
491.1914438443647
 20
511.8586239257921
 10
491.1914438443647
 20
497.603205435267
 10
491.3955575351401
 20
497.603205435267
 97
        0
 92
        7
 72
     0
 73
     1
 93
       42
 10
491.2713144190169
 20
496.9849480240783
 10
491.3748503491196
 20
497.2748486283676
 10
491.3955575351401
 20
497.603205435267
 10
491.1914438443647
 20
497.603205435267
 10
491.1914438443647
 20
497.5322093689101
 10
491.1855275055026
 20
497.4612133025522
 10
491.1766529972088
 20
497.390217236204
 10
491.1648203194821
 20
497.3192211698401
 10
491.1470713028885
 20
497.2511832729046
 10
491.1293222863029
 20
497.1861035454236
 10
491.1056569308501
 20
497.1210238179286
 10
491.0819915754008
 20
497.0559440904366
 10
491.0524098810825
 20
496.9938225323729
 10
491.0228281867678
 20
496.9317009743106
 10
490.9873301535903
 20
496.8754957551086
 10
490.9518321204122
 20
496.8163323664817
 10
490.9104177483705
 20
496.7630853167109
 10
490.8690033763289
 20
496.7068800975138
 10
490.8246308348577
 20
496.6565912171808
 10
490.7773001239489
 20
496.6092605062739
 10
490.7270112436186
 20
496.5619297953704
 10
490.6767223632804
 20
496.5175572538965
 10
490.6205171440801
 20
496.4761428818555
 10
490.5643119248805
 20
496.4347285098131
 10
490.508106705677
 20
496.3992304766346
 10
490.4489433170525
 20
496.3637324434571
 10
490.3868217589905
 20
496.3341507491406
 10
490.3217420314961
 20
496.3045690548276
 10
490.2566623040028
 20
496.2809036993751
 10
490.1915825765096
 20
496.2572383439226
 10
490.1235446795822
 20
496.2394893273331
 10
490.0525486132277
 20
496.224698480176
 10
489.9815525468703
 20
496.2099076330185
 10
489.9105564805145
 20
496.2010331247238
 10
489.8366022447268
 20
496.1951167858606
 10
489.7626480089382
 20
496.1951167858606
 10
489.7626480089382
 20
495.9910030950855
 10
490.0910048158376
 20
496.0117102811063
 10
490.4016126061482
 20
496.1152462112097
 10
490.6708060244159
 20
496.2601965133546
 10
490.9192922566658
 20
496.4672683735621
 10
491.126364116871
 20
496.6950474197886
 97
        0
 75
     0
 76
     1
 47
0.013813
 98
        2
 10
491.3332117913904
 20
508.3974668402905
 10
491.0991137913903
 20
496.9049858402907
450
        0
451
        0
460
0.0
461
0.0
452
        0
462
0.0
453
        0
470

  0
LINE
  5
150
330
2
100
AcDbEntity
  8
AM_4
100
AcDbLine
 10
491.1914437913905
 20
497.5322098402905
 30
0.0
 11
491.1914437913905
 21
511.9296198402905
 31
0.0
  0
LINE
  5
151
330
2
100
AcDbEntity
  8
AM_4
100
AcDbLine
 10
491.3955577913903
 20
511.8586238402905
 30
0.0
 11
491.3955577913903
 21
497.6032058402906
 31
0.0
  0
LINE
  5
152
330
2
100
AcDbEntity
  8
AM_4
100
AcDbLine
 10
491.5996707913905
 20
511.8586238402905
 30
0.0
 11
491.5996707913905
 21
497.6032058402906
 31
0.0
  0
LINE
  5
153
330
2
100
AcDbEntity
  8
AM_4
100
AcDbLine
 10
491.2231947913904
 20
511.8586238402905
 30
0.0
 11
491.2231947913904
 21
497.6032058402906
 31
0.0
  0
LINE
  5
154
330
2
100
AcDbEntity
  8
AM_4
100
AcDbLine
 10
444.1920477913905
 20
497.6032058402906
 30
0.0
 11
444.1920477913905
 21
511.8586238402905
 31
0.0
  0
LINE
  5
155
330
2
100
AcDbEntity
  8
AM_4
100
AcDbLine
 10
444.6002757913904
 20
497.5322098402905
 30
0.0
 11
444.6002757913904
 21
511.9296198402905
 31
0.0
  0
LINE
  5
156
330
2
100
AcDbEntity
  8
AM_4
100
AcDbLine
 10
444.3961617913905
 20
497.6032058402906
 30
0.0
 11
444.3961617913905
 21
511.8586238402905
 31
0.0
  0
LINE
  5
157
330
2
100
AcDbEntity
  8
AM_4
100
AcDbLine
 10
444.5685247913905
 20
497.6032058402906
 30
0.0
 11
444.5685247913905
 21
511.8586238402905
 31
0.0
  0
HATCH
  5
158
330
2
100
AcDbEntity
  8
AM_4
100
AcDbHatch
 10
0.0
 20
0.0
 30
0.0
210
0.0
220
0.0
230
1.0
  2
SOLID
 70
     1
 71
     0
 91
        3
 92
        7
 72
     0
 73
     1
 93
        4
 10
489.7626480089382
 20
513.6956471427696
 10
446.0290711332551
 20
513.6956471427696
 10
446.0290711332551
 20
513.4915334519944
 10
489.7626480089382
 20
513.4915334519944
 97
        0
 92
        7
 72
     0
 73
     1
 93
        4
 10
444.3961616070523
 20
511.8586239257921
 10
444.1920479162771
 20
511.8586239257921
 10
444.1920479162771
 20
497.603205435267
 10
444.3961616070523
 20
497.603205435267
 97
        0
 92
        7
 72
     0
 73
     1
 93
       42
 10
444.7748072942856
 20
512.5330865561785
 10
444.8103053274658
 20
512.5922499448104
 10
444.8458033606441
 20
512.651413333441
 10
444.8872177326893
 20
512.7076185526458
 10
444.9286321047276
 20
512.7608656024101
 10
444.9759628156306
 20
512.8141126521732
 10
445.023293526536
 20
512.8644015325106
 10
445.0735824068726
 20
512.9117322434141
 10
445.1268294566397
 20
512.9561047848883
 10
445.180076506407
 20
513.000477326361
 10
445.2362817256063
 20
513.0418916984026
 10
445.2954451142365
 20
513.0773897315806
 10
445.3546085028655
 20
513.1128877647592
 10
445.4167300609293
 20
513.145427628506
 10
445.4788516189911
 20
513.1750093228212
 10
445.5439313464842
 20
513.1986746782732
 10
445.6090110739798
 20
513.2223400337257
 10
445.677048970903
 20
513.2430472197459
 10
445.7450868678286
 20
513.257838066903
 10
445.8160829341855
 20
513.2726289140618
 10
445.8870790005422
 20
513.281503422356
 10
445.9580750668981
 20
513.2874197612192
 10
446.0290711332551
 20
513.2874197612192
 10
446.0290711332551
 20
513.4915334519944
 10
445.7007143263557
 20
513.4501190799531
 10
445.4108137220652
 20
513.36729033587
 10
445.1209131177768
 20
513.2016328477046
 10
444.8931340715488
 20
513.0152681735178
 10
444.6860622113423
 20
512.7667819412701
 10
444.5411119091978
 20
512.4975885230018
 10
444.4375759790933
 20
512.1869807326905
 10
444.3961616070523
 20
511.8586239257921
 10
444.6002752978279
 20
511.8586239257918
 10
444.6002752978279
 20
511.9296199921498
 10
444.6061916366913
 20
512.0006160585058
 10
444.6150661449856
 20
512.0716121248611
 10
444.6298569921394
 20
512.1426081912261
 10
444.6446478393013
 20
512.210646088144
 10
444.6653550253254
 20
512.2757258156442
 10
444.6860622113423
 20
512.3437637125622
 10
444.7126857362277
 20
512.4088434400556
 10
444.7422674305427
 20
512.4709649981158
 97
        0
 75
     0
 76
     1
 47
0.005631
 98
        3
 10
448.2861887913903
 20
513.5632448402906
 10
444.2670777913905
 20
511.5067548402906
 10
444.6064217913904
 20
512.4713958402906
450
        0
451
        0
460
0.0
461
0.0
452
        0
462
0.0
453
        0
470

  0
HATCH
  5
159
330
2
100
AcDbEntity
  8
AM_4
100
AcDbHatch
 10
0.0
 20
0.0
 30
0.0
210
0.0
220
0.0
230
1.0
  2
SOLID
 70
     1
 71
     0
 91
       13
 92
        7
 72
     0
 73
     1
 93
        4
 10
444.6002752978272
 20
511.8586239257921
 10
444.3961616070523
 20
511.8586239257921
 10
444.3961616070523
 20
497.603205435267
 10
444.6002752978279
 20
497.603205435267
 97
        0
 92
        7
 72
     0
 73
     1
 93
        4
 10
489.7626480089371
 20
496.1951167858606
 10
446.0290711332551
 20
496.1951167858606
 10
446.0290711332551
 20
495.9910030950855
 10
489.7626480089382
 20
495.9910030950855
 97
        0
 92
        7
 72
     0
 73
     1
 93
        4
 10
489.7626480089382
 20
513.4915334519944
 10
446.0290711332551
 20
513.4915334519944
 10
446.0290711332551
 20
513.2874197612192
 10
489.7626480089382
 20
513.2874197612192
 97
        0
 92
        7
 72
     0
 73
     1
 93
        4
 10
491.5996712259157
 20
511.8586239257921
 10
491.3955575351401
 20
511.8586239257921
 10
491.3955575351401
 20
497.603205435267
 10
491.5996712259157
 20
497.603205435267
 97
        0
 92
        7
 72
     0
 73
     1
 93
       42
 10
445.4108137220663
 20
513.3672903358704
 10
445.7007143263557
 20
513.4501190799531
 10
446.0290711332551
 20
513.4915334519944
 10
446.0290711332551
 20
513.6956471427696
 10
445.9373678808773
 20
513.6926889733383
 10
445.8456646285021
 20
513.6838144650438
 10
445.7539613761228
 20
513.6719817873172
 10
445.6622581237461
 20
513.6571909401595
 10
445.5735130408003
 20
513.6364837541393
 10
445.4877261272856
 20
513.609860229256
 10
445.4019392137688
 20
513.5802785349397
 10
445.3191104696876
 20
513.5477386711934
 10
445.2392398950371
 20
513.5122406380141
 10
445.1593693203863
 20
513.4708262659743
 10
445.0824569151653
 20
513.4264537245013
 10
445.0085026793884
 20
513.3761648441646
 10
444.93750661302
 20
513.3258759638298
 10
444.8665105466687
 20
513.2696707446285
 10
444.7984726497407
 20
513.2134655254311
 10
444.7363510916767
 20
513.151343967368
 10
444.6742295336157
 20
513.0862642398732
 10
444.6180243144186
 20
513.0211845123832
 10
444.5618190952178
 20
512.9501884460268
 10
444.5115302148818
 20
512.8791923796657
 10
444.4612413345446
 20
512.805238143879
 10
444.4168687930726
 20
512.7283257386578
 10
444.3754544210317
 20
512.6484551640097
 10
444.3399563878541
 20
512.5685845893618
 10
444.3074165241063
 20
512.4857558452786
 10
444.2778348297893
 20
512.3999689317582
 10
444.2512113049071
 20
512.3141820182452
 10
444.2305041188873
 20
512.2254369353019
 10
444.2157132717299
 20
512.1337336829228
 10
444.2038805940033
 20
512.0420304305445
 10
444.1950060857092
 20
511.95032717817
 10
444.1920479162771
 20
511.8586239257921
 10
444.3961616070523
 20
511.8586239257921
 10
444.4375759790933
 20
512.1869807326909
 10
444.541111909196
 20
512.497588523001
 10
444.6860622113423
 20
512.7667819412712
 10
444.8931340715498
 20
513.0152681735185
 10
445.1209131177757
 20
513.2016328477051
 97
        0
 92
        7
 72
     0
 73
     1
 93
       42
 10
445.4788516189916
 20
513.1750093228212
 10
445.5439313464842
 20
513.1986746782732
 10
445.6090110739798
 20
513.2223400337257
 10
445.677048970903
 20
513.2430472197459
 10
445.7450868678286
 20
513.257838066903
 10
445.8160829341855
 20
513.2726289140618
 10
445.8870790005422
 20
513.281503422356
 10
445.9580750668981
 20
513.2874197612192
 10
446.0290711332551
 20
513.2874197612192
 10
446.0290711332551
 20
513.4915334519944
 10
445.7007143263557
 20
513.4501190799531
 10
445.4108137220652
 20
513.36729033587
 10
445.1209131177768
 20
513.2016328477046
 10
444.8931340715488
 20
513.0152681735178
 10
444.6860622113423
 20
512.7667819412701
 10
444.5411119091978
 20
512.4975885230018
 10
444.4375759790933
 20
512.1869807326905
 10
444.3961616070523
 20
511.8586239257921
 10
444.6002752978279
 20
511.8586239257918
 10
444.6002752978279
 20
511.9296199921498
 10
444.6061916366913
 20
512.0006160585058
 10
444.6150661449856
 20
512.0716121248611
 10
444.6298569921394
 20
512.1426081912261
 10
444.6446478393013
 20
512.210646088144
 10
444.6653550253254
 20
512.2757258156442
 10
444.6860622113423
 20
512.3437637125622
 10
444.7126857362277
 20
512.4088434400556
 10
444.7422674305427
 20
512.4709649981158
 10
444.7748072942864
 20
512.5330865561791
 10
444.8103053274658
 20
512.5922499448104
 10
444.8458033606441
 20
512.651413333441
 10
444.8872177326893
 20
512.7076185526458
 10
444.9286321047276
 20
512.7608656024101
 10
444.9759628156306
 20
512.8141126521732
 10
445.023293526536
 20
512.8644015325106
 10
445.0735824068726
 20
512.9117322434141
 10
445.1268294566397
 20
512.9561047848883
 10
445.180076506407
 20
513.000477326361
 10
445.2362817256063
 20
513.0418916984026
 10
445.2954451142365
 20
513.0773897315806
 10
445.3546085028655
 20
513.1128877647592
 10
445.4167300609293
 20
513.145427628506
 97
        0
 92
        7
 72
     0
 73
     1
 93
        4
 10
489.7626480089382
 20
495.9910030950855
 10
446.0290711332551
 20
495.9910030950855
 10
446.0290711332551
 20
495.7868894043103
 10
489.7626480089382
 20
495.7868894043103
 97
        0
 92
       22
 72
     0
 73
     1
 93
       42
 10
491.1263641168717
 20
496.6950474197885
 10
491.2713144190162
 20
496.9849480240781
 10
491.3748503491196
 20
497.274848628368
 10
491.3955575351401
 20
497.603205435267
 10
491.1914438443647
 20
497.603205435267
 10
491.1914438443647
 20
497.5322093689099
 10
491.1855275055017
 20
497.4612133025522
 10
491.1766529972083
 20
497.3902172361959
 10
491.1648203194821
 20
497.3192211698407
 10
491.1470713028885
 20
497.2511832728996
 10
491.1293222863029
 20
497.1861035454221
 10
491.1056569308501
 20
497.1210238179286
 10
491.0819915754008
 20
497.0559440904366
 10
491.0524098810825
 20
496.9938225323729
 10
491.0228281867678
 20
496.9317009743106
 10
490.9873301535903
 20
496.8754957551086
 10
490.9518321204122
 20
496.8163323664817
 10
490.9104177483705
 20
496.7630853167109
 10
490.8690033763289
 20
496.7068800975138
 10
490.8246308348577
 20
496.6565912171808
 10
490.7773001239489
 20
496.6092605062739
 10
490.7270112436186
 20
496.5619297953704
 10
490.6767223632804
 20
496.5175572538965
 10
490.6205171440801
 20
496.4761428818555
 10
490.5643119248805
 20
496.4347285098131
 10
490.508106705677
 20
496.3992304766346
 10
490.4489433170525
 20
496.3637324434571
 10
490.3868217589905
 20
496.3341507491406
 10
490.3217420314961
 20
496.3045690548276
 10
490.2566623040028
 20
496.2809036993751
 10
490.1915825765096
 20
496.2572383439226
 10
490.1235446795822
 20
496.2394893273331
 10
490.0525486132277
 20
496.224698480176
 10
489.9815525468703
 20
496.2099076330185
 10
489.9105564805145
 20
496.2010331247238
 10
489.8366022447268
 20
496.1951167858606
 10
489.7626480089382
 20
496.1951167858606
 10
489.7626480089382
 20
495.9910030950855
 10
490.0910048158376
 20
496.0117102811063
 10
490.4016126061482
 20
496.1152462112097
 10
490.6708060244159
 20
496.2601965133546
 10
490.9192922566658
 20
496.4672683735621
 97
        0
 92
        7
 72
     0
 73
     1
 93
       42
 10
491.1796111666393
 20
496.4495193569721
 10
491.2358163858391
 20
496.517557253898
 10
491.2861052661748
 20
496.5885533202526
 10
491.3334359770791
 20
496.6625075560421
 10
491.3778085185481
 20
496.7394199612575
 10
491.419222890593
 20
496.8163323664827
 10
491.4547209237726
 20
496.8962029411311
 10
491.4872607875194
 20
496.9790316852148
 10
491.5168424818329
 20
497.0648185987318
 10
491.5405078372841
 20
497.1506055122394
 10
491.5612150233066
 20
497.2393505951913
 10
491.5789640398948
 20
497.3280956781352
 10
491.5878385481895
 20
497.4197989305126
 10
491.5967130564845
 20
497.5115021828916
 10
491.5996712259157
 20
497.603205435267
 10
491.3955575351401
 20
497.603205435267
 10
491.3748503491196
 20
497.2748486283681
 10
491.2713144190162
 20
496.9849480240775
 10
491.126364116871
 20
496.6950474197886
 10
490.9192922566639
 20
496.4672683735605
 10
490.6708060244159
 20
496.2601965133541
 10
490.401612606147
 20
496.1152462112094
 10
490.0910048158376
 20
496.0117102811063
 10
489.7626480089382
 20
495.9910030950855
 10
489.7626480089382
 20
495.7868894043103
 10
489.8543512613152
 20
495.7898475737415
 10
489.9490126831238
 20
495.7987220820363
 10
490.0436741049333
 20
495.8075965903309
 10
490.1324191878789
 20
495.8253456069199
 10
490.221164270823
 20
495.843094623509
 10
490.3099093537711
 20
495.8697181483934
 10
490.3956962672753
 20
495.8992998427076
 10
490.4785250113676
 20
495.9288815370233
 10
490.5613537554467
 20
495.9673377396316
 10
490.638266160673
 20
496.0057939422441
 10
490.7151785658881
 20
496.0501664837165
 10
490.7920909711101
 20
496.0974971946196
 10
490.8630870374638
 20
496.1477860749558
 10
490.9340831038208
 20
496.2010331247237
 10
490.9991628313161
 20
496.2601965133543
 10
491.0642425588088
 20
496.3193599019856
 10
491.1234059474412
 20
496.3814814600473
 97
        0
 92
        7
 72
     0
 73
     1
 93
       42
 10
490.9192922566639
 20
513.0152681735189
 10
490.6708060244168
 20
513.2016328477044
 10
490.401612606147
 20
513.3672903358704
 10
490.0910048158376
 20
513.4501190799531
 10
489.7626480089371
 20
513.4915334519944
 10
489.7626480089382
 20
513.2874197612192
 10
489.836602244726
 20
513.2874197612192
 10
489.9105564805148
 20
513.281503422356
 10
489.9815525468703
 20
513.2696707446297
 10
490.0525486132277
 20
513.2578380669038
 10
490.1205865101525
 20
513.2430472197461
 10
490.1886244070777
 20
513.2223400337251
 10
490.2566623040033
 20
513.1986746782732
 10
490.3217420314961
 20
513.1750093228212
 10
490.3838635895595
 20
513.145427628506
 10
490.4459851476191
 20
513.1128877647596
 10
490.5051485362519
 20
513.0773897315806
 10
490.5643119248821
 20
513.0418916984019
 10
490.6205171440785
 20
513.0004773263616
 10
490.673764193849
 20
512.9590629543193
 10
490.7270112436131
 20
512.9117322434153
 10
490.7773001239521
 20
512.8644015325106
 10
490.8216726654235
 20
512.8141126521768
 10
490.8690033763279
 20
512.7638237718391
 10
490.9104177483711
 20
512.7076185526402
 10
490.9488739509805
 20
512.651413333441
 10
490.9873301535895
 20
512.595208114242
 10
491.0198700173356
 20
512.5330865561791
 10
491.0524098810843
 20
512.4739231675481
 10
491.0819915753996
 20
512.408843440054
 10
491.1056569308501
 20
512.3437637125622
 10
491.1293222863029
 20
512.2786839850665
 10
491.1470713028923
 20
512.2106460881433
 10
491.1648203194821
 20
512.1426081912178
 10
491.1766529972056
 20
512.071612124866
 10
491.1855275055017
 20
512.00357422794
 10
491.1914438443647
 20
511.9296199921484
 10
491.1914438443647
 20
511.8586239257921
 10
491.3955575351401
 20
511.8586239257921
 10
491.3748503491196
 20
512.1869807326925
 10
491.2713144190169
 20
512.4975885230011
 10
491.1263641168717
 20
512.7667819412701
 97
        0
 92
        7
 72
     0
 73
     1
 93
       42
 10
491.0021210007461
 20
513.2105073560007
 10
490.9340831038234
 20
513.2696707446289
 10
490.866045206897
 20
513.3258759638294
 10
490.7920909711084
 20
513.3761648441649
 10
490.7181367353206
 20
513.426453724501
 10
490.641224330101
 20
513.470826265974
 10
490.5613537554511
 20
513.5122406380141
 10
490.4814831807997
 20
513.5477386711932
 10
490.3956962672846
 20
513.5802785349401
 10
490.3099093537701
 20
513.6098602292553
 10
490.2241224402561
 20
513.6364837541393
 10
490.1324191878783
 20
513.6571909401602
 10
490.0436741049317
 20
513.6719817873173
 10
489.9490126831238
 20
513.6838144650438
 10
489.8573094307468
 20
513.6926889733381
 10
489.7626480089382
 20
513.6956471427696
 10
489.7626480089382
 20
513.4915334519944
 10
490.0910048158376
 20
513.4501190799531
 10
490.401612606147
 20
513.3672903358704
 10
490.6708060244168
 20
513.2016328477049
 10
490.9192922566639
 20
513.0152681735189
 10
491.1263641168717
 20
512.7667819412708
 10
491.2713144190169
 20
512.4975885230011
 10
491.3748503491196
 20
512.1869807326911
 10
491.3955575351401
 20
511.8586239257921
 10
491.5996712259157
 20
511.8586239257921
 10
491.5967130564845
 20
511.950327178168
 10
491.5878385481895
 20
512.0420304305463
 10
491.5789640398948
 20
512.1337336829232
 10
491.5612150233051
 20
512.222478765878
 10
491.5405078372841
 20
512.3112238488165
 10
491.5168424818329
 20
512.3970107623295
 10
491.4872607875181
 20
512.4827976758423
 10
491.4547209237703
 20
512.5656264199252
 10
491.419222890593
 20
512.6484551640094
 10
491.3778085185521
 20
512.7253675692291
 10
491.3363941465105
 20
512.8022799744484
 10
491.2861052661748
 20
512.8791923796683
 10
491.2358163858358
 20
512.9501884460234
 10
491.1825693360698
 20
513.0211845123816
 10
491.1234059474396
 20
513.0862642398754
 10
491.0642425588088
 20
513.1513439673685
 97
        0
 92
       23
 72
     0
 73
     1
 93
       42
 10
445.023293526536
 20
496.6092605062745
 10
444.9730046462007
 20
496.6595493866098
 10
444.9286321047294
 20
496.7098382669449
 10
444.8872177326885
 20
496.7630853167143
 10
444.8458033606446
 20
496.8192905359123
 10
444.8073471580332
 20
496.8754957551128
 10
444.7718491248556
 20
496.9346591437425
 10
444.7422674305427
 20
496.9967807018011
 10
444.7126857362261
 20
497.0559440904336
 10
444.6860622113391
 20
497.1210238179316
 10
444.6623968558895
 20
497.1861035454213
 10
444.6446478392998
 20
497.2541414423489
 10
444.6298569921427
 20
497.3221793392721
 10
444.6150661449856
 20
497.3902172361962
 10
444.6061916366899
 20
497.4612133025533
 10
444.6002752978279
 20
497.5322093689113
 10
444.6002752978279
 20
497.603205435267
 10
444.3961616070523
 20
497.603205435267
 10
444.4375759790933
 20
497.2748486283667
 10
444.541111909196
 20
496.9849480240791
 10
444.6860622113423
 20
496.6950474197886
 10
444.8931340715488
 20
496.4672683735618
 10
445.1209131177757
 20
496.2601965133543
 10
445.4108137220652
 20
496.1152462112097
 10
445.7007143263549
 20
496.0117102811063
 10
446.0290711332551
 20
495.9910030950855
 10
446.0290711332551
 20
496.1951167858606
 10
445.9580750668981
 20
496.1951167858606
 10
445.8841208311102
 20
496.2010331247237
 10
445.8131247647528
 20
496.2099076330185
 10
445.7450868678275
 20
496.2217403107444
 10
445.677048970903
 20
496.2394893273335
 10
445.6090110739798
 20
496.2572383439225
 10
445.5439313464842
 20
496.2809036993751
 10
445.4788516189911
 20
496.3045690548273
 10
445.4137718914971
 20
496.3341507491421
 10
445.3546085028651
 20
496.3637324434584
 10
445.292486944806
 20
496.3992304766357
 10
445.2362817256063
 20
496.4376866792462
 10
445.177118336975
 20
496.4761428818555
 10
445.1238712872076
 20
496.5175572538965
 10
445.0706242374405
 20
496.5619297953698
 97
        0
 92
        7
 72
     0
 73
     1
 93
       42
 10
444.8931340715476
 20
496.4672683735618
 10
444.6860622113423
 20
496.6950474197886
 10
444.541111909196
 20
496.9849480240791
 10
444.4375759790933
 20
497.2748486283673
 10
444.3961616070523
 20
497.603205435267
 10
444.1920479162771
 20
497.603205435267
 10
444.1950060857092
 20
497.5115021828907
 10
444.2038805940033
 20
497.4197989305107
 10
444.2157132717293
 20
497.3280956781343
 10
444.2305041188873
 20
497.2393505951889
 10
444.2512113049071
 20
497.1506055122413
 10
444.2778348297919
 20
497.0648185987287
 10
444.3074165241053
 20
496.9790316852176
 10
444.3399563878527
 20
496.8962029411338
 10
444.3784125904651
 20
496.8163323664763
 10
444.4198269625032
 20
496.7364617918315
 10
444.4641995039798
 20
496.6625075560386
 10
444.5115302148828
 20
496.5885533202526
 10
444.5618190952178
 20
496.517557253898
 10
444.6180243144159
 20
496.4495193569733
 10
444.677187703045
 20
496.3814814600473
 10
444.736351091678
 20
496.3193599019856
 10
444.8014308191723
 20
496.2601965133566
 10
444.8694687160976
 20
496.2010331247229
 10
444.9375066130218
 20
496.1477860749566
 10
445.0085026793771
 20
496.0974971946208
 10
445.0854150845936
 20
496.0501664837173
 10
445.1593693203856
 20
496.0057939422434
 10
445.2392398950368
 20
495.9673377396336
 10
445.322068639119
 20
495.9288815370237
 10
445.4048973831967
 20
495.8992998427101
 10
445.4906842967178
 20
495.8697181483928
 10
445.5764712102323
 20
495.843094623509
 10
445.6652162931779
 20
495.8253456069199
 10
445.7539613761233
 20
495.8075965903309
 10
445.8456646285003
 20
495.7987220820363
 10
445.9373678808773
 20
495.789847573742
 10
446.0290711332551
 20
495.7868894043103
 10
446.0290711332551
 20
495.9910030950855
 10
445.7007143263549
 20
496.0117102811063
 10
445.4108137220663
 20
496.1152462112097
 10
445.1209131177757
 20
496.2601965133543
 97
        0
 75
     0
 76
     1
 47
0.02498
 98
       13
 10
444.4739387913902
 20
506.4749278402906
 10
453.6196997913905
 20
496.0381798402905
 10
464.2223147913905
 20
513.3518548402905
 10
491.4977337913905
 20
507.2030718402905
 10
444.7866127913903
 20
513.1928108402907
 10
445.1158877913903
 20
513.1457908402905
 10
474.0923507913904
 20
495.8888148402905
 10
490.8855277913906
 20
496.6411638402907
 10
491.1207277913905
 20
496.4060548402906
 10
490.8855277913906
 20
512.9577028402906
 10
490.9796067913905
 20
513.1928108402907
 10
444.9277297913905
 20
496.5471198402905
 10
444.8806917913905
 20
496.3120108402907
450
        0
451
        0
460
0.0
461
0.0
452
        0
462
0.0
453
        0
470

  0
LINE
  5
15A
330
2
100
AcDbEntity
  8
AM_4
100
AcDbLine
 10
445.9580747913904
 20
496.1951168402905
 30
0.0
 11
489.8366017913905
 21
496.1951168402905
 31
0.0
  0
LINE
  5
15B
330
2
100
AcDbEntity
  8
AM_4
100
AcDbLine
 10
446.0290707913904
 20
495.7868898402906
 30
0.0
 11
489.7626477913905
 21
495.7868898402906
 31
0.0
  0
LINE
  5
15C
330
2
100
AcDbEntity
  8
AM_4
100
AcDbLine
 10
489.7626477913905
 20
495.9910028402906
 30
0.0
 11
446.0290707913904
 21
495.9910028402906
 31
0.0
  0
LINE
  5
15D
330
2
100
AcDbEntity
  8
AM_4
100
AcDbLine
 10
489.9105567913903
 20
496.2010328402906
 30
0.0
 11
446.0290707913904
 21
496.1951168402905
 31
0.0
  0
LINE
  5
15E
330
2
100
AcDbEntity
  8
AM_4
100
AcDbLine
 10
489.9278637913902
 20
495.7928078402906
 30
0.0
 11
446.0291257913905
 21
495.7868898402906
 31
0.0
  0
LINE
  5
15F
330
2
100
AcDbEntity
  8
AM_4
100
AcDbLine
 10
489.9119857913905
 20
496.1692828402905
 30
0.0
 11
446.0290757913902
 21
496.1633658402907
 31
0.0
  0
ARC
  5
160
330
2
100
AcDbEntity
  8
AM_4
100
AcDbCircle
 10
446.0288777913905
 20
497.6274868402907
 30
0.0
 40
1.840596999999999
100
AcDbArc
 50
186.6660749999994
 51
270.0077249999996
  0
ARC
  5
161
330
2
100
AcDbEntity
  8
AM_4
100
AcDbCircle
 10
446.0288777913905
 20
497.6274868402907
 30
0.0
 40
1.46412
100
AcDbArc
 50
186.6660749999994
 51
270.0077249999996
  0
LINE
  5
162
330
2
100
AcDbEntity
  8
AM_4
100
AcDbLine
 10
444.3074167913905
 20
496.9790318402906
 30
0.0
 11
444.3399567913905
 21
496.8962028402907
 31
0.0
  0
LINE
  5
163
330
2
100
AcDbEntity
  8
AM_4
100
AcDbLine
 10
444.6002757913904
 20
497.6032058402906
 30
0.0
 11
444.1920477913905
 21
497.6032058402906
 31
0.0
  0
LINE
  5
164
330
2
100
AcDbEntity
  8
AM_4
100
AcDbLine
 10
444.1920477913905
 20
497.6032058402906
 30
0.0
 11
444.1950057913905
 21
497.5115018402905
 31
0.0
  0
LINE
  5
165
330
2
100
AcDbEntity
  8
AM_4
100
AcDbLine
 10
444.1950057913905
 20
497.5115018402905
 30
0.0
 11
444.2038807913903
 21
497.4197988402907
 31
0.0
  0
LINE
  5
166
330
2
100
AcDbEntity
  8
AM_4
100
AcDbLine
 10
444.2038807913903
 20
497.4197988402907
 30
0.0
 11
444.2157127913906
 21
497.3280958402906
 31
0.0
  0
LINE
  5
167
330
2
100
AcDbEntity
  8
AM_4
100
AcDbLine
 10
444.2157127913906
 20
497.3280958402906
 30
0.0
 11
444.2305037913905
 21
497.2393508402906
 31
0.0
  0
LINE
  5
168
330
2
100
AcDbEntity
  8
AM_4
100
AcDbLine
 10
444.2305037913905
 20
497.2393508402906
 30
0.0
 11
444.2512117913905
 21
497.1506058402906
 31
0.0
  0
LINE
  5
169
330
2
100
AcDbEntity
  8
AM_4
100
AcDbLine
 10
444.2512117913905
 20
497.1506058402906
 30
0.0
 11
444.2778347913905
 21
497.0648188402906
 31
0.0
  0
LINE
  5
16A
330
2
100
AcDbEntity
  8
AM_4
100
AcDbLine
 10
444.2778347913905
 20
497.0648188402906
 30
0.0
 11
444.3074167913905
 21
496.9790318402906
 31
0.0
  0
LINE
  5
16B
330
2
100
AcDbEntity
  8
AM_4
100
AcDbLine
 10
444.1920477913905
 20
497.6032058402906
 30
0.0
 11
444.1920477913905
 21
497.6032058402906
 31
0.0
  0
ARC
  5
16C
330
2
100
AcDbEntity
  8
AM_4
100
AcDbCircle
 10
446.0288777913905
 20
497.6274868402907
 30
0.0
 40
1.43237
100
AcDbArc
 50
186.6660749999994
 51
270.0077249999996
  0
LINE
  5
16D
330
2
100
AcDbEntity
  8
AM_4
100
AcDbLine
 10
444.7363507913904
 20
496.3193598402906
 30
0.0
 11
444.8014307913902
 21
496.2601968402905
 31
0.0
  0
LINE
  5
16E
330
2
100
AcDbEntity
  8
AM_4
100
AcDbLine
 10
444.8931337913903
 20
496.4672688402906
 30
0.0
 11
444.6860617913904
 21
496.6950478402906
 31
0.0
  0
LINE
  5
16F
330
2
100
AcDbEntity
  8
AM_4
100
AcDbLine
 10
444.7718487913905
 20
496.9346588402905
 30
0.0
 11
444.7422677913904
 21
496.9967808402905
 31
0.0
  0
LINE
  5
170
330
2
100
AcDbEntity
  8
AM_4
100
AcDbLine
 10
444.5618187913906
 20
496.5175568402907
 30
0.0
 11
444.6180247913905
 21
496.4495198402905
 31
0.0
  0
LINE
  5
171
330
2
100
AcDbEntity
  8
AM_4
100
AcDbLine
 10
444.6180247913905
 20
496.4495198402905
 30
0.0
 11
444.6771877913905
 21
496.3814818402907
 31
0.0
  0
LINE
  5
172
330
2
100
AcDbEntity
  8
AM_4
100
AcDbLine
 10
444.6771877913905
 20
496.3814818402907
 30
0.0
 11
444.7363507913904
 21
496.3193598402906
 31
0.0
  0
LINE
  5
173
330
2
100
AcDbEntity
  8
AM_4
100
AcDbLine
 10
444.3399567913905
 20
496.8962028402907
 30
0.0
 11
444.3784127913905
 21
496.8163328402907
 31
0.0
  0
LINE
  5
174
330
2
100
AcDbEntity
  8
AM_4
100
AcDbLine
 10
444.6860617913904
 20
496.6950478402906
 30
0.0
 11
444.5411117913905
 21
496.9849478402905
 31
0.0
  0
LINE
  5
175
330
2
100
AcDbEntity
  8
AM_4
100
AcDbLine
 10
444.3784127913905
 20
496.8163328402907
 30
0.0
 11
444.4198267913905
 21
496.7364618402905
 31
0.0
  0
LINE
  5
176
330
2
100
AcDbEntity
  8
AM_4
100
AcDbLine
 10
444.4198267913905
 20
496.7364618402905
 30
0.0
 11
444.4641997913905
 21
496.6625078402906
 31
0.0
  0
LINE
  5
177
330
2
100
AcDbEntity
  8
AM_4
100
AcDbLine
 10
444.4641997913905
 20
496.6625078402906
 30
0.0
 11
444.5115297913905
 21
496.5885528402906
 31
0.0
  0
LINE
  5
178
330
2
100
AcDbEntity
  8
AM_4
100
AcDbLine
 10
444.5115297913905
 20
496.5885528402906
 30
0.0
 11
444.5618187913906
 21
496.5175568402907
 31
0.0
  0
LINE
  5
179
330
2
100
AcDbEntity
  8
AM_4
100
AcDbLine
 10
444.7422677913904
 20
496.9967808402905
 30
0.0
 11
444.7126857913905
 21
497.0559438402905
 31
0.0
  0
LINE
  5
17A
330
2
100
AcDbEntity
  8
AM_4
100
AcDbLine
 10
444.7126857913905
 20
497.0559438402905
 30
0.0
 11
444.6860617913904
 21
497.1210238402906
 31
0.0
  0
LINE
  5
17B
330
2
100
AcDbEntity
  8
AM_4
100
AcDbLine
 10
444.6860617913904
 20
497.1210238402906
 30
0.0
 11
444.6623967913905
 21
497.1861038402907
 31
0.0
  0
LINE
  5
17C
330
2
100
AcDbEntity
  8
AM_4
100
AcDbLine
 10
444.6623967913905
 20
497.1861038402907
 30
0.0
 11
444.6446477913905
 21
497.2541418402906
 31
0.0
  0
LINE
  5
17D
330
2
100
AcDbEntity
  8
AM_4
100
AcDbLine
 10
444.6446477913905
 20
497.2541418402906
 30
0.0
 11
444.6298567913905
 21
497.3221788402906
 31
0.0
  0
LINE
  5
17E
330
2
100
AcDbEntity
  8
AM_4
100
AcDbLine
 10
444.6298567913905
 20
497.3221788402906
 30
0.0
 11
444.6150657913904
 21
497.3902168402907
 31
0.0
  0
LINE
  5
17F
330
2
100
AcDbEntity
  8
AM_4
100
AcDbLine
 10
444.6150657913904
 20
497.3902168402907
 30
0.0
 11
444.6061917913905
 21
497.4612128402906
 31
0.0
  0
LINE
  5
180
330
2
100
AcDbEntity
  8
AM_4
100
AcDbLine
 10
444.6061917913905
 20
497.4612128402906
 30
0.0
 11
444.6002757913904
 21
497.5322098402905
 31
0.0
  0
LINE
  5
181
330
2
100
AcDbEntity
  8
AM_4
100
AcDbLine
 10
444.5411117913905
 20
496.9849478402905
 30
0.0
 11
444.4375757913904
 21
497.2748488402905
 31
0.0
  0
LINE
  5
182
330
2
100
AcDbEntity
  8
AM_4
100
AcDbLine
 10
444.4375757913904
 20
497.2748488402905
 30
0.0
 11
444.3961617913905
 21
497.6032058402906
 31
0.0
  0
ARC
  5
183
330
2
100
AcDbEntity
  8
AM_4
100
AcDbCircle
 10
445.5503347913905
 20
497.5715578402907
 30
0.0
 40
0.9823199999999999
100
AcDbArc
 50
178.153772999999
 51
186.6660749999994
  0
LINE
  5
184
330
2
100
AcDbEntity
  8
AM_4
100
AcDbLine
 10
445.2362817913905
 20
496.4376868402906
 30
0.0
 11
445.1771187913903
 21
496.4761428402907
 31
0.0
  0
LINE
  5
185
330
2
100
AcDbEntity
  8
AM_4
100
AcDbLine
 10
444.8014307913902
 20
496.2601968402905
 30
0.0
 11
444.8694687913905
 21
496.2010328402906
 31
0.0
  0
LINE
  5
186
330
2
100
AcDbEntity
  8
AM_4
100
AcDbLine
 10
444.8694687913905
 20
496.2010328402906
 30
0.0
 11
444.9375067913905
 21
496.1477858402907
 31
0.0
  0
LINE
  5
187
330
2
100
AcDbEntity
  8
AM_4
100
AcDbLine
 10
444.9375067913905
 20
496.1477858402907
 30
0.0
 11
445.0085027913905
 21
496.0974968402906
 31
0.0
  0
LINE
  5
188
330
2
100
AcDbEntity
  8
AM_4
100
AcDbLine
 10
445.0085027913905
 20
496.0974968402906
 30
0.0
 11
445.0854147913905
 21
496.0501668402907
 31
0.0
  0
LINE
  5
189
330
2
100
AcDbEntity
  8
AM_4
100
AcDbLine
 10
445.0854147913905
 20
496.0501668402907
 30
0.0
 11
445.1593697913905
 21
496.0057938402906
 31
0.0
  0
LINE
  5
18A
330
2
100
AcDbEntity
  8
AM_4
100
AcDbLine
 10
445.1593697913905
 20
496.0057938402906
 30
0.0
 11
445.2392397913905
 21
495.9673378402905
 31
0.0
  0
LINE
  5
18B
330
2
100
AcDbEntity
  8
AM_4
100
AcDbLine
 10
445.2392397913905
 20
495.9673378402905
 30
0.0
 11
445.3220687913905
 21
495.9288818402906
 31
0.0
  0
LINE
  5
18C
330
2
100
AcDbEntity
  8
AM_4
100
AcDbLine
 10
445.3220687913905
 20
495.9288818402906
 30
0.0
 11
445.4048977913905
 21
495.8992998402906
 31
0.0
  0
LINE
  5
18D
330
2
100
AcDbEntity
  8
AM_4
100
AcDbLine
 10
445.4048977913905
 20
495.8992998402906
 30
0.0
 11
445.4906847913902
 21
495.8697178402906
 31
0.0
  0
LINE
  5
18E
330
2
100
AcDbEntity
  8
AM_4
100
AcDbLine
 10
445.4906847913902
 20
495.8697178402906
 30
0.0
 11
445.5764707913905
 21
495.8430948402905
 31
0.0
  0
LINE
  5
18F
330
2
100
AcDbEntity
  8
AM_4
100
AcDbLine
 10
445.5764707913905
 20
495.8430948402905
 30
0.0
 11
445.7539617913905
 21
495.8075968402907
 31
0.0
  0
LINE
  5
190
330
2
100
AcDbEntity
  8
AM_4
100
AcDbLine
 10
445.7539617913905
 20
495.8075968402907
 30
0.0
 11
445.9373677913903
 21
495.7898478402904
 31
0.0
  0
LINE
  5
191
330
2
100
AcDbEntity
  8
AM_4
100
AcDbLine
 10
445.9373677913903
 20
495.7898478402904
 30
0.0
 11
446.0290707913904
 21
495.7868898402906
 31
0.0
  0
LINE
  5
192
330
2
100
AcDbEntity
  8
AM_4
100
AcDbLine
 10
445.9580747913904
 20
496.1951168402905
 30
0.0
 11
445.8841207913905
 21
496.2010328402906
 31
0.0
  0
LINE
  5
193
330
2
100
AcDbEntity
  8
AM_4
100
AcDbLine
 10
445.8841207913905
 20
496.2010328402906
 30
0.0
 11
445.8131247913905
 21
496.2099078402906
 31
0.0
  0
LINE
  5
194
330
2
100
AcDbEntity
  8
AM_4
100
AcDbLine
 10
445.8131247913905
 20
496.2099078402906
 30
0.0
 11
445.7450867913903
 21
496.2217398402906
 31
0.0
  0
LINE
  5
195
330
2
100
AcDbEntity
  8
AM_4
100
AcDbLine
 10
445.6090107913905
 20
496.2572388402906
 30
0.0
 11
445.7450867913903
 21
496.2217398402906
 31
0.0
  0
LINE
  5
196
330
2
100
AcDbEntity
  8
AM_4
100
AcDbLine
 10
445.4788517913906
 20
496.3045688402906
 30
0.0
 11
445.6090107913905
 21
496.2572388402906
 31
0.0
  0
LINE
  5
197
330
2
100
AcDbEntity
  8
AM_4
100
AcDbLine
 10
445.4788517913906
 20
496.3045688402906
 30
0.0
 11
445.4137717913905
 21
496.3341508402906
 31
0.0
  0
LINE
  5
198
330
2
100
AcDbEntity
  8
AM_4
100
AcDbLine
 10
445.4137717913905
 20
496.3341508402906
 30
0.0
 11
445.3546087913903
 21
496.3637328402906
 31
0.0
  0
LINE
  5
199
330
2
100
AcDbEntity
  8
AM_4
100
AcDbLine
 10
445.3546087913903
 20
496.3637328402906
 30
0.0
 11
445.2924867913905
 21
496.3992308402906
 31
0.0
  0
LINE
  5
19A
330
2
100
AcDbEntity
  8
AM_4
100
AcDbLine
 10
445.2924867913905
 20
496.3992308402906
 30
0.0
 11
445.2362817913905
 21
496.4376868402906
 31
0.0
  0
LINE
  5
19B
330
2
100
AcDbEntity
  8
AM_4
100
AcDbLine
 10
446.0290707913904
 20
496.1951168402905
 30
0.0
 11
446.0290707913904
 21
495.7868898402906
 31
0.0
  0
LINE
  5
19C
330
2
100
AcDbEntity
  8
AM_4
100
AcDbLine
 10
446.0290707913904
 20
495.7868898402906
 30
0.0
 11
446.0290707913904
 21
495.7868898402906
 31
0.0
  0
LINE
  5
19D
330
2
100
AcDbEntity
  8
AM_4
100
AcDbLine
 10
446.0290707913904
 20
495.9910028402906
 30
0.0
 11
445.7007147913905
 21
496.0117098402906
 31
0.0
  0
LINE
  5
19E
330
2
100
AcDbEntity
  8
AM_4
100
AcDbLine
 10
445.7007147913905
 20
496.0117098402906
 30
0.0
 11
445.4108137913904
 21
496.1152458402906
 31
0.0
  0
LINE
  5
19F
330
2
100
AcDbEntity
  8
AM_4
100
AcDbLine
 10
445.4108137913904
 20
496.1152458402906
 30
0.0
 11
445.1209127913902
 21
496.2601968402905
 31
0.0
  0
LINE
  5
1A0
330
2
100
AcDbEntity
  8
AM_4
100
AcDbLine
 10
445.1209127913902
 20
496.2601968402905
 30
0.0
 11
444.8931337913903
 21
496.4672688402906
 31
0.0
  0
LINE
  5
1A1
330
2
100
AcDbEntity
  8
AM_4
100
AcDbLine
 10
444.8458037913905
 20
496.8192908402905
 30
0.0
 11
444.8073467913904
 21
496.8754958402906
 31
0.0
  0
LINE
  5
1A2
330
2
100
AcDbEntity
  8
AM_4
100
AcDbLine
 10
445.1238707913905
 20
496.5175568402907
 30
0.0
 11
445.0706237913903
 21
496.5619298402906
 31
0.0
  0
LINE
  5
1A3
330
2
100
AcDbEntity
  8
AM_4
100
AcDbLine
 10
444.9730047913905
 20
496.6595498402906
 30
0.0
 11
445.0706237913903
 21
496.5619298402906
 31
0.0
  0
LINE
  5
1A4
330
2
100
AcDbEntity
  8
AM_4
100
AcDbLine
 10
444.9730047913905
 20
496.6595498402906
 30
0.0
 11
444.9286317913905
 21
496.7098378402907
 31
0.0
  0
LINE
  5
1A5
330
2
100
AcDbEntity
  8
AM_4
100
AcDbLine
 10
444.9286317913905
 20
496.7098378402907
 30
0.0
 11
444.8872177913902
 21
496.7630848402905
 31
0.0
  0
LINE
  5
1A6
330
2
100
AcDbEntity
  8
AM_4
100
AcDbLine
 10
444.8872177913902
 20
496.7630848402905
 30
0.0
 11
444.8458037913905
 21
496.8192908402905
 31
0.0
  0
LINE
  5
1A7
330
2
100
AcDbEntity
  8
AM_4
100
AcDbLine
 10
445.1771187913903
 20
496.4761428402907
 30
0.0
 11
445.1238707913905
 21
496.5175568402907
 31
0.0
  0
LINE
  5
1A8
330
2
100
AcDbEntity
  8
AM_4
100
AcDbLine
 10
444.8073467913904
 20
496.8754958402906
 30
0.0
 11
444.7718487913905
 21
496.9346588402905
 31
0.0
  0
LINE
  5
1A9
330
2
100
AcDbEntity
  8
AM_4
100
AcDbLine
 10
491.1796107913906
 20
496.4495198402905
 30
0.0
 11
491.2358167913904
 21
496.5175568402907
 31
0.0
  0
LINE
  5
1AA
330
2
100
AcDbEntity
  8
AM_4
100
AcDbLine
 10
490.5643117913905
 20
496.4347288402906
 30
0.0
 11
490.6767227913905
 21
496.5175568402907
 31
0.0
  0
LINE
  5
1AB
330
2
100
AcDbEntity
  8
AM_4
100
AcDbLine
 10
491.1263637913905
 20
496.6950478402906
 30
0.0
 11
490.9192917913903
 21
496.4672688402906
 31
0.0
  0
LINE
  5
1AC
330
2
100
AcDbEntity
  8
AM_4
100
AcDbLine
 10
490.2211637913906
 20
495.8430948402905
 30
0.0
 11
490.3099097913905
 21
495.8697178402906
 31
0.0
  0
LINE
  5
1AD
330
2
100
AcDbEntity
  8
AM_4
100
AcDbLine
 10
490.3099097913905
 20
495.8697178402906
 30
0.0
 11
490.3956957913903
 21
495.8992998402906
 31
0.0
  0
LINE
  5
1AE
330
2
100
AcDbEntity
  8
AM_4
100
AcDbLine
 10
490.3956957913903
 20
495.8992998402906
 30
0.0
 11
490.4785247913905
 21
495.9288818402906
 31
0.0
  0
LINE
  5
1AF
330
2
100
AcDbEntity
  8
AM_4
100
AcDbLine
 10
490.4785247913905
 20
495.9288818402906
 30
0.0
 11
490.5613537913906
 21
495.9673378402905
 31
0.0
  0
LINE
  5
1B0
330
2
100
AcDbEntity
  8
AM_4
100
AcDbLine
 10
490.5613537913906
 20
495.9673378402905
 30
0.0
 11
490.6382657913905
 21
496.0057938402906
 31
0.0
  0
LINE
  5
1B1
330
2
100
AcDbEntity
  8
AM_4
100
AcDbLine
 10
490.6382657913905
 20
496.0057938402906
 30
0.0
 11
490.7151787913902
 21
496.0501668402907
 31
0.0
  0
LINE
  5
1B2
330
2
100
AcDbEntity
  8
AM_4
100
AcDbLine
 10
490.7151787913902
 20
496.0501668402907
 30
0.0
 11
490.7920907913903
 21
496.0974968402906
 31
0.0
  0
LINE
  5
1B3
330
2
100
AcDbEntity
  8
AM_4
100
AcDbLine
 10
490.7920907913903
 20
496.0974968402906
 30
0.0
 11
490.8630867913905
 21
496.1477858402907
 31
0.0
  0
LINE
  5
1B4
330
2
100
AcDbEntity
  8
AM_4
100
AcDbLine
 10
490.8630867913905
 20
496.1477858402907
 30
0.0
 11
490.9340827913905
 21
496.2010328402906
 31
0.0
  0
LINE
  5
1B5
330
2
100
AcDbEntity
  8
AM_4
100
AcDbLine
 10
490.9340827913905
 20
496.2010328402906
 30
0.0
 11
491.0642427913905
 21
496.3193598402906
 31
0.0
  0
LINE
  5
1B6
330
2
100
AcDbEntity
  8
AM_4
100
AcDbLine
 10
491.0642427913905
 20
496.3193598402906
 30
0.0
 11
491.1234057913905
 21
496.3814818402907
 31
0.0
  0
LINE
  5
1B7
330
2
100
AcDbEntity
  8
AM_4
100
AcDbLine
 10
491.1234057913905
 20
496.3814818402907
 30
0.0
 11
491.1796107913906
 21
496.4495198402905
 31
0.0
  0
LINE
  5
1B8
330
2
100
AcDbEntity
  8
AM_4
100
AcDbLine
 10
490.5643117913905
 20
496.4347288402906
 30
0.0
 11
490.5081067913905
 21
496.3992308402906
 31
0.0
  0
LINE
  5
1B9
330
2
100
AcDbEntity
  8
AM_4
100
AcDbLine
 10
490.5081067913905
 20
496.3992308402906
 30
0.0
 11
490.4489437913905
 21
496.3637328402906
 31
0.0
  0
LINE
  5
1BA
330
2
100
AcDbEntity
  8
AM_4
100
AcDbLine
 10
490.4489437913905
 20
496.3637328402906
 30
0.0
 11
490.3868217913903
 21
496.3341508402906
 31
0.0
  0
LINE
  5
1BB
330
2
100
AcDbEntity
  8
AM_4
100
AcDbLine
 10
490.3868217913903
 20
496.3341508402906
 30
0.0
 11
490.3217417913905
 21
496.3045688402906
 31
0.0
  0
LINE
  5
1BC
330
2
100
AcDbEntity
  8
AM_4
100
AcDbLine
 10
490.1915827913905
 20
496.2572388402906
 30
0.0
 11
490.3217417913905
 21
496.3045688402906
 31
0.0
  0
LINE
  5
1BD
330
2
100
AcDbEntity
  8
AM_4
100
AcDbLine
 10
490.1915827913905
 20
496.2572388402906
 30
0.0
 11
490.1235447913903
 21
496.2394888402906
 31
0.0
  0
LINE
  5
1BE
330
2
100
AcDbEntity
  8
AM_4
100
AcDbLine
 10
490.9192917913903
 20
496.4672688402906
 30
0.0
 11
490.6708057913903
 21
496.2601968402905
 31
0.0
  0
LINE
  5
1BF
330
2
100
AcDbEntity
  8
AM_4
100
AcDbLine
 10
490.6708057913903
 20
496.2601968402905
 30
0.0
 11
490.4016127913902
 21
496.1152458402906
 31
0.0
  0
LINE
  5
1C0
330
2
100
AcDbEntity
  8
AM_4
100
AcDbLine
 10
490.4016127913902
 20
496.1152458402906
 30
0.0
 11
490.0910047913903
 21
496.0117098402906
 31
0.0
  0
LINE
  5
1C1
330
2
100
AcDbEntity
  8
AM_4
100
AcDbLine
 10
491.5996707913905
 20
497.6032058402906
 30
0.0
 11
491.5996707913905
 21
497.6032058402906
 31
0.0
  0
LINE
  5
1C2
330
2
100
AcDbEntity
  8
AM_4
100
AcDbLine
 10
491.4547207913905
 20
496.8962028402907
 30
0.0
 11
491.4872607913905
 21
496.9790318402906
 31
0.0
  0
LINE
  5
1C3
330
2
100
AcDbEntity
  8
AM_4
100
AcDbLine
 10
491.4872607913905
 20
496.9790318402906
 30
0.0
 11
491.5168427913903
 21
497.0648188402906
 31
0.0
  0
LINE
  5
1C4
330
2
100
AcDbEntity
  8
AM_4
100
AcDbLine
 10
491.5168427913903
 20
497.0648188402906
 30
0.0
 11
491.5405077913905
 21
497.1506058402906
 31
0.0
  0
LINE
  5
1C5
330
2
100
AcDbEntity
  8
AM_4
100
AcDbLine
 10
491.5405077913905
 20
497.1506058402906
 30
0.0
 11
491.5612147913905
 21
497.2393508402906
 31
0.0
  0
LINE
  5
1C6
330
2
100
AcDbEntity
  8
AM_4
100
AcDbLine
 10
491.5612147913905
 20
497.2393508402906
 30
0.0
 11
491.5789637913904
 21
497.3280958402906
 31
0.0
  0
LINE
  5
1C7
330
2
100
AcDbEntity
  8
AM_4
100
AcDbLine
 10
491.5789637913904
 20
497.3280958402906
 30
0.0
 11
491.5967127913902
 21
497.5115018402905
 31
0.0
  0
LINE
  5
1C8
330
2
100
AcDbEntity
  8
AM_4
100
AcDbLine
 10
491.5967127913902
 20
497.5115018402905
 30
0.0
 11
491.5996707913905
 21
497.6032058402906
 31
0.0
  0
LINE
  5
1C9
330
2
100
AcDbEntity
  8
AM_4
100
AcDbLine
 10
491.5996707913905
 20
497.6032058402906
 30
0.0
 11
491.1914437913905
 21
497.6032058402906
 31
0.0
  0
LINE
  5
1CA
330
2
100
AcDbEntity
  8
AM_4
100
AcDbLine
 10
491.1914437913905
 20
497.5322098402905
 30
0.0
 11
491.1855277913905
 21
497.4612128402906
 31
0.0
  0
LINE
  5
1CB
330
2
100
AcDbEntity
  8
AM_4
100
AcDbLine
 10
491.1855277913905
 20
497.4612128402906
 30
0.0
 11
491.1766527913905
 21
497.3902168402907
 31
0.0
  0
LINE
  5
1CC
330
2
100
AcDbEntity
  8
AM_4
100
AcDbLine
 10
491.1766527913905
 20
497.3902168402907
 30
0.0
 11
491.1648207913905
 21
497.3192208402905
 31
0.0
  0
LINE
  5
1CD
330
2
100
AcDbEntity
  8
AM_4
100
AcDbLine
 10
491.1648207913905
 20
497.3192208402905
 30
0.0
 11
491.1470717913902
 21
497.2511828402907
 31
0.0
  0
LINE
  5
1CE
330
2
100
AcDbEntity
  8
AM_4
100
AcDbLine
 10
491.1470717913902
 20
497.2511828402907
 30
0.0
 11
491.1293217913904
 21
497.1861038402907
 31
0.0
  0
LINE
  5
1CF
330
2
100
AcDbEntity
  8
AM_4
100
AcDbLine
 10
491.0819917913904
 20
497.0559438402905
 30
0.0
 11
491.1293217913904
 21
497.1861038402907
 31
0.0
  0
LINE
  5
1D0
330
2
100
AcDbEntity
  8
AM_4
100
AcDbLine
 10
491.0228277913906
 20
496.9317008402907
 30
0.0
 11
491.0819917913904
 21
497.0559438402905
 31
0.0
  0
LINE
  5
1D1
330
2
100
AcDbEntity
  8
AM_4
100
AcDbLine
 10
491.0228277913906
 20
496.9317008402907
 30
0.0
 11
490.9873297913905
 21
496.8754958402906
 31
0.0
  0
LINE
  5
1D2
330
2
100
AcDbEntity
  8
AM_4
100
AcDbLine
 10
491.3955577913903
 20
497.6032058402906
 30
0.0
 11
491.3748507913902
 21
497.2748488402905
 31
0.0
  0
LINE
  5
1D3
330
2
100
AcDbEntity
  8
AM_4
100
AcDbLine
 10
491.3748507913902
 20
497.2748488402905
 30
0.0
 11
491.2713147913905
 21
496.9849478402905
 31
0.0
  0
LINE
  5
1D4
330
2
100
AcDbEntity
  8
AM_4
100
AcDbLine
 10
491.4192227913905
 20
496.8163328402907
 30
0.0
 11
491.4547207913905
 21
496.8962028402907
 31
0.0
  0
LINE
  5
1D5
330
2
100
AcDbEntity
  8
AM_4
100
AcDbLine
 10
490.9873297913905
 20
496.8754958402906
 30
0.0
 11
490.9518317913905
 21
496.8163328402907
 31
0.0
  0
LINE
  5
1D6
330
2
100
AcDbEntity
  8
AM_4
100
AcDbLine
 10
491.2713147913905
 20
496.9849478402905
 30
0.0
 11
491.1263637913905
 21
496.6950478402906
 31
0.0
  0
LINE
  5
1D7
330
2
100
AcDbEntity
  8
AM_4
100
AcDbLine
 10
491.2358167913904
 20
496.5175568402907
 30
0.0
 11
491.2861047913905
 21
496.5885528402906
 31
0.0
  0
LINE
  5
1D8
330
2
100
AcDbEntity
  8
AM_4
100
AcDbLine
 10
491.2861047913905
 20
496.5885528402906
 30
0.0
 11
491.3334357913905
 21
496.6625078402906
 31
0.0
  0
LINE
  5
1D9
330
2
100
AcDbEntity
  8
AM_4
100
AcDbLine
 10
491.3334357913905
 20
496.6625078402906
 30
0.0
 11
491.3778087913905
 21
496.7394198402907
 31
0.0
  0
LINE
  5
1DA
330
2
100
AcDbEntity
  8
AM_4
100
AcDbLine
 10
491.3778087913905
 20
496.7394198402907
 30
0.0
 11
491.4192227913905
 21
496.8163328402907
 31
0.0
  0
LINE
  5
1DB
330
2
100
AcDbEntity
  8
AM_4
100
AcDbLine
 10
490.9518317913905
 20
496.8163328402907
 30
0.0
 11
490.9104177913905
 21
496.7630848402905
 31
0.0
  0
LINE
  5
1DC
330
2
100
AcDbEntity
  8
AM_4
100
AcDbLine
 10
490.9104177913905
 20
496.7630848402905
 30
0.0
 11
490.8690037913904
 21
496.7068798402904
 31
0.0
  0
LINE
  5
1DD
330
2
100
AcDbEntity
  8
AM_4
100
AcDbLine
 10
490.8690037913904
 20
496.7068798402904
 30
0.0
 11
490.8246307913905
 21
496.6565908402905
 31
0.0
  0
LINE
  5
1DE
330
2
100
AcDbEntity
  8
AM_4
100
AcDbLine
 10
490.8246307913905
 20
496.6565908402905
 30
0.0
 11
490.7772997913905
 21
496.6092608402906
 31
0.0
  0
LINE
  5
1DF
330
2
100
AcDbEntity
  8
AM_4
100
AcDbLine
 10
490.7772997913905
 20
496.6092608402906
 30
0.0
 11
490.7270107913904
 21
496.5619298402906
 31
0.0
  0
LINE
  5
1E0
330
2
100
AcDbEntity
  8
AM_4
100
AcDbLine
 10
490.7270107913904
 20
496.5619298402906
 30
0.0
 11
490.6767227913905
 21
496.5175568402907
 31
0.0
  0
ARC
  5
1E1
330
2
100
AcDbEntity
  8
AM_4
100
AcDbCircle
 10
489.7835297913903
 20
497.6032058402906
 30
0.0
 40
1.816141999999999
100
AcDbArc
 50
274.5582889999987
 51
0.0
  0
LINE
  5
1E2
330
2
100
AcDbEntity
  8
AM_4
100
AcDbLine
 10
490.0436737913905
 20
495.8075968402907
 30
0.0
 11
490.2211637913906
 21
495.8430948402905
 31
0.0
  0
LINE
  5
1E3
330
2
100
AcDbEntity
  8
AM_4
100
AcDbLine
 10
489.9815527913905
 20
496.2099078402906
 30
0.0
 11
490.1235447913903
 21
496.2394888402906
 31
0.0
  0
LINE
  5
1E4
330
2
100
AcDbEntity
  8
AM_4
100
AcDbLine
 10
489.7626477913905
 20
495.7868898402906
 30
0.0
 11
489.8543507913905
 21
495.7898478402904
 31
0.0
  0
LINE
  5
1E5
330
2
100
AcDbEntity
  8
AM_4
100
AcDbLine
 10
489.9105567913903
 20
496.2010328402906
 30
0.0
 11
489.8366017913905
 21
496.1951168402905
 31
0.0
  0
LINE
  5
1E6
330
2
100
AcDbEntity
  8
AM_4
100
AcDbLine
 10
489.7626477913905
 20
495.7868898402906
 30
0.0
 11
489.7626477913905
 21
495.7868898402906
 31
0.0
  0
LINE
  5
1E7
330
2
100
AcDbEntity
  8
AM_4
100
AcDbLine
 10
489.7626477913905
 20
495.7868898402906
 30
0.0
 11
489.7626477913905
 21
496.1951168402905
 31
0.0
  0
LINE
  5
1E8
330
2
100
AcDbEntity
  8
AM_4
100
AcDbLine
 10
489.8543507913905
 20
495.7898478402904
 30
0.0
 11
490.0436737913905
 21
495.8075968402907
 31
0.0
  0
LINE
  5
1E9
330
2
100
AcDbEntity
  8
AM_4
100
AcDbLine
 10
489.9815527913905
 20
496.2099078402906
 30
0.0
 11
489.9105567913903
 21
496.2010328402906
 31
0.0
  0
ARC
  5
1EA
330
2
100
AcDbEntity
  8
AM_4
100
AcDbCircle
 10
489.7835297913903
 20
497.6032058402906
 30
0.0
 40
1.407913999999997
100
AcDbArc
 50
275.1764690000012
 51
0.0
  0
ARC
  5
1EB
330
2
100
AcDbEntity
  8
AM_4
100
AcDbCircle
 10
489.7835297913903
 20
497.6032058402906
 30
0.0
 40
1.439664999999999
100
AcDbArc
 50
275.1191170000014
 51
0.0
  0
LINE
  5
1EC
330
2
100
AcDbEntity
  8
AM_4
100
AcDbLine
 10
490.0910047913903
 20
496.0117098402906
 30
0.0
 11
489.7626477913905
 21
495.9910028402906
 31
0.0
  0
LINE
  5
1ED
330
2
100
AcDbEntity
  8
AM_4
100
AcDbLine
 10
475.1069097913902
 20
505.6168078402905
 30
0.0
 11
474.8107977913905
 21
505.6975658402905
 31
0.0
  0
LINE
  5
1EE
330
2
100
AcDbEntity
  8
AM_4
100
AcDbLine
 10
474.4608457913905
 20
507.9818638402906
 30
0.0
 11
475.1607487913905
 21
507.9280248402906
 31
0.0
  0
LINE
  5
1EF
330
2
100
AcDbEntity
  8
AM_4
100
AcDbLine
 10
472.9033697913905
 20
503.2209858402906
 30
0.0
 11
475.5107007913903
 21
505.4014528402906
 31
0.0
  0
LINE
  5
1F0
330
2
100
AcDbEntity
  8
AM_4
100
AcDbLine
 10
475.2145877913902
 20
499.2676888402906
 30
0.0
 11
474.7569587913905
 21
499.2676888402906
 31
0.0
  0
LINE
  5
1F1
330
2
100
AcDbEntity
  8
AM_4
100
AcDbLine
 10
475.0530717913902
 20
501.5558328402907
 30
0.0
 11
475.5914587913905
 21
501.5558328402907
 31
0.0
  0
LINE
  5
1F2
330
2
100
AcDbEntity
  8
AM_4
100
AcDbLine
 10
445.9580747913904
 20
513.2874198402905
 30
0.0
 11
489.8366017913905
 21
513.2874198402905
 31
0.0
  0
LINE
  5
1F3
330
2
100
AcDbEntity
  8
AM_4
100
AcDbLine
 10
446.0290707913904
 20
513.4915338402906
 30
0.0
 11
489.7626477913905
 21
513.4915338402906
 31
0.0
  0
LINE
  5
1F4
330
2
100
AcDbEntity
  8
AM_4
100
AcDbLine
 10
446.0290707913904
 20
513.6956468402906
 30
0.0
 11
489.7626477913905
 21
513.6956468402906
 31
0.0
  0
LINE
  5
1F5
330
2
100
AcDbEntity
  8
AM_4
100
AcDbLine
 10
446.0290707913904
 20
513.3191708402907
 30
0.0
 11
489.7626477913905
 21
513.3191708402907
 31
0.0
  0
HATCH
  5
1F6
330
2
100
AcDbEntity
  8
AM_4
100
AcDbHatch
 10
0.0
 20
0.0
 30
0.0
210
0.0
220
0.0
230
1.0
  2
SOLID
 70
     1
 71
     0
 91
        8
 92
        7
 72
     0
 73
     1
 93
       23
 10
452.0331886727704
 20
504.7284692601492
 10
452.0870273564244
 20
505.0245820202446
 10
452.1947047237309
 20
505.2399367548596
 10
452.3562207746918
 20
505.4014528058196
 10
452.5177368256546
 20
505.5360495149555
 10
452.8407689275755
 20
505.616807540436
 10
453.0022849785383
 20
505.643726882263
 10
453.2983977386343
 20
505.643726882263
 10
453.2983977386343
 20
507.8741866336338
 10
452.3293014328657
 20
507.8741866336338
 10
451.7909145963286
 20
507.8472672918068
 10
451.3332857852716
 20
507.7934286081531
 10
450.9564149996917
 20
507.6588318990189
 10
450.6064635559448
 20
507.524235189884
 10
450.3411157579352
 20
507.335799797098
 10
450.0988416814962
 20
507.147364404309
 10
449.9104062887081
 20
506.9320096696928
 10
449.7488902377466
 20
506.7166549350771
 10
449.5604548449583
 20
506.2628717442811
 10
449.4527774776506
 20
505.8860009587053
 10
449.4258581358225
 20
505.5360495149566
 10
449.4258581358225
 20
499.3753658568591
 10
452.0331886727704
 20
499.3753658568591
 97
        0
 92
        7
 72
     0
 73
     1
 93
       54
 10
461.6087831226214
 20
505.1591787293788
 10
461.3665090461785
 20
505.6975655659169
 10
461.0165576024287
 20
506.2359524024551
 10
460.6127674750259
 20
506.6897355932506
 10
460.1012999803146
 20
507.1204450624811
 10
459.5359938019501
 20
507.4703965062308
 10
458.9168489399306
 20
507.7395899244993
 10
458.2477110145206
 20
507.9280253172877
 10
457.5478081270216
 20
507.9818640009413
 10
457.0363406323108
 20
507.9549446591145
 10
456.5787118212527
 20
507.8741866336343
 10
456.1480023520225
 20
507.7665092663266
 10
455.7442122246203
 20
507.6049932153645
 10
455.3673414390441
 20
507.4165578225763
 10
455.0443093371209
 20
507.2012030879624
 10
454.7481965770248
 20
506.9320096696928
 10
454.4520838169288
 20
506.6628162514255
 10
454.2136553607498
 20
506.3705491115897
 10
454.0252199679606
 20
506.0475170096665
 10
453.8367845751718
 20
505.6975655659154
 10
453.7021878660381
 20
505.3476141221682
 10
453.5137524732488
 20
504.6207918928408
 10
453.4329944477675
 20
503.8670503216896
 10
453.4599137895964
 20
503.3017441433257
 10
453.5406718150762
 20
502.7941222688737
 10
453.6752685242098
 20
502.3095741159908
 10
453.8637039169981
 20
501.851945304932
 10
454.0790586516147
 20
501.4481551775288
 10
454.3213327280546
 20
501.0712843919539
 10
454.613599867889
 20
500.721332948204
 10
454.9366319698133
 20
500.3983008462808
 10
455.3135027553889
 20
500.1291074280121
 10
455.690373540962
 20
499.9137526933988
 10
456.0941636683701
 20
499.6983979587812
 10
456.4979537957723
 20
499.5368819078201
 10
456.9555826068339
 20
499.4292045405116
 10
457.3862920760608
 20
499.3215271732053
 10
457.8439208871172
 20
499.2676884895514
 10
458.2977040779158
 20
499.2676884895514
 10
458.9168489399306
 20
499.2946078313784
 10
459.4821551182962
 20
499.3753658568591
 10
459.9667032711817
 20
499.4830432241671
 10
460.3974127404106
 20
499.6176399333012
 10
460.9896382606001
 20
499.8868333515698
 10
461.1780736533908
 20
499.9945107188773
 10
461.1780736533908
 20
502.6326062179125
 10
460.5858481331979
 20
502.2288160905096
 10
459.9936226130071
 20
501.9057839885866
 10
459.3206390673331
 20
501.663509912144
 10
458.9976069654126
 20
501.5827518866639
 10
458.674574863491
 20
501.5558325448371
 10
458.1400336472129
 20
501.5558325448371
 10
457.7631628616373
 20
501.6365905703174
 10
457.6016468106758
 20
501.6635099121447
 97
        0
 92
       22
 72
     0
 73
     1
 93
       15
 10
455.9864863010614
 20
503.2209861178424
 10
455.9057282755806
 20
503.4094215106313
 10
455.8518895919283
 20
503.6247762452402
 10
455.7980509082743
 20
503.8939696635158
 10
455.8249702501004
 20
504.2170017654384
 10
455.9057282755806
 20
504.5669532091873
 10
456.0941636683701
 20
504.9438239947643
 10
456.4171957702922
 20
505.3206947803404
 10
456.7940665558672
 20
505.589888198609
 10
457.1978566832719
 20
505.7244849077439
 10
457.5747274688476
 20
505.7514042495704
 10
457.8977595707717
 20
505.6975655659169
 10
458.1938723308668
 20
505.6168075404363
 10
458.4053814452213
 20
505.5091301731285
 10
458.593816838009
 20
505.401452805821
 97
        0
 92
        7
 72
     0
 73
     1
 93
       27
 10
464.781419837932
 20
505.1591787293792
 10
465.9389515364883
 20
505.1591787293792
 10
465.9389515364883
 20
507.1742837461346
 10
464.781419837932
 20
507.1742837461346
 10
464.781419837932
 20
508.0626220264215
 10
464.8352585215866
 20
508.3587347865176
 10
464.9429358888927
 20
508.5740895211328
 10
465.1044519398568
 20
508.7356055720944
 10
465.2659679908161
 20
508.8702022812287
 10
465.6159194345645
 20
508.9509603067092
 10
465.7505161437003
 20
508.9778796485362
 10
466.0427832835347
 20
508.9778796485362
 10
466.0427832835347
 20
511.0468233489457
 10
465.0775325980277
 20
511.0468233489457
 10
464.5660651033169
 20
511.0199040071188
 10
464.1084362922616
 20
510.939145981638
 10
463.7046461648597
 20
510.8045492725046
 10
463.3546947211076
 20
510.6699525633695
 10
463.0855013028373
 20
510.4815171705816
 10
462.843227226396
 20
510.2969273980549
 10
462.6547918336081
 20
510.081572663439
 10
462.5201951244756
 20
509.8662179288251
 10
462.3048403898588
 20
509.4355084595941
 10
462.1971630225512
 20
509.0317183321897
 10
462.1702436807241
 20
508.6817668884383
 10
462.1702436807241
 20
499.4022851986861
 10
464.781419837932
 20
499.4022851986861
 97
        0
 92
        7
 72
     0
 73
     1
 93
        4
 10
469.6230557465118
 20
511.0468233489457
 10
466.9042022219958
 20
511.0468233489457
 10
466.9042022219958
 20
499.4022851986861
 10
469.6230557465118
 20
499.4022851986861
 97
        0
 92
        7
 72
     0
 73
     1
 93
       54
 10
478.5218210304283
 20
505.1591787293788
 10
478.2795469539861
 20
505.6975655659172
 10
477.9295955102366
 20
506.2359524024551
 10
477.5258053828339
 20
506.6897355932506
 10
477.0181835083826
 20
507.1204450624811
 10
476.4528773300201
 20
507.47039650623
 10
475.8337324680006
 20
507.7395899244993
 10
475.160748922328
 20
507.9280253172877
 10
474.4608460348293
 20
507.9818640009413
 10
473.9493785401187
 20
507.9549446591145
 10
473.4955953493205
 20
507.8741866336343
 10
473.0648858800917
 20
507.7665092663265
 10
472.6610957526858
 20
507.6049932153645
 10
472.2842249671112
 20
507.4165578225762
 10
471.9611928651885
 20
507.2012030879613
 10
471.6650801050952
 20
506.9320096696928
 10
471.3689673449991
 20
506.6628162514239
 10
471.1536126103838
 20
506.3705491115891
 10
470.9382578757688
 20
506.0475170096673
 10
470.7498224829794
 20
505.6975655659172
 10
470.6152257738451
 20
505.3476141221682
 10
470.4267903810572
 20
504.6207918928417
 10
470.3460323555754
 20
503.867050321688
 10
470.3729516974028
 20
503.3017441433249
 10
470.453709722884
 20
502.7941222688743
 10
470.5883064320182
 20
502.3095741159902
 10
470.7767418248073
 20
501.8519453049322
 10
470.9920965594228
 20
501.4481551775253
 10
471.2343706358644
 20
501.0712843919526
 10
471.5304833959589
 20
500.7213329482038
 10
471.880434839709
 20
500.3983008462813
 10
472.2303862834587
 20
500.1291074280119
 10
472.6072570690335
 20
499.9137526933968
 10
473.0110471964386
 20
499.6983979587812
 10
473.4148373238419
 20
499.5368819078202
 10
473.86862051464
 20
499.4292045405116
 10
474.2993299838666
 20
499.3215271732053
 10
474.7569587949251
 20
499.2676884895514
 10
475.2145876059802
 20
499.2676884895514
 10
475.8337324679992
 20
499.2946078313784
 10
476.3990386463661
 20
499.3753658568591
 10
476.9105061410749
 20
499.4830432241664
 10
477.3142962684802
 20
499.617639933301
 10
477.9026761684075
 20
499.8868333515702
 10
478.0911115611976
 20
499.9945107188773
 10
478.0911115611989
 20
502.6326062179122
 10
477.4988860410076
 20
502.2288160905096
 10
476.9105061410766
 20
501.9057839885862
 10
476.2375225954046
 20
501.6635099121447
 10
475.9144904934808
 20
501.5827518866639
 10
475.5914583915584
 20
501.5558325448371
 10
475.0530715550211
 20
501.5558325448371
 10
474.6762007694449
 20
501.6365905703178
 10
474.5146847184836
 20
501.6635099121447
 97
        0
 92
       22
 72
     0
 73
     1
 93
       15
 10
472.714934436342
 20
503.8939696635152
 10
472.7418537781683
 20
504.2170017654377
 10
472.8226118036508
 20
504.5669532091873
 10
473.0110471964381
 20
504.9438239947634
 10
473.3340792983618
 20
505.3206947803404
 10
473.7071044636751
 20
505.5898881986093
 10
474.1108945910792
 20
505.7244849077439
 10
474.4877653766555
 20
505.7514042495704
 10
474.810797478579
 20
505.6975655659169
 10
475.1069102386737
 20
505.6168075404363
 10
475.3222649732896
 20
505.5091301731281
 10
475.510700366078
 20
505.401452805821
 10
472.9033698291312
 20
503.220986117843
 10
472.8226118036508
 20
503.4094215106303
 10
472.7687731199968
 20
503.6247762452415
 97
        0
 92
        7
 72
     0
 73
     1
 93
       66
 10
485.4324006394155
 20
503.6247762452466
 10
485.217045904801
 20
503.7593729543812
 10
485.032456132274
 20
503.8670503216883
 10
485.4054812975893
 20
504.10932439813
 10
485.6746747158584
 20
504.4323565000516
 10
485.8900294504741
 20
504.7823079438034
 10
486.0246261596087
 20
505.1322593875523
 10
486.1323035269152
 20
505.7244849077435
 10
486.1323035269152
 20
505.9936783260126
 10
486.1323035269152
 20
507.7934286081531
 10
483.6057310154486
 20
507.7934286081531
 10
483.6057310154501
 20
506.2628717442833
 10
483.5788116736223
 20
506.0744363514941
 10
483.4711343063155
 20
505.6975655659177
 10
483.3634569390071
 20
505.5091301731287
 10
483.1750215462185
 20
505.3206947803404
 10
482.9058281279505
 20
505.1860980712058
 10
482.5827960260276
 20
505.1591787293792
 10
482.2597639241044
 20
505.1860980712058
 10
481.9905705058358
 20
505.3206947803404
 10
481.8290544548751
 20
505.4822108313015
 10
481.7213770875667
 20
505.6975655659169
 10
481.6406190620865
 20
506.0744363514936
 10
481.6406190620865
 20
506.2359524024546
 10
481.6406190620865
 20
507.7934286081531
 10
479.0602078669657
 20
507.7934286081531
 10
479.0602078669657
 20
505.9667589841851
 10
479.1140465506203
 20
505.4014528058218
 10
479.2486432597538
 20
504.9707433365916
 10
479.4101593107158
 20
504.5938725510143
 10
479.6255140453308
 20
504.3246791327471
 10
479.840868779947
 20
504.10932439813
 10
480.0023848309079
 20
503.9747276889958
 10
480.1908202236964
 20
503.8670503216883
 10
479.9485461472547
 20
503.7593729543814
 10
479.7601107544672
 20
503.6247762452472
 10
479.4639979943695
 20
503.3017441433249
 10
479.2217239179283
 20
502.9248733577473
 10
479.0871272087919
 20
502.5518481924327
 10
478.9794498414853
 20
502.2018967486832
 10
478.9256111578321
 20
501.9057839885856
 10
478.8986918160047
 20
501.6365905703161
 10
478.8986918160047
 20
499.4022851986861
 10
481.5867803784335
 20
499.4022851986861
 10
481.5867803784323
 20
501.4481551775307
 10
481.6136997202598
 20
501.6635099121477
 10
481.6406190620876
 20
501.8519453049324
 10
481.6944577457401
 20
502.0942193813748
 10
481.8290544548736
 20
502.3095741159893
 10
482.0174898476633
 20
502.524928850605
 10
482.2866832659324
 20
502.6595255597396
 10
482.663554051509
 20
502.7133642433931
 10
483.0135054952573
 20
502.6595255597396
 10
483.2826989135265
 20
502.5249288506047
 10
483.4442149644882
 20
502.3095741159898
 10
483.5518923317961
 20
502.0673000395492
 10
483.6057310154501
 20
501.851945304931
 10
483.6326503572762
 20
501.6365905703178
 10
483.6326503572762
 20
501.4481551775299
 10
483.6326503572762
 20
499.4022851986861
 10
486.293819577878
 20
499.4022851986861
 10
486.293819577878
 20
501.6635099121458
 10
486.2399808942237
 20
502.2557354323363
 10
486.078464843263
 20
502.7402835852191
 10
485.8900294504723
 20
503.1133087505361
 10
485.6477553740318
 20
503.4094215106316
 97
        0
 75
     0
 76
     1
 47
0.04298
 98
        8
 10
450.8656277913906
 20
504.3014768402906
 10
456.2316797913905
 20
501.8824148402906
 10
456.2316797913905
 20
501.8824148402906
 10
463.5968547913902
 20
502.9341798402906
 10
468.4368237913905
 20
503.4600628402905
 10
471.6985427913905
 20
503.9859448402905
 10
471.6985427913905
 20
503.9859448402905
 10
480.9576147913905
 20
503.5652398402906
450
        0
451
        0
460
0.0
461
0.0
452
        0
462
0.0
453
        0
470

  0
LINE
  5
1F7
330
2
100
AcDbEntity
  8
AM_4
100
AcDbLine
 10
478.5218207913906
 20
505.1591788402906
 30
0.0
 11
474.5146847913903
 21
501.6635098402907
 31
0.0
  0
LINE
  5
1F8
330
2
100
AcDbEntity
  8
AM_4
100
AcDbLine
 10
450.6064637913905
 20
507.5242348402905
 30
0.0
 11
450.3411157913904
 21
507.3357998402904
 31
0.0
  0
LINE
  5
1F9
330
2
100
AcDbEntity
  8
AM_4
100
AcDbLine
 10
449.4258577913905
 20
499.3753658402907
 30
0.0
 11
452.0331887913903
 21
499.3753658402907
 31
0.0
  0
LINE
  5
1FA
330
2
100
AcDbEntity
  8
AM_4
100
AcDbLine
 10
450.0988417913905
 20
507.1473648402906
 30
0.0
 11
449.9104057913901
 21
506.9320098402906
 31
0.0
  0
LINE
  5
1FB
330
2
100
AcDbEntity
  8
AM_4
100
AcDbLine
 10
449.7488897913905
 20
506.7166548402906
 30
0.0
 11
449.5604547913905
 21
506.2628718402906
 31
0.0
  0
LINE
  5
1FC
330
2
100
AcDbEntity
  8
AM_4
100
AcDbLine
 10
449.5604547913905
 20
506.2628718402906
 30
0.0
 11
449.4527777913905
 21
505.8860008402906
 31
0.0
  0
LINE
  5
1FD
330
2
100
AcDbEntity
  8
AM_4
100
AcDbLine
 10
449.4527777913905
 20
505.8860008402906
 30
0.0
 11
449.4258577913905
 21
505.5360498402905
 31
0.0
  0
LINE
  5
1FE
330
2
100
AcDbEntity
  8
AM_4
100
AcDbLine
 10
449.9104057913901
 20
506.9320098402906
 30
0.0
 11
449.7488897913905
 21
506.7166548402906
 31
0.0
  0
LINE
  5
1FF
330
2
100
AcDbEntity
  8
AM_4
100
AcDbLine
 10
449.4258577913905
 20
505.5360498402905
 30
0.0
 11
449.4258577913905
 21
499.3753658402907
 31
0.0
  0
ARC
  5
200
330
2
100
AcDbEntity
  8
AM_4
100
AcDbCircle
 10
446.0290707913904
 20
511.8586238402905
 30
0.0
 40
1.428795999999999
100
AcDbArc
 50
90.0
 51
180.0
  0
ARC
  5
201
330
2
100
AcDbEntity
  8
AM_4
100
AcDbCircle
 10
446.0290707913904
 20
511.8586238402905
 30
0.0
 40
1.837022999999999
100
AcDbArc
 50
90.0
 51
180.0
  0
ARC
  5
202
330
2
100
AcDbEntity
  8
AM_4
100
AcDbCircle
 10
446.0290707913904
 20
511.8586238402905
 30
0.0
 40
1.460545999999999
100
AcDbArc
 50
90.0
 51
180.0
  0
LINE
  5
203
330
2
100
AcDbEntity
  8
AM_4
100
AcDbLine
 10
444.1920477913905
 20
511.8586238402905
 30
0.0
 11
444.6002757913904
 21
511.8586238402905
 31
0.0
  0
LINE
  5
204
330
2
100
AcDbEntity
  8
AM_4
100
AcDbLine
 10
444.3399567913905
 20
512.5685848402905
 30
0.0
 11
444.3074167913905
 21
512.4857558402906
 31
0.0
  0
LINE
  5
205
330
2
100
AcDbEntity
  8
AM_4
100
AcDbLine
 10
444.2038807913903
 20
512.0420308402906
 30
0.0
 11
444.1950057913905
 21
511.9503268402906
 31
0.0
  0
LINE
  5
206
330
2
100
AcDbEntity
  8
AM_4
100
AcDbLine
 10
444.1920477913905
 20
511.8586238402905
 30
0.0
 11
444.1920477913905
 21
511.8586238402905
 31
0.0
  0
LINE
  5
207
330
2
100
AcDbEntity
  8
AM_4
100
AcDbLine
 10
444.1950057913905
 20
511.9503268402906
 30
0.0
 11
444.1920477913905
 21
511.8586238402905
 31
0.0
  0
LINE
  5
208
330
2
100
AcDbEntity
  8
AM_4
100
AcDbLine
 10
444.3074167913905
 20
512.4857558402906
 30
0.0
 11
444.2778347913905
 21
512.3999688402906
 31
0.0
  0
LINE
  5
209
330
2
100
AcDbEntity
  8
AM_4
100
AcDbLine
 10
444.2778347913905
 20
512.3999688402906
 30
0.0
 11
444.2512117913905
 21
512.3141818402906
 31
0.0
  0
LINE
  5
20A
330
2
100
AcDbEntity
  8
AM_4
100
AcDbLine
 10
444.2512117913905
 20
512.3141818402906
 30
0.0
 11
444.2305037913905
 21
512.2254368402906
 31
0.0
  0
LINE
  5
20B
330
2
100
AcDbEntity
  8
AM_4
100
AcDbLine
 10
444.2305037913905
 20
512.2254368402906
 30
0.0
 11
444.2157127913906
 21
512.1337338402907
 31
0.0
  0
LINE
  5
20C
330
2
100
AcDbEntity
  8
AM_4
100
AcDbLine
 10
444.2157127913906
 20
512.1337338402907
 30
0.0
 11
444.2038807913903
 21
512.0420308402906
 31
0.0
  0
LINE
  5
20D
330
2
100
AcDbEntity
  8
AM_4
100
AcDbLine
 10
444.6061917913905
 20
512.0006158402905
 30
0.0
 11
444.6150657913904
 21
512.0716118402906
 31
0.0
  0
LINE
  5
20E
330
2
100
AcDbEntity
  8
AM_4
100
AcDbLine
 10
444.3961617913905
 20
511.8586238402905
 30
0.0
 11
444.4375757913904
 21
512.1869808402906
 31
0.0
  0
LINE
  5
20F
330
2
100
AcDbEntity
  8
AM_4
100
AcDbLine
 10
444.6002757913904
 20
511.9296198402905
 30
0.0
 11
444.6061917913905
 21
512.0006158402905
 31
0.0
  0
LINE
  5
210
330
2
100
AcDbEntity
  8
AM_4
100
AcDbLine
 10
444.7984727913905
 20
513.2134658402906
 30
0.0
 11
444.7363507913904
 21
513.1513438402905
 31
0.0
  0
LINE
  5
211
330
2
100
AcDbEntity
  8
AM_4
100
AcDbLine
 10
444.7422677913904
 20
512.4709648402905
 30
0.0
 11
444.7748077913905
 21
512.5330868402905
 31
0.0
  0
LINE
  5
212
330
2
100
AcDbEntity
  8
AM_4
100
AcDbLine
 10
444.6860617913904
 20
512.7667818402906
 30
0.0
 11
444.8931337913903
 21
513.0152678402907
 31
0.0
  0
LINE
  5
213
330
2
100
AcDbEntity
  8
AM_4
100
AcDbLine
 10
444.7363507913904
 20
513.1513438402905
 30
0.0
 11
444.6742297913902
 21
513.0862638402906
 31
0.0
  0
LINE
  5
214
330
2
100
AcDbEntity
  8
AM_4
100
AcDbLine
 10
444.6742297913902
 20
513.0862638402906
 30
0.0
 11
444.6180247913905
 21
513.0211848402906
 31
0.0
  0
LINE
  5
215
330
2
100
AcDbEntity
  8
AM_4
100
AcDbLine
 10
444.6180247913905
 20
513.0211848402906
 30
0.0
 11
444.5618187913906
 21
512.9501888402907
 31
0.0
  0
LINE
  5
216
330
2
100
AcDbEntity
  8
AM_4
100
AcDbLine
 10
444.5618187913906
 20
512.9501888402907
 30
0.0
 11
444.5115297913905
 21
512.8791928402907
 31
0.0
  0
LINE
  5
217
330
2
100
AcDbEntity
  8
AM_4
100
AcDbLine
 10
444.5115297913905
 20
512.8791928402907
 30
0.0
 11
444.4612417913902
 21
512.8052378402903
 31
0.0
  0
LINE
  5
218
330
2
100
AcDbEntity
  8
AM_4
100
AcDbLine
 10
444.4612417913902
 20
512.8052378402903
 30
0.0
 11
444.4168687913905
 21
512.7283258402906
 31
0.0
  0
LINE
  5
219
330
2
100
AcDbEntity
  8
AM_4
100
AcDbLine
 10
444.4168687913905
 20
512.7283258402906
 30
0.0
 11
444.3754547913903
 21
512.6484548402905
 31
0.0
  0
LINE
  5
21A
330
2
100
AcDbEntity
  8
AM_4
100
AcDbLine
 10
444.3754547913903
 20
512.6484548402905
 30
0.0
 11
444.3399567913905
 21
512.5685848402905
 31
0.0
  0
LINE
  5
21B
330
2
100
AcDbEntity
  8
AM_4
100
AcDbLine
 10
444.6150657913904
 20
512.0716118402906
 30
0.0
 11
444.6298567913905
 21
512.1426078402905
 31
0.0
  0
LINE
  5
21C
330
2
100
AcDbEntity
  8
AM_4
100
AcDbLine
 10
444.6298567913905
 20
512.1426078402905
 30
0.0
 11
444.6446477913905
 21
512.2106458402907
 31
0.0
  0
LINE
  5
21D
330
2
100
AcDbEntity
  8
AM_4
100
AcDbLine
 10
444.6446477913905
 20
512.2106458402907
 30
0.0
 11
444.6653547913903
 21
512.2757258402906
 31
0.0
  0
LINE
  5
21E
330
2
100
AcDbEntity
  8
AM_4
100
AcDbLine
 10
444.6653547913903
 20
512.2757258402906
 30
0.0
 11
444.6860617913904
 21
512.3437638402906
 31
0.0
  0
LINE
  5
21F
330
2
100
AcDbEntity
  8
AM_4
100
AcDbLine
 10
444.6860617913904
 20
512.3437638402906
 30
0.0
 11
444.7126857913905
 21
512.4088438402906
 31
0.0
  0
LINE
  5
220
330
2
100
AcDbEntity
  8
AM_4
100
AcDbLine
 10
444.7126857913905
 20
512.4088438402906
 30
0.0
 11
444.7422677913904
 21
512.4709648402905
 31
0.0
  0
LINE
  5
221
330
2
100
AcDbEntity
  8
AM_4
100
AcDbLine
 10
444.4375757913904
 20
512.1869808402906
 30
0.0
 11
444.5411117913905
 21
512.4975888402906
 31
0.0
  0
LINE
  5
222
330
2
100
AcDbEntity
  8
AM_4
100
AcDbLine
 10
444.5411117913905
 20
512.4975888402906
 30
0.0
 11
444.6860617913904
 21
512.7667818402906
 31
0.0
  0
LINE
  5
223
330
2
100
AcDbEntity
  8
AM_4
100
AcDbLine
 10
446.0290707913904
 20
513.6956468402906
 30
0.0
 11
445.9373677913903
 21
513.6926888402906
 31
0.0
  0
LINE
  5
224
330
2
100
AcDbEntity
  8
AM_4
100
AcDbLine
 10
445.9373677913903
 20
513.6926888402906
 30
0.0
 11
445.8456647913905
 21
513.6838148402905
 31
0.0
  0
LINE
  5
225
330
2
100
AcDbEntity
  8
AM_4
100
AcDbLine
 10
445.8456647913905
 20
513.6838148402905
 30
0.0
 11
445.7539617913905
 21
513.6719818402906
 31
0.0
  0
LINE
  5
226
330
2
100
AcDbEntity
  8
AM_4
100
AcDbLine
 10
445.7539617913905
 20
513.6719818402906
 30
0.0
 11
445.6622577913905
 21
513.6571908402905
 31
0.0
  0
LINE
  5
227
330
2
100
AcDbEntity
  8
AM_4
100
AcDbLine
 10
445.6622577913905
 20
513.6571908402905
 30
0.0
 11
445.5735127913905
 21
513.6364838402905
 31
0.0
  0
LINE
  5
228
330
2
100
AcDbEntity
  8
AM_4
100
AcDbLine
 10
445.5735127913905
 20
513.6364838402905
 30
0.0
 11
445.4877257913905
 21
513.6098598402906
 31
0.0
  0
LINE
  5
229
330
2
100
AcDbEntity
  8
AM_4
100
AcDbLine
 10
445.4877257913905
 20
513.6098598402906
 30
0.0
 11
445.4019387913905
 21
513.5802788402903
 31
0.0
  0
LINE
  5
22A
330
2
100
AcDbEntity
  8
AM_4
100
AcDbLine
 10
445.4019387913905
 20
513.5802788402903
 30
0.0
 11
445.3191107913905
 21
513.5477388402907
 31
0.0
  0
LINE
  5
22B
330
2
100
AcDbEntity
  8
AM_4
100
AcDbLine
 10
445.3191107913905
 20
513.5477388402907
 30
0.0
 11
445.2392397913905
 21
513.5122408402906
 31
0.0
  0
LINE
  5
22C
330
2
100
AcDbEntity
  8
AM_4
100
AcDbLine
 10
445.2392397913905
 20
513.5122408402906
 30
0.0
 11
445.1593697913905
 21
513.4708258402906
 31
0.0
  0
LINE
  5
22D
330
2
100
AcDbEntity
  8
AM_4
100
AcDbLine
 10
445.1593697913905
 20
513.4708258402906
 30
0.0
 11
445.0824567913905
 21
513.4264538402906
 31
0.0
  0
LINE
  5
22E
330
2
100
AcDbEntity
  8
AM_4
100
AcDbLine
 10
445.0824567913905
 20
513.4264538402906
 30
0.0
 11
445.0085027913905
 21
513.3761648402907
 31
0.0
  0
LINE
  5
22F
330
2
100
AcDbEntity
  8
AM_4
100
AcDbLine
 10
445.0085027913905
 20
513.3761648402907
 30
0.0
 11
444.9375067913905
 21
513.3258758402907
 31
0.0
  0
LINE
  5
230
330
2
100
AcDbEntity
  8
AM_4
100
AcDbLine
 10
444.9375067913905
 20
513.3258758402907
 30
0.0
 11
444.8665107913905
 21
513.2696708402906
 31
0.0
  0
LINE
  5
231
330
2
100
AcDbEntity
  8
AM_4
100
AcDbLine
 10
444.8665107913905
 20
513.2696708402906
 30
0.0
 11
444.7984727913905
 21
513.2134658402906
 31
0.0
  0
LINE
  5
232
330
2
100
AcDbEntity
  8
AM_4
100
AcDbLine
 10
444.7748077913905
 20
512.5330868402905
 30
0.0
 11
444.8458037913905
 21
512.6514128402906
 31
0.0
  0
LINE
  5
233
330
2
100
AcDbEntity
  8
AM_4
100
AcDbLine
 10
444.8458037913905
 20
512.6514128402906
 30
0.0
 11
444.8872177913902
 21
512.7076188402906
 31
0.0
  0
LINE
  5
234
330
2
100
AcDbEntity
  8
AM_4
100
AcDbLine
 10
444.8872177913902
 20
512.7076188402906
 30
0.0
 11
444.9286317913905
 21
512.7608658402906
 31
0.0
  0
LINE
  5
235
330
2
100
AcDbEntity
  8
AM_4
100
AcDbLine
 10
444.9286317913905
 20
512.7608658402906
 30
0.0
 11
444.9759627913905
 21
512.8141128402907
 31
0.0
  0
LINE
  5
236
330
2
100
AcDbEntity
  8
AM_4
100
AcDbLine
 10
444.9759627913905
 20
512.8141128402907
 30
0.0
 11
445.0232937913905
 21
512.8644018402906
 31
0.0
  0
LINE
  5
237
330
2
100
AcDbEntity
  8
AM_4
100
AcDbLine
 10
445.0232937913905
 20
512.8644018402906
 30
0.0
 11
445.0735827913905
 21
512.9117318402903
 31
0.0
  0
LINE
  5
238
330
2
100
AcDbEntity
  8
AM_4
100
AcDbLine
 10
445.0735827913905
 20
512.9117318402903
 30
0.0
 11
445.1800767913905
 21
513.0004768402906
 31
0.0
  0
LINE
  5
239
330
2
100
AcDbEntity
  8
AM_4
100
AcDbLine
 10
445.1800767913905
 20
513.0004768402906
 30
0.0
 11
445.2362817913905
 21
513.0418918402906
 31
0.0
  0
LINE
  5
23A
330
2
100
AcDbEntity
  8
AM_4
100
AcDbLine
 10
445.2362817913905
 20
513.0418918402906
 30
0.0
 11
445.3546087913903
 21
513.1128878402907
 31
0.0
  0
LINE
  5
23B
330
2
100
AcDbEntity
  8
AM_4
100
AcDbLine
 10
445.3546087913903
 20
513.1128878402907
 30
0.0
 11
445.4167297913905
 21
513.1454278402904
 31
0.0
  0
LINE
  5
23C
330
2
100
AcDbEntity
  8
AM_4
100
AcDbLine
 10
445.4167297913905
 20
513.1454278402904
 30
0.0
 11
445.4788517913906
 21
513.1750088402906
 31
0.0
  0
LINE
  5
23D
330
2
100
AcDbEntity
  8
AM_4
100
AcDbLine
 10
445.4788517913906
 20
513.1750088402906
 30
0.0
 11
445.6090107913905
 21
513.2223398402905
 31
0.0
  0
LINE
  5
23E
330
2
100
AcDbEntity
  8
AM_4
100
AcDbLine
 10
445.6090107913905
 20
513.2223398402905
 30
0.0
 11
445.6770487913905
 21
513.2430468402906
 31
0.0
  0
LINE
  5
23F
330
2
100
AcDbEntity
  8
AM_4
100
AcDbLine
 10
445.6770487913905
 20
513.2430468402906
 30
0.0
 11
445.7450867913903
 21
513.2578378402905
 31
0.0
  0
LINE
  5
240
330
2
100
AcDbEntity
  8
AM_4
100
AcDbLine
 10
445.7450867913903
 20
513.2578378402905
 30
0.0
 11
445.8160827913904
 21
513.2726288402905
 31
0.0
  0
LINE
  5
241
330
2
100
AcDbEntity
  8
AM_4
100
AcDbLine
 10
445.8160827913904
 20
513.2726288402905
 30
0.0
 11
445.8870787913905
 21
513.2815038402906
 31
0.0
  0
LINE
  5
242
330
2
100
AcDbEntity
  8
AM_4
100
AcDbLine
 10
445.8870787913905
 20
513.2815038402906
 30
0.0
 11
445.9580747913904
 21
513.2874198402905
 31
0.0
  0
LINE
  5
243
330
2
100
AcDbEntity
  8
AM_4
100
AcDbLine
 10
446.0290707913904
 20
513.6956468402906
 30
0.0
 11
446.0290707913904
 21
513.6956468402906
 31
0.0
  0
LINE
  5
244
330
2
100
AcDbEntity
  8
AM_4
100
AcDbLine
 10
446.0290707913904
 20
513.6956468402906
 30
0.0
 11
446.0290707913904
 21
513.2874198402905
 31
0.0
  0
LINE
  5
245
330
2
100
AcDbEntity
  8
AM_4
100
AcDbLine
 10
444.8931337913903
 20
513.0152678402907
 30
0.0
 11
445.1209127913902
 21
513.2016328402905
 31
0.0
  0
LINE
  5
246
330
2
100
AcDbEntity
  8
AM_4
100
AcDbLine
 10
445.1209127913902
 20
513.2016328402905
 30
0.0
 11
445.4108137913904
 21
513.3672898402907
 31
0.0
  0
LINE
  5
247
330
2
100
AcDbEntity
  8
AM_4
100
AcDbLine
 10
445.4108137913904
 20
513.3672898402907
 30
0.0
 11
445.7007147913905
 21
513.4501188402906
 31
0.0
  0
LINE
  5
248
330
2
100
AcDbEntity
  8
AM_4
100
AcDbLine
 10
445.7007147913905
 20
513.4501188402906
 30
0.0
 11
446.0290707913904
 21
513.4915338402906
 31
0.0
  0
LINE
  5
249
330
2
100
AcDbEntity
  8
AM_4
100
AcDbLine
 10
446.0290707913904
 20
513.4915338402906
 30
0.0
 11
446.0290707913904
 21
513.4915338402906
 31
0.0
  0
LINE
  5
24A
330
2
100
AcDbEntity
  8
AM_4
100
AcDbLine
 10
450.3411157913904
 20
507.3357998402904
 30
0.0
 11
450.0988417913905
 21
507.1473648402906
 31
0.0
  0
LINE
  5
24B
330
2
100
AcDbEntity
  8
AM_4
100
AcDbLine
 10
462.6547917913905
 20
510.0815728402904
 30
0.0
 11
462.8432267913905
 21
510.2969278402905
 31
0.0
  0
LINE
  5
24C
330
2
100
AcDbEntity
  8
AM_4
100
AcDbLine
 10
464.7814197913905
 20
499.4022848402907
 30
0.0
 11
462.1702437913906
 21
499.4022848402907
 31
0.0
  0
LINE
  5
24D
330
2
100
AcDbEntity
  8
AM_4
100
AcDbLine
 10
460.1012997913905
 20
507.1204448402905
 30
0.0
 11
460.6127677913905
 21
506.6897358402906
 31
0.0
  0
LINE
  5
24E
330
2
100
AcDbEntity
  8
AM_4
100
AcDbLine
 10
454.4520837913903
 20
506.6628158402905
 30
0.0
 11
455.0443097913904
 21
507.2012028402905
 31
0.0
  0
LINE
  5
24F
330
2
100
AcDbEntity
  8
AM_4
100
AcDbLine
 10
453.2983977913906
 20
505.6437268402905
 30
0.0
 11
453.2983977913906
 21
507.8741868402905
 31
0.0
  0
LINE
  5
250
330
2
100
AcDbEntity
  8
AM_4
100
AcDbLine
 10
462.1702437913906
 20
499.4022848402907
 30
0.0
 11
462.1702437913906
 21
508.6817668402906
 31
0.0
  0
LINE
  5
251
330
2
100
AcDbEntity
  8
AM_4
100
AcDbLine
 10
456.7940667913902
 20
505.5898878402905
 30
0.0
 11
456.4171957913905
 21
505.3206948402906
 31
0.0
  0
LINE
  5
252
330
2
100
AcDbEntity
  8
AM_4
100
AcDbLine
 10
455.9864867913906
 20
503.2209858402906
 30
0.0
 11
458.5938167913905
 21
505.4014528402906
 31
0.0
  0
LINE
  5
253
330
2
100
AcDbEntity
  8
AM_4
100
AcDbLine
 10
456.9555827913903
 20
499.4292048402906
 30
0.0
 11
456.4979537913905
 21
499.5368818402907
 31
0.0
  0
LINE
  5
254
330
2
100
AcDbEntity
  8
AM_4
100
AcDbLine
 10
453.5137527913905
 20
504.6207918402906
 30
0.0
 11
453.7021877913905
 21
505.3476138402905
 31
0.0
  0
LINE
  5
255
330
2
100
AcDbEntity
  8
AM_4
100
AcDbLine
 10
453.7021877913905
 20
505.3476138402905
 30
0.0
 11
453.8367847913905
 21
505.6975658402905
 31
0.0
  0
LINE
  5
256
330
2
100
AcDbEntity
  8
AM_4
100
AcDbLine
 10
453.8367847913905
 20
505.6975658402905
 30
0.0
 11
454.0252197913905
 21
506.0475168402907
 31
0.0
  0
LINE
  5
257
330
2
100
AcDbEntity
  8
AM_4
100
AcDbLine
 10
454.0252197913905
 20
506.0475168402907
 30
0.0
 11
454.2136557913904
 21
506.3705488402907
 31
0.0
  0
LINE
  5
258
330
2
100
AcDbEntity
  8
AM_4
100
AcDbLine
 10
454.2136557913904
 20
506.3705488402907
 30
0.0
 11
454.4520837913903
 21
506.6628158402905
 31
0.0
  0
LINE
  5
259
330
2
100
AcDbEntity
  8
AM_4
100
AcDbLine
 10
456.4171957913905
 20
505.3206948402906
 30
0.0
 11
456.0941637913903
 21
504.9438238402905
 31
0.0
  0
LINE
  5
25A
330
2
100
AcDbEntity
  8
AM_4
100
AcDbLine
 10
456.0941637913903
 20
504.9438238402905
 30
0.0
 11
455.9057277913905
 21
504.5669528402907
 31
0.0
  0
LINE
  5
25B
330
2
100
AcDbEntity
  8
AM_4
100
AcDbLine
 10
455.9057277913905
 20
504.5669528402907
 30
0.0
 11
455.8249697913906
 21
504.2170018402906
 31
0.0
  0
LINE
  5
25C
330
2
100
AcDbEntity
  8
AM_4
100
AcDbLine
 10
453.0022847913905
 20
505.6437268402905
 30
0.0
 11
453.2983977913906
 21
505.6437268402905
 31
0.0
  0
LINE
  5
25D
330
2
100
AcDbEntity
  8
AM_4
100
AcDbLine
 10
453.5406717913905
 20
502.7941218402905
 30
0.0
 11
453.4599137913905
 21
503.3017438402906
 31
0.0
  0
LINE
  5
25E
330
2
100
AcDbEntity
  8
AM_4
100
AcDbLine
 10
453.4599137913905
 20
503.3017438402906
 30
0.0
 11
453.4329947913906
 21
503.8670498402906
 31
0.0
  0
LINE
  5
25F
330
2
100
AcDbEntity
  8
AM_4
100
AcDbLine
 10
455.7980507913903
 20
503.8939698402906
 30
0.0
 11
455.8518897913906
 21
503.6247758402907
 31
0.0
  0
LINE
  5
260
330
2
100
AcDbEntity
  8
AM_4
100
AcDbLine
 10
455.8518897913906
 20
503.6247758402907
 30
0.0
 11
455.9057277913905
 21
503.4094218402906
 31
0.0
  0
LINE
  5
261
330
2
100
AcDbEntity
  8
AM_4
100
AcDbLine
 10
455.9057277913905
 20
503.4094218402906
 30
0.0
 11
455.9864867913906
 21
503.2209858402906
 31
0.0
  0
LINE
  5
262
330
2
100
AcDbEntity
  8
AM_4
100
AcDbLine
 10
455.9864867913906
 20
503.2209858402906
 30
0.0
 11
455.9864867913906
 21
503.2209858402906
 31
0.0
  0
LINE
  5
263
330
2
100
AcDbEntity
  8
AM_4
100
AcDbLine
 10
453.4329947913906
 20
503.8670498402906
 30
0.0
 11
453.5137527913905
 21
504.6207918402906
 31
0.0
  0
LINE
  5
264
330
2
100
AcDbEntity
  8
AM_4
100
AcDbLine
 10
455.8249697913906
 20
504.2170018402906
 30
0.0
 11
455.7980507913903
 21
503.8939698402906
 31
0.0
  0
LINE
  5
265
330
2
100
AcDbEntity
  8
AM_4
100
AcDbLine
 10
452.0870277913902
 20
505.0245818402905
 30
0.0
 11
452.1947047913903
 21
505.2399368402906
 31
0.0
  0
LINE
  5
266
330
2
100
AcDbEntity
  8
AM_4
100
AcDbLine
 10
452.0331887913903
 20
504.7284688402907
 30
0.0
 11
452.0870277913902
 21
505.0245818402905
 31
0.0
  0
LINE
  5
267
330
2
100
AcDbEntity
  8
AM_4
100
AcDbLine
 10
452.0331887913903
 20
504.7284688402907
 30
0.0
 11
452.0331887913903
 21
504.7284688402907
 31
0.0
  0
LINE
  5
268
330
2
100
AcDbEntity
  8
AM_4
100
AcDbLine
 10
452.1947047913903
 20
505.2399368402906
 30
0.0
 11
452.3562207913903
 21
505.4014528402906
 31
0.0
  0
LINE
  5
269
330
2
100
AcDbEntity
  8
AM_4
100
AcDbLine
 10
452.3562207913903
 20
505.4014528402906
 30
0.0
 11
452.5177367913904
 21
505.5360498402905
 31
0.0
  0
LINE
  5
26A
330
2
100
AcDbEntity
  8
AM_4
100
AcDbLine
 10
452.5177367913904
 20
505.5360498402905
 30
0.0
 11
452.8407687913905
 21
505.6168078402905
 31
0.0
  0
LINE
  5
26B
330
2
100
AcDbEntity
  8
AM_4
100
AcDbLine
 10
452.8407687913905
 20
505.6168078402905
 30
0.0
 11
453.0022847913905
 21
505.6437268402905
 31
0.0
  0
LINE
  5
26C
330
2
100
AcDbEntity
  8
AM_4
100
AcDbLine
 10
453.8637037913905
 20
501.8519448402907
 30
0.0
 11
453.6752687913905
 21
502.3095738402907
 31
0.0
  0
LINE
  5
26D
330
2
100
AcDbEntity
  8
AM_4
100
AcDbLine
 10
454.0790587913902
 20
501.4481548402906
 30
0.0
 11
453.8637037913905
 21
501.8519448402907
 31
0.0
  0
LINE
  5
26E
330
2
100
AcDbEntity
  8
AM_4
100
AcDbLine
 10
456.0941637913903
 20
499.6983978402907
 30
0.0
 11
455.6903737913906
 21
499.9137528402906
 31
0.0
  0
LINE
  5
26F
330
2
100
AcDbEntity
  8
AM_4
100
AcDbLine
 10
455.6903737913906
 20
499.9137528402906
 30
0.0
 11
455.3135027913905
 21
500.1291078402906
 31
0.0
  0
LINE
  5
270
330
2
100
AcDbEntity
  8
AM_4
100
AcDbLine
 10
455.3135027913905
 20
500.1291078402906
 30
0.0
 11
454.9366317913905
 21
500.3983008402906
 31
0.0
  0
LINE
  5
271
330
2
100
AcDbEntity
  8
AM_4
100
AcDbLine
 10
454.9366317913905
 20
500.3983008402906
 30
0.0
 11
454.6135997913903
 21
500.7213328402905
 31
0.0
  0
LINE
  5
272
330
2
100
AcDbEntity
  8
AM_4
100
AcDbLine
 10
454.6135997913903
 20
500.7213328402905
 30
0.0
 11
454.3213327913905
 21
501.0712848402905
 31
0.0
  0
LINE
  5
273
330
2
100
AcDbEntity
  8
AM_4
100
AcDbLine
 10
454.3213327913905
 20
501.0712848402905
 30
0.0
 11
454.0790587913902
 21
501.4481548402906
 31
0.0
  0
LINE
  5
274
330
2
100
AcDbEntity
  8
AM_4
100
AcDbLine
 10
456.4979537913905
 20
499.5368818402907
 30
0.0
 11
456.0941637913903
 21
499.6983978402907
 31
0.0
  0
LINE
  5
275
330
2
100
AcDbEntity
  8
AM_4
100
AcDbLine
 10
452.0331887913903
 20
499.3753658402907
 30
0.0
 11
452.0331887913903
 21
504.7284688402907
 31
0.0
  0
LINE
  5
276
330
2
100
AcDbEntity
  8
AM_4
100
AcDbLine
 10
453.6752687913905
 20
502.3095738402907
 30
0.0
 11
453.5406717913905
 21
502.7941218402905
 31
0.0
  0
LINE
  5
277
330
2
100
AcDbEntity
  8
AM_4
100
AcDbLine
 10
461.0165577913902
 20
506.2359528402907
 30
0.0
 11
461.3665087913905
 21
505.6975658402905
 31
0.0
  0
LINE
  5
278
330
2
100
AcDbEntity
  8
AM_4
100
AcDbLine
 10
461.3665087913905
 20
505.6975658402905
 30
0.0
 11
461.6087827913903
 21
505.1591788402906
 31
0.0
  0
LINE
  5
279
330
2
100
AcDbEntity
  8
AM_4
100
AcDbLine
 10
460.6127677913905
 20
506.6897358402906
 30
0.0
 11
461.0165577913902
 21
506.2359528402907
 31
0.0
  0
LINE
  5
27A
330
2
100
AcDbEntity
  8
AM_4
100
AcDbLine
 10
458.5938167913905
 20
505.4014528402906
 30
0.0
 11
458.4053817913906
 21
505.5091298402905
 31
0.0
  0
LINE
  5
27B
330
2
100
AcDbEntity
  8
AM_4
100
AcDbLine
 10
458.4053817913906
 20
505.5091298402905
 30
0.0
 11
458.1938727913906
 21
505.6168078402905
 31
0.0
  0
LINE
  5
27C
330
2
100
AcDbEntity
  8
AM_4
100
AcDbLine
 10
458.1938727913906
 20
505.6168078402905
 30
0.0
 11
457.8977597913905
 21
505.6975658402905
 31
0.0
  0
LINE
  5
27D
330
2
100
AcDbEntity
  8
AM_4
100
AcDbLine
 10
457.8977597913905
 20
505.6975658402905
 30
0.0
 11
457.5747277913905
 21
505.7514038402906
 31
0.0
  0
LINE
  5
27E
330
2
100
AcDbEntity
  8
AM_4
100
AcDbLine
 10
457.5747277913905
 20
505.7514038402906
 30
0.0
 11
457.1978567913904
 21
505.7244848402906
 31
0.0
  0
LINE
  5
27F
330
2
100
AcDbEntity
  8
AM_4
100
AcDbLine
 10
457.1978567913904
 20
505.7244848402906
 30
0.0
 11
456.7940667913902
 21
505.5898878402905
 31
0.0
  0
LINE
  5
280
330
2
100
AcDbEntity
  8
AM_4
100
AcDbLine
 10
461.1780737913902
 20
502.6326058402907
 30
0.0
 11
461.1780737913902
 21
499.9945108402906
 31
0.0
  0
LINE
  5
281
330
2
100
AcDbEntity
  8
AM_4
100
AcDbLine
 10
460.5858477913905
 20
502.2288158402906
 30
0.0
 11
461.1780737913902
 21
502.6326058402907
 31
0.0
  0
LINE
  5
282
330
2
100
AcDbEntity
  8
AM_4
100
AcDbLine
 10
462.1702437913906
 20
499.4022848402907
 30
0.0
 11
462.1702437913906
 21
499.4022848402907
 31
0.0
  0
LINE
  5
283
330
2
100
AcDbEntity
  8
AM_4
100
AcDbLine
 10
461.1780737913902
 20
499.9945108402906
 30
0.0
 11
460.9896377913904
 21
499.8868338402906
 31
0.0
  0
LINE
  5
284
330
2
100
AcDbEntity
  8
AM_4
100
AcDbLine
 10
460.3974127913905
 20
499.6176398402906
 30
0.0
 11
459.9667027913906
 21
499.4830428402905
 31
0.0
  0
LINE
  5
285
330
2
100
AcDbEntity
  8
AM_4
100
AcDbLine
 10
459.9667027913906
 20
499.4830428402905
 30
0.0
 11
459.4821547913904
 21
499.3753658402907
 31
0.0
  0
LINE
  5
286
330
2
100
AcDbEntity
  8
AM_4
100
AcDbLine
 10
459.3206387913904
 20
501.6635098402907
 30
0.0
 11
459.9936227913905
 21
501.9057838402906
 31
0.0
  0
LINE
  5
287
330
2
100
AcDbEntity
  8
AM_4
100
AcDbLine
 10
459.9936227913905
 20
501.9057838402906
 30
0.0
 11
460.5858477913905
 21
502.2288158402906
 31
0.0
  0
LINE
  5
288
330
2
100
AcDbEntity
  8
AM_4
100
AcDbLine
 10
460.9896377913904
 20
499.8868338402906
 30
0.0
 11
460.3974127913905
 21
499.6176398402906
 31
0.0
  0
LINE
  5
289
330
2
100
AcDbEntity
  8
AM_4
100
AcDbLine
 10
461.1780737913902
 20
502.6326058402907
 30
0.0
 11
461.1780737913902
 21
502.6326058402907
 31
0.0
  0
LINE
  5
28A
330
2
100
AcDbEntity
  8
AM_4
100
AcDbLine
 10
457.6016467913905
 20
501.6635098402907
 30
0.0
 11
457.7631627913905
 21
501.6365908402906
 31
0.0
  0
LINE
  5
28B
330
2
100
AcDbEntity
  8
AM_4
100
AcDbLine
 10
458.9168487913905
 20
499.2946078402906
 30
0.0
 11
458.2977037913905
 21
499.2676888402906
 31
0.0
  0
LINE
  5
28C
330
2
100
AcDbEntity
  8
AM_4
100
AcDbLine
 10
458.2977037913905
 20
499.2676888402906
 30
0.0
 11
457.8439207913905
 21
499.2676888402906
 31
0.0
  0
LINE
  5
28D
330
2
100
AcDbEntity
  8
AM_4
100
AcDbLine
 10
457.8439207913905
 20
499.2676888402906
 30
0.0
 11
457.3862917913904
 21
499.3215268402906
 31
0.0
  0
LINE
  5
28E
330
2
100
AcDbEntity
  8
AM_4
100
AcDbLine
 10
457.7631627913905
 20
501.6365908402906
 30
0.0
 11
458.1400337913904
 21
501.5558328402907
 31
0.0
  0
LINE
  5
28F
330
2
100
AcDbEntity
  8
AM_4
100
AcDbLine
 10
458.1400337913904
 20
501.5558328402907
 30
0.0
 11
458.6745747913902
 21
501.5558328402907
 31
0.0
  0
LINE
  5
290
330
2
100
AcDbEntity
  8
AM_4
100
AcDbLine
 10
458.6745747913902
 20
501.5558328402907
 30
0.0
 11
458.9976067913905
 21
501.5827518402906
 31
0.0
  0
LINE
  5
291
330
2
100
AcDbEntity
  8
AM_4
100
AcDbLine
 10
457.3862917913904
 20
499.3215268402906
 30
0.0
 11
456.9555827913903
 21
499.4292048402906
 31
0.0
  0
LINE
  5
292
330
2
100
AcDbEntity
  8
AM_4
100
AcDbLine
 10
458.9976067913905
 20
501.5827518402906
 30
0.0
 11
459.3206387913904
 21
501.6635098402907
 31
0.0
  0
LINE
  5
293
330
2
100
AcDbEntity
  8
AM_4
100
AcDbLine
 10
459.4821547913904
 20
499.3753658402907
 30
0.0
 11
458.9168487913905
 21
499.2946078402906
 31
0.0
  0
LINE
  5
294
330
2
100
AcDbEntity
  8
AM_4
100
AcDbLine
 10
461.6087827913903
 20
505.1591788402906
 30
0.0
 11
457.6016467913905
 21
501.6635098402907
 31
0.0
  0
LINE
  5
295
330
2
100
AcDbEntity
  8
AM_4
100
AcDbLine
 10
456.5787117913905
 20
507.8741868402905
 30
0.0
 11
457.0363407913905
 21
507.9549448402906
 31
0.0
  0
LINE
  5
296
330
2
100
AcDbEntity
  8
AM_4
100
AcDbLine
 10
455.7442117913905
 20
507.6049928402905
 30
0.0
 11
456.1480027913906
 21
507.7665088402905
 31
0.0
  0
LINE
  5
297
330
2
100
AcDbEntity
  8
AM_4
100
AcDbLine
 10
455.0443097913904
 20
507.2012028402905
 30
0.0
 11
455.3673417913905
 21
507.4165578402904
 31
0.0
  0
LINE
  5
298
330
2
100
AcDbEntity
  8
AM_4
100
AcDbLine
 10
455.3673417913905
 20
507.4165578402904
 30
0.0
 11
455.7442117913905
 21
507.6049928402905
 31
0.0
  0
LINE
  5
299
330
2
100
AcDbEntity
  8
AM_4
100
AcDbLine
 10
456.1480027913906
 20
507.7665088402905
 30
0.0
 11
456.5787117913905
 21
507.8741868402905
 31
0.0
  0
LINE
  5
29A
330
2
100
AcDbEntity
  8
AM_4
100
AcDbLine
 10
452.3293017913905
 20
507.8741868402905
 30
0.0
 11
451.7909147913906
 21
507.8472668402906
 31
0.0
  0
LINE
  5
29B
330
2
100
AcDbEntity
  8
AM_4
100
AcDbLine
 10
451.7909147913906
 20
507.8472668402906
 30
0.0
 11
451.3332857913905
 21
507.7934288402906
 31
0.0
  0
LINE
  5
29C
330
2
100
AcDbEntity
  8
AM_4
100
AcDbLine
 10
451.3332857913905
 20
507.7934288402906
 30
0.0
 11
450.9564147913905
 21
507.6588318402905
 31
0.0
  0
LINE
  5
29D
330
2
100
AcDbEntity
  8
AM_4
100
AcDbLine
 10
450.9564147913905
 20
507.6588318402905
 30
0.0
 11
450.6064637913905
 21
507.5242348402905
 31
0.0
  0
LINE
  5
29E
330
2
100
AcDbEntity
  8
AM_4
100
AcDbLine
 10
453.2983977913906
 20
507.8741868402905
 30
0.0
 11
452.3293017913905
 21
507.8741868402905
 31
0.0
  0
LINE
  5
29F
330
2
100
AcDbEntity
  8
AM_4
100
AcDbLine
 10
462.3048407913906
 20
509.4355088402905
 30
0.0
 11
462.5201947913905
 21
509.8662178402906
 31
0.0
  0
LINE
  5
2A0
330
2
100
AcDbEntity
  8
AM_4
100
AcDbLine
 10
462.5201947913905
 20
509.8662178402906
 30
0.0
 11
462.6547917913905
 21
510.0815728402904
 31
0.0
  0
LINE
  5
2A1
330
2
100
AcDbEntity
  8
AM_4
100
AcDbLine
 10
462.1702437913906
 20
508.6817668402906
 30
0.0
 11
462.1971627913906
 21
509.0317178402905
 31
0.0
  0
LINE
  5
2A2
330
2
100
AcDbEntity
  8
AM_4
100
AcDbLine
 10
462.1971627913906
 20
509.0317178402905
 30
0.0
 11
462.3048407913906
 21
509.4355088402905
 31
0.0
  0
LINE
  5
2A3
330
2
100
AcDbEntity
  8
AM_4
100
AcDbLine
 10
459.5359937913904
 20
507.4703968402906
 30
0.0
 11
460.1012997913905
 21
507.1204448402905
 31
0.0
  0
LINE
  5
2A4
330
2
100
AcDbEntity
  8
AM_4
100
AcDbLine
 10
457.5478077913905
 20
507.9818638402906
 30
0.0
 11
458.2477107913905
 21
507.9280248402906
 31
0.0
  0
LINE
  5
2A5
330
2
100
AcDbEntity
  8
AM_4
100
AcDbLine
 10
458.2477107913905
 20
507.9280248402906
 30
0.0
 11
458.9168487913905
 21
507.7395898402905
 31
0.0
  0
LINE
  5
2A6
330
2
100
AcDbEntity
  8
AM_4
100
AcDbLine
 10
457.0363407913905
 20
507.9549448402906
 30
0.0
 11
457.5478077913905
 21
507.9818638402906
 31
0.0
  0
LINE
  5
2A7
330
2
100
AcDbEntity
  8
AM_4
100
AcDbLine
 10
458.9168487913905
 20
507.7395898402905
 30
0.0
 11
459.5359937913904
 21
507.4703968402906
 31
0.0
  0
LINE
  5
2A8
330
2
100
AcDbEntity
  8
AM_4
100
AcDbLine
 10
465.9389517913905
 20
507.1742838402906
 30
0.0
 11
465.9389517913905
 21
505.1591788402906
 31
0.0
  0
LINE
  5
2A9
330
2
100
AcDbEntity
  8
AM_4
100
AcDbLine
 10
471.3689677913904
 20
506.6628158402905
 30
0.0
 11
471.9611927913903
 21
507.2012028402905
 31
0.0
  0
LINE
  5
2AA
330
2
100
AcDbEntity
  8
AM_4
100
AcDbLine
 10
466.9042017913905
 20
511.0468238402906
 30
0.0
 11
466.9042017913905
 21
499.4022848402907
 31
0.0
  0
LINE
  5
2AB
330
2
100
AcDbEntity
  8
AM_4
100
AcDbLine
 10
469.6230557913905
 20
499.4022848402907
 30
0.0
 11
469.6230557913905
 21
511.0468238402906
 31
0.0
  0
LINE
  5
2AC
330
2
100
AcDbEntity
  8
AM_4
100
AcDbLine
 10
466.9042017913905
 20
499.4022848402907
 30
0.0
 11
469.6230557913905
 21
499.4022848402907
 31
0.0
  0
LINE
  5
2AD
330
2
100
AcDbEntity
  8
AM_4
100
AcDbLine
 10
465.9389517913905
 20
505.1591788402906
 30
0.0
 11
464.7814197913905
 21
505.1591788402906
 31
0.0
  0
LINE
  5
2AE
330
2
100
AcDbEntity
  8
AM_4
100
AcDbLine
 10
464.7814197913905
 20
505.1591788402906
 30
0.0
 11
464.7814197913905
 21
499.4022848402907
 31
0.0
  0
LINE
  5
2AF
330
2
100
AcDbEntity
  8
AM_4
100
AcDbLine
 10
474.1108947913905
 20
505.7244848402906
 30
0.0
 11
473.7071047913905
 21
505.5898878402905
 31
0.0
  0
LINE
  5
2B0
330
2
100
AcDbEntity
  8
AM_4
100
AcDbLine
 10
473.7071047913905
 20
505.5898878402905
 30
0.0
 11
473.3340797913905
 21
505.3206948402906
 31
0.0
  0
LINE
  5
2B1
330
2
100
AcDbEntity
  8
AM_4
100
AcDbLine
 10
474.8107977913905
 20
505.6975658402905
 30
0.0
 11
474.4877657913905
 21
505.7514038402906
 31
0.0
  0
LINE
  5
2B2
330
2
100
AcDbEntity
  8
AM_4
100
AcDbLine
 10
474.4877657913905
 20
505.7514038402906
 30
0.0
 11
474.1108947913905
 21
505.7244848402906
 31
0.0
  0
LINE
  5
2B3
330
2
100
AcDbEntity
  8
AM_4
100
AcDbLine
 10
473.0110467913905
 20
504.9438238402905
 30
0.0
 11
472.8226117913903
 21
504.5669528402907
 31
0.0
  0
LINE
  5
2B4
330
2
100
AcDbEntity
  8
AM_4
100
AcDbLine
 10
472.8226117913903
 20
504.5669528402907
 30
0.0
 11
472.7418537913905
 21
504.2170018402906
 31
0.0
  0
LINE
  5
2B5
330
2
100
AcDbEntity
  8
AM_4
100
AcDbLine
 10
472.7149347913902
 20
503.8939698402906
 30
0.0
 11
472.7687727913905
 21
503.6247758402907
 31
0.0
  0
LINE
  5
2B6
330
2
100
AcDbEntity
  8
AM_4
100
AcDbLine
 10
472.7687727913905
 20
503.6247758402907
 30
0.0
 11
472.8226117913903
 21
503.4094218402906
 31
0.0
  0
LINE
  5
2B7
330
2
100
AcDbEntity
  8
AM_4
100
AcDbLine
 10
472.8226117913903
 20
503.4094218402906
 30
0.0
 11
472.9033697913905
 21
503.2209858402906
 31
0.0
  0
LINE
  5
2B8
330
2
100
AcDbEntity
  8
AM_4
100
AcDbLine
 10
472.9033697913905
 20
503.2209858402906
 30
0.0
 11
472.9033697913905
 21
503.2209858402906
 31
0.0
  0
LINE
  5
2B9
330
2
100
AcDbEntity
  8
AM_4
100
AcDbLine
 10
472.7418537913905
 20
504.2170018402906
 30
0.0
 11
472.7149347913902
 21
503.8939698402906
 31
0.0
  0
LINE
  5
2BA
330
2
100
AcDbEntity
  8
AM_4
100
AcDbLine
 10
473.3340797913905
 20
505.3206948402906
 30
0.0
 11
473.0110467913905
 21
504.9438238402905
 31
0.0
  0
LINE
  5
2BB
330
2
100
AcDbEntity
  8
AM_4
100
AcDbLine
 10
470.4267907913905
 20
504.6207918402906
 30
0.0
 11
470.6152257913903
 21
505.3476138402905
 31
0.0
  0
LINE
  5
2BC
330
2
100
AcDbEntity
  8
AM_4
100
AcDbLine
 10
470.6152257913903
 20
505.3476138402905
 30
0.0
 11
470.7498227913905
 21
505.6975658402905
 31
0.0
  0
LINE
  5
2BD
330
2
100
AcDbEntity
  8
AM_4
100
AcDbLine
 10
470.7498227913905
 20
505.6975658402905
 30
0.0
 11
470.9382577913904
 21
506.0475168402907
 31
0.0
  0
LINE
  5
2BE
330
2
100
AcDbEntity
  8
AM_4
100
AcDbLine
 10
470.9382577913904
 20
506.0475168402907
 30
0.0
 11
471.1536127913904
 21
506.3705488402907
 31
0.0
  0
LINE
  5
2BF
330
2
100
AcDbEntity
  8
AM_4
100
AcDbLine
 10
471.1536127913904
 20
506.3705488402907
 30
0.0
 11
471.3689677913904
 21
506.6628158402905
 31
0.0
  0
LINE
  5
2C0
330
2
100
AcDbEntity
  8
AM_4
100
AcDbLine
 10
470.4537097913902
 20
502.7941218402905
 30
0.0
 11
470.3729517913905
 21
503.3017438402906
 31
0.0
  0
LINE
  5
2C1
330
2
100
AcDbEntity
  8
AM_4
100
AcDbLine
 10
470.3729517913905
 20
503.3017438402906
 30
0.0
 11
470.3460327913902
 21
503.8670498402906
 31
0.0
  0
LINE
  5
2C2
330
2
100
AcDbEntity
  8
AM_4
100
AcDbLine
 10
470.3460327913902
 20
503.8670498402906
 30
0.0
 11
470.4267907913905
 21
504.6207918402906
 31
0.0
  0
LINE
  5
2C3
330
2
100
AcDbEntity
  8
AM_4
100
AcDbLine
 10
474.5146847913903
 20
501.6635098402907
 30
0.0
 11
474.6762007913903
 21
501.6365908402906
 31
0.0
  0
LINE
  5
2C4
330
2
100
AcDbEntity
  8
AM_4
100
AcDbLine
 10
474.2993297913905
 20
499.3215268402906
 30
0.0
 11
473.8686207913905
 21
499.4292048402906
 31
0.0
  0
LINE
  5
2C5
330
2
100
AcDbEntity
  8
AM_4
100
AcDbLine
 10
473.8686207913905
 20
499.4292048402906
 30
0.0
 11
473.4148377913903
 21
499.5368818402907
 31
0.0
  0
LINE
  5
2C6
330
2
100
AcDbEntity
  8
AM_4
100
AcDbLine
 10
474.6762007913903
 20
501.6365908402906
 30
0.0
 11
475.0530717913902
 21
501.5558328402907
 31
0.0
  0
LINE
  5
2C7
330
2
100
AcDbEntity
  8
AM_4
100
AcDbLine
 10
474.7569587913905
 20
499.2676888402906
 30
0.0
 11
474.2993297913905
 21
499.3215268402906
 31
0.0
  0
LINE
  5
2C8
330
2
100
AcDbEntity
  8
AM_4
100
AcDbLine
 10
473.0110467913905
 20
499.6983978402907
 30
0.0
 11
472.6072567913905
 21
499.9137528402906
 31
0.0
  0
LINE
  5
2C9
330
2
100
AcDbEntity
  8
AM_4
100
AcDbLine
 10
472.6072567913905
 20
499.9137528402906
 30
0.0
 11
472.2303857913905
 21
500.1291078402906
 31
0.0
  0
LINE
  5
2CA
330
2
100
AcDbEntity
  8
AM_4
100
AcDbLine
 10
472.2303857913905
 20
500.1291078402906
 30
0.0
 11
471.8804347913905
 21
500.3983008402906
 31
0.0
  0
LINE
  5
2CB
330
2
100
AcDbEntity
  8
AM_4
100
AcDbLine
 10
471.8804347913905
 20
500.3983008402906
 30
0.0
 11
471.5304837913904
 21
500.7213328402905
 31
0.0
  0
LINE
  5
2CC
330
2
100
AcDbEntity
  8
AM_4
100
AcDbLine
 10
473.4148377913903
 20
499.5368818402907
 30
0.0
 11
473.0110467913905
 21
499.6983978402907
 31
0.0
  0
LINE
  5
2CD
330
2
100
AcDbEntity
  8
AM_4
100
AcDbLine
 10
470.7767417913903
 20
501.8519448402907
 30
0.0
 11
470.5883067913905
 21
502.3095738402907
 31
0.0
  0
LINE
  5
2CE
330
2
100
AcDbEntity
  8
AM_4
100
AcDbLine
 10
470.9920967913904
 20
501.4481548402906
 30
0.0
 11
470.7767417913903
 21
501.8519448402907
 31
0.0
  0
LINE
  5
2CF
330
2
100
AcDbEntity
  8
AM_4
100
AcDbLine
 10
471.2343707913904
 20
501.0712848402905
 30
0.0
 11
470.9920967913904
 21
501.4481548402906
 31
0.0
  0
LINE
  5
2D0
330
2
100
AcDbEntity
  8
AM_4
100
AcDbLine
 10
471.5304837913904
 20
500.7213328402905
 30
0.0
 11
471.2343707913904
 21
501.0712848402905
 31
0.0
  0
LINE
  5
2D1
330
2
100
AcDbEntity
  8
AM_4
100
AcDbLine
 10
470.5883067913905
 20
502.3095738402907
 30
0.0
 11
470.4537097913902
 21
502.7941218402905
 31
0.0
  0
LINE
  5
2D2
330
2
100
AcDbEntity
  8
AM_4
100
AcDbLine
 10
469.6230557913905
 20
511.0468238402906
 30
0.0
 11
466.9042017913905
 21
511.0468238402906
 31
0.0
  0
LINE
  5
2D3
330
2
100
AcDbEntity
  8
AM_4
100
AcDbLine
 10
466.9042017913905
 20
511.0468238402906
 30
0.0
 11
466.9042017913905
 21
511.0468238402906
 31
0.0
  0
LINE
  5
2D4
330
2
100
AcDbEntity
  8
AM_4
100
AcDbLine
 10
466.0427827913905
 20
508.9778798402906
 30
0.0
 11
465.7505157913905
 21
508.9778798402906
 31
0.0
  0
LINE
  5
2D5
330
2
100
AcDbEntity
  8
AM_4
100
AcDbLine
 10
465.7505157913905
 20
508.9778798402906
 30
0.0
 11
465.6159197913905
 21
508.9509598402907
 31
0.0
  0
LINE
  5
2D6
330
2
100
AcDbEntity
  8
AM_4
100
AcDbLine
 10
466.0427827913905
 20
511.0468238402906
 30
0.0
 11
466.0427827913905
 21
508.9778798402906
 31
0.0
  0
LINE
  5
2D7
330
2
100
AcDbEntity
  8
AM_4
100
AcDbLine
 10
464.8352587913905
 20
508.3587348402906
 30
0.0
 11
464.7814197913905
 21
508.0626218402906
 31
0.0
  0
LINE
  5
2D8
330
2
100
AcDbEntity
  8
AM_4
100
AcDbLine
 10
464.7814197913905
 20
508.0626218402906
 30
0.0
 11
464.7814197913905
 21
507.1742838402906
 31
0.0
  0
LINE
  5
2D9
330
2
100
AcDbEntity
  8
AM_4
100
AcDbLine
 10
464.5660647913905
 20
511.0199038402907
 30
0.0
 11
465.0775327913903
 21
511.0468238402906
 31
0.0
  0
LINE
  5
2DA
330
2
100
AcDbEntity
  8
AM_4
100
AcDbLine
 10
465.2659677913905
 20
508.8702018402905
 30
0.0
 11
465.1044517913906
 21
508.7356058402906
 31
0.0
  0
LINE
  5
2DB
330
2
100
AcDbEntity
  8
AM_4
100
AcDbLine
 10
465.1044517913906
 20
508.7356058402906
 30
0.0
 11
464.9429357913906
 21
508.5740898402906
 31
0.0
  0
LINE
  5
2DC
330
2
100
AcDbEntity
  8
AM_4
100
AcDbLine
 10
464.9429357913906
 20
508.5740898402906
 30
0.0
 11
464.8352587913905
 21
508.3587348402906
 31
0.0
  0
LINE
  5
2DD
330
2
100
AcDbEntity
  8
AM_4
100
AcDbLine
 10
463.0855017913906
 20
510.4815168402906
 30
0.0
 11
463.3546947913905
 21
510.6699528402906
 31
0.0
  0
LINE
  5
2DE
330
2
100
AcDbEntity
  8
AM_4
100
AcDbLine
 10
462.8432267913905
 20
510.2969278402905
 30
0.0
 11
463.0855017913906
 21
510.4815168402906
 31
0.0
  0
LINE
  5
2DF
330
2
100
AcDbEntity
  8
AM_4
100
AcDbLine
 10
463.3546947913905
 20
510.6699528402906
 30
0.0
 11
463.7046457913903
 21
510.8045488402906
 31
0.0
  0
LINE
  5
2E0
330
2
100
AcDbEntity
  8
AM_4
100
AcDbLine
 10
463.7046457913903
 20
510.8045488402906
 30
0.0
 11
464.1084367913905
 21
510.9391458402906
 31
0.0
  0
LINE
  5
2E1
330
2
100
AcDbEntity
  8
AM_4
100
AcDbLine
 10
464.1084367913905
 20
510.9391458402906
 30
0.0
 11
464.5660647913905
 21
511.0199038402907
 31
0.0
  0
LINE
  5
2E2
330
2
100
AcDbEntity
  8
AM_4
100
AcDbLine
 10
464.7814197913905
 20
507.1742838402906
 30
0.0
 11
465.9389517913905
 21
507.1742838402906
 31
0.0
  0
LINE
  5
2E3
330
2
100
AcDbEntity
  8
AM_4
100
AcDbLine
 10
465.0775327913903
 20
511.0468238402906
 30
0.0
 11
466.0427827913905
 21
511.0468238402906
 31
0.0
  0
LINE
  5
2E4
330
2
100
AcDbEntity
  8
AM_4
100
AcDbLine
 10
465.6159197913905
 20
508.9509598402907
 30
0.0
 11
465.2659677913905
 21
508.8702018402905
 31
0.0
  0
LINE
  5
2E5
330
2
100
AcDbEntity
  8
AM_4
100
AcDbLine
 10
473.9493787913905
 20
507.9549448402906
 30
0.0
 11
474.4608457913905
 21
507.9818638402906
 31
0.0
  0
LINE
  5
2E6
330
2
100
AcDbEntity
  8
AM_4
100
AcDbLine
 10
473.4955957913905
 20
507.8741868402905
 30
0.0
 11
473.9493787913905
 21
507.9549448402906
 31
0.0
  0
LINE
  5
2E7
330
2
100
AcDbEntity
  8
AM_4
100
AcDbLine
 10
471.9611927913903
 20
507.2012028402905
 30
0.0
 11
472.2842247913905
 21
507.4165578402904
 31
0.0
  0
LINE
  5
2E8
330
2
100
AcDbEntity
  8
AM_4
100
AcDbLine
 10
472.2842247913905
 20
507.4165578402904
 30
0.0
 11
472.6610957913903
 21
507.6049928402905
 31
0.0
  0
LINE
  5
2E9
330
2
100
AcDbEntity
  8
AM_4
100
AcDbLine
 10
472.6610957913903
 20
507.6049928402905
 30
0.0
 11
473.0648857913903
 21
507.7665088402905
 31
0.0
  0
LINE
  5
2EA
330
2
100
AcDbEntity
  8
AM_4
100
AcDbLine
 10
473.0648857913903
 20
507.7665088402905
 30
0.0
 11
473.4955957913905
 21
507.8741868402905
 31
0.0
  0
LINE
  5
2EB
330
2
100
AcDbEntity
  8
AM_4
100
AcDbLine
 10
486.1323037913905
 20
505.7244848402906
 30
0.0
 11
486.1323037913905
 21
507.7934288402906
 31
0.0
  0
LINE
  5
2EC
330
2
100
AcDbEntity
  8
AM_4
100
AcDbLine
 10
479.0602077913905
 20
505.9667588402906
 30
0.0
 11
479.0602077913905
 21
507.7934288402906
 31
0.0
  0
LINE
  5
2ED
330
2
100
AcDbEntity
  8
AM_4
100
AcDbLine
 10
483.6057307913903
 20
506.2628718402906
 30
0.0
 11
483.6057307913903
 21
507.7934288402906
 31
0.0
  0
LINE
  5
2EE
330
2
100
AcDbEntity
  8
AM_4
100
AcDbLine
 10
481.6406187913905
 20
506.0744368402906
 30
0.0
 11
481.6406187913905
 21
507.7934288402906
 31
0.0
  0
LINE
  5
2EF
330
2
100
AcDbEntity
  8
AM_4
100
AcDbLine
 10
477.0181837913902
 20
507.1204448402905
 30
0.0
 11
477.5258057913903
 21
506.6897358402906
 31
0.0
  0
LINE
  5
2F0
330
2
100
AcDbEntity
  8
AM_4
100
AcDbLine
 10
481.5867807913902
 20
499.4022848402907
 30
0.0
 11
478.8986917913905
 21
499.4022848402907
 31
0.0
  0
LINE
  5
2F1
330
2
100
AcDbEntity
  8
AM_4
100
AcDbLine
 10
479.6255137913905
 20
504.3246788402906
 30
0.0
 11
479.4101597913902
 21
504.5938728402906
 31
0.0
  0
LINE
  5
2F2
330
2
100
AcDbEntity
  8
AM_4
100
AcDbLine
 10
479.4101597913902
 20
504.5938728402906
 30
0.0
 11
479.2486427913902
 21
504.9707428402905
 31
0.0
  0
LINE
  5
2F3
330
2
100
AcDbEntity
  8
AM_4
100
AcDbLine
 10
479.2486427913902
 20
504.9707428402905
 30
0.0
 11
479.1140467913903
 21
505.4014528402906
 31
0.0
  0
LINE
  5
2F4
330
2
100
AcDbEntity
  8
AM_4
100
AcDbLine
 10
477.9295957913904
 20
506.2359528402907
 30
0.0
 11
478.2795467913904
 21
505.6975658402905
 31
0.0
  0
LINE
  5
2F5
330
2
100
AcDbEntity
  8
AM_4
100
AcDbLine
 10
478.2795467913904
 20
505.6975658402905
 30
0.0
 11
478.5218207913906
 21
505.1591788402906
 31
0.0
  0
LINE
  5
2F6
330
2
100
AcDbEntity
  8
AM_4
100
AcDbLine
 10
479.1140467913903
 20
505.4014528402906
 30
0.0
 11
479.0602077913905
 21
505.9667588402906
 31
0.0
  0
LINE
  5
2F7
330
2
100
AcDbEntity
  8
AM_4
100
AcDbLine
 10
479.2217237913905
 20
502.9248738402904
 30
0.0
 11
479.4639977913905
 21
503.3017438402906
 31
0.0
  0
LINE
  5
2F8
330
2
100
AcDbEntity
  8
AM_4
100
AcDbLine
 10
479.4639977913905
 20
503.3017438402906
 30
0.0
 11
479.7601107913903
 21
503.6247758402907
 31
0.0
  0
LINE
  5
2F9
330
2
100
AcDbEntity
  8
AM_4
100
AcDbLine
 10
479.7601107913903
 20
503.6247758402907
 30
0.0
 11
479.9485457913905
 21
503.7593728402907
 31
0.0
  0
LINE
  5
2FA
330
2
100
AcDbEntity
  8
AM_4
100
AcDbLine
 10
479.9485457913905
 20
503.7593728402907
 30
0.0
 11
480.1908197913903
 21
503.8670498402906
 31
0.0
  0
LINE
  5
2FB
330
2
100
AcDbEntity
  8
AM_4
100
AcDbLine
 10
480.1908197913903
 20
503.8670498402906
 30
0.0
 11
480.0023847913903
 21
503.9747278402906
 31
0.0
  0
LINE
  5
2FC
330
2
100
AcDbEntity
  8
AM_4
100
AcDbLine
 10
480.0023847913903
 20
503.9747278402906
 30
0.0
 11
479.8408687913903
 21
504.1093248402907
 31
0.0
  0
LINE
  5
2FD
330
2
100
AcDbEntity
  8
AM_4
100
AcDbLine
 10
479.8408687913903
 20
504.1093248402907
 30
0.0
 11
479.6255137913905
 21
504.3246788402906
 31
0.0
  0
LINE
  5
2FE
330
2
100
AcDbEntity
  8
AM_4
100
AcDbLine
 10
478.0911117913904
 20
502.6326058402907
 30
0.0
 11
478.0911117913904
 21
499.9945108402906
 31
0.0
  0
LINE
  5
2FF
330
2
100
AcDbEntity
  8
AM_4
100
AcDbLine
 10
478.9794497913905
 20
502.2018968402906
 30
0.0
 11
479.0871267913906
 21
502.5518478402905
 31
0.0
  0
LINE
  5
300
330
2
100
AcDbEntity
  8
AM_4
100
AcDbLine
 10
478.8986917913905
 20
501.6365908402906
 30
0.0
 11
478.9256107913906
 21
501.9057838402906
 31
0.0
  0
LINE
  5
301
330
2
100
AcDbEntity
  8
AM_4
100
AcDbLine
 10
478.8986917913905
 20
499.4022848402907
 30
0.0
 11
478.8986917913905
 21
501.6365908402906
 31
0.0
  0
LINE
  5
302
330
2
100
AcDbEntity
  8
AM_4
100
AcDbLine
 10
478.0911117913904
 20
499.9945108402906
 30
0.0
 11
477.9026757913904
 21
499.8868338402906
 31
0.0
  0
LINE
  5
303
330
2
100
AcDbEntity
  8
AM_4
100
AcDbLine
 10
478.9256107913906
 20
501.9057838402906
 30
0.0
 11
478.9794497913905
 21
502.2018968402906
 31
0.0
  0
LINE
  5
304
330
2
100
AcDbEntity
  8
AM_4
100
AcDbLine
 10
478.0911117913904
 20
502.6326058402907
 30
0.0
 11
478.0911117913904
 21
502.6326058402907
 31
0.0
  0
LINE
  5
305
330
2
100
AcDbEntity
  8
AM_4
100
AcDbLine
 10
479.0871267913906
 20
502.5518478402905
 30
0.0
 11
479.2217237913905
 21
502.9248738402904
 31
0.0
  0
LINE
  5
306
330
2
100
AcDbEntity
  8
AM_4
100
AcDbLine
 10
475.3222647913905
 20
505.5091298402905
 30
0.0
 11
475.1069097913902
 21
505.6168078402905
 31
0.0
  0
LINE
  5
307
330
2
100
AcDbEntity
  8
AM_4
100
AcDbLine
 10
475.5107007913903
 20
505.4014528402906
 30
0.0
 11
475.3222647913905
 21
505.5091298402905
 31
0.0
  0
LINE
  5
308
330
2
100
AcDbEntity
  8
AM_4
100
AcDbLine
 10
475.9144907913904
 20
501.5827518402906
 30
0.0
 11
476.2375227913905
 21
501.6635098402907
 31
0.0
  0
LINE
  5
309
330
2
100
AcDbEntity
  8
AM_4
100
AcDbLine
 10
477.3142957913902
 20
499.6176398402906
 30
0.0
 11
476.9105057913905
 21
499.4830428402905
 31
0.0
  0
LINE
  5
30A
330
2
100
AcDbEntity
  8
AM_4
100
AcDbLine
 10
476.9105057913905
 20
499.4830428402905
 30
0.0
 11
476.3990387913905
 21
499.3753658402907
 31
0.0
  0
LINE
  5
30B
330
2
100
AcDbEntity
  8
AM_4
100
AcDbLine
 10
476.3990387913905
 20
499.3753658402907
 30
0.0
 11
475.8337327913904
 21
499.2946078402906
 31
0.0
  0
LINE
  5
30C
330
2
100
AcDbEntity
  8
AM_4
100
AcDbLine
 10
475.5914587913905
 20
501.5558328402907
 30
0.0
 11
475.9144907913904
 21
501.5827518402906
 31
0.0
  0
LINE
  5
30D
330
2
100
AcDbEntity
  8
AM_4
100
AcDbLine
 10
476.2375227913905
 20
501.6635098402907
 30
0.0
 11
476.9105057913905
 21
501.9057838402906
 31
0.0
  0
LINE
  5
30E
330
2
100
AcDbEntity
  8
AM_4
100
AcDbLine
 10
476.9105057913905
 20
501.9057838402906
 30
0.0
 11
477.4988857913905
 21
502.2288158402906
 31
0.0
  0
LINE
  5
30F
330
2
100
AcDbEntity
  8
AM_4
100
AcDbLine
 10
475.8337327913904
 20
499.2946078402906
 30
0.0
 11
475.2145877913902
 21
499.2676888402906
 31
0.0
  0
LINE
  5
310
330
2
100
AcDbEntity
  8
AM_4
100
AcDbLine
 10
477.4988857913905
 20
502.2288158402906
 30
0.0
 11
478.0911117913904
 21
502.6326058402907
 31
0.0
  0
LINE
  5
311
330
2
100
AcDbEntity
  8
AM_4
100
AcDbLine
 10
477.9026757913904
 20
499.8868338402906
 30
0.0
 11
477.3142957913902
 21
499.6176398402906
 31
0.0
  0
LINE
  5
312
330
2
100
AcDbEntity
  8
AM_4
100
AcDbLine
 10
477.5258057913903
 20
506.6897358402906
 30
0.0
 11
477.9295957913904
 21
506.2359528402907
 31
0.0
  0
LINE
  5
313
330
2
100
AcDbEntity
  8
AM_4
100
AcDbLine
 10
486.1323037913905
 20
505.7244848402906
 30
0.0
 11
486.0246257913904
 21
505.1322598402905
 31
0.0
  0
LINE
  5
314
330
2
100
AcDbEntity
  8
AM_4
100
AcDbLine
 10
486.0246257913904
 20
505.1322598402905
 30
0.0
 11
485.8900297913903
 21
504.7823078402906
 31
0.0
  0
LINE
  5
315
330
2
100
AcDbEntity
  8
AM_4
100
AcDbLine
 10
485.8900297913903
 20
504.7823078402906
 30
0.0
 11
485.6746747913905
 21
504.4323568402906
 31
0.0
  0
LINE
  5
316
330
2
100
AcDbEntity
  8
AM_4
100
AcDbLine
 10
485.6477557913905
 20
503.4094218402906
 30
0.0
 11
485.8900297913903
 21
503.1133088402905
 31
0.0
  0
LINE
  5
317
330
2
100
AcDbEntity
  8
AM_4
100
AcDbLine
 10
485.8900297913903
 20
503.1133088402905
 30
0.0
 11
486.0784647913905
 21
502.7402838402905
 31
0.0
  0
LINE
  5
318
330
2
100
AcDbEntity
  8
AM_4
100
AcDbLine
 10
485.4054817913906
 20
504.1093248402907
 30
0.0
 11
485.0324557913904
 21
503.8670498402906
 31
0.0
  0
LINE
  5
319
330
2
100
AcDbEntity
  8
AM_4
100
AcDbLine
 10
485.0324557913904
 20
503.8670498402906
 30
0.0
 11
485.2170457913905
 21
503.7593728402907
 31
0.0
  0
LINE
  5
31A
330
2
100
AcDbEntity
  8
AM_4
100
AcDbLine
 10
485.2170457913905
 20
503.7593728402907
 30
0.0
 11
485.4324007913905
 21
503.6247758402907
 31
0.0
  0
LINE
  5
31B
330
2
100
AcDbEntity
  8
AM_4
100
AcDbLine
 10
485.4324007913905
 20
503.6247758402907
 30
0.0
 11
485.6477557913905
 21
503.4094218402906
 31
0.0
  0
LINE
  5
31C
330
2
100
AcDbEntity
  8
AM_4
100
AcDbLine
 10
485.6746747913905
 20
504.4323568402906
 30
0.0
 11
485.4054817913906
 21
504.1093248402907
 31
0.0
  0
LINE
  5
31D
330
2
100
AcDbEntity
  8
AM_4
100
AcDbLine
 10
483.4711347913904
 20
505.6975658402905
 30
0.0
 11
483.5788117913905
 21
506.0744368402906
 31
0.0
  0
LINE
  5
31E
330
2
100
AcDbEntity
  8
AM_4
100
AcDbLine
 10
483.5788117913905
 20
506.0744368402906
 30
0.0
 11
483.6057307913903
 21
506.2628718402906
 31
0.0
  0
LINE
  5
31F
330
2
100
AcDbEntity
  8
AM_4
100
AcDbLine
 10
482.9058277913905
 20
505.1860978402905
 30
0.0
 11
483.1750217913905
 21
505.3206948402906
 31
0.0
  0
LINE
  5
320
330
2
100
AcDbEntity
  8
AM_4
100
AcDbLine
 10
483.1750217913905
 20
505.3206948402906
 30
0.0
 11
483.3634567913905
 21
505.5091298402905
 31
0.0
  0
LINE
  5
321
330
2
100
AcDbEntity
  8
AM_4
100
AcDbLine
 10
483.3634567913905
 20
505.5091298402905
 30
0.0
 11
483.4711347913904
 21
505.6975658402905
 31
0.0
  0
LINE
  5
322
330
2
100
AcDbEntity
  8
AM_4
100
AcDbLine
 10
481.6406187913905
 20
506.0744368402906
 30
0.0
 11
481.7213767913905
 21
505.6975658402905
 31
0.0
  0
LINE
  5
323
330
2
100
AcDbEntity
  8
AM_4
100
AcDbLine
 10
481.7213767913905
 20
505.6975658402905
 30
0.0
 11
481.8290547913902
 21
505.4822108402905
 31
0.0
  0
LINE
  5
324
330
2
100
AcDbEntity
  8
AM_4
100
AcDbLine
 10
481.8290547913902
 20
505.4822108402905
 30
0.0
 11
481.9905707913902
 21
505.3206948402906
 31
0.0
  0
LINE
  5
325
330
2
100
AcDbEntity
  8
AM_4
100
AcDbLine
 10
481.9905707913902
 20
505.3206948402906
 30
0.0
 11
482.2597637913903
 21
505.1860978402905
 31
0.0
  0
LINE
  5
326
330
2
100
AcDbEntity
  8
AM_4
100
AcDbLine
 10
482.2597637913903
 20
505.1860978402905
 30
0.0
 11
482.5827957913904
 21
505.1591788402906
 31
0.0
  0
LINE
  5
327
330
2
100
AcDbEntity
  8
AM_4
100
AcDbLine
 10
482.5827957913904
 20
505.1591788402906
 30
0.0
 11
482.9058277913905
 21
505.1860978402905
 31
0.0
  0
LINE
  5
328
330
2
100
AcDbEntity
  8
AM_4
100
AcDbLine
 10
486.2938197913905
 20
501.6635098402907
 30
0.0
 11
486.2938197913905
 21
499.4022848402907
 31
0.0
  0
LINE
  5
329
330
2
100
AcDbEntity
  8
AM_4
100
AcDbLine
 10
486.2399807913905
 20
502.2557358402905
 30
0.0
 11
486.2938197913905
 21
501.6635098402907
 31
0.0
  0
LINE
  5
32A
330
2
100
AcDbEntity
  8
AM_4
100
AcDbLine
 10
483.5518927913905
 20
502.0672998402906
 30
0.0
 11
483.4442147913905
 21
502.3095738402907
 31
0.0
  0
LINE
  5
32B
330
2
100
AcDbEntity
  8
AM_4
100
AcDbLine
 10
481.8290547913902
 20
502.3095738402907
 30
0.0
 11
481.6944577913905
 21
502.0942198402905
 31
0.0
  0
LINE
  5
32C
330
2
100
AcDbEntity
  8
AM_4
100
AcDbLine
 10
483.6326507913904
 20
501.6365908402906
 30
0.0
 11
483.6057307913903
 21
501.8519448402907
 31
0.0
  0
LINE
  5
32D
330
2
100
AcDbEntity
  8
AM_4
100
AcDbLine
 10
483.6326507913904
 20
499.4022848402907
 30
0.0
 11
483.6326507913904
 21
501.6365908402906
 31
0.0
  0
LINE
  5
32E
330
2
100
AcDbEntity
  8
AM_4
100
AcDbLine
 10
483.6057307913903
 20
501.8519448402907
 30
0.0
 11
483.5518927913905
 21
502.0672998402906
 31
0.0
  0
LINE
  5
32F
330
2
100
AcDbEntity
  8
AM_4
100
AcDbLine
 10
481.6136997913905
 20
501.6635098402907
 30
0.0
 11
481.5867807913902
 21
501.4481548402906
 31
0.0
  0
LINE
  5
330
330
2
100
AcDbEntity
  8
AM_4
100
AcDbLine
 10
481.5867807913902
 20
501.4481548402906
 30
0.0
 11
481.5867807913902
 21
499.4022848402907
 31
0.0
  0
LINE
  5
331
330
2
100
AcDbEntity
  8
AM_4
100
AcDbLine
 10
481.6944577913905
 20
502.0942198402905
 30
0.0
 11
481.6406187913905
 21
501.8519448402907
 31
0.0
  0
LINE
  5
332
330
2
100
AcDbEntity
  8
AM_4
100
AcDbLine
 10
481.6406187913905
 20
501.8519448402907
 30
0.0
 11
481.6136997913905
 21
501.6635098402907
 31
0.0
  0
LINE
  5
333
330
2
100
AcDbEntity
  8
AM_4
100
AcDbLine
 10
483.4442147913905
 20
502.3095738402907
 30
0.0
 11
483.2826987913905
 21
502.5249288402906
 31
0.0
  0
LINE
  5
334
330
2
100
AcDbEntity
  8
AM_4
100
AcDbLine
 10
483.2826987913905
 20
502.5249288402906
 30
0.0
 11
483.0135057913905
 21
502.6595258402905
 31
0.0
  0
LINE
  5
335
330
2
100
AcDbEntity
  8
AM_4
100
AcDbLine
 10
482.2866827913903
 20
502.6595258402905
 30
0.0
 11
482.0174897913905
 21
502.5249288402906
 31
0.0
  0
LINE
  5
336
330
2
100
AcDbEntity
  8
AM_4
100
AcDbLine
 10
482.0174897913905
 20
502.5249288402906
 30
0.0
 11
481.8290547913902
 21
502.3095738402907
 31
0.0
  0
LINE
  5
337
330
2
100
AcDbEntity
  8
AM_4
100
AcDbLine
 10
486.2938197913905
 20
499.4022848402907
 30
0.0
 11
483.6326507913904
 21
499.4022848402907
 31
0.0
  0
LINE
  5
338
330
2
100
AcDbEntity
  8
AM_4
100
AcDbLine
 10
486.0784647913905
 20
502.7402838402905
 30
0.0
 11
486.2399807913905
 21
502.2557358402905
 31
0.0
  0
LINE
  5
339
330
2
100
AcDbEntity
  8
AM_4
100
AcDbLine
 10
482.6635537913905
 20
502.7133638402905
 30
0.0
 11
482.2866827913903
 21
502.6595258402905
 31
0.0
  0
LINE
  5
33A
330
2
100
AcDbEntity
  8
AM_4
100
AcDbLine
 10
483.0135057913905
 20
502.6595258402905
 30
0.0
 11
482.6635537913905
 21
502.7133638402905
 31
0.0
  0
LINE
  5
33B
330
2
100
AcDbEntity
  8
AM_4
100
AcDbLine
 10
479.0602077913905
 20
507.7934288402906
 30
0.0
 11
481.6406187913905
 21
507.7934288402906
 31
0.0
  0
LINE
  5
33C
330
2
100
AcDbEntity
  8
AM_4
100
AcDbLine
 10
479.0602077913905
 20
507.7934288402906
 30
0.0
 11
479.0602077913905
 21
507.7934288402906
 31
0.0
  0
LINE
  5
33D
330
2
100
AcDbEntity
  8
AM_4
100
AcDbLine
 10
475.8337327913904
 20
507.7395898402905
 30
0.0
 11
476.4528777913905
 21
507.4703968402906
 31
0.0
  0
LINE
  5
33E
330
2
100
AcDbEntity
  8
AM_4
100
AcDbLine
 10
476.4528777913905
 20
507.4703968402906
 30
0.0
 11
477.0181837913902
 21
507.1204448402905
 31
0.0
  0
LINE
  5
33F
330
2
100
AcDbEntity
  8
AM_4
100
AcDbLine
 10
475.1607487913905
 20
507.9280248402906
 30
0.0
 11
475.8337327913904
 21
507.7395898402905
 31
0.0
  0
LINE
  5
340
330
2
100
AcDbEntity
  8
AM_4
100
AcDbLine
 10
483.6057307913903
 20
507.7934288402906
 30
0.0
 11
486.1323037913905
 21
507.7934288402906
 31
0.0
  0
LINE
  5
341
330
2
100
AcDbEntity
  8
AM_4
100
AcDbLine
 10
490.0525487913903
 20
513.2578378402905
 30
0.0
 11
490.1205867913906
 21
513.2430468402906
 31
0.0
  0
LINE
  5
342
330
2
100
AcDbEntity
  8
AM_4
100
AcDbLine
 10
489.8573097913903
 20
513.6926888402906
 30
0.0
 11
489.7626477913905
 21
513.6956468402906
 31
0.0
  0
LINE
  5
343
330
2
100
AcDbEntity
  8
AM_4
100
AcDbLine
 10
489.8366017913905
 20
513.2874198402905
 30
0.0
 11
489.9105567913903
 21
513.2815038402906
 31
0.0
  0
LINE
  5
344
330
2
100
AcDbEntity
  8
AM_4
100
AcDbLine
 10
489.7626477913905
 20
513.2874198402905
 30
0.0
 11
489.7626477913905
 21
513.6956468402906
 31
0.0
  0
LINE
  5
345
330
2
100
AcDbEntity
  8
AM_4
100
AcDbLine
 10
489.7626477913905
 20
513.6956468402906
 30
0.0
 11
489.7626477913905
 21
513.6956468402906
 31
0.0
  0
LINE
  5
346
330
2
100
AcDbEntity
  8
AM_4
100
AcDbLine
 10
489.9490127913905
 20
513.6838148402905
 30
0.0
 11
489.8573097913903
 21
513.6926888402906
 31
0.0
  0
LINE
  5
347
330
2
100
AcDbEntity
  8
AM_4
100
AcDbLine
 10
489.9105567913903
 20
513.2815038402906
 30
0.0
 11
490.0525487913903
 21
513.2578378402905
 31
0.0
  0
ARC
  5
348
330
2
100
AcDbEntity
  8
AM_4
100
AcDbCircle
 10
489.7626477913905
 20
511.8586238402905
 30
0.0
 40
1.428795999999999
100
AcDbArc
 50
0.0
 51
90.0
  0
ARC
  5
349
330
2
100
AcDbEntity
  8
AM_4
100
AcDbCircle
 10
489.7626477913905
 20
511.8586238402905
 30
0.0
 40
1.837022999999999
100
AcDbArc
 50
0.0
 51
90.0
  0
ARC
  5
34A
330
2
100
AcDbEntity
  8
AM_4
100
AcDbCircle
 10
489.7626477913905
 20
511.8586238402905
 30
0.0
 40
1.460545999999999
100
AcDbArc
 50
0.0
 51
90.0
  0
LINE
  5
34B
330
2
100
AcDbEntity
  8
AM_4
100
AcDbLine
 10
489.7626477913905
 20
513.4915338402906
 30
0.0
 11
490.0910047913903
 21
513.4501188402906
 31
0.0
  0
LINE
  5
34C
330
2
100
AcDbEntity
  8
AM_4
100
AcDbLine
 10
491.5789637913904
 20
512.1337338402907
 30
0.0
 11
491.5967127913902
 21
511.9503268402906
 31
0.0
  0
LINE
  5
34D
330
2
100
AcDbEntity
  8
AM_4
100
AcDbLine
 10
491.1766527913905
 20
512.0716118402906
 30
0.0
 11
491.1855277913905
 21
512.0035738402906
 31
0.0
  0
LINE
  5
34E
330
2
100
AcDbEntity
  8
AM_4
100
AcDbLine
 10
491.3748507913902
 20
512.1869808402906
 30
0.0
 11
491.3955577913903
 21
511.8586238402905
 31
0.0
  0
LINE
  5
34F
330
2
100
AcDbEntity
  8
AM_4
100
AcDbLine
 10
491.5996707913905
 20
511.8586238402905
 30
0.0
 11
491.5967127913902
 21
511.9503268402906
 31
0.0
  0
LINE
  5
350
330
2
100
AcDbEntity
  8
AM_4
100
AcDbLine
 10
491.1855277913905
 20
512.0035738402906
 30
0.0
 11
491.1914437913905
 21
511.9296198402905
 31
0.0
  0
LINE
  5
351
330
2
100
AcDbEntity
  8
AM_4
100
AcDbLine
 10
491.1914437913905
 20
511.8586238402905
 30
0.0
 11
491.5996707913905
 21
511.8586238402905
 31
0.0
  0
LINE
  5
352
330
2
100
AcDbEntity
  8
AM_4
100
AcDbLine
 10
491.5996707913905
 20
511.8586238402905
 30
0.0
 11
491.5996707913905
 21
511.8586238402905
 31
0.0
  0
LINE
  5
353
330
2
100
AcDbEntity
  8
AM_4
100
AcDbLine
 10
491.5789637913904
 20
512.1337338402907
 30
0.0
 11
491.5612147913905
 21
512.2224788402903
 31
0.0
  0
LINE
  5
354
330
2
100
AcDbEntity
  8
AM_4
100
AcDbLine
 10
491.5612147913905
 20
512.2224788402903
 30
0.0
 11
491.5405077913905
 21
512.3112238402906
 31
0.0
  0
LINE
  5
355
330
2
100
AcDbEntity
  8
AM_4
100
AcDbLine
 10
491.5405077913905
 20
512.3112238402906
 30
0.0
 11
491.5168427913903
 21
512.3970108402906
 31
0.0
  0
LINE
  5
356
330
2
100
AcDbEntity
  8
AM_4
100
AcDbLine
 10
491.5168427913903
 20
512.3970108402906
 30
0.0
 11
491.4872607913905
 21
512.4827978402906
 31
0.0
  0
LINE
  5
357
330
2
100
AcDbEntity
  8
AM_4
100
AcDbLine
 10
491.4872607913905
 20
512.4827978402906
 30
0.0
 11
491.4547207913905
 21
512.5656268402906
 31
0.0
  0
LINE
  5
358
330
2
100
AcDbEntity
  8
AM_4
100
AcDbLine
 10
491.4547207913905
 20
512.5656268402906
 30
0.0
 11
491.4192227913905
 21
512.6484548402905
 31
0.0
  0
LINE
  5
359
330
2
100
AcDbEntity
  8
AM_4
100
AcDbLine
 10
491.4192227913905
 20
512.6484548402905
 30
0.0
 11
491.3778087913905
 21
512.7253678402905
 31
0.0
  0
LINE
  5
35A
330
2
100
AcDbEntity
  8
AM_4
100
AcDbLine
 10
491.3778087913905
 20
512.7253678402905
 30
0.0
 11
491.3363937913906
 21
512.8022798402906
 31
0.0
  0
LINE
  5
35B
330
2
100
AcDbEntity
  8
AM_4
100
AcDbLine
 10
491.3363937913906
 20
512.8022798402906
 30
0.0
 11
491.2861047913905
 21
512.8791928402907
 31
0.0
  0
LINE
  5
35C
330
2
100
AcDbEntity
  8
AM_4
100
AcDbLine
 10
491.2861047913905
 20
512.8791928402907
 30
0.0
 11
491.2358167913904
 21
512.9501888402907
 31
0.0
  0
LINE
  5
35D
330
2
100
AcDbEntity
  8
AM_4
100
AcDbLine
 10
491.2358167913904
 20
512.9501888402907
 30
0.0
 11
491.1825697913902
 21
513.0211848402906
 31
0.0
  0
LINE
  5
35E
330
2
100
AcDbEntity
  8
AM_4
100
AcDbLine
 10
491.0642427913905
 20
513.1513438402905
 30
0.0
 11
491.1825697913902
 21
513.0211848402906
 31
0.0
  0
LINE
  5
35F
330
2
100
AcDbEntity
  8
AM_4
100
AcDbLine
 10
491.0642427913905
 20
513.1513438402905
 30
0.0
 11
491.0021207913906
 21
513.2105078402907
 31
0.0
  0
LINE
  5
360
330
2
100
AcDbEntity
  8
AM_4
100
AcDbLine
 10
491.0021207913906
 20
513.2105078402907
 30
0.0
 11
490.9340827913905
 21
513.2696708402906
 31
0.0
  0
LINE
  5
361
330
2
100
AcDbEntity
  8
AM_4
100
AcDbLine
 10
490.9340827913905
 20
513.2696708402906
 30
0.0
 11
490.8660447913905
 21
513.3258758402907
 31
0.0
  0
LINE
  5
362
330
2
100
AcDbEntity
  8
AM_4
100
AcDbLine
 10
490.7181367913905
 20
513.4264538402906
 30
0.0
 11
490.8660447913905
 21
513.3258758402907
 31
0.0
  0
LINE
  5
363
330
2
100
AcDbEntity
  8
AM_4
100
AcDbLine
 10
490.7181367913905
 20
513.4264538402906
 30
0.0
 11
490.6412247913904
 21
513.4708258402906
 31
0.0
  0
LINE
  5
364
330
2
100
AcDbEntity
  8
AM_4
100
AcDbLine
 10
490.6412247913904
 20
513.4708258402906
 30
0.0
 11
490.5613537913906
 21
513.5122408402906
 31
0.0
  0
LINE
  5
365
330
2
100
AcDbEntity
  8
AM_4
100
AcDbLine
 10
490.5613537913906
 20
513.5122408402906
 30
0.0
 11
490.4814827913902
 21
513.5477388402907
 31
0.0
  0
LINE
  5
366
330
2
100
AcDbEntity
  8
AM_4
100
AcDbLine
 10
490.4814827913902
 20
513.5477388402907
 30
0.0
 11
490.3956957913903
 21
513.5802788402903
 31
0.0
  0
LINE
  5
367
330
2
100
AcDbEntity
  8
AM_4
100
AcDbLine
 10
490.3956957913903
 20
513.5802788402903
 30
0.0
 11
490.3099097913905
 21
513.6098598402906
 31
0.0
  0
LINE
  5
368
330
2
100
AcDbEntity
  8
AM_4
100
AcDbLine
 10
490.3099097913905
 20
513.6098598402906
 30
0.0
 11
490.2241227913905
 21
513.6364838402905
 31
0.0
  0
LINE
  5
369
330
2
100
AcDbEntity
  8
AM_4
100
AcDbLine
 10
490.2241227913905
 20
513.6364838402905
 30
0.0
 11
490.1324187913906
 21
513.6571908402905
 31
0.0
  0
LINE
  5
36A
330
2
100
AcDbEntity
  8
AM_4
100
AcDbLine
 10
490.1205867913906
 20
513.2430468402906
 30
0.0
 11
490.1886247913905
 21
513.2223398402905
 31
0.0
  0
LINE
  5
36B
330
2
100
AcDbEntity
  8
AM_4
100
AcDbLine
 10
490.1886247913905
 20
513.2223398402905
 30
0.0
 11
490.2566627913905
 21
513.1986748402907
 31
0.0
  0
LINE
  5
36C
330
2
100
AcDbEntity
  8
AM_4
100
AcDbLine
 10
490.2566627913905
 20
513.1986748402907
 30
0.0
 11
490.3217417913905
 21
513.1750088402906
 31
0.0
  0
LINE
  5
36D
330
2
100
AcDbEntity
  8
AM_4
100
AcDbLine
 10
490.3217417913905
 20
513.1750088402906
 30
0.0
 11
490.3838637913905
 21
513.1454278402904
 31
0.0
  0
LINE
  5
36E
330
2
100
AcDbEntity
  8
AM_4
100
AcDbLine
 10
490.3838637913905
 20
513.1454278402904
 30
0.0
 11
490.4459847913905
 21
513.1128878402907
 31
0.0
  0
LINE
  5
36F
330
2
100
AcDbEntity
  8
AM_4
100
AcDbLine
 10
490.4459847913905
 20
513.1128878402907
 30
0.0
 11
490.5051487913905
 21
513.0773898402906
 31
0.0
  0
LINE
  5
370
330
2
100
AcDbEntity
  8
AM_4
100
AcDbLine
 10
490.5051487913905
 20
513.0773898402906
 30
0.0
 11
490.5643117913905
 21
513.0418918402906
 31
0.0
  0
LINE
  5
371
330
2
100
AcDbEntity
  8
AM_4
100
AcDbLine
 10
490.5643117913905
 20
513.0418918402906
 30
0.0
 11
490.6205167913904
 21
513.0004768402906
 31
0.0
  0
LINE
  5
372
330
2
100
AcDbEntity
  8
AM_4
100
AcDbLine
 10
490.6205167913904
 20
513.0004768402906
 30
0.0
 11
490.6737637913904
 21
512.9590628402906
 31
0.0
  0
LINE
  5
373
330
2
100
AcDbEntity
  8
AM_4
100
AcDbLine
 10
490.6737637913904
 20
512.9590628402906
 30
0.0
 11
490.7270107913904
 21
512.9117318402903
 31
0.0
  0
LINE
  5
374
330
2
100
AcDbEntity
  8
AM_4
100
AcDbLine
 10
490.7270107913904
 20
512.9117318402903
 30
0.0
 11
490.7772997913905
 21
512.8644018402906
 31
0.0
  0
LINE
  5
375
330
2
100
AcDbEntity
  8
AM_4
100
AcDbLine
 10
490.7772997913905
 20
512.8644018402906
 30
0.0
 11
490.8216727913906
 21
512.8141128402907
 31
0.0
  0
LINE
  5
376
330
2
100
AcDbEntity
  8
AM_4
100
AcDbLine
 10
490.8216727913906
 20
512.8141128402907
 30
0.0
 11
490.8690037913904
 21
512.7638238402907
 31
0.0
  0
LINE
  5
377
330
2
100
AcDbEntity
  8
AM_4
100
AcDbLine
 10
490.8690037913904
 20
512.7638238402907
 30
0.0
 11
490.9104177913905
 21
512.7076188402906
 31
0.0
  0
LINE
  5
378
330
2
100
AcDbEntity
  8
AM_4
100
AcDbLine
 10
490.9104177913905
 20
512.7076188402906
 30
0.0
 11
490.9488737913902
 21
512.6514128402906
 31
0.0
  0
LINE
  5
379
330
2
100
AcDbEntity
  8
AM_4
100
AcDbLine
 10
490.9488737913902
 20
512.6514128402906
 30
0.0
 11
490.9873297913905
 21
512.5952078402906
 31
0.0
  0
LINE
  5
37A
330
2
100
AcDbEntity
  8
AM_4
100
AcDbLine
 10
490.9873297913905
 20
512.5952078402906
 30
0.0
 11
491.0198697913905
 21
512.5330868402905
 31
0.0
  0
LINE
  5
37B
330
2
100
AcDbEntity
  8
AM_4
100
AcDbLine
 10
491.0198697913905
 20
512.5330868402905
 30
0.0
 11
491.0524097913905
 21
512.4739228402906
 31
0.0
  0
LINE
  5
37C
330
2
100
AcDbEntity
  8
AM_4
100
AcDbLine
 10
491.0524097913905
 20
512.4739228402906
 30
0.0
 11
491.0819917913904
 21
512.4088438402906
 31
0.0
  0
LINE
  5
37D
330
2
100
AcDbEntity
  8
AM_4
100
AcDbLine
 10
491.0819917913904
 20
512.4088438402906
 30
0.0
 11
491.1293217913904
 21
512.2786838402905
 31
0.0
  0
LINE
  5
37E
330
2
100
AcDbEntity
  8
AM_4
100
AcDbLine
 10
491.1293217913904
 20
512.2786838402905
 30
0.0
 11
491.1470717913902
 21
512.2106458402907
 31
0.0
  0
LINE
  5
37F
330
2
100
AcDbEntity
  8
AM_4
100
AcDbLine
 10
491.1470717913902
 20
512.2106458402907
 30
0.0
 11
491.1648207913905
 21
512.1426078402905
 31
0.0
  0
LINE
  5
380
330
2
100
AcDbEntity
  8
AM_4
100
AcDbLine
 10
491.1648207913905
 20
512.1426078402905
 30
0.0
 11
491.1766527913905
 21
512.0716118402906
 31
0.0
  0
LINE
  5
381
330
2
100
AcDbEntity
  8
AM_4
100
AcDbLine
 10
490.0910047913903
 20
513.4501188402906
 30
0.0
 11
490.4016127913902
 21
513.3672898402907
 31
0.0
  0
LINE
  5
382
330
2
100
AcDbEntity
  8
AM_4
100
AcDbLine
 10
490.4016127913902
 20
513.3672898402907
 30
0.0
 11
490.6708057913903
 21
513.2016328402905
 31
0.0
  0
LINE
  5
383
330
2
100
AcDbEntity
  8
AM_4
100
AcDbLine
 10
490.6708057913903
 20
513.2016328402905
 30
0.0
 11
490.9192917913903
 21
513.0152678402907
 31
0.0
  0
LINE
  5
384
330
2
100
AcDbEntity
  8
AM_4
100
AcDbLine
 10
490.9192917913903
 20
513.0152678402907
 30
0.0
 11
491.1263637913905
 21
512.7667818402906
 31
0.0
  0
LINE
  5
385
330
2
100
AcDbEntity
  8
AM_4
100
AcDbLine
 10
491.1263637913905
 20
512.7667818402906
 30
0.0
 11
491.2713147913905
 21
512.4975888402906
 31
0.0
  0
LINE
  5
386
330
2
100
AcDbEntity
  8
AM_4
100
AcDbLine
 10
491.2713147913905
 20
512.4975888402906
 30
0.0
 11
491.3748507913902
 21
512.1869808402906
 31
0.0
  0
LINE
  5
387
330
2
100
AcDbEntity
  8
AM_4
100
AcDbLine
 10
490.0436737913905
 20
513.6719818402906
 30
0.0
 11
489.9490127913905
 21
513.6838148402905
 31
0.0
  0
LINE
  5
388
330
2
100
AcDbEntity
  8
AM_4
100
AcDbLine
 10
490.1324187913906
 20
513.6571908402905
 30
0.0
 11
490.0436737913905
 21
513.6719818402906
 31
0.0
  0
SOLID
  5
389
330
2
100
AcDbEntity
  8
AM_0
100
AcDbTrace
 10
161.7523499109446
 20
479.7499264459262
 30
0.0
 11
164.2489069912689
 21
468.9656421612378
 31
0.0
 12
159.1423135860294
 22
468.9656421612378
 32
0.0
 13
159.1423135860294
 23
468.9656421612378
 33
0.0
  0
LINE
  5
38A
330
2
100
AcDbEntity
  8
AM_0
100
AcDbLine
 10
159.1423135860294
 20
468.9656421612378
 30
0.0
 11
161.7523499109446
 21
479.7499264459262
 31
0.0
  0
LINE
  5
38B
330
2
100
AcDbEntity
  8
AM_0
100
AcDbLine
 10
161.7523499109446
 20
479.7499264459262
 30
0.0
 11
164.2489069912689
 21
468.9656421612378
 31
0.0
  0
LINE
  5
38C
330
2
100
AcDbEntity
  8
AM_0
100
AcDbLine
 10
164.2489069912689
 20
468.9656421612378
 30
0.0
 11
159.1423135860294
 21
468.9656421612378
 31
0.0
  0
MTEXT
  5
38D
330
2
100
AcDbEntity
  8
AM_6
 62
     7
100
AcDbMText
 10
169.4815577570424
 20
460.3389218441341
 30
0.0
 40
5.0
 41
0.0
 71
     8
 72
     5
  1
Y
 73
     1
 44
1.0
  0
LWPOLYLINE
  5
38E
330
2
100
AcDbEntity
  8
AM_0
100
AcDbPolyline
 90
        2
 70
     0
 43
1.0
 10
161.7524316811703
 20
471.4630553924105
 10
161.7524316811703
 20
458.6354317830003
  0
LWPOLYLINE
  5
665
330
2
100
AcDbEntity
  8
AM_0
100
AcDbPolyline
 90
        4
 70
     1
 43
0.0
 10
106.7914286382154
 20
777.9870691492748
 10
532.7160580201329
 20
777.9870691492748
 10
532.7160580201329
 20
430.8999387293454
 10
106.7914286382154
 20
430.8999387293455
1001
GENIUS_GENREC_14
1002
{
1000
PYDIR
1011
106.7914286382154
1021
430.8999387293454
1031
0.0
1002
}
1002
{
1000
PXDIR
1011
532.7160580201329
1021
777.9870691492748
1031
0.0
1002
}
1002
{
1000
PORI
1011
106.7914286382154
1021
777.9870691492748
1031
0.0
1002
}
1002
{
1000
PINS
1011
106.7914286382154
1021
777.9870691492748
1031
0.0
1002
}
1002
{
1000
PINS2
1011
532.7160580201329
1021
430.8999387293454
1031
0.0
1002
}
1002
{
1000
C
1070
     1
1002
}
1001
GENIUS_GENOBJ-N-REC_13
1002
{
1000
OWNER
1000
GEN
1002
}
1001
GENIUS_GENODEF_13
1002
{
1000
HIER
1070
     0
1002
}
1002
{
1000
MANEDIT
1070
     0
1002
}
1002
{
1000
NOSEL
1070
     0
1002
}
1002
{
1000
BEHIND
1070
     0
1002
}
1002
{
1000
OTHER
1070
     0
1002
}
1002
{
1000
REACTOR
1002
}
  0
ENDSEC
  0
SECTION
  2
OBJECTS
  0
DICTIONARY
  5
9
330
0
100
AcDbDictionary
281
     1
  3
ACAD_COLOR
350
28
  3
ACAD_GROUP
350
24
  3
ACAD_LAYOUT
350
D
  3
ACAD_MATERIAL
350
27
  3
ACAD_MLINESTYLE
350
25
  3
ACAD_PLOTSETTINGS
350
26
  3
ACAD_PLOTSTYLENAME
350
8
  3
ACAD_TABLESTYLE
350
29
  3
ACAD_VISUALSTYLE
350
55A
  3
AcDbVariableDictionary
350
3F4
  3
AcmDictionary
350
3A2
  3
AMG
350
391
  3
AMGSNAPSETTINGS
350
432
  0
DICTIONARY
  5
3
330
2
100
AcDbDictionary
280
     1
281
     1
  3
ACAD_SORTENTS
360
38F
  0
DICTIONARY
  5
28
102
{ACAD_REACTORS
330
9
102
}
330
9
100
AcDbDictionary
281
     1
  0
DICTIONARY
  5
24
102
{ACAD_REACTORS
330
9
102
}
330
9
100
AcDbDictionary
281
     1
  0
DICTIONARY
  5
D
102
{ACAD_REACTORS
330
9
102
}
330
9
100
AcDbDictionary
281
     1
  3
Layout1
350
12
  3
Model
350
C
  0
DICTIONARY
  5
27
102
{ACAD_REACTORS
330
9
102
}
330
9
100
AcDbDictionary
281
     1
  3
ByBlock
350
558
  3
ByLayer
350
557
  3
Global
350
559
  0
DICTIONARY
  5
25
102
{ACAD_REACTORS
330
9
102
}
330
9
100
AcDbDictionary
281
     1
  3
Standard
350
2B
  0
DICTIONARY
  5
26
102
{ACAD_REACTORS
330
9
102
}
330
9
100
AcDbDictionary
281
     1
  0
ACDBDICTIONARYWDFLT
  5
8
102
{ACAD_REACTORS
330
9
102
}
330
9
100
AcDbDictionary
281
     1
  3
Normal
350
7
100
AcDbDictionaryWithDefault
340
7
  0
DICTIONARY
  5
29
102
{ACAD_REACTORS
330
9
102
}
330
9
100
AcDbDictionary
281
     1
  3
Standard
350
2C
  0
DICTIONARY
  5
55A
102
{ACAD_REACTORS
330
9
102
}
330
9
100
AcDbDictionary
281
     1
  3
2dWireframe
350
560
  3
3D Hidden
350
562
  3
3dWireframe
350
561
  3
Basic
350
55F
  3
Brighten
350
566
  3
ColorChange
350
56A
  3
Conceptual
350
563
  3
Dim
350
565
  3
EdgeColorOff
350
659
  3
Facepattern
350
569
  3
Flat
350
55B
  3
FlatWithEdges
350
55C
  3
Gouraud
350
55D
  3
GouraudWithEdges
350
55E
  3
JitterOff
350
65C
  3
Linepattern
350
568
  3
OverhangOff
350
65F
  3
Realistic
350
564
  3
Thicken
350
567
  0
DICTIONARY
  5
3F4
102
{ACAD_REACTORS
330
9
102
}
330
9
100
AcDbDictionary
281
     1
  3
CTABLESTYLE
350
3F5
  3
DIMASSOC
350
447
  3
HIDETEXT
350
446
  3
PROJECTNAME
350
448
  0
DICTIONARY
  5
3A2
102
{ACAD_REACTORS
330
9
102
}
330
9
100
AcDbDictionary
281
     1
  3
AcmStdDictionary
350
3A3
  3
AMDTSECTSYM_ARROWCOLOR
350
427
  0
DICTIONARY
  5
391
102
{ACAD_REACTORS
330
9
102
}
330
9
100
AcDbDictionary
281
     1
  0
DICTIONARY
  5
432
102
{ACAD_REACTORS
330
9
102
}
330
9
100
AcDbDictionary
281
     1
  0
SORTENTSTABLE
  5
38F
102
{ACAD_REACTORS
330
3
102
}
330
3
100
AcDbSortentsTable
330
2
  0
LAYOUT
  5
12
102
{ACAD_REACTORS
330
D
102
}
330
D
100
AcDbPlotSettings
  1

  2
none_device
  4
Letter_(8.50_x_11.00_Inches)
  6

 40
6.349999904632567
 41
6.349999904632567
 42
6.350006103515625
 43
6.350006103515625
 44
215.8999938964844
 45
279.3999938964844
 46
0.0
 47
0.0
 48
0.0
 49
0.0
140
0.0
141
0.0
142
1.0
143
1.0
 70
 15024
 72
     1
 73
     1
 74
     5
  7
ganz_fein_1.ctb
 75
    16
147
1.0
 76
     0
 77
     2
 78
   300
148
0.0
149
0.0
100
AcDbLayout
  1
Layout1
 70
     1
 71
     1
 10
0.0
 20
0.0
 11
420.0
 21
297.0
 12
0.0
 22
0.0
 32
0.0
 14
1.000000000000000E+20
 24
1.000000000000000E+20
 34
1.000000000000000E+20
 15
-1.000000000000000E+20
 25
-1.000000000000000E+20
 35
-1.000000000000000E+20
146
0.0
 13
0.0
 23
0.0
 33
0.0
 16
1.0
 26
0.0
 36
0.0
 17
0.0
 27
1.0
 37
0.0
 76
     0
330
F
  0
LAYOUT
  5
C
102
{ACAD_REACTORS
330
D
102
}
330
D
100
AcDbPlotSettings
  1

  2
Adobe PDF
  4
A4
  6
AM_VIEW6
 40
3.174999952316284
 41
3.174999952316284
 42
3.175003051757812
 43
3.17498779296875
 44
209.9733276367187
 45
297.0318298339844
 46
-0.0000000000000142
 47
20.40372015657333
 48
-173.0138345196792
 49
213.7987829683213
140
252.9107948622383
141
560.8859133882506
142
1.0
143
1.704554873790154
 70
 11956
 72
     1
 73
     1
 74
     4
  7
ganz_fein_1.ctb
 75
     0
147
0.586663424789872
 76
     0
 77
     2
 78
   300
148
173.0138345196792
149
-213.7987829683213
100
AcDbLayout
  1
Model
 70
     1
 71
     0
 10
0.0
 20
0.0
 11
12.0
 21
9.0
 12
0.0
 22
0.0
 32
0.0
 14
0.0
 24
0.0
 34
0.0
 15
0.0
 25
0.0
 35
0.0
146
0.0
 13
0.0
 23
0.0
 33
0.0
 16
1.0
 26
0.0
 36
0.0
 17
0.0
 27
1.0
 37
0.0
 76
     0
330
2
331
54E
1001
ACAD_PSEXT
1000
Adobe PDF
1000
Adobe PDF Converter
1000
Documents\*.pdf
1000

1070
     0
  0
MATERIAL
  5
558
102
{ACAD_XDICTIONARY
360
673
102
}
102
{ACAD_REACTORS
330
27
102
}
330
27
100
AcDbMaterial
  1
ByBlock
  0
MATERIAL
  5
557
102
{ACAD_XDICTIONARY
360
671
102
}
102
{ACAD_REACTORS
330
27
102
}
330
27
100
AcDbMaterial
  1
ByLayer
  0
MATERIAL
  5
559
102
{ACAD_XDICTIONARY
360
675
102
}
102
{ACAD_REACTORS
330
27
102
}
330
27
100
AcDbMaterial
  1
Global
  0
MLINESTYLE
  5
2B
102
{ACAD_REACTORS
330
25
102
}
330
25
100
AcDbMlineStyle
  2
STANDARD
 70
     0
  3

 62
   256
 51
90.0
 52
90.0
 71
     2
 49
0.5
 62
   256
  6
BYLAYER
 49
-0.5
 62
   256
  6
BYLAYER
  0
ACDBPLACEHOLDER
  5
7
102
{ACAD_REACTORS
330
8
102
}
330
8
  0
TABLESTYLE
  5
2C
102
{ACAD_XDICTIONARY
360
66F
102
}
102
{ACAD_REACTORS
330
29
102
}
330
29
100
AcDbTableStyle
  3
Standard
 70
     0
 71
     0
 40
1.5
 41
1.5
280
     0
281
     0
  7
STANDARD
140
4.5
170
     2
 62
     0
 63
     7
283
     0
274
    -2
284
     1
 64
     0
275
    -2
285
     1
 65
     0
276
    -2
286
     1
 66
     0
277
    -2
287
     1
 67
     0
278
    -2
288
     1
 68
     0
279
    -2
289
     1
 69
     0
  7
STANDARD
140
6.0
170
     5
 62
     0
 63
     7
283
     0
274
    -2
284
     1
 64
     0
275
    -2
285
     1
 65
     0
276
    -2
286
     1
 66
     0
277
    -2
287
     1
 67
     0
278
    -2
288
     1
 68
     0
279
    -2
289
     1
 69
     0
  7
STANDARD
140
4.5
170
     5
 62
     0
 63
     7
283
     0
274
    -2
284
     1
 64
     0
275
    -2
285
     1
 65
     0
276
    -2
286
     1
 66
     0
277
    -2
287
     1
 67
     0
278
    -2
288
     1
 68
     0
279
    -2
289
     1
 69
     0
  0
VISUALSTYLE
  5
560
102
{ACAD_REACTORS
330
55A
102
}
330
55A
100
AcDbVisualStyle
  2
2dWireframe
 70
     4
 71
     0
 72
     2
 73
     0
 90
        0
 40
-0.6
 41
-30.0
 62
     5
 63
     7
421
 16777215
 74
     1
 91
        4
 64
     7
 65
   257
 75
     1
175
     1
 42
1.0
 92
        0
 66
   257
 43
1.0
 76
     1
 77
     6
 78
     2
 67
     7
 79
     5
170
     0
171
     0
290
     0
174
     0
 93
        1
 44
0.0
173
     0
291
     0
 45
0.0
1001
ACAD
1000
AcDbSavedByObjectVersion
1070
     0
  0
VISUALSTYLE
  5
562
102
{ACAD_REACTORS
330
55A
102
}
330
55A
100
AcDbVisualStyle
  2
3D Hidden
 70
     6
 71
     1
 72
     2
 73
     2
 90
        0
 40
-0.6
 41
-30.0
 62
     5
 63
     7
421
 16777215
 74
     2
 91
        2
 64
     7
 65
   257
 75
     2
175
     1
 42
40.0
 92
        0
 66
   257
 43
1.0
 76
     1
 77
     6
 78
     2
 67
     7
 79
     3
170
     0
171
     0
290
     0
174
     0
 93
        1
 44
0.0
173
     0
291
     0
 45
0.0
1001
ACAD
1000
AcDbSavedByObjectVersion
1070
     0
  0
VISUALSTYLE
  5
561
102
{ACAD_REACTORS
330
55A
102
}
330
55A
100
AcDbVisualStyle
  2
3dWireframe
 70
     5
 71
     0
 72
     2
 73
     0
 90
        0
 40
-0.6
 41
-30.0
 62
     5
 63
     7
421
 16777215
 74
     1
 91
        4
 64
     7
 65
   257
 75
     1
175
     1
 42
1.0
 92
        0
 66
   257
 43
1.0
 76
     1
 77
     6
 78
     2
 67
     7
 79
     5
170
     0
171
     0
290
     0
174
     0
 93
        1
 44
0.0
173
     0
291
     0
 45
0.0
1001
ACAD
1000
AcDbSavedByObjectVersion
1070
     0
  0
VISUALSTYLE
  5
55F
102
{ACAD_REACTORS
330
55A
102
}
330
55A
100
AcDbVisualStyle
  2
Basic
 70
     7
 71
     1
 72
     0
 73
     1
 90
        0
 40
-0.6
 41
-30.0
 62
     5
 63
     7
421
 16777215
 74
     0
 91
        4
 64
     7
 65
   257
 75
     1
175
     1
 42
1.0
 92
        8
 66
     7
 43
1.0
 76
     1
 77
     6
 78
     2
 67
     7
 79
     5
170
     0
171
     0
290
     0
174
     0
 93
        1
 44
0.0
173
     0
291
     1
 45
0.0
1001
ACAD
1000
AcDbSavedByObjectVersion
1070
     0
  0
VISUALSTYLE
  5
566
102
{ACAD_REACTORS
330
55A
102
}
330
55A
100
AcDbVisualStyle
  2
Brighten
 70
    12
 71
     2
 72
     2
 73
     0
 90
        0
 40
-0.6
 41
-30.0
 62
     5
 63
     7
421
 16777215
 74
     1
 91
        4
 64
     7
 65
   257
 75
     1
175
     1
 42
1.0
 92
        8
 66
     7
 43
1.0
 76
     1
 77
     6
 78
     2
 67
     7
 79
     5
170
     0
171
     0
290
     0
174
     0
 93
        1
 44
50.0
173
     0
291
     1
 45
0.0
1001
ACAD
1000
AcDbSavedByObjectVersion
1070
     0
  0
VISUALSTYLE
  5
56A
102
{ACAD_REACTORS
330
55A
102
}
330
55A
100
AcDbVisualStyle
  2
ColorChange
 70
    16
 71
     2
 72
     2
 73
     3
 90
        0
 40
-0.6
 41
-30.0
 62
     5
 63
     8
421
  8421504
 74
     1
 91
        4
 64
     7
 65
   257
 75
     1
175
     1
 42
1.0
 92
        8
 66
     8
424
  8421504
 43
1.0
 76
     1
 77
     6
 78
     2
 67
     7
 79
     5
170
     0
171
     0
290
     0
174
     0
 93
        1
 44
0.0
173
     0
291
     1
 45
0.0
1001
ACAD
1000
AcDbSavedByObjectVersion
1070
     0
  0
VISUALSTYLE
  5
563
102
{ACAD_REACTORS
330
55A
102
}
330
55A
100
AcDbVisualStyle
  2
Conceptual
 70
     9
 71
     3
 72
     2
 73
     0
 90
        0
 40
-0.6
 41
-30.0
 62
     5
 63
     7
421
 16777215
 74
     2
 91
        2
 64
     7
 65
   257
 75
     1
175
     1
 42
40.0
 92
        8
 66
     7
 43
1.0
 76
     1
 77
     6
 78
     2
 67
     7
 79
     3
170
     0
171
     0
290
     0
174
     0
 93
        1
 44
0.0
173
     0
291
     0
 45
0.0
1001
ACAD
1000
AcDbSavedByObjectVersion
1070
     0
  0
VISUALSTYLE
  5
565
102
{ACAD_REACTORS
330
55A
102
}
330
55A
100
AcDbVisualStyle
  2
Dim
 70
    11
 71
     2
 72
     2
 73
     0
 90
        0
 40
-0.6
 41
-30.0
 62
     5
 63
     7
421
 16777215
 74
     1
 91
        4
 64
     7
 65
   257
 75
     1
175
     1
 42
1.0
 92
        8
 66
     7
 43
1.0
 76
     1
 77
     6
 78
     2
 67
     7
 79
     5
170
     0
171
     0
290
     0
174
     0
 93
        1
 44
-50.0
173
     0
291
     1
 45
0.0
1001
ACAD
1000
AcDbSavedByObjectVersion
1070
     0
  0
VISUALSTYLE
  5
659
102
{ACAD_XDICTIONARY
360
65A
102
}
102
{ACAD_REACTORS
330
55A
102
}
330
55A
100
AcDbVisualStyle
  2
EdgeColorOff
 70
    22
 71
     2
 72
     2
 73
     0
 90
        0
 40
-0.6
 41
-30.0
 62
     5
 63
     7
 74
     1
 91
        4
 64
     7
 65
   257
 75
     1
175
     1
 42
1.0
 92
        8
 66
     7
 43
1.0
 76
     1
 77
     6
 78
     2
 67
     7
 79
     5
170
     0
171
     0
290
     0
174
     0
 93
        1
 44
0.0
173
     0
291
     1
 45
0.0
1001
ACAD
1000
AcDbSavedByObjectVersion
1070
     0
  0
VISUALSTYLE
  5
569
102
{ACAD_REACTORS
330
55A
102
}
330
55A
100
AcDbVisualStyle
  2
Facepattern
 70
    15
 71
     2
 72
     2
 73
     0
 90
        0
 40
-0.6
 41
-30.0
 62
     5
 63
     7
421
 16777215
 74
     1
 91
        4
 64
     7
 65
   257
 75
     1
175
     1
 42
1.0
 92
        8
 66
     7
 43
1.0
 76
     1
 77
     6
 78
     2
 67
     7
 79
     5
170
     0
171
     0
290
     0
174
     0
 93
        1
 44
0.0
173
     0
291
     1
 45
0.0
1001
ACAD
1000
AcDbSavedByObjectVersion
1070
     0
  0
VISUALSTYLE
  5
55B
102
{ACAD_REACTORS
330
55A
102
}
330
55A
100
AcDbVisualStyle
  2
Flat
 70
     0
 71
     2
 72
     1
 73
     1
 90
        2
 40
-0.6
 41
30.0
 62
     5
 63
     7
421
 16777215
 74
     0
 91
        4
 64
     7
 65
   257
 75
     1
175
     1
 42
1.0
 92
        8
 66
     7
 43
1.0
 76
     1
 77
     6
 78
     2
 67
     7
 79
     5
170
     0
171
     0
290
     0
174
     0
 93
       13
 44
0.0
173
     0
291
     1
 45
0.0
1001
ACAD
1000
AcDbSavedByObjectVersion
1070
     0
  0
VISUALSTYLE
  5
55C
102
{ACAD_REACTORS
330
55A
102
}
330
55A
100
AcDbVisualStyle
  2
FlatWithEdges
 70
     1
 71
     2
 72
     1
 73
     1
 90
        2
 40
-0.6
 41
30.0
 62
     5
 63
     7
421
 16777215
 74
     1
 91
        4
 64
     7
 65
   257
 75
     1
175
     1
 42
1.0
 92
        0
 66
   257
 43
1.0
 76
     1
 77
     6
 78
     2
 67
     7
 79
     5
170
     0
171
     0
290
     0
174
     0
 93
       13
 44
0.0
173
     0
291
     1
 45
0.0
1001
ACAD
1000
AcDbSavedByObjectVersion
1070
     0
  0
VISUALSTYLE
  5
55D
102
{ACAD_REACTORS
330
55A
102
}
330
55A
100
AcDbVisualStyle
  2
Gouraud
 70
     2
 71
     2
 72
     2
 73
     1
 90
        2
 40
-0.6
 41
30.0
 62
     5
 63
     7
421
 16777215
 74
     0
 91
        4
 64
     7
 65
   257
 75
     1
175
     1
 42
1.0
 92
        0
 66
     7
 43
1.0
 76
     1
 77
     6
 78
     2
 67
     7
 79
     5
170
     0
171
     0
290
     0
174
     0
 93
       13
 44
0.0
173
     0
291
     1
 45
0.0
1001
ACAD
1000
AcDbSavedByObjectVersion
1070
     0
  0
VISUALSTYLE
  5
55E
102
{ACAD_REACTORS
330
55A
102
}
330
55A
100
AcDbVisualStyle
  2
GouraudWithEdges
 70
     3
 71
     2
 72
     2
 73
     1
 90
        2
 40
-0.6
 41
30.0
 62
     5
 63
     7
421
 16777215
 74
     1
 91
        4
 64
     7
 65
   257
 75
     1
175
     1
 42
1.0
 92
        0
 66
   257
 43
1.0
 76
     1
 77
     6
 78
     2
 67
     7
 79
     5
170
     0
171
     0
290
     0
174
     0
 93
       13
 44
0.0
173
     0
291
     1
 45
0.0
1001
ACAD
1000
AcDbSavedByObjectVersion
1070
     0
  0
VISUALSTYLE
  5
65C
102
{ACAD_XDICTIONARY
360
65D
102
}
102
{ACAD_REACTORS
330
55A
102
}
330
55A
100
AcDbVisualStyle
  2
JitterOff
 70
    20
 71
     2
 72
     2
 73
     0
 90
        0
 40
-0.6
 41
-30.0
 62
     5
 63
     7
 74
     1
 91
        4
 64
     7
 65
   257
 75
     1
175
     1
 42
1.0
 92
       10
 66
     7
 43
1.0
 76
     1
 77
     6
 78
     2
 67
     7
 79
     5
170
     0
171
     0
290
     0
174
     0
 93
        1
 44
0.0
173
     0
291
     1
 45
0.0
1001
ACAD
1000
AcDbSavedByObjectVersion
1070
     0
  0
VISUALSTYLE
  5
568
102
{ACAD_REACTORS
330
55A
102
}
330
55A
100
AcDbVisualStyle
  2
Linepattern
 70
    14
 71
     2
 72
     2
 73
     0
 90
        0
 40
-0.6
 41
-30.0
 62
     5
 63
     7
421
 16777215
 74
     1
 91
        4
 64
     7
 65
   257
 75
     7
175
     7
 42
1.0
 92
        8
 66
     7
 43
1.0
 76
     1
 77
     6
 78
     2
 67
     7
 79
     5
170
     0
171
     0
290
     0
174
     0
 93
        1
 44
0.0
173
     0
291
     1
 45
0.0
1001
ACAD
1000
AcDbSavedByObjectVersion
1070
     0
  0
VISUALSTYLE
  5
65F
102
{ACAD_XDICTIONARY
360
660
102
}
102
{ACAD_REACTORS
330
55A
102
}
330
55A
100
AcDbVisualStyle
  2
OverhangOff
 70
    21
 71
     2
 72
     2
 73
     0
 90
        0
 40
-0.6
 41
-30.0
 62
     5
 63
     7
 74
     1
 91
        4
 64
     7
 65
   257
 75
     1
175
     1
 42
1.0
 92
        9
 66
     7
 43
1.0
 76
     1
 77
     6
 78
     2
 67
     7
 79
     5
170
     0
171
     0
290
     0
174
     0
 93
        1
 44
0.0
173
     0
291
     1
 45
0.0
1001
ACAD
1000
AcDbSavedByObjectVersion
1070
     0
  0
VISUALSTYLE
  5
564
102
{ACAD_REACTORS
330
55A
102
}
330
55A
100
AcDbVisualStyle
  2
Realistic
 70
     8
 71
     2
 72
     2
 73
     0
 90
        0
 40
-0.6
 41
-30.0
 62
     5
 63
     7
421
 16777215
 74
     1
 91
        0
 64
     7
 65
   257
 75
     1
175
     1
 42
1.0
 92
        8
 66
     8
424
  7895160
 43
1.0
 76
     1
 77
     6
 78
     2
 67
     7
 79
     5
170
     0
171
     0
290
     0
174
     0
 93
       13
 44
0.0
173
     0
291
     0
 45
0.0
1001
ACAD
1000
AcDbSavedByObjectVersion
1070
     0
  0
VISUALSTYLE
  5
567
102
{ACAD_REACTORS
330
55A
102
}
330
55A
100
AcDbVisualStyle
  2
Thicken
 70
    13
 71
     2
 72
     2
 73
     0
 90
        0
 40
-0.6
 41
-30.0
 62
     5
 63
     7
421
 16777215
 74
     1
 91
        4
 64
     7
 65
   257
 75
     1
175
     1
 42
1.0
 92
       12
 66
     7
 43
1.0
 76
     1
 77
     6
 78
     2
 67
     7
 79
     5
170
     0
171
     0
290
     0
174
     0
 93
        1
 44
0.0
173
     0
291
     1
 45
0.0
1001
ACAD
1000
AcDbSavedByObjectVersion
1070
     0
  0
DICTIONARYVAR
  5
3F5
102
{ACAD_REACTORS
330
3F4
102
}
330
3F4
100
DictionaryVariables
280
     0
  1
STANDARD
  0
DICTIONARYVAR
  5
447
102
{ACAD_REACTORS
330
3F4
102
}
330
3F4
100
DictionaryVariables
280
     0
  1
1
  0
DICTIONARYVAR
  5
446
102
{ACAD_REACTORS
330
3F4
102
}
330
3F4
100
DictionaryVariables
280
     0
  1
1
  0
DICTIONARYVAR
  5
448
102
{ACAD_REACTORS
330
3F4
102
}
330
3F4
100
DictionaryVariables
280
     0
  1

  0
DICTIONARY
  5
3A3
102
{ACAD_REACTORS
330
3A2
102
}
330
3A2
100
AcDbDictionary
281
     1
  0
XRECORD
  5
427
102
{ACAD_REACTORS
330
3A2
102
}
330
3A2
100
AcDbXrecord
280
     1
 90
-1023410169
  0
DICTIONARY
  5
673
330
558
100
AcDbDictionary
280
     1
281
     1
  3
ACAD_XREC_ROUNDTRIP
360
674
  0
DICTIONARY
  5
671
330
557
100
AcDbDictionary
280
     1
281
     1
  3
ACAD_XREC_ROUNDTRIP
360
672
  0
DICTIONARY
  5
675
330
559
100
AcDbDictionary
280
     1
281
     1
  3
ACAD_XREC_ROUNDTRIP
360
676
  0
DICTIONARY
  5
66F
330
2C
100
AcDbDictionary
280
     1
281
     1
  3
ACAD_XREC_ROUNDTRIP
360
670
  0
DICTIONARY
  5
65A
330
659
100
AcDbDictionary
280
     1
281
     1
  3
ACAD_XREC_ROUNDTRIP
360
65B
  0
DICTIONARY
  5
65D
330
65C
100
AcDbDictionary
280
     1
281
     1
  3
ACAD_XREC_ROUNDTRIP
360
65E
  0
DICTIONARY
  5
660
330
65F
100
AcDbDictionary
280
     1
281
     1
  3
ACAD_XREC_ROUNDTRIP
360
661
  0
XRECORD
  5
674
102
{ACAD_REACTORS
330
673
102
}
330
673
100
AcDbXrecord
280
     1
102
MATERIAL
148
0.0
149
0.0
149
0.0
 93
        0
 94
       63
282
     0
 72
     1
 77
     1
171
     1
175
     1
179
     1
273
     0
  0
XRECORD
  5
672
102
{ACAD_REACTORS
330
671
102
}
330
671
100
AcDbXrecord
280
     1
102
MATERIAL
148
0.0
149
0.0
149
0.0
 93
        0
 94
       63
282
     0
 72
     1
 77
     1
171
     1
175
     1
179
     1
273
     0
  0
XRECORD
  5
676
102
{ACAD_REACTORS
330
675
102
}
330
675
100
AcDbXrecord
280
     1
102
MATERIAL
148
0.0
149
0.0
149
0.0
 93
        0
 94
       63
282
     0
 72
     1
 77
     1
171
     1
175
     1
179
     1
273
     0
  0
XRECORD
  5
670
102
{ACAD_REACTORS
330
66F
102
}
330
66F
100
AcDbXrecord
280
     1
102
ACAD_ROUNDTRIP_PRE2007_TABLESTYLE
 90
        4
 91
        0
  1

 92
        4
 93
        0
  2

 94
        4
 95
        0
  3

  0
XRECORD
  5
65B
102
{ACAD_REACTORS
330
65A
102
}
330
65A
100
AcDbXrecord
280
     1
102
RTVSPropertyOp0
 70
     0
102
RTVSPropertyOp1
 70
     0
102
RTVSPropertyOp2
 70
     0
102
RTVSPropertyOp3
 70
     0
102
RTVSPropertyOp4
 70
     0
102
RTVSPropertyOp5
 70
     0
102
RTVSPropertyOp6
 70
     0
102
RTVSPropertyOp7
 70
     0
102
RTVSPropertyOp8
 70
     0
102
RTVSPropertyOp9
 70
     0
102
RTVSPropertyOp10
 70
     0
102
RTVSPropertyOp11
 70
     0
102
RTVSPropertyOp12
 70
     0
102
RTVSPropertyOp13
 70
     0
102
RTVSPropertyOp14
 70
     2
102
RTVSPropertyOp15
 70
     0
102
RTVSPropertyOp16
 70
     0
102
RTVSPropertyOp17
 70
     0
102
RTVSPropertyOp18
 70
     0
102
RTVSPropertyOp19
 70
     0
102
RTVSPropertyOp20
 70
     0
102
RTVSPropertyOp21
 70
     0
102
RTVSPropertyOp22
 70
     0
102
RTVSPropertyOp23
 70
     0
102
RTVSPropertyOp24
 70
     0
102
RTVSPropertyOp25
 70
     0
102
RTVSPropertyOp26
 70
     0
102
RTVSPropertyOp27
 70
     0
  0
XRECORD
  5
65E
102
{ACAD_REACTORS
330
65D
102
}
330
65D
100
AcDbXrecord
280
     1
102
RTVSPropertyOp0
 70
     0
102
RTVSPropertyOp1
 70
     0
102
RTVSPropertyOp2
 70
     0
102
RTVSPropertyOp3
 70
     0
102
RTVSPropertyOp4
 70
     0
102
RTVSPropertyOp5
 70
     0
102
RTVSPropertyOp6
 70
     0
102
RTVSPropertyOp7
 70
     0
102
RTVSPropertyOp8
 70
     0
102
RTVSPropertyOp9
 70
     0
102
RTVSPropertyOp10
 70
     0
102
RTVSPropertyOp11
 70
     0
102
RTVSPropertyOp12
 70
     0
102
RTVSPropertyOp13
 70
     0
102
RTVSPropertyOp14
 70
     2
102
RTVSPropertyOp15
 70
     0
102
RTVSPropertyOp16
 70
     0
102
RTVSPropertyOp17
 70
     0
102
RTVSPropertyOp18
 70
     0
102
RTVSPropertyOp19
 70
     0
102
RTVSPropertyOp20
 70
     0
102
RTVSPropertyOp21
 70
     0
102
RTVSPropertyOp22
 70
     0
102
RTVSPropertyOp23
 70
     0
102
RTVSPropertyOp24
 70
     0
102
RTVSPropertyOp25
 70
     0
102
RTVSPropertyOp26
 70
     0
102
RTVSPropertyOp27
 70
     0
  0
XRECORD
  5
661
102
{ACAD_REACTORS
330
660
102
}
330
660
100
AcDbXrecord
280
     1
102
RTVSPropertyOp0
 70
     0
102
RTVSPropertyOp1
 70
     0
102
RTVSPropertyOp2
 70
     0
102
RTVSPropertyOp3
 70
     0
102
RTVSPropertyOp4
 70
     0
102
RTVSPropertyOp5
 70
     0
102
RTVSPropertyOp6
 70
     0
102
RTVSPropertyOp7
 70
     0
102
RTVSPropertyOp8
 70
     0
102
RTVSPropertyOp9
 70
     0
102
RTVSPropertyOp10
 70
     0
102
RTVSPropertyOp11
 70
     0
102
RTVSPropertyOp12
 70
     0
102
RTVSPropertyOp13
 70
     0
102
RTVSPropertyOp14
 70
     2
102
RTVSPropertyOp15
 70
     0
102
RTVSPropertyOp16
 70
     0
102
RTVSPropertyOp17
 70
     0
102
RTVSPropertyOp18
 70
     0
102
RTVSPropertyOp19
 70
     0
102
RTVSPropertyOp20
 70
     0
102
RTVSPropertyOp21
 70
     0
102
RTVSPropertyOp22
 70
     0
102
RTVSPropertyOp23
 70
     0
102
RTVSPropertyOp24
 70
     0
102
RTVSPropertyOp25
 70
     0
102
RTVSPropertyOp26
 70
     0
102
RTVSPropertyOp27
 70
     0
  0
ENDSEC
  0
EOF
