  0
SECTION
  2
HEADER
  9
$ACADVER
  1
AC1018
  9
$ACADMAINTVER
 70
   104
  9
$DWGCODEPAGE
  3
ANSI_1252
  9
$LASTSAVEDBY
  1
Oberdoer
  9
$CUSTOMPROPERTYTAG
  1
AmdtFileType
  9
$CUSTOMPROPERTY
  1
84
  9
$INSBASE
 10
0.0
 20
0.0
 30
0.0
  9
$EXTMIN
 10
1721.040459550828
 20
705.7986108905355
 30
-0.0000000349181948
  9
$EXTMAX
 10
3732.043450348493
 20
1900.447864711656
 30
0.0000000814935746
  9
$LIMMIN
 10
0.0
 20
0.0
  9
$LIMMAX
 10
420.0
 20
297.0
  9
$ORTHOMODE
 70
     0
  9
$REGENMODE
 70
     1
  9
$FILLMODE
 70
     1
  9
$QTEXTMODE
 70
     0
  9
$MIRRTEXT
 70
     1
  9
$LTSCALE
 40
1.0
  9
$ATTMODE
 70
     1
  9
$TEXTSIZE
 40
2.5
  9
$TRACEWID
 40
1.0
  9
$TEXTSTYLE
  7
STANDARD
  9
$CLAYER
  8
0
  9
$CELTYPE
  6
ByLayer
  9
$CECOLOR
 62
   256
  9
$CELTSCALE
 40
1.0
  9
$DISPSILH
 70
     0
  9
$DIMSCALE
 40
1.0
  9
$DIMASZ
 40
2.5
  9
$DIMEXO
 40
0.0
  9
$DIMDLI
 40
10.0
  9
$DIMRND
 40
0.0
  9
$DIMDLE
 40
0.0
  9
$DIMEXE
 40
2.0
  9
$DIMTP
 40
0.1
  9
$DIMTM
 40
0.1
  9
$DIMTXT
 40
3.5
  9
$DIMCEN
 40
0.0
  9
$DIMTSZ
 40
0.0
  9
$DIMTOL
 70
     0
  9
$DIMLIM
 70
     0
  9
$DIMTIH
 70
     0
  9
$DIMTOH
 70
     0
  9
$DIMSE1
 70
     0
  9
$DIMSE2
 70
     0
  9
$DIMTAD
 70
     1
  9
$DIMZIN
 70
     8
  9
$DIMBLK
  1

  9
$DIMASO
 70
     1
  9
$DIMSHO
 70
     1
  9
$DIMPOST
  1

  9
$DIMAPOST
  1
"
  9
$DIMALT
 70
     0
  9
$DIMALTD
 70
     2
  9
$DIMALTF
 40
0.0393701
  9
$DIMLFAC
 40
1.0
  9
$DIMTOFL
 70
     1
  9
$DIMTVP
 40
0.0
  9
$DIMTIX
 70
     0
  9
$DIMSOXD
 70
     0
  9
$DIMSAH
 70
     0
  9
$DIMBLK1
  1

  9
$DIMBLK2
  1

  9
$DIMSTYLE
  2
AM_DIN
  9
$DIMCLRD
 70
   256
  9
$DIMCLRE
 70
   256
  9
$DIMCLRT
 70
     2
  9
$DIMTFAC
 40
0.71
  9
$DIMGAP
 40
1.5
  9
$DIMJUST
 70
     0
  9
$DIMSD1
 70
     0
  9
$DIMSD2
 70
     0
  9
$DIMTOLJ
 70
     0
  9
$DIMTZIN
 70
     8
  9
$DIMALTZ
 70
     0
  9
$DIMALTTZ
 70
     0
  9
$DIMUPT
 70
     0
  9
$DIMDEC
 70
     2
  9
$DIMTDEC
 70
     2
  9
$DIMALTU
 70
     2
  9
$DIMALTTD
 70
     2
  9
$DIMTXSTY
  7
STANDARD
  9
$DIMAUNIT
 70
     0
  9
$DIMADEC
 70
     0
  9
$DIMALTRND
 40
0.0
  9
$DIMAZIN
 70
     2
  9
$DIMDSEP
 70
    46
  9
$DIMATFIT
 70
     3
  9
$DIMFRAC
 70
     0
  9
$DIMLDRBLK
  1

  9
$DIMLUNIT
 70
     2
  9
$DIMLWD
 70
    -1
  9
$DIMLWE
 70
    -1
  9
$DIMTMOVE
 70
     0
  9
$LUNITS
 70
     2
  9
$LUPREC
 70
     2
  9
$SKETCHINC
 40
1.0
  9
$FILLETRAD
 40
2.5
  9
$AUNITS
 70
     0
  9
$AUPREC
 70
     0
  9
$MENU
  1
.
  9
$ELEVATION
 40
0.0
  9
$PELEVATION
 40
0.0
  9
$THICKNESS
 40
0.0
  9
$LIMCHECK
 70
     0
  9
$CHAMFERA
 40
2.5
  9
$CHAMFERB
 40
2.5
  9
$CHAMFERC
 40
20.0
  9
$CHAMFERD
 40
0.0
  9
$SKPOLY
 70
     0
  9
$TDCREATE
 40
2455481.467042998
  9
$TDUCREATE
 40
2455481.425376331
  9
$TDUPDATE
 40
2455513.446266273
  9
$TDUUPDATE
 40
2455513.404599606
  9
$TDINDWG
 40
0.0033582870
  9
$TDUSRTIMER
 40
0.0033581134
  9
$USRTIMER
 70
     1
  9
$ANGBASE
 50
0.0
  9
$ANGDIR
 70
     0
  9
$PDMODE
 70
     0
  9
$PDSIZE
 40
0.0
  9
$PLINEWID
 40
0.0
  9
$SPLFRAME
 70
     0
  9
$SPLINETYPE
 70
     6
  9
$SPLINESEGS
 70
     8
  9
$HANDSEED
  5
BD8
  9
$SURFTAB1
 70
     6
  9
$SURFTAB2
 70
     6
  9
$SURFTYPE
 70
     6
  9
$SURFU
 70
     6
  9
$SURFV
 70
     6
  9
$UCSBASE
  2

  9
$UCSNAME
  2

  9
$UCSORG
 10
0.0
 20
0.0
 30
0.0
  9
$UCSXDIR
 10
1.0
 20
0.0
 30
0.0
  9
$UCSYDIR
 10
0.0
 20
1.0
 30
0.0
  9
$UCSORTHOREF
  2

  9
$UCSORTHOVIEW
 70
     0
  9
$UCSORGTOP
 10
0.0
 20
0.0
 30
0.0
  9
$UCSORGBOTTOM
 10
0.0
 20
0.0
 30
0.0
  9
$UCSORGLEFT
 10
0.0
 20
0.0
 30
0.0
  9
$UCSORGRIGHT
 10
0.0
 20
0.0
 30
0.0
  9
$UCSORGFRONT
 10
0.0
 20
0.0
 30
0.0
  9
$UCSORGBACK
 10
0.0
 20
0.0
 30
0.0
  9
$PUCSBASE
  2

  9
$PUCSNAME
  2

  9
$PUCSORG
 10
0.0
 20
0.0
 30
0.0
  9
$PUCSXDIR
 10
1.0
 20
0.0
 30
0.0
  9
$PUCSYDIR
 10
0.0
 20
1.0
 30
0.0
  9
$PUCSORTHOREF
  2

  9
$PUCSORTHOVIEW
 70
     0
  9
$PUCSORGTOP
 10
0.0
 20
0.0
 30
0.0
  9
$PUCSORGBOTTOM
 10
0.0
 20
0.0
 30
0.0
  9
$PUCSORGLEFT
 10
0.0
 20
0.0
 30
0.0
  9
$PUCSORGRIGHT
 10
0.0
 20
0.0
 30
0.0
  9
$PUCSORGFRONT
 10
0.0
 20
0.0
 30
0.0
  9
$PUCSORGBACK
 10
0.0
 20
0.0
 30
0.0
  9
$USERI1
 70
     0
  9
$USERI2
 70
     0
  9
$USERI3
 70
     0
  9
$USERI4
 70
     0
  9
$USERI5
 70
     0
  9
$USERR1
 40
0.0
  9
$USERR2
 40
0.0
  9
$USERR3
 40
0.0
  9
$USERR4
 40
0.0
  9
$USERR5
 40
0.0
  9
$WORLDVIEW
 70
     1
  9
$SHADEDGE
 70
     3
  9
$SHADEDIF
 70
    70
  9
$TILEMODE
 70
     1
  9
$MAXACTVP
 70
    64
  9
$PINSBASE
 10
0.0
 20
0.0
 30
0.0
  9
$PLIMCHECK
 70
     0
  9
$PEXTMIN
 10
28.19999999999999
 20
17.0
 30
0.0
  9
$PEXTMAX
 10
253.8
 20
153.0
 30
0.0
  9
$PLIMMIN
 10
-7.5
 20
-20.0
  9
$PLIMMAX
 10
289.5
 20
190.0
  9
$UNITMODE
 70
     0
  9
$VISRETAIN
 70
     1
  9
$PLINEGEN
 70
     0
  9
$PSLTSCALE
 70
     1
  9
$TREEDEPTH
 70
  3020
  9
$CMLSTYLE
  2
Standard
  9
$CMLJUST
 70
     0
  9
$CMLSCALE
 40
20.0
  9
$PROXYGRAPHICS
 70
     1
  9
$MEASUREMENT
 70
     1
  9
$CELWEIGHT
370
    -1
  9
$ENDCAPS
280
     0
  9
$JOINSTYLE
280
     0
  9
$LWDISPLAY
290
     0
  9
$INSUNITS
 70
     4
  9
$HYPERLINKBASE
  1

  9
$STYLESHEET
  1
ganz_fein_1.ctb
  9
$XEDIT
290
     1
  9
$CEPSNTYPE
380
     0
  9
$PSTYLEMODE
290
     1
  9
$FINGERPRINTGUID
  2
{248E42D8-57D0-47E0-BAC8-ABAFFA4C33F6}
  9
$VERSIONGUID
  2
{C84E53D0-5927-499F-81A2-76F6CE2D7F9A}
  9
$EXTNAMES
290
     1
  9
$PSVPSCALE
 40
0.0
  9
$OLESTARTUP
290
     0
  9
$SORTENTS
280
   127
  9
$INDEXCTL
280
     0
  9
$HIDETEXT
280
     0
  9
$XCLIPFRAME
290
     0
  9
$HALOGAP
280
     0
  9
$OBSCOLOR
 70
   257
  9
$OBSLTYPE
280
     0
  9
$INTERSECTIONDISPLAY
280
     0
  9
$INTERSECTIONCOLOR
 70
   257
  9
$DIMASSOC
280
     1
  9
$PROJECTNAME
  1

  0
ENDSEC
  0
SECTION
  2
CLASSES
  0
CLASS
  1
ACDBDICTIONARYWDFLT
  2
AcDbDictionaryWithDefault
  3
ObjectDBX Classes
 90
        0
 91
        1
280
     0
281
     0
  0
CLASS
  1
ACME_DOCUMENT
  2
AcMeDbDoc
  3
AcMeServices
 90
        0
 91
        2
280
     0
281
     0
  0
CLASS
  1
AMGSETTINGSOBJ
  2
AmgSettingsObj
  3
"AcadM|Product Description: AutoCAD Mechanical|Company: Autodesk"
 90
        0
 91
        4
280
     0
281
     0
  0
CLASS
  1
ACMESCOPE
  2
AcMeScope
  3
AcMeServices
 90
        0
 91
        1
280
     0
281
     0
  0
CLASS
  1
ACMECOMMANDHISTORY
  2
AcMeCommandHistory
  3
AcMeServices
 90
        0
 91
        1
280
     0
281
     0
  0
CLASS
  1
ACIMSYSVARMAN
  2
AcImSysVarManager
  3
AcMeServices
 90
        0
 91
        5
280
     0
281
     0
  0
CLASS
  1
ACIMREALSYSVAR
  2
AcImRealSysVar
  3
AcMeServices
 90
        0
 91
        3
280
     0
281
     0
  0
CLASS
  1
ACIMINTSYSVAR
  2
AcImIntSysVar
  3
AcMeServices
 90
        0
 91
       27
280
     0
281
     0
  0
CLASS
  1
ACMEDRAWINGMAN
  2
AcMeDrawingMan
  3
AcMeServices
 90
        0
 91
        1
280
     0
281
     0
  0
CLASS
  1
ACMEVIEW
  2
AcMeView
  3
AcMeServices
 90
        0
 91
        1
280
     0
281
     0
  0
CLASS
  1
ACDBENTITYCACHE
  2
AcMeEntityCache
  3
AcMeServices
 90
        0
 91
        1
280
     0
281
     0
  0
CLASS
  1
GSMANAGER
  2
AcMeGSManager
  3
AcMeServices
 90
        0
 91
        1
280
     0
281
     0
  0
CLASS
  1
AMDTINTERNALREACTOR
  2
AmdtInternalReactor
  3
AcMeServices
 90
        0
 91
        2
280
     0
281
     0
  0
CLASS
  1
ACMESTATEMGR
  2
AcMeStateMgr
  3
AcMeServices
 90
        0
 91
        1
280
     0
281
     0
  0
CLASS
  1
ACGREFMASTER
  2
AcGrefMaster
  3
AcAttribServices
 90
        0
 91
        1
280
     0
281
     0
  0
CLASS
  1
ACME_DATABASE
  2
AcMeDbDatabase
  3
AcMeServices
 90
        0
 91
        1
280
     0
281
     0
  0
CLASS
  1
ACRFINSADJUSTERMGR
  2
AcRfInsAdjusterMgr
  3
AcMeServices
 90
        0
 91
        1
280
     0
281
     0
  0
CLASS
  1
ACGREFACADMASTER
  2
AcGrefacadMaster
  3
AcGrefServices
 90
        0
 91
        1
280
     0
281
     0
  0
CLASS
  1
AMIMASTER
  2
AmiMaster
  3
AmiServices
 90
        0
 91
        1
280
     0
281
     0
  0
CLASS
  1
ACMDATADICTIONARY
  2
AcmDataDictionary
  3
"AcmSymBB|Product Description: AutoCAD Mechanical|Company: Autodesk"
 90
        0
 91
        1
280
     0
281
     0
  0
CLASS
  1
ACMDATAENTRYBLOCK
  2
AcmDataEntryBlock
  3
"AcmSymBB|Product Description: AutoCAD Mechanical|Company: Autodesk"
 90
        0
 91
        1
280
     0
281
     0
  0
CLASS
  1
ACIMSTRSYSVAR
  2
AcImStrSysVar
  3
AcMeServices
 90
        0
 91
        5
280
     0
281
     0
  0
CLASS
  1
ACMSTANDARDDIN
  2
AcmStandardDIN
  3
"Amdt_StdImp|Product Description: AutoCAD Mechanical|Company: Autodesk"
 90
        0
 91
        1
280
     0
281
     0
  0
CLASS
  1
AMGOBJPROPCFG
  2
AmgObjPropCfg
  3
"AmgLay|Product Description: AutoCAD Mechanical|Company: Autodesk"
 90
        1
 91
        1
280
     0
281
     0
  0
CLASS
  1
AMDTEDGESTANDARDDIN
  2
AmdtEdgeStdDIN
  3
"Amdt_StdImp|Product Description: AutoCAD Mechanical|Company: Autodesk"
 90
        0
 91
        1
280
     0
281
     0
  0
CLASS
  1
ACMSURFSTANDARDDIN
  2
AcmSurfTextStdDIN
  3
"Amdt_StdImp|Product Description: AutoCAD Mechanical|Company: Autodesk"
 90
        0
 91
        1
280
     0
281
     0
  0
CLASS
  1
ACMFCFSTANDARDDIN
  2
AcmFCFStdDIN
  3
"Amdt_StdImp|Product Description: AutoCAD Mechanical|Company: Autodesk"
 90
        0
 91
        1
280
     0
281
     0
  0
CLASS
  1
ACMWELDSTANDARDDIN
  2
AcmWeldingStdDIN
  3
"Amdt_StdImp|Product Description: AutoCAD Mechanical|Company: Autodesk"
 90
        0
 91
        1
280
     0
281
     0
  0
CLASS
  1
ACMIDSTANDARDDIN
  2
AcmIdStdDIN
  3
"Amdt_StdImp|Product Description: AutoCAD Mechanical|Company: Autodesk"
 90
        0
 91
        1
280
     0
281
     0
  0
CLASS
  1
ACMDATUMSTANDARDDIN
  2
AcmDatumStdDIN
  3
"Amdt_StdImp|Product Description: AutoCAD Mechanical|Company: Autodesk"
 90
        0
 91
        1
280
     0
281
     0
  0
CLASS
  1
ACMBOMSTANDARDDIN
  2
AcmBOMStdDIN
  3
"Amdt_StdImp|Product Description: AutoCAD Mechanical|Company: Autodesk"
 90
        0
 91
        1
280
     0
281
     0
  0
CLASS
  1
ACMDETAILSTANDARDDIN
  2
AmdtDetailSymStdDIN
  3
"Amdt_StdImp|Product Description: AutoCAD Mechanical|Company: Autodesk"
 90
        0
 91
        1
280
     0
281
     0
  0
CLASS
  1
ACMSECTIONSTANDARDDIN
  2
AmdtSectionSymStdDIN
  3
"Amdt_StdImp|Product Description: AutoCAD Mechanical|Company: Autodesk"
 90
        0
 91
        1
280
     0
281
     0
  0
CLASS
  1
ACMCENTERLINESTANDARDDIN
  2
AmdtCenterLineStdDIN
  3
"Amdt_StdImp|Product Description: AutoCAD Mechanical|Company: Autodesk"
 90
        0
 91
        1
280
     0
281
     0
  0
CLASS
  1
ACMNOTESTANDARDDIN
  2
AmdtNoteStdDIN
  3
"Amdt_StdImp|Product Description: AutoCAD Mechanical|Company: Autodesk"
 90
        0
 91
        1
280
     0
281
     0
  0
CLASS
  1
ACAMGLAYSTD
  2
AcAmgLayStd
  3
"AmgLay|Product Description: AutoCAD Mechanical|Company: Autodesk"
 90
        0
 91
        1
280
     0
281
     0
  0
CLASS
  1
ACAMGDIMSTD
  2
AcAmgDimStd
  3
"AmgDim|Product Description: AutoCAD Mechanical|Company: Autodesk"
 90
        0
 91
        1
280
     0
281
     0
  0
CLASS
  1
ACAMGHOLECHARTSTDDIN
  2
AcAmgHoleChartStdDIN
  3
ACMSYMBB_MODULE_NAME
 90
        0
 91
        1
280
     0
281
     0
  0
CLASS
  1
ACAMGTITLESTD
  2
AcAmgTitleStd
  3
"AmgTitle|Product Description: AutoCAD Mechanical|Company: Autodesk"
 90
        0
 91
        1
280
     0
281
     0
  0
CLASS
  1
LAYER_INDEX
  2
AcDbLayerIndex
  3
ObjectDBX Classes
 90
        0
 91
        0
280
     0
281
     0
  0
CLASS
  1
IDBUFFER
  2
AcDbIdBuffer
  3
ObjectDBX Classes
 90
        0
 91
        0
280
     0
281
     0
  0
CLASS
  1
DICTIONARYVAR
  2
AcDbDictionaryVar
  3
ObjectDBX Classes
 90
        0
 91
        3
280
     0
281
     0
  0
CLASS
  1
AM_DRAWING_MGR
  2
AcDmDwgMgr
  3
AcMechDwgViewMgmt
 90
        0
 91
        1
280
     0
281
     0
  0
CLASS
  1
AM_DWG_DOCUMENT
  2
AcDmDwgDocument
  3
AcMechDwgViewMgmt
 90
        0
 91
        1
280
     0
281
     0
  0
CLASS
  1
AM_DWG_SHEET
  2
AcDmSheet
  3
AcMechDwgViewMgmt
 90
        0
 91
        2
280
     0
281
     0
  0
CLASS
  1
AM_VIEWDIMPARMAP
  2
AcDmViewDimParMap
  3
AcMechDwgViewMgmt
 90
        0
 91
        2
280
     0
281
     0
  0
CLASS
  1
AM_DWGMGR_NAME
  2
AcDmDwgMgrName
  3
AcMechDwgViewMgmt
 90
        0
 91
        1
280
     0
281
     0
  0
CLASS
  1
AMDTMENUSTATEMGR
  2
AmdtMenuStateMgr
  3
McadcomServices
 90
        0
 91
        1
280
     0
281
     0
  0
CLASS
  1
AMDTMCOMMENUSTATE
  2
AmdtMcomMenuState
  3
McadcomServices
 90
        0
 91
        1
280
     0
281
     0
  0
CLASS
  1
MAPIAMMOUDLE
  2
MApiAmModule
  3
MApiAmServices
 90
        0
 91
        1
280
     0
281
     0
  0
CLASS
  1
AMDTADMENUSTATE
  2
AmdtAdMenuState
  3
DesignerServices
 90
        0
 91
        1
280
     0
281
     0
  0
CLASS
  1
ADAPPL
  2
AcAdAppl
  3
DesignerServices
 90
        0
 91
        1
280
     0
281
     0
  0
CLASS
  1
DEPMGR
  2
AcAdDepMgr
  3
DesignerServices
 90
        0
 91
        1
280
     0
281
     0
  0
CLASS
  1
PARAMMGR
  2
AcAdParamMgr
  3
DesignerServices
 90
        0
 91
        1
280
     0
281
     0
  0
CLASS
  1
PARAMSCOPE
  2
AcAdParamScope
  3
DesignerServices
 90
        0
 91
        1
280
     0
281
     0
  0
CLASS
  1
NAMEDAPPL
  2
AcAdNamedAppl
  3
DesignerServices
 90
        0
 91
        1
280
     0
281
     0
  0
CLASS
  1
AMDTDMMENUSTATE
  2
AmdtDmMenuState
  3
AcMechDwgViewMgmt
 90
        0
 91
        1
280
     0
281
     0
  0
CLASS
  1
AMDTAMMENUSTATE
  2
AmdtAmMenuState
  3
DesignerAssemblies
 90
        0
 91
        1
280
     0
281
     0
  0
CLASS
  1
ACAMPROJECT
  2
AcAmProject
  3
DesignerAssemblies
 90
        0
 91
        1
280
     0
281
     0
  0
CLASS
  1
ACAMGRCOMPDEF
  2
AcAmGrCompDef
  3
DesignerAssemblies
 90
        0
 91
        1
280
     0
281
     0
  0
CLASS
  1
ACCMCONTEXT
  2
AcCmContext
  3
DesignerAssemblies
 90
        0
 91
        1
280
     0
281
     0
  0
CLASS
  1
ACAMCOMPDEF
  2
AcAmCompDef
  3
DesignerAssemblies
 90
        0
 91
        1
280
     0
281
     0
  0
CLASS
  1
ACAMCOMPDEFMGR
  2
AcAmCompDefMgr
  3
DesignerAssemblies
 90
        0
 91
        1
280
     0
281
     0
  0
CLASS
  1
AMCONTEXTMGR
  2
AcAmContextMgr
  3
DesignerAssemblies
 90
        0
 91
        1
280
     0
281
     0
  0
CLASS
  1
ACAMCONTEXTMODELER
  2
AcAmContextModeler
  3
DesignerAssemblies
 90
        0
 91
        1
280
     0
281
     0
  0
CLASS
  1
ACMTHREADLINESTANDARDDIN
  2
AmdtThreadLineStdDIN
  3
"Amdt_StdImp|Product Description: AutoCAD Mechanical|Company: Autodesk"
 90
        0
 91
        1
280
     0
281
     0
  0
CLASS
  1
CATALOGSTATE
  2
AcAmCatalogState
  3
DesignerAssemblies
 90
        0
 91
        1
280
     0
281
     0
  0
CLASS
  1
ACAMGRCOMPDEFSET
  2
AcAmGrCompDefSet
  3
DesignerAssemblies
 90
        0
 91
        1
280
     0
281
     0
  0
CLASS
  1
AMDTBROWSERDBTAB
  2
AmdtBrowserDbTab
  3
McadcomServices
 90
        0
 91
        1
280
     0
281
     0
  0
CLASS
  1
CBROWSERAPPOBJECT
  2
CBrowserAppObject
  3
McadcomServices
 90
        0
 91
        3
280
     0
281
     0
  0
CLASS
  1
DM_PLACEHOLDER
  2
AcDmSelsetPlaceholder
  3
AcMechDwgViewMgmt
 90
        0
 91
        1
280
     0
281
     0
  0
CLASS
  1
TABLESTYLE
  2
AcDbTableStyle
  3
ObjectDBX Classes
 90
     4095
 91
        1
280
     0
281
     0
  0
CLASS
  1
MATERIAL
  2
AcDbMaterial
  3
ObjectDBX Classes
 90
     1024
 91
        3
280
     0
281
     0
  0
CLASS
  1
VISUALSTYLE
  2
AcDbVisualStyle
  3
ObjectDBX Classes
 90
     4095
 91
       19
280
     0
281
     0
  0
CLASS
  1
ACRFATTGENMGR
  2
AcRfAttGeneralMgr
  3
AcAttribServices
 90
        0
 91
        1
280
     0
281
     0
  0
CLASS
  1
ACRFOBJATTMGR
  2
AcRfObjAttGroupMgr
  3
AcAttribServices
 90
        0
 91
        1
280
     0
281
     0
  0
CLASS
  1
ACRFMCADAPIATTHOLDER
  2
AcRfMCADAPIAttHolder
  3
AcAttribServices
 90
        0
 91
        1
280
     0
281
     0
  0
CLASS
  1
AMDTSYSATTR
  2
AmdtSystemAttribute
  3
AcAttribServices
 90
        0
 91
        1
280
     0
281
     0
  0
CLASS
  1
ACMTAPERSTANDARDDIN
  2
AcmTaperStdDIN
  3
"Amdt_StdImp|Product Description: AutoCAD Mechanical|Company: Autodesk"
 90
        0
 91
        1
280
     0
281
     0
  0
CLASS
  1
CAMSSTRUCTBTNSTATE
  2
StructBtnState
  3
L"DesignerAssemblies"
 90
        0
 91
        1
280
     0
281
     0
  0
CLASS
  1
ACAMGFILTERDAT
  2
AcAmgFilterDat
  3
"AcadM|Product Description: AutoCAD Mechanical|Company: Autodesk"
 90
        0
 91
        6
280
     0
281
     0
  0
ENDSEC
  0
SECTION
  2
TABLES
  0
TABLE
  2
VPORT
  5
8
330
0
100
AcDbSymbolTable
 70
     1
  0
VPORT
  5
1E9
330
8
100
AcDbSymbolTableRecord
100
AcDbViewportTableRecord
  2
*Active
 70
     0
 10
0.0
 20
0.0
 11
1.0
 21
1.0
 12
2765.555503389663
 22
1321.303829531028
 13
0.0
 23
0.0
 14
2.5
 24
2.5
 15
10.0
 25
10.0
 16
0.0
 26
0.0
 36
1.0
 17
0.0
 27
0.0
 37
0.0
 40
1348.162622971261
 41
1.928939237899073
 42
50.0
 43
0.0
 44
0.0
 50
0.0
 51
0.0
 71
     0
 72
   100
 73
     1
 74
     3
 75
     0
 76
     0
 77
     0
 78
     0
281
     0
 65
     1
110
0.0
120
0.0
130
0.0
111
1.0
121
0.0
131
0.0
112
0.0
122
1.0
132
0.0
 79
     0
146
0.0
  0
ENDTAB
  0
TABLE
  2
LTYPE
  5
5
330
0
100
AcDbSymbolTable
 70
    63
  0
LTYPE
  5
14
330
5
100
AcDbSymbolTableRecord
100
AcDbLinetypeTableRecord
  2
ByBlock
 70
     0
  3

 72
    65
 73
     0
 40
0.0
  0
LTYPE
  5
15
330
5
100
AcDbSymbolTableRecord
100
AcDbLinetypeTableRecord
  2
ByLayer
 70
     0
  3

 72
    65
 73
     0
 40
0.0
  0
LTYPE
  5
16
330
5
100
AcDbSymbolTableRecord
100
AcDbLinetypeTableRecord
  2
Continuous
 70
     0
  3
Solid line
 72
    65
 73
     0
 40
0.0
  0
LTYPE
  5
A0
330
5
100
AcDbSymbolTableRecord
100
AcDbLinetypeTableRecord
  2
AM_ISO02W050
 70
     0
  3
__ __ __ __ __ __ __ __ __ __ __ __ __ __ __
 72
    65
 73
     2
 40
7.5
 49
6.0
 74
     0
 49
-1.5
 74
     0
  0
LTYPE
  5
A1
330
5
100
AcDbSymbolTableRecord
100
AcDbLinetypeTableRecord
  2
AM_ISO08W050
 70
     0
  3
____ . ____ . ____ . ____ . ____ . ____ . ____
 72
    65
 73
     4
 40
18.0
 49
12.0
 74
     0
 49
-1.5
 74
     0
 49
3.0
 74
     0
 49
-1.5
 74
     0
  0
LTYPE
  5
A2
330
5
100
AcDbSymbolTableRecord
100
AcDbLinetypeTableRecord
  2
AM_ISO09W050
 70
     0
  3
_____ . . _____ . . _____ . . ____ .. ____
 72
    65
 73
     6
 40
22.5
 49
12.0
 74
     0
 49
-1.5
 74
     0
 49
3.0
 74
     0
 49
-1.5
 74
     0
 49
3.0
 74
     0
 49
-1.5
 74
     0
  0
LTYPE
  5
A3
330
5
100
AcDbSymbolTableRecord
100
AcDbLinetypeTableRecord
  2
Amconstr
 70
     0
  3
_______________________
 72
    65
 73
     2
 40
9999.0
 49
9999.0
 74
     0
 49
0.0
 74
     0
  0
LTYPE
  5
A4
330
5
100
AcDbSymbolTableRecord
100
AcDbLinetypeTableRecord
  2
AM_ISO08W050x2
 70
     0
  3
__ . __ . __ . __ . __ . __
 72
    65
 73
     4
 40
9.0
 49
6.0
 74
     0
 49
-0.75
 74
     0
 49
1.5
 74
     0
 49
-0.75
 74
     0
  0
LTYPE
  5
A5
330
5
100
AcDbSymbolTableRecord
100
AcDbLinetypeTableRecord
  2
AM_ISO02W050x2
 70
     0
  3
 _ _ _ _ _ _ _ _ _ _ _ _
 72
    65
 73
     2
 40
3.75
 49
3.0
 74
     0
 49
-0.75
 74
     0
  0
LTYPE
  5
A8
330
5
100
AcDbSymbolTableRecord
100
AcDbLinetypeTableRecord
  2
Amzigzag
 70
     0
  3
/\/-/\/-/\/-/\/-/\/-/\/
 72
    65
 73
     2
 40
11.0001
 49
0.0001
 74
     4
 75
   135
340
A7
 46
0.04
 50
0.0
 44
0.0
 45
0.0
 49
-11.0
 74
     0
  0
LTYPE
  5
A9
330
5
100
AcDbSymbolTableRecord
100
AcDbLinetypeTableRecord
  2
AM_DIN_F_W050
 70
     0
  3
__ __ __ __ __ __ __ __ __ __ __ __ __ __ __
 72
    65
 73
     2
 40
6.25
 49
4.75
 74
     0
 49
-1.5
 74
     0
  0
LTYPE
  5
AA
330
5
100
AcDbSymbolTableRecord
100
AcDbLinetypeTableRecord
  2
AM_DIN_G_W050
 70
     0
  3
____ . ____ . ____ . ____ . ____ . ____ . ____
 72
    65
 73
     4
 40
13.75
 49
9.75
 74
     0
 49
-1.5
 74
     0
 49
1.0
 74
     0
 49
-1.5
 74
     0
  0
LTYPE
  5
AB
330
5
100
AcDbSymbolTableRecord
100
AcDbLinetypeTableRecord
  2
AM_DIN_K_W050
 70
     0
  3
_____ . . _____ . . _____ . . ____ .. ____
 72
    65
 73
     6
 40
16.25
 49
9.75
 74
     0
 49
-1.5
 74
     0
 49
1.0
 74
     0
 49
-1.5
 74
     0
 49
1.0
 74
     0
 49
-1.5
 74
     0
  0
LTYPE
  5
AC
330
5
100
AcDbSymbolTableRecord
100
AcDbLinetypeTableRecord
  2
AM_DIN_G_W050x2
 70
     0
  3
__ . __ . __ . __ . __ . __
 72
    65
 73
     4
 40
6.875
 49
4.75
 74
     0
 49
-0.875
 74
     0
 49
0.375
 74
     0
 49
-0.875
 74
     0
  0
LTYPE
  5
AD
330
5
100
AcDbSymbolTableRecord
100
AcDbLinetypeTableRecord
  2
AM_DIN_F_W050x2
 70
     0
  3
 _ _ _ _ _ _ _ _ _ _ _ _
 72
    65
 73
     2
 40
3.125
 49
2.25
 74
     0
 49
-0.875
 74
     0
  0
LTYPE
  5
BB
330
5
100
AcDbSymbolTableRecord
100
AcDbLinetypeTableRecord
  2
ACDINWELD
 70
     0
  3
_ _ _ _ _
 72
    65
 73
     2
 40
2.0
 49
2.0
 74
     0
 49
-1.0
 74
     0
  0
LTYPE
  5
BC
330
5
100
AcDbSymbolTableRecord
100
AcDbLinetypeTableRecord
  2
ACDINTGB
 70
     0
  3
__ . . __ . .
 72
    65
 73
     6
 40
9.0
 49
4.0
 74
     0
 49
-1.0
 74
     0
 49
1.0
 74
     0
 49
-1.0
 74
     0
 49
1.0
 74
     0
 49
-1.0
 74
     0
  0
LTYPE
  5
BD
330
5
100
AcDbSymbolTableRecord
100
AcDbLinetypeTableRecord
  2
ACDINTGL
 70
     0
  3
_ _ _ _ _
 72
    65
 73
     2
 40
3.0
 49
2.0
 74
     0
 49
-1.0
 74
     0
  0
LTYPE
  5
BF
330
5
100
AcDbSymbolTableRecord
100
AcDbLinetypeTableRecord
  2
CENTER
 70
     0
  3
__ . __
 72
    65
 73
     4
 40
7.0
 49
4.0
 74
     0
 49
-1.0
 74
     0
 49
1.0
 74
     0
 49
-1.0
 74
     0
  0
LTYPE
  5
10F
330
5
100
AcDbSymbolTableRecord
100
AcDbLinetypeTableRecord
  2
HIDDEN
 70
     0
  3
Verdeckt
 72
    65
 73
     2
 40
9.525
 49
6.349999999999999
 74
     0
 49
-3.174999999999999
 74
     0
  0
LTYPE
  5
110
330
5
100
AcDbSymbolTableRecord
100
AcDbLinetypeTableRecord
  2
PHANTOM2
 70
     0
  3
Phantom (.5x) ___ _ _ ___ _ _ ___ _ _ ___ _ _
 72
    65
 73
     6
 40
31.75
 49
15.875
 74
     0
 49
-3.174999999999999
 74
     0
 49
3.174999999999999
 74
     0
 49
-3.174999999999999
 74
     0
 49
3.174999999999999
 74
     0
 49
-3.174999999999999
 74
     0
  0
LTYPE
  5
2FE
330
5
100
AcDbSymbolTableRecord
100
AcDbLinetypeTableRecord
  2
GEN7
 70
     0
  3
____ . ____ . ____ . ____ . ____ . ____ . ____
 72
    65
 73
     4
 40
13.75
 49
9.75
 74
     0
 49
-1.5
 74
     0
 49
1.0
 74
     0
 49
-1.5
 74
     0
  0
LTYPE
  5
2FF
330
5
100
AcDbSymbolTableRecord
100
AcDbLinetypeTableRecord
  2
AUSGEZOGEN
 70
     0
  3
Ausgezogene Linie
 72
    65
 73
     0
 40
0.0
  0
LTYPE
  5
300
330
5
100
AcDbSymbolTableRecord
100
AcDbLinetypeTableRecord
  2
GEN3
 70
     0
  3
-- -- -- -- -- -- -- -- -- -- -- -- -- -- --
 72
    65
 73
     2
 40
6.25
 49
4.75
 74
     0
 49
-1.5
 74
     0
  0
LTYPE
  5
301
330
5
100
AcDbSymbolTableRecord
100
AcDbLinetypeTableRecord
  2
GEN7A
 70
     0
  3
__ . __ . __
 72
    65
 73
     4
 40
6.875
 49
4.75
 74
     0
 49
-0.875
 74
     0
 49
0.375
 74
     0
 49
-0.875
 74
     0
  0
LTYPE
  5
B85
330
5
100
AcDbSymbolTableRecord
100
AcDbLinetypeTableRecord
  2
BORDER
 70
     0
  3
Border __ __ . __ __ . __ __ . __ __ . __ __ .
 72
    65
 73
     6
 40
1.75
 49
0.5
 74
     0
 49
-0.25
 74
     0
 49
0.5
 74
     0
 49
-0.25
 74
     0
 49
0.0
 74
     0
 49
-0.25
 74
     0
  0
LTYPE
  5
B86
330
5
100
AcDbSymbolTableRecord
100
AcDbLinetypeTableRecord
  2
BORDER2
 70
     0
  3
Border (.5x) __.__.__.__.__.__.__.__.__.__.__.
 72
    65
 73
     6
 40
0.875
 49
0.25
 74
     0
 49
-0.125
 74
     0
 49
0.25
 74
     0
 49
-0.125
 74
     0
 49
0.0
 74
     0
 49
-0.125
 74
     0
  0
LTYPE
  5
B87
330
5
100
AcDbSymbolTableRecord
100
AcDbLinetypeTableRecord
  2
BORDERX2
 70
     0
  3
Border (2x) ____  ____  .  ____  ____  .  ___
 72
    65
 73
     6
 40
3.5
 49
1.0
 74
     0
 49
-0.5
 74
     0
 49
1.0
 74
     0
 49
-0.5
 74
     0
 49
0.0
 74
     0
 49
-0.5
 74
     0
  0
LTYPE
  5
B88
330
5
100
AcDbSymbolTableRecord
100
AcDbLinetypeTableRecord
  2
CENTER2
 70
     0
  3
Center (.5x) ___ _ ___ _ ___ _ ___ _ ___ _ ___
 72
    65
 73
     4
 40
1.125
 49
0.75
 74
     0
 49
-0.125
 74
     0
 49
0.125
 74
     0
 49
-0.125
 74
     0
  0
LTYPE
  5
B89
330
5
100
AcDbSymbolTableRecord
100
AcDbLinetypeTableRecord
  2
CENTERX2
 70
     0
  3
Center (2x) ________  __  ________  __  _____
 72
    65
 73
     4
 40
4.0
 49
2.5
 74
     0
 49
-0.5
 74
     0
 49
0.5
 74
     0
 49
-0.5
 74
     0
  0
LTYPE
  5
B8A
330
5
100
AcDbSymbolTableRecord
100
AcDbLinetypeTableRecord
  2
DASHDOT
 70
     0
  3
Dash dot __ . __ . __ . __ . __ . __ . __ . __
 72
    65
 73
     4
 40
1.0
 49
0.5
 74
     0
 49
-0.25
 74
     0
 49
0.0
 74
     0
 49
-0.25
 74
     0
  0
LTYPE
  5
B8B
330
5
100
AcDbSymbolTableRecord
100
AcDbLinetypeTableRecord
  2
DASHDOT2
 70
     0
  3
Dash dot (.5x) _._._._._._._._._._._._._._._.
 72
    65
 73
     4
 40
0.5
 49
0.25
 74
     0
 49
-0.125
 74
     0
 49
0.0
 74
     0
 49
-0.125
 74
     0
  0
LTYPE
  5
B8C
330
5
100
AcDbSymbolTableRecord
100
AcDbLinetypeTableRecord
  2
DASHDOTX2
 70
     0
  3
Dash dot (2x) ____  .  ____  .  ____  .  ___
 72
    65
 73
     4
 40
2.0
 49
1.0
 74
     0
 49
-0.5
 74
     0
 49
0.0
 74
     0
 49
-0.5
 74
     0
  0
LTYPE
  5
B8D
330
5
100
AcDbSymbolTableRecord
100
AcDbLinetypeTableRecord
  2
DASHED
 70
     0
  3
Dashed __ __ __ __ __ __ __ __ __ __ __ __ __ _
 72
    65
 73
     2
 40
0.75
 49
0.5
 74
     0
 49
-0.25
 74
     0
  0
LTYPE
  5
B8E
330
5
100
AcDbSymbolTableRecord
100
AcDbLinetypeTableRecord
  2
DASHED2
 70
     0
  3
Dashed (.5x) _ _ _ _ _ _ _ _ _ _ _ _ _ _ _ _ _
 72
    65
 73
     2
 40
0.375
 49
0.25
 74
     0
 49
-0.125
 74
     0
  0
LTYPE
  5
B8F
330
5
100
AcDbSymbolTableRecord
100
AcDbLinetypeTableRecord
  2
DASHEDX2
 70
     0
  3
Dashed (2x) ____  ____  ____  ____  ____  ___
 72
    65
 73
     2
 40
1.5
 49
1.0
 74
     0
 49
-0.5
 74
     0
  0
LTYPE
  5
B90
330
5
100
AcDbSymbolTableRecord
100
AcDbLinetypeTableRecord
  2
DIVIDE
 70
     0
  3
Divide ____ . . ____ . . ____ . . ____ . . ____
 72
    65
 73
     6
 40
1.25
 49
0.5
 74
     0
 49
-0.25
 74
     0
 49
0.0
 74
     0
 49
-0.25
 74
     0
 49
0.0
 74
     0
 49
-0.25
 74
     0
  0
LTYPE
  5
B91
330
5
100
AcDbSymbolTableRecord
100
AcDbLinetypeTableRecord
  2
DIVIDE2
 70
     0
  3
Divide (.5x) __..__..__..__..__..__..__..__.._
 72
    65
 73
     6
 40
0.625
 49
0.25
 74
     0
 49
-0.125
 74
     0
 49
0.0
 74
     0
 49
-0.125
 74
     0
 49
0.0
 74
     0
 49
-0.125
 74
     0
  0
LTYPE
  5
B92
330
5
100
AcDbSymbolTableRecord
100
AcDbLinetypeTableRecord
  2
DIVIDEX2
 70
     0
  3
Divide (2x) ________  .  .  ________  .  .  _
 72
    65
 73
     6
 40
2.5
 49
1.0
 74
     0
 49
-0.5
 74
     0
 49
0.0
 74
     0
 49
-0.5
 74
     0
 49
0.0
 74
     0
 49
-0.5
 74
     0
  0
LTYPE
  5
B93
330
5
100
AcDbSymbolTableRecord
100
AcDbLinetypeTableRecord
  2
DOT
 70
     0
  3
Dot . . . . . . . . . . . . . . . . . . . . . .
 72
    65
 73
     2
 40
0.25
 49
0.0
 74
     0
 49
-0.25
 74
     0
  0
LTYPE
  5
B94
330
5
100
AcDbSymbolTableRecord
100
AcDbLinetypeTableRecord
  2
DOT2
 70
     0
  3
Dot (.5x) .....................................
 72
    65
 73
     2
 40
0.125
 49
0.0
 74
     0
 49
-0.125
 74
     0
  0
LTYPE
  5
B95
330
5
100
AcDbSymbolTableRecord
100
AcDbLinetypeTableRecord
  2
DOTX2
 70
     0
  3
Dot (2x) .  .  .  .  .  .  .  .  .  .  .  .  . 
 72
    65
 73
     2
 40
0.5
 49
0.0
 74
     0
 49
-0.5
 74
     0
  0
LTYPE
  5
B96
330
5
100
AcDbSymbolTableRecord
100
AcDbLinetypeTableRecord
  2
GAS_LINE
 70
     0
  3
Gas line ----GAS----GAS----GAS----GAS----GAS---
 72
    65
 73
     3
 40
0.95
 49
0.5
 74
     0
 49
-0.2
 74
     2
 75
     0
340
11
 46
0.1
 50
0.0
 44
-0.1
 45
-0.05
  9
GAS
 49
-0.25
 74
     0
  0
LTYPE
  5
B97
330
5
100
AcDbSymbolTableRecord
100
AcDbLinetypeTableRecord
  2
HIDDEN2
 70
     0
  3
Hidden (.5x) _ _ _ _ _ _ _ _ _ _ _ _ _ _ _ _ _
 72
    65
 73
     2
 40
0.1875
 49
0.125
 74
     0
 49
-0.0625
 74
     0
  0
LTYPE
  5
B98
330
5
100
AcDbSymbolTableRecord
100
AcDbLinetypeTableRecord
  2
HIDDENX2
 70
     0
  3
Hidden (2x) ____ ____ ____ ____ ____ ____ ____
 72
    65
 73
     2
 40
0.75
 49
0.5
 74
     0
 49
-0.25
 74
     0
  0
LTYPE
  5
B99
330
5
100
AcDbSymbolTableRecord
100
AcDbLinetypeTableRecord
  2
PHANTOM
 70
     0
  3
Phantom ______  __  __  ______  __  __  ______
 72
    65
 73
     6
 40
2.5
 49
1.25
 74
     0
 49
-0.25
 74
     0
 49
0.25
 74
     0
 49
-0.25
 74
     0
 49
0.25
 74
     0
 49
-0.25
 74
     0
  0
LTYPE
  5
B9A
330
5
100
AcDbSymbolTableRecord
100
AcDbLinetypeTableRecord
  2
PHANTOMX2
 70
     0
  3
Phantom (2x) ____________    ____    ____   _
 72
    65
 73
     6
 40
5.0
 49
2.5
 74
     0
 49
-0.5
 74
     0
 49
0.5
 74
     0
 49
-0.5
 74
     0
 49
0.5
 74
     0
 49
-0.5
 74
     0
  0
LTYPE
  5
B9B
330
5
100
AcDbSymbolTableRecord
100
AcDbLinetypeTableRecord
  2
ZIGZAG
 70
     0
  3
Zig zag /\/\/\/\/\/\/\/\/\/\/\/\/\/\/\/\/\/\/\/
 72
    65
 73
     4
 40
0.8001000000000001
 49
0.0001
 74
     0
 49
-0.2
 74
     4
 75
   131
340
BAF
 46
0.2
 50
0.0
 44
-0.2
 45
0.0
 49
-0.4
 74
     4
 75
   131
340
BAF
 46
0.2
 50
180.0
 44
0.2
 45
0.0
 49
-0.2
 74
     0
  0
LTYPE
  5
B9C
330
5
100
AcDbSymbolTableRecord
100
AcDbLinetypeTableRecord
  2
CPFLEX
 70
     0
  3
CP flex /\/\/\/\/\/\/\/\/\/\/\/\/\/\/\/\/\/\/\/
 72
    65
 73
     4
 40
0.8001000000000001
 49
0.0001
 74
     0
 49
-0.2
 74
     4
 75
   131
340
BAF
 46
0.2
 50
0.0
 44
-0.2
 45
0.0
 49
-0.4
 74
     4
 75
   131
340
BAF
 46
0.2
 50
180.0
 44
0.2
 45
0.0
 49
-0.2
 74
     0
  0
LTYPE
  5
B9D
330
5
100
AcDbSymbolTableRecord
100
AcDbLinetypeTableRecord
  2
CIRC
 70
     0
  3
 ----- ~ ----- ~ ---- ~ -----
 72
    65
 73
     3
 40
9.0
 49
7.0
 74
     0
 49
-1.0
 74
     2
 75
     0
340
11
 46
1.0
 50
0.0
 44
-0.3
 45
-0.6
  9
~
 49
-1.0
 74
     0
  0
LTYPE
  5
B9E
330
5
100
AcDbSymbolTableRecord
100
AcDbLinetypeTableRecord
  2
DN 010
 70
     0
  3
 DN10  ---- 10 ---- 10 ---- 10 ----
 72
    65
 73
     3
 40
9.0
 49
5.0
 74
     0
 49
-2.0
 74
     2
 75
     0
340
11
 46
1.0
 50
0.0
 44
-0.5
 45
-0.5
  9
10
 49
-2.0
 74
     0
  0
LTYPE
  5
B9F
330
5
100
AcDbSymbolTableRecord
100
AcDbLinetypeTableRecord
  2
DN 015
 70
     0
  3
 DN15  ---- 15 ---- 15 ---- 15 ----
 72
    65
 73
     3
 40
9.0
 49
5.0
 74
     0
 49
-2.0
 74
     2
 75
     0
340
11
 46
1.0
 50
0.0
 44
-0.5
 45
-0.5
  9
15
 49
-2.0
 74
     0
  0
LTYPE
  5
BA0
330
5
100
AcDbSymbolTableRecord
100
AcDbLinetypeTableRecord
  2
DN 020
 70
     0
  3
 DN20  ---- 20 ---- 20 ---- 20 ----
 72
    65
 73
     3
 40
9.0
 49
5.0
 74
     0
 49
-2.0
 74
     2
 75
     0
340
11
 46
1.0
 50
0.0
 44
-0.5
 45
-0.5
  9
20
 49
-2.0
 74
     0
  0
LTYPE
  5
BA1
330
5
100
AcDbSymbolTableRecord
100
AcDbLinetypeTableRecord
  2
DN 025
 70
     0
  3
 DN25  ---- 25 ---- 25 ---- 25 ----
 72
    65
 73
     3
 40
9.0
 49
5.0
 74
     0
 49
-2.0
 74
     2
 75
     0
340
11
 46
1.0
 50
0.0
 44
-0.5
 45
-0.5
  9
25
 49
-2.0
 74
     0
  0
LTYPE
  5
BA2
330
5
100
AcDbSymbolTableRecord
100
AcDbLinetypeTableRecord
  2
DN 032
 70
     0
  3
 DN32  ---- 32 ---- 32 ---- 32 ----
 72
    65
 73
     3
 40
9.0
 49
5.0
 74
     0
 49
-2.0
 74
     2
 75
     0
340
11
 46
1.0
 50
0.0
 44
-0.5
 45
-0.5
  9
32
 49
-2.0
 74
     0
  0
LTYPE
  5
BA3
330
5
100
AcDbSymbolTableRecord
100
AcDbLinetypeTableRecord
  2
DN 040
 70
     0
  3
 DN40  ---- 40 ---- 40 ---- 40 ----
 72
    65
 73
     3
 40
9.0
 49
5.0
 74
     0
 49
-2.0
 74
     2
 75
     0
340
11
 46
1.0
 50
0.0
 44
-0.5
 45
-0.5
  9
40
 49
-2.0
 74
     0
  0
LTYPE
  5
BA4
330
5
100
AcDbSymbolTableRecord
100
AcDbLinetypeTableRecord
  2
DN 050
 70
     0
  3
 DN50  ---- 50 ---- 50 ---- 50 ----
 72
    65
 73
     3
 40
9.0
 49
5.0
 74
     0
 49
-2.0
 74
     2
 75
     0
340
11
 46
1.0
 50
0.0
 44
-0.5
 45
-0.5
  9
50
 49
-2.0
 74
     0
  0
LTYPE
  5
BA5
330
5
100
AcDbSymbolTableRecord
100
AcDbLinetypeTableRecord
  2
DN 065
 70
     0
  3
 DN65  ---- 65 ---- 65 ---- 65 ----
 72
    65
 73
     3
 40
9.0
 49
5.0
 74
     0
 49
-2.0
 74
     2
 75
     0
340
11
 46
1.0
 50
0.0
 44
-0.5
 45
-0.5
  9
65
 49
-2.0
 74
     0
  0
LTYPE
  5
BA6
330
5
100
AcDbSymbolTableRecord
100
AcDbLinetypeTableRecord
  2
DN 080
 70
     0
  3
 DN80  ---- 80 ---- 80 ---- 80 ----
 72
    65
 73
     3
 40
9.0
 49
5.0
 74
     0
 49
-2.0
 74
     2
 75
     0
340
11
 46
1.0
 50
0.0
 44
-0.5
 45
-0.5
  9
80
 49
-2.0
 74
     0
  0
LTYPE
  5
BA7
330
5
100
AcDbSymbolTableRecord
100
AcDbLinetypeTableRecord
  2
DN 100
 70
     0
  3
 DN100 ---- 100 --- 100 --- 100 ---
 72
    65
 73
     3
 40
9.0
 49
5.0
 74
     0
 49
-2.0
 74
     2
 75
     0
340
11
 46
1.0
 50
0.0
 44
-1.0
 45
-0.5
  9
100
 49
-2.0
 74
     0
  0
LTYPE
  5
BA8
330
5
100
AcDbSymbolTableRecord
100
AcDbLinetypeTableRecord
  2
DN 125
 70
     0
  3
 DN125 ---- 125 --- 125 --- 125 ---
 72
    65
 73
     3
 40
9.0
 49
5.0
 74
     0
 49
-2.0
 74
     2
 75
     0
340
11
 46
1.0
 50
0.0
 44
-1.0
 45
-0.5
  9
125
 49
-2.0
 74
     0
  0
LTYPE
  5
BA9
330
5
100
AcDbSymbolTableRecord
100
AcDbLinetypeTableRecord
  2
DN 150
 70
     0
  3
 DN150 ---- 150 --- 150 --- 150 ---
 72
    65
 73
     3
 40
9.0
 49
5.0
 74
     0
 49
-2.0
 74
     2
 75
     0
340
11
 46
1.0
 50
0.0
 44
-1.0
 45
-0.5
  9
150
 49
-2.0
 74
     0
  0
LTYPE
  5
BAA
330
5
100
AcDbSymbolTableRecord
100
AcDbLinetypeTableRecord
  2
DN 200
 70
     0
  3
 DN200 ---- 200 --- 200 --- 200 ---
 72
    65
 73
     3
 40
9.0
 49
5.0
 74
     0
 49
-2.0
 74
     2
 75
     0
340
11
 46
1.0
 50
0.0
 44
-1.0
 45
-0.5
  9
200
 49
-2.0
 74
     0
  0
LTYPE
  5
BAB
330
5
100
AcDbSymbolTableRecord
100
AcDbLinetypeTableRecord
  2
DN 250
 70
     0
  3
 DN250 ---- 250 --- 250 --- 250 ---
 72
    65
 73
     3
 40
9.0
 49
5.0
 74
     0
 49
-2.0
 74
     2
 75
     0
340
11
 46
1.0
 50
0.0
 44
-1.0
 45
-0.5
  9
250
 49
-2.0
 74
     0
  0
LTYPE
  5
BAC
330
5
100
AcDbSymbolTableRecord
100
AcDbLinetypeTableRecord
  2
DN 300
 70
     0
  3
 DN300 ---- 300 --- 300 --- 300 ---
 72
    65
 73
     3
 40
9.0
 49
5.0
 74
     0
 49
-2.0
 74
     2
 75
     0
340
11
 46
1.0
 50
0.0
 44
-1.0
 45
-0.5
  9
300
 49
-2.0
 74
     0
  0
ENDTAB
  0
TABLE
  2
LAYER
  5
2
330
0
100
AcDbSymbolTable
 70
    13
  0
LAYER
  5
10
330
2
100
AcDbSymbolTableRecord
100
AcDbLayerTableRecord
  2
0
 70
     0
 62
     7
  6
Continuous
370
    -3
390
F
  0
LAYER
  5
F0
330
2
100
AcDbSymbolTableRecord
100
AcDbLayerTableRecord
  2
AM_5
 70
     0
 62
     3
  6
Continuous
370
    25
390
F
  0
LAYER
  5
302
330
2
100
AcDbSymbolTableRecord
100
AcDbLayerTableRecord
  2
7
 70
     0
 62
     1
  6
GEN7
370
    -3
390
F
  0
LAYER
  5
303
330
2
100
AcDbSymbolTableRecord
100
AcDbLayerTableRecord
  2
GEFÄß
 70
     0
 62
     7
  6
Continuous
370
    -3
390
F
  0
LAYER
  5
304
330
2
100
AcDbSymbolTableRecord
100
AcDbLayerTableRecord
  2
5
 70
     0
 62
     2
  6
AUSGEZOGEN
370
    -3
390
F
  0
LAYER
  5
305
330
2
100
AcDbSymbolTableRecord
100
AcDbLayerTableRecord
  2
DEFPOINTS
 70
     0
 62
     7
  6
Continuous
290
     0
370
    -3
390
F
  0
LAYER
  5
306
330
2
100
AcDbSymbolTableRecord
100
AcDbLayerTableRecord
  2
VERDECKTE
 70
     0
 62
     2
  6
GEN3
370
    -3
390
F
  0
LAYER
  5
307
330
2
100
AcDbSymbolTableRecord
100
AcDbLayerTableRecord
  2
8
 70
     0
 62
     1
  6
Continuous
370
    -3
390
F
  0
LAYER
  5
308
330
2
100
AcDbSymbolTableRecord
100
AcDbLayerTableRecord
  2
KLIN
 70
     0
 62
     1
  6
Continuous
370
    -3
390
F
  0
LAYER
  5
309
330
2
100
AcDbSymbolTableRecord
100
AcDbLayerTableRecord
  2
7A
 70
     0
 62
     4
  6
GEN7A
370
    -3
390
F
  0
LAYER
  5
30A
330
2
100
AcDbSymbolTableRecord
100
AcDbLayerTableRecord
  2
VENTILUKAPPE
 70
     0
 62
     1
  6
Continuous
370
    -3
390
F
  0
LAYER
  5
30B
330
2
100
AcDbSymbolTableRecord
100
AcDbLayerTableRecord
  2
3
 70
     0
 62
     6
  6
GEN3
370
    -3
390
F
  0
LAYER
  5
30C
330
2
100
AcDbSymbolTableRecord
100
AcDbLayerTableRecord
  2
RAHM2
 70
     0
 62
     1
  6
Continuous
370
    -3
390
F
  0
ENDTAB
  0
TABLE
  2
STYLE
  5
3
330
0
100
AcDbSymbolTable
 70
    15
  0
STYLE
  5
11
330
3
100
AcDbSymbolTableRecord
100
AcDbTextStyleTableRecord
  2
STANDARD
 70
     0
 40
0.0
 41
1.0
 50
0.0
 71
     0
 42
2.5
  3
ISOCP.SHX
  4

  0
STYLE
  5
A7
330
3
100
AcDbSymbolTableRecord
100
AcDbTextStyleTableRecord
  2

 70
     1
 40
0.0
 41
1.0
 50
0.0
 71
     0
 42
2.5
  3
ltypeshp.shx
  4

  0
STYLE
  5
AE
330
3
100
AcDbSymbolTableRecord
100
AcDbTextStyleTableRecord
  2
ACDINTS
 70
     0
 40
1.0
 41
1.0
 50
0.0
 71
     0
 42
2.5
  3
isocp.shx
  4

  0
STYLE
  5
BA
330
3
100
AcDbSymbolTableRecord
100
AcDbTextStyleTableRecord
  2
ACDINGDT
 70
     0
 40
0.0
 41
1.0
 50
0.0
 71
     0
 42
2.5
  3
amgdt.shx
  4

  0
STYLE
  5
23D
330
3
100
AcDbSymbolTableRecord
100
AcDbTextStyleTableRecord
  2
USER1
 70
     0
 40
0.0
 41
1.0
 50
0.0
 71
     0
 42
2.5
  3
TXT.SHX
  4

  0
STYLE
  5
23E
330
3
100
AcDbSymbolTableRecord
100
AcDbTextStyleTableRecord
  2
USER2
 70
     0
 40
0.0
 41
1.0
 50
0.0
 71
     0
 42
2.5
  3
SIMPLEX.SHX
  4

  0
STYLE
  5
23F
330
3
100
AcDbSymbolTableRecord
100
AcDbTextStyleTableRecord
  2
USER3
 70
     0
 40
0.0
 41
1.0
 50
0.0
 71
     0
 42
2.5
  3
ITALIC.SHX
  4

  0
STYLE
  5
BAD
330
3
100
AcDbSymbolTableRecord
100
AcDbTextStyleTableRecord
  2
Annotative
 70
     0
 40
0.0
 41
1.0
 50
0.0
 71
     0
 42
2.5
  3
ARIAL.TTF
  4

1001
AcadAnnotative
1000
AnnotativeData
1002
{
1070
     1
1070
     1
1002
}
1001
ACAD
1000
Arial
1071
       34
  0
STYLE
  5
BAE
330
3
100
AcDbSymbolTableRecord
100
AcDbTextStyleTableRecord
  2
CP_TXT
 70
     0
 40
0.0
 41
1.0
 50
0.0
 71
     0
 42
2.5
  3
ROMANS.SHX
  4

  0
STYLE
  5
BAF
330
3
100
AcDbSymbolTableRecord
100
AcDbTextStyleTableRecord
  2

 70
     1
 40
0.0
 41
1.0
 50
0.0
 71
     0
 42
2.5
  3
LTYPESHP.SHX
  4

  0
STYLE
  5
BB0
330
3
100
AcDbSymbolTableRecord
100
AcDbTextStyleTableRecord
  2
CP_ATTR
 70
     0
 40
0.0
 41
1.0
 50
0.0
 71
     0
 42
0.2
  3
ROMANS.SHX
  4

  0
STYLE
  5
BB1
330
3
100
AcDbSymbolTableRecord
100
AcDbTextStyleTableRecord
  2
CP_TXT_IT
 70
     0
 40
0.0
 41
1.0
 50
15.0
 71
     0
 42
2.5
  3
ROMANS.SHX
  4

  0
STYLE
  5
BB2
330
3
100
AcDbSymbolTableRecord
100
AcDbTextStyleTableRecord
  2
CP_TXTCON
 70
     0
 40
0.0
 41
0.8
 50
0.0
 71
     0
 42
2.5
  3
ROMANS.SHX
  4

  0
STYLE
  5
BB3
330
3
100
AcDbSymbolTableRecord
100
AcDbTextStyleTableRecord
  2
CP_TXTCON_IT
 70
     0
 40
0.0
 41
0.8
 50
15.0
 71
     0
 42
2.5
  3
ROMANS.SHX
  4

  0
ENDTAB
  0
TABLE
  2
VIEW
  5
6
330
0
100
AcDbSymbolTable
 70
     0
  0
ENDTAB
  0
TABLE
  2
UCS
  5
7
330
0
100
AcDbSymbolTable
 70
     0
  0
ENDTAB
  0
TABLE
  2
APPID
  5
9
330
0
100
AcDbSymbolTable
 70
    34
  0
APPID
  5
12
330
9
100
AcDbSymbolTableRecord
100
AcDbRegAppTableRecord
  2
ACAD
 70
     0
  0
APPID
  5
82
330
9
100
AcDbSymbolTableRecord
100
AcDbRegAppTableRecord
  2
MCAD_NO_VIS
 70
     0
  0
APPID
  5
83
330
9
100
AcDbSymbolTableRecord
100
AcDbRegAppTableRecord
  2
ACAD_TEMP_GRAPHIC
 70
     0
  0
APPID
  5
94
330
9
100
AcDbSymbolTableRecord
100
AcDbRegAppTableRecord
  2
ACATTRIBSERVICES
 70
     0
  0
APPID
  5
CF
330
9
100
AcDbSymbolTableRecord
100
AcDbRegAppTableRecord
  2
GENIUS_GENSCREG_15
 70
     0
  0
APPID
  5
D0
330
9
100
AcDbSymbolTableRecord
100
AcDbRegAppTableRecord
  2
GENIUS_GENOBJ-N-SDF_13
 70
     0
  0
APPID
  5
D1
330
9
100
AcDbSymbolTableRecord
100
AcDbRegAppTableRecord
  2
GENIUS_GENODEF_13
 70
     0
  0
APPID
  5
125
330
9
100
AcDbSymbolTableRecord
100
AcDbRegAppTableRecord
  2
AD_DRAW
 70
     0
  0
APPID
  5
143
330
9
100
AcDbSymbolTableRecord
100
AcDbRegAppTableRecord
  2
DESIGNERASSEMBLIES
 70
     0
  0
APPID
  5
148
330
9
100
AcDbSymbolTableRecord
100
AcDbRegAppTableRecord
  2
ACADM_DIM_EDIT
 70
     0
  0
APPID
  5
149
330
9
100
AcDbSymbolTableRecord
100
AcDbRegAppTableRecord
  2
AMDT_DM_ADJ
 70
     0
  0
APPID
  5
30E
330
9
100
AcDbSymbolTableRecord
100
AcDbRegAppTableRecord
  2
GENIUS_GENDTOL_13
 70
     0
  0
APPID
  5
30F
330
9
100
AcDbSymbolTableRecord
100
AcDbRegAppTableRecord
  2
GENIUS_GENOENT_13
 70
     0
  0
APPID
  5
310
330
9
100
AcDbSymbolTableRecord
100
AcDbRegAppTableRecord
  2
GENIUS_GENOBJ-N-HTC_13
 70
     0
  0
APPID
  5
311
330
9
100
AcDbSymbolTableRecord
100
AcDbRegAppTableRecord
  2
GENIUS_GENHATCH_13
 70
     0
  0
APPID
  5
312
330
9
100
AcDbSymbolTableRecord
100
AcDbRegAppTableRecord
  2
GENIUS_GENOLIS_13
 70
     0
  0
APPID
  5
313
330
9
100
AcDbSymbolTableRecord
100
AcDbRegAppTableRecord
  2
GENIUS_GENOREF_13
 70
     0
  0
APPID
  5
314
330
9
100
AcDbSymbolTableRecord
100
AcDbRegAppTableRecord
  2
GENIUS_GENREC_14
 70
     0
  0
APPID
  5
315
330
9
100
AcDbSymbolTableRecord
100
AcDbRegAppTableRecord
  2
GENIUS_GENOBJ-N-REC_13
 70
     0
  0
APPID
  5
316
330
9
100
AcDbSymbolTableRecord
100
AcDbRegAppTableRecord
  2
GENIUS_GENOBJ-N-FIL_13
 70
     0
  0
APPID
  5
317
330
9
100
AcDbSymbolTableRecord
100
AcDbRegAppTableRecord
  2
GENIUS_GENOBJ-N-CEN_13
 70
     0
  0
APPID
  5
318
330
9
100
AcDbSymbolTableRecord
100
AcDbRegAppTableRecord
  2
GENIUS_GEFWELD_13
 70
     0
  0
APPID
  5
319
330
9
100
AcDbSymbolTableRecord
100
AcDbRegAppTableRecord
  2
GENIUS_GENOBJ-F-WELS_13
 70
     0
  0
APPID
  5
31A
330
9
100
AcDbSymbolTableRecord
100
AcDbRegAppTableRecord
  2
GENIUS_GENOBJ-N-CRC_13
 70
     0
  0
APPID
  5
31B
330
9
100
AcDbSymbolTableRecord
100
AcDbRegAppTableRecord
  2
GENIUS_GENCRC_14
 70
     0
  0
APPID
  5
31C
330
9
100
AcDbSymbolTableRecord
100
AcDbRegAppTableRecord
  2
GENIUS_GENFIL_13
 70
     0
  0
APPID
  5
31D
330
9
100
AcDbSymbolTableRecord
100
AcDbRegAppTableRecord
  2
GENIUS_GENOBJ-N-CHA_13
 70
     0
  0
APPID
  5
BB6
330
9
100
AcDbSymbolTableRecord
100
AcDbRegAppTableRecord
  2
ACAD_PSEXT
 70
     0
  0
APPID
  5
BB7
330
9
100
AcDbSymbolTableRecord
100
AcDbRegAppTableRecord
  2
AcadAnnoPO
 70
     0
  0
APPID
  5
BB8
330
9
100
AcDbSymbolTableRecord
100
AcDbRegAppTableRecord
  2
AcadAnnotative
 70
     0
  0
APPID
  5
BB9
330
9
100
AcDbSymbolTableRecord
100
AcDbRegAppTableRecord
  2
ACAD_DSTYLE_DIMJAG
 70
     0
  0
APPID
  5
BBA
330
9
100
AcDbSymbolTableRecord
100
AcDbRegAppTableRecord
  2
ACAD_DSTYLE_DIMTALN
 70
     0
  0
APPID
  5
BBB
330
9
100
AcDbSymbolTableRecord
100
AcDbRegAppTableRecord
  2
ACAD_MLEADERVER
 70
     0
  0
APPID
  5
BBC
330
9
100
AcDbSymbolTableRecord
100
AcDbRegAppTableRecord
  2
DCO15
 70
     0
  0
ENDTAB
  0
TABLE
  2
DIMSTYLE
  5
A
330
0
100
AcDbSymbolTable
 70
    12
100
AcDbDimStyleTable
 71
     2
340
C2
340
27
  0
DIMSTYLE
105
27
330
A
100
AcDbSymbolTableRecord
100
AcDbDimStyleTableRecord
  2
ISO-25
 70
     0
 41
2.5
 42
0.625
 43
3.75
 44
1.25
 73
     0
 74
     0
 77
     1
 78
     8
140
2.5
141
2.5
143
0.03937007874016
147
0.625
171
     3
172
     1
271
     2
272
     2
274
     3
278
    44
283
     0
284
     8
340
11
  0
DIMSTYLE
105
C2
330
A
100
AcDbSymbolTableRecord
100
AcDbDimStyleTableRecord
  2
AM_DIN
 70
     0
  4
"
 41
2.5
 42
0.0
 43
10.0
 44
2.0
 47
0.1
 48
0.1
 73
     0
 74
     0
 77
     1
 78
     8
 79
     2
140
3.5
141
0.0
143
0.0393701
146
0.71
147
1.5
172
     1
176
   256
177
   256
178
     2
271
     2
272
     2
283
     0
284
     8
340
11
371
    -1
372
    -1
  0
DIMSTYLE
105
C3
330
A
100
AcDbSymbolTableRecord
100
AcDbDimStyleTableRecord
  2
AM_DIN$3
 70
     0
  4
"
 41
2.5
 42
1.0
 43
10.0
 44
1.0
 47
0.1
 48
0.1
 73
     0
 77
     1
 78
     8
 79
     2
140
3.5
141
0.0
143
0.0393701
146
0.71
147
1.5
176
   256
177
   256
178
     2
271
     2
272
     3
274
     4
283
     0
284
     8
288
     1
289
     0
340
11
371
    -1
372
    -1
  0
DIMSTYLE
105
C4
330
A
100
AcDbSymbolTableRecord
100
AcDbDimStyleTableRecord
  2
AM_DIN$4
 70
     0
  4
"
 41
2.5
 42
1.0
 43
10.0
 44
1.0
 47
0.1
 48
0.1
 73
     0
 77
     1
 78
     8
 79
     2
140
3.5
141
0.0
143
0.0393701
146
0.71
147
1.5
176
   256
177
   256
178
     2
271
     2
272
     3
274
     4
283
     0
284
     8
288
     1
289
     0
340
11
371
    -1
372
    -1
  0
DIMSTYLE
105
C5
330
A
100
AcDbSymbolTableRecord
100
AcDbDimStyleTableRecord
  2
AM_DIN$6
 70
     0
  4
"
 41
2.5
 42
1.0
 43
10.0
 44
1.0
 47
0.1
 48
0.1
 73
     0
 74
     0
 78
     8
 79
     2
140
3.5
141
0.0
143
0.0393701
146
0.71
147
1.5
172
     1
176
   256
177
   256
178
     2
271
     2
272
     3
274
     4
283
     0
284
     8
340
11
371
    -1
372
    -1
  0
DIMSTYLE
105
C6
330
A
100
AcDbSymbolTableRecord
100
AcDbDimStyleTableRecord
  2
AM_DIN$7
 70
     0
  4
"
 41
2.5
 42
1.0
 43
10.0
 44
1.0
 47
0.1
 48
0.1
 73
     0
 74
     0
 77
     1
 78
     8
 79
     2
140
5.0
141
0.0
143
0.0393701
146
0.71
147
1.5
172
     1
176
   256
177
   256
178
     2
271
     2
272
     3
274
     4
283
     0
284
     8
340
11
371
    -1
372
    -1
  0
DIMSTYLE
105
C7
330
A
100
AcDbSymbolTableRecord
100
AcDbDimStyleTableRecord
  2
AM_DIN$SF
 70
     0
  4
"
 41
2.5
 42
1.0
 43
10.0
 44
1.0
 47
0.1
 48
0.1
 73
     0
 74
     0
 75
     1
 76
     1
 77
     1
 78
     8
 79
     2
140
3.5
141
0.0
143
0.0393701
146
0.71
147
1.5
172
     1
176
   256
177
   256
178
     2
271
     2
272
     3
274
     4
283
     0
284
     8
340
11
371
    -1
372
    -1
  0
DIMSTYLE
105
CC
330
A
100
AcDbSymbolTableRecord
100
AcDbDimStyleTableRecord
  2
AM_DIN$SH
 70
     0
  4
"
 41
2.5
 42
1.0
 43
10.0
 44
1.0
 47
0.1
 48
0.1
 73
     0
 74
     0
 75
     1
 76
     1
 77
     1
 78
     8
 79
     2
140
3.5
141
0.0
143
0.0393701
144
2.0
146
0.71
147
1.5
172
     1
173
     1
176
   256
177
   256
178
     2
271
     2
272
     3
274
     4
283
     0
284
     8
340
11
343
C8
371
    -1
372
    -1
  0
DIMSTYLE
105
30D
102
{ACAD_REACTORS
330
A6C
330
720
330
7D6
330
6D8
330
6D9
330
6F8
330
700
330
701
102
}
330
A
100
AcDbSymbolTableRecord
100
AcDbDimStyleTableRecord
  2
GEN-ISO
 70
     0
  4
"
 40
5.0
 41
2.5
 42
1.0
 43
7.0
 44
1.0
 47
0.1
 48
0.1
 73
     0
 74
     0
 77
     1
 78
     8
140
3.5
141
0.0
143
0.03937
146
0.71
147
0.6
172
     1
176
   256
177
   256
178
     2
271
     2
272
     3
274
     4
283
     0
340
11
  0
DIMSTYLE
105
BB4
330
A
100
AcDbSymbolTableRecord
100
AcDbDimStyleTableRecord
  2
Standard
 70
     0
340
11
  0
DIMSTYLE
105
BB5
330
A
100
AcDbSymbolTableRecord
100
AcDbDimStyleTableRecord
  2
Opisowy
 70
     0
 40
0.0
 41
2.5
 42
0.625
 43
3.75
 44
1.25
 73
     0
 74
     0
 77
     1
 78
     8
140
2.5
141
2.5
143
0.03937007874016
147
0.625
171
     3
172
     1
271
     2
272
     2
274
     3
278
    44
283
     0
284
     8
340
11
1001
AcadAnnotative
1000
AnnotativeData
1002
{
1070
     1
1070
     1
1002
}
1001
ACAD_DSTYLE_DIMJAG
1070
   388
1040
1.5
1001
ACAD_DSTYLE_DIMTALN
1070
   392
1070
     0
  0
ENDTAB
  0
TABLE
  2
BLOCK_RECORD
  5
1
330
0
100
AcDbSymbolTable
 70
    20
  0
BLOCK_RECORD
  5
1F
102
{ACAD_XDICTIONARY
360
D5
102
}
330
1
100
AcDbSymbolTableRecord
100
AcDbBlockTableRecord
  2
*Model_Space
340
22
  0
BLOCK_RECORD
  5
55
330
1
100
AcDbSymbolTableRecord
100
AcDbBlockTableRecord
  2
*Paper_Space
340
56
  0
BLOCK_RECORD
  5
50
330
1
100
AcDbSymbolTableRecord
100
AcDbBlockTableRecord
  2
*Paper_Space0
340
51
  0
BLOCK_RECORD
  5
C8
330
1
100
AcDbSymbolTableRecord
100
AcDbBlockTableRecord
  2
GENAXEH
340
0
  0
BLOCK_RECORD
  5
A6E
330
1
100
AcDbSymbolTableRecord
100
AcDbBlockTableRecord
  2
*D11
340
0
  0
BLOCK_RECORD
  5
A7B
330
1
100
AcDbSymbolTableRecord
100
AcDbBlockTableRecord
  2
*D12
340
0
  0
BLOCK_RECORD
  5
A87
330
1
100
AcDbSymbolTableRecord
100
AcDbBlockTableRecord
  2
*D13
340
0
  0
BLOCK_RECORD
  5
A93
330
1
100
AcDbSymbolTableRecord
100
AcDbBlockTableRecord
  2
*D14
340
0
  0
BLOCK_RECORD
  5
A9F
330
1
100
AcDbSymbolTableRecord
100
AcDbBlockTableRecord
  2
*D15
340
0
  0
BLOCK_RECORD
  5
AAD
330
1
100
AcDbSymbolTableRecord
100
AcDbBlockTableRecord
  2
*D16
340
0
  0
BLOCK_RECORD
  5
AB9
330
1
100
AcDbSymbolTableRecord
100
AcDbBlockTableRecord
  2
*D17
340
0
  0
BLOCK_RECORD
  5
AC5
330
1
100
AcDbSymbolTableRecord
100
AcDbBlockTableRecord
  2
*D18
340
0
  0
ENDTAB
  0
ENDSEC
  0
SECTION
  2
BLOCKS
  0
BLOCK
  5
20
330
1F
100
AcDbEntity
  8
0
100
AcDbBlockBegin
  2
*Model_Space
 70
     0
 10
0.0
 20
0.0
 30
0.0
  3
*Model_Space
  1

  0
ENDBLK
  5
21
330
1F
100
AcDbEntity
  8
0
100
AcDbBlockEnd
  0
BLOCK
  5
57
330
55
100
AcDbEntity
 67
     1
  8
0
100
AcDbBlockBegin
  2
*Paper_Space
 70
     0
 10
0.0
 20
0.0
 30
0.0
  3
*Paper_Space
  1

  0
ENDBLK
  5
58
330
55
100
AcDbEntity
 67
     1
  8
0
100
AcDbBlockEnd
  0
BLOCK
  5
52
330
50
100
AcDbEntity
 67
     1
  8
0
100
AcDbBlockBegin
  2
*Paper_Space0
 70
     0
 10
0.0
 20
0.0
 30
0.0
  3
*Paper_Space0
  1

  0
VIEWPORT
  5
69
330
50
100
AcDbEntity
 67
     1
  8
0
100
AcDbViewport
 10
128.5
 20
97.5
 30
0.0
 40
384.7606204379562
 41
222.18
 68
     0
 69
     0
 12
128.5
 22
97.5
 13
0.0
 23
0.0
 14
10.0
 24
10.0
 15
10.0
 25
10.0
 16
0.0
 26
0.0
 36
1.0
 17
0.0
 27
0.0
 37
0.0
 42
50.0
 43
0.0
 44
0.0
 45
222.18
 50
0.0
 51
0.0
 72
   100
 90
    32800
  1

281
     0
 71
     1
 74
     0
110
0.0
120
0.0
130
0.0
111
1.0
121
0.0
131
0.0
112
0.0
122
1.0
132
0.0
 79
     0
146
0.0
170
     0
1001
GENIUS_GENSCREG_15
1000
PF
1040
1.0
1000
DF
1040
1.0
1000
MIN
1011
-63.88031021897808
1021
-13.59
1031
0.0
1000
MAX
1011
320.8803102189782
1021
208.59
1031
0.0
1000
FLAGS
1070
     4
1001
GENIUS_GENOBJ-N-SDF_13
1002
{
1000
OWNER
1000
GEN
1002
}
1001
GENIUS_GENODEF_13
1002
{
1000
HIER
1070
     0
1002
}
1002
{
1000
MANEDIT
1070
     0
1002
}
1002
{
1000
NOSEL
1070
     0
1002
}
1002
{
1000
BEHIND
1070
     0
1002
}
1002
{
1000
OTHER
1070
     0
1002
}
1002
{
1000
REACTOR
1002
}
  0
VIEWPORT
  5
6B
330
50
100
AcDbEntity
 67
     1
  8
0
100
AcDbViewport
 10
128.5
 20
97.5
 30
0.0
 40
205.6
 41
156.0
 68
     0
 69
     0
 12
210.0
 22
148.5
 13
0.0
 23
0.0
 14
10.0
 24
10.0
 15
10.0
 25
10.0
 16
0.0
 26
0.0
 36
1.0
 17
0.0
 27
0.0
 37
0.0
 42
50.0
 43
0.0
 44
0.0
 45
322.4558219652112
 50
0.0
 51
0.0
 72
   100
 90
    32864
  1

281
     0
 71
     1
 74
     0
110
0.0
120
0.0
130
0.0
111
1.0
121
0.0
131
0.0
112
0.0
122
1.0
132
0.0
 79
     0
146
0.0
170
     0
1001
GENIUS_GENSCREG_15
1000
PF
1040
0.0
1000
DF
1040
0.0
1000
MIN
1011
25.69999999999999
1021
19.5
1031
0.0
1000
MAX
1011
231.3
1021
175.5
1031
0.0
1000
FLAGS
1070
     4
1001
GENIUS_GENOBJ-N-SDF_13
1002
{
1000
OWNER
1000
GEN
1002
}
1001
GENIUS_GENODEF_13
1002
{
1000
HIER
1070
     0
1002
}
1002
{
1000
MANEDIT
1070
     0
1002
}
1002
{
1000
NOSEL
1070
     0
1002
}
1002
{
1000
BEHIND
1070
     0
1002
}
1002
{
1000
OTHER
1070
     0
1002
}
1002
{
1000
REACTOR
1002
}
  0
ENDBLK
  5
53
330
50
100
AcDbEntity
 67
     1
  8
0
100
AcDbBlockEnd
  0
BLOCK
  5
CA
330
C8
100
AcDbEntity
  8
0
100
AcDbBlockBegin
  2
GENAXEH
 70
     0
 10
0.0
 20
0.0
 30
0.0
  3
GENAXEH
  1

  0
LINE
  5
C9
330
C8
100
AcDbEntity
  8
0
100
AcDbLine
 10
-1.0
 20
0.0
 30
0.0
 11
1.0
 21
0.0
 31
0.0
  0
ENDBLK
  5
CB
330
C8
100
AcDbEntity
  8
0
100
AcDbBlockEnd
  0
BLOCK
  5
A79
330
A6E
100
AcDbEntity
  8
0
100
AcDbBlockBegin
  2
*D11
 70
     1
 10
0.0
 20
0.0
 30
0.0
  3
*D11
  1

  0
LINE
  5
B5D
330
A6E
100
AcDbEntity
  8
5
370
    -2
100
AcDbLine
 10
2690.719761474043
 20
1024.734372132129
 30
0.0
 11
2725.429436474043
 21
1024.734372132129
 31
0.0
  0
LINE
  5
B5E
330
A6E
100
AcDbEntity
  8
5
370
    -2
100
AcDbLine
 10
2690.719761474043
 20
1056.732377132129
 30
0.0
 11
2725.429436474043
 21
1056.732377132129
 31
0.0
  0
LINE
  5
B5F
330
A6E
100
AcDbEntity
  8
5
370
    -2
100
AcDbLine
 10
2720.429436474043
 20
1037.234372132129
 30
0.0
 11
2720.429436474043
 21
1044.232377132129
 31
0.0
  0
LINE
  5
B60
330
A6E
100
AcDbEntity
  8
5
370
    -2
100
AcDbLine
 10
2720.429436474043
 20
1056.732377132129
 30
0.0
 11
2720.429436474043
 21
1188.607564581959
 31
0.0
  0
SOLID
  5
B61
330
A6E
100
AcDbEntity
  8
5
100
AcDbTrace
 10
2718.346103140709
 20
1037.234372132129
 30
0.0
 11
2722.512769807376
 21
1037.234372132129
 31
0.0
 12
2720.429436474043
 22
1024.734372132129
 32
0.0
 13
2720.429436474043
 23
1024.734372132129
 33
0.0
  0
SOLID
  5
B62
330
A6E
100
AcDbEntity
  8
5
100
AcDbTrace
 10
2718.346103140709
 20
1044.232377132129
 30
0.0
 11
2722.512769807376
 21
1044.232377132129
 31
0.0
 12
2720.429436474043
 22
1056.732377132129
 32
0.0
 13
2720.429436474043
 23
1056.732377132129
 33
0.0
  0
MTEXT
  5
B63
330
A6E
100
AcDbEntity
  8
5
 62
     2
100
AcDbMText
 10
2708.557735089582
 20
1128.919970857044
 30
0.0
 40
17.5
 41
0.0
 71
     5
 72
     1
  1
R1-DIN2999
 11
0.0000000000000001
 21
1.0
 31
0.0
 73
     1
 44
1.0
  0
POINT
  5
B64
330
A6E
100
AcDbEntity
  8
DEFPOINTS
 62
     0
100
AcDbPoint
 10
2685.719761474043
 20
1024.734372132129
 30
0.0
  0
POINT
  5
B65
330
A6E
100
AcDbEntity
  8
DEFPOINTS
 62
     0
100
AcDbPoint
 10
2685.719761474043
 20
1056.732377132129
 30
0.0
  0
POINT
  5
B66
330
A6E
100
AcDbEntity
  8
DEFPOINTS
 62
     0
100
AcDbPoint
 10
2720.429436474043
 20
1056.732377132129
 30
0.0
  0
ENDBLK
  5
A7A
330
A6E
100
AcDbEntity
  8
0
100
AcDbBlockEnd
  0
BLOCK
  5
A85
330
A7B
100
AcDbEntity
  8
0
100
AcDbBlockBegin
  2
*D12
 70
     1
 10
0.0
 20
0.0
 30
0.0
  3
*D12
  1

  0
LINE
  5
B4B
330
A7B
100
AcDbEntity
  8
5
370
    -2
100
AcDbLine
 10
1921.718314474043
 20
1561.728478132129
 30
0.0
 11
1921.718314474043
 21
1511.728478132129
 31
0.0
  0
LINE
  5
B4C
330
A7B
100
AcDbEntity
  8
5
370
    -2
100
AcDbLine
 10
2661.718314474043
 20
1561.728478132129
 30
0.0
 11
2661.718314474043
 21
1511.728478132129
 31
0.0
  0
LINE
  5
B4D
330
A7B
100
AcDbEntity
  8
5
370
    -2
100
AcDbLine
 10
1934.218314474043
 20
1516.728478132129
 30
0.0
 11
2649.218314474043
 21
1516.728478132129
 31
0.0
  0
MTEXT
  5
B4E
330
A7B
100
AcDbEntity
  8
5
 62
     2
100
AcDbMText
 10
2361.538267474044
 20
1532.354896132129
 30
0.0
 40
17.5
 41
0.0
 71
     5
 72
     1
  1
%%c740
 73
     1
 44
1.0
  0
SOLID
  5
B4F
330
A7B
100
AcDbEntity
  8
5
100
AcDbTrace
 10
1934.218314474043
 20
1518.811811465462
 30
0.0
 11
1934.218314474043
 21
1514.645144798796
 31
0.0
 12
1921.718314474043
 22
1516.728478132129
 32
0.0
 13
1921.718314474043
 23
1516.728478132129
 33
0.0
  0
SOLID
  5
B50
330
A7B
100
AcDbEntity
  8
5
100
AcDbTrace
 10
2649.218314474043
 20
1518.811811465462
 30
0.0
 11
2649.218314474043
 21
1514.645144798796
 31
0.0
 12
2661.718314474043
 22
1516.728478132129
 32
0.0
 13
2661.718314474043
 23
1516.728478132129
 33
0.0
  0
POINT
  5
B51
330
A7B
100
AcDbEntity
  8
DEFPOINTS
 62
     0
100
AcDbPoint
 10
1921.718314474043
 20
1566.728478132129
 30
0.0
  0
POINT
  5
B52
330
A7B
100
AcDbEntity
  8
DEFPOINTS
 62
     0
100
AcDbPoint
 10
2661.718314474043
 20
1566.728478132129
 30
0.0
  0
POINT
  5
B53
330
A7B
100
AcDbEntity
  8
DEFPOINTS
 62
     0
100
AcDbPoint
 10
2661.718314474043
 20
1516.728478132129
 30
0.0
  0
ENDBLK
  5
A86
330
A7B
100
AcDbEntity
  8
0
100
AcDbBlockEnd
  0
BLOCK
  5
A91
330
A87
100
AcDbEntity
  8
0
100
AcDbBlockBegin
  2
*D13
 70
     1
 10
0.0
 20
0.0
 30
0.0
  3
*D13
  1

  0
LINE
  5
B54
330
A87
100
AcDbEntity
  8
5
370
    -2
100
AcDbLine
 10
2697.556007474043
 20
1040.733375132129
 30
0.0
 11
2789.999576474043
 21
1040.733375132129
 31
0.0
  0
LINE
  5
B55
330
A87
100
AcDbEntity
  8
5
370
    -2
100
AcDbLine
 10
2598.041463474043
 20
795.7333751321291
 30
0.0
 11
2789.999576474043
 21
795.7333751321291
 31
0.0
  0
LINE
  5
B56
330
A87
100
AcDbEntity
  8
5
370
    -2
100
AcDbLine
 10
2784.999576474043
 20
1028.233375132129
 30
0.0
 11
2784.999576474043
 21
808.2333751321291
 31
0.0
  0
SOLID
  5
B57
330
A87
100
AcDbEntity
  8
5
100
AcDbTrace
 10
2782.916243140709
 20
1028.233375132129
 30
0.0
 11
2787.082909807376
 21
1028.233375132129
 31
0.0
 12
2784.999576474043
 22
1040.733375132129
 32
0.0
 13
2784.999576474043
 23
1040.733375132129
 33
0.0
  0
SOLID
  5
B58
330
A87
100
AcDbEntity
  8
5
100
AcDbTrace
 10
2782.916243140709
 20
808.2333751321291
 30
0.0
 11
2787.082909807376
 21
808.2333751321291
 31
0.0
 12
2784.999576474043
 22
795.7333751321291
 32
0.0
 13
2784.999576474043
 23
795.7333751321291
 33
0.0
  0
MTEXT
  5
B59
330
A87
100
AcDbEntity
  8
5
 62
     2
100
AcDbMText
 10
2773.247854033098
 20
918.2333751321296
 30
0.0
 40
17.5
 41
0.0
 71
     5
 72
     1
  1
245 {}{\C2;%%p2}
 11
0.0000000000000001
 21
1.0
 31
0.0
 73
     1
 44
1.0
  0
POINT
  5
B5A
330
A87
100
AcDbEntity
  8
DEFPOINTS
 62
     0
100
AcDbPoint
 10
2692.556007474042
 20
1040.733375132129
 30
0.0
  0
POINT
  5
B5B
330
A87
100
AcDbEntity
  8
DEFPOINTS
 62
     0
100
AcDbPoint
 10
2593.041463474043
 20
795.7333751321291
 30
0.0
  0
POINT
  5
B5C
330
A87
100
AcDbEntity
  8
DEFPOINTS
 62
     0
100
AcDbPoint
 10
2784.999576474043
 20
795.7333751321291
 30
0.0
  0
ENDBLK
  5
A92
330
A87
100
AcDbEntity
  8
0
100
AcDbBlockEnd
  0
BLOCK
  5
A9D
330
A93
100
AcDbEntity
  8
0
100
AcDbBlockBegin
  2
*D14
 70
     1
 10
0.0
 20
0.0
 30
0.0
  3
*D14
  1

  0
LINE
  5
B1C
330
A93
100
AcDbEntity
  8
5
370
    -2
100
AcDbLine
 10
3067.424598454776
 20
1286.173499131532
 30
0.0
 11
2930.177090309363
 21
1365.413384879668
 31
0.0
  0
LINE
  5
B1D
330
A93
100
AcDbEntity
  8
5
370
    -2
100
AcDbLine
 10
3314.241838454776
 20
1713.673499131533
 30
0.0
 11
3176.994330309363
 21
1792.913384879669
 31
0.0
  0
LINE
  5
B1E
330
A93
100
AcDbEntity
  8
5
370
    -2
100
AcDbLine
 10
2940.757217327139
 20
1373.738702428431
 30
0.0
 11
3175.074457330122
 21
1779.588067332099
 31
0.0
  0
SOLID
  5
B1F
330
A93
100
AcDbEntity
  8
5
100
AcDbTrace
 10
2938.952997735777
 20
1374.780369094849
 30
0.0
 11
2942.561436918499
 21
1372.697035762014
 31
0.0
 12
2934.50721732863
 22
1362.913384880265
 32
0.0
 13
2934.50721732863
 23
1362.913384880265
 33
0.0
  0
SOLID
  5
B20
330
A93
100
AcDbEntity
  8
5
100
AcDbTrace
 10
3173.270237738761
 20
1780.629733998517
 30
0.0
 11
3176.878676921483
 21
1778.546400665681
 31
0.0
 12
3181.32445732863
 22
1790.413384880266
 32
0.0
 13
3181.32445732863
 23
1790.413384880266
 33
0.0
  0
MTEXT
  5
B21
330
A93
100
AcDbEntity
  8
5
 62
     2
100
AcDbMText
 10
3046.978603844566
 20
1582.977999574469
 30
0.0
 40
17.5
 41
0.0
 71
     5
 72
     1
  1
(494)
 11
0.4999999998806314
 21
0.8660254038533562
 31
0.0
 73
     1
 44
1.0
  0
POINT
  5
B22
330
A93
100
AcDbEntity
  8
DEFPOINTS
 62
     0
100
AcDbPoint
 10
3071.754725474043
 20
1283.673499132129
 30
0.0
  0
POINT
  5
B23
330
A93
100
AcDbEntity
  8
DEFPOINTS
 62
     0
100
AcDbPoint
 10
3318.571965474042
 20
1711.173499132129
 30
0.0
  0
POINT
  5
B24
330
A93
100
AcDbEntity
  8
DEFPOINTS
 62
     0
100
AcDbPoint
 10
3181.32445732863
 20
1790.413384880266
 30
0.0
  0
ENDBLK
  5
A9E
330
A93
100
AcDbEntity
  8
0
100
AcDbBlockEnd
  0
BLOCK
  5
AAB
330
A9F
100
AcDbEntity
  8
0
100
AcDbBlockBegin
  2
*D15
 70
     1
 10
0.0
 20
0.0
 30
0.0
  3
*D15
  1

  0
LINE
  5
B25
330
A9F
100
AcDbEntity
  8
5
370
    -2
100
AcDbLine
 10
3318.571965474042
 20
1844.088743132129
 30
0.0
 11
3318.571965474043
 21
1848.208711283945
 31
0.0
  0
LINE
  5
B26
330
A9F
100
AcDbEntity
  8
5
370
    -2
100
AcDbLine
 10
3022.391277455401
 20
1255.173499131645
 30
0.0
 11
2953.078750482609
 21
1215.155893015358
 31
0.0
  0
ARC
  5
B27
330
A9F
100
AcDbEntity
  8
5
370
    -2
100
AcDbCircle
 10
3318.571965474043
 20
1426.173499132129
 30
0.0
 40
417.0352121518154
100
AcDbArc
 50
91.7174186632261
 51
208.2825813431798
  0
SOLID
  5
B28
330
A9F
100
AcDbEntity
  8
5
100
AcDbTrace
 10
3306.042146934973
 20
1845.10447634211
 30
0.0
 11
3306.104591702005
 21
1840.938277623591
 31
0.0
 12
3318.571965474043
 22
1843.208711283945
 32
0.0
 13
3318.571965474043
 23
1843.208711283945
 33
0.0
  0
SOLID
  5
B29
330
A9F
100
AcDbEntity
  8
5
100
AcDbTrace
 10
2953.141443841371
 20
1229.588172250602
 30
0.0
 11
2949.502187530631
 21
1227.559151645519
 31
0.0
 12
2957.408877501251
 22
1217.655893015842
 32
0.0
 13
2957.408877501251
 23
1217.655893015842
 33
0.0
  0
MTEXT
  5
B2A
330
A9F
100
AcDbEntity
  8
5
 62
     2
100
AcDbMText
 10
2947.231587293871
 20
1640.56696640775
 30
0.0
 40
17.5
 41
0.0
 71
     5
 72
     1
  1
3x120\U+00B0
 11
0.4999999999515882
 21
0.8660254038123891
 31
0.0
 73
     1
 44
1.0
  0
POINT
  5
B2B
330
A9F
100
AcDbEntity
  8
DEFPOINTS
 62
     0
100
AcDbPoint
 10
3050.506898287953
 20
1745.641005975981
 30
0.0
  0
POINT
  5
B2C
330
A9F
100
AcDbEntity
  8
DEFPOINTS
 62
     0
100
AcDbPoint
 10
3318.571965474043
 20
1426.173499132129
 30
0.0
  0
POINT
  5
B2D
330
A9F
100
AcDbEntity
  8
DEFPOINTS
 62
     0
100
AcDbPoint
 10
3318.571965474043
 20
1839.088743132129
 30
0.0
  0
POINT
  5
B2E
330
A9F
100
AcDbEntity
  8
DEFPOINTS
 62
     0
100
AcDbPoint
 10
3318.571965474043
 20
1000.932852132129
 30
0.0
  0
POINT
  5
B2F
330
A9F
100
AcDbEntity
  8
DEFPOINTS
 62
     0
100
AcDbPoint
 10
3026.721404474043
 20
1257.673499132129
 30
0.0
  0
ENDBLK
  5
AAC
330
A9F
100
AcDbEntity
  8
0
100
AcDbBlockEnd
  0
BLOCK
  5
AB7
330
AAD
100
AcDbEntity
  8
0
100
AcDbBlockBegin
  2
*D16
 70
     1
 10
0.0
 20
0.0
 30
0.0
  3
*D16
  1

  0
LINE
  5
B30
330
AAD
100
AcDbEntity
  8
5
370
    -2
100
AcDbLine
 10
2286.718314474043
 20
1868.932246132129
 30
0.0
 11
1736.700793474043
 21
1868.932246132129
 31
0.0
  0
LINE
  5
B31
330
AAD
100
AcDbEntity
  8
5
370
    -2
100
AcDbLine
 10
2025.395165474043
 20
795.7333751321291
 30
0.0
 11
1736.700793474043
 21
795.7333751321292
 31
0.0
  0
LINE
  5
B32
330
AAD
100
AcDbEntity
  8
5
370
    -2
100
AcDbLine
 10
1741.700793474044
 20
1856.432246132129
 30
0.0
 11
1741.700793474043
 21
808.2333751321293
 31
0.0
  0
SOLID
  5
B33
330
AAD
100
AcDbEntity
  8
5
100
AcDbTrace
 10
1739.61746014071
 20
1856.432246132129
 30
0.0
 11
1743.784126807377
 21
1856.432246132129
 31
0.0
 12
1741.700793474044
 22
1868.932246132129
 32
0.0
 13
1741.700793474044
 23
1868.932246132129
 33
0.0
  0
SOLID
  5
B34
330
AAD
100
AcDbEntity
  8
5
100
AcDbTrace
 10
1739.61746014071
 20
808.2333751321293
 30
0.0
 11
1743.784126807377
 21
808.2333751321293
 31
0.0
 12
1741.700793474043
 22
795.7333751321292
 32
0.0
 13
1741.700793474043
 23
795.7333751321292
 33
0.0
  0
MTEXT
  5
B35
330
AAD
100
AcDbEntity
  8
5
 62
     2
100
AcDbMText
 10
1729.950793474043
 20
1327.823584132129
 30
0.0
 40
17.5
 41
0.0
 71
     5
 72
     1
  1
1066 {}{\C2;%%p8}
 11
0.0000000000000001
 21
1.0
 31
0.0
 73
     1
 44
1.0
  0
POINT
  5
B36
330
AAD
100
AcDbEntity
  8
DEFPOINTS
 62
     0
100
AcDbPoint
 10
2291.718314474043
 20
1868.932246132129
 30
0.0
  0
POINT
  5
B37
330
AAD
100
AcDbEntity
  8
DEFPOINTS
 62
     0
100
AcDbPoint
 10
2030.395165474043
 20
795.7333751321291
 30
0.0
  0
POINT
  5
B38
330
AAD
100
AcDbEntity
  8
DEFPOINTS
 62
     0
100
AcDbPoint
 10
1741.700793474043
 20
795.7333751321292
 30
0.0
  0
ENDBLK
  5
AB8
330
AAD
100
AcDbEntity
  8
0
100
AcDbBlockEnd
  0
BLOCK
  5
AC3
330
AB9
100
AcDbEntity
  8
0
100
AcDbBlockBegin
  2
*D17
 70
     1
 10
0.0
 20
0.0
 30
0.0
  3
*D17
  1

  0
LINE
  5
B39
330
AB9
100
AcDbEntity
  8
5
370
    -2
100
AcDbLine
 10
2286.718314474043
 20
1868.932246132129
 30
0.0
 11
1805.326287474044
 21
1868.932246132129
 31
0.0
  0
LINE
  5
B3A
330
AB9
100
AcDbEntity
  8
5
370
    -2
100
AcDbLine
 10
2286.718314474043
 20
828.5167341321292
 30
0.0
 11
1805.326287474043
 21
828.5167341321292
 31
0.0
  0
LINE
  5
B3B
330
AB9
100
AcDbEntity
  8
5
370
    -2
100
AcDbLine
 10
1810.326287474044
 20
1856.432246132129
 30
0.0
 11
1810.326287474043
 21
841.0167341321292
 31
0.0
  0
SOLID
  5
B3C
330
AB9
100
AcDbEntity
  8
5
100
AcDbTrace
 10
1808.24295414071
 20
1856.432246132129
 30
0.0
 11
1812.409620807377
 21
1856.432246132129
 31
0.0
 12
1810.326287474044
 22
1868.932246132129
 32
0.0
 13
1810.326287474044
 23
1868.932246132129
 33
0.0
  0
SOLID
  5
B3D
330
AB9
100
AcDbEntity
  8
5
100
AcDbTrace
 10
1808.24295414071
 20
841.0167341321292
 30
0.0
 11
1812.409620807377
 21
841.0167341321292
 31
0.0
 12
1810.326287474043
 22
828.5167341321292
 32
0.0
 13
1810.326287474043
 23
828.5167341321292
 33
0.0
  0
MTEXT
  5
B3E
330
AB9
100
AcDbEntity
  8
5
 62
     2
100
AcDbMText
 10
1798.576287474043
 20
1331.743322132129
 30
0.0
 40
17.5
 41
0.0
 71
     5
 72
     1
  1
1040 {}{\C2;%%p5}
 11
0.0000000000000001
 21
1.0
 31
0.0
 73
     1
 44
1.0
  0
POINT
  5
B3F
330
AB9
100
AcDbEntity
  8
DEFPOINTS
 62
     0
100
AcDbPoint
 10
2291.718314474043
 20
1868.932246132129
 30
0.0
  0
POINT
  5
B40
330
AB9
100
AcDbEntity
  8
DEFPOINTS
 62
     0
100
AcDbPoint
 10
2291.718314474043
 20
828.5167341321292
 30
0.0
  0
POINT
  5
B41
330
AB9
100
AcDbEntity
  8
DEFPOINTS
 62
     0
100
AcDbPoint
 10
1810.326287474043
 20
828.5167341321292
 30
0.0
  0
ENDBLK
  5
AC4
330
AB9
100
AcDbEntity
  8
0
100
AcDbBlockEnd
  0
BLOCK
  5
ACF
330
AC5
100
AcDbEntity
  8
0
100
AcDbBlockBegin
  2
*D18
 70
     1
 10
0.0
 20
0.0
 30
0.0
  3
*D18
  1

  0
LINE
  5
B42
330
AC5
100
AcDbEntity
  8
5
370
    -2
100
AcDbLine
 10
2006.718314474043
 20
773.4825991321291
 30
0.0
 11
2006.718314474043
 21
742.4921601321291
 31
0.0
  0
LINE
  5
B43
330
AC5
100
AcDbEntity
  8
5
370
    -2
100
AcDbLine
 10
2576.718314474044
 20
773.4825991321291
 30
0.0
 11
2576.718314474044
 21
742.4921601321291
 31
0.0
  0
LINE
  5
B44
330
AC5
100
AcDbEntity
  8
5
370
    -2
100
AcDbLine
 10
2019.218314474044
 20
747.4921601321291
 30
0.0
 11
2564.218314474044
 21
747.4921601321291
 31
0.0
  0
SOLID
  5
B45
330
AC5
100
AcDbEntity
  8
5
100
AcDbTrace
 10
2019.218314474044
 20
749.5754934654625
 30
0.0
 11
2019.218314474044
 21
745.4088267987957
 31
0.0
 12
2006.718314474043
 22
747.4921601321291
 32
0.0
 13
2006.718314474043
 23
747.4921601321291
 33
0.0
  0
SOLID
  5
B46
330
AC5
100
AcDbEntity
  8
5
100
AcDbTrace
 10
2564.218314474044
 20
749.5754934654625
 30
0.0
 11
2564.218314474044
 21
745.4088267987957
 31
0.0
 12
2576.718314474044
 22
747.4921601321291
 32
0.0
 13
2576.718314474044
 23
747.4921601321291
 33
0.0
  0
MTEXT
  5
B47
330
AC5
100
AcDbEntity
  8
5
 62
     2
100
AcDbMText
 10
2291.718314474044
 20
759.2421601321291
 30
0.0
 40
17.5
 41
0.0
 71
     5
 72
     1
  1
%%c570 {}{\C2;%%p1.5}
 73
     1
 44
1.0
  0
POINT
  5
B48
330
AC5
100
AcDbEntity
  8
DEFPOINTS
 62
     0
100
AcDbPoint
 10
2006.718314474043
 20
778.4825991321292
 30
0.0
  0
POINT
  5
B49
330
AC5
100
AcDbEntity
  8
DEFPOINTS
 62
     0
100
AcDbPoint
 10
2576.718314474044
 20
778.4825991321292
 30
0.0
  0
POINT
  5
B4A
330
AC5
100
AcDbEntity
  8
DEFPOINTS
 62
     0
100
AcDbPoint
 10
2576.718314474044
 20
747.4921601321291
 30
0.0
  0
ENDBLK
  5
AD0
330
AC5
100
AcDbEntity
  8
0
100
AcDbBlockEnd
  0
ENDSEC
  0
SECTION
  2
ENTITIES
  0
LINE
  5
6CC
330
1F
100
AcDbEntity
  8
VERDECKTE
 48
0.3
100
AcDbLine
 10
3570.209713474044
 20
1252.022864132128
 30
0.0
 11
3595.209713474043
 21
1295.324134132129
 31
0.0
  0
LINE
  5
6CD
330
1F
100
AcDbEntity
  8
VERDECKTE
 48
0.3
100
AcDbLine
 10
3540.233761474043
 20
1275.102991132129
 30
0.0
 11
3560.233761474043
 21
1309.744007132129
 31
0.0
  0
LINE
  5
6CE
330
1F
100
AcDbEntity
  8
VERDECKTE
 48
0.3
100
AcDbLine
 10
3538.068697474044
 20
1276.352991132129
 30
0.0
 11
3558.068697474044
 21
1310.994007132129
 31
0.0
  0
CIRCLE
  5
6CF
330
1F
100
AcDbEntity
  8
VERDECKTE
 48
0.3
100
AcDbCircle
 10
3565.389205474044
 20
1283.673499132129
 30
0.0
 40
6.7
  0
LINE
  5
6D0
330
1F
100
AcDbEntity
  8
VERDECKTE
 48
0.3
100
AcDbLine
 10
3541.148824474043
 20
1271.687927132129
 30
0.0
 11
3571.459713474044
 21
1254.187927132129
 31
0.0
  0
LINE
  5
6D1
330
1F
100
AcDbEntity
  8
VERDECKTE
 48
0.3
100
AcDbLine
 10
3539.898824474043
 20
1269.522864132129
 30
0.0
 11
3570.209713474044
 21
1252.022864132128
 31
0.0
  0
ARC
  5
6D2
330
1F
100
AcDbEntity
  8
VERDECKTE
 48
0.3
100
AcDbCircle
 10
3542.398824474043
 20
1273.852991132129
 30
0.0
 40
2.5
100
AcDbArc
 50
150.0000000000055
 51
239.9999999999995
1001
GENIUS_GENODEF_13
1002
{
1000
HIER
1070
     0
1002
}
1002
{
1000
MANEDIT
1070
     0
1002
}
1002
{
1000
NOSEL
1070
     0
1002
}
1002
{
1000
BEHIND
1070
     0
1002
}
1002
{
1000
REACTOR
1002
}
1001
GENIUS_GENOBJ-N-FIL_13
1002
{
1000
OWNER
1000
GEN
1002
}
  0
ARC
  5
6D3
330
1F
100
AcDbEntity
  8
VERDECKTE
 48
0.3
100
AcDbCircle
 10
3542.398824474043
 20
1273.852991132129
 30
0.0
 40
5.0
100
AcDbArc
 50
150.0000000000055
 51
239.9999999999995
1001
GENIUS_GENODEF_13
1002
{
1000
HIER
1070
     0
1002
}
1002
{
1000
MANEDIT
1070
     0
1002
}
1002
{
1000
NOSEL
1070
     0
1002
}
1002
{
1000
BEHIND
1070
     0
1002
}
1002
{
1000
REACTOR
1002
}
1001
GENIUS_GENOBJ-N-FIL_13
1002
{
1000
OWNER
1000
GEN
1002
}
  0
LINE
  5
6D4
330
1F
100
AcDbEntity
  8
VERDECKTE
 48
0.3
100
AcDbLine
 10
3563.648824474043
 20
1310.659071132129
 30
0.0
 11
3593.959713474044
 21
1293.159071132129
 31
0.0
  0
LINE
  5
6D5
330
1F
100
AcDbEntity
  8
VERDECKTE
 48
0.3
100
AcDbLine
 10
3564.898824474043
 20
1312.824134132129
 30
0.0
 11
3595.209713474043
 21
1295.324134132129
 31
0.0
  0
ARC
  5
6D6
330
1F
100
AcDbEntity
  8
VERDECKTE
 48
0.3
100
AcDbCircle
 10
3562.398824474043
 20
1308.494007132129
 30
0.0
 40
2.5
100
AcDbArc
 50
59.99999999999946
 51
150.0000000000055
1001
GENIUS_GENODEF_13
1002
{
1000
HIER
1070
     0
1002
}
1002
{
1000
MANEDIT
1070
     0
1002
}
1002
{
1000
NOSEL
1070
     0
1002
}
1002
{
1000
BEHIND
1070
     0
1002
}
1002
{
1000
REACTOR
1002
}
1001
GENIUS_GENOBJ-N-FIL_13
1002
{
1000
OWNER
1000
GEN
1002
}
  0
ARC
  5
6D7
330
1F
100
AcDbEntity
  8
VERDECKTE
 48
0.3
100
AcDbCircle
 10
3562.398824474043
 20
1308.494007132129
 30
0.0
 40
5.0
100
AcDbArc
 50
59.99999999999946
 51
150.0000000000055
1001
GENIUS_GENODEF_13
1002
{
1000
HIER
1070
     0
1002
}
1002
{
1000
MANEDIT
1070
     0
1002
}
1002
{
1000
NOSEL
1070
     0
1002
}
1002
{
1000
BEHIND
1070
     0
1002
}
1002
{
1000
REACTOR
1002
}
1001
GENIUS_GENOBJ-N-FIL_13
1002
{
1000
OWNER
1000
GEN
1002
}
  0
DIMENSION
  5
6D8
330
1F
100
AcDbEntity
  8
5
100
AcDbDimension
  2
*D14
 10
3181.32445732863
 20
1790.413384880266
 30
0.0
 11
3046.978603844566
 21
1582.977999574469
 31
0.0
 70
    33
  1
(<>)
 71
     5
 42
493.6344801178479
  3
GEN-ISO
100
AcDbAlignedDimension
 13
3071.754725474043
 23
1283.673499132129
 33
0.0
 14
3318.571965474042
 24
1711.173499132129
 34
0.0
1001
ACAD
1000
DSTYLE
1002
{
1070
    40
1040
5.0
1070
   271
1070
     0
1070
   171
1070
     0
1002
}
1001
GENIUS_GENDTOL_13
1000

1000
h7
1000

1040
0.0
1000
(<>)
  0
DIMENSION
  5
6D9
330
1F
100
AcDbEntity
  8
5
100
AcDbDimension
  2
*D15
 10
3026.721404474043
 20
1257.673499132129
 30
0.0
 11
2947.231587293872
 21
1640.566966407751
 31
0.0
 70
    34
  1
3x<>
 71
     5
 42
2.094395102504999
  3
GEN-ISO
100
AcDb2LineAngularDimension
 13
3318.571965474042
 23
1839.088743132129
 33
0.0
 14
3318.571965474042
 24
1000.932852132129
 34
0.0
 15
3318.571965474042
 25
1426.173499132129
 35
0.0
 16
3050.506898287953
 26
1745.641005975981
 36
0.0
1001
GENIUS_GENDTOL_13
1000

1000
h7
1000

1040
0.0
1000
3x<>
1001
ACAD
1000
DSTYLE
1002
{
1070
    79
1070
     2
1070
   179
1070
     2
1070
   272
1070
     0
1002
}
  0
LINE
  5
6DA
330
1F
100
AcDbEntity
  8
7A
 48
7.0
100
AcDbLine
 10
3318.571965474042
 20
1839.088743132129
 30
0.0
 11
3318.571965474042
 21
1000.932852132129
 31
0.0
1001
GENIUS_GENOREF_13
1005
A6D
  0
CIRCLE
  5
6DB
330
1F
100
AcDbEntity
  8
GEFÄß
100
AcDbCircle
 10
3318.571965474042
 20
1426.173499132129
 30
0.0
 40
370.0
1001
GENIUS_GENOREF_13
1005
A6D
  0
CIRCLE
  5
6DC
330
1F
100
AcDbEntity
  8
7A
 48
7.0
100
AcDbCircle
 10
3318.571965474042
 20
1426.173499132129
 30
0.0
 40
285.0
  0
LINE
  5
6DD
330
1F
100
AcDbEntity
  8
7A
 48
7.0
100
AcDbLine
 10
3318.571965474042
 20
1426.173499132129
 30
0.0
 11
3610.422526474043
 21
1257.673499132129
 31
0.0
  0
LINE
  5
6DE
330
1F
100
AcDbEntity
  8
7A
 48
7.0
100
AcDbLine
 10
2882.729417474043
 20
1426.173499132129
 30
0.0
 11
3731.897872474044
 21
1426.173499132129
 31
0.0
1001
GENIUS_GENOREF_13
1005
A6D
  0
LINE
  5
6DF
330
1F
100
AcDbEntity
  8
VERDECKTE
 48
0.3
100
AcDbLine
 10
3076.910170474043
 20
1309.744007132129
 30
0.0
 11
3096.910170474043
 21
1275.102991132129
 31
0.0
  0
LINE
  5
6E0
330
1F
100
AcDbEntity
  8
VERDECKTE
 48
0.3
100
AcDbLine
 10
3079.075233474043
 20
1310.994007132129
 30
0.0
 11
3099.075233474043
 21
1276.352991132129
 31
0.0
  0
LINE
  5
6E1
330
1F
100
AcDbEntity
  8
7A
 48
7.0
100
AcDbLine
 10
3318.571965474042
 20
1426.173499132129
 30
0.0
 11
3026.721404474043
 21
1257.673499132129
 31
0.0
  0
LINE
  5
6E2
330
1F
100
AcDbEntity
  8
VERDECKTE
 48
0.3
100
AcDbLine
 10
3041.934217474044
 20
1295.324134132129
 30
0.0
 11
3066.934217474044
 21
1252.022864132128
 31
0.0
  0
CIRCLE
  5
6E3
330
1F
100
AcDbEntity
  8
VERDECKTE
 48
0.3
100
AcDbCircle
 10
3071.754725474043
 20
1283.673499132129
 30
0.0
 40
6.7
  0
LINE
  5
6E4
330
1F
100
AcDbEntity
  8
VERDECKTE
 48
0.3
100
AcDbLine
 10
3095.995106474043
 20
1271.687927132129
 30
0.0
 11
3065.684217474044
 21
1254.187927132129
 31
0.0
  0
LINE
  5
6E5
330
1F
100
AcDbEntity
  8
VERDECKTE
 48
0.3
100
AcDbLine
 10
3097.245106474043
 20
1269.522864132129
 30
0.0
 11
3066.934217474044
 21
1252.022864132128
 31
0.0
  0
ARC
  5
6E6
330
1F
100
AcDbEntity
  8
VERDECKTE
 48
0.3
100
AcDbCircle
 10
3094.745106474043
 20
1273.852991132129
 30
0.0
 40
5.0
100
AcDbArc
 50
300.0000000000005
 51
29.99999999999447
1001
GENIUS_GENODEF_13
1002
{
1000
HIER
1070
     0
1002
}
1002
{
1000
MANEDIT
1070
     0
1002
}
1002
{
1000
NOSEL
1070
     0
1002
}
1002
{
1000
BEHIND
1070
     0
1002
}
1002
{
1000
REACTOR
1002
}
1001
GENIUS_GENOBJ-N-FIL_13
1002
{
1000
OWNER
1000
GEN
1002
}
  0
ARC
  5
6E7
330
1F
100
AcDbEntity
  8
VERDECKTE
 48
0.3
100
AcDbCircle
 10
3094.745106474043
 20
1273.852991132129
 30
0.0
 40
2.5
100
AcDbArc
 50
300.0000000000005
 51
29.99999999999447
1001
GENIUS_GENODEF_13
1002
{
1000
HIER
1070
     0
1002
}
1002
{
1000
MANEDIT
1070
     0
1002
}
1002
{
1000
NOSEL
1070
     0
1002
}
1002
{
1000
BEHIND
1070
     0
1002
}
1002
{
1000
REACTOR
1002
}
1001
GENIUS_GENOBJ-N-FIL_13
1002
{
1000
OWNER
1000
GEN
1002
}
  0
ARC
  5
6E8
330
1F
100
AcDbEntity
  8
VERDECKTE
 48
0.3
100
AcDbCircle
 10
3074.745106474043
 20
1308.494007132129
 30
0.0
 40
2.5
100
AcDbArc
 50
29.99999999999447
 51
120.0000000000005
1001
GENIUS_GENODEF_13
1002
{
1000
HIER
1070
     0
1002
}
1002
{
1000
MANEDIT
1070
     0
1002
}
1002
{
1000
NOSEL
1070
     0
1002
}
1002
{
1000
BEHIND
1070
     0
1002
}
1002
{
1000
REACTOR
1002
}
1001
GENIUS_GENOBJ-N-FIL_13
1002
{
1000
OWNER
1000
GEN
1002
}
  0
ARC
  5
6E9
330
1F
100
AcDbEntity
  8
VERDECKTE
 48
0.3
100
AcDbCircle
 10
3074.745106474043
 20
1308.494007132129
 30
0.0
 40
5.0
100
AcDbArc
 50
29.99999999999447
 51
120.0000000000005
1001
GENIUS_GENODEF_13
1002
{
1000
HIER
1070
     0
1002
}
1002
{
1000
MANEDIT
1070
     0
1002
}
1002
{
1000
NOSEL
1070
     0
1002
}
1002
{
1000
BEHIND
1070
     0
1002
}
1002
{
1000
REACTOR
1002
}
1001
GENIUS_GENOBJ-N-FIL_13
1002
{
1000
OWNER
1000
GEN
1002
}
  0
LINE
  5
6EA
330
1F
100
AcDbEntity
  8
VERDECKTE
 48
0.3
100
AcDbLine
 10
3073.495106474043
 20
1310.659071132129
 30
0.0
 11
3043.184217474044
 21
1293.159071132129
 31
0.0
  0
LINE
  5
6EB
330
1F
100
AcDbEntity
  8
VERDECKTE
 48
0.3
100
AcDbLine
 10
3072.245106474044
 20
1312.824134132129
 30
0.0
 11
3041.934217474044
 21
1295.324134132129
 31
0.0
  0
LINE
  5
6EC
330
1F
100
AcDbEntity
  8
VERDECKTE
 48
0.3
100
AcDbLine
 10
3338.571965474042
 20
1693.673499132129
 30
0.0
 11
3298.571965474042
 21
1693.673499132129
 31
0.0
  0
LINE
  5
6ED
330
1F
100
AcDbEntity
  8
VERDECKTE
 48
0.3
100
AcDbLine
 10
3338.571965474042
 20
1691.173499132129
 30
0.0
 11
3298.571965474042
 21
1691.173499132129
 31
0.0
  0
CIRCLE
  5
6EE
330
1F
100
AcDbEntity
  8
VERDECKTE
 48
0.3
100
AcDbCircle
 10
3318.571965474042
 20
1711.173499132129
 30
0.0
 40
6.7
  0
LINE
  5
6EF
330
1F
100
AcDbEntity
  8
VERDECKTE
 48
0.3
100
AcDbLine
 10
3343.571965474043
 20
1731.173499132129
 30
0.0
 11
3293.571965474042
 21
1731.173499132129
 31
0.0
  0
LINE
  5
6F0
330
1F
100
AcDbEntity
  8
VERDECKTE
 48
0.3
100
AcDbLine
 10
3296.071965474042
 20
1696.173499132129
 30
0.0
 11
3296.071965474042
 21
1731.173499132129
 31
0.0
  0
LINE
  5
6F1
330
1F
100
AcDbEntity
  8
VERDECKTE
 48
0.3
100
AcDbLine
 10
3293.571965474042
 20
1696.173499132129
 30
0.0
 11
3293.571965474042
 21
1731.173499132129
 31
0.0
  0
ARC
  5
6F2
330
1F
100
AcDbEntity
  8
VERDECKTE
 48
0.3
100
AcDbCircle
 10
3298.571965474042
 20
1696.173499132129
 30
0.0
 40
5.0
100
AcDbArc
 50
180.0
 51
270.0
1001
GENIUS_GENODEF_13
1002
{
1000
HIER
1070
     0
1002
}
1002
{
1000
MANEDIT
1070
     0
1002
}
1002
{
1000
NOSEL
1070
     0
1002
}
1002
{
1000
BEHIND
1070
     0
1002
}
1002
{
1000
REACTOR
1002
}
1001
GENIUS_GENOBJ-N-FIL_13
1002
{
1000
OWNER
1000
GEN
1002
}
  0
ARC
  5
6F3
330
1F
100
AcDbEntity
  8
VERDECKTE
 48
0.3
100
AcDbCircle
 10
3298.571965474042
 20
1696.173499132129
 30
0.0
 40
2.5
100
AcDbArc
 50
180.0
 51
270.0
1001
GENIUS_GENODEF_13
1002
{
1000
HIER
1070
     0
1002
}
1002
{
1000
MANEDIT
1070
     0
1002
}
1002
{
1000
NOSEL
1070
     0
1002
}
1002
{
1000
BEHIND
1070
     0
1002
}
1002
{
1000
REACTOR
1002
}
1001
GENIUS_GENOBJ-N-FIL_13
1002
{
1000
OWNER
1000
GEN
1002
}
  0
LINE
  5
6F4
330
1F
100
AcDbEntity
  8
VERDECKTE
 48
0.3
100
AcDbLine
 10
3341.071965474043
 20
1696.173499132129
 30
0.0
 11
3341.071965474043
 21
1731.173499132129
 31
0.0
  0
LINE
  5
6F5
330
1F
100
AcDbEntity
  8
VERDECKTE
 48
0.3
100
AcDbLine
 10
3343.571965474043
 20
1696.173499132129
 30
0.0
 11
3343.571965474043
 21
1731.173499132129
 31
0.0
  0
ARC
  5
6F6
330
1F
100
AcDbEntity
  8
VERDECKTE
 48
0.3
100
AcDbCircle
 10
3338.571965474042
 20
1696.173499132129
 30
0.0
 40
2.5
100
AcDbArc
 50
270.0
 51
0.0
1001
GENIUS_GENODEF_13
1002
{
1000
HIER
1070
     0
1002
}
1002
{
1000
MANEDIT
1070
     0
1002
}
1002
{
1000
NOSEL
1070
     0
1002
}
1002
{
1000
BEHIND
1070
     0
1002
}
1002
{
1000
REACTOR
1002
}
1001
GENIUS_GENOBJ-N-FIL_13
1002
{
1000
OWNER
1000
GEN
1002
}
  0
ARC
  5
6F7
330
1F
100
AcDbEntity
  8
VERDECKTE
 48
0.3
100
AcDbCircle
 10
3338.571965474042
 20
1696.173499132129
 30
0.0
 40
5.0
100
AcDbArc
 50
270.0
 51
0.0
1001
GENIUS_GENODEF_13
1002
{
1000
HIER
1070
     0
1002
}
1002
{
1000
MANEDIT
1070
     0
1002
}
1002
{
1000
NOSEL
1070
     0
1002
}
1002
{
1000
BEHIND
1070
     0
1002
}
1002
{
1000
REACTOR
1002
}
1001
GENIUS_GENOBJ-N-FIL_13
1002
{
1000
OWNER
1000
GEN
1002
}
  0
DIMENSION
  5
6F8
330
1F
100
AcDbEntity
  8
5
100
AcDbDimension
  2
*D16
 10
1741.700793474043
 20
795.7333751321292
 30
0.0
 11
1741.700793474043
 21
1327.823584132129
 31
0.0
 70
   160
  1
1066 {}{\C2;%%p8}
 71
     5
 42
1073.198871
  3
GEN-ISO
100
AcDbAlignedDimension
 13
2291.718314474043
 23
1868.932246132129
 33
0.0
 14
2030.395165474043
 24
795.7333751321291
 34
0.0
 50
90.0
100
AcDbRotatedDimension
1001
ACAD
1000
DSTYLE
1002
{
1070
    40
1040
5.0
1070
   271
1070
     0
1070
   171
1070
     0
1070
   272
1070
     0
1070
   274
1070
     1
1070
    47
1040
8.0
1070
    48
1040
8.0
1002
}
1001
GENIUS_GENDTOL_13
1000
TolPm
1000
h7
1000
{$3%%p$P}
1040
1066.0
  0
ARC
  5
6F9
330
1F
100
AcDbEntity
  8
0
100
AcDbCircle
 10
2291.718314474043
 20
1388.516734132129
 30
0.0
 40
503.0
100
AcDbArc
 50
230.245176999991
 51
309.754823000009
  0
ARC
  5
6FA
330
1F
100
AcDbEntity
  8
0
100
AcDbCircle
 10
2291.718314474043
 20
1388.516734132129
 30
0.0
 40
500.0
100
AcDbArc
 50
230.2565449999941
 51
309.7434550000059
  0
ARC
  5
6FB
330
1F
100
AcDbEntity
  8
GEFÄß
100
AcDbCircle
 10
2545.618314474043
 20
1018.039913132129
 30
0.0
 40
114.0
100
AcDbArc
 50
302.084645999999
 51
0.0
1001
GENIUS_GENODEF_13
1002
{
1000
HIER
1070
     0
1002
}
1002
{
1000
MANEDIT
1070
     0
1002
}
1002
{
1000
NOSEL
1070
     0
1002
}
1002
{
1000
BEHIND
1070
     0
1002
}
1002
{
1000
REACTOR
1002
}
1001
GENIUS_GENOBJ-N-FIL_13
1002
{
1000
OWNER
1000
GEN
1002
}
  0
ARC
  5
6FC
330
1F
100
AcDbEntity
  8
GEFÄß
100
AcDbCircle
 10
2545.618314474043
 20
1018.039913132129
 30
0.0
 40
116.1
100
AcDbArc
 50
302.084645999999
 51
0.0
1001
GENIUS_GENODEF_13
1002
{
1000
HIER
1070
     0
1002
}
1002
{
1000
MANEDIT
1070
     0
1002
}
1002
{
1000
NOSEL
1070
     0
1002
}
1002
{
1000
BEHIND
1070
     0
1002
}
1002
{
1000
REACTOR
1002
}
1001
GENIUS_GENOBJ-N-FIL_13
1002
{
1000
OWNER
1000
GEN
1002
}
  0
ARC
  5
6FD
330
1F
100
AcDbEntity
  8
GEFÄß
100
AcDbCircle
 10
2037.818314474043
 20
1018.039913132129
 30
0.0
 40
114.0
100
AcDbArc
 50
180.0
 51
237.9153540000011
1001
GENIUS_GENODEF_13
1002
{
1000
HIER
1070
     0
1002
}
1002
{
1000
MANEDIT
1070
     0
1002
}
1002
{
1000
NOSEL
1070
     0
1002
}
1002
{
1000
BEHIND
1070
     0
1002
}
1002
{
1000
REACTOR
1002
}
1001
GENIUS_GENOBJ-N-FIL_13
1002
{
1000
OWNER
1000
GEN
1002
}
  0
ARC
  5
6FE
330
1F
100
AcDbEntity
  8
GEFÄß
100
AcDbCircle
 10
2037.818314474043
 20
1018.039913132129
 30
0.0
 40
116.1
100
AcDbArc
 50
180.0
 51
237.9153540000011
1001
GENIUS_GENODEF_13
1002
{
1000
HIER
1070
     0
1002
}
1002
{
1000
MANEDIT
1070
     0
1002
}
1002
{
1000
NOSEL
1070
     0
1002
}
1002
{
1000
BEHIND
1070
     0
1002
}
1002
{
1000
REACTOR
1002
}
1001
GENIUS_GENOBJ-N-FIL_13
1002
{
1000
OWNER
1000
GEN
1002
}
  0
LINE
  5
6FF
330
1F
100
AcDbEntity
  8
7A
 48
7.0
100
AcDbLine
 10
2291.718314474043
 20
1880.615208132129
 30
0.0
 11
2291.718314474043
 21
814.8592201321291
 31
0.0
1001
GENIUS_GENODEF_13
1002
{
1000
HIER
1070
     0
1002
}
1002
{
1000
MANEDIT
1070
     0
1002
}
1002
{
1000
NOSEL
1070
     0
1002
}
1002
{
1000
BEHIND
1070
     0
1002
}
1002
{
1000
REACTOR
1002
}
1001
GENIUS_GENOBJ-N-CEN_13
1002
{
1000
OWNER
1000
GEN
1002
}
  0
DIMENSION
  5
700
330
1F
100
AcDbEntity
  8
5
100
AcDbDimension
  2
*D17
 10
1810.326287474043
 20
828.5167341321292
 30
0.0
 11
1810.326287474043
 21
1331.743322132129
 31
0.0
 70
   160
  1
<> {}{\C2;%%p5}
 71
     5
 42
1040.415512
  3
GEN-ISO
100
AcDbAlignedDimension
 13
2291.718314474043
 23
1868.932246132129
 33
0.0
 14
2291.718314474043
 24
828.5167341321292
 34
0.0
 50
90.0
100
AcDbRotatedDimension
1001
ACAD
1000
DSTYLE
1002
{
1070
    47
1040
5.0
1070
    48
1040
5.0
1070
   272
1070
     0
1070
   271
1070
     0
1070
   274
1070
     1
1002
}
1001
GENIUS_GENDTOL_13
1000
TolPm
1000
h7
1000
{$3%%p$P}
1040
0.0
1000
<>{}{\C2;%%p5}
  0
DIMENSION
  5
701
330
1F
100
AcDbEntity
  8
5
100
AcDbDimension
  2
*D18
 10
2576.718314474044
 20
747.4921601321291
 30
0.0
 11
2291.718314474044
 21
759.2421601321291
 31
0.0
 70
    32
  1
%%c<> {}{\C2;%%p1.5}
 71
     5
 42
570.0
  3
GEN-ISO
100
AcDbAlignedDimension
 13
2006.718314474043
 23
778.4825991321292
 33
0.0
 14
2576.718314474044
 24
778.4825991321292
 34
0.0
100
AcDbRotatedDimension
1001
ACAD
1000
DSTYLE
1002
{
1070
    40
1040
5.0
1070
   271
1070
     0
1070
   171
1070
     0
1070
   272
1070
     1
1070
   274
1070
     2
1070
    47
1040
1.5
1070
    48
1040
1.5
1002
}
1001
GENIUS_GENDTOL_13
1000
TolPm
1000
h7
1000
{$3%%p$P}
1040
0.0
1000
%%c<>{}{\C2;%%p1.5}
  0
ARC
  5
702
330
1F
100
AcDbEntity
  8
GEFÄß
100
AcDbCircle
 10
2291.718314474043
 20
1423.032246132129
 30
0.0
 40
594.1
100
AcDbArc
 50
270.0
 51
302.084645999999
  0
ARC
  5
703
330
1F
100
AcDbEntity
  8
GEFÄß
100
AcDbCircle
 10
2291.718314474043
 20
1423.032246132129
 30
0.0
 40
592.0
100
AcDbArc
 50
270.0
 51
302.084645999999
  0
ARC
  5
704
330
1F
100
AcDbEntity
  8
GEFÄß
100
AcDbCircle
 10
2291.718314474043
 20
1423.032246132129
 30
0.0
 40
592.0
100
AcDbArc
 50
237.9153540000011
 51
270.0
  0
ARC
  5
705
330
1F
100
AcDbEntity
  8
GEFÄß
100
AcDbCircle
 10
2291.718314474043
 20
1423.032246132129
 30
0.0
 40
594.1
100
AcDbArc
 50
237.9153540000011
 51
270.0
  0
LINE
  5
706
330
1F
100
AcDbEntity
  8
7A
100
AcDbLine
 10
2006.718314474043
 20
776.7238121321292
 30
0.0
 11
2006.718314474043
 21
855.9529051321291
 31
0.0
1001
GENIUS_GENODEF_13
1002
{
1000
HIER
1070
     0
1002
}
1002
{
1000
MANEDIT
1070
     0
1002
}
1002
{
1000
NOSEL
1070
     0
1002
}
1002
{
1000
BEHIND
1070
     0
1002
}
1002
{
1000
REACTOR
1002
}
1001
GENIUS_GENOBJ-N-CEN_13
1002
{
1000
OWNER
1000
GEN
1002
}
  0
LINE
  5
707
330
1F
100
AcDbEntity
  8
3
100
AcDbLine
 10
2028.395165474043
 20
797.7333751321291
 30
0.0
 11
2028.395165474043
 21
888.4978851321292
 31
0.0
  0
LINE
  5
708
330
1F
100
AcDbEntity
  8
0
100
AcDbLine
 10
2030.395165474043
 20
795.7333751321291
 30
0.0
 11
2030.395165474043
 21
887.7333751321291
 31
0.0
  0
LINE
  5
709
330
1F
100
AcDbEntity
  8
0
100
AcDbLine
 10
1990.395165474043
 20
795.7333751321291
 30
0.0
 11
1990.395165474043
 21
910.7333751321291
 31
0.0
  0
LINE
  5
70A
330
1F
100
AcDbEntity
  8
0
100
AcDbLine
 10
2030.395165474043
 20
795.7333751321291
 30
0.0
 11
1990.395165474043
 21
795.7333751321291
 31
0.0
  0
LINE
  5
70B
330
1F
100
AcDbEntity
  8
3
100
AcDbLine
 10
1990.214971474043
 20
797.7333751321291
 30
0.0
 11
2028.395165474043
 21
797.7333751321291
 31
0.0
  0
ARC
  5
70C
330
1F
100
AcDbEntity
  8
0
100
AcDbCircle
 10
2042.045897474043
 20
964.544400132129
 30
0.0
 40
74.588368
100
AcDbArc
 50
226.1734899999896
 51
242.7511539999974
  0
ARC
  5
70D
330
1F
100
AcDbEntity
  8
0
100
AcDbCircle
 10
1992.895165474043
 20
905.8998761321291
 30
0.0
 40
2.5
100
AcDbArc
 50
56.80082799998869
 51
180.0
1001
GENIUS_GENODEF_13
1002
{
1000
HIER
1070
     0
1002
}
1002
{
1000
MANEDIT
1070
     0
1002
}
1002
{
1000
NOSEL
1070
     0
1002
}
1002
{
1000
BEHIND
1070
     0
1002
}
1002
{
1000
REACTOR
1002
}
1001
GENIUS_GENOBJ-N-FIL_13
1002
{
1000
OWNER
1000
GEN
1002
}
  0
ARC
  5
70E
330
1F
100
AcDbEntity
  8
0
100
AcDbCircle
 10
2274.514025474044
 20
1440.202362132129
 30
0.0
 40
604.0
100
AcDbArc
 50
243.8053570000005
 51
246.1608559999874
  0
LINE
  5
70F
330
1F
100
AcDbEntity
  8
7A
100
AcDbLine
 10
2576.718314474044
 20
776.7238121321292
 30
0.0
 11
2576.718314474044
 21
855.9529051321291
 31
0.0
1001
GENIUS_GENODEF_13
1002
{
1000
HIER
1070
     0
1002
}
1002
{
1000
MANEDIT
1070
     0
1002
}
1002
{
1000
NOSEL
1070
     0
1002
}
1002
{
1000
BEHIND
1070
     0
1002
}
1002
{
1000
REACTOR
1002
}
1001
GENIUS_GENOBJ-N-CEN_13
1002
{
1000
OWNER
1000
GEN
1002
}
  0
LINE
  5
710
330
1F
100
AcDbEntity
  8
0
100
AcDbLine
 10
2593.041463474043
 20
795.7333751321291
 30
0.0
 11
2593.041463474043
 21
905.8998761321291
 31
0.0
  0
LINE
  5
711
330
1F
100
AcDbEntity
  8
3
100
AcDbLine
 10
2555.041463474043
 20
797.7333751321291
 30
0.0
 11
2555.041463474043
 21
890.4764001321291
 31
0.0
  0
LINE
  5
712
330
1F
100
AcDbEntity
  8
0
100
AcDbLine
 10
2553.041463474043
 20
795.7333751321291
 30
0.0
 11
2553.041463474043
 21
889.492161132129
 31
0.0
  0
LINE
  5
713
330
1F
100
AcDbEntity
  8
3
100
AcDbLine
 10
2593.221656474043
 20
797.7333751321291
 30
0.0
 11
2555.041463474043
 21
797.7333751321291
 31
0.0
  0
LINE
  5
714
330
1F
100
AcDbEntity
  8
0
100
AcDbLine
 10
2553.041463474043
 20
795.7333751321291
 30
0.0
 11
2593.041463474043
 21
795.7333751321291
 31
0.0
  0
ARC
  5
715
330
1F
100
AcDbEntity
  8
0
100
AcDbCircle
 10
2541.390730474043
 20
964.544400132129
 30
0.0
 40
74.588368
100
AcDbArc
 50
297.2488460000026
 51
313.8265100000105
  0
ARC
  5
716
330
1F
100
AcDbEntity
  8
0
100
AcDbCircle
 10
2590.541463474044
 20
905.8998761321291
 30
0.0
 40
2.5
100
AcDbArc
 50
0.0
 51
123.1991720000113
1001
GENIUS_GENODEF_13
1002
{
1000
HIER
1070
     0
1002
}
1002
{
1000
MANEDIT
1070
     0
1002
}
1002
{
1000
NOSEL
1070
     0
1002
}
1002
{
1000
BEHIND
1070
     0
1002
}
1002
{
1000
REACTOR
1002
}
1001
GENIUS_GENOBJ-N-FIL_13
1002
{
1000
OWNER
1000
GEN
1002
}
  0
LINE
  5
717
330
1F
100
AcDbEntity
  8
7A
 48
7.0
100
AcDbLine
 10
1904.968314474043
 20
1313.516734132129
 30
0.0
 11
2678.468314474043
 21
1313.516734132129
 31
0.0
1001
GENIUS_GENODEF_13
1002
{
1000
HIER
1070
     0
1002
}
1002
{
1000
MANEDIT
1070
     0
1002
}
1002
{
1000
NOSEL
1070
     0
1002
}
1002
{
1000
BEHIND
1070
     0
1002
}
1002
{
1000
REACTOR
1002
}
1001
GENIUS_GENOBJ-N-CEN_13
1002
{
1000
OWNER
1000
GEN
1002
}
  0
LINE
  5
718
330
1F
100
AcDbEntity
  8
0
100
AcDbLine
 10
2649.994490474043
 20
1304.516734132129
 30
0.0
 11
1933.442138474043
 21
1304.516734132129
 31
0.0
  0
LINE
  5
719
330
1F
100
AcDbEntity
  8
0
100
AcDbLine
 10
2647.450345474043
 20
1306.106492132129
 30
0.0
 11
1935.986282474043
 21
1306.106492132129
 31
0.0
  0
LINE
  5
71A
330
1F
100
AcDbEntity
  8
0
100
AcDbLine
 10
2647.450345474043
 20
1320.926976132129
 30
0.0
 11
1935.986282474043
 21
1320.926976132129
 31
0.0
  0
LINE
  5
71B
330
1F
100
AcDbEntity
  8
0
100
AcDbLine
 10
2649.994490474043
 20
1322.516734132129
 30
0.0
 11
1933.442138474043
 21
1322.516734132129
 31
0.0
  0
LINE
  5
71C
330
1F
100
AcDbEntity
  8
0
100
AcDbLine
 10
2656.618314474043
 20
1331.516734132129
 30
0.0
 11
1926.818314474043
 21
1331.516734132129
 31
0.0
  0
ARC
  5
71D
330
1F
100
AcDbEntity
  8
GEFÄß
100
AcDbCircle
 10
2291.718314474043
 20
1274.832246132129
 30
0.0
 40
596.1
100
AcDbArc
 50
65.5144529999916
 51
69.37212000000643
  0
ARC
  5
71E
330
1F
100
AcDbEntity
  8
GEFÄß
100
AcDbCircle
 10
2291.718314474043
 20
1274.832246132129
 30
0.0
 40
595.1
100
AcDbArc
 50
65.5144529999916
 51
69.37212000000643
  0
HATCH
  5
71F
330
1F
100
AcDbEntity
  8
8
100
AcDbHatch
 10
0.0
 20
0.0
 30
0.0
210
0.0
220
0.0
230
1.0
  2
_U
 70
     0
 71
     0
 91
        1
 92
        1
 93
       17
 72
     2
 10
2037.818314474043
 20
1679.824579132128
 40
114.0
 50
122.084646
 51
180.0
 73
     1
 72
     1
 10
1923.818314474043
 20
1679.824579132128
 11
1923.818314474043
 21
1357.356431132129
 72
     2
 10
1925.918314474043
 20
1357.356431132129
 40
2.1
 50
180.0
 51
225.0
 73
     1
 72
     1
 10
1924.433390474043
 20
1355.871507132129
 11
1924.623949474043
 21
1355.680947132129
 72
     1
 10
1924.623949474043
 20
1355.680947132129
 11
1924.688162474043
 21
1355.616734132129
 72
     2
 10
1921.718314474043
 20
1352.646885132129
 40
4.2
 50
315.0
 51
360.0
 73
     0
 72
     1
 10
1925.918314474043
 20
1352.646885132129
 11
1925.918314474043
 21
1343.516734132129
 72
     1
 10
1925.918314474043
 20
1343.516734132129
 11
1923.818314474043
 21
1343.516734132129
 72
     1
 10
1923.818314474043
 20
1343.516734132129
 11
1923.818314474043
 21
1352.646885132129
 72
     2
 10
1921.718314474043
 20
1352.646885132129
 40
2.1
 50
360.0
 51
405.0
 73
     1
 72
     1
 10
1923.203238474043
 20
1354.131810132129
 11
1922.948465474043
 21
1354.386582132129
 72
     2
 10
1925.918314474043
 20
1357.356431132129
 40
4.2
 50
135.0
 51
180.0
 73
     0
 72
     1
 10
1921.718314474043
 20
1357.356431132129
 11
1921.718314474043
 21
1679.824579132128
 72
     2
 10
2037.818314474043
 20
1679.824579132128
 40
116.1
 50
180.0
 51
237.915354
 73
     0
 72
     2
 10
2291.718314474043
 20
1274.832246132129
 40
594.1
 50
237.915354
 51
298.807874
 73
     0
 72
     1
 10
2577.999720474044
 20
1795.406704132129
 11
2577.040422474043
 21
1793.537648132128
 72
     2
 10
2291.718314474043
 20
1274.832246132129
 40
592.0
 50
61.18631099999999
 51
122.084646
 73
     1
 97
        0
 75
     0
 76
     0
 52
45.0
 41
12.5
 77
     0
 78
     1
 53
45.0
 43
1613.813344474043
 44
12.92311413212917
 45
-8.838834764831842
 46
8.838834764831842
 79
     0
 98
        1
 10
1613.813344474043
 20
12.92311413212917
1001
GENIUS_GENODEF_13
1002
{
1000
HIER
1070
     0
1002
}
1002
{
1000
MANEDIT
1070
     0
1002
}
1002
{
1000
NOSEL
1070
     0
1002
}
1002
{
1000
BEHIND
1070
     0
1002
}
1002
{
1000
REACTOR
1002
}
1001
GENIUS_GENOBJ-N-HTC_13
1002
{
1000
OWNER
1000
GEN
1002
}
1001
GENIUS_GENHATCH_13
1002
{
1000
DATA
1040
45.0
1042
2.5
1000
_U
1070
     0
1011
1922.930453474043
1021
1589.486036132129
1031
0.0
1002
}
1002
{
1000
UCS
1010
0.0
1020
0.0
1030
0.0
1010
1.0
1020
0.0
1030
0.0
1010
0.0
1020
1.0
1030
0.0
1002
}
  0
DIMENSION
  5
720
330
1F
100
AcDbEntity
  8
5
100
AcDbDimension
  2
*D12
 10
2661.718314474043
 20
1516.728478132129
 30
0.0
 11
2361.538267474044
 21
1532.354896132129
 31
0.0
 70
   160
  1
%%c<>
 71
     5
 42
739.9999999999995
  3
GEN-ISO
100
AcDbAlignedDimension
 13
1921.718314474043
 23
1566.728478132129
 33
0.0
 14
2661.718314474043
 24
1566.728478132129
 34
0.0
100
AcDbRotatedDimension
1001
GENIUS_GENDTOL_13
1000

1000
h7
1000

1040
0.0
1000
%%c<>
1001
ACAD
1000
DSTYLE
1002
{
1070
   287
1070
     5
1070
   279
1070
     2
1002
}
  0
ARC
  5
721
330
1F
100
AcDbEntity
  8
GEFÄß
100
AcDbCircle
 10
2291.718314474043
 20
1274.832246132129
 30
0.0
 40
594.1
100
AcDbArc
 50
57.91535400000102
 51
90.0
  0
ARC
  5
722
330
1F
100
AcDbEntity
  8
GEFÄß
100
AcDbCircle
 10
2291.718314474043
 20
1274.832246132129
 30
0.0
 40
592.0
100
AcDbArc
 50
57.91535400000102
 51
90.0
  0
LINE
  5
723
330
1F
100
AcDbEntity
  8
GEFÄß
100
AcDbLine
 10
1924.623949474043
 20
1355.680947132129
 30
0.0
 11
2658.784314474043
 21
1355.680947132129
 31
0.0
  0
LINE
  5
724
330
1F
100
AcDbEntity
  8
GEFÄß
100
AcDbLine
 10
1923.818314474043
 20
1343.516734132129
 30
0.0
 11
2659.618314474043
 21
1343.516734132129
 31
0.0
  0
LINE
  5
725
330
1F
100
AcDbEntity
  8
GEFÄß
100
AcDbLine
 10
1921.718314474043
 20
1679.824579132128
 30
0.0
 11
1921.718314474043
 21
1357.356431132129
 31
0.0
1001
GENIUS_GENODEF_13
1002
{
1000
HIER
1070
     0
1002
}
1002
{
1000
MANEDIT
1070
     0
1002
}
1002
{
1000
NOSEL
1070
     0
1002
}
1002
{
1000
BEHIND
1070
     0
1002
}
1002
{
1000
REACTOR
1002
}
1001
GENIUS_GENOBJ-N-CEN_13
1002
{
1000
OWNER
1000
GEN
1002
}
  0
LINE
  5
726
330
1F
100
AcDbEntity
  8
GEFÄß
100
AcDbLine
 10
1923.818314474043
 20
1679.824579132128
 30
0.0
 11
1923.818314474043
 21
1357.356431132129
 31
0.0
1001
GENIUS_GENODEF_13
1002
{
1000
HIER
1070
     0
1002
}
1002
{
1000
MANEDIT
1070
     0
1002
}
1002
{
1000
NOSEL
1070
     0
1002
}
1002
{
1000
BEHIND
1070
     0
1002
}
1002
{
1000
REACTOR
1002
}
1001
GENIUS_GENOBJ-N-CEN_13
1002
{
1000
OWNER
1000
GEN
1002
}
  0
ARC
  5
727
330
1F
100
AcDbEntity
  8
0
100
AcDbCircle
 10
1911.818314474043
 20
1299.426752132129
 30
0.0
 40
20.0
100
AcDbArc
 50
337.8762909999949
 51
0.0
1001
GENIUS_GENODEF_13
1002
{
1000
HIER
1070
     0
1002
}
1002
{
1000
MANEDIT
1070
     0
1002
}
1002
{
1000
NOSEL
1070
     0
1002
}
1002
{
1000
BEHIND
1070
     0
1002
}
1002
{
1000
REACTOR
1002
}
1001
GENIUS_GENOBJ-N-FIL_13
1002
{
1000
OWNER
1000
GEN
1002
}
  0
LINE
  5
728
330
1F
100
AcDbEntity
  8
0
100
AcDbLine
 10
1924.845232474043
 20
1292.053191132129
 30
0.0
 11
1924.643383474043
 21
1292.733980132129
 31
0.0
  0
HATCH
  5
729
330
1F
100
AcDbEntity
  8
8
100
AcDbHatch
 10
0.0
 20
0.0
 30
0.0
210
0.0
220
0.0
230
1.0
  2
_U
 70
     0
 71
     0
 91
        1
 92
        1
 93
       20
 72
     1
 10
1929.142835474043
 20
1311.397057132129
 11
1931.818314474043
 21
1307.115396132129
 72
     1
 10
1931.818314474043
 20
1307.115396132129
 11
1931.818314474043
 21
1299.426752132129
 72
     2
 10
1911.818314474043
 20
1299.426752132129
 40
20.0
 50
0.0
 51
22.123709
 73
     0
 72
     1
 10
1930.345771474043
 20
1291.894599132129
 11
1930.290856474043
 21
1291.759521132129
 72
     2
 10
1948.818314474043
 20
1284.227368132129
 40
20.0
 50
517.876291
 51
540.0
 73
     1
 72
     1
 10
1928.818314474043
 20
1284.227368132129
 11
1926.818314474043
 21
1282.495983132129
 72
     2
 10
1906.818314474043
 20
1282.495983132129
 40
20.0
 50
360.0
 51
376.514758
 73
     1
 72
     1
 10
1925.993245474043
 20
1288.181229132129
 11
1924.643383474043
 21
1292.733980132129
 72
     2
 10
1943.818314474043
 20
1298.419226132129
 40
20.0
 50
163.485242
 51
180.0
 73
     0
 72
     1
 10
1923.818314474043
 20
1298.419226132129
 11
1923.818314474043
 21
1309.408815132129
 72
     2
 10
1921.818314474043
 20
1309.408815132129
 40
2.0
 50
360.0
 51
406.148633
 73
     1
 72
     2
 10
1925.764742474043
 20
1313.516734132129
 40
3.696429
 50
133.8513669999999
 51
226.148633
 73
     0
 72
     2
 10
1921.818314474043
 20
1317.624653132129
 40
2.0
 50
313.851367
 51
360.0
 73
     1
 72
     1
 10
1923.818314474043
 20
1317.624653132129
 11
1923.818314474043
 21
1328.516734132129
 72
     2
 10
1926.818314474043
 20
1328.516734132129
 40
3.0
 50
180.0
 51
270.0
 73
     0
 72
     1
 10
1926.818314474043
 20
1331.516734132129
 11
1928.818314474043
 21
1331.516734132129
 72
     2
 10
1928.818314474043
 20
1328.516734132129
 40
3.0
 50
-90.0
 51
0.0
 73
     0
 72
     1
 10
1931.818314474043
 20
1328.516734132129
 11
1931.818314474043
 21
1319.918072132129
 72
     1
 10
1931.818314474043
 20
1319.918072132129
 11
1929.142835474043
 21
1315.636411132129
 72
     2
 10
1932.535027474043
 20
1313.516734132129
 40
4.0
 50
507.9999999999998
 51
572.0
 73
     1
 97
        0
 75
     0
 76
     0
 52
45.0
 41
11.5
 77
     1
 78
     2
 53
135.0
 43
2748.804405474044
 44
178.010110132129
 45
8.131727983645296
 46
8.131727983645296
 79
     0
 53
45.0
 43
2908.333553474044
 44
-114.7973708678708
 45
8.131727983645296
 46
-8.131727983645296
 79
     0
 98
        1
 10
2748.804405474044
 20
178.010110132129
1001
GENIUS_GENODEF_13
1002
{
1000
HIER
1070
     0
1002
}
1002
{
1000
MANEDIT
1070
     0
1002
}
1002
{
1000
NOSEL
1070
     0
1002
}
1002
{
1000
BEHIND
1070
     0
1002
}
1002
{
1000
REACTOR
1002
}
1001
GENIUS_GENOBJ-N-HTC_13
1002
{
1000
OWNER
1000
GEN
1002
}
1001
GENIUS_GENHATCH_13
1002
{
1000
DATA
1040
45.0
1042
2.299999999999998
1000
_U
1070
     1
1011
1928.677364474043
1021
1320.807146132129
1031
0.0
1002
}
1002
{
1000
UCS
1010
0.0
1020
0.0
1030
0.0
1010
1.0
1020
0.0
1030
0.0
1010
0.0
1020
1.0
1030
0.0
1002
}
  0
LINE
  5
72A
330
1F
100
AcDbEntity
  8
GEFÄß
100
AcDbLine
 10
1923.818314474043
 20
1309.408815132129
 30
0.0
 11
1923.818314474043
 21
1018.039913132129
 31
0.0
1001
GENIUS_GENODEF_13
1002
{
1000
HIER
1070
     0
1002
}
1002
{
1000
MANEDIT
1070
     0
1002
}
1002
{
1000
NOSEL
1070
     0
1002
}
1002
{
1000
BEHIND
1070
     0
1002
}
1002
{
1000
REACTOR
1002
}
1001
GENIUS_GENOBJ-N-CEN_13
1002
{
1000
OWNER
1000
GEN
1002
}
  0
LINE
  5
72B
330
1F
100
AcDbEntity
  8
GEFÄß
100
AcDbLine
 10
1921.718314474043
 20
1309.303659132129
 30
0.0
 11
1921.718314474043
 21
1018.039913132129
 31
0.0
1001
GENIUS_GENODEF_13
1002
{
1000
HIER
1070
     0
1002
}
1002
{
1000
MANEDIT
1070
     0
1002
}
1002
{
1000
NOSEL
1070
     0
1002
}
1002
{
1000
BEHIND
1070
     0
1002
}
1002
{
1000
REACTOR
1002
}
1001
GENIUS_GENOBJ-N-CEN_13
1002
{
1000
OWNER
1000
GEN
1002
}
  0
LINE
  5
72C
330
1F
100
AcDbEntity
  8
0
100
AcDbLine
 10
1928.818314474043
 20
1284.227368132129
 30
0.0
 11
1936.038760474043
 21
1077.460838132129
 31
0.0
  0
LINE
  5
72D
330
1F
100
AcDbEntity
  8
0
100
AcDbLine
 10
1925.658118474043
 20
1287.065935132129
 30
0.0
 11
1932.979573474043
 21
1077.406883132129
 31
0.0
  0
ARC
  5
72E
330
1F
100
AcDbEntity
  8
0
100
AcDbCircle
 10
2035.977843474043
 20
1080.950787132129
 30
0.0
 40
100.0
100
AcDbArc
 50
182.0000000000007
 51
230.2565449999941
1001
GENIUS_GENODEF_13
1002
{
1000
HIER
1070
     0
1002
}
1002
{
1000
MANEDIT
1070
     0
1002
}
1002
{
1000
NOSEL
1070
     0
1002
}
1002
{
1000
BEHIND
1070
     0
1002
}
1002
{
1000
REACTOR
1002
}
1001
GENIUS_GENOBJ-N-FIL_13
1002
{
1000
OWNER
1000
GEN
1002
}
  0
ARC
  5
72F
330
1F
100
AcDbEntity
  8
0
100
AcDbCircle
 10
2035.916829474043
 20
1081.001531132129
 30
0.0
 40
103.0
100
AcDbArc
 50
182.0000000000007
 51
230.245176999991
1001
GENIUS_GENODEF_13
1002
{
1000
HIER
1070
     0
1002
}
1002
{
1000
MANEDIT
1070
     0
1002
}
1002
{
1000
NOSEL
1070
     0
1002
}
1002
{
1000
BEHIND
1070
     0
1002
}
1002
{
1000
REACTOR
1002
}
1001
GENIUS_GENOBJ-N-FIL_13
1002
{
1000
OWNER
1000
GEN
1002
}
  0
LINE
  5
730
330
1F
100
AcDbEntity
  8
0
100
AcDbLine
 10
1930.290856474043
 20
1291.759521132129
 30
0.0
 11
1930.345771474043
 21
1291.894599132129
 31
0.0
  0
ARC
  5
731
330
1F
100
AcDbEntity
  8
0
100
AcDbCircle
 10
1948.818314474043
 20
1284.227368132129
 30
0.0
 40
20.0
100
AcDbArc
 50
157.8762909999948
 51
180.0
1001
GENIUS_GENODEF_13
1002
{
1000
HIER
1070
     0
1002
}
1002
{
1000
MANEDIT
1070
     0
1002
}
1002
{
1000
NOSEL
1070
     0
1002
}
1002
{
1000
BEHIND
1070
     0
1002
}
1002
{
1000
REACTOR
1002
}
1001
GENIUS_GENOBJ-N-FIL_13
1002
{
1000
OWNER
1000
GEN
1002
}
  0
ARC
  5
732
330
1F
100
AcDbEntity
  8
0
100
AcDbCircle
 10
1905.670301474043
 20
1286.367945132129
 30
0.0
 40
20.0
100
AcDbArc
 50
2.000000000000698
 51
16.51475799999828
1001
GENIUS_GENODEF_13
1002
{
1000
HIER
1070
     0
1002
}
1002
{
1000
MANEDIT
1070
     0
1002
}
1002
{
1000
NOSEL
1070
     0
1002
}
1002
{
1000
BEHIND
1070
     0
1002
}
1002
{
1000
REACTOR
1002
}
1001
GENIUS_GENOBJ-N-FIL_13
1002
{
1000
OWNER
1000
GEN
1002
}
  0
LINE
  5
733
330
1F
100
AcDbEntity
  8
0
100
AcDbLine
 10
1921.718314474043
 20
1353.516734132129
 30
0.0
 11
1921.718314474043
 21
1317.729809132129
 31
0.0
1001
GENIUS_GENODEF_13
1002
{
1000
HIER
1070
     0
1002
}
1002
{
1000
MANEDIT
1070
     0
1002
}
1002
{
1000
NOSEL
1070
     0
1002
}
1002
{
1000
BEHIND
1070
     0
1002
}
1002
{
1000
REACTOR
1002
}
1001
GENIUS_GENOBJ-N-CEN_13
1002
{
1000
OWNER
1000
GEN
1002
}
  0
LINE
  5
734
330
1F
100
AcDbEntity
  8
0
100
AcDbLine
 10
1923.818314474043
 20
1353.440820132129
 30
0.0
 11
1923.818314474043
 21
1317.624653132129
 31
0.0
1001
GENIUS_GENODEF_13
1002
{
1000
HIER
1070
     0
1002
}
1002
{
1000
MANEDIT
1070
     0
1002
}
1002
{
1000
NOSEL
1070
     0
1002
}
1002
{
1000
BEHIND
1070
     0
1002
}
1002
{
1000
REACTOR
1002
}
1001
GENIUS_GENOBJ-N-CEN_13
1002
{
1000
OWNER
1000
GEN
1002
}
  0
LINE
  5
735
330
1F
100
AcDbEntity
  8
0
100
AcDbLine
 10
1931.818314474043
 20
1328.516734132129
 30
0.0
 11
1931.818314474043
 21
1319.918072132129
 31
0.0
1001
GENIUS_GENODEF_13
1002
{
1000
HIER
1070
     0
1002
}
1002
{
1000
MANEDIT
1070
     0
1002
}
1002
{
1000
NOSEL
1070
     0
1002
}
1002
{
1000
BEHIND
1070
     0
1002
}
1002
{
1000
REACTOR
1002
}
1001
GENIUS_GENOBJ-N-CEN_13
1002
{
1000
OWNER
1000
GEN
1002
}
  0
LINE
  5
736
330
1F
100
AcDbEntity
  8
0
100
AcDbLine
 10
1923.818314474043
 20
1328.516734132129
 30
0.0
 11
1923.818314474043
 21
1317.624653132129
 31
0.0
1001
GENIUS_GENODEF_13
1002
{
1000
HIER
1070
     0
1002
}
1002
{
1000
MANEDIT
1070
     0
1002
}
1002
{
1000
NOSEL
1070
     0
1002
}
1002
{
1000
BEHIND
1070
     0
1002
}
1002
{
1000
REACTOR
1002
}
1001
GENIUS_GENOBJ-N-CEN_13
1002
{
1000
OWNER
1000
GEN
1002
}
  0
LINE
  5
737
330
1F
100
AcDbEntity
  8
0
100
AcDbLine
 10
1933.442138474043
 20
1322.516734132129
 30
0.0
 11
1935.986282474043
 21
1320.926976132129
 31
0.0
  0
LINE
  5
738
330
1F
100
AcDbEntity
  8
0
100
AcDbLine
 10
1929.142835474043
 20
1315.636411132129
 30
0.0
 11
1933.442138474043
 21
1322.516734132129
 31
0.0
  0
LINE
  5
739
330
1F
100
AcDbEntity
  8
0
100
AcDbLine
 10
1932.018110474043
 20
1314.576572132129
 30
0.0
 11
1935.986282474043
 21
1320.926976132129
 31
0.0
  0
ARC
  5
73A
330
1F
100
AcDbEntity
  8
0
100
AcDbCircle
 10
1932.535027474043
 20
1313.516734132129
 30
0.0
 40
4.0
100
AcDbArc
 50
148.0000000000074
 51
211.9999999999926
1001
GENIUS_GENODEF_13
1002
{
1000
HIER
1070
     0
1002
}
1002
{
1000
MANEDIT
1070
     0
1002
}
1002
{
1000
NOSEL
1070
     0
1002
}
1002
{
1000
BEHIND
1070
     0
1002
}
1002
{
1000
REACTOR
1002
}
1001
GENIUS_GENOBJ-N-FIL_13
1002
{
1000
OWNER
1000
GEN
1002
}
  0
ARC
  5
73B
330
1F
100
AcDbEntity
  8
0
100
AcDbCircle
 10
1933.714206474043
 20
1313.516734132129
 30
0.0
 40
2.0
100
AcDbArc
 50
148.0000000000074
 51
211.9999999999926
1001
GENIUS_GENODEF_13
1002
{
1000
HIER
1070
     0
1002
}
1002
{
1000
MANEDIT
1070
     0
1002
}
1002
{
1000
NOSEL
1070
     0
1002
}
1002
{
1000
BEHIND
1070
     0
1002
}
1002
{
1000
REACTOR
1002
}
1001
GENIUS_GENOBJ-N-FIL_13
1002
{
1000
OWNER
1000
GEN
1002
}
  0
ARC
  5
73C
330
1F
100
AcDbEntity
  8
0
100
AcDbCircle
 10
1921.218314474043
 20
1317.729809132129
 30
0.0
 40
0.5
100
AcDbArc
 50
314.8865850000117
 51
0.0
1001
GENIUS_GENODEF_13
1002
{
1000
HIER
1070
     0
1002
}
1002
{
1000
MANEDIT
1070
     0
1002
}
1002
{
1000
NOSEL
1070
     0
1002
}
1002
{
1000
BEHIND
1070
     0
1002
}
1002
{
1000
REACTOR
1002
}
1001
GENIUS_GENOBJ-N-FIL_13
1002
{
1000
OWNER
1000
GEN
1002
}
  0
ARC
  5
73D
330
1F
100
AcDbEntity
  8
0
100
AcDbCircle
 10
1921.818314474043
 20
1317.624653132129
 30
0.0
 40
2.0
100
AcDbArc
 50
313.8513669999863
 51
0.0
1001
GENIUS_GENODEF_13
1002
{
1000
HIER
1070
     0
1002
}
1002
{
1000
MANEDIT
1070
     0
1002
}
1002
{
1000
NOSEL
1070
     0
1002
}
1002
{
1000
BEHIND
1070
     0
1002
}
1002
{
1000
REACTOR
1002
}
1001
GENIUS_GENOBJ-N-FIL_13
1002
{
1000
OWNER
1000
GEN
1002
}
  0
ARC
  5
73E
330
1F
100
AcDbEntity
  8
0
100
AcDbCircle
 10
1925.764742474043
 20
1313.516734132129
 30
0.0
 40
3.696429
100
AcDbArc
 50
133.8513669999862
 51
226.1486330000137
  0
ARC
  5
73F
330
1F
100
AcDbEntity
  8
0
100
AcDbCircle
 10
1926.818314474043
 20
1328.516734132129
 30
0.0
 40
3.0
100
AcDbArc
 50
90.0
 51
180.0
1001
GENIUS_GENODEF_13
1002
{
1000
HIER
1070
     0
1002
}
1002
{
1000
MANEDIT
1070
     0
1002
}
1002
{
1000
NOSEL
1070
     0
1002
}
1002
{
1000
BEHIND
1070
     0
1002
}
1002
{
1000
REACTOR
1002
}
1001
GENIUS_GENOBJ-N-FIL_13
1002
{
1000
OWNER
1000
GEN
1002
}
  0
ARC
  5
740
330
1F
100
AcDbEntity
  8
0
100
AcDbCircle
 10
1928.818314474043
 20
1328.516734132129
 30
0.0
 40
3.0
100
AcDbArc
 50
0.0
 51
90.0
1001
GENIUS_GENODEF_13
1002
{
1000
HIER
1070
     0
1002
}
1002
{
1000
MANEDIT
1070
     0
1002
}
1002
{
1000
NOSEL
1070
     0
1002
}
1002
{
1000
BEHIND
1070
     0
1002
}
1002
{
1000
REACTOR
1002
}
1001
GENIUS_GENOBJ-N-FIL_13
1002
{
1000
OWNER
1000
GEN
1002
}
  0
ARC
  5
741
330
1F
100
AcDbEntity
  8
0
100
AcDbCircle
 10
1943.818314474043
 20
1298.419226132129
 30
0.0
 40
20.0
100
AcDbArc
 50
180.0
 51
196.5147579999983
1001
GENIUS_GENOBJ-N-CEN_13
1002
{
1000
OWNER
1000
GEN
1002
}
1001
GENIUS_GENODEF_13
1002
{
1000
HIER
1070
     0
1002
}
1002
{
1000
MANEDIT
1070
     0
1002
}
1002
{
1000
NOSEL
1070
     0
1002
}
1002
{
1000
BEHIND
1070
     0
1002
}
1002
{
1000
REACTOR
1002
}
1001
GENIUS_GENOBJ-N-FIL_13
1002
{
1000
OWNER
1000
GEN
1002
}
  0
LINE
  5
742
330
1F
100
AcDbEntity
  8
0
100
AcDbLine
 10
1933.442138474043
 20
1304.516734132129
 30
0.0
 11
1935.986282474043
 21
1306.106492132129
 31
0.0
  0
LINE
  5
743
330
1F
100
AcDbEntity
  8
0
100
AcDbLine
 10
1931.818314474043
 20
1307.115396132129
 30
0.0
 11
1931.818314474043
 21
1299.426752132129
 31
0.0
1001
GENIUS_GENODEF_13
1002
{
1000
HIER
1070
     0
1002
}
1002
{
1000
MANEDIT
1070
     0
1002
}
1002
{
1000
NOSEL
1070
     0
1002
}
1002
{
1000
BEHIND
1070
     0
1002
}
1002
{
1000
REACTOR
1002
}
1001
GENIUS_GENOBJ-N-CEN_13
1002
{
1000
OWNER
1000
GEN
1002
}
  0
ARC
  5
744
330
1F
100
AcDbEntity
  8
0
100
AcDbCircle
 10
1921.218314474043
 20
1309.303659132129
 30
0.0
 40
0.5
100
AcDbArc
 50
0.0
 51
45.11341499998828
1001
GENIUS_GENODEF_13
1002
{
1000
HIER
1070
     0
1002
}
1002
{
1000
MANEDIT
1070
     0
1002
}
1002
{
1000
NOSEL
1070
     0
1002
}
1002
{
1000
BEHIND
1070
     0
1002
}
1002
{
1000
REACTOR
1002
}
1001
GENIUS_GENOBJ-N-FIL_13
1002
{
1000
OWNER
1000
GEN
1002
}
  0
HATCH
  5
745
330
1F
100
AcDbEntity
  8
8
100
AcDbHatch
 10
0.0
 20
0.0
 30
0.0
210
0.0
220
0.0
230
1.0
  2
_U
 70
     0
 71
     0
 91
        1
 92
        1
 93
        8
 72
     1
 10
1932.018110474043
 20
1312.456895132129
 11
1935.986282474043
 21
1306.106492132129
 72
     1
 10
1935.986282474043
 20
1306.106492132129
 11
1933.442138474043
 21
1304.516734132129
 72
     1
 10
1933.442138474043
 20
1304.516734132129
 11
1929.142835474043
 21
1311.397057132129
 72
     2
 10
1932.535027474043
 20
1313.516734132129
 40
4.0
 50
148.0
 51
212.0
 73
     0
 72
     1
 10
1929.142835474043
 20
1315.636411132129
 11
1933.442138474043
 21
1322.516734132129
 72
     1
 10
1933.442138474043
 20
1322.516734132129
 11
1935.986282474043
 21
1320.926976132129
 72
     1
 10
1935.986282474043
 20
1320.926976132129
 11
1932.018110474043
 21
1314.576572132129
 72
     2
 10
1933.714206474043
 20
1313.516734132129
 40
2.0
 50
507.9999999999998
 51
572.0
 73
     1
 97
        0
 75
     0
 76
     0
 52
135.0
 41
2.7
 77
     0
 78
     1
 53
45.0
 43
2908.333553474044
 44
-114.7973708678708
 45
1.909188309203678
 46
-1.909188309203678
 79
     0
 98
        1
 10
2937.220121474043
 20
-7.171765867870817
1001
GENIUS_GENODEF_13
1002
{
1000
HIER
1070
     0
1002
}
1002
{
1000
MANEDIT
1070
     0
1002
}
1002
{
1000
NOSEL
1070
     0
1002
}
1002
{
1000
BEHIND
1070
     0
1002
}
1002
{
1000
REACTOR
1002
}
1001
GENIUS_GENOBJ-N-HTC_13
1002
{
1000
OWNER
1000
GEN
1002
}
1001
GENIUS_GENHATCH_13
1002
{
1000
DATA
1040
135.0
1042
2.7
1000
_U
1070
     0
1011
1933.096051474043
1021
1318.029044132129
1031
0.0
1002
}
1002
{
1000
UCS
1010
0.0
1020
0.0
1030
0.0
1010
1.0
1020
0.0
1030
0.0
1010
0.0
1020
1.0
1030
0.0
1002
}
  0
LINE
  5
746
330
1F
100
AcDbEntity
  8
0
100
AcDbLine
 10
1929.142835474043
 20
1311.397057132129
 30
0.0
 11
1933.442138474043
 21
1304.516734132129
 31
0.0
  0
LINE
  5
747
330
1F
100
AcDbEntity
  8
0
100
AcDbLine
 10
1932.018110474043
 20
1312.456895132129
 30
0.0
 11
1935.986282474043
 21
1306.106492132129
 31
0.0
  0
ARC
  5
748
330
1F
100
AcDbEntity
  8
0
100
AcDbCircle
 10
1921.818314474043
 20
1309.408815132129
 30
0.0
 40
2.0
100
AcDbArc
 50
0.0
 51
46.14863300001372
1001
GENIUS_GENODEF_13
1002
{
1000
HIER
1070
     0
1002
}
1002
{
1000
MANEDIT
1070
     0
1002
}
1002
{
1000
NOSEL
1070
     0
1002
}
1002
{
1000
BEHIND
1070
     0
1002
}
1002
{
1000
REACTOR
1002
}
1001
GENIUS_GENOBJ-N-FIL_13
1002
{
1000
OWNER
1000
GEN
1002
}
  0
ARC
  5
749
330
1F
100
AcDbEntity
  8
0
100
AcDbCircle
 10
1925.414742474043
 20
1313.516734132129
 30
0.0
 40
5.446429
100
AcDbArc
 50
134.8865850000117
 51
225.1134149999883
  0
LINE
  5
74A
330
1F
100
AcDbEntity
  8
GEFÄß
100
AcDbLine
 10
1923.629691474043
 20
1353.516734132129
 30
0.0
 11
1921.718314474043
 21
1353.516734132129
 31
0.0
  0
ARC
  5
74B
330
1F
100
AcDbEntity
  8
GEFÄß
100
AcDbCircle
 10
1925.918314474043
 20
1357.356431132129
 30
0.0
 40
2.1
100
AcDbArc
 50
180.0
 51
224.9999999999908
1001
GENIUS_GENODEF_13
1002
{
1000
HIER
1070
     0
1002
}
1002
{
1000
MANEDIT
1070
     0
1002
}
1002
{
1000
NOSEL
1070
     0
1002
}
1002
{
1000
BEHIND
1070
     0
1002
}
1002
{
1000
REACTOR
1002
}
1001
GENIUS_GENOBJ-N-FIL_13
1002
{
1000
OWNER
1000
GEN
1002
}
  0
LINE
  5
74C
330
1F
100
AcDbEntity
  8
GEFÄß
100
AcDbLine
 10
1923.203238474043
 20
1354.131810132129
 30
0.0
 11
1922.948465474043
 21
1354.386582132129
 31
0.0
  0
LINE
  5
74D
330
1F
100
AcDbEntity
  8
GEFÄß
100
AcDbLine
 10
1924.688162474043
 20
1355.616734132129
 30
0.0
 11
1924.433390474043
 21
1355.871507132129
 31
0.0
  0
LINE
  5
74E
330
1F
100
AcDbEntity
  8
0
100
AcDbLine
 10
1921.718314474043
 20
1353.516734132129
 30
0.0
 11
1923.462517474043
 21
1353.516734132129
 31
0.0
  0
ARC
  5
74F
330
1F
100
AcDbEntity
  8
GEFÄß
100
AcDbCircle
 10
1921.718314474043
 20
1352.646885132129
 30
0.0
 40
4.2
100
AcDbArc
 50
0.0
 51
44.99999999999078
1001
GENIUS_GENOBJ-N-CEN_13
1002
{
1000
OWNER
1000
GEN
1002
}
1001
GENIUS_GENODEF_13
1002
{
1000
HIER
1070
     0
1002
}
1002
{
1000
MANEDIT
1070
     0
1002
}
1002
{
1000
NOSEL
1070
     0
1002
}
1002
{
1000
BEHIND
1070
     0
1002
}
1002
{
1000
REACTOR
1002
}
1001
GENIUS_GENOBJ-N-FIL_13
1002
{
1000
OWNER
1000
GEN
1002
}
  0
ARC
  5
750
330
1F
100
AcDbEntity
  8
GEFÄß
100
AcDbCircle
 10
1921.718314474043
 20
1352.646885132129
 30
0.0
 40
2.1
100
AcDbArc
 50
0.0
 51
44.99999999999078
1001
GENIUS_GENOBJ-N-CEN_13
1002
{
1000
OWNER
1000
GEN
1002
}
1001
GENIUS_GENODEF_13
1002
{
1000
HIER
1070
     0
1002
}
1002
{
1000
MANEDIT
1070
     0
1002
}
1002
{
1000
NOSEL
1070
     0
1002
}
1002
{
1000
BEHIND
1070
     0
1002
}
1002
{
1000
REACTOR
1002
}
1001
GENIUS_GENOBJ-N-FIL_13
1002
{
1000
OWNER
1000
GEN
1002
}
  0
ARC
  5
751
330
1F
100
AcDbEntity
  8
GEFÄß
100
AcDbCircle
 10
1925.918314474043
 20
1357.356431132129
 30
0.0
 40
2.1
100
AcDbArc
 50
180.0
 51
224.9999999999908
1001
GENIUS_GENODEF_13
1002
{
1000
HIER
1070
     0
1002
}
1002
{
1000
MANEDIT
1070
     0
1002
}
1002
{
1000
NOSEL
1070
     0
1002
}
1002
{
1000
BEHIND
1070
     0
1002
}
1002
{
1000
REACTOR
1002
}
1001
GENIUS_GENOBJ-N-FIL_13
1002
{
1000
OWNER
1000
GEN
1002
}
  0
ARC
  5
752
330
1F
100
AcDbEntity
  8
GEFÄß
100
AcDbCircle
 10
1925.918314474043
 20
1357.356431132129
 30
0.0
 40
4.2
100
AcDbArc
 50
180.0
 51
224.9999999999908
1001
GENIUS_GENODEF_13
1002
{
1000
HIER
1070
     0
1002
}
1002
{
1000
MANEDIT
1070
     0
1002
}
1002
{
1000
NOSEL
1070
     0
1002
}
1002
{
1000
BEHIND
1070
     0
1002
}
1002
{
1000
REACTOR
1002
}
1001
GENIUS_GENOBJ-N-FIL_13
1002
{
1000
OWNER
1000
GEN
1002
}
  0
LINE
  5
753
330
1F
100
AcDbEntity
  8
GEFÄß
100
AcDbLine
 10
1924.688162474043
 20
1355.616734132129
 30
0.0
 11
1924.433390474043
 21
1355.871507132129
 31
0.0
  0
LINE
  5
754
330
1F
100
AcDbEntity
  8
GEFÄß
100
AcDbLine
 10
1923.203238474043
 20
1354.131810132129
 30
0.0
 11
1922.948465474043
 21
1354.386582132129
 31
0.0
  0
LINE
  5
755
330
1F
100
AcDbEntity
  8
GEFÄß
100
AcDbLine
 10
1925.918314474043
 20
1352.646885132129
 30
0.0
 11
1925.918314474043
 21
1343.516734132129
 31
0.0
1001
GENIUS_GENODEF_13
1002
{
1000
HIER
1070
     0
1002
}
1002
{
1000
MANEDIT
1070
     0
1002
}
1002
{
1000
NOSEL
1070
     0
1002
}
1002
{
1000
BEHIND
1070
     0
1002
}
1002
{
1000
REACTOR
1002
}
1001
GENIUS_GENOBJ-N-CEN_13
1002
{
1000
OWNER
1000
GEN
1002
}
  0
LINE
  5
756
330
1F
100
AcDbEntity
  8
GEFÄß
100
AcDbLine
 10
1923.629691474043
 20
1353.516734132129
 30
0.0
 11
1921.718314474043
 21
1353.516734132129
 31
0.0
  0
ARC
  5
757
330
1F
100
AcDbEntity
  8
GEFÄß
100
AcDbCircle
 10
2291.718314474043
 20
1274.832246132129
 30
0.0
 40
594.1
100
AcDbArc
 50
90.0
 51
122.0846459999989
  0
ARC
  5
758
330
1F
100
AcDbEntity
  8
GEFÄß
100
AcDbCircle
 10
2291.718314474043
 20
1274.832246132129
 30
0.0
 40
592.0
100
AcDbArc
 50
90.0
 51
122.0846459999989
  0
ARC
  5
759
330
1F
100
AcDbEntity
  8
GEFÄß
100
AcDbCircle
 10
2037.818314474043
 20
1679.824579132128
 30
0.0
 40
116.1
100
AcDbArc
 50
122.0846459999989
 51
180.0
1001
GENIUS_GENODEF_13
1002
{
1000
HIER
1070
     0
1002
}
1002
{
1000
MANEDIT
1070
     0
1002
}
1002
{
1000
NOSEL
1070
     0
1002
}
1002
{
1000
BEHIND
1070
     0
1002
}
1002
{
1000
REACTOR
1002
}
1001
GENIUS_GENOBJ-N-FIL_13
1002
{
1000
OWNER
1000
GEN
1002
}
  0
ARC
  5
75A
330
1F
100
AcDbEntity
  8
GEFÄß
100
AcDbCircle
 10
2037.818314474043
 20
1679.824579132128
 30
0.0
 40
114.0
100
AcDbArc
 50
122.0846459999989
 51
180.0
1001
GENIUS_GENODEF_13
1002
{
1000
HIER
1070
     0
1002
}
1002
{
1000
MANEDIT
1070
     0
1002
}
1002
{
1000
NOSEL
1070
     0
1002
}
1002
{
1000
BEHIND
1070
     0
1002
}
1002
{
1000
REACTOR
1002
}
1001
GENIUS_GENOBJ-N-FIL_13
1002
{
1000
OWNER
1000
GEN
1002
}
  0
LINE
  5
75B
330
1F
100
AcDbEntity
  8
0
100
AcDbLine
 10
2501.370314474044
 20
1831.779325132129
 30
0.0
 11
2501.037707474043
 21
1830.836024132129
 31
0.0
  0
HATCH
  5
75C
330
1F
100
AcDbEntity
  8
8
100
AcDbHatch
 10
0.0
 20
0.0
 30
0.0
210
0.0
220
0.0
230
1.0
  2
_U
 70
     0
 71
     0
 91
        1
 92
        1
 93
       17
 72
     2
 10
2661.718314474043
 20
1352.646885132129
 40
2.1
 50
180.0
 51
225.0
 73
     0
 72
     1
 10
2660.233390474043
 20
1354.131810132129
 11
2660.488162474044
 21
1354.386582132129
 72
     2
 10
2657.518314474043
 20
1357.356431132129
 40
4.2
 50
315.0
 51
360.0
 73
     1
 72
     1
 10
2661.718314474043
 20
1357.356431132129
 11
2661.718314474043
 21
1679.824579132128
 72
     2
 10
2545.618314474043
 20
1679.824579132128
 40
116.1
 50
0.0
 51
57.915354
 73
     1
 72
     2
 10
2291.718314474043
 20
1274.832246132129
 40
594.1
 50
57.915354
 51
60.37184299999999
 73
     1
 72
     1
 10
2585.422998474043
 20
1791.254910132128
 11
2584.463207474043
 21
1789.384894132129
 72
     2
 10
2291.718314474043
 20
1274.832246132129
 40
592.0
 50
299.636885
 51
302.084646
 73
     0
 72
     2
 10
2545.618314474043
 20
1679.824579132128
 40
114.0
 50
302.084646
 51
360.0
 73
     0
 72
     1
 10
2659.618314474043
 20
1679.824579132128
 11
2659.618314474043
 21
1357.356431132129
 72
     2
 10
2657.518314474043
 20
1357.356431132129
 40
2.1
 50
0.0
 51
45.0
 73
     0
 72
     1
 10
2659.003238474042
 20
1355.871507132129
 11
2658.812679474043
 21
1355.680947132129
 72
     1
 10
2658.812679474043
 20
1355.680947132129
 11
2658.748465474043
 21
1355.616734132129
 72
     2
 10
2661.718314474043
 20
1352.646885132129
 40
4.2
 50
135.0
 51
180.0
 73
     1
 72
     1
 10
2657.518314474043
 20
1352.646885132129
 11
2657.518314474043
 21
1343.516734132129
 72
     1
 10
2657.518314474043
 20
1343.516734132129
 11
2659.618314474043
 21
1343.516734132129
 72
     1
 10
2659.618314474043
 20
1343.516734132129
 11
2659.618314474043
 21
1352.646885132129
 97
        0
 75
     0
 76
     0
 52
45.0
 41
12.5
 77
     0
 78
     1
 53
45.0
 43
1613.813344474043
 44
12.92311413212917
 45
-8.838834764831842
 46
8.838834764831842
 79
     0
 98
        1
 10
1613.813344474043
 20
12.92311413212917
1001
GENIUS_GENODEF_13
1002
{
1000
HIER
1070
     0
1002
}
1002
{
1000
MANEDIT
1070
     0
1002
}
1002
{
1000
NOSEL
1070
     0
1002
}
1002
{
1000
BEHIND
1070
     0
1002
}
1002
{
1000
REACTOR
1002
}
1001
GENIUS_GENOBJ-N-HTC_13
1002
{
1000
OWNER
1000
GEN
1002
}
1001
GENIUS_GENHATCH_13
1002
{
1000
DATA
1040
45.0
1042
2.5
1000
_U
1070
     0
1011
2661.227799474043
1021
1581.611401132129
1031
0.0
1002
}
1002
{
1000
UCS
1010
0.0
1020
0.0
1030
0.0
1010
1.0
1020
0.0
1030
0.0
1010
0.0
1020
1.0
1030
0.0
1002
}
  0
LINE
  5
75D
330
1F
100
AcDbEntity
  8
GEFÄß
100
AcDbLine
 10
2661.718314474043
 20
1679.824579132128
 30
0.0
 11
2661.718314474043
 21
1357.356431132129
 31
0.0
1001
GENIUS_GENODEF_13
1002
{
1000
HIER
1070
     0
1002
}
1002
{
1000
MANEDIT
1070
     0
1002
}
1002
{
1000
NOSEL
1070
     0
1002
}
1002
{
1000
BEHIND
1070
     0
1002
}
1002
{
1000
REACTOR
1002
}
1001
GENIUS_GENOBJ-N-CEN_13
1002
{
1000
OWNER
1000
GEN
1002
}
  0
LINE
  5
75E
330
1F
100
AcDbEntity
  8
GEFÄß
100
AcDbLine
 10
2659.618314474043
 20
1679.824579132128
 30
0.0
 11
2659.618314474043
 21
1357.356431132129
 31
0.0
1001
GENIUS_GENODEF_13
1002
{
1000
HIER
1070
     0
1002
}
1002
{
1000
MANEDIT
1070
     0
1002
}
1002
{
1000
NOSEL
1070
     0
1002
}
1002
{
1000
BEHIND
1070
     0
1002
}
1002
{
1000
REACTOR
1002
}
1001
GENIUS_GENOBJ-N-CEN_13
1002
{
1000
OWNER
1000
GEN
1002
}
  0
LINE
  5
75F
330
1F
100
AcDbEntity
  8
0
100
AcDbLine
 10
2658.591395474043
 20
1292.053191132129
 30
0.0
 11
2658.793245474043
 21
1292.733980132129
 31
0.0
  0
ARC
  5
760
330
1F
100
AcDbEntity
  8
0
100
AcDbCircle
 10
2671.618314474043
 20
1299.426752132129
 30
0.0
 40
20.0
100
AcDbArc
 50
180.0
 51
202.1237090000051
1001
GENIUS_GENODEF_13
1002
{
1000
HIER
1070
     0
1002
}
1002
{
1000
MANEDIT
1070
     0
1002
}
1002
{
1000
NOSEL
1070
     0
1002
}
1002
{
1000
BEHIND
1070
     0
1002
}
1002
{
1000
REACTOR
1002
}
1001
GENIUS_GENOBJ-N-FIL_13
1002
{
1000
OWNER
1000
GEN
1002
}
  0
HATCH
  5
761
330
1F
100
AcDbEntity
  8
8
100
AcDbHatch
 10
0.0
 20
0.0
 30
0.0
210
0.0
220
0.0
230
1.0
  2
_U
 70
     0
 71
     0
 91
        1
 92
        1
 93
       20
 72
     1
 10
2654.293793474043
 20
1311.397057132129
 11
2651.618314474043
 21
1307.115396132129
 72
     1
 10
2651.618314474043
 20
1307.115396132129
 11
2651.618314474043
 21
1299.426752132129
 72
     2
 10
2671.618314474043
 20
1299.426752132129
 40
20.0
 50
180.0
 51
202.123709
 73
     1
 72
     1
 10
2653.090856474043
 20
1291.894599132129
 11
2653.145771474043
 21
1291.759521132129
 72
     2
 10
2634.618314474044
 20
1284.227368132129
 40
20.0
 50
337.876291
 51
360.0
 73
     0
 72
     1
 10
2654.618314474043
 20
1284.227368132129
 11
2656.618314474043
 21
1282.495983132129
 72
     2
 10
2676.618314474043
 20
1282.495983132129
 40
20.0
 50
180.0
 51
196.514758
 73
     0
 72
     1
 10
2657.443383474043
 20
1288.181229132129
 11
2658.793245474043
 21
1292.733980132129
 72
     2
 10
2639.618314474044
 20
1298.419226132129
 40
20.0
 50
343.485242
 51
360.0
 73
     1
 72
     1
 10
2659.618314474043
 20
1298.419226132129
 11
2659.618314474043
 21
1309.408815132129
 72
     2
 10
2661.618314474043
 20
1309.408815132129
 40
2.0
 50
180.0
 51
226.148633
 73
     0
 72
     2
 10
2657.671885474043
 20
1313.516734132129
 40
3.696429
 50
313.851367
 51
406.148633
 73
     1
 72
     2
 10
2661.618314474043
 20
1317.624653132129
 40
2.0
 50
133.8513669999999
 51
180.0
 73
     0
 72
     1
 10
2659.618314474043
 20
1317.624653132129
 11
2659.618314474043
 21
1328.516734132129
 72
     2
 10
2656.618314474043
 20
1328.516734132129
 40
3.0
 50
360.0
 51
450.0
 73
     1
 72
     1
 10
2656.618314474043
 20
1331.516734132129
 11
2654.618314474043
 21
1331.516734132129
 72
     2
 10
2654.618314474043
 20
1328.516734132129
 40
3.0
 50
90.0
 51
180.0
 73
     1
 72
     1
 10
2651.618314474043
 20
1328.516734132129
 11
2651.618314474043
 21
1319.918072132129
 72
     1
 10
2651.618314474043
 20
1319.918072132129
 11
2654.293793474043
 21
1315.636411132129
 72
     2
 10
2650.901600474044
 20
1313.516734132129
 40
4.0
 50
328.0
 51
392.0
 73
     0
 97
        0
 75
     0
 76
     0
 52
45.0
 41
11.5
 77
     1
 78
     2
 53
45.0
 43
1834.632223474043
 44
178.010110132129
 45
-8.131727983645296
 46
8.131727983645296
 79
     0
 53
135.0
 43
1675.103074474043
 44
-114.7973708678708
 45
-8.131727983645296
 46
-8.131727983645296
 79
     0
 98
        1
 10
1834.632223474043
 20
178.010110132129
1001
GENIUS_GENODEF_13
1002
{
1000
HIER
1070
     0
1002
}
1002
{
1000
MANEDIT
1070
     0
1002
}
1002
{
1000
NOSEL
1070
     0
1002
}
1002
{
1000
BEHIND
1070
     0
1002
}
1002
{
1000
REACTOR
1002
}
1001
GENIUS_GENOBJ-N-HTC_13
1002
{
1000
OWNER
1000
GEN
1002
}
1001
GENIUS_GENHATCH_13
1002
{
1000
DATA
1040
45.0
1042
2.299999999999998
1000
_U
1070
     1
1011
2654.759264474042
1021
1320.807146132129
1031
0.0
1002
}
1002
{
1000
UCS
1010
0.0
1020
0.0
1030
0.0
1010
1.0
1020
0.0
1030
0.0
1010
0.0
1020
1.0
1030
0.0
1002
}
  0
LINE
  5
762
330
1F
100
AcDbEntity
  8
GEFÄß
100
AcDbLine
 10
2659.618314474043
 20
1309.408815132129
 30
0.0
 11
2659.618314474043
 21
1018.039913132129
 31
0.0
1001
GENIUS_GENODEF_13
1002
{
1000
HIER
1070
     0
1002
}
1002
{
1000
MANEDIT
1070
     0
1002
}
1002
{
1000
NOSEL
1070
     0
1002
}
1002
{
1000
BEHIND
1070
     0
1002
}
1002
{
1000
REACTOR
1002
}
1001
GENIUS_GENOBJ-N-CEN_13
1002
{
1000
OWNER
1000
GEN
1002
}
  0
LINE
  5
763
330
1F
100
AcDbEntity
  8
GEFÄß
100
AcDbLine
 10
2661.718314474043
 20
1309.303659132129
 30
0.0
 11
2661.718314474043
 21
1018.039913132129
 31
0.0
1001
GENIUS_GENODEF_13
1002
{
1000
HIER
1070
     0
1002
}
1002
{
1000
MANEDIT
1070
     0
1002
}
1002
{
1000
NOSEL
1070
     0
1002
}
1002
{
1000
BEHIND
1070
     0
1002
}
1002
{
1000
REACTOR
1002
}
1001
GENIUS_GENOBJ-N-CEN_13
1002
{
1000
OWNER
1000
GEN
1002
}
  0
LINE
  5
764
330
1F
100
AcDbEntity
  8
0
100
AcDbLine
 10
2657.778510474043
 20
1287.065935132129
 30
0.0
 11
2650.457054474043
 21
1077.406883132129
 31
0.0
  0
LINE
  5
765
330
1F
100
AcDbEntity
  8
0
100
AcDbLine
 10
2654.618314474043
 20
1284.227368132129
 30
0.0
 11
2647.397867474044
 21
1077.460838132129
 31
0.0
  0
ARC
  5
766
330
1F
100
AcDbEntity
  8
0
100
AcDbCircle
 10
2547.519799474044
 20
1081.001531132129
 30
0.0
 40
103.0
100
AcDbArc
 50
309.754823000009
 51
357.9999999999993
1001
GENIUS_GENODEF_13
1002
{
1000
HIER
1070
     0
1002
}
1002
{
1000
MANEDIT
1070
     0
1002
}
1002
{
1000
NOSEL
1070
     0
1002
}
1002
{
1000
BEHIND
1070
     0
1002
}
1002
{
1000
REACTOR
1002
}
1001
GENIUS_GENOBJ-N-FIL_13
1002
{
1000
OWNER
1000
GEN
1002
}
  0
ARC
  5
767
330
1F
100
AcDbEntity
  8
0
100
AcDbCircle
 10
2547.458785474044
 20
1080.950787132129
 30
0.0
 40
100.0
100
AcDbArc
 50
309.7434550000059
 51
357.9999999999993
1001
GENIUS_GENODEF_13
1002
{
1000
HIER
1070
     0
1002
}
1002
{
1000
MANEDIT
1070
     0
1002
}
1002
{
1000
NOSEL
1070
     0
1002
}
1002
{
1000
BEHIND
1070
     0
1002
}
1002
{
1000
REACTOR
1002
}
1001
GENIUS_GENOBJ-N-FIL_13
1002
{
1000
OWNER
1000
GEN
1002
}
  0
ARC
  5
768
330
1F
100
AcDbEntity
  8
0
100
AcDbCircle
 10
2677.766326474043
 20
1286.367945132129
 30
0.0
 40
20.0
100
AcDbArc
 50
163.4852420000017
 51
177.9999999999993
1001
GENIUS_GENODEF_13
1002
{
1000
HIER
1070
     0
1002
}
1002
{
1000
MANEDIT
1070
     0
1002
}
1002
{
1000
NOSEL
1070
     0
1002
}
1002
{
1000
BEHIND
1070
     0
1002
}
1002
{
1000
REACTOR
1002
}
1001
GENIUS_GENOBJ-N-FIL_13
1002
{
1000
OWNER
1000
GEN
1002
}
  0
LINE
  5
769
330
1F
100
AcDbEntity
  8
0
100
AcDbLine
 10
2653.145771474043
 20
1291.759521132129
 30
0.0
 11
2653.090856474043
 21
1291.894599132129
 31
0.0
  0
ARC
  5
76A
330
1F
100
AcDbEntity
  8
0
100
AcDbCircle
 10
2634.618314474044
 20
1284.227368132129
 30
0.0
 40
20.0
100
AcDbArc
 50
0.0
 51
22.12370900000511
1001
GENIUS_GENODEF_13
1002
{
1000
HIER
1070
     0
1002
}
1002
{
1000
MANEDIT
1070
     0
1002
}
1002
{
1000
NOSEL
1070
     0
1002
}
1002
{
1000
BEHIND
1070
     0
1002
}
1002
{
1000
REACTOR
1002
}
1001
GENIUS_GENOBJ-N-FIL_13
1002
{
1000
OWNER
1000
GEN
1002
}
  0
LINE
  5
76B
330
1F
100
AcDbEntity
  8
0
100
AcDbLine
 10
2659.618314474043
 20
1353.440820132129
 30
0.0
 11
2659.618314474043
 21
1317.624653132129
 31
0.0
1001
GENIUS_GENODEF_13
1002
{
1000
HIER
1070
     0
1002
}
1002
{
1000
MANEDIT
1070
     0
1002
}
1002
{
1000
NOSEL
1070
     0
1002
}
1002
{
1000
BEHIND
1070
     0
1002
}
1002
{
1000
REACTOR
1002
}
1001
GENIUS_GENOBJ-N-CEN_13
1002
{
1000
OWNER
1000
GEN
1002
}
  0
LINE
  5
76C
330
1F
100
AcDbEntity
  8
0
100
AcDbLine
 10
2661.718314474043
 20
1353.516734132129
 30
0.0
 11
2661.718314474043
 21
1317.729809132129
 31
0.0
1001
GENIUS_GENODEF_13
1002
{
1000
HIER
1070
     0
1002
}
1002
{
1000
MANEDIT
1070
     0
1002
}
1002
{
1000
NOSEL
1070
     0
1002
}
1002
{
1000
BEHIND
1070
     0
1002
}
1002
{
1000
REACTOR
1002
}
1001
GENIUS_GENOBJ-N-CEN_13
1002
{
1000
OWNER
1000
GEN
1002
}
  0
ARC
  5
76D
330
1F
100
AcDbEntity
  8
0
100
AcDbCircle
 10
2654.618314474043
 20
1328.516734132129
 30
0.0
 40
3.0
100
AcDbArc
 50
90.0
 51
180.0
1001
GENIUS_GENODEF_13
1002
{
1000
HIER
1070
     0
1002
}
1002
{
1000
MANEDIT
1070
     0
1002
}
1002
{
1000
NOSEL
1070
     0
1002
}
1002
{
1000
BEHIND
1070
     0
1002
}
1002
{
1000
REACTOR
1002
}
1001
GENIUS_GENOBJ-N-FIL_13
1002
{
1000
OWNER
1000
GEN
1002
}
  0
ARC
  5
76E
330
1F
100
AcDbEntity
  8
0
100
AcDbCircle
 10
2656.618314474043
 20
1328.516734132129
 30
0.0
 40
3.0
100
AcDbArc
 50
0.0
 51
90.0
1001
GENIUS_GENODEF_13
1002
{
1000
HIER
1070
     0
1002
}
1002
{
1000
MANEDIT
1070
     0
1002
}
1002
{
1000
NOSEL
1070
     0
1002
}
1002
{
1000
BEHIND
1070
     0
1002
}
1002
{
1000
REACTOR
1002
}
1001
GENIUS_GENOBJ-N-FIL_13
1002
{
1000
OWNER
1000
GEN
1002
}
  0
ARC
  5
76F
330
1F
100
AcDbEntity
  8
0
100
AcDbCircle
 10
2658.021885474043
 20
1313.516734132129
 30
0.0
 40
5.446429
100
AcDbArc
 50
314.8865850000117
 51
45.11341499998828
  0
ARC
  5
770
330
1F
100
AcDbEntity
  8
0
100
AcDbCircle
 10
2657.671885474043
 20
1313.516734132129
 30
0.0
 40
3.696429
100
AcDbArc
 50
313.8513669999863
 51
46.14863300001372
  0
ARC
  5
771
330
1F
100
AcDbEntity
  8
0
100
AcDbCircle
 10
2661.618314474043
 20
1309.408815132129
 30
0.0
 40
2.0
100
AcDbArc
 50
133.8513669999862
 51
180.0
1001
GENIUS_GENODEF_13
1002
{
1000
HIER
1070
     0
1002
}
1002
{
1000
MANEDIT
1070
     0
1002
}
1002
{
1000
NOSEL
1070
     0
1002
}
1002
{
1000
BEHIND
1070
     0
1002
}
1002
{
1000
REACTOR
1002
}
1001
GENIUS_GENOBJ-N-FIL_13
1002
{
1000
OWNER
1000
GEN
1002
}
  0
ARC
  5
772
330
1F
100
AcDbEntity
  8
0
100
AcDbCircle
 10
2662.218314474043
 20
1309.303659132129
 30
0.0
 40
0.5
100
AcDbArc
 50
134.8865850000117
 51
180.0
1001
GENIUS_GENODEF_13
1002
{
1000
HIER
1070
     0
1002
}
1002
{
1000
MANEDIT
1070
     0
1002
}
1002
{
1000
NOSEL
1070
     0
1002
}
1002
{
1000
BEHIND
1070
     0
1002
}
1002
{
1000
REACTOR
1002
}
1001
GENIUS_GENOBJ-N-FIL_13
1002
{
1000
OWNER
1000
GEN
1002
}
  0
ARC
  5
773
330
1F
100
AcDbEntity
  8
0
100
AcDbCircle
 10
2661.618314474043
 20
1317.624653132129
 30
0.0
 40
2.0
100
AcDbArc
 50
180.0
 51
226.1486330000137
1001
GENIUS_GENODEF_13
1002
{
1000
HIER
1070
     0
1002
}
1002
{
1000
MANEDIT
1070
     0
1002
}
1002
{
1000
NOSEL
1070
     0
1002
}
1002
{
1000
BEHIND
1070
     0
1002
}
1002
{
1000
REACTOR
1002
}
1001
GENIUS_GENOBJ-N-FIL_13
1002
{
1000
OWNER
1000
GEN
1002
}
  0
ARC
  5
774
330
1F
100
AcDbEntity
  8
0
100
AcDbCircle
 10
2662.218314474043
 20
1317.729809132129
 30
0.0
 40
0.5
100
AcDbArc
 50
180.0
 51
225.1134149999883
1001
GENIUS_GENODEF_13
1002
{
1000
HIER
1070
     0
1002
}
1002
{
1000
MANEDIT
1070
     0
1002
}
1002
{
1000
NOSEL
1070
     0
1002
}
1002
{
1000
BEHIND
1070
     0
1002
}
1002
{
1000
REACTOR
1002
}
1001
GENIUS_GENOBJ-N-FIL_13
1002
{
1000
OWNER
1000
GEN
1002
}
  0
ARC
  5
775
330
1F
100
AcDbEntity
  8
0
100
AcDbCircle
 10
2649.722422474042
 20
1313.516734132129
 30
0.0
 40
2.0
100
AcDbArc
 50
328.0000000000074
 51
31.99999999999258
1001
GENIUS_GENODEF_13
1002
{
1000
HIER
1070
     0
1002
}
1002
{
1000
MANEDIT
1070
     0
1002
}
1002
{
1000
NOSEL
1070
     0
1002
}
1002
{
1000
BEHIND
1070
     0
1002
}
1002
{
1000
REACTOR
1002
}
1001
GENIUS_GENOBJ-N-FIL_13
1002
{
1000
OWNER
1000
GEN
1002
}
  0
ARC
  5
776
330
1F
100
AcDbEntity
  8
0
100
AcDbCircle
 10
2650.901600474044
 20
1313.516734132129
 30
0.0
 40
4.0
100
AcDbArc
 50
328.0000000000074
 51
31.99999999999258
1001
GENIUS_GENODEF_13
1002
{
1000
HIER
1070
     0
1002
}
1002
{
1000
MANEDIT
1070
     0
1002
}
1002
{
1000
NOSEL
1070
     0
1002
}
1002
{
1000
BEHIND
1070
     0
1002
}
1002
{
1000
REACTOR
1002
}
1001
GENIUS_GENOBJ-N-FIL_13
1002
{
1000
OWNER
1000
GEN
1002
}
  0
LINE
  5
777
330
1F
100
AcDbEntity
  8
0
100
AcDbLine
 10
2651.618314474043
 20
1307.115396132129
 30
0.0
 11
2651.618314474043
 21
1299.426752132129
 31
0.0
1001
GENIUS_GENODEF_13
1002
{
1000
HIER
1070
     0
1002
}
1002
{
1000
MANEDIT
1070
     0
1002
}
1002
{
1000
NOSEL
1070
     0
1002
}
1002
{
1000
BEHIND
1070
     0
1002
}
1002
{
1000
REACTOR
1002
}
1001
GENIUS_GENOBJ-N-CEN_13
1002
{
1000
OWNER
1000
GEN
1002
}
  0
LINE
  5
778
330
1F
100
AcDbEntity
  8
0
100
AcDbLine
 10
2651.418518474044
 20
1312.456895132129
 30
0.0
 11
2647.450345474043
 21
1306.106492132129
 31
0.0
  0
LINE
  5
779
330
1F
100
AcDbEntity
  8
0
100
AcDbLine
 10
2654.293793474043
 20
1311.397057132129
 30
0.0
 11
2649.994490474043
 21
1304.516734132129
 31
0.0
  0
LINE
  5
77A
330
1F
100
AcDbEntity
  8
0
100
AcDbLine
 10
2649.994490474043
 20
1304.516734132129
 30
0.0
 11
2647.450345474043
 21
1306.106492132129
 31
0.0
  0
LINE
  5
77B
330
1F
100
AcDbEntity
  8
0
100
AcDbLine
 10
2651.418518474044
 20
1314.576572132129
 30
0.0
 11
2647.450345474043
 21
1320.926976132129
 31
0.0
  0
LINE
  5
77C
330
1F
100
AcDbEntity
  8
0
100
AcDbLine
 10
2654.293793474043
 20
1315.636411132129
 30
0.0
 11
2649.994490474043
 21
1322.516734132129
 31
0.0
  0
LINE
  5
77D
330
1F
100
AcDbEntity
  8
0
100
AcDbLine
 10
2649.994490474043
 20
1322.516734132129
 30
0.0
 11
2647.450345474043
 21
1320.926976132129
 31
0.0
  0
HATCH
  5
77E
330
1F
100
AcDbEntity
  8
8
100
AcDbHatch
 10
0.0
 20
0.0
 30
0.0
210
0.0
220
0.0
230
1.0
  2
_U
 70
     0
 71
     0
 91
        1
 92
        1
 93
        8
 72
     1
 10
2651.418518474044
 20
1312.456895132129
 11
2647.450345474043
 21
1306.106492132129
 72
     1
 10
2647.450345474043
 20
1306.106492132129
 11
2649.994490474043
 21
1304.516734132129
 72
     1
 10
2649.994490474043
 20
1304.516734132129
 11
2654.293793474043
 21
1311.397057132129
 72
     2
 10
2650.901600474044
 20
1313.516734132129
 40
4.0
 50
328.0
 51
392.0
 73
     1
 72
     1
 10
2654.293793474043
 20
1315.636411132129
 11
2649.994490474043
 21
1322.516734132129
 72
     1
 10
2649.994490474043
 20
1322.516734132129
 11
2647.450345474043
 21
1320.926976132129
 72
     1
 10
2647.450345474043
 20
1320.926976132129
 11
2651.418518474044
 21
1314.576572132129
 72
     2
 10
2649.722422474042
 20
1313.516734132129
 40
2.0
 50
328.0
 51
392.0
 73
     0
 97
        0
 75
     0
 76
     0
 52
135.0
 41
2.7
 77
     0
 78
     1
 53
135.0
 43
1675.103074474043
 44
-114.7973708678708
 45
-1.909188309203678
 46
-1.909188309203678
 79
     0
 98
        1
 10
1646.216507474043
 20
-7.171765867870817
1001
GENIUS_GENODEF_13
1002
{
1000
HIER
1070
     0
1002
}
1002
{
1000
MANEDIT
1070
     0
1002
}
1002
{
1000
NOSEL
1070
     0
1002
}
1002
{
1000
BEHIND
1070
     0
1002
}
1002
{
1000
REACTOR
1002
}
1001
GENIUS_GENOBJ-N-HTC_13
1002
{
1000
OWNER
1000
GEN
1002
}
1001
GENIUS_GENHATCH_13
1002
{
1000
DATA
1040
135.0
1042
2.7
1000
_U
1070
     0
1011
2650.340576474043
1021
1318.029044132129
1031
0.0
1002
}
1002
{
1000
UCS
1010
0.0
1020
0.0
1030
0.0
1010
1.0
1020
0.0
1030
0.0
1010
0.0
1020
1.0
1030
0.0
1002
}
  0
ARC
  5
77F
330
1F
100
AcDbEntity
  8
0
100
AcDbCircle
 10
2639.618314474044
 20
1298.419226132129
 30
0.0
 40
20.0
100
AcDbArc
 50
343.4852420000017
 51
0.0
1001
GENIUS_GENOBJ-N-CEN_13
1002
{
1000
OWNER
1000
GEN
1002
}
1001
GENIUS_GENODEF_13
1002
{
1000
HIER
1070
     0
1002
}
1002
{
1000
MANEDIT
1070
     0
1002
}
1002
{
1000
NOSEL
1070
     0
1002
}
1002
{
1000
BEHIND
1070
     0
1002
}
1002
{
1000
REACTOR
1002
}
1001
GENIUS_GENOBJ-N-FIL_13
1002
{
1000
OWNER
1000
GEN
1002
}
  0
LINE
  5
780
330
1F
100
AcDbEntity
  8
0
100
AcDbLine
 10
2659.618314474043
 20
1328.516734132129
 30
0.0
 11
2659.618314474043
 21
1317.624653132129
 31
0.0
1001
GENIUS_GENODEF_13
1002
{
1000
HIER
1070
     0
1002
}
1002
{
1000
MANEDIT
1070
     0
1002
}
1002
{
1000
NOSEL
1070
     0
1002
}
1002
{
1000
BEHIND
1070
     0
1002
}
1002
{
1000
REACTOR
1002
}
1001
GENIUS_GENOBJ-N-CEN_13
1002
{
1000
OWNER
1000
GEN
1002
}
  0
LINE
  5
781
330
1F
100
AcDbEntity
  8
0
100
AcDbLine
 10
2651.618314474043
 20
1328.516734132129
 30
0.0
 11
2651.618314474043
 21
1319.918072132129
 31
0.0
1001
GENIUS_GENODEF_13
1002
{
1000
HIER
1070
     0
1002
}
1002
{
1000
MANEDIT
1070
     0
1002
}
1002
{
1000
NOSEL
1070
     0
1002
}
1002
{
1000
BEHIND
1070
     0
1002
}
1002
{
1000
REACTOR
1002
}
1001
GENIUS_GENOBJ-N-CEN_13
1002
{
1000
OWNER
1000
GEN
1002
}
  0
LINE
  5
782
330
1F
100
AcDbEntity
  8
0
100
AcDbLine
 10
2661.718314474043
 20
1353.516734132129
 30
0.0
 11
2659.974110474044
 21
1353.516734132129
 31
0.0
  0
SOLID
  5
783
330
1F
100
AcDbEntity
  8
0
100
AcDbTrace
 10
2661.718314474043
 20
1353.516734132129
 30
0.0
 11
2661.718314474043
 21
1355.516734132129
 31
0.0
 12
2659.718314474043
 22
1353.516734132129
 32
0.0
 13
2659.718314474043
 23
1353.516734132129
 33
0.0
1001
GENIUS_GEFWELD_13
1040
2.0
1070
     3
1001
GENIUS_GENODEF_13
1002
{
1000
HIER
1070
     0
1002
}
1002
{
1000
MANEDIT
1070
     0
1002
}
1002
{
1000
NOSEL
1070
     0
1002
}
1002
{
1000
BEHIND
1070
     0
1002
}
1002
{
1000
REACTOR
1002
}
1001
GENIUS_GENOBJ-F-WELS_13
1002
{
1000
OWNER
1000
GEF
1002
}
  0
LINE
  5
784
330
1F
100
AcDbEntity
  8
GEFÄß
100
AcDbLine
 10
2657.518314474043
 20
1352.646885132129
 30
0.0
 11
2657.518314474043
 21
1343.516734132129
 31
0.0
1001
GENIUS_GENODEF_13
1002
{
1000
HIER
1070
     0
1002
}
1002
{
1000
MANEDIT
1070
     0
1002
}
1002
{
1000
NOSEL
1070
     0
1002
}
1002
{
1000
BEHIND
1070
     0
1002
}
1002
{
1000
REACTOR
1002
}
1001
GENIUS_GENOBJ-N-CEN_13
1002
{
1000
OWNER
1000
GEN
1002
}
  0
ARC
  5
785
330
1F
100
AcDbEntity
  8
GEFÄß
100
AcDbCircle
 10
2661.718314474043
 20
1352.646885132129
 30
0.0
 40
4.2
100
AcDbArc
 50
135.0000000000092
 51
180.0
1001
GENIUS_GENOBJ-N-CEN_13
1002
{
1000
OWNER
1000
GEN
1002
}
1001
GENIUS_GENODEF_13
1002
{
1000
HIER
1070
     0
1002
}
1002
{
1000
MANEDIT
1070
     0
1002
}
1002
{
1000
NOSEL
1070
     0
1002
}
1002
{
1000
BEHIND
1070
     0
1002
}
1002
{
1000
REACTOR
1002
}
1001
GENIUS_GENOBJ-N-FIL_13
1002
{
1000
OWNER
1000
GEN
1002
}
  0
LINE
  5
786
330
1F
100
AcDbEntity
  8
GEFÄß
100
AcDbLine
 10
2658.748465474043
 20
1355.616734132129
 30
0.0
 11
2659.003238474042
 21
1355.871507132129
 31
0.0
  0
ARC
  5
787
330
1F
100
AcDbEntity
  8
GEFÄß
100
AcDbCircle
 10
2661.718314474043
 20
1352.646885132129
 30
0.0
 40
2.1
100
AcDbArc
 50
135.0000000000092
 51
180.0
1001
GENIUS_GENOBJ-N-CEN_13
1002
{
1000
OWNER
1000
GEN
1002
}
1001
GENIUS_GENODEF_13
1002
{
1000
HIER
1070
     0
1002
}
1002
{
1000
MANEDIT
1070
     0
1002
}
1002
{
1000
NOSEL
1070
     0
1002
}
1002
{
1000
BEHIND
1070
     0
1002
}
1002
{
1000
REACTOR
1002
}
1001
GENIUS_GENOBJ-N-FIL_13
1002
{
1000
OWNER
1000
GEN
1002
}
  0
LINE
  5
788
330
1F
100
AcDbEntity
  8
GEFÄß
100
AcDbLine
 10
2660.233390474043
 20
1354.131810132129
 30
0.0
 11
2660.488162474044
 21
1354.386582132129
 31
0.0
  0
ARC
  5
789
330
1F
100
AcDbEntity
  8
GEFÄß
100
AcDbCircle
 10
2657.518314474043
 20
1357.356431132129
 30
0.0
 40
2.1
100
AcDbArc
 50
315.0000000000092
 51
0.0
1001
GENIUS_GENODEF_13
1002
{
1000
HIER
1070
     0
1002
}
1002
{
1000
MANEDIT
1070
     0
1002
}
1002
{
1000
NOSEL
1070
     0
1002
}
1002
{
1000
BEHIND
1070
     0
1002
}
1002
{
1000
REACTOR
1002
}
1001
GENIUS_GENOBJ-N-FIL_13
1002
{
1000
OWNER
1000
GEN
1002
}
  0
ARC
  5
78A
330
1F
100
AcDbEntity
  8
GEFÄß
100
AcDbCircle
 10
2657.518314474043
 20
1357.356431132129
 30
0.0
 40
4.2
100
AcDbArc
 50
315.0000000000092
 51
0.0
1001
GENIUS_GENODEF_13
1002
{
1000
HIER
1070
     0
1002
}
1002
{
1000
MANEDIT
1070
     0
1002
}
1002
{
1000
NOSEL
1070
     0
1002
}
1002
{
1000
BEHIND
1070
     0
1002
}
1002
{
1000
REACTOR
1002
}
1001
GENIUS_GENOBJ-N-FIL_13
1002
{
1000
OWNER
1000
GEN
1002
}
  0
LINE
  5
78B
330
1F
100
AcDbEntity
  8
GEFÄß
100
AcDbLine
 10
2659.806936474043
 20
1353.516734132129
 30
0.0
 11
2661.718314474043
 21
1353.516734132129
 31
0.0
  0
ARC
  5
78C
330
1F
100
AcDbEntity
  8
VENTILUKAPPE
100
AcDbCircle
 10
2299.597919474043
 20
1877.313973132128
 30
0.0
 40
1.0
100
AcDbArc
 50
210.5692230000064
 51
0.5692229999997714
1001
GENIUS_GENODEF_13
1002
{
1000
HIER
1070
     0
1002
}
1002
{
1000
MANEDIT
1070
     0
1002
}
1002
{
1000
NOSEL
1070
     0
1002
}
1002
{
1000
BEHIND
1070
     0
1002
}
1002
{
1000
REACTOR
1002
}
1001
GENIUS_GENOBJ-N-FIL_13
1002
{
1000
OWNER
1000
GEN
1002
}
  0
LINE
  5
78D
330
1F
100
AcDbEntity
  8
VENTILUKAPPE
100
AcDbLine
 10
2295.092492474044
 20
1882.331252132128
 30
0.0
 11
2295.227010474043
 21
1868.791566132129
 31
0.0
  0
LINE
  5
78E
330
1F
100
AcDbEntity
  8
KLIN
100
AcDbLine
 10
2312.748040474043
 20
1872.140512132129
 30
0.0
 11
2298.066629474043
 21
1896.995884132129
 31
0.0
  0
LINE
  5
78F
330
1F
100
AcDbEntity
  8
7
100
AcDbLine
 10
2292.255294474043
 20
1861.436396132129
 30
0.0
 11
2291.867843474043
 21
1900.434471132129
 31
0.0
1001
GENIUS_GENODEF_13
1002
{
1000
HIER
1070
     0
1002
}
1002
{
1000
MANEDIT
1070
     0
1002
}
1002
{
1000
NOSEL
1070
     0
1002
}
1002
{
1000
BEHIND
1070
     0
1002
}
1002
{
1000
REACTOR
1002
}
1001
GENIUS_GENOBJ-N-CEN_13
1002
{
1000
OWNER
1000
GEN
1002
}
  0
LINE
  5
790
330
1F
100
AcDbEntity
  8
VENTILUKAPPE
100
AcDbLine
 10
2289.003511474043
 20
1882.270758132129
 30
0.0
 11
2289.135049474043
 21
1869.031122132129
 31
0.0
  0
LINE
  5
791
330
1F
100
AcDbEntity
  8
KLIN
100
AcDbLine
 10
2309.871366474044
 20
1871.111883132129
 30
0.0
 11
2300.501993474043
 21
1886.974067132129
 31
0.0
  0
ARC
  5
792
330
1F
100
AcDbEntity
  8
GEFÄß
100
AcDbCircle
 10
2545.618314474043
 20
1679.824579132128
 30
0.0
 40
116.1
100
AcDbArc
 50
0.0
 51
57.91535400000102
1001
GENIUS_GENODEF_13
1002
{
1000
HIER
1070
     0
1002
}
1002
{
1000
MANEDIT
1070
     0
1002
}
1002
{
1000
NOSEL
1070
     0
1002
}
1002
{
1000
BEHIND
1070
     0
1002
}
1002
{
1000
REACTOR
1002
}
1001
GENIUS_GENOBJ-N-FIL_13
1002
{
1000
OWNER
1000
GEN
1002
}
  0
ARC
  5
793
330
1F
100
AcDbEntity
  8
GEFÄß
100
AcDbCircle
 10
2545.618314474043
 20
1679.824579132128
 30
0.0
 40
114.0
100
AcDbArc
 50
0.0
 51
57.91535400000102
1001
GENIUS_GENODEF_13
1002
{
1000
HIER
1070
     0
1002
}
1002
{
1000
MANEDIT
1070
     0
1002
}
1002
{
1000
NOSEL
1070
     0
1002
}
1002
{
1000
BEHIND
1070
     0
1002
}
1002
{
1000
REACTOR
1002
}
1001
GENIUS_GENOBJ-N-FIL_13
1002
{
1000
OWNER
1000
GEN
1002
}
  0
LINE
  5
794
330
1F
100
AcDbEntity
  8
0
100
AcDbLine
 10
2287.950661474043
 20
1866.914292132128
 30
0.0
 11
2287.929790474044
 21
1869.015051132129
 31
0.0
  0
ARC
  5
795
330
1F
100
AcDbEntity
  8
VENTILUKAPPE
100
AcDbCircle
 10
2311.887025474043
 20
1871.631933132129
 30
0.0
 40
1.0
100
AcDbArc
 50
270.5692229999934
 51
30.56922300000638
1001
GENIUS_GENODEF_13
1002
{
1000
HIER
1070
     0
1002
}
1002
{
1000
MANEDIT
1070
     0
1002
}
1002
{
1000
NOSEL
1070
     0
1002
}
1002
{
1000
BEHIND
1070
     0
1002
}
1002
{
1000
REACTOR
1002
}
1001
GENIUS_GENOBJ-N-FIL_13
1002
{
1000
OWNER
1000
GEN
1002
}
  0
LINE
  5
796
330
1F
100
AcDbEntity
  8
VENTILUKAPPE
100
AcDbLine
 10
2311.896960474043
 20
1870.631983132129
 30
0.0
 11
2310.742316474044
 21
1870.620511132129
 31
0.0
  0
ARC
  5
797
330
1F
100
AcDbEntity
  8
VENTILUKAPPE
100
AcDbCircle
 10
2310.732381474043
 20
1871.620462132128
 30
0.0
 40
1.0
100
AcDbArc
 50
210.5692230000064
 51
270.5692229999934
1001
GENIUS_GENODEF_13
1002
{
1000
HIER
1070
     0
1002
}
1002
{
1000
MANEDIT
1070
     0
1002
}
1002
{
1000
NOSEL
1070
     0
1002
}
1002
{
1000
BEHIND
1070
     0
1002
}
1002
{
1000
REACTOR
1002
}
1001
GENIUS_GENOBJ-N-FIL_13
1002
{
1000
OWNER
1000
GEN
1002
}
  0
LINE
  5
798
330
1F
100
AcDbEntity
  8
0
100
AcDbLine
 10
2296.453273474043
 20
1866.693606132128
 30
0.0
 11
2296.432391474044
 21
1868.795445132129
 31
0.0
  0
LINE
  5
799
330
1F
100
AcDbEntity
  8
KLIN
100
AcDbLine
 10
2271.553921474044
 20
1871.731243132128
 30
0.0
 11
2285.738599474043
 21
1896.873403132129
 31
0.0
  0
LINE
  5
79A
330
1F
100
AcDbEntity
  8
VENTILUKAPPE
100
AcDbLine
 10
2287.082117474043
 20
1890.965816132129
 30
0.0
 11
2287.168685474044
 21
1882.252528132129
 31
0.0
  0
LINE
  5
79B
330
1F
100
AcDbEntity
  8
VENTILUKAPPE
100
AcDbLine
 10
2285.816844474043
 20
1880.373366132129
 30
0.0
 11
2285.714005474043
 21
1890.724452132128
 31
0.0
  0
LINE
  5
79C
330
1F
100
AcDbEntity
  8
VENTILUKAPPE
100
AcDbLine
 10
2287.168685474044
 20
1882.252528132129
 30
0.0
 11
2297.113824474043
 21
1882.351335132129
 31
0.0
  0
LINE
  5
79D
330
1F
100
AcDbEntity
  8
VENTILUKAPPE
100
AcDbLine
 10
2285.816844474043
 20
1880.373366132129
 30
0.0
 11
2287.566758474043
 21
1880.390752132129
 31
0.0
  0
LINE
  5
79E
330
1F
100
AcDbEntity
  8
VENTILUKAPPE
100
AcDbLine
 10
2283.598708474043
 20
1877.155019132129
 30
0.0
 11
2283.502832474043
 21
1886.805178132128
 31
0.0
  0
ARC
  5
79F
330
1F
100
AcDbEntity
  8
VENTILUKAPPE
100
AcDbCircle
 10
2273.579514474043
 20
1871.251343132128
 30
0.0
 40
1.0
100
AcDbArc
 50
270.5692229999934
 51
330.5692229999904
1001
GENIUS_GENODEF_13
1002
{
1000
HIER
1070
     0
1002
}
1002
{
1000
MANEDIT
1070
     0
1002
}
1002
{
1000
NOSEL
1070
     0
1002
}
1002
{
1000
BEHIND
1070
     0
1002
}
1002
{
1000
REACTOR
1002
}
1001
GENIUS_GENOBJ-N-FIL_13
1002
{
1000
OWNER
1000
GEN
1002
}
  0
LINE
  5
7A0
330
1F
100
AcDbEntity
  8
VENTILUKAPPE
100
AcDbLine
 10
2272.434806474044
 20
1870.239920132129
 30
0.0
 11
2273.589449474044
 21
1870.251392132128
 31
0.0
  0
LINE
  5
7A1
330
1F
100
AcDbEntity
  8
KLIN
100
AcDbLine
 10
2274.450464474043
 20
1870.759971132129
 30
0.0
 11
2283.502832474043
 21
1886.805178132128
 31
0.0
  0
ARC
  5
7A2
330
1F
100
AcDbEntity
  8
VENTILUKAPPE
100
AcDbCircle
 10
2272.424871474044
 20
1871.239871132129
 30
0.0
 40
1.0
100
AcDbArc
 50
150.5692229999904
 51
270.5692229999934
1001
GENIUS_GENODEF_13
1002
{
1000
HIER
1070
     0
1002
}
1002
{
1000
MANEDIT
1070
     0
1002
}
1002
{
1000
NOSEL
1070
     0
1002
}
1002
{
1000
BEHIND
1070
     0
1002
}
1002
{
1000
REACTOR
1002
}
1001
GENIUS_GENOBJ-N-FIL_13
1002
{
1000
OWNER
1000
GEN
1002
}
  0
ARC
  5
7A3
330
1F
100
AcDbEntity
  8
VENTILUKAPPE
100
AcDbCircle
 10
2284.598659474044
 20
1877.164953132129
 30
0.0
 40
1.0
100
AcDbArc
 50
180.5692229999998
 51
330.5692229999904
1001
GENIUS_GENODEF_13
1002
{
1000
HIER
1070
     0
1002
}
1002
{
1000
MANEDIT
1070
     0
1002
}
1002
{
1000
NOSEL
1070
     0
1002
}
1002
{
1000
BEHIND
1070
     0
1002
}
1002
{
1000
REACTOR
1002
}
1001
GENIUS_GENOBJ-N-FIL_13
1002
{
1000
OWNER
1000
GEN
1002
}
  0
LINE
  5
7A4
330
1F
100
AcDbEntity
  8
KLIN
100
AcDbLine
 10
2285.469609474044
 20
1876.673582132129
 30
0.0
 11
2287.566758474043
 21
1880.390752132129
 31
0.0
  0
ARC
  5
7A5
330
1F
100
AcDbEntity
  8
VENTILUKAPPE
100
AcDbCircle
 10
2297.205614474043
 20
1896.487305132129
 30
0.0
 40
1.0
100
AcDbArc
 50
30.56922300000638
 51
90.56922299999335
1001
GENIUS_GENODEF_13
1002
{
1000
HIER
1070
     0
1002
}
1002
{
1000
MANEDIT
1070
     0
1002
}
1002
{
1000
NOSEL
1070
     0
1002
}
1002
{
1000
BEHIND
1070
     0
1002
}
1002
{
1000
REACTOR
1002
}
1001
GENIUS_GENOBJ-N-FIL_13
1002
{
1000
OWNER
1000
GEN
1002
}
  0
LINE
  5
7A6
330
1F
100
AcDbEntity
  8
KLIN
100
AcDbLine
 10
2298.213388474044
 20
1890.848636132129
 30
0.0
 11
2296.364468474044
 21
1893.978825132129
 31
0.0
  0
LINE
  5
7A7
330
1F
100
AcDbEntity
  8
VENTILUKAPPE
100
AcDbLine
 10
2289.878815474043
 20
1890.993601132128
 30
0.0
 11
2289.965383474044
 21
1882.280314132128
 31
0.0
  0
LINE
  5
7A8
330
1F
100
AcDbEntity
  8
VENTILUKAPPE
100
AcDbLine
 10
2297.027256474044
 20
1891.064622132129
 30
0.0
 11
2287.082117474043
 21
1890.965816132129
 31
0.0
  0
LINE
  5
7A9
330
1F
100
AcDbEntity
  8
KLIN
100
AcDbLine
 10
2285.714005474043
 20
1890.724452132128
 30
0.0
 11
2287.500368474043
 21
1893.890759132129
 31
0.0
  0
ARC
  5
7AA
330
1F
100
AcDbEntity
  8
VENTILUKAPPE
100
AcDbCircle
 10
2288.371318474044
 20
1893.399387132129
 30
0.0
 40
1.0
100
AcDbArc
 50
90.56922299999335
 51
150.5692229999904
1001
GENIUS_GENODEF_13
1002
{
1000
HIER
1070
     0
1002
}
1002
{
1000
MANEDIT
1070
     0
1002
}
1002
{
1000
NOSEL
1070
     0
1002
}
1002
{
1000
BEHIND
1070
     0
1002
}
1002
{
1000
REACTOR
1002
}
1001
GENIUS_GENOBJ-N-FIL_13
1002
{
1000
OWNER
1000
GEN
1002
}
  0
ARC
  5
7AB
330
1F
100
AcDbEntity
  8
VENTILUKAPPE
100
AcDbCircle
 10
2286.609549474043
 20
1896.382032132129
 30
0.0
 40
1.0
100
AcDbArc
 50
90.56922299999335
 51
150.5692229999904
1001
GENIUS_GENODEF_13
1002
{
1000
HIER
1070
     0
1002
}
1002
{
1000
MANEDIT
1070
     0
1002
}
1002
{
1000
NOSEL
1070
     0
1002
}
1002
{
1000
BEHIND
1070
     0
1002
}
1002
{
1000
REACTOR
1002
}
1001
GENIUS_GENOBJ-N-FIL_13
1002
{
1000
OWNER
1000
GEN
1002
}
  0
LINE
  5
7AC
330
1F
100
AcDbEntity
  8
VENTILUKAPPE
100
AcDbLine
 10
2288.361384474044
 20
1894.399338132128
 30
0.0
 11
2295.493518474044
 21
1894.470196132129
 31
0.0
  0
ARC
  5
7AD
330
1F
100
AcDbEntity
  8
VENTILUKAPPE
100
AcDbCircle
 10
2295.503453474044
 20
1893.470246132128
 30
0.0
 40
1.0
100
AcDbArc
 50
30.56922300000638
 51
90.56922299999335
1001
GENIUS_GENODEF_13
1002
{
1000
HIER
1070
     0
1002
}
1002
{
1000
MANEDIT
1070
     0
1002
}
1002
{
1000
NOSEL
1070
     0
1002
}
1002
{
1000
BEHIND
1070
     0
1002
}
1002
{
1000
REACTOR
1002
}
1001
GENIUS_GENOBJ-N-FIL_13
1002
{
1000
OWNER
1000
GEN
1002
}
  0
LINE
  5
7AE
330
1F
100
AcDbEntity
  8
VENTILUKAPPE
100
AcDbLine
 10
2286.599614474043
 20
1897.381982132129
 30
0.0
 11
2297.195679474044
 21
1897.487256132129
 31
0.0
  0
LINE
  5
7AF
330
1F
100
AcDbEntity
  8
VENTILUKAPPE
100
AcDbLine
 10
2287.983280474044
 20
1890.974769132129
 30
0.0
 11
2288.069848474044
 21
1882.261481132128
 31
0.0
  0
LINE
  5
7B0
330
1F
100
AcDbEntity
  8
KLIN
100
AcDbLine
 10
2298.736903474043
 20
1876.805394132129
 30
0.0
 11
2296.566314474044
 21
1880.480164132128
 31
0.0
  0
LINE
  5
7B1
330
1F
100
AcDbEntity
  8
VENTILUKAPPE
100
AcDbLine
 10
2298.316228474043
 20
1880.497550132129
 30
0.0
 11
2296.566314474044
 21
1880.480164132128
 31
0.0
  0
LINE
  5
7B2
330
1F
100
AcDbEntity
  8
VENTILUKAPPE
100
AcDbLine
 10
2295.752505474044
 20
1891.051957132129
 30
0.0
 11
2295.839072474043
 21
1882.338670132129
 31
0.0
  0
LINE
  5
7B3
330
1F
100
AcDbEntity
  8
VENTILUKAPPE
100
AcDbLine
 10
2293.856969474043
 20
1891.033125132129
 30
0.0
 11
2293.943537474044
 21
1882.319837132129
 31
0.0
  0
LINE
  5
7B4
330
1F
100
AcDbEntity
  8
VENTILUKAPPE
100
AcDbLine
 10
2297.027256474044
 20
1891.064622132129
 30
0.0
 11
2297.113824474043
 21
1882.351335132129
 31
0.0
  0
LINE
  5
7B5
330
1F
100
AcDbEntity
  8
VENTILUKAPPE
100
AcDbLine
 10
2298.316228474043
 20
1880.497550132129
 30
0.0
 11
2298.213388474044
 21
1890.848636132129
 31
0.0
  0
LINE
  5
7B6
330
1F
100
AcDbEntity
  8
VENTILUKAPPE
100
AcDbLine
 10
2300.597869474044
 20
1877.323908132129
 30
0.0
 11
2300.501993474043
 21
1886.974067132129
 31
0.0
  0
LWPOLYLINE
  5
7B7
330
1F
100
AcDbEntity
  8
0
100
AcDbPolyline
 90
        8
 70
     1
 43
0.0
 10
3101.409526474043
 20
1455.895934132129
 10
3102.632090474043
 20
1393.907989132129
 42
0.4142140000000003
 10
3103.651614474043
 20
1392.927902132129
 10
3141.644226474043
 20
1393.677216132129
 42
0.4142140000000003
 10
3142.624313474044
 20
1394.696740132129
 10
3141.401748474044
 20
1456.684686132129
 42
0.4142140000000003
 10
3140.382224474043
 20
1457.664772132129
 10
3102.389612474044
 20
1456.915459132129
 42
0.4142140000000003
1001
GENIUS_GENREC_14
1002
{
1000
PYDIR
1011
3141.382029474044
1021
1457.684491132129
1031
0.0
1002
}
1002
{
1000
PXDIR
1011
3102.651809474044
1021
1392.908184132129
1031
0.0
1002
}
1002
{
1000
PORI
1011
3101.389807474044
1021
1456.895740132129
1031
0.0
1002
}
1002
{
1000
PINS
1011
3101.389807474044
1021
1456.895740132129
1031
0.0
1002
}
1002
{
1000
HVAL
1000
40
1002
}
1002
{
1000
H
1070
     2
1002
}
1002
{
1000
WVAL
1000
64
1002
}
1002
{
1000
W
1070
     2
1002
}
1002
{
1000
C
1070
     1
1002
}
1001
GENIUS_GENODEF_13
1002
{
1000
HIER
1070
     0
1002
}
1002
{
1000
MANEDIT
1070
     0
1002
}
1002
{
1000
NOSEL
1070
     0
1002
}
1002
{
1000
BEHIND
1070
     0
1002
}
1002
{
1000
REACTOR
1002
}
1001
GENIUS_GENOBJ-N-REC_13
1002
{
1000
OWNER
1000
GEN
1002
}
  0
LINE
  5
7B8
330
1F
100
AcDbEntity
  8
0
100
AcDbLine
 10
2669.918314474043
 20
1023.883375132129
 30
0.0
 11
2661.718314474043
 21
1023.883375132129
 31
0.0
  0
LINE
  5
7B9
330
1F
100
AcDbEntity
  8
0
100
AcDbLine
 10
2669.918314474043
 20
1057.583375132129
 30
0.0
 11
2661.718314474043
 21
1057.583375132129
 31
0.0
  0
HATCH
  5
7BA
330
1F
100
AcDbEntity
  8
8
100
AcDbHatch
 10
0.0
 20
0.0
 30
0.0
210
0.0
220
0.0
230
1.0
  2
_U
 70
     0
 71
     0
 91
        1
 92
        1
 93
        6
 72
     1
 10
2669.918314474043
 20
1023.883375132129
 11
2661.718314474043
 21
1023.883375132129
 72
     1
 10
2661.718314474043
 20
1023.883375132129
 11
2661.718314474043
 21
1027.083375132129
 72
     1
 10
2661.718314474043
 20
1027.083375132129
 11
2686.718314474043
 21
1027.083375132129
 72
     1
 10
2686.718314474043
 20
1027.083375132129
 11
2686.718314474043
 21
1025.788150132129
 72
     1
 10
2686.718314474043
 20
1025.788150132129
 11
2685.719761474043
 21
1024.734372132129
 72
     1
 10
2685.719761474043
 20
1024.734372132129
 11
2669.918314474043
 21
1023.883375132129
 97
        0
 75
     0
 76
     0
 52
-45.0
 41
2.5
 77
     0
 78
     1
 53
45.0
 43
2481.735664474043
 44
935.244716132129
 45
1.767766952966369
 46
-1.767766952966367
 79
     0
 98
        1
 10
2481.735664474043
 20
935.244716132129
1001
GENIUS_GENODEF_13
1002
{
1000
HIER
1070
     0
1002
}
1002
{
1000
MANEDIT
1070
     0
1002
}
1002
{
1000
NOSEL
1070
     0
1002
}
1002
{
1000
BEHIND
1070
     0
1002
}
1002
{
1000
REACTOR
1002
}
1001
GENIUS_GENOBJ-N-HTC_13
1002
{
1000
OWNER
1000
GEN
1002
}
1001
GENIUS_GENHATCH_13
1002
{
1000
DATA
1040
45.0
1042
2.5
1000
_U
1070
     0
1011
2665.491013474043
1021
1025.169708132129
1031
0.0
1002
}
1002
{
1000
UCS
1010
0.0
1020
0.0
1030
0.0
1010
1.0
1020
0.0
1030
0.0
1010
0.0
1020
1.0
1030
0.0
1002
}
  0
LINE
  5
7BB
330
1F
100
AcDbEntity
  8
0
100
AcDbLine
 10
2686.718314474043
 20
1027.083375132129
 30
0.0
 11
2661.718314474043
 21
1027.083375132129
 31
0.0
  0
LINE
  5
7BC
330
1F
100
AcDbEntity
  8
0
100
AcDbLine
 10
2686.718314474043
 20
1054.383375132129
 30
0.0
 11
2661.718314474043
 21
1054.383375132129
 31
0.0
  0
LINE
  5
7BD
330
1F
100
AcDbEntity
  8
7
100
AcDbLine
 10
2692.556007474042
 20
1040.733375132129
 30
0.0
 11
2658.718314474043
 21
1040.733375132129
 31
0.0
1001
GENIUS_GENODEF_13
1002
{
1000
HIER
1070
     0
1002
}
1002
{
1000
MANEDIT
1070
     0
1002
}
1002
{
1000
NOSEL
1070
     0
1002
}
1002
{
1000
BEHIND
1070
     0
1002
}
1002
{
1000
REACTOR
1002
}
1001
GENIUS_GENOBJ-N-CEN_13
1002
{
1000
OWNER
1000
GEN
1002
}
  0
HATCH
  5
7BE
330
1F
100
AcDbEntity
  8
8
100
AcDbHatch
 10
0.0
 20
0.0
 30
0.0
210
0.0
220
0.0
230
1.0
  2
_U
 70
     0
 71
     0
 91
        1
 92
        1
 93
        6
 72
     1
 10
2669.918314474043
 20
1057.583375132129
 11
2661.718314474043
 21
1057.583375132129
 72
     1
 10
2661.718314474043
 20
1057.583375132129
 11
2661.718314474043
 21
1054.383375132129
 72
     1
 10
2661.718314474043
 20
1054.383375132129
 11
2686.718314474043
 21
1054.383375132129
 72
     1
 10
2686.718314474043
 20
1054.383375132129
 11
2686.718314474043
 21
1055.678599132129
 72
     1
 10
2686.718314474043
 20
1055.678599132129
 11
2685.719761474043
 21
1056.732377132129
 72
     1
 10
2685.719761474043
 20
1056.732377132129
 11
2669.918314474043
 21
1057.583375132129
 97
        0
 75
     0
 76
     0
 52
-45.0
 41
2.5
 77
     0
 78
     1
 53
315.0
 43
2481.735664474043
 44
1146.222034132129
 45
1.767766952966369
 46
1.767766952966367
 79
     0
 98
        1
 10
2481.735664474043
 20
1146.222034132129
1001
GENIUS_GENODEF_13
1002
{
1000
HIER
1070
     0
1002
}
1002
{
1000
MANEDIT
1070
     0
1002
}
1002
{
1000
NOSEL
1070
     0
1002
}
1002
{
1000
BEHIND
1070
     0
1002
}
1002
{
1000
REACTOR
1002
}
1001
GENIUS_GENOBJ-N-HTC_13
1002
{
1000
OWNER
1000
GEN
1002
}
1001
GENIUS_GENHATCH_13
1002
{
1000
DATA
1040
45.0
1042
2.5
1000
_U
1070
     0
1011
2665.491013474043
1021
1056.297042132129
1031
0.0
1002
}
1002
{
1000
UCS
1010
0.0
1020
0.0
1030
0.0
1010
1.0
1020
0.0
1030
0.0
1010
0.0
1020
1.0
1030
0.0
1002
}
  0
LINE
  5
7BF
330
1F
100
AcDbEntity
  8
7
100
AcDbLine
 10
2658.458783474043
 20
1032.233375132129
 30
0.0
 11
2663.587785474044
 21
1032.233375132129
 31
0.0
  0
LINE
  5
7C0
330
1F
100
AcDbEntity
  8
7
100
AcDbLine
 10
2658.151050474044
 20
1049.233375132129
 30
0.0
 11
2663.382620474043
 21
1049.233375132129
 31
0.0
  0
LINE
  5
7C1
330
1F
100
AcDbEntity
  8
0
100
AcDbLine
 10
2661.718314474043
 20
1057.583375132129
 30
0.0
 11
2661.718314474043
 21
1023.883375132129
 31
0.0
  0
LINE
  5
7C2
330
1F
100
AcDbEntity
  8
0
100
AcDbLine
 10
2685.719761474043
 20
1024.734372132129
 30
0.0
 11
2686.718314474043
 21
1025.788150132129
 31
0.0
1001
GENIUS_GENFIL_13
1070
     0
1040
1.0
1040
1.0
1040
20.0
1040
0.0
1002
{
1002
}
1001
GENIUS_GENODEF_13
1002
{
1000
HIER
1070
     0
1002
}
1002
{
1000
MANEDIT
1070
     0
1002
}
1002
{
1000
NOSEL
1070
     0
1002
}
1002
{
1000
BEHIND
1070
     0
1002
}
1002
{
1000
REACTOR
1002
}
1001
GENIUS_GENOBJ-N-CHA_13
1002
{
1000
OWNER
1000
GEN
1002
}
  0
LINE
  5
7C3
330
1F
100
AcDbEntity
  8
0
100
AcDbLine
 10
2685.719761474043
 20
1056.732377132129
 30
0.0
 11
2686.718314474043
 21
1055.678599132129
 31
0.0
1001
GENIUS_GENFIL_13
1070
     0
1040
1.0
1040
1.0
1040
20.0
1040
0.0
1002
{
1002
}
1001
GENIUS_GENODEF_13
1002
{
1000
HIER
1070
     0
1002
}
1002
{
1000
MANEDIT
1070
     0
1002
}
1002
{
1000
NOSEL
1070
     0
1002
}
1002
{
1000
BEHIND
1070
     0
1002
}
1002
{
1000
REACTOR
1002
}
1001
GENIUS_GENOBJ-N-CHA_13
1002
{
1000
OWNER
1000
GEN
1002
}
  0
LINE
  5
7C4
330
1F
100
AcDbEntity
  8
0
100
AcDbLine
 10
2686.718314474043
 20
1055.678599132129
 30
0.0
 11
2686.718314474043
 21
1025.788150132129
 31
0.0
  0
LINE
  5
7C5
330
1F
100
AcDbEntity
  8
0
100
AcDbLine
 10
2666.210956474043
 20
1023.883375132129
 30
0.0
 11
2666.210956474043
 21
1024.854456132129
 31
0.0
  0
LINE
  5
7C6
330
1F
100
AcDbEntity
  8
0
100
AcDbLine
 10
2666.210956474043
 20
1057.583375132129
 30
0.0
 11
2666.210956474043
 21
1056.612293132129
 31
0.0
  0
LINE
  5
7C7
330
1F
100
AcDbEntity
  8
8
100
AcDbLine
 10
2686.529008474043
 20
1025.588375132129
 30
0.0
 11
2666.210956474043
 21
1024.854456132129
 31
0.0
  0
LINE
  5
7C8
330
1F
100
AcDbEntity
  8
0
100
AcDbLine
 10
2669.918314474043
 20
1023.883375132129
 30
0.0
 11
2685.719761474043
 21
1024.734372132129
 31
0.0
  0
LINE
  5
7C9
330
1F
100
AcDbEntity
  8
0
100
AcDbLine
 10
2669.918314474043
 20
1057.583375132129
 30
0.0
 11
2685.719761474043
 21
1056.732377132129
 31
0.0
  0
LINE
  5
7CA
330
1F
100
AcDbEntity
  8
8
100
AcDbLine
 10
2686.529008474043
 20
1055.878375132129
 30
0.0
 11
2666.210956474043
 21
1056.612293132129
 31
0.0
  0
LINE
  5
7CB
330
1F
100
AcDbEntity
  8
0
 48
0.3
100
AcDbLine
 10
3302.207506474043
 20
1055.823966132129
 30
0.0
 11
3334.936424474043
 21
1055.823966132129
 31
0.0
  0
LINE
  5
7CC
330
1F
100
AcDbEntity
  8
0
100
AcDbLine
 10
3334.002730474043
 20
1035.316608132129
 30
0.0
 11
3304.112281474043
 21
1035.316608132129
 31
0.0
  0
LINE
  5
7CD
330
1F
100
AcDbEntity
  8
0
 48
0.3
100
AcDbLine
 10
3302.207506474043
 20
1052.116608132129
 30
0.0
 11
3303.058503474043
 21
1036.315161132129
 31
0.0
  0
LINE
  5
7CE
330
1F
100
AcDbEntity
  8
0
 48
0.3
100
AcDbLine
 10
3302.207506474043
 20
1052.116608132129
 30
0.0
 11
3302.207506474043
 21
1056.688168132129
 31
0.0
  0
LINE
  5
7CF
330
1F
100
AcDbEntity
  8
8
100
AcDbLine
 10
3303.912506474043
 20
1035.505914132129
 30
0.0
 11
3303.178587474044
 21
1055.823966132129
 31
0.0
  0
LINE
  5
7D0
330
1F
100
AcDbEntity
  8
0
100
AcDbLine
 10
3303.058503474043
 20
1036.315161132129
 30
0.0
 11
3304.112281474043
 21
1035.316608132129
 31
0.0
1001
GENIUS_GENFIL_13
1070
     0
1040
1.0
1040
1.0
1040
20.0
1040
0.0
1002
{
1002
}
1001
GENIUS_GENODEF_13
1002
{
1000
HIER
1070
     0
1002
}
1002
{
1000
MANEDIT
1070
     0
1002
}
1002
{
1000
NOSEL
1070
     0
1002
}
1002
{
1000
BEHIND
1070
     0
1002
}
1002
{
1000
REACTOR
1002
}
1001
GENIUS_GENOBJ-N-CHA_13
1002
{
1000
OWNER
1000
GEN
1002
}
  0
LINE
  5
7D1
330
1F
100
AcDbEntity
  8
0
 48
0.3
100
AcDbLine
 10
3335.907506474043
 20
1052.116608132129
 30
0.0
 11
3335.056508474043
 21
1036.315161132129
 31
0.0
  0
LINE
  5
7D2
330
1F
100
AcDbEntity
  8
0
 48
0.3
100
AcDbLine
 10
3335.907506474043
 20
1052.116608132129
 30
0.0
 11
3335.907506474043
 21
1056.688168132129
 31
0.0
  0
LINE
  5
7D3
330
1F
100
AcDbEntity
  8
8
100
AcDbLine
 10
3334.202506474044
 20
1035.505914132129
 30
0.0
 11
3334.936424474043
 21
1055.823966132129
 31
0.0
  0
LINE
  5
7D4
330
1F
100
AcDbEntity
  8
0
100
AcDbLine
 10
3335.056508474043
 20
1036.315161132129
 30
0.0
 11
3334.002730474043
 21
1035.316608132129
 31
0.0
1001
GENIUS_GENFIL_13
1070
     0
1040
1.0
1040
1.0
1040
20.0
1040
0.0
1002
{
1002
}
1001
GENIUS_GENODEF_13
1002
{
1000
HIER
1070
     0
1002
}
1002
{
1000
MANEDIT
1070
     0
1002
}
1002
{
1000
NOSEL
1070
     0
1002
}
1002
{
1000
BEHIND
1070
     0
1002
}
1002
{
1000
REACTOR
1002
}
1001
GENIUS_GENOBJ-N-CHA_13
1002
{
1000
OWNER
1000
GEN
1002
}
  0
LINE
  5
7D5
330
1F
100
AcDbEntity
  8
0
100
AcDbLine
 10
3335.907506474043
 20
1055.823966132129
 30
0.0
 11
3334.936424474043
 21
1055.823966132129
 31
0.0
  0
DIMENSION
  5
7D6
330
1F
100
AcDbEntity
  8
5
100
AcDbDimension
  2
*D13
 10
2784.999576474043
 20
795.7333751321291
 30
0.0
 11
2773.247854033098
 21
918.2333751321296
 31
0.0
 70
    32
  1
<> {}{\C2;%%p2}
 71
     5
 42
245.0000000000001
  3
GEN-ISO
100
AcDbAlignedDimension
 13
2692.556007474042
 23
1040.733375132129
 33
0.0
 14
2593.041463474043
 24
795.7333751321291
 34
0.0
 50
90.0
100
AcDbRotatedDimension
1001
ACAD
1000
DSTYLE
1002
{
1070
    40
1040
5.0
1070
   272
1070
     0
1070
   274
1070
     1
1070
    47
1040
2.0
1070
    48
1040
2.0
1002
}
1001
GENIUS_GENDTOL_13
1000
TolPm
1000
h7
1000
{$3%%p$P}
1040
0.0
1000
<>{}{\C2;%%p2}
  0
CIRCLE
  5
7D7
330
1F
100
AcDbEntity
  8
VENTILUKAPPE
 62
     7
100
AcDbCircle
 10
3318.571965474042
 20
1426.173499132129
 30
0.0
 40
21.0
  0
CIRCLE
  5
7D8
330
1F
100
AcDbEntity
  8
VENTILUKAPPE
 62
     7
100
AcDbCircle
 10
3318.571965474042
 20
1426.173499132129
 30
0.0
 40
7.929719999999997
  0
LINE
  5
7D9
330
1F
100
AcDbEntity
  8
0
100
AcDbLine
 10
2659.618314474043
 20
1054.233375132129
 30
0.0
 11
2661.718314474043
 21
1054.233375132129
 31
0.0
  0
LINE
  5
7DA
330
1F
100
AcDbEntity
  8
0
100
AcDbLine
 10
2659.618314474043
 20
1044.233375132129
 30
0.0
 11
2661.718314474043
 21
1044.233375132129
 31
0.0
  0
LINE
  5
7DB
330
1F
100
AcDbEntity
  8
0
100
AcDbLine
 10
2659.618314474043
 20
1037.233375132129
 30
0.0
 11
2661.718314474043
 21
1037.233375132129
 31
0.0
  0
LINE
  5
7DC
330
1F
100
AcDbEntity
  8
0
100
AcDbLine
 10
2659.618314474043
 20
1027.233375132129
 30
0.0
 11
2661.718314474043
 21
1027.233375132129
 31
0.0
  0
TEXT
  5
7DE
330
1F
100
AcDbEntity
  8
RAHM2
 62
     2
100
AcDbText
 10
3503.447076974044
 20
757.8589301321292
 30
0.0
 40
11.7
  1
Reflex Winkelmann GmbH+Co.KG
 41
0.95
 72
     1
 11
3607.955864474044
 21
757.8589301321292
 31
0.0
100
AcDbText
  0
TEXT
  5
7DF
330
1F
100
AcDbEntity
  8
0
100
AcDbText
 10
3167.162546474044
 20
783.2423491321292
 30
0.0
 40
19.5
  1
Druckausdehnungsgefäß
100
AcDbText
  0
TEXT
  5
7E0
330
1F
100
AcDbEntity
  8
0
100
AcDbText
 10
3249.272113474043
 20
742.9738261321291
 30
0.0
 40
19.5
  1
reflex N 
100
AcDbText
  0
TEXT
  5
7E1
330
1F
100
AcDbEntity
  8
0
100
AcDbText
 10
3229.307392474043
 20
705.9238291321291
 30
0.0
 40
19.5
  1
400 l - 6 bar
100
AcDbText
  0
TEXT
  5
7E2
330
1F
100
AcDbEntity
  8
RAHM2
 62
     2
100
AcDbText
 10
3554.094100073412
 20
741.444241132129
 30
0.0
 40
11.7
  1
D- 59227 Ahlen
 72
     1
 11
3608.146567474043
 21
741.444241132129
 31
0.0
100
AcDbText
  0
POLYLINE
  5
7E3
330
1F
100
AcDbEntity
  8
RAHM2
 62
     3
100
AcDb2dPolyline
 66
     1
 10
0.0
 20
0.0
 30
0.0
  0
VERTEX
  5
7E4
330
7E3
100
AcDbEntity
  8
RAHM2
 62
     3
100
AcDbVertex
100
AcDb2dVertex
 10
3597.431659474044
 20
788.9625841321292
 30
0.0
  0
VERTEX
  5
7E5
330
7E3
100
AcDbEntity
  8
RAHM2
 62
     3
100
AcDbVertex
100
AcDb2dVertex
 10
3597.431659474044
 20
783.818298132129
 30
0.0
  0
VERTEX
  5
7E6
330
7E3
100
AcDbEntity
  8
RAHM2
 62
     3
100
AcDbVertex
100
AcDb2dVertex
 10
3597.064210474043
 20
783.608327132129
 30
0.0
  0
VERTEX
  5
7E7
330
7E3
100
AcDbEntity
  8
RAHM2
 62
     3
100
AcDbVertex
100
AcDb2dVertex
 10
3595.909370474043
 20
783.083400132129
 30
0.0
  0
VERTEX
  5
7E8
330
7E3
100
AcDbEntity
  8
RAHM2
 62
     3
100
AcDbVertex
100
AcDb2dVertex
 10
3595.069487474044
 20
782.8209361321291
 30
0.0
  0
VERTEX
  5
7E9
330
7E3
100
AcDbEntity
  8
RAHM2
 62
     3
100
AcDbVertex
100
AcDb2dVertex
 10
3594.124618474044
 20
782.610966132129
 30
0.0
  0
VERTEX
  5
7EA
330
7E3
100
AcDbEntity
  8
RAHM2
 62
     3
100
AcDbVertex
100
AcDb2dVertex
 10
3593.022271474044
 20
782.4534871321291
 30
0.0
  0
VERTEX
  5
7EB
330
7E3
100
AcDbEntity
  8
RAHM2
 62
     3
100
AcDbVertex
100
AcDb2dVertex
 10
3591.814938474043
 20
782.4009951321292
 30
0.0
  0
VERTEX
  5
7EC
330
7E3
100
AcDbEntity
  8
RAHM2
 62
     3
100
AcDbVertex
100
AcDb2dVertex
 10
3590.930061474043
 20
782.4009951321292
 30
0.0
  0
VERTEX
  5
7ED
330
7E3
100
AcDbEntity
  8
RAHM2
 62
     3
100
AcDbVertex
100
AcDb2dVertex
 10
3590.037685474043
 20
782.5059801321291
 30
0.0
  0
VERTEX
  5
7EE
330
7E3
100
AcDbEntity
  8
RAHM2
 62
     3
100
AcDbVertex
100
AcDb2dVertex
 10
3589.197802474044
 20
782.7159511321291
 30
0.0
  0
VERTEX
  5
7EF
330
7E3
100
AcDbEntity
  8
RAHM2
 62
     3
100
AcDbVertex
100
AcDb2dVertex
 10
3588.305425474043
 20
782.9259221321292
 30
0.0
  0
VERTEX
  5
7F0
330
7E3
100
AcDbEntity
  8
RAHM2
 62
     3
100
AcDbVertex
100
AcDb2dVertex
 10
3587.518035474043
 20
783.2408781321291
 30
0.0
  0
VERTEX
  5
7F1
330
7E3
100
AcDbEntity
  8
RAHM2
 62
     3
100
AcDbVertex
100
AcDb2dVertex
 10
3586.730644474043
 20
783.6608201321291
 30
0.0
  0
VERTEX
  5
7F2
330
7E3
100
AcDbEntity
  8
RAHM2
 62
     3
100
AcDbVertex
100
AcDb2dVertex
 10
3585.995746474044
 20
784.080762132129
 30
0.0
  0
VERTEX
  5
7F3
330
7E3
100
AcDbEntity
  8
RAHM2
 62
     3
100
AcDbVertex
100
AcDb2dVertex
 10
3585.260848474044
 20
784.6056891321292
 30
0.0
  0
VERTEX
  5
7F4
330
7E3
100
AcDbEntity
  8
RAHM2
 62
     3
100
AcDbVertex
100
AcDb2dVertex
 10
3584.630935474043
 20
785.2356011321291
 30
0.0
  0
VERTEX
  5
7F5
330
7E3
100
AcDbEntity
  8
RAHM2
 62
     3
100
AcDbVertex
100
AcDb2dVertex
 10
3584.061014474044
 20
785.9180071321292
 30
0.0
  0
VERTEX
  5
7F6
330
7E3
100
AcDbEntity
  8
RAHM2
 62
     3
100
AcDbVertex
100
AcDb2dVertex
 10
3583.588580474044
 20
786.6529051321291
 30
0.0
  0
VERTEX
  5
7F7
330
7E3
100
AcDbEntity
  8
RAHM2
 62
     3
100
AcDbVertex
100
AcDb2dVertex
 10
3583.168638474043
 20
787.440296132129
 30
0.0
  0
VERTEX
  5
7F8
330
7E3
100
AcDbEntity
  8
RAHM2
 62
     3
100
AcDbVertex
100
AcDb2dVertex
 10
3582.801189474044
 20
788.332672132129
 30
0.0
  0
VERTEX
  5
7F9
330
7E3
100
AcDbEntity
  8
RAHM2
 62
     3
100
AcDbVertex
100
AcDb2dVertex
 10
3582.538726474043
 20
789.277541132129
 30
0.0
  0
VERTEX
  5
7FA
330
7E3
100
AcDbEntity
  8
RAHM2
 62
     3
100
AcDbVertex
100
AcDb2dVertex
 10
3582.381247474043
 20
790.267403132129
 30
0.0
  0
VERTEX
  5
7FB
330
7E3
100
AcDbEntity
  8
RAHM2
 62
     3
100
AcDbVertex
100
AcDb2dVertex
 10
3582.328755474043
 20
791.3697501321292
 30
0.0
  0
VERTEX
  5
7FC
330
7E3
100
AcDbEntity
  8
RAHM2
 62
     3
100
AcDbVertex
100
AcDb2dVertex
 10
3582.486233474044
 20
792.839546132129
 30
0.0
  0
VERTEX
  5
7FD
330
7E3
100
AcDbEntity
  8
RAHM2
 62
     3
100
AcDbVertex
100
AcDb2dVertex
 10
3582.853682474043
 20
794.256850132129
 30
0.0
  0
VERTEX
  5
7FE
330
7E3
100
AcDbEntity
  8
RAHM2
 62
     3
100
AcDbVertex
100
AcDb2dVertex
 10
3583.116145474043
 20
794.9392551321291
 30
0.0
  0
VERTEX
  5
7FF
330
7E3
100
AcDbEntity
  8
RAHM2
 62
     3
100
AcDbVertex
100
AcDb2dVertex
 10
3583.483594474043
 20
795.6216601321291
 30
0.0
  0
VERTEX
  5
800
330
7E3
100
AcDbEntity
  8
RAHM2
 62
     3
100
AcDbVertex
100
AcDb2dVertex
 10
3583.851043474044
 20
796.2515731321291
 30
0.0
  0
VERTEX
  5
801
330
7E3
100
AcDbEntity
  8
RAHM2
 62
     3
100
AcDbVertex
100
AcDb2dVertex
 10
3584.315979474043
 20
796.8214941321291
 30
0.0
  0
VERTEX
  5
802
330
7E3
100
AcDbEntity
  8
RAHM2
 62
     3
100
AcDbVertex
100
AcDb2dVertex
 10
3584.893399474044
 20
797.3464211321291
 30
0.0
  0
VERTEX
  5
803
330
7E3
100
AcDbEntity
  8
RAHM2
 62
     3
100
AcDbVertex
100
AcDb2dVertex
 10
3585.470819474043
 20
797.8713481321292
 30
0.0
  0
VERTEX
  5
804
330
7E3
100
AcDbEntity
  8
RAHM2
 62
     3
100
AcDbVertex
100
AcDb2dVertex
 10
3586.100731474043
 20
798.2912901321292
 30
0.0
  0
VERTEX
  5
805
330
7E3
100
AcDbEntity
  8
RAHM2
 62
     3
100
AcDbVertex
100
AcDb2dVertex
 10
3586.835629474044
 20
798.6587391321291
 30
0.0
  0
VERTEX
  5
806
330
7E3
100
AcDbEntity
  8
RAHM2
 62
     3
100
AcDbVertex
100
AcDb2dVertex
 10
3587.623020474043
 20
798.973695132129
 30
0.0
  0
VERTEX
  5
807
330
7E3
100
AcDbEntity
  8
RAHM2
 62
     3
100
AcDbVertex
100
AcDb2dVertex
 10
3588.462904474043
 20
799.183666132129
 30
0.0
  0
VERTEX
  5
808
330
7E3
100
AcDbEntity
  8
RAHM2
 62
     3
100
AcDbVertex
100
AcDb2dVertex
 10
3589.355280474044
 20
799.3411441321291
 30
0.0
  0
VERTEX
  5
809
330
7E3
100
AcDbEntity
  8
RAHM2
 62
     3
100
AcDbVertex
100
AcDb2dVertex
 10
3590.352641474043
 20
799.393637132129
 30
0.0
  0
VERTEX
  5
80A
330
7E3
100
AcDbEntity
  8
RAHM2
 62
     3
100
AcDbVertex
100
AcDb2dVertex
 10
3591.717452474043
 20
799.2886521321292
 30
0.0
  0
VERTEX
  5
80B
330
7E3
100
AcDbEntity
  8
RAHM2
 62
     3
100
AcDbVertex
100
AcDb2dVertex
 10
3593.022271474044
 20
798.9212031321292
 30
0.0
  0
VERTEX
  5
80C
330
7E3
100
AcDbEntity
  8
RAHM2
 62
     3
100
AcDbVertex
100
AcDb2dVertex
 10
3594.229603474043
 20
798.3962751321292
 30
0.0
  0
VERTEX
  5
80D
330
7E3
100
AcDbEntity
  8
RAHM2
 62
     3
100
AcDbVertex
100
AcDb2dVertex
 10
3595.331950474044
 20
797.713870132129
 30
0.0
  0
VERTEX
  5
80E
330
7E3
100
AcDbEntity
  8
RAHM2
 62
     3
100
AcDbVertex
100
AcDb2dVertex
 10
3596.329312474044
 20
796.8739871321291
 30
0.0
  0
VERTEX
  5
80F
330
7E3
100
AcDbEntity
  8
RAHM2
 62
     3
100
AcDbVertex
100
AcDb2dVertex
 10
3597.116703474043
 20
795.9891091321292
 30
0.0
  0
VERTEX
  5
810
330
7E3
100
AcDbEntity
  8
RAHM2
 62
     3
100
AcDbVertex
100
AcDb2dVertex
 10
3597.799108474044
 20
794.9392551321291
 30
0.0
  0
VERTEX
  5
811
330
7E3
100
AcDbEntity
  8
RAHM2
 62
     3
100
AcDbVertex
100
AcDb2dVertex
 10
3598.271543474044
 20
793.8894011321292
 30
0.0
  0
VERTEX
  5
812
330
7E3
100
AcDbEntity
  8
RAHM2
 62
     3
100
AcDbVertex
100
AcDb2dVertex
 10
3590.457627474044
 20
787.0728471321291
 30
0.0
  0
VERTEX
  5
813
330
7E3
100
AcDbEntity
  8
RAHM2
 62
     3
100
AcDbVertex
100
AcDb2dVertex
 10
3590.772583474043
 20
787.020354132129
 30
0.0
  0
VERTEX
  5
814
330
7E3
100
AcDbEntity
  8
RAHM2
 62
     3
100
AcDbVertex
100
AcDb2dVertex
 10
3591.507481474044
 20
786.8628761321291
 30
0.0
  0
VERTEX
  5
815
330
7E3
100
AcDbEntity
  8
RAHM2
 62
     3
100
AcDbVertex
100
AcDb2dVertex
 10
3592.549836474044
 20
786.8628761321291
 30
0.0
  0
VERTEX
  5
816
330
7E3
100
AcDbEntity
  8
RAHM2
 62
     3
100
AcDbVertex
100
AcDb2dVertex
 10
3593.179749474043
 20
786.915368132129
 30
0.0
  0
VERTEX
  5
817
330
7E3
100
AcDbEntity
  8
RAHM2
 62
     3
100
AcDbVertex
100
AcDb2dVertex
 10
3593.809662474043
 20
787.0728471321291
 30
0.0
  0
VERTEX
  5
818
330
7E3
100
AcDbEntity
  8
RAHM2
 62
     3
100
AcDbVertex
100
AcDb2dVertex
 10
3595.121980474044
 20
787.545281132129
 30
0.0
  0
VERTEX
  5
819
330
7E3
100
AcDbEntity
  8
RAHM2
 62
     3
100
AcDbVertex
100
AcDb2dVertex
 10
3596.276819474043
 20
788.175194132129
 30
0.0
  0
VERTEX
  5
81A
330
7E3
100
AcDbEntity
  8
RAHM2
 62
     3
100
AcDbVertex
100
AcDb2dVertex
 10
3597.431659474044
 20
788.9625841321292
 30
0.0
  0
VERTEX
  5
81B
330
7E3
100
AcDbEntity
  8
RAHM2
 62
     3
100
AcDbVertex
100
AcDb2dVertex
 10
3597.431659474044
 20
788.9625841321292
 30
0.0
  0
SEQEND
  5
81C
330
7E3
100
AcDbEntity
  8
RAHM2
 62
     3
  0
HATCH
  5
81D
330
1F
100
AcDbEntity
  8
RAHM2
 62
     3
100
AcDbHatch
 10
0.0
 20
0.0
 30
0.0
210
0.0
220
0.0
230
1.0
  2
SOLID
 70
     1
 71
     0
 91
        8
 92
        7
 72
     0
 73
     1
 93
       23
 10
3579.599133882222
 20
793.0495173741567
 10
3579.704119315348
 20
793.6269372563431
 10
3579.914090181598
 20
794.0468789888428
 10
3580.229046480971
 20
794.3618352882151
 10
3580.544002780349
 20
794.6242988710293
 10
3581.173915379095
 20
794.7817770207159
 10
3581.488871678473
 20
794.8342697372784
 10
3582.066291560659
 20
794.8342697372784
 10
3582.066291560659
 20
799.1836662524531
 10
3580.176553764409
 20
799.1836662524531
 10
3579.126699433163
 20
799.1311735358897
 10
3578.234323251602
 20
799.0261881027657
 10
3577.49942521972
 20
798.7637245199532
 10
3576.817019904415
 20
798.5012609371408
 10
3576.299591698295
 20
798.133811921208
 10
3575.827157249239
 20
797.7663629052697
 10
3575.459708233302
 20
797.3464211727682
 10
3575.144751933927
 20
796.9264794402654
 10
3574.77730291799
 20
796.0416022182146
 10
3574.567332051738
 20
795.3067041863418
 10
3574.514839335177
 20
794.624298871033
 10
3574.514839335177
 20
782.6109657377385
 10
3579.599133882225
 20
782.6109657377385
 97
        0
 92
        7
 72
     0
 73
     1
 93
       54
 10
3598.271543059433
 20
793.8894008391555
 10
3597.799108610375
 20
794.9392551704051
 10
3597.116703295065
 20
795.9891095016538
 10
3596.329312546626
 20
796.8739867237058
 10
3595.331950931941
 20
797.7138701887054
 10
3594.229603884128
 20
798.3962755040177
 10
3593.02227140319
 20
798.9212026696407
 10
3591.717452448639
 20
799.288651685579
 10
3590.352641818014
 20
799.3936371187029
 10
3589.355280203332
 20
799.3411444021398
 10
3588.462904021768
 20
799.183666252454
 10
3587.623020556768
 20
798.9736953862022
 10
3586.835629808335
 20
798.6587390868273
 10
3586.10073177646
 20
798.29129007089
 10
3585.47081917771
 20
797.8713483383928
 10
3584.893399295521
 20
797.3464211727682
 10
3584.315979413335
 20
796.8214940071459
 10
3583.851043923785
 20
796.2515730844665
 10
3583.483594907847
 20
795.6216604857156
 10
3583.116145891908
 20
794.9392551704008
 10
3582.853682309098
 20
794.2568498550948
 10
3582.48623329316
 20
792.839546507905
 10
3582.328755143472
 20
791.36975044416
 10
3582.381247860033
 20
790.2674033963495
 10
3582.538726009723
 20
789.2775407411702
 10
3582.801189592534
 20
788.3326718430485
 10
3583.16863860847
 20
787.4402956614824
 10
3583.588580340972
 20
786.6529049130453
 10
3584.061014790029
 20
785.918006881174
 10
3584.630935712707
 20
785.2356015658617
 10
3585.260848311456
 20
784.6056889671139
 10
3585.995746343332
 20
784.0807618014889
 10
3586.730644375199
 20
783.6608200689918
 10
3587.518035123646
 20
783.2408783364892
 10
3588.305425872081
 20
782.9259220371152
 10
3589.19780205365
 20
782.7159511708635
 10
3590.03768551864
 20
782.5059803046145
 10
3590.9300617002
 20
782.4009948714895
 10
3591.814938922259
 20
782.4009948714895
 10
3593.02227140319
 20
782.4534875880519
 10
3594.124618451004
 20
782.6109657377385
 10
3595.069487349129
 20
782.8209366039905
 10
3595.909370814126
 20
783.083400186802
 10
3597.064210578497
 20
783.6083273524248
 10
3597.431659594437
 20
783.8182982186737
 10
3597.431659594437
 20
788.9625844417964
 10
3596.276819830059
 20
788.175193693359
 10
3595.121980065691
 20
787.5452810946092
 10
3593.809662151624
 20
787.0728466455459
 10
3593.17974955288
 20
786.9153684958603
 10
3592.549836954131
 20
786.8628757792969
 10
3591.50748158239
 20
786.8628757792969
 10
3590.772583550518
 20
787.0203539289843
 10
3590.457627251142
 20
787.0728466455479
 97
        0
 92
       22
 72
     0
 73
     1
 93
       15
 10
3587.308064257395
 20
790.1099252466576
 10
3587.150586107706
 20
790.4773742625958
 10
3587.045600674584
 20
790.8973159950849
 10
3586.940615241456
 20
791.4222431607215
 10
3586.993107958019
 20
792.0521557594704
 10
3587.150586107706
 20
792.7345610747818
 10
3587.518035123643
 20
793.4694591066567
 10
3588.147947722396
 20
794.2043571385296
 10
3588.882845754265
 20
794.7292843041544
 10
3589.670236502706
 20
794.9917478869658
 10
3590.405134534578
 20
795.0442406035293
 10
3591.035047133329
 20
794.9392551704051
 10
3591.612467015513
 20
794.7817770207159
 10
3592.024909788506
 20
794.5718061544669
 10
3592.392358804442
 20
794.3618352882169
 97
        0
 92
        7
 72
     0
 73
     1
 93
       27
 10
3604.458184654293
 20
793.8894008391555
 10
3606.715371466478
 20
793.8894008391555
 10
3606.715371466478
 20
797.8188556218294
 10
3604.458184654293
 20
797.8188556218294
 10
3604.458184654293
 20
799.5511152683905
 10
3604.563170087417
 20
800.128535150576
 10
3604.773140953668
 20
800.5484768830768
 10
3605.088097253047
 20
800.8634331824518
 10
3605.403053552418
 20
801.125896765264
 10
3606.085458867729
 20
801.2833749149509
 10
3606.347922450542
 20
801.3358676315132
 10
3606.91784337322
 20
801.3358676315132
 10
3606.91784337322
 20
805.3703078473128
 10
3605.03560453648
 20
805.3703078473128
 10
3604.038242921793
 20
805.3178151307495
 10
3603.145866740237
 20
805.1603369810621
 10
3602.358475991802
 20
804.8978733982524
 10
3601.676070676484
 20
804.6354098154383
 10
3601.151143510857
 20
804.2679607995017
 10
3600.678709061797
 20
803.9080107430738
 10
3600.311260045861
 20
803.4880690105723
 10
3600.048796463053
 20
803.0681272780759
 10
3599.628854730549
 20
802.2282438130764
 10
3599.418883864302
 20
801.4408530646381
 10
3599.366391147737
 20
800.7584477493221
 10
3599.366391147737
 20
782.6634584543009
 10
3604.458184654293
 20
782.6634584543009
 97
        0
 92
        7
 72
     0
 73
     1
 93
        4
 10
3613.899374676023
 20
805.3703078473128
 10
3608.59761030322
 20
805.3703078473128
 10
3608.59761030322
 20
782.6634584543009
 10
3613.899374676023
 20
782.6634584543009
 97
        0
 92
        7
 72
     0
 73
     1
 93
       54
 10
3631.251966979666
 20
793.8894008391546
 10
3630.779532530603
 20
794.9392551704051
 10
3630.097127215293
 20
795.9891095016538
 10
3629.309736466855
 20
796.8739867237058
 10
3628.319873811677
 20
797.7138701887063
 10
3627.217526763866
 20
798.3962755040149
 10
3626.01019428293
 20
798.9212026696407
 10
3624.697876368871
 20
799.288651685579
 10
3623.333065738246
 20
799.3936371187029
 10
3622.335704123559
 20
799.3411444021398
 10
3621.450826901503
 20
799.1836662524531
 10
3620.61094343651
 20
798.9736953862022
 10
3619.823552688067
 20
798.6587390868273
 10
3619.088654656196
 20
798.29129007089
 10
3618.458742057442
 20
797.8713483383921
 10
3617.88132217526
 20
797.3464211727682
 10
3617.303902293074
 20
796.8214940071423
 10
3616.883960560576
 20
796.2515730844654
 10
3616.464018828078
 20
795.6216604857175
 10
3616.096569812137
 20
794.9392551704051
 10
3615.834106229324
 20
794.2568498550948
 10
3615.466657213389
 20
792.8395465079069
 10
3615.309179063701
 20
791.3697504441573
 10
3615.361671780265
 20
790.2674033963487
 10
3615.51914992995
 20
789.2775407411711
 10
3615.781613512762
 20
788.3326718430464
 10
3616.149062528701
 20
787.4402956614824
 10
3616.569004261202
 20
786.6529049130405
 10
3617.041438710263
 20
785.9180068811731
 10
3617.618858592449
 20
785.2356015658617
 10
3618.301263907761
 20
784.6056889671139
 10
3618.983669223073
 20
784.0807618014879
 10
3619.718567254945
 20
783.6608200689874
 10
3620.505958003386
 20
783.2408783364892
 10
3621.293348751819
 20
782.9259220371152
 10
3622.178225973878
 20
782.7159511708635
 10
3623.018109438871
 20
782.5059803046145
 10
3623.910485620435
 20
782.4009948714895
 10
3624.802861801991
 20
782.4009948714895
 10
3626.01019428293
 20
782.4534875880519
 10
3627.112541330746
 20
782.6109657377415
 10
3628.109902945426
 20
782.8209366039884
 10
3628.897293693864
 20
783.083400186802
 10
3630.044634498727
 20
783.6083273524274
 10
3630.412083514666
 20
783.8182982186765
 10
3630.412083514666
 20
788.9625844417935
 10
3629.257243750293
 20
788.175193693359
 10
3628.109902945427
 20
787.5452810946084
 10
3626.797585031369
 20
787.0728466455479
 10
3626.167672432619
 20
786.9153684958603
 10
3625.537759833867
 20
786.8628757792969
 10
3624.487905502621
 20
786.8628757792969
 10
3623.753007470744
 20
787.0203539289843
 10
3623.438051171371
 20
787.0728466455479
 97
        0
 92
       22
 72
     0
 73
     1
 93
       15
 10
3619.928538121197
 20
791.4222431607215
 10
3619.981030837756
 20
792.0521557594695
 10
3620.138508987446
 20
792.7345610747818
 10
3620.505958003379
 20
793.4694591066539
 10
3621.135870602133
 20
794.2043571385296
 10
3621.863269674496
 20
794.7292843041553
 10
3622.650660422935
 20
794.9917478869658
 10
3623.385558454809
 20
795.0442406035293
 10
3624.01547105356
 20
794.9392551704051
 10
3624.592890935744
 20
794.7817770207188
 10
3625.012832668245
 20
794.5718061544669
 10
3625.380281684185
 20
794.3618352882169
 10
3620.295987137133
 20
790.1099252466594
 10
3620.138508987446
 20
790.4773742625941
 10
3620.033523554322
 20
790.8973159950867
 97
        0
 92
        7
 72
     0
 73
     1
 93
       66
 10
3644.727597217194
 20
790.8973159950968
 10
3644.307655484693
 20
791.1597795779082
 10
3643.947705428266
 20
791.3697504441581
 10
3644.675104500633
 20
791.8421848932187
 10
3645.200031666257
 20
792.4720974919668
 10
3645.619973398758
 20
793.1545028072826
 10
3645.882436981568
 20
793.8369081225921
 10
3646.092407847818
 20
794.9917478869658
 10
3646.092407847818
 20
795.5166750525908
 10
3646.092407847818
 20
799.0261881027657
 10
3641.165591450457
 20
799.0261881027657
 10
3641.165591450457
 20
796.0416022182182
 10
3641.113098733894
 20
795.6741532022798
 10
3640.903127867646
 20
794.9392551704051
 10
3640.693157001399
 20
794.5718061544678
 10
3640.325707985461
 20
794.2043571385296
 10
3639.800780819833
 20
793.9418935557171
 10
3639.170868221085
 20
793.8894008391555
 10
3638.540955622337
 20
793.9418935557171
 10
3638.016028456712
 20
794.2043571385296
 10
3637.701072157335
 20
794.5193134379035
 10
3637.491101291087
 20
794.9392551704051
 10
3637.333623141401
 20
795.6741532022798
 10
3637.333623141401
 20
795.9891095016538
 10
3637.333623141401
 20
799.0261881027657
 10
3632.301821310913
 20
799.0261881027657
 10
3632.301821310913
 20
795.4641823360264
 10
3632.406806744039
 20
794.3618352882179
 10
3632.669270326853
 20
793.5219518232192
 10
3632.984226626226
 20
792.7870537913443
 10
3633.404168358726
 20
792.2621266257221
 10
3633.824110091228
 20
791.8421848932187
 10
3634.139066390601
 20
791.579721310409
 10
3634.506515406536
 20
791.3697504441581
 10
3634.034080957476
 20
791.15977957791
 10
3633.666631941541
 20
790.8973159950976
 10
3633.089212059351
 20
790.2674033963495
 10
3632.61677761029
 20
789.5325053644731
 10
3632.354314027476
 20
788.8051062921097
 10
3632.144343161228
 20
788.1227009767983
 10
3632.039357728105
 20
787.5452810946073
 10
3631.98686501154
 20
787.0203539289815
 10
3631.98686501154
 20
782.6634584543009
 10
3637.228637708275
 20
782.6634584543009
 10
3637.228637708275
 20
786.6529049130507
 10
3637.281130424837
 20
787.0728466455533
 10
3637.333623141401
 20
787.440295661485
 10
3637.438608574523
 20
787.9127301105466
 10
3637.701072157335
 20
788.3326718430437
 10
3638.068521173275
 20
788.7526135755454
 10
3638.593448338899
 20
789.0150771583559
 10
3639.328346370775
 20
789.1200625914828
 10
3640.010751686086
 20
789.0150771583559
 10
3640.535678851709
 20
788.7526135755445
 10
3640.850635151083
 20
788.3326718430464
 10
3641.060606017333
 20
787.8602373939859
 10
3641.165591450457
 20
787.4402956614797
 10
3641.218084167021
 20
787.0203539289843
 10
3641.218084167021
 20
786.6529049130479
 10
3641.218084167021
 20
782.6634584543009
 10
3646.407364147195
 20
782.6634584543009
 10
3646.407364147195
 20
787.0728466455487
 10
3646.302378714069
 20
788.2276864099207
 10
3645.987422414696
 20
789.1725553080416
 10
3645.619973398758
 20
789.8999543804112
 10
3645.147538949694
 20
790.4773742625958
 97
        0
 75
     0
 76
     1
 47
0.04298
 98
        8
 10
3577.322389474044
 20
792.2168811321291
 10
3587.786192474044
 20
787.499712132129
 10
3587.786192474044
 20
787.499712132129
 10
3602.148282474042
 20
789.5506531321291
 10
3611.586222474043
 20
790.5761241321291
 10
3617.946573474043
 20
791.6015951321292
 10
3617.946573474043
 20
791.6015951321292
 10
3636.001765474043
 20
790.7812201321291
450
        0
451
        0
460
0.0
461
0.0
452
        0
462
0.0
453
        0
470

  0
LWPOLYLINE
  5
81E
330
1F
100
AcDbEntity
  8
RAHM2
 62
     3
100
AcDbPolyline
 90
        9
 70
     1
 43
1.468259999999999
 10
3565.043039474044
 20
779.155253132129
 10
3565.043039474044
 20
806.9533191321292
 42
-0.4142140000000003
 10
3567.891104474043
 20
809.8013841321291
 10
3653.171579474043
 20
809.8013841321291
 42
-0.4142140000000003
 10
3656.019645474044
 20
806.9533191321292
 10
3656.019645474044
 20
779.155253132129
 42
-0.388281
 10
3653.462788474044
 20
776.359104132129
 10
3567.891113474043
 20
776.347566132129
 42
-0.3805719999999999
 10
3565.054994474044
 20
778.8711811321292
 42
-0.037159
  0
LWPOLYLINE
  5
81F
330
1F
100
AcDbEntity
  8
RAHM2
 62
     3
100
AcDbPolyline
 90
        9
 70
     0
 43
0.0
 10
3564.308909474044
 20
779.155253132129
 10
3564.308909474044
 20
806.9533191321292
 42
-0.4142140000000003
 10
3567.891104474043
 20
810.535514132129
 10
3653.171579474043
 20
810.535514132129
 42
-0.4142140000000003
 10
3656.753774474043
 20
806.9533191321292
 10
3656.753774474043
 20
779.155253132129
 42
-0.391099
 10
3653.493750474044
 20
775.624978132129
 10
3567.891212474044
 20
775.6134371321292
 42
-0.3805719999999999
 10
3564.325827474044
 20
778.785961132129
 42
-0.3805719999999999
  0
LWPOLYLINE
  5
820
330
1F
100
AcDbEntity
  8
RAHM2
 62
     3
100
AcDbPolyline
 90
        9
 70
     0
 43
0.0
 10
3565.104952474043
 20
779.155253132129
 10
3565.104952474043
 20
806.9533191321292
 42
-0.4142140000000003
 10
3567.891104474043
 20
809.7394711321289
 10
3653.171579474043
 20
809.7394711321289
 42
-0.4142140000000003
 10
3655.957731474043
 20
806.9533191321292
 10
3655.957731474043
 20
779.155253132129
 42
-0.387993
 10
3653.460001474044
 20
776.4210171321289
 10
3567.891104474043
 20
776.4094801321292
 42
-0.3805719999999999
 10
3565.116489474043
 20
778.8783681321291
 42
-0.058238
  0
HATCH
  5
821
330
1F
100
AcDbEntity
  8
RAHM2
 62
     3
100
AcDbHatch
 10
0.0
 20
0.0
 30
0.0
210
0.0
220
0.0
230
1.0
  2
SOLID
 70
     1
 71
     0
 91
        3
 92
        7
 72
     0
 73
     1
 93
        4
 10
3653.171579587764
 20
810.535514245271
 10
3567.891104680167
 20
810.535514245271
 10
3567.891104680167
 20
810.1374925482589
 10
3653.171579587764
 20
810.1374925482589
 97
        0
 92
        7
 72
     0
 73
     1
 93
        4
 10
3564.70693110407
 20
806.9533189721626
 10
3564.308909407061
 20
806.9533189721626
 10
3564.308909407061
 20
779.1552529156335
 10
3564.70693110407
 20
779.1552529156335
 97
        0
 92
        7
 72
     0
 73
     1
 93
       42
 10
3565.445290194177
 20
808.2685211014162
 10
3565.514511358878
 20
808.3838897092494
 10
3565.583732523576
 20
808.499258317078
 10
3565.664490549066
 20
808.6088584945276
 10
3565.74524857454
 20
808.7126902415695
 10
3565.837543460798
 20
808.8165219886061
 10
3565.929838347063
 20
808.9145853052636
 10
3566.027901663721
 20
809.0068801915261
 10
3566.131733410767
 20
809.0934066474012
 10
3566.235565157814
 20
809.1799331032746
 10
3566.345165335249
 20
809.2606911287541
 10
3566.46053394308
 20
809.3299122934517
 10
3566.575902550911
 20
809.3991334581481
 10
3566.697039589131
 20
809.4625861924544
 10
3566.818176627353
 20
809.5202704963687
 10
3566.945082095965
 20
809.5664179395008
 10
3567.071987564578
 20
809.6125653826341
 10
3567.204661463582
 20
809.6529443953734
 10
3567.337335362587
 20
809.6817865473289
 10
3567.475777691979
 20
809.7106286992888
 10
3567.61422002138
 20
809.7279339904618
 10
3567.752662350773
 20
809.7394708512458
 10
3567.891104680166
 20
809.7394708512458
 10
3567.891104680166
 20
810.1374925482589
 10
3567.250808906717
 20
810.0567345227766
 10
3566.685502728347
 20
809.8952184718148
 10
3566.120196549986
 20
809.572186369893
 10
3565.676027409839
 20
809.2087752552281
 10
3565.272237282436
 20
808.7242271023443
 10
3564.989584193256
 20
808.1992999367214
 10
3564.787689129554
 20
807.5936147456134
 10
3564.70693110407
 20
806.9533189721626
 10
3565.104952801083
 20
806.9533189721626
 10
3565.104952801083
 20
807.0917613015611
 10
3565.116489661868
 20
807.230203630954
 10
3565.13379495304
 20
807.3686459603479
 10
3565.162637104991
 20
807.5070882897593
 10
3565.191479256956
 20
807.6397621887492
 10
3565.231858269706
 20
807.7666676573747
 10
3565.272237282438
 20
807.8993415563656
 10
3565.324153155965
 20
808.0262470249776
 10
3565.381837459881
 20
808.1473840631945
 97
        0
 75
     0
 76
     1
 47
0.005631
 98
        3
 10
3572.292484474043
 20
810.2773291321291
 10
3564.455217474043
 20
806.2671741321292
 10
3565.116938474043
 20
808.1482241321291
450
        0
451
        0
460
0.0
461
0.0
452
        0
462
0.0
453
        0
470

  0
HATCH
  5
822
330
1F
100
AcDbEntity
  8
RAHM2
 62
     3
100
AcDbHatch
 10
0.0
 20
0.0
 30
0.0
210
0.0
220
0.0
230
1.0
  2
SOLID
 70
     1
 71
     0
 91
       13
 92
        7
 72
     0
 73
     1
 93
        4
 10
3565.104952801083
 20
806.9533189721626
 10
3564.70693110407
 20
806.9533189721626
 10
3564.70693110407
 20
779.1552529156335
 10
3565.104952801083
 20
779.1552529156335
 97
        0
 92
        7
 72
     0
 73
     1
 93
        4
 10
3653.171579587763
 20
776.4094800492914
 10
3567.891104680167
 20
776.4094800492914
 10
3567.891104680167
 20
776.0114583522802
 10
3653.171579587764
 20
776.0114583522802
 97
        0
 92
        7
 72
     0
 73
     1
 93
        4
 10
3653.171579587764
 20
810.1374925482589
 10
3567.891104680166
 20
810.1374925482589
 10
3567.891104680166
 20
809.7394708512458
 10
3653.171579587764
 20
809.7394708512458
 97
        0
 92
        7
 72
     0
 73
     1
 93
        4
 10
3656.753774860871
 20
806.9533189721626
 10
3656.355753163859
 20
806.9533189721626
 10
3656.355753163859
 20
779.1552529156335
 10
3656.753774860871
 20
779.1552529156335
 97
        0
 92
        7
 72
     0
 73
     1
 93
       42
 10
3566.685502728347
 20
809.8952184718148
 10
3567.250808906717
 20
810.0567345227766
 10
3567.891104680167
 20
810.1374925482589
 10
3567.891104680166
 20
810.535514245271
 10
3567.712283338032
 20
810.5297458148781
 10
3567.5334619959
 20
810.512440523704
 10
3567.354640653757
 20
810.4893668021389
 10
3567.175819311625
 20
810.4605246501799
 10
3567.002766399878
 20
810.4201456374395
 10
3566.835481918524
 20
810.3682297639183
 10
3566.668197437168
 20
810.3105454600001
 10
3566.50668138621
 20
810.2470927256955
 10
3566.350933765643
 20
810.1778715609963
 10
3566.195186145074
 20
810.0971135355187
 10
3566.045206954892
 20
810.0105870796463
 10
3565.900996195128
 20
809.9125237629898
 10
3565.762553865711
 20
809.8144604463371
 10
3565.624111536323
 20
809.7048602688939
 10
3565.491437637313
 20
809.59526009146
 10
3565.370300599089
 20
809.4741230532358
 10
3565.249163560869
 20
809.3472175846214
 10
3565.139563383437
 20
809.2203121160158
 10
3565.029963205994
 20
809.0818697866218
 10
3564.931899889339
 20
808.943427457217
 10
3564.833836572681
 20
808.7992166974329
 10
3564.74731011681
 20
808.6492375072506
 10
3564.666552091331
 20
808.4934898866871
 10
3564.597330926635
 20
808.3377422661245
 10
3564.53387819233
 20
808.1762262151617
 10
3564.47619388841
 20
808.0089417337971
 10
3564.424278014888
 20
807.8416572524467
 10
3564.38389900215
 20
807.6686043407075
 10
3564.355056850192
 20
807.4897829985678
 10
3564.331983128627
 20
807.3109616564298
 10
3564.314677837453
 20
807.1321403142995
 10
3564.308909407061
 20
806.9533189721626
 10
3564.70693110407
 20
806.9533189721626
 10
3564.787689129554
 20
807.5936147456163
 10
3564.989584193256
 20
808.1992999367214
 10
3565.272237282438
 20
808.7242271023464
 10
3565.676027409843
 20
809.2087752552298
 10
3566.120196549986
 20
809.5721863698949
 97
        0
 92
        7
 72
     0
 73
     1
 93
       42
 10
3566.818176627355
 20
809.5202704963687
 10
3566.945082095965
 20
809.5664179395008
 10
3567.071987564578
 20
809.6125653826341
 10
3567.204661463582
 20
809.6529443953734
 10
3567.337335362587
 20
809.6817865473289
 10
3567.475777691979
 20
809.7106286992888
 10
3567.61422002138
 20
809.7279339904618
 10
3567.752662350773
 20
809.7394708512458
 10
3567.891104680166
 20
809.7394708512458
 10
3567.891104680166
 20
810.1374925482589
 10
3567.250808906717
 20
810.0567345227766
 10
3566.685502728347
 20
809.8952184718148
 10
3566.120196549986
 20
809.572186369893
 10
3565.676027409839
 20
809.2087752552281
 10
3565.272237282436
 20
808.7242271023443
 10
3564.989584193256
 20
808.1992999367214
 10
3564.787689129554
 20
807.5936147456134
 10
3564.70693110407
 20
806.9533189721626
 10
3565.104952801083
 20
806.9533189721626
 10
3565.104952801083
 20
807.0917613015611
 10
3565.116489661868
 20
807.230203630954
 10
3565.13379495304
 20
807.3686459603479
 10
3565.162637104991
 20
807.5070882897593
 10
3565.191479256956
 20
807.6397621887492
 10
3565.231858269706
 20
807.7666676573747
 10
3565.272237282438
 20
807.8993415563656
 10
3565.324153155965
 20
808.0262470249776
 10
3565.381837459881
 20
808.1473840631945
 10
3565.445290194181
 20
808.268521101418
 10
3565.514511358878
 20
808.3838897092494
 10
3565.583732523576
 20
808.499258317078
 10
3565.664490549066
 20
808.6088584945276
 10
3565.74524857454
 20
808.7126902415695
 10
3565.837543460798
 20
808.8165219886061
 10
3565.929838347063
 20
808.9145853052636
 10
3566.027901663721
 20
809.0068801915261
 10
3566.131733410767
 20
809.0934066474012
 10
3566.235565157814
 20
809.1799331032746
 10
3566.345165335249
 20
809.2606911287541
 10
3566.46053394308
 20
809.3299122934517
 10
3566.575902550911
 20
809.3991334581481
 10
3566.697039589131
 20
809.4625861924544
 97
        0
 92
        7
 72
     0
 73
     1
 93
        4
 10
3653.171579587764
 20
776.0114583522802
 10
3567.891104680166
 20
776.0114583522802
 10
3567.891104680166
 20
775.613436655268
 10
3653.171579587764
 20
775.613436655268
 97
        0
 92
       22
 72
     0
 73
     1
 93
       42
 10
3655.830825998236
 20
777.38434478545
 10
3656.113479087416
 20
777.9496509638158
 10
3656.315374151119
 20
778.5149571421808
 10
3656.355753163859
 20
779.1552529156335
 10
3655.957731466849
 20
779.1552529156335
 10
3655.957731466849
 20
779.0168105862387
 10
3655.946194606064
 20
778.8783682568394
 10
3655.92888931489
 20
778.7399259274465
 10
3655.905815593325
 20
778.6014835980526
 10
3655.871205010966
 20
778.4688096990178
 10
3655.836594428627
 20
778.3419042304359
 10
3655.790446985496
 20
778.2149987618253
 10
3655.744299542363
 20
778.0880932932152
 10
3655.686615238447
 20
777.96695625499
 10
3655.628930934534
 20
777.8458192167692
 10
3655.559709769836
 20
777.7362190393263
 10
3655.490488605139
 20
777.6208504315028
 10
3655.409730579657
 20
777.51701868445
 10
3655.328972554177
 20
777.407418507016
 10
3655.242446098306
 20
777.309355190365
 10
3655.150151212036
 20
777.217060304097
 10
3655.052087895391
 20
777.1247654178371
 10
3654.954024578731
 20
777.0382389619609
 10
3654.844424401292
 20
776.9574809364813
 10
3654.734824223851
 20
776.8767229109991
 10
3654.625224046405
 20
776.8075017463017
 10
3654.509855438588
 20
776.7382805816053
 10
3654.388718400365
 20
776.6805962776865
 10
3654.261812931752
 20
776.6229119737784
 10
3654.13490746314
 20
776.5767645306442
 10
3654.008001994529
 20
776.5306170875122
 10
3653.875328095521
 20
776.496006505163
 10
3653.736885766127
 20
776.4671643532058
 10
3653.598443436731
 20
776.4383222012494
 10
3653.460001107337
 20
776.4210169100737
 10
3653.315790347551
 20
776.4094800492914
 10
3653.171579587764
 20
776.4094800492914
 10
3653.171579587764
 20
776.0114583522802
 10
3653.811875361219
 20
776.0518373650203
 10
3654.417560552326
 20
776.2537324287208
 10
3654.942487717946
 20
776.5363855179049
 10
3655.427035870832
 20
776.940175645311
 97
        0
 92
        7
 72
     0
 73
     1
 93
       42
 10
3655.93465774528
 20
776.9055650629582
 10
3656.044257922722
 20
777.0382389619647
 10
3656.142321239376
 20
777.1766812913568
 10
3656.234616125639
 20
777.3208920511454
 10
3656.321142581504
 20
777.4708712413151
 10
3656.401900606991
 20
777.6208504315048
 10
3656.471121771689
 20
777.7765980520691
 10
3656.534574505996
 20
777.9381141030319
 10
3656.592258809911
 20
778.1053985843904
 10
3656.63840625304
 20
778.2726830657313
 10
3656.678785265783
 20
778.4457359774871
 10
3656.71339584813
 20
778.6187888892275
 10
3656.730701139304
 20
778.7976102313636
 10
3656.74800643048
 20
778.9764315735013
 10
3656.753774860871
 20
779.1552529156335
 10
3656.355753163859
 20
779.1552529156335
 10
3656.315374151119
 20
778.5149571421818
 10
3656.113479087416
 20
777.9496509638158
 10
3655.830825998236
 20
777.3843447854517
 10
3655.427035870829
 20
776.9401756453055
 10
3654.942487717946
 20
776.5363855179049
 10
3654.417560552321
 20
776.2537324287208
 10
3653.811875361219
 20
776.0518373650203
 10
3653.171579587764
 20
776.0114583522802
 10
3653.171579587764
 20
775.613436655268
 10
3653.350400929899
 20
775.6192050856608
 10
3653.534990702428
 20
775.636510376834
 10
3653.719580474954
 20
775.6538156680083
 10
3653.892633386698
 20
775.6884262503556
 10
3654.065686298439
 20
775.7230368327066
 10
3654.238739210188
 20
775.774952706229
 10
3654.40602369152
 20
775.8326370101424
 10
3654.567539742501
 20
775.8903213140595
 10
3654.729055793458
 20
775.965310909146
 10
3654.879034983646
 20
776.0403005042392
 10
3655.029014173818
 20
776.1268269601108
 10
3655.178993363999
 20
776.2191218463724
 10
3655.317435693389
 20
776.317185163026
 10
3655.455878022785
 20
776.4210169100737
 10
3655.582783491401
 20
776.5363855179049
 10
3655.709688960013
 20
776.6517541257357
 10
3655.825057567846
 20
776.7728911639552
 97
        0
 92
        7
 72
     0
 73
     1
 93
       42
 10
3655.427035870829
 20
809.2087752552298
 10
3654.942487717948
 20
809.572186369893
 10
3654.417560552321
 20
809.8952184718148
 10
3653.811875361219
 20
810.0567345227766
 10
3653.171579587763
 20
810.1374925482589
 10
3653.171579587764
 20
809.7394708512458
 10
3653.315790347551
 20
809.7394708512458
 10
3653.460001107337
 20
809.7279339904618
 10
3653.598443436731
 20
809.7048602688976
 10
3653.736885766127
 20
809.6817865473306
 10
3653.869559665134
 20
809.6529443953743
 10
3654.002233564138
 20
809.6125653826332
 10
3654.134907463142
 20
809.5664179395008
 10
3654.261812931751
 20
809.5202704963687
 10
3654.382949969975
 20
809.4625861924544
 10
3654.504087008192
 20
809.399133458149
 10
3654.619455616024
 20
809.3299122934517
 10
3654.734824223856
 20
809.2606911287514
 10
3654.844424401289
 20
809.1799331032746
 10
3654.94825614834
 20
809.0991750777897
 10
3655.052087895382
 20
809.0068801915288
 10
3655.150151212041
 20
808.9145853052636
 10
3655.23667766791
 20
808.8165219886134
 10
3655.328972554177
 20
808.7184586719551
 10
3655.409730579659
 20
808.6088584945166
 10
3655.484720174745
 20
808.499258317078
 10
3655.559709769833
 20
808.3896581396402
 10
3655.623162504143
 20
808.268521101418
 10
3655.686615238447
 20
808.1531524935883
 10
3655.744299542363
 20
808.026247024973
 10
3655.790446985496
 20
807.8993415563656
 10
3655.836594428627
 20
807.7724360877484
 10
3655.871205010975
 20
807.6397621887474
 10
3655.905815593325
 20
807.5070882897428
 10
3655.928889314886
 20
807.3686459603571
 10
3655.946194606064
 20
807.2359720613505
 10
3655.957731466849
 20
807.0917613015573
 10
3655.957731466849
 20
806.9533189721626
 10
3656.355753163859
 20
806.9533189721626
 10
3656.315374151119
 20
807.5936147456189
 10
3656.113479087416
 20
808.1992999367214
 10
3655.830825998236
 20
808.7242271023443
 97
        0
 92
        7
 72
     0
 73
     1
 93
       42
 10
3655.588551921789
 20
809.5894916610689
 10
3655.45587802279
 20
809.7048602688948
 10
3655.323204123784
 20
809.8144604463353
 10
3655.178993363997
 20
809.9125237629898
 10
3655.034782604211
 20
810.0105870796452
 10
3654.884803414029
 20
810.0971135355187
 10
3654.729055793462
 20
810.1778715609963
 10
3654.573308172894
 20
810.2470927256955
 10
3654.406023691539
 20
810.3105454600029
 10
3654.238739210185
 20
810.3682297639183
 10
3654.071454728833
 20
810.4201456374395
 10
3653.892633386695
 20
810.4605246501799
 10
3653.719580474952
 20
810.4893668021389
 10
3653.534990702428
 20
810.512440523704
 10
3653.356169360291
 20
810.5297458148781
 10
3653.171579587764
 20
810.535514245271
 10
3653.171579587764
 20
810.1374925482589
 10
3653.811875361219
 20
810.0567345227766
 10
3654.417560552321
 20
809.8952184718148
 10
3654.942487717946
 20
809.572186369893
 10
3655.427035870829
 20
809.2087752552298
 10
3655.830825998236
 20
808.7242271023464
 10
3656.113479087416
 20
808.1992999367214
 10
3656.315374151119
 20
807.5936147456163
 10
3656.355753163859
 20
806.9533189721626
 10
3656.753774860871
 20
806.9533189721626
 10
3656.74800643048
 20
807.1321403142949
 10
3656.730701139304
 20
807.3109616564336
 10
3656.71339584813
 20
807.4897829985678
 10
3656.67878526578
 20
807.6628359103299
 10
3656.63840625304
 20
807.8358888220604
 10
3656.592258809908
 20
808.0031733034113
 10
3656.534574505996
 20
808.1704577847615
 10
3656.471121771687
 20
808.3319738357234
 10
3656.401900606991
 20
808.4934898866871
 10
3656.32114258151
 20
808.6434690768649
 10
3656.24038455603
 20
808.793448267043
 10
3656.142321239376
 20
808.9434274572223
 10
3656.044257922715
 20
809.0818697866145
 10
3655.940426175673
 20
809.2203121160121
 10
3655.825057567842
 20
809.3472175846248
 10
3655.709688960013
 20
809.4741230532383
 97
        0
 92
       23
 72
     0
 73
     1
 93
       42
 10
3565.929838347063
 20
777.2170603040988
 10
3565.831775030413
 20
777.3151236207517
 10
3565.745248574541
 20
777.4131869374071
 10
3565.664490549062
 20
777.5170186844564
 10
3565.58373252358
 20
777.6266188618932
 10
3565.508742928484
 20
777.7362190393326
 10
3565.43952176379
 20
777.8515876471614
 10
3565.381837459881
 20
777.9727246853748
 10
3565.324153155961
 20
778.0880932932099
 10
3565.272237282434
 20
778.2149987618297
 10
3565.226089839306
 20
778.3419042304359
 10
3565.191479256954
 20
778.4745781294442
 10
3565.162637104999
 20
778.6072520284435
 10
3565.13379495304
 20
778.7399259274465
 10
3565.116489661868
 20
778.8783682568429
 10
3565.104952801083
 20
779.0168105862407
 10
3565.104952801083
 20
779.1552529156335
 10
3564.70693110407
 20
779.1552529156335
 10
3564.787689129554
 20
778.5149571421799
 10
3564.989584193256
 20
777.9496509638195
 10
3565.272237282436
 20
777.3843447854517
 10
3565.676027409838
 20
776.9401756453084
 10
3566.120196549986
 20
776.5363855179049
 10
3566.685502728347
 20
776.2537324287208
 10
3567.250808906713
 20
776.0518373650203
 10
3567.891104680166
 20
776.0114583522802
 10
3567.891104680166
 20
776.4094800492914
 10
3567.752662350773
 20
776.4094800492914
 10
3567.608451590986
 20
776.4210169100737
 10
3567.470009261588
 20
776.4383222012494
 10
3567.337335362583
 20
776.4613959228138
 10
3567.204661463582
 20
776.4960065051647
 10
3567.071987564578
 20
776.5306170875122
 10
3566.945082095965
 20
776.5767645306442
 10
3566.818176627353
 20
776.6229119737784
 10
3566.691271158741
 20
776.6805962776909
 10
3566.575902550909
 20
776.7382805816063
 10
3566.454765512692
 20
776.8075017463045
 10
3566.345165335249
 20
776.882491341393
 10
3566.229796727422
 20
776.9574809364813
 10
3566.125964980377
 20
777.0382389619609
 10
3566.022133233328
 20
777.1247654178345
 97
        0
 92
        7
 72
     0
 73
     1
 93
       42
 10
3565.676027409838
 20
776.9401756453084
 10
3565.272237282436
 20
777.3843447854517
 10
3564.989584193256
 20
777.9496509638195
 10
3564.787689129554
 20
778.5149571421808
 10
3564.70693110407
 20
779.1552529156335
 10
3564.308909407061
 20
779.1552529156335
 10
3564.314677837453
 20
778.9764315735013
 10
3564.331983128627
 20
778.7976102313598
 10
3564.355056850192
 20
778.6187888892258
 10
3564.383899002148
 20
778.4457359774817
 10
3564.42427801489
 20
778.2726830657341
 10
3564.476193888415
 20
778.1053985843848
 10
3564.533878192327
 20
777.9381141030374
 10
3564.597330926633
 20
777.7765980520755
 10
3564.672320521729
 20
777.6208504314929
 10
3564.753078547201
 20
777.4651028109358
 10
3564.839605003083
 20
777.3208920511382
 10
3564.931899889339
 20
777.1766812913568
 10
3565.029963205994
 20
777.0382389619647
 10
3565.139563383432
 20
776.9055650629618
 10
3565.254931991258
 20
776.7728911639552
 10
3565.370300599094
 20
776.6517541257357
 10
3565.497206067707
 20
776.5363855179068
 10
3565.629879966712
 20
776.4210169100728
 10
3565.762553865713
 20
776.3171851630279
 10
3565.900996195105
 20
776.2191218463733
 10
3566.050975385278
 20
776.1268269601125
 10
3566.195186145073
 20
776.0403005042375
 10
3566.350933765643
 20
775.9653109091488
 10
3566.512449816601
 20
775.8903213140595
 10
3566.673965867554
 20
775.832637010148
 10
3566.841250348919
 20
775.774952706229
 10
3567.008534830272
 20
775.7230368327066
 10
3567.181587742013
 20
775.6884262503556
 10
3567.35464065376
 20
775.6538156680083
 10
3567.533461995896
 20
775.636510376834
 10
3567.712283338032
 20
775.6192050856608
 10
3567.891104680166
 20
775.613436655268
 10
3567.891104680166
 20
776.0114583522802
 10
3567.250808906713
 20
776.0518373650203
 10
3566.685502728347
 20
776.2537324287208
 10
3566.120196549986
 20
776.5363855179049
 97
        0
 75
     0
 76
     1
 47
0.02498
 98
       13
 10
3564.858595474044
 20
796.455112132129
 10
3582.692831474043
 20
776.103454132129
 10
3603.367929474044
 20
809.865118132129
 10
3656.554997474044
 20
797.8749931321292
 10
3565.468311474044
 20
809.5549841321291
 10
3566.110397474043
 20
809.463294132129
 10
3622.614499474043
 20
775.8121911321292
 10
3655.361194474044
 20
777.2792711321289
 10
3655.819834474043
 20
776.8208101321292
 10
3655.361194474044
 20
809.0965231321289
 10
3655.544649474043
 20
809.5549841321291
 10
3565.743488474044
 20
777.0958851321291
 10
3565.651765474043
 20
776.6374241321291
450
        0
451
        0
460
0.0
461
0.0
452
        0
462
0.0
453
        0
470

  0
POLYLINE
  5
823
330
1F
100
AcDbEntity
  8
RAHM2
 62
     3
100
AcDb2dPolyline
 66
     1
 10
0.0
 20
0.0
 30
0.0
  0
VERTEX
  5
824
330
823
100
AcDbEntity
  8
RAHM2
 62
     3
100
AcDbVertex
100
AcDb2dVertex
 10
3567.891104474043
 20
810.1374921321291
 30
0.0
  0
VERTEX
  5
825
330
823
100
AcDbEntity
  8
RAHM2
 62
     3
100
AcDbVertex
100
AcDb2dVertex
 10
3653.171579474043
 20
810.1374921321291
 30
0.0
  0
VERTEX
  5
826
330
823
100
AcDbEntity
  8
RAHM2
 62
     3
100
AcDbVertex
100
AcDb2dVertex
 10
3653.811875474044
 20
810.0567341321291
 30
0.0
  0
VERTEX
  5
827
330
823
100
AcDbEntity
  8
RAHM2
 62
     3
100
AcDbVertex
100
AcDb2dVertex
 10
3654.417560474044
 20
809.8952181321292
 30
0.0
  0
VERTEX
  5
828
330
823
100
AcDbEntity
  8
RAHM2
 62
     3
100
AcDbVertex
100
AcDb2dVertex
 10
3654.942487474044
 20
809.5721861321292
 30
0.0
  0
VERTEX
  5
829
330
823
100
AcDbEntity
  8
RAHM2
 62
     3
100
AcDbVertex
100
AcDb2dVertex
 10
3655.427035474043
 20
809.208775132129
 30
0.0
  0
VERTEX
  5
82A
330
823
100
AcDbEntity
  8
RAHM2
 62
     3
100
AcDbVertex
100
AcDb2dVertex
 10
3655.830826474043
 20
808.724227132129
 30
0.0
  0
VERTEX
  5
82B
330
823
100
AcDbEntity
  8
RAHM2
 62
     3
100
AcDbVertex
100
AcDb2dVertex
 10
3656.113479474044
 20
808.199300132129
 30
0.0
  0
VERTEX
  5
82C
330
823
100
AcDbEntity
  8
RAHM2
 62
     3
100
AcDbVertex
100
AcDb2dVertex
 10
3656.315374474044
 20
807.5936151321291
 30
0.0
  0
VERTEX
  5
82D
330
823
100
AcDbEntity
  8
RAHM2
 62
     3
100
AcDbVertex
100
AcDb2dVertex
 10
3656.355753474044
 20
806.9533191321292
 30
0.0
  0
VERTEX
  5
82E
330
823
100
AcDbEntity
  8
RAHM2
 62
     3
100
AcDbVertex
100
AcDb2dVertex
 10
3656.355753474044
 20
779.155253132129
 30
0.0
  0
VERTEX
  5
82F
330
823
100
AcDbEntity
  8
RAHM2
 62
     3
100
AcDbVertex
100
AcDb2dVertex
 10
3656.315374474044
 20
778.5149571321292
 30
0.0
  0
VERTEX
  5
830
330
823
100
AcDbEntity
  8
RAHM2
 62
     3
100
AcDbVertex
100
AcDb2dVertex
 10
3656.113479474044
 20
777.9496511321292
 30
0.0
  0
VERTEX
  5
831
330
823
100
AcDbEntity
  8
RAHM2
 62
     3
100
AcDbVertex
100
AcDb2dVertex
 10
3655.830826474043
 20
777.384345132129
 30
0.0
  0
VERTEX
  5
832
330
823
100
AcDbEntity
  8
RAHM2
 62
     3
100
AcDbVertex
100
AcDb2dVertex
 10
3655.427035474043
 20
776.9401761321291
 30
0.0
  0
VERTEX
  5
833
330
823
100
AcDbEntity
  8
RAHM2
 62
     3
100
AcDbVertex
100
AcDb2dVertex
 10
3654.942487474044
 20
776.5363851321292
 30
0.0
  0
VERTEX
  5
834
330
823
100
AcDbEntity
  8
RAHM2
 62
     3
100
AcDbVertex
100
AcDb2dVertex
 10
3654.417560474044
 20
776.253732132129
 30
0.0
  0
VERTEX
  5
835
330
823
100
AcDbEntity
  8
RAHM2
 62
     3
100
AcDbVertex
100
AcDb2dVertex
 10
3653.811875474044
 20
776.0518371321292
 30
0.0
  0
VERTEX
  5
836
330
823
100
AcDbEntity
  8
RAHM2
 62
     3
100
AcDbVertex
100
AcDb2dVertex
 10
3653.171579474043
 20
776.011458132129
 30
0.0
  0
VERTEX
  5
837
330
823
100
AcDbEntity
  8
RAHM2
 62
     3
100
AcDbVertex
100
AcDb2dVertex
 10
3567.891104474043
 20
776.011458132129
 30
0.0
  0
VERTEX
  5
838
330
823
100
AcDbEntity
  8
RAHM2
 62
     3
100
AcDbVertex
100
AcDb2dVertex
 10
3567.250808474043
 20
776.0518371321292
 30
0.0
  0
VERTEX
  5
839
330
823
100
AcDbEntity
  8
RAHM2
 62
     3
100
AcDbVertex
100
AcDb2dVertex
 10
3566.685502474044
 20
776.253732132129
 30
0.0
  0
VERTEX
  5
83A
330
823
100
AcDbEntity
  8
RAHM2
 62
     3
100
AcDbVertex
100
AcDb2dVertex
 10
3566.120196474044
 20
776.5363851321292
 30
0.0
  0
VERTEX
  5
83B
330
823
100
AcDbEntity
  8
RAHM2
 62
     3
100
AcDbVertex
100
AcDb2dVertex
 10
3565.676027474043
 20
776.9401761321291
 30
0.0
  0
VERTEX
  5
83C
330
823
100
AcDbEntity
  8
RAHM2
 62
     3
100
AcDbVertex
100
AcDb2dVertex
 10
3565.272237474044
 20
777.384345132129
 30
0.0
  0
VERTEX
  5
83D
330
823
100
AcDbEntity
  8
RAHM2
 62
     3
100
AcDbVertex
100
AcDb2dVertex
 10
3564.989584474043
 20
777.9496511321292
 30
0.0
  0
VERTEX
  5
83E
330
823
100
AcDbEntity
  8
RAHM2
 62
     3
100
AcDbVertex
100
AcDb2dVertex
 10
3564.787689474044
 20
778.5149571321292
 30
0.0
  0
VERTEX
  5
83F
330
823
100
AcDbEntity
  8
RAHM2
 62
     3
100
AcDbVertex
100
AcDb2dVertex
 10
3564.706931474044
 20
779.155253132129
 30
0.0
  0
VERTEX
  5
840
330
823
100
AcDbEntity
  8
RAHM2
 62
     3
100
AcDbVertex
100
AcDb2dVertex
 10
3564.706931474044
 20
806.9533191321292
 30
0.0
  0
VERTEX
  5
841
330
823
100
AcDbEntity
  8
RAHM2
 62
     3
100
AcDbVertex
100
AcDb2dVertex
 10
3564.787689474044
 20
807.5936151321291
 30
0.0
  0
VERTEX
  5
842
330
823
100
AcDbEntity
  8
RAHM2
 62
     3
100
AcDbVertex
100
AcDb2dVertex
 10
3564.989584474043
 20
808.199300132129
 30
0.0
  0
VERTEX
  5
843
330
823
100
AcDbEntity
  8
RAHM2
 62
     3
100
AcDbVertex
100
AcDb2dVertex
 10
3565.272237474044
 20
808.724227132129
 30
0.0
  0
VERTEX
  5
844
330
823
100
AcDbEntity
  8
RAHM2
 62
     3
100
AcDbVertex
100
AcDb2dVertex
 10
3565.676027474043
 20
809.208775132129
 30
0.0
  0
VERTEX
  5
845
330
823
100
AcDbEntity
  8
RAHM2
 62
     3
100
AcDbVertex
100
AcDb2dVertex
 10
3566.120196474044
 20
809.5721861321292
 30
0.0
  0
VERTEX
  5
846
330
823
100
AcDbEntity
  8
RAHM2
 62
     3
100
AcDbVertex
100
AcDb2dVertex
 10
3566.685502474044
 20
809.8952181321292
 30
0.0
  0
VERTEX
  5
847
330
823
100
AcDbEntity
  8
RAHM2
 62
     3
100
AcDbVertex
100
AcDb2dVertex
 10
3567.250808474043
 20
810.0567341321291
 30
0.0
  0
VERTEX
  5
848
330
823
100
AcDbEntity
  8
RAHM2
 62
     3
100
AcDbVertex
100
AcDb2dVertex
 10
3567.891104474043
 20
810.1374921321291
 30
0.0
  0
VERTEX
  5
849
330
823
100
AcDbEntity
  8
RAHM2
 62
     3
100
AcDbVertex
100
AcDb2dVertex
 10
3567.891104474043
 20
810.1374921321291
 30
0.0
  0
SEQEND
  5
84A
330
823
100
AcDbEntity
  8
RAHM2
 62
     3
  0
POLYLINE
  5
84B
330
1F
100
AcDbEntity
  8
RAHM2
 62
     3
100
AcDb2dPolyline
 66
     1
 10
0.0
 20
0.0
 30
0.0
  0
VERTEX
  5
84C
330
84B
100
AcDbEntity
  8
RAHM2
 62
     3
100
AcDbVertex
100
AcDb2dVertex
 10
3653.171579474043
 20
810.535514132129
 30
0.0
  0
VERTEX
  5
84D
330
84B
100
AcDbEntity
  8
RAHM2
 62
     3
100
AcDbVertex
100
AcDb2dVertex
 10
3567.891104474043
 20
810.535514132129
 30
0.0
  0
VERTEX
  5
84E
330
84B
100
AcDbEntity
  8
RAHM2
 62
     3
100
AcDbVertex
100
AcDb2dVertex
 10
3567.891104474043
 20
809.7394711321289
 30
0.0
  0
VERTEX
  5
84F
330
84B
100
AcDbEntity
  8
RAHM2
 62
     3
100
AcDbVertex
100
AcDb2dVertex
 10
3653.171579474043
 20
809.7394711321289
 30
0.0
  0
VERTEX
  5
850
330
84B
100
AcDbEntity
  8
RAHM2
 62
     3
100
AcDbVertex
100
AcDb2dVertex
 10
3653.171579474043
 20
810.535514132129
 30
0.0
  0
VERTEX
  5
851
330
84B
100
AcDbEntity
  8
RAHM2
 62
     3
100
AcDbVertex
100
AcDb2dVertex
 10
3653.171579474043
 20
810.535514132129
 30
0.0
  0
SEQEND
  5
852
330
84B
100
AcDbEntity
  8
RAHM2
 62
     3
  0
POLYLINE
  5
853
330
1F
100
AcDbEntity
  8
RAHM2
 62
     3
100
AcDb2dPolyline
 66
     1
 10
0.0
 20
0.0
 30
0.0
  0
VERTEX
  5
854
330
853
100
AcDbEntity
  8
RAHM2
 62
     3
100
AcDbVertex
100
AcDb2dVertex
 10
3567.891104474043
 20
775.6134371321292
 30
0.0
  0
VERTEX
  5
855
330
853
100
AcDbEntity
  8
RAHM2
 62
     3
100
AcDbVertex
100
AcDb2dVertex
 10
3653.171579474043
 20
775.6134371321292
 30
0.0
  0
VERTEX
  5
856
330
853
100
AcDbEntity
  8
RAHM2
 62
     3
100
AcDbVertex
100
AcDb2dVertex
 10
3653.171579474043
 20
776.4094801321292
 30
0.0
  0
VERTEX
  5
857
330
853
100
AcDbEntity
  8
RAHM2
 62
     3
100
AcDbVertex
100
AcDb2dVertex
 10
3567.891104474043
 20
776.4094801321292
 30
0.0
  0
VERTEX
  5
858
330
853
100
AcDbEntity
  8
RAHM2
 62
     3
100
AcDbVertex
100
AcDb2dVertex
 10
3567.891104474043
 20
775.6134371321292
 30
0.0
  0
VERTEX
  5
859
330
853
100
AcDbEntity
  8
RAHM2
 62
     3
100
AcDbVertex
100
AcDb2dVertex
 10
3567.891104474043
 20
775.6134371321292
 30
0.0
  0
SEQEND
  5
85A
330
853
100
AcDbEntity
  8
RAHM2
 62
     3
  0
POLYLINE
  5
85B
330
1F
100
AcDbEntity
  8
RAHM2
 62
     3
100
AcDb2dPolyline
 66
     1
 10
0.0
 20
0.0
 30
0.0
  0
VERTEX
  5
85C
330
85B
100
AcDbEntity
  8
RAHM2
 62
     3
100
AcDbVertex
100
AcDb2dVertex
 10
3564.308909474044
 20
806.9533191321292
 30
0.0
  0
VERTEX
  5
85D
330
85B
100
AcDbEntity
  8
RAHM2
 62
     3
100
AcDbVertex
100
AcDb2dVertex
 10
3564.308909474044
 20
779.155253132129
 30
0.0
  0
VERTEX
  5
85E
330
85B
100
AcDbEntity
  8
RAHM2
 62
     3
100
AcDbVertex
100
AcDb2dVertex
 10
3565.104952474043
 20
779.155253132129
 30
0.0
  0
VERTEX
  5
85F
330
85B
100
AcDbEntity
  8
RAHM2
 62
     3
100
AcDbVertex
100
AcDb2dVertex
 10
3565.104952474043
 20
806.9533191321292
 30
0.0
  0
VERTEX
  5
860
330
85B
100
AcDbEntity
  8
RAHM2
 62
     3
100
AcDbVertex
100
AcDb2dVertex
 10
3564.308909474044
 20
806.9533191321292
 30
0.0
  0
VERTEX
  5
861
330
85B
100
AcDbEntity
  8
RAHM2
 62
     3
100
AcDbVertex
100
AcDb2dVertex
 10
3564.308909474044
 20
806.9533191321292
 30
0.0
  0
SEQEND
  5
862
330
85B
100
AcDbEntity
  8
RAHM2
 62
     3
  0
POLYLINE
  5
863
330
1F
100
AcDbEntity
  8
RAHM2
 62
     3
100
AcDb2dPolyline
 66
     1
 10
0.0
 20
0.0
 30
0.0
  0
VERTEX
  5
864
330
863
100
AcDbEntity
  8
RAHM2
 62
     3
100
AcDbVertex
100
AcDb2dVertex
 10
3564.308909474044
 20
779.155253132129
 30
0.0
  0
VERTEX
  5
865
330
863
100
AcDbEntity
  8
RAHM2
 62
     3
100
AcDbVertex
100
AcDb2dVertex
 10
3564.314677474044
 20
778.976431132129
 30
0.0
  0
VERTEX
  5
866
330
863
100
AcDbEntity
  8
RAHM2
 62
     3
100
AcDbVertex
100
AcDb2dVertex
 10
3564.331983474043
 20
778.7976101321292
 30
0.0
  0
VERTEX
  5
867
330
863
100
AcDbEntity
  8
RAHM2
 62
     3
100
AcDbVertex
100
AcDb2dVertex
 10
3564.355056474043
 20
778.6187891321292
 30
0.0
  0
VERTEX
  5
868
330
863
100
AcDbEntity
  8
RAHM2
 62
     3
100
AcDbVertex
100
AcDb2dVertex
 10
3564.383899474043
 20
778.4457361321289
 30
0.0
  0
VERTEX
  5
869
330
863
100
AcDbEntity
  8
RAHM2
 62
     3
100
AcDbVertex
100
AcDb2dVertex
 10
3564.424278474043
 20
778.272683132129
 30
0.0
  0
VERTEX
  5
86A
330
863
100
AcDbEntity
  8
RAHM2
 62
     3
100
AcDbVertex
100
AcDb2dVertex
 10
3564.476193474043
 20
778.105398132129
 30
0.0
  0
VERTEX
  5
86B
330
863
100
AcDbEntity
  8
RAHM2
 62
     3
100
AcDbVertex
100
AcDb2dVertex
 10
3564.533878474043
 20
777.938114132129
 30
0.0
  0
VERTEX
  5
86C
330
863
100
AcDbEntity
  8
RAHM2
 62
     3
100
AcDbVertex
100
AcDb2dVertex
 10
3564.597330474044
 20
777.776598132129
 30
0.0
  0
VERTEX
  5
86D
330
863
100
AcDbEntity
  8
RAHM2
 62
     3
100
AcDbVertex
100
AcDb2dVertex
 10
3564.672320474044
 20
777.620850132129
 30
0.0
  0
VERTEX
  5
86E
330
863
100
AcDbEntity
  8
RAHM2
 62
     3
100
AcDbVertex
100
AcDb2dVertex
 10
3564.753078474043
 20
777.4651031321291
 30
0.0
  0
VERTEX
  5
86F
330
863
100
AcDbEntity
  8
RAHM2
 62
     3
100
AcDbVertex
100
AcDb2dVertex
 10
3564.839605474042
 20
777.3208921321292
 30
0.0
  0
VERTEX
  5
870
330
863
100
AcDbEntity
  8
RAHM2
 62
     3
100
AcDbVertex
100
AcDb2dVertex
 10
3564.931899474044
 20
777.176681132129
 30
0.0
  0
VERTEX
  5
871
330
863
100
AcDbEntity
  8
RAHM2
 62
     3
100
AcDbVertex
100
AcDb2dVertex
 10
3565.029963474043
 20
777.0382391321292
 30
0.0
  0
VERTEX
  5
872
330
863
100
AcDbEntity
  8
RAHM2
 62
     3
100
AcDbVertex
100
AcDb2dVertex
 10
3565.139563474044
 20
776.905565132129
 30
0.0
  0
VERTEX
  5
873
330
863
100
AcDbEntity
  8
RAHM2
 62
     3
100
AcDbVertex
100
AcDb2dVertex
 10
3565.254932474044
 20
776.7728911321291
 30
0.0
  0
VERTEX
  5
874
330
863
100
AcDbEntity
  8
RAHM2
 62
     3
100
AcDbVertex
100
AcDb2dVertex
 10
3565.370300474043
 20
776.6517541321291
 30
0.0
  0
VERTEX
  5
875
330
863
100
AcDbEntity
  8
RAHM2
 62
     3
100
AcDbVertex
100
AcDb2dVertex
 10
3565.497206474043
 20
776.5363851321292
 30
0.0
  0
VERTEX
  5
876
330
863
100
AcDbEntity
  8
RAHM2
 62
     3
100
AcDbVertex
100
AcDb2dVertex
 10
3565.629879474044
 20
776.4210171321289
 30
0.0
  0
VERTEX
  5
877
330
863
100
AcDbEntity
  8
RAHM2
 62
     3
100
AcDbVertex
100
AcDb2dVertex
 10
3565.762553474043
 20
776.3171851321292
 30
0.0
  0
VERTEX
  5
878
330
863
100
AcDbEntity
  8
RAHM2
 62
     3
100
AcDbVertex
100
AcDb2dVertex
 10
3565.900996474044
 20
776.2191221321292
 30
0.0
  0
VERTEX
  5
879
330
863
100
AcDbEntity
  8
RAHM2
 62
     3
100
AcDbVertex
100
AcDb2dVertex
 10
3566.050975474043
 20
776.1268271321291
 30
0.0
  0
VERTEX
  5
87A
330
863
100
AcDbEntity
  8
RAHM2
 62
     3
100
AcDbVertex
100
AcDb2dVertex
 10
3566.195186474043
 20
776.0403001321289
 30
0.0
  0
VERTEX
  5
87B
330
863
100
AcDbEntity
  8
RAHM2
 62
     3
100
AcDbVertex
100
AcDb2dVertex
 10
3566.350933474043
 20
775.965311132129
 30
0.0
  0
VERTEX
  5
87C
330
863
100
AcDbEntity
  8
RAHM2
 62
     3
100
AcDbVertex
100
AcDb2dVertex
 10
3566.512449474043
 20
775.890321132129
 30
0.0
  0
VERTEX
  5
87D
330
863
100
AcDbEntity
  8
RAHM2
 62
     3
100
AcDbVertex
100
AcDb2dVertex
 10
3566.673965474043
 20
775.8326371321292
 30
0.0
  0
VERTEX
  5
87E
330
863
100
AcDbEntity
  8
RAHM2
 62
     3
100
AcDbVertex
100
AcDb2dVertex
 10
3566.841250474043
 20
775.7749531321292
 30
0.0
  0
VERTEX
  5
87F
330
863
100
AcDbEntity
  8
RAHM2
 62
     3
100
AcDbVertex
100
AcDb2dVertex
 10
3567.008534474043
 20
775.7230371321292
 30
0.0
  0
VERTEX
  5
880
330
863
100
AcDbEntity
  8
RAHM2
 62
     3
100
AcDbVertex
100
AcDb2dVertex
 10
3567.181587474043
 20
775.688426132129
 30
0.0
  0
VERTEX
  5
881
330
863
100
AcDbEntity
  8
RAHM2
 62
     3
100
AcDbVertex
100
AcDb2dVertex
 10
3567.354640474044
 20
775.6538161321291
 30
0.0
  0
VERTEX
  5
882
330
863
100
AcDbEntity
  8
RAHM2
 62
     3
100
AcDbVertex
100
AcDb2dVertex
 10
3567.533462474044
 20
775.636510132129
 30
0.0
  0
VERTEX
  5
883
330
863
100
AcDbEntity
  8
RAHM2
 62
     3
100
AcDbVertex
100
AcDb2dVertex
 10
3567.712283474043
 20
775.6192051321292
 30
0.0
  0
VERTEX
  5
884
330
863
100
AcDbEntity
  8
RAHM2
 62
     3
100
AcDbVertex
100
AcDb2dVertex
 10
3567.891104474043
 20
775.6134371321292
 30
0.0
  0
VERTEX
  5
885
330
863
100
AcDbEntity
  8
RAHM2
 62
     3
100
AcDbVertex
100
AcDb2dVertex
 10
3567.891104474043
 20
776.4094801321292
 30
0.0
  0
VERTEX
  5
886
330
863
100
AcDbEntity
  8
RAHM2
 62
     3
100
AcDbVertex
100
AcDb2dVertex
 10
3567.752662474044
 20
776.4094801321292
 30
0.0
  0
VERTEX
  5
887
330
863
100
AcDbEntity
  8
RAHM2
 62
     3
100
AcDbVertex
100
AcDb2dVertex
 10
3567.608451474043
 20
776.4210171321289
 30
0.0
  0
VERTEX
  5
888
330
863
100
AcDbEntity
  8
RAHM2
 62
     3
100
AcDbVertex
100
AcDb2dVertex
 10
3567.470009474043
 20
776.4383221321292
 30
0.0
  0
VERTEX
  5
889
330
863
100
AcDbEntity
  8
RAHM2
 62
     3
100
AcDbVertex
100
AcDb2dVertex
 10
3567.337335474042
 20
776.461396132129
 30
0.0
  0
VERTEX
  5
88A
330
863
100
AcDbEntity
  8
RAHM2
 62
     3
100
AcDbVertex
100
AcDb2dVertex
 10
3567.204661474044
 20
776.4960061321292
 30
0.0
  0
VERTEX
  5
88B
330
863
100
AcDbEntity
  8
RAHM2
 62
     3
100
AcDbVertex
100
AcDb2dVertex
 10
3567.071987474044
 20
776.530617132129
 30
0.0
  0
VERTEX
  5
88C
330
863
100
AcDbEntity
  8
RAHM2
 62
     3
100
AcDbVertex
100
AcDb2dVertex
 10
3566.945082474044
 20
776.5767641321291
 30
0.0
  0
VERTEX
  5
88D
330
863
100
AcDbEntity
  8
RAHM2
 62
     3
100
AcDbVertex
100
AcDb2dVertex
 10
3566.818176474043
 20
776.622912132129
 30
0.0
  0
VERTEX
  5
88E
330
863
100
AcDbEntity
  8
RAHM2
 62
     3
100
AcDbVertex
100
AcDb2dVertex
 10
3566.691271474044
 20
776.680596132129
 30
0.0
  0
VERTEX
  5
88F
330
863
100
AcDbEntity
  8
RAHM2
 62
     3
100
AcDbVertex
100
AcDb2dVertex
 10
3566.575902474043
 20
776.7382801321291
 30
0.0
  0
VERTEX
  5
890
330
863
100
AcDbEntity
  8
RAHM2
 62
     3
100
AcDbVertex
100
AcDb2dVertex
 10
3566.454765474043
 20
776.8075021321292
 30
0.0
  0
VERTEX
  5
891
330
863
100
AcDbEntity
  8
RAHM2
 62
     3
100
AcDbVertex
100
AcDb2dVertex
 10
3566.345165474043
 20
776.882491132129
 30
0.0
  0
VERTEX
  5
892
330
863
100
AcDbEntity
  8
RAHM2
 62
     3
100
AcDbVertex
100
AcDb2dVertex
 10
3566.229796474044
 20
776.957481132129
 30
0.0
  0
VERTEX
  5
893
330
863
100
AcDbEntity
  8
RAHM2
 62
     3
100
AcDbVertex
100
AcDb2dVertex
 10
3566.125965474044
 20
777.0382391321292
 30
0.0
  0
VERTEX
  5
894
330
863
100
AcDbEntity
  8
RAHM2
 62
     3
100
AcDbVertex
100
AcDb2dVertex
 10
3566.022133474043
 20
777.124765132129
 30
0.0
  0
VERTEX
  5
895
330
863
100
AcDbEntity
  8
RAHM2
 62
     3
100
AcDbVertex
100
AcDb2dVertex
 10
3565.929838474043
 20
777.2170601321292
 30
0.0
  0
VERTEX
  5
896
330
863
100
AcDbEntity
  8
RAHM2
 62
     3
100
AcDbVertex
100
AcDb2dVertex
 10
3565.831775474043
 20
777.3151231321292
 30
0.0
  0
VERTEX
  5
897
330
863
100
AcDbEntity
  8
RAHM2
 62
     3
100
AcDbVertex
100
AcDb2dVertex
 10
3565.745248474044
 20
777.413187132129
 30
0.0
  0
VERTEX
  5
898
330
863
100
AcDbEntity
  8
RAHM2
 62
     3
100
AcDbVertex
100
AcDb2dVertex
 10
3565.664490474043
 20
777.5170191321292
 30
0.0
  0
VERTEX
  5
899
330
863
100
AcDbEntity
  8
RAHM2
 62
     3
100
AcDbVertex
100
AcDb2dVertex
 10
3565.583732474043
 20
777.6266191321292
 30
0.0
  0
VERTEX
  5
89A
330
863
100
AcDbEntity
  8
RAHM2
 62
     3
100
AcDbVertex
100
AcDb2dVertex
 10
3565.508742474043
 20
777.7362191321292
 30
0.0
  0
VERTEX
  5
89B
330
863
100
AcDbEntity
  8
RAHM2
 62
     3
100
AcDbVertex
100
AcDb2dVertex
 10
3565.439521474043
 20
777.8515881321291
 30
0.0
  0
VERTEX
  5
89C
330
863
100
AcDbEntity
  8
RAHM2
 62
     3
100
AcDbVertex
100
AcDb2dVertex
 10
3565.381837474044
 20
777.9727251321292
 30
0.0
  0
VERTEX
  5
89D
330
863
100
AcDbEntity
  8
RAHM2
 62
     3
100
AcDbVertex
100
AcDb2dVertex
 10
3565.324153474043
 20
778.0880931321291
 30
0.0
  0
VERTEX
  5
89E
330
863
100
AcDbEntity
  8
RAHM2
 62
     3
100
AcDbVertex
100
AcDb2dVertex
 10
3565.272237474044
 20
778.214999132129
 30
0.0
  0
VERTEX
  5
89F
330
863
100
AcDbEntity
  8
RAHM2
 62
     3
100
AcDbVertex
100
AcDb2dVertex
 10
3565.226089474044
 20
778.3419041321289
 30
0.0
  0
VERTEX
  5
8A0
330
863
100
AcDbEntity
  8
RAHM2
 62
     3
100
AcDbVertex
100
AcDb2dVertex
 10
3565.191479474043
 20
778.4745781321291
 30
0.0
  0
VERTEX
  5
8A1
330
863
100
AcDbEntity
  8
RAHM2
 62
     3
100
AcDbVertex
100
AcDb2dVertex
 10
3565.162637474044
 20
778.6072521321291
 30
0.0
  0
VERTEX
  5
8A2
330
863
100
AcDbEntity
  8
RAHM2
 62
     3
100
AcDbVertex
100
AcDb2dVertex
 10
3565.133794474043
 20
778.7399261321292
 30
0.0
  0
VERTEX
  5
8A3
330
863
100
AcDbEntity
  8
RAHM2
 62
     3
100
AcDbVertex
100
AcDb2dVertex
 10
3565.116489474043
 20
778.8783681321291
 30
0.0
  0
VERTEX
  5
8A4
330
863
100
AcDbEntity
  8
RAHM2
 62
     3
100
AcDbVertex
100
AcDb2dVertex
 10
3565.104952474043
 20
779.0168101321291
 30
0.0
  0
VERTEX
  5
8A5
330
863
100
AcDbEntity
  8
RAHM2
 62
     3
100
AcDbVertex
100
AcDb2dVertex
 10
3565.104952474043
 20
779.155253132129
 30
0.0
  0
VERTEX
  5
8A6
330
863
100
AcDbEntity
  8
RAHM2
 62
     3
100
AcDbVertex
100
AcDb2dVertex
 10
3564.308909474044
 20
779.155253132129
 30
0.0
  0
VERTEX
  5
8A7
330
863
100
AcDbEntity
  8
RAHM2
 62
     3
100
AcDbVertex
100
AcDb2dVertex
 10
3564.308909474044
 20
779.155253132129
 30
0.0
  0
SEQEND
  5
8A8
330
863
100
AcDbEntity
  8
RAHM2
 62
     3
  0
POLYLINE
  5
8A9
330
1F
100
AcDbEntity
  8
RAHM2
 62
     3
100
AcDb2dPolyline
 66
     1
 10
0.0
 20
0.0
 30
0.0
  0
VERTEX
  5
8AA
330
8A9
100
AcDbEntity
  8
RAHM2
 62
     3
100
AcDbVertex
100
AcDb2dVertex
 10
3567.891104474043
 20
810.535514132129
 30
0.0
  0
VERTEX
  5
8AB
330
8A9
100
AcDbEntity
  8
RAHM2
 62
     3
100
AcDbVertex
100
AcDb2dVertex
 10
3567.712283474043
 20
810.529746132129
 30
0.0
  0
VERTEX
  5
8AC
330
8A9
100
AcDbEntity
  8
RAHM2
 62
     3
100
AcDbVertex
100
AcDb2dVertex
 10
3567.533462474044
 20
810.5124401321292
 30
0.0
  0
VERTEX
  5
8AD
330
8A9
100
AcDbEntity
  8
RAHM2
 62
     3
100
AcDbVertex
100
AcDb2dVertex
 10
3567.354640474044
 20
810.489367132129
 30
0.0
  0
VERTEX
  5
8AE
330
8A9
100
AcDbEntity
  8
RAHM2
 62
     3
100
AcDbVertex
100
AcDb2dVertex
 10
3567.175819474044
 20
810.4605251321292
 30
0.0
  0
VERTEX
  5
8AF
330
8A9
100
AcDbEntity
  8
RAHM2
 62
     3
100
AcDbVertex
100
AcDb2dVertex
 10
3567.002766474043
 20
810.420146132129
 30
0.0
  0
VERTEX
  5
8B0
330
8A9
100
AcDbEntity
  8
RAHM2
 62
     3
100
AcDbVertex
100
AcDb2dVertex
 10
3566.835481474044
 20
810.3682301321292
 30
0.0
  0
VERTEX
  5
8B1
330
8A9
100
AcDbEntity
  8
RAHM2
 62
     3
100
AcDbVertex
100
AcDb2dVertex
 10
3566.668197474043
 20
810.310545132129
 30
0.0
  0
VERTEX
  5
8B2
330
8A9
100
AcDbEntity
  8
RAHM2
 62
     3
100
AcDbVertex
100
AcDb2dVertex
 10
3566.506681474043
 20
810.2470931321292
 30
0.0
  0
VERTEX
  5
8B3
330
8A9
100
AcDbEntity
  8
RAHM2
 62
     3
100
AcDbVertex
100
AcDb2dVertex
 10
3566.350933474043
 20
810.1778711321289
 30
0.0
  0
VERTEX
  5
8B4
330
8A9
100
AcDbEntity
  8
RAHM2
 62
     3
100
AcDbVertex
100
AcDb2dVertex
 10
3566.195186474043
 20
810.0971131321291
 30
0.0
  0
VERTEX
  5
8B5
330
8A9
100
AcDbEntity
  8
RAHM2
 62
     3
100
AcDbVertex
100
AcDb2dVertex
 10
3566.045206474043
 20
810.0105871321291
 30
0.0
  0
VERTEX
  5
8B6
330
8A9
100
AcDbEntity
  8
RAHM2
 62
     3
100
AcDbVertex
100
AcDb2dVertex
 10
3565.900996474044
 20
809.912524132129
 30
0.0
  0
VERTEX
  5
8B7
330
8A9
100
AcDbEntity
  8
RAHM2
 62
     3
100
AcDbVertex
100
AcDb2dVertex
 10
3565.762553474043
 20
809.814460132129
 30
0.0
  0
VERTEX
  5
8B8
330
8A9
100
AcDbEntity
  8
RAHM2
 62
     3
100
AcDbVertex
100
AcDb2dVertex
 10
3565.624111474043
 20
809.7048601321292
 30
0.0
  0
VERTEX
  5
8B9
330
8A9
100
AcDbEntity
  8
RAHM2
 62
     3
100
AcDbVertex
100
AcDb2dVertex
 10
3565.491437474044
 20
809.5952601321291
 30
0.0
  0
VERTEX
  5
8BA
330
8A9
100
AcDbEntity
  8
RAHM2
 62
     3
100
AcDbVertex
100
AcDb2dVertex
 10
3565.370300474043
 20
809.4741231321291
 30
0.0
  0
VERTEX
  5
8BB
330
8A9
100
AcDbEntity
  8
RAHM2
 62
     3
100
AcDbVertex
100
AcDb2dVertex
 10
3565.249163474043
 20
809.3472171321291
 30
0.0
  0
VERTEX
  5
8BC
330
8A9
100
AcDbEntity
  8
RAHM2
 62
     3
100
AcDbVertex
100
AcDb2dVertex
 10
3565.139563474044
 20
809.220312132129
 30
0.0
  0
VERTEX
  5
8BD
330
8A9
100
AcDbEntity
  8
RAHM2
 62
     3
100
AcDbVertex
100
AcDb2dVertex
 10
3565.029963474043
 20
809.0818701321291
 30
0.0
  0
VERTEX
  5
8BE
330
8A9
100
AcDbEntity
  8
RAHM2
 62
     3
100
AcDbVertex
100
AcDb2dVertex
 10
3564.931899474044
 20
808.9434271321291
 30
0.0
  0
VERTEX
  5
8BF
330
8A9
100
AcDbEntity
  8
RAHM2
 62
     3
100
AcDbVertex
100
AcDb2dVertex
 10
3564.833836474044
 20
808.7992171321291
 30
0.0
  0
VERTEX
  5
8C0
330
8A9
100
AcDbEntity
  8
RAHM2
 62
     3
100
AcDbVertex
100
AcDb2dVertex
 10
3564.747310474043
 20
808.6492371321291
 30
0.0
  0
VERTEX
  5
8C1
330
8A9
100
AcDbEntity
  8
RAHM2
 62
     3
100
AcDbVertex
100
AcDb2dVertex
 10
3564.666552474044
 20
808.4934901321291
 30
0.0
  0
VERTEX
  5
8C2
330
8A9
100
AcDbEntity
  8
RAHM2
 62
     3
100
AcDbVertex
100
AcDb2dVertex
 10
3564.597330474044
 20
808.3377421321291
 30
0.0
  0
VERTEX
  5
8C3
330
8A9
100
AcDbEntity
  8
RAHM2
 62
     3
100
AcDbVertex
100
AcDb2dVertex
 10
3564.533878474043
 20
808.1762261321292
 30
0.0
  0
VERTEX
  5
8C4
330
8A9
100
AcDbEntity
  8
RAHM2
 62
     3
100
AcDbVertex
100
AcDb2dVertex
 10
3564.476193474043
 20
808.0089421321289
 30
0.0
  0
VERTEX
  5
8C5
330
8A9
100
AcDbEntity
  8
RAHM2
 62
     3
100
AcDbVertex
100
AcDb2dVertex
 10
3564.424278474043
 20
807.8416571321291
 30
0.0
  0
VERTEX
  5
8C6
330
8A9
100
AcDbEntity
  8
RAHM2
 62
     3
100
AcDbVertex
100
AcDb2dVertex
 10
3564.383899474043
 20
807.6686041321291
 30
0.0
  0
VERTEX
  5
8C7
330
8A9
100
AcDbEntity
  8
RAHM2
 62
     3
100
AcDbVertex
100
AcDb2dVertex
 10
3564.355056474043
 20
807.489783132129
 30
0.0
  0
VERTEX
  5
8C8
330
8A9
100
AcDbEntity
  8
RAHM2
 62
     3
100
AcDbVertex
100
AcDb2dVertex
 10
3564.331983474043
 20
807.3109621321291
 30
0.0
  0
VERTEX
  5
8C9
330
8A9
100
AcDbEntity
  8
RAHM2
 62
     3
100
AcDbVertex
100
AcDb2dVertex
 10
3564.314677474044
 20
807.132140132129
 30
0.0
  0
VERTEX
  5
8CA
330
8A9
100
AcDbEntity
  8
RAHM2
 62
     3
100
AcDbVertex
100
AcDb2dVertex
 10
3564.308909474044
 20
806.9533191321292
 30
0.0
  0
VERTEX
  5
8CB
330
8A9
100
AcDbEntity
  8
RAHM2
 62
     3
100
AcDbVertex
100
AcDb2dVertex
 10
3565.104952474043
 20
806.9533191321292
 30
0.0
  0
VERTEX
  5
8CC
330
8A9
100
AcDbEntity
  8
RAHM2
 62
     3
100
AcDbVertex
100
AcDb2dVertex
 10
3565.104952474043
 20
807.091761132129
 30
0.0
  0
VERTEX
  5
8CD
330
8A9
100
AcDbEntity
  8
RAHM2
 62
     3
100
AcDbVertex
100
AcDb2dVertex
 10
3565.116489474043
 20
807.2302031321292
 30
0.0
  0
VERTEX
  5
8CE
330
8A9
100
AcDbEntity
  8
RAHM2
 62
     3
100
AcDbVertex
100
AcDb2dVertex
 10
3565.133794474043
 20
807.368646132129
 30
0.0
  0
VERTEX
  5
8CF
330
8A9
100
AcDbEntity
  8
RAHM2
 62
     3
100
AcDbVertex
100
AcDb2dVertex
 10
3565.162637474044
 20
807.5070881321291
 30
0.0
  0
VERTEX
  5
8D0
330
8A9
100
AcDbEntity
  8
RAHM2
 62
     3
100
AcDbVertex
100
AcDb2dVertex
 10
3565.191479474043
 20
807.6397621321291
 30
0.0
  0
VERTEX
  5
8D1
330
8A9
100
AcDbEntity
  8
RAHM2
 62
     3
100
AcDbVertex
100
AcDb2dVertex
 10
3565.231858474043
 20
807.7666681321291
 30
0.0
  0
VERTEX
  5
8D2
330
8A9
100
AcDbEntity
  8
RAHM2
 62
     3
100
AcDbVertex
100
AcDb2dVertex
 10
3565.272237474044
 20
807.899341132129
 30
0.0
  0
VERTEX
  5
8D3
330
8A9
100
AcDbEntity
  8
RAHM2
 62
     3
100
AcDbVertex
100
AcDb2dVertex
 10
3565.324153474043
 20
808.026247132129
 30
0.0
  0
VERTEX
  5
8D4
330
8A9
100
AcDbEntity
  8
RAHM2
 62
     3
100
AcDbVertex
100
AcDb2dVertex
 10
3565.381837474044
 20
808.1473841321292
 30
0.0
  0
VERTEX
  5
8D5
330
8A9
100
AcDbEntity
  8
RAHM2
 62
     3
100
AcDbVertex
100
AcDb2dVertex
 10
3565.445290474043
 20
808.2685211321292
 30
0.0
  0
VERTEX
  5
8D6
330
8A9
100
AcDbEntity
  8
RAHM2
 62
     3
100
AcDbVertex
100
AcDb2dVertex
 10
3565.514511474043
 20
808.3838901321291
 30
0.0
  0
VERTEX
  5
8D7
330
8A9
100
AcDbEntity
  8
RAHM2
 62
     3
100
AcDbVertex
100
AcDb2dVertex
 10
3565.583732474043
 20
808.4992581321291
 30
0.0
  0
VERTEX
  5
8D8
330
8A9
100
AcDbEntity
  8
RAHM2
 62
     3
100
AcDbVertex
100
AcDb2dVertex
 10
3565.664490474043
 20
808.6088581321289
 30
0.0
  0
VERTEX
  5
8D9
330
8A9
100
AcDbEntity
  8
RAHM2
 62
     3
100
AcDbVertex
100
AcDb2dVertex
 10
3565.745248474044
 20
808.7126901321292
 30
0.0
  0
VERTEX
  5
8DA
330
8A9
100
AcDbEntity
  8
RAHM2
 62
     3
100
AcDbVertex
100
AcDb2dVertex
 10
3565.837543474043
 20
808.8165221321292
 30
0.0
  0
VERTEX
  5
8DB
330
8A9
100
AcDbEntity
  8
RAHM2
 62
     3
100
AcDbVertex
100
AcDb2dVertex
 10
3565.929838474043
 20
808.9145851321291
 30
0.0
  0
VERTEX
  5
8DC
330
8A9
100
AcDbEntity
  8
RAHM2
 62
     3
100
AcDbVertex
100
AcDb2dVertex
 10
3566.027901474043
 20
809.0068801321292
 30
0.0
  0
VERTEX
  5
8DD
330
8A9
100
AcDbEntity
  8
RAHM2
 62
     3
100
AcDbVertex
100
AcDb2dVertex
 10
3566.131733474043
 20
809.0934071321292
 30
0.0
  0
VERTEX
  5
8DE
330
8A9
100
AcDbEntity
  8
RAHM2
 62
     3
100
AcDbVertex
100
AcDb2dVertex
 10
3566.235565474043
 20
809.179933132129
 30
0.0
  0
VERTEX
  5
8DF
330
8A9
100
AcDbEntity
  8
RAHM2
 62
     3
100
AcDbVertex
100
AcDb2dVertex
 10
3566.345165474043
 20
809.260691132129
 30
0.0
  0
VERTEX
  5
8E0
330
8A9
100
AcDbEntity
  8
RAHM2
 62
     3
100
AcDbVertex
100
AcDb2dVertex
 10
3566.460533474043
 20
809.329912132129
 30
0.0
  0
VERTEX
  5
8E1
330
8A9
100
AcDbEntity
  8
RAHM2
 62
     3
100
AcDbVertex
100
AcDb2dVertex
 10
3566.575902474043
 20
809.3991331321289
 30
0.0
  0
VERTEX
  5
8E2
330
8A9
100
AcDbEntity
  8
RAHM2
 62
     3
100
AcDbVertex
100
AcDb2dVertex
 10
3566.697039474044
 20
809.4625861321292
 30
0.0
  0
VERTEX
  5
8E3
330
8A9
100
AcDbEntity
  8
RAHM2
 62
     3
100
AcDbVertex
100
AcDb2dVertex
 10
3566.818176474043
 20
809.5202701321291
 30
0.0
  0
VERTEX
  5
8E4
330
8A9
100
AcDbEntity
  8
RAHM2
 62
     3
100
AcDbVertex
100
AcDb2dVertex
 10
3566.945082474044
 20
809.5664181321293
 30
0.0
  0
VERTEX
  5
8E5
330
8A9
100
AcDbEntity
  8
RAHM2
 62
     3
100
AcDbVertex
100
AcDb2dVertex
 10
3567.071987474044
 20
809.612565132129
 30
0.0
  0
VERTEX
  5
8E6
330
8A9
100
AcDbEntity
  8
RAHM2
 62
     3
100
AcDbVertex
100
AcDb2dVertex
 10
3567.204661474044
 20
809.652944132129
 30
0.0
  0
VERTEX
  5
8E7
330
8A9
100
AcDbEntity
  8
RAHM2
 62
     3
100
AcDbVertex
100
AcDb2dVertex
 10
3567.337335474042
 20
809.6817861321293
 30
0.0
  0
VERTEX
  5
8E8
330
8A9
100
AcDbEntity
  8
RAHM2
 62
     3
100
AcDbVertex
100
AcDb2dVertex
 10
3567.475777474044
 20
809.710629132129
 30
0.0
  0
VERTEX
  5
8E9
330
8A9
100
AcDbEntity
  8
RAHM2
 62
     3
100
AcDbVertex
100
AcDb2dVertex
 10
3567.614220474043
 20
809.7279341321291
 30
0.0
  0
VERTEX
  5
8EA
330
8A9
100
AcDbEntity
  8
RAHM2
 62
     3
100
AcDbVertex
100
AcDb2dVertex
 10
3567.752662474044
 20
809.7394711321289
 30
0.0
  0
VERTEX
  5
8EB
330
8A9
100
AcDbEntity
  8
RAHM2
 62
     3
100
AcDbVertex
100
AcDb2dVertex
 10
3567.891104474043
 20
809.7394711321289
 30
0.0
  0
VERTEX
  5
8EC
330
8A9
100
AcDbEntity
  8
RAHM2
 62
     3
100
AcDbVertex
100
AcDb2dVertex
 10
3567.891104474043
 20
810.535514132129
 30
0.0
  0
VERTEX
  5
8ED
330
8A9
100
AcDbEntity
  8
RAHM2
 62
     3
100
AcDbVertex
100
AcDb2dVertex
 10
3567.891104474043
 20
810.535514132129
 30
0.0
  0
SEQEND
  5
8EE
330
8A9
100
AcDbEntity
  8
RAHM2
 62
     3
  0
POLYLINE
  5
8EF
330
1F
100
AcDbEntity
  8
RAHM2
 62
     3
100
AcDb2dPolyline
 66
     1
 10
0.0
 20
0.0
 30
0.0
  0
VERTEX
  5
8F0
330
8EF
100
AcDbEntity
  8
RAHM2
 62
     3
100
AcDbVertex
100
AcDb2dVertex
 10
3579.599133474044
 20
793.0495171321291
 30
0.0
  0
VERTEX
  5
8F1
330
8EF
100
AcDbEntity
  8
RAHM2
 62
     3
100
AcDbVertex
100
AcDb2dVertex
 10
3579.704119474043
 20
793.6269371321291
 30
0.0
  0
VERTEX
  5
8F2
330
8EF
100
AcDbEntity
  8
RAHM2
 62
     3
100
AcDbVertex
100
AcDb2dVertex
 10
3579.914090474043
 20
794.0468791321291
 30
0.0
  0
VERTEX
  5
8F3
330
8EF
100
AcDbEntity
  8
RAHM2
 62
     3
100
AcDbVertex
100
AcDb2dVertex
 10
3580.229046474044
 20
794.3618351321291
 30
0.0
  0
VERTEX
  5
8F4
330
8EF
100
AcDbEntity
  8
RAHM2
 62
     3
100
AcDbVertex
100
AcDb2dVertex
 10
3580.544002474043
 20
794.6242991321292
 30
0.0
  0
VERTEX
  5
8F5
330
8EF
100
AcDbEntity
  8
RAHM2
 62
     3
100
AcDbVertex
100
AcDb2dVertex
 10
3581.173915474043
 20
794.781777132129
 30
0.0
  0
VERTEX
  5
8F6
330
8EF
100
AcDbEntity
  8
RAHM2
 62
     3
100
AcDbVertex
100
AcDb2dVertex
 10
3581.488871474043
 20
794.8342701321291
 30
0.0
  0
VERTEX
  5
8F7
330
8EF
100
AcDbEntity
  8
RAHM2
 62
     3
100
AcDbVertex
100
AcDb2dVertex
 10
3582.066291474044
 20
794.8342701321291
 30
0.0
  0
VERTEX
  5
8F8
330
8EF
100
AcDbEntity
  8
RAHM2
 62
     3
100
AcDbVertex
100
AcDb2dVertex
 10
3582.066291474044
 20
799.183666132129
 30
0.0
  0
VERTEX
  5
8F9
330
8EF
100
AcDbEntity
  8
RAHM2
 62
     3
100
AcDbVertex
100
AcDb2dVertex
 10
3580.176553474043
 20
799.183666132129
 30
0.0
  0
VERTEX
  5
8FA
330
8EF
100
AcDbEntity
  8
RAHM2
 62
     3
100
AcDbVertex
100
AcDb2dVertex
 10
3579.126699474043
 20
799.1311731321291
 30
0.0
  0
VERTEX
  5
8FB
330
8EF
100
AcDbEntity
  8
RAHM2
 62
     3
100
AcDbVertex
100
AcDb2dVertex
 10
3578.234323474043
 20
799.026188132129
 30
0.0
  0
VERTEX
  5
8FC
330
8EF
100
AcDbEntity
  8
RAHM2
 62
     3
100
AcDbVertex
100
AcDb2dVertex
 10
3577.499425474043
 20
798.763724132129
 30
0.0
  0
VERTEX
  5
8FD
330
8EF
100
AcDbEntity
  8
RAHM2
 62
     3
100
AcDbVertex
100
AcDb2dVertex
 10
3576.817019474043
 20
798.5012611321292
 30
0.0
  0
VERTEX
  5
8FE
330
8EF
100
AcDbEntity
  8
RAHM2
 62
     3
100
AcDbVertex
100
AcDb2dVertex
 10
3576.299591474043
 20
798.133812132129
 30
0.0
  0
VERTEX
  5
8FF
330
8EF
100
AcDbEntity
  8
RAHM2
 62
     3
100
AcDbVertex
100
AcDb2dVertex
 10
3575.827157474043
 20
797.7663631321291
 30
0.0
  0
VERTEX
  5
900
330
8EF
100
AcDbEntity
  8
RAHM2
 62
     3
100
AcDbVertex
100
AcDb2dVertex
 10
3575.459708474043
 20
797.3464211321291
 30
0.0
  0
VERTEX
  5
901
330
8EF
100
AcDbEntity
  8
RAHM2
 62
     3
100
AcDbVertex
100
AcDb2dVertex
 10
3575.144751474043
 20
796.9264791321291
 30
0.0
  0
VERTEX
  5
902
330
8EF
100
AcDbEntity
  8
RAHM2
 62
     3
100
AcDbVertex
100
AcDb2dVertex
 10
3574.777302474043
 20
796.0416021321291
 30
0.0
  0
VERTEX
  5
903
330
8EF
100
AcDbEntity
  8
RAHM2
 62
     3
100
AcDbVertex
100
AcDb2dVertex
 10
3574.567332474043
 20
795.3067041321292
 30
0.0
  0
VERTEX
  5
904
330
8EF
100
AcDbEntity
  8
RAHM2
 62
     3
100
AcDbVertex
100
AcDb2dVertex
 10
3574.514839474044
 20
794.6242991321292
 30
0.0
  0
VERTEX
  5
905
330
8EF
100
AcDbEntity
  8
RAHM2
 62
     3
100
AcDbVertex
100
AcDb2dVertex
 10
3574.514839474044
 20
782.610966132129
 30
0.0
  0
VERTEX
  5
906
330
8EF
100
AcDbEntity
  8
RAHM2
 62
     3
100
AcDbVertex
100
AcDb2dVertex
 10
3579.599133474044
 20
782.610966132129
 30
0.0
  0
VERTEX
  5
907
330
8EF
100
AcDbEntity
  8
RAHM2
 62
     3
100
AcDbVertex
100
AcDb2dVertex
 10
3579.599133474044
 20
793.0495171321291
 30
0.0
  0
VERTEX
  5
908
330
8EF
100
AcDbEntity
  8
RAHM2
 62
     3
100
AcDbVertex
100
AcDb2dVertex
 10
3579.599133474044
 20
793.0495171321291
 30
0.0
  0
SEQEND
  5
909
330
8EF
100
AcDbEntity
  8
RAHM2
 62
     3
  0
POLYLINE
  5
90A
330
1F
100
AcDbEntity
  8
RAHM2
 62
     3
100
AcDb2dPolyline
 66
     1
 10
0.0
 20
0.0
 30
0.0
  0
VERTEX
  5
90B
330
90A
100
AcDbEntity
  8
RAHM2
 62
     3
100
AcDbVertex
100
AcDb2dVertex
 10
3587.308064474044
 20
790.109925132129
 30
0.0
  0
VERTEX
  5
90C
330
90A
100
AcDbEntity
  8
RAHM2
 62
     3
100
AcDbVertex
100
AcDb2dVertex
 10
3592.392358474043
 20
794.3618351321291
 30
0.0
  0
VERTEX
  5
90D
330
90A
100
AcDbEntity
  8
RAHM2
 62
     3
100
AcDbVertex
100
AcDb2dVertex
 10
3592.024909474044
 20
794.571806132129
 30
0.0
  0
VERTEX
  5
90E
330
90A
100
AcDbEntity
  8
RAHM2
 62
     3
100
AcDbVertex
100
AcDb2dVertex
 10
3591.612467474043
 20
794.781777132129
 30
0.0
  0
VERTEX
  5
90F
330
90A
100
AcDbEntity
  8
RAHM2
 62
     3
100
AcDbVertex
100
AcDb2dVertex
 10
3591.035047474043
 20
794.9392551321291
 30
0.0
  0
VERTEX
  5
910
330
90A
100
AcDbEntity
  8
RAHM2
 62
     3
100
AcDbVertex
100
AcDb2dVertex
 10
3590.405134474044
 20
795.044240132129
 30
0.0
  0
VERTEX
  5
911
330
90A
100
AcDbEntity
  8
RAHM2
 62
     3
100
AcDbVertex
100
AcDb2dVertex
 10
3589.670236474043
 20
794.991748132129
 30
0.0
  0
VERTEX
  5
912
330
90A
100
AcDbEntity
  8
RAHM2
 62
     3
100
AcDbVertex
100
AcDb2dVertex
 10
3588.882845474044
 20
794.7292841321291
 30
0.0
  0
VERTEX
  5
913
330
90A
100
AcDbEntity
  8
RAHM2
 62
     3
100
AcDbVertex
100
AcDb2dVertex
 10
3588.147947474043
 20
794.2043571321292
 30
0.0
  0
VERTEX
  5
914
330
90A
100
AcDbEntity
  8
RAHM2
 62
     3
100
AcDbVertex
100
AcDb2dVertex
 10
3587.518035474043
 20
793.4694591321292
 30
0.0
  0
VERTEX
  5
915
330
90A
100
AcDbEntity
  8
RAHM2
 62
     3
100
AcDbVertex
100
AcDb2dVertex
 10
3587.150586474044
 20
792.7345611321291
 30
0.0
  0
VERTEX
  5
916
330
90A
100
AcDbEntity
  8
RAHM2
 62
     3
100
AcDbVertex
100
AcDb2dVertex
 10
3586.993107474043
 20
792.0521561321292
 30
0.0
  0
VERTEX
  5
917
330
90A
100
AcDbEntity
  8
RAHM2
 62
     3
100
AcDbVertex
100
AcDb2dVertex
 10
3586.940615474043
 20
791.4222431321291
 30
0.0
  0
VERTEX
  5
918
330
90A
100
AcDbEntity
  8
RAHM2
 62
     3
100
AcDbVertex
100
AcDb2dVertex
 10
3587.045600474043
 20
790.8973161321291
 30
0.0
  0
VERTEX
  5
919
330
90A
100
AcDbEntity
  8
RAHM2
 62
     3
100
AcDbVertex
100
AcDb2dVertex
 10
3587.150586474044
 20
790.4773741321291
 30
0.0
  0
VERTEX
  5
91A
330
90A
100
AcDbEntity
  8
RAHM2
 62
     3
100
AcDbVertex
100
AcDb2dVertex
 10
3587.308064474044
 20
790.109925132129
 30
0.0
  0
VERTEX
  5
91B
330
90A
100
AcDbEntity
  8
RAHM2
 62
     3
100
AcDbVertex
100
AcDb2dVertex
 10
3587.308064474044
 20
790.109925132129
 30
0.0
  0
SEQEND
  5
91C
330
90A
100
AcDbEntity
  8
RAHM2
 62
     3
  0
POLYLINE
  5
91D
330
1F
100
AcDbEntity
  8
RAHM2
 62
     3
100
AcDb2dPolyline
 66
     1
 10
0.0
 20
0.0
 30
0.0
  0
VERTEX
  5
91E
330
91D
100
AcDbEntity
  8
RAHM2
 62
     3
100
AcDbVertex
100
AcDb2dVertex
 10
3632.301821474043
 20
799.026188132129
 30
0.0
  0
VERTEX
  5
91F
330
91D
100
AcDbEntity
  8
RAHM2
 62
     3
100
AcDbVertex
100
AcDb2dVertex
 10
3637.333623474043
 20
799.026188132129
 30
0.0
  0
VERTEX
  5
920
330
91D
100
AcDbEntity
  8
RAHM2
 62
     3
100
AcDbVertex
100
AcDb2dVertex
 10
3637.333623474043
 20
795.9891091321292
 30
0.0
  0
VERTEX
  5
921
330
91D
100
AcDbEntity
  8
RAHM2
 62
     3
100
AcDbVertex
100
AcDb2dVertex
 10
3637.333623474043
 20
795.6741531321291
 30
0.0
  0
VERTEX
  5
922
330
91D
100
AcDbEntity
  8
RAHM2
 62
     3
100
AcDbVertex
100
AcDb2dVertex
 10
3637.491101474043
 20
794.9392551321291
 30
0.0
  0
VERTEX
  5
923
330
91D
100
AcDbEntity
  8
RAHM2
 62
     3
100
AcDbVertex
100
AcDb2dVertex
 10
3637.701072474043
 20
794.5193131321291
 30
0.0
  0
VERTEX
  5
924
330
91D
100
AcDbEntity
  8
RAHM2
 62
     3
100
AcDbVertex
100
AcDb2dVertex
 10
3638.016028474044
 20
794.2043571321292
 30
0.0
  0
VERTEX
  5
925
330
91D
100
AcDbEntity
  8
RAHM2
 62
     3
100
AcDbVertex
100
AcDb2dVertex
 10
3638.540955474044
 20
793.9418931321291
 30
0.0
  0
VERTEX
  5
926
330
91D
100
AcDbEntity
  8
RAHM2
 62
     3
100
AcDbVertex
100
AcDb2dVertex
 10
3639.170868474044
 20
793.8894011321292
 30
0.0
  0
VERTEX
  5
927
330
91D
100
AcDbEntity
  8
RAHM2
 62
     3
100
AcDbVertex
100
AcDb2dVertex
 10
3639.800780474043
 20
793.9418931321291
 30
0.0
  0
VERTEX
  5
928
330
91D
100
AcDbEntity
  8
RAHM2
 62
     3
100
AcDbVertex
100
AcDb2dVertex
 10
3640.325708474043
 20
794.2043571321292
 30
0.0
  0
VERTEX
  5
929
330
91D
100
AcDbEntity
  8
RAHM2
 62
     3
100
AcDbVertex
100
AcDb2dVertex
 10
3640.693157474044
 20
794.571806132129
 30
0.0
  0
VERTEX
  5
92A
330
91D
100
AcDbEntity
  8
RAHM2
 62
     3
100
AcDbVertex
100
AcDb2dVertex
 10
3640.903127474043
 20
794.9392551321291
 30
0.0
  0
VERTEX
  5
92B
330
91D
100
AcDbEntity
  8
RAHM2
 62
     3
100
AcDbVertex
100
AcDb2dVertex
 10
3641.113098474044
 20
795.6741531321291
 30
0.0
  0
VERTEX
  5
92C
330
91D
100
AcDbEntity
  8
RAHM2
 62
     3
100
AcDbVertex
100
AcDb2dVertex
 10
3641.165591474043
 20
796.0416021321291
 30
0.0
  0
VERTEX
  5
92D
330
91D
100
AcDbEntity
  8
RAHM2
 62
     3
100
AcDbVertex
100
AcDb2dVertex
 10
3641.165591474043
 20
799.026188132129
 30
0.0
  0
VERTEX
  5
92E
330
91D
100
AcDbEntity
  8
RAHM2
 62
     3
100
AcDbVertex
100
AcDb2dVertex
 10
3646.092407474044
 20
799.026188132129
 30
0.0
  0
VERTEX
  5
92F
330
91D
100
AcDbEntity
  8
RAHM2
 62
     3
100
AcDbVertex
100
AcDb2dVertex
 10
3646.092407474044
 20
795.5166751321292
 30
0.0
  0
VERTEX
  5
930
330
91D
100
AcDbEntity
  8
RAHM2
 62
     3
100
AcDbVertex
100
AcDb2dVertex
 10
3646.092407474044
 20
794.991748132129
 30
0.0
  0
VERTEX
  5
931
330
91D
100
AcDbEntity
  8
RAHM2
 62
     3
100
AcDbVertex
100
AcDb2dVertex
 10
3645.882437474043
 20
793.8369081321291
 30
0.0
  0
VERTEX
  5
932
330
91D
100
AcDbEntity
  8
RAHM2
 62
     3
100
AcDbVertex
100
AcDb2dVertex
 10
3645.619973474044
 20
793.1545031321291
 30
0.0
  0
VERTEX
  5
933
330
91D
100
AcDbEntity
  8
RAHM2
 62
     3
100
AcDbVertex
100
AcDb2dVertex
 10
3645.200031474043
 20
792.4720971321292
 30
0.0
  0
VERTEX
  5
934
330
91D
100
AcDbEntity
  8
RAHM2
 62
     3
100
AcDbVertex
100
AcDb2dVertex
 10
3644.675104474043
 20
791.8421851321292
 30
0.0
  0
VERTEX
  5
935
330
91D
100
AcDbEntity
  8
RAHM2
 62
     3
100
AcDbVertex
100
AcDb2dVertex
 10
3643.947705474043
 20
791.3697501321292
 30
0.0
  0
VERTEX
  5
936
330
91D
100
AcDbEntity
  8
RAHM2
 62
     3
100
AcDbVertex
100
AcDb2dVertex
 10
3644.307655474043
 20
791.1597791321292
 30
0.0
  0
VERTEX
  5
937
330
91D
100
AcDbEntity
  8
RAHM2
 62
     3
100
AcDbVertex
100
AcDb2dVertex
 10
3644.727597474043
 20
790.8973161321291
 30
0.0
  0
VERTEX
  5
938
330
91D
100
AcDbEntity
  8
RAHM2
 62
     3
100
AcDbVertex
100
AcDb2dVertex
 10
3645.147538474044
 20
790.4773741321291
 30
0.0
  0
VERTEX
  5
939
330
91D
100
AcDbEntity
  8
RAHM2
 62
     3
100
AcDbVertex
100
AcDb2dVertex
 10
3645.619973474044
 20
789.8999541321289
 30
0.0
  0
VERTEX
  5
93A
330
91D
100
AcDbEntity
  8
RAHM2
 62
     3
100
AcDbVertex
100
AcDb2dVertex
 10
3645.987422474044
 20
789.1725551321292
 30
0.0
  0
VERTEX
  5
93B
330
91D
100
AcDbEntity
  8
RAHM2
 62
     3
100
AcDbVertex
100
AcDb2dVertex
 10
3646.302378474044
 20
788.227686132129
 30
0.0
  0
VERTEX
  5
93C
330
91D
100
AcDbEntity
  8
RAHM2
 62
     3
100
AcDbVertex
100
AcDb2dVertex
 10
3646.407364474044
 20
787.0728471321291
 30
0.0
  0
VERTEX
  5
93D
330
91D
100
AcDbEntity
  8
RAHM2
 62
     3
100
AcDbVertex
100
AcDb2dVertex
 10
3646.407364474044
 20
782.663458132129
 30
0.0
  0
VERTEX
  5
93E
330
91D
100
AcDbEntity
  8
RAHM2
 62
     3
100
AcDbVertex
100
AcDb2dVertex
 10
3641.218084474043
 20
782.663458132129
 30
0.0
  0
VERTEX
  5
93F
330
91D
100
AcDbEntity
  8
RAHM2
 62
     3
100
AcDbVertex
100
AcDb2dVertex
 10
3641.218084474043
 20
786.6529051321291
 30
0.0
  0
VERTEX
  5
940
330
91D
100
AcDbEntity
  8
RAHM2
 62
     3
100
AcDbVertex
100
AcDb2dVertex
 10
3641.218084474043
 20
787.020354132129
 30
0.0
  0
VERTEX
  5
941
330
91D
100
AcDbEntity
  8
RAHM2
 62
     3
100
AcDbVertex
100
AcDb2dVertex
 10
3641.165591474043
 20
787.440296132129
 30
0.0
  0
VERTEX
  5
942
330
91D
100
AcDbEntity
  8
RAHM2
 62
     3
100
AcDbVertex
100
AcDb2dVertex
 10
3641.060606474043
 20
787.8602371321292
 30
0.0
  0
VERTEX
  5
943
330
91D
100
AcDbEntity
  8
RAHM2
 62
     3
100
AcDbVertex
100
AcDb2dVertex
 10
3640.850635474043
 20
788.332672132129
 30
0.0
  0
VERTEX
  5
944
330
91D
100
AcDbEntity
  8
RAHM2
 62
     3
100
AcDbVertex
100
AcDb2dVertex
 10
3640.535678474043
 20
788.752613132129
 30
0.0
  0
VERTEX
  5
945
330
91D
100
AcDbEntity
  8
RAHM2
 62
     3
100
AcDbVertex
100
AcDb2dVertex
 10
3640.010751474043
 20
789.0150771321291
 30
0.0
  0
VERTEX
  5
946
330
91D
100
AcDbEntity
  8
RAHM2
 62
     3
100
AcDbVertex
100
AcDb2dVertex
 10
3639.328346474044
 20
789.120062132129
 30
0.0
  0
VERTEX
  5
947
330
91D
100
AcDbEntity
  8
RAHM2
 62
     3
100
AcDbVertex
100
AcDb2dVertex
 10
3638.593448474043
 20
789.0150771321291
 30
0.0
  0
VERTEX
  5
948
330
91D
100
AcDbEntity
  8
RAHM2
 62
     3
100
AcDbVertex
100
AcDb2dVertex
 10
3638.068521474044
 20
788.752613132129
 30
0.0
  0
VERTEX
  5
949
330
91D
100
AcDbEntity
  8
RAHM2
 62
     3
100
AcDbVertex
100
AcDb2dVertex
 10
3637.701072474043
 20
788.332672132129
 30
0.0
  0
VERTEX
  5
94A
330
91D
100
AcDbEntity
  8
RAHM2
 62
     3
100
AcDbVertex
100
AcDb2dVertex
 10
3637.438608474043
 20
787.9127301321291
 30
0.0
  0
VERTEX
  5
94B
330
91D
100
AcDbEntity
  8
RAHM2
 62
     3
100
AcDbVertex
100
AcDb2dVertex
 10
3637.333623474043
 20
787.440296132129
 30
0.0
  0
VERTEX
  5
94C
330
91D
100
AcDbEntity
  8
RAHM2
 62
     3
100
AcDbVertex
100
AcDb2dVertex
 10
3637.281130474044
 20
787.0728471321291
 30
0.0
  0
VERTEX
  5
94D
330
91D
100
AcDbEntity
  8
RAHM2
 62
     3
100
AcDbVertex
100
AcDb2dVertex
 10
3637.228637474043
 20
786.6529051321291
 30
0.0
  0
VERTEX
  5
94E
330
91D
100
AcDbEntity
  8
RAHM2
 62
     3
100
AcDbVertex
100
AcDb2dVertex
 10
3637.228637474043
 20
782.663458132129
 30
0.0
  0
VERTEX
  5
94F
330
91D
100
AcDbEntity
  8
RAHM2
 62
     3
100
AcDbVertex
100
AcDb2dVertex
 10
3631.986865474043
 20
782.663458132129
 30
0.0
  0
VERTEX
  5
950
330
91D
100
AcDbEntity
  8
RAHM2
 62
     3
100
AcDbVertex
100
AcDb2dVertex
 10
3631.986865474043
 20
787.020354132129
 30
0.0
  0
VERTEX
  5
951
330
91D
100
AcDbEntity
  8
RAHM2
 62
     3
100
AcDbVertex
100
AcDb2dVertex
 10
3632.039357474044
 20
787.545281132129
 30
0.0
  0
VERTEX
  5
952
330
91D
100
AcDbEntity
  8
RAHM2
 62
     3
100
AcDbVertex
100
AcDb2dVertex
 10
3632.144343474043
 20
788.1227011321291
 30
0.0
  0
VERTEX
  5
953
330
91D
100
AcDbEntity
  8
RAHM2
 62
     3
100
AcDbVertex
100
AcDb2dVertex
 10
3632.354314474043
 20
788.8051061321291
 30
0.0
  0
VERTEX
  5
954
330
91D
100
AcDbEntity
  8
RAHM2
 62
     3
100
AcDbVertex
100
AcDb2dVertex
 10
3632.616777474043
 20
789.5325051321292
 30
0.0
  0
VERTEX
  5
955
330
91D
100
AcDbEntity
  8
RAHM2
 62
     3
100
AcDbVertex
100
AcDb2dVertex
 10
3633.089212474044
 20
790.267403132129
 30
0.0
  0
VERTEX
  5
956
330
91D
100
AcDbEntity
  8
RAHM2
 62
     3
100
AcDbVertex
100
AcDb2dVertex
 10
3633.666631474043
 20
790.8973161321291
 30
0.0
  0
VERTEX
  5
957
330
91D
100
AcDbEntity
  8
RAHM2
 62
     3
100
AcDbVertex
100
AcDb2dVertex
 10
3634.034080474044
 20
791.1597791321292
 30
0.0
  0
VERTEX
  5
958
330
91D
100
AcDbEntity
  8
RAHM2
 62
     3
100
AcDbVertex
100
AcDb2dVertex
 10
3634.506515474043
 20
791.3697501321292
 30
0.0
  0
VERTEX
  5
959
330
91D
100
AcDbEntity
  8
RAHM2
 62
     3
100
AcDbVertex
100
AcDb2dVertex
 10
3634.139066474044
 20
791.5797211321291
 30
0.0
  0
VERTEX
  5
95A
330
91D
100
AcDbEntity
  8
RAHM2
 62
     3
100
AcDbVertex
100
AcDb2dVertex
 10
3633.824110474043
 20
791.8421851321292
 30
0.0
  0
VERTEX
  5
95B
330
91D
100
AcDbEntity
  8
RAHM2
 62
     3
100
AcDbVertex
100
AcDb2dVertex
 10
3633.404168474043
 20
792.2621261321292
 30
0.0
  0
VERTEX
  5
95C
330
91D
100
AcDbEntity
  8
RAHM2
 62
     3
100
AcDbVertex
100
AcDb2dVertex
 10
3632.984226474044
 20
792.787054132129
 30
0.0
  0
VERTEX
  5
95D
330
91D
100
AcDbEntity
  8
RAHM2
 62
     3
100
AcDbVertex
100
AcDb2dVertex
 10
3632.669270474043
 20
793.5219521321291
 30
0.0
  0
VERTEX
  5
95E
330
91D
100
AcDbEntity
  8
RAHM2
 62
     3
100
AcDbVertex
100
AcDb2dVertex
 10
3632.406806474043
 20
794.3618351321291
 30
0.0
  0
VERTEX
  5
95F
330
91D
100
AcDbEntity
  8
RAHM2
 62
     3
100
AcDbVertex
100
AcDb2dVertex
 10
3632.301821474043
 20
795.464182132129
 30
0.0
  0
VERTEX
  5
960
330
91D
100
AcDbEntity
  8
RAHM2
 62
     3
100
AcDbVertex
100
AcDb2dVertex
 10
3632.301821474043
 20
799.026188132129
 30
0.0
  0
VERTEX
  5
961
330
91D
100
AcDbEntity
  8
RAHM2
 62
     3
100
AcDbVertex
100
AcDb2dVertex
 10
3632.301821474043
 20
799.026188132129
 30
0.0
  0
SEQEND
  5
962
330
91D
100
AcDbEntity
  8
RAHM2
 62
     3
  0
POLYLINE
  5
963
330
1F
100
AcDbEntity
  8
RAHM2
 62
     3
100
AcDb2dPolyline
 66
     1
 10
0.0
 20
0.0
 30
0.0
  0
VERTEX
  5
964
330
963
100
AcDbEntity
  8
RAHM2
 62
     3
100
AcDbVertex
100
AcDb2dVertex
 10
3608.597610474043
 20
805.3703081321291
 30
0.0
  0
VERTEX
  5
965
330
963
100
AcDbEntity
  8
RAHM2
 62
     3
100
AcDbVertex
100
AcDb2dVertex
 10
3608.597610474043
 20
782.663458132129
 30
0.0
  0
VERTEX
  5
966
330
963
100
AcDbEntity
  8
RAHM2
 62
     3
100
AcDbVertex
100
AcDb2dVertex
 10
3613.899374474044
 20
782.663458132129
 30
0.0
  0
VERTEX
  5
967
330
963
100
AcDbEntity
  8
RAHM2
 62
     3
100
AcDbVertex
100
AcDb2dVertex
 10
3613.899374474044
 20
805.3703081321291
 30
0.0
  0
VERTEX
  5
968
330
963
100
AcDbEntity
  8
RAHM2
 62
     3
100
AcDbVertex
100
AcDb2dVertex
 10
3608.597610474043
 20
805.3703081321291
 30
0.0
  0
VERTEX
  5
969
330
963
100
AcDbEntity
  8
RAHM2
 62
     3
100
AcDbVertex
100
AcDb2dVertex
 10
3608.597610474043
 20
805.3703081321291
 30
0.0
  0
SEQEND
  5
96A
330
963
100
AcDbEntity
  8
RAHM2
 62
     3
  0
POLYLINE
  5
96B
330
1F
100
AcDbEntity
  8
RAHM2
 62
     3
100
AcDb2dPolyline
 66
     1
 10
0.0
 20
0.0
 30
0.0
  0
VERTEX
  5
96C
330
96B
100
AcDbEntity
  8
RAHM2
 62
     3
100
AcDbVertex
100
AcDb2dVertex
 10
3599.366391474043
 20
782.663458132129
 30
0.0
  0
VERTEX
  5
96D
330
96B
100
AcDbEntity
  8
RAHM2
 62
     3
100
AcDbVertex
100
AcDb2dVertex
 10
3599.366391474043
 20
800.7584481321289
 30
0.0
  0
VERTEX
  5
96E
330
96B
100
AcDbEntity
  8
RAHM2
 62
     3
100
AcDbVertex
100
AcDb2dVertex
 10
3599.418883474043
 20
801.4408531321292
 30
0.0
  0
VERTEX
  5
96F
330
96B
100
AcDbEntity
  8
RAHM2
 62
     3
100
AcDbVertex
100
AcDb2dVertex
 10
3599.628854474043
 20
802.2282441321291
 30
0.0
  0
VERTEX
  5
970
330
96B
100
AcDbEntity
  8
RAHM2
 62
     3
100
AcDbVertex
100
AcDb2dVertex
 10
3600.048796474044
 20
803.0681271321292
 30
0.0
  0
VERTEX
  5
971
330
96B
100
AcDbEntity
  8
RAHM2
 62
     3
100
AcDbVertex
100
AcDb2dVertex
 10
3600.311260474043
 20
803.4880691321291
 30
0.0
  0
VERTEX
  5
972
330
96B
100
AcDbEntity
  8
RAHM2
 62
     3
100
AcDbVertex
100
AcDb2dVertex
 10
3600.678709474044
 20
803.9080111321291
 30
0.0
  0
VERTEX
  5
973
330
96B
100
AcDbEntity
  8
RAHM2
 62
     3
100
AcDbVertex
100
AcDb2dVertex
 10
3601.151143474044
 20
804.2679611321291
 30
0.0
  0
VERTEX
  5
974
330
96B
100
AcDbEntity
  8
RAHM2
 62
     3
100
AcDbVertex
100
AcDb2dVertex
 10
3601.676070474043
 20
804.6354101321291
 30
0.0
  0
VERTEX
  5
975
330
96B
100
AcDbEntity
  8
RAHM2
 62
     3
100
AcDbVertex
100
AcDb2dVertex
 10
3602.358476474043
 20
804.8978731321293
 30
0.0
  0
VERTEX
  5
976
330
96B
100
AcDbEntity
  8
RAHM2
 62
     3
100
AcDbVertex
100
AcDb2dVertex
 10
3603.145866474044
 20
805.1603371321292
 30
0.0
  0
VERTEX
  5
977
330
96B
100
AcDbEntity
  8
RAHM2
 62
     3
100
AcDbVertex
100
AcDb2dVertex
 10
3604.038242474043
 20
805.3178151321292
 30
0.0
  0
VERTEX
  5
978
330
96B
100
AcDbEntity
  8
RAHM2
 62
     3
100
AcDbVertex
100
AcDb2dVertex
 10
3605.035604474044
 20
805.3703081321291
 30
0.0
  0
VERTEX
  5
979
330
96B
100
AcDbEntity
  8
RAHM2
 62
     3
100
AcDbVertex
100
AcDb2dVertex
 10
3606.917843474044
 20
805.3703081321291
 30
0.0
  0
VERTEX
  5
97A
330
96B
100
AcDbEntity
  8
RAHM2
 62
     3
100
AcDbVertex
100
AcDb2dVertex
 10
3606.917843474044
 20
801.3358671321292
 30
0.0
  0
VERTEX
  5
97B
330
96B
100
AcDbEntity
  8
RAHM2
 62
     3
100
AcDbVertex
100
AcDb2dVertex
 10
3606.347922474043
 20
801.3358671321292
 30
0.0
  0
VERTEX
  5
97C
330
96B
100
AcDbEntity
  8
RAHM2
 62
     3
100
AcDbVertex
100
AcDb2dVertex
 10
3606.085458474043
 20
801.2833751321291
 30
0.0
  0
VERTEX
  5
97D
330
96B
100
AcDbEntity
  8
RAHM2
 62
     3
100
AcDbVertex
100
AcDb2dVertex
 10
3605.403053474043
 20
801.1258971321293
 30
0.0
  0
VERTEX
  5
97E
330
96B
100
AcDbEntity
  8
RAHM2
 62
     3
100
AcDbVertex
100
AcDb2dVertex
 10
3605.088097474043
 20
800.8634331321291
 30
0.0
  0
VERTEX
  5
97F
330
96B
100
AcDbEntity
  8
RAHM2
 62
     3
100
AcDbVertex
100
AcDb2dVertex
 10
3604.773140474043
 20
800.548477132129
 30
0.0
  0
VERTEX
  5
980
330
96B
100
AcDbEntity
  8
RAHM2
 62
     3
100
AcDbVertex
100
AcDb2dVertex
 10
3604.563170474043
 20
800.1285351321291
 30
0.0
  0
VERTEX
  5
981
330
96B
100
AcDbEntity
  8
RAHM2
 62
     3
100
AcDbVertex
100
AcDb2dVertex
 10
3604.458184474044
 20
799.5511151321291
 30
0.0
  0
VERTEX
  5
982
330
96B
100
AcDbEntity
  8
RAHM2
 62
     3
100
AcDbVertex
100
AcDb2dVertex
 10
3604.458184474044
 20
797.8188551321291
 30
0.0
  0
VERTEX
  5
983
330
96B
100
AcDbEntity
  8
RAHM2
 62
     3
100
AcDbVertex
100
AcDb2dVertex
 10
3606.715371474044
 20
797.8188551321291
 30
0.0
  0
VERTEX
  5
984
330
96B
100
AcDbEntity
  8
RAHM2
 62
     3
100
AcDbVertex
100
AcDb2dVertex
 10
3606.715371474044
 20
793.8894011321292
 30
0.0
  0
VERTEX
  5
985
330
96B
100
AcDbEntity
  8
RAHM2
 62
     3
100
AcDbVertex
100
AcDb2dVertex
 10
3604.458184474044
 20
793.8894011321292
 30
0.0
  0
VERTEX
  5
986
330
96B
100
AcDbEntity
  8
RAHM2
 62
     3
100
AcDbVertex
100
AcDb2dVertex
 10
3604.458184474044
 20
782.663458132129
 30
0.0
  0
VERTEX
  5
987
330
96B
100
AcDbEntity
  8
RAHM2
 62
     3
100
AcDbVertex
100
AcDb2dVertex
 10
3599.366391474043
 20
782.663458132129
 30
0.0
  0
VERTEX
  5
988
330
96B
100
AcDbEntity
  8
RAHM2
 62
     3
100
AcDbVertex
100
AcDb2dVertex
 10
3599.366391474043
 20
782.663458132129
 30
0.0
  0
SEQEND
  5
989
330
96B
100
AcDbEntity
  8
RAHM2
 62
     3
  0
POLYLINE
  5
98A
330
1F
100
AcDbEntity
  8
RAHM2
 62
     3
100
AcDb2dPolyline
 66
     1
 10
0.0
 20
0.0
 30
0.0
  0
VERTEX
  5
98B
330
98A
100
AcDbEntity
  8
RAHM2
 62
     3
100
AcDbVertex
100
AcDb2dVertex
 10
3620.295987474044
 20
790.109925132129
 30
0.0
  0
VERTEX
  5
98C
330
98A
100
AcDbEntity
  8
RAHM2
 62
     3
100
AcDbVertex
100
AcDb2dVertex
 10
3625.380281474044
 20
794.3618351321291
 30
0.0
  0
VERTEX
  5
98D
330
98A
100
AcDbEntity
  8
RAHM2
 62
     3
100
AcDbVertex
100
AcDb2dVertex
 10
3625.012832474044
 20
794.571806132129
 30
0.0
  0
VERTEX
  5
98E
330
98A
100
AcDbEntity
  8
RAHM2
 62
     3
100
AcDbVertex
100
AcDb2dVertex
 10
3624.592890474043
 20
794.781777132129
 30
0.0
  0
VERTEX
  5
98F
330
98A
100
AcDbEntity
  8
RAHM2
 62
     3
100
AcDbVertex
100
AcDb2dVertex
 10
3624.015471474044
 20
794.9392551321291
 30
0.0
  0
VERTEX
  5
990
330
98A
100
AcDbEntity
  8
RAHM2
 62
     3
100
AcDbVertex
100
AcDb2dVertex
 10
3623.385558474043
 20
795.044240132129
 30
0.0
  0
VERTEX
  5
991
330
98A
100
AcDbEntity
  8
RAHM2
 62
     3
100
AcDbVertex
100
AcDb2dVertex
 10
3622.650660474043
 20
794.991748132129
 30
0.0
  0
VERTEX
  5
992
330
98A
100
AcDbEntity
  8
RAHM2
 62
     3
100
AcDbVertex
100
AcDb2dVertex
 10
3621.863269474043
 20
794.7292841321291
 30
0.0
  0
VERTEX
  5
993
330
98A
100
AcDbEntity
  8
RAHM2
 62
     3
100
AcDbVertex
100
AcDb2dVertex
 10
3621.135870474044
 20
794.2043571321292
 30
0.0
  0
VERTEX
  5
994
330
98A
100
AcDbEntity
  8
RAHM2
 62
     3
100
AcDbVertex
100
AcDb2dVertex
 10
3620.505958474043
 20
793.4694591321292
 30
0.0
  0
VERTEX
  5
995
330
98A
100
AcDbEntity
  8
RAHM2
 62
     3
100
AcDbVertex
100
AcDb2dVertex
 10
3620.138509474043
 20
792.7345611321291
 30
0.0
  0
VERTEX
  5
996
330
98A
100
AcDbEntity
  8
RAHM2
 62
     3
100
AcDbVertex
100
AcDb2dVertex
 10
3619.981030474044
 20
792.0521561321292
 30
0.0
  0
VERTEX
  5
997
330
98A
100
AcDbEntity
  8
RAHM2
 62
     3
100
AcDbVertex
100
AcDb2dVertex
 10
3619.928538474043
 20
791.4222431321291
 30
0.0
  0
VERTEX
  5
998
330
98A
100
AcDbEntity
  8
RAHM2
 62
     3
100
AcDbVertex
100
AcDb2dVertex
 10
3620.033523474044
 20
790.8973161321291
 30
0.0
  0
VERTEX
  5
999
330
98A
100
AcDbEntity
  8
RAHM2
 62
     3
100
AcDbVertex
100
AcDb2dVertex
 10
3620.138509474043
 20
790.4773741321291
 30
0.0
  0
VERTEX
  5
99A
330
98A
100
AcDbEntity
  8
RAHM2
 62
     3
100
AcDbVertex
100
AcDb2dVertex
 10
3620.295987474044
 20
790.109925132129
 30
0.0
  0
VERTEX
  5
99B
330
98A
100
AcDbEntity
  8
RAHM2
 62
     3
100
AcDbVertex
100
AcDb2dVertex
 10
3620.295987474044
 20
790.109925132129
 30
0.0
  0
SEQEND
  5
99C
330
98A
100
AcDbEntity
  8
RAHM2
 62
     3
  0
POLYLINE
  5
99D
330
1F
100
AcDbEntity
  8
RAHM2
 62
     3
100
AcDb2dPolyline
 66
     1
 10
0.0
 20
0.0
 30
0.0
  0
VERTEX
  5
99E
330
99D
100
AcDbEntity
  8
RAHM2
 62
     3
100
AcDbVertex
100
AcDb2dVertex
 10
3630.412083474043
 20
788.9625841321292
 30
0.0
  0
VERTEX
  5
99F
330
99D
100
AcDbEntity
  8
RAHM2
 62
     3
100
AcDbVertex
100
AcDb2dVertex
 10
3630.412083474043
 20
783.818298132129
 30
0.0
  0
VERTEX
  5
9A0
330
99D
100
AcDbEntity
  8
RAHM2
 62
     3
100
AcDbVertex
100
AcDb2dVertex
 10
3630.044634474044
 20
783.608327132129
 30
0.0
  0
VERTEX
  5
9A1
330
99D
100
AcDbEntity
  8
RAHM2
 62
     3
100
AcDbVertex
100
AcDb2dVertex
 10
3628.897293474043
 20
783.083400132129
 30
0.0
  0
VERTEX
  5
9A2
330
99D
100
AcDbEntity
  8
RAHM2
 62
     3
100
AcDbVertex
100
AcDb2dVertex
 10
3628.109902474044
 20
782.8209361321291
 30
0.0
  0
VERTEX
  5
9A3
330
99D
100
AcDbEntity
  8
RAHM2
 62
     3
100
AcDbVertex
100
AcDb2dVertex
 10
3627.112541474043
 20
782.610966132129
 30
0.0
  0
VERTEX
  5
9A4
330
99D
100
AcDbEntity
  8
RAHM2
 62
     3
100
AcDbVertex
100
AcDb2dVertex
 10
3626.010194474043
 20
782.4534871321291
 30
0.0
  0
VERTEX
  5
9A5
330
99D
100
AcDbEntity
  8
RAHM2
 62
     3
100
AcDbVertex
100
AcDb2dVertex
 10
3624.802861474043
 20
782.4009951321292
 30
0.0
  0
VERTEX
  5
9A6
330
99D
100
AcDbEntity
  8
RAHM2
 62
     3
100
AcDbVertex
100
AcDb2dVertex
 10
3623.910485474043
 20
782.4009951321292
 30
0.0
  0
VERTEX
  5
9A7
330
99D
100
AcDbEntity
  8
RAHM2
 62
     3
100
AcDbVertex
100
AcDb2dVertex
 10
3623.018109474043
 20
782.5059801321291
 30
0.0
  0
VERTEX
  5
9A8
330
99D
100
AcDbEntity
  8
RAHM2
 62
     3
100
AcDbVertex
100
AcDb2dVertex
 10
3622.178225474044
 20
782.7159511321291
 30
0.0
  0
VERTEX
  5
9A9
330
99D
100
AcDbEntity
  8
RAHM2
 62
     3
100
AcDbVertex
100
AcDb2dVertex
 10
3621.293348474043
 20
782.9259221321292
 30
0.0
  0
VERTEX
  5
9AA
330
99D
100
AcDbEntity
  8
RAHM2
 62
     3
100
AcDbVertex
100
AcDb2dVertex
 10
3620.505958474043
 20
783.2408781321291
 30
0.0
  0
VERTEX
  5
9AB
330
99D
100
AcDbEntity
  8
RAHM2
 62
     3
100
AcDbVertex
100
AcDb2dVertex
 10
3619.718567474043
 20
783.6608201321291
 30
0.0
  0
VERTEX
  5
9AC
330
99D
100
AcDbEntity
  8
RAHM2
 62
     3
100
AcDbVertex
100
AcDb2dVertex
 10
3618.983669474043
 20
784.080762132129
 30
0.0
  0
VERTEX
  5
9AD
330
99D
100
AcDbEntity
  8
RAHM2
 62
     3
100
AcDbVertex
100
AcDb2dVertex
 10
3618.301263474043
 20
784.6056891321292
 30
0.0
  0
VERTEX
  5
9AE
330
99D
100
AcDbEntity
  8
RAHM2
 62
     3
100
AcDbVertex
100
AcDb2dVertex
 10
3617.618858474043
 20
785.2356011321291
 30
0.0
  0
VERTEX
  5
9AF
330
99D
100
AcDbEntity
  8
RAHM2
 62
     3
100
AcDbVertex
100
AcDb2dVertex
 10
3617.041438474044
 20
785.9180071321292
 30
0.0
  0
VERTEX
  5
9B0
330
99D
100
AcDbEntity
  8
RAHM2
 62
     3
100
AcDbVertex
100
AcDb2dVertex
 10
3616.569004474043
 20
786.6529051321291
 30
0.0
  0
VERTEX
  5
9B1
330
99D
100
AcDbEntity
  8
RAHM2
 62
     3
100
AcDbVertex
100
AcDb2dVertex
 10
3616.149062474044
 20
787.440296132129
 30
0.0
  0
VERTEX
  5
9B2
330
99D
100
AcDbEntity
  8
RAHM2
 62
     3
100
AcDbVertex
100
AcDb2dVertex
 10
3615.781613474044
 20
788.332672132129
 30
0.0
  0
VERTEX
  5
9B3
330
99D
100
AcDbEntity
  8
RAHM2
 62
     3
100
AcDbVertex
100
AcDb2dVertex
 10
3615.519149474043
 20
789.277541132129
 30
0.0
  0
VERTEX
  5
9B4
330
99D
100
AcDbEntity
  8
RAHM2
 62
     3
100
AcDbVertex
100
AcDb2dVertex
 10
3615.361671474044
 20
790.267403132129
 30
0.0
  0
VERTEX
  5
9B5
330
99D
100
AcDbEntity
  8
RAHM2
 62
     3
100
AcDbVertex
100
AcDb2dVertex
 10
3615.309179474043
 20
791.3697501321292
 30
0.0
  0
VERTEX
  5
9B6
330
99D
100
AcDbEntity
  8
RAHM2
 62
     3
100
AcDbVertex
100
AcDb2dVertex
 10
3615.466657474043
 20
792.839546132129
 30
0.0
  0
VERTEX
  5
9B7
330
99D
100
AcDbEntity
  8
RAHM2
 62
     3
100
AcDbVertex
100
AcDb2dVertex
 10
3615.834106474043
 20
794.256850132129
 30
0.0
  0
VERTEX
  5
9B8
330
99D
100
AcDbEntity
  8
RAHM2
 62
     3
100
AcDbVertex
100
AcDb2dVertex
 10
3616.096569474043
 20
794.9392551321291
 30
0.0
  0
VERTEX
  5
9B9
330
99D
100
AcDbEntity
  8
RAHM2
 62
     3
100
AcDbVertex
100
AcDb2dVertex
 10
3616.464018474044
 20
795.6216601321291
 30
0.0
  0
VERTEX
  5
9BA
330
99D
100
AcDbEntity
  8
RAHM2
 62
     3
100
AcDbVertex
100
AcDb2dVertex
 10
3616.883960474043
 20
796.2515731321291
 30
0.0
  0
VERTEX
  5
9BB
330
99D
100
AcDbEntity
  8
RAHM2
 62
     3
100
AcDbVertex
100
AcDb2dVertex
 10
3617.303902474043
 20
796.8214941321291
 30
0.0
  0
VERTEX
  5
9BC
330
99D
100
AcDbEntity
  8
RAHM2
 62
     3
100
AcDbVertex
100
AcDb2dVertex
 10
3617.881322474044
 20
797.3464211321291
 30
0.0
  0
VERTEX
  5
9BD
330
99D
100
AcDbEntity
  8
RAHM2
 62
     3
100
AcDbVertex
100
AcDb2dVertex
 10
3618.458742474043
 20
797.8713481321292
 30
0.0
  0
VERTEX
  5
9BE
330
99D
100
AcDbEntity
  8
RAHM2
 62
     3
100
AcDbVertex
100
AcDb2dVertex
 10
3619.088654474043
 20
798.2912901321292
 30
0.0
  0
VERTEX
  5
9BF
330
99D
100
AcDbEntity
  8
RAHM2
 62
     3
100
AcDbVertex
100
AcDb2dVertex
 10
3619.823552474044
 20
798.6587391321291
 30
0.0
  0
VERTEX
  5
9C0
330
99D
100
AcDbEntity
  8
RAHM2
 62
     3
100
AcDbVertex
100
AcDb2dVertex
 10
3620.610943474043
 20
798.973695132129
 30
0.0
  0
VERTEX
  5
9C1
330
99D
100
AcDbEntity
  8
RAHM2
 62
     3
100
AcDbVertex
100
AcDb2dVertex
 10
3621.450826474043
 20
799.183666132129
 30
0.0
  0
VERTEX
  5
9C2
330
99D
100
AcDbEntity
  8
RAHM2
 62
     3
100
AcDbVertex
100
AcDb2dVertex
 10
3622.335704474043
 20
799.3411441321291
 30
0.0
  0
VERTEX
  5
9C3
330
99D
100
AcDbEntity
  8
RAHM2
 62
     3
100
AcDbVertex
100
AcDb2dVertex
 10
3623.333065474043
 20
799.393637132129
 30
0.0
  0
VERTEX
  5
9C4
330
99D
100
AcDbEntity
  8
RAHM2
 62
     3
100
AcDbVertex
100
AcDb2dVertex
 10
3624.697876474043
 20
799.2886521321292
 30
0.0
  0
VERTEX
  5
9C5
330
99D
100
AcDbEntity
  8
RAHM2
 62
     3
100
AcDbVertex
100
AcDb2dVertex
 10
3626.010194474043
 20
798.9212031321292
 30
0.0
  0
VERTEX
  5
9C6
330
99D
100
AcDbEntity
  8
RAHM2
 62
     3
100
AcDbVertex
100
AcDb2dVertex
 10
3627.217526474043
 20
798.3962751321292
 30
0.0
  0
VERTEX
  5
9C7
330
99D
100
AcDbEntity
  8
RAHM2
 62
     3
100
AcDbVertex
100
AcDb2dVertex
 10
3628.319873474044
 20
797.713870132129
 30
0.0
  0
VERTEX
  5
9C8
330
99D
100
AcDbEntity
  8
RAHM2
 62
     3
100
AcDbVertex
100
AcDb2dVertex
 10
3629.309736474044
 20
796.8739871321291
 30
0.0
  0
VERTEX
  5
9C9
330
99D
100
AcDbEntity
  8
RAHM2
 62
     3
100
AcDbVertex
100
AcDb2dVertex
 10
3630.097127474043
 20
795.9891091321292
 30
0.0
  0
VERTEX
  5
9CA
330
99D
100
AcDbEntity
  8
RAHM2
 62
     3
100
AcDbVertex
100
AcDb2dVertex
 10
3630.779532474044
 20
794.9392551321291
 30
0.0
  0
VERTEX
  5
9CB
330
99D
100
AcDbEntity
  8
RAHM2
 62
     3
100
AcDbVertex
100
AcDb2dVertex
 10
3631.251967474044
 20
793.8894011321292
 30
0.0
  0
VERTEX
  5
9CC
330
99D
100
AcDbEntity
  8
RAHM2
 62
     3
100
AcDbVertex
100
AcDb2dVertex
 10
3623.438051474043
 20
787.0728471321291
 30
0.0
  0
VERTEX
  5
9CD
330
99D
100
AcDbEntity
  8
RAHM2
 62
     3
100
AcDbVertex
100
AcDb2dVertex
 10
3623.753007474044
 20
787.020354132129
 30
0.0
  0
VERTEX
  5
9CE
330
99D
100
AcDbEntity
  8
RAHM2
 62
     3
100
AcDbVertex
100
AcDb2dVertex
 10
3624.487905474044
 20
786.8628761321291
 30
0.0
  0
VERTEX
  5
9CF
330
99D
100
AcDbEntity
  8
RAHM2
 62
     3
100
AcDbVertex
100
AcDb2dVertex
 10
3625.537759474044
 20
786.8628761321291
 30
0.0
  0
VERTEX
  5
9D0
330
99D
100
AcDbEntity
  8
RAHM2
 62
     3
100
AcDbVertex
100
AcDb2dVertex
 10
3626.167672474044
 20
786.915368132129
 30
0.0
  0
VERTEX
  5
9D1
330
99D
100
AcDbEntity
  8
RAHM2
 62
     3
100
AcDbVertex
100
AcDb2dVertex
 10
3626.797585474043
 20
787.0728471321291
 30
0.0
  0
VERTEX
  5
9D2
330
99D
100
AcDbEntity
  8
RAHM2
 62
     3
100
AcDbVertex
100
AcDb2dVertex
 10
3628.109902474044
 20
787.545281132129
 30
0.0
  0
VERTEX
  5
9D3
330
99D
100
AcDbEntity
  8
RAHM2
 62
     3
100
AcDbVertex
100
AcDb2dVertex
 10
3629.257243474043
 20
788.175194132129
 30
0.0
  0
VERTEX
  5
9D4
330
99D
100
AcDbEntity
  8
RAHM2
 62
     3
100
AcDbVertex
100
AcDb2dVertex
 10
3630.412083474043
 20
788.9625841321292
 30
0.0
  0
VERTEX
  5
9D5
330
99D
100
AcDbEntity
  8
RAHM2
 62
     3
100
AcDbVertex
100
AcDb2dVertex
 10
3630.412083474043
 20
788.9625841321292
 30
0.0
  0
SEQEND
  5
9D6
330
99D
100
AcDbEntity
  8
RAHM2
 62
     3
  0
HATCH
  5
9D7
330
1F
100
AcDbEntity
  8
RAHM2
 62
     3
100
AcDbHatch
 10
0.0
 20
0.0
 30
0.0
210
0.0
220
0.0
230
1.0
  2
SOLID
 70
     1
 71
     0
 91
        2
 92
        7
 72
     0
 73
     1
 93
        4
 10
3656.355753163859
 20
806.9533189721626
 10
3655.957731466849
 20
806.9533189721626
 10
3655.957731466849
 20
779.1552529156335
 10
3656.355753163859
 20
779.1552529156335
 97
        0
 92
        7
 72
     0
 73
     1
 93
       42
 10
3656.113479087416
 20
777.9496509638168
 10
3656.315374151119
 20
778.5149571421808
 10
3656.355753163859
 20
779.1552529156335
 10
3655.957731466849
 20
779.1552529156335
 10
3655.957731466849
 20
779.0168105862387
 10
3655.946194606064
 20
778.8783682568394
 10
3655.92888931489
 20
778.7399259274609
 10
3655.905815593325
 20
778.6014835980526
 10
3655.871205010968
 20
778.4688096990278
 10
3655.836594428627
 20
778.3419042304406
 10
3655.790446985496
 20
778.2149987618253
 10
3655.744299542363
 20
778.0880932932152
 10
3655.686615238447
 20
777.96695625499
 10
3655.628930934534
 20
777.8458192167692
 10
3655.559709769836
 20
777.7362190393263
 10
3655.490488605139
 20
777.6208504315028
 10
3655.409730579657
 20
777.51701868445
 10
3655.328972554177
 20
777.407418507016
 10
3655.242446098306
 20
777.309355190365
 10
3655.150151212036
 20
777.217060304097
 10
3655.052087895391
 20
777.1247654178371
 10
3654.954024578731
 20
777.0382389619609
 10
3654.844424401292
 20
776.9574809364813
 10
3654.734824223851
 20
776.8767229109991
 10
3654.625224046405
 20
776.8075017463017
 10
3654.509855438588
 20
776.7382805816053
 10
3654.388718400365
 20
776.6805962776865
 10
3654.261812931752
 20
776.6229119737784
 10
3654.13490746314
 20
776.5767645306442
 10
3654.008001994529
 20
776.5306170875122
 10
3653.875328095521
 20
776.496006505163
 10
3653.736885766127
 20
776.4671643532058
 10
3653.598443436731
 20
776.4383222012494
 10
3653.460001107337
 20
776.4210169100737
 10
3653.315790347551
 20
776.4094800492914
 10
3653.171579587764
 20
776.4094800492914
 10
3653.171579587764
 20
776.0114583522802
 10
3653.811875361219
 20
776.0518373650203
 10
3654.417560552326
 20
776.2537324287208
 10
3654.942487717946
 20
776.5363855179049
 10
3655.427035870832
 20
776.940175645311
 10
3655.830825998236
 20
777.3843447854517
 97
        0
 75
     0
 76
     1
 47
0.013813
 98
        2
 10
3656.234178474044
 20
800.2040621321292
 10
3655.777688474044
 20
777.793724132129
450
        0
451
        0
460
0.0
461
0.0
452
        0
462
0.0
453
        0
470

  0
POLYLINE
  5
9D8
330
1F
100
AcDbEntity
  8
RAHM2
 62
     3
100
AcDb2dPolyline
 66
     1
 10
0.0
 20
0.0
 30
0.0
  0
VERTEX
  5
9D9
330
9D8
100
AcDbEntity
  8
RAHM2
 62
     3
100
AcDbVertex
100
AcDb2dVertex
 10
3653.171579474043
 20
775.6134371321292
 30
0.0
  0
VERTEX
  5
9DA
330
9D8
100
AcDbEntity
  8
RAHM2
 62
     3
100
AcDbVertex
100
AcDb2dVertex
 10
3653.350400474044
 20
775.6192051321292
 30
0.0
  0
VERTEX
  5
9DB
330
9D8
100
AcDbEntity
  8
RAHM2
 62
     3
100
AcDbVertex
100
AcDb2dVertex
 10
3653.534990474044
 20
775.636510132129
 30
0.0
  0
VERTEX
  5
9DC
330
9D8
100
AcDbEntity
  8
RAHM2
 62
     3
100
AcDbVertex
100
AcDb2dVertex
 10
3653.719580474044
 20
775.6538161321291
 30
0.0
  0
VERTEX
  5
9DD
330
9D8
100
AcDbEntity
  8
RAHM2
 62
     3
100
AcDbVertex
100
AcDb2dVertex
 10
3653.892633474043
 20
775.688426132129
 30
0.0
  0
VERTEX
  5
9DE
330
9D8
100
AcDbEntity
  8
RAHM2
 62
     3
100
AcDbVertex
100
AcDb2dVertex
 10
3654.065686474044
 20
775.7230371321292
 30
0.0
  0
VERTEX
  5
9DF
330
9D8
100
AcDbEntity
  8
RAHM2
 62
     3
100
AcDbVertex
100
AcDb2dVertex
 10
3654.238739474044
 20
775.7749531321292
 30
0.0
  0
VERTEX
  5
9E0
330
9D8
100
AcDbEntity
  8
RAHM2
 62
     3
100
AcDbVertex
100
AcDb2dVertex
 10
3654.406023474043
 20
775.8326371321292
 30
0.0
  0
VERTEX
  5
9E1
330
9D8
100
AcDbEntity
  8
RAHM2
 62
     3
100
AcDbVertex
100
AcDb2dVertex
 10
3654.567539474044
 20
775.890321132129
 30
0.0
  0
VERTEX
  5
9E2
330
9D8
100
AcDbEntity
  8
RAHM2
 62
     3
100
AcDbVertex
100
AcDb2dVertex
 10
3654.729055474044
 20
775.965311132129
 30
0.0
  0
VERTEX
  5
9E3
330
9D8
100
AcDbEntity
  8
RAHM2
 62
     3
100
AcDbVertex
100
AcDb2dVertex
 10
3654.879035474043
 20
776.0403001321289
 30
0.0
  0
VERTEX
  5
9E4
330
9D8
100
AcDbEntity
  8
RAHM2
 62
     3
100
AcDbVertex
100
AcDb2dVertex
 10
3655.029014474044
 20
776.1268271321291
 30
0.0
  0
VERTEX
  5
9E5
330
9D8
100
AcDbEntity
  8
RAHM2
 62
     3
100
AcDbVertex
100
AcDb2dVertex
 10
3655.178993474044
 20
776.2191221321292
 30
0.0
  0
VERTEX
  5
9E6
330
9D8
100
AcDbEntity
  8
RAHM2
 62
     3
100
AcDbVertex
100
AcDb2dVertex
 10
3655.317435474044
 20
776.3171851321292
 30
0.0
  0
VERTEX
  5
9E7
330
9D8
100
AcDbEntity
  8
RAHM2
 62
     3
100
AcDbVertex
100
AcDb2dVertex
 10
3655.455878474043
 20
776.4210171321289
 30
0.0
  0
VERTEX
  5
9E8
330
9D8
100
AcDbEntity
  8
RAHM2
 62
     3
100
AcDbVertex
100
AcDb2dVertex
 10
3655.582783474043
 20
776.5363851321292
 30
0.0
  0
VERTEX
  5
9E9
330
9D8
100
AcDbEntity
  8
RAHM2
 62
     3
100
AcDbVertex
100
AcDb2dVertex
 10
3655.709688474043
 20
776.6517541321291
 30
0.0
  0
VERTEX
  5
9EA
330
9D8
100
AcDbEntity
  8
RAHM2
 62
     3
100
AcDbVertex
100
AcDb2dVertex
 10
3655.825057474043
 20
776.7728911321291
 30
0.0
  0
VERTEX
  5
9EB
330
9D8
100
AcDbEntity
  8
RAHM2
 62
     3
100
AcDbVertex
100
AcDb2dVertex
 10
3655.934657474044
 20
776.905565132129
 30
0.0
  0
VERTEX
  5
9EC
330
9D8
100
AcDbEntity
  8
RAHM2
 62
     3
100
AcDbVertex
100
AcDb2dVertex
 10
3656.044257474044
 20
777.0382391321292
 30
0.0
  0
VERTEX
  5
9ED
330
9D8
100
AcDbEntity
  8
RAHM2
 62
     3
100
AcDbVertex
100
AcDb2dVertex
 10
3656.142321474044
 20
777.176681132129
 30
0.0
  0
VERTEX
  5
9EE
330
9D8
100
AcDbEntity
  8
RAHM2
 62
     3
100
AcDbVertex
100
AcDb2dVertex
 10
3656.234616474044
 20
777.3208921321292
 30
0.0
  0
VERTEX
  5
9EF
330
9D8
100
AcDbEntity
  8
RAHM2
 62
     3
100
AcDbVertex
100
AcDb2dVertex
 10
3656.321142474043
 20
777.4708711321291
 30
0.0
  0
VERTEX
  5
9F0
330
9D8
100
AcDbEntity
  8
RAHM2
 62
     3
100
AcDbVertex
100
AcDb2dVertex
 10
3656.401900474044
 20
777.620850132129
 30
0.0
  0
VERTEX
  5
9F1
330
9D8
100
AcDbEntity
  8
RAHM2
 62
     3
100
AcDbVertex
100
AcDb2dVertex
 10
3656.471121474044
 20
777.776598132129
 30
0.0
  0
VERTEX
  5
9F2
330
9D8
100
AcDbEntity
  8
RAHM2
 62
     3
100
AcDbVertex
100
AcDb2dVertex
 10
3656.534574474044
 20
777.938114132129
 30
0.0
  0
VERTEX
  5
9F3
330
9D8
100
AcDbEntity
  8
RAHM2
 62
     3
100
AcDbVertex
100
AcDb2dVertex
 10
3656.592258474044
 20
778.105398132129
 30
0.0
  0
VERTEX
  5
9F4
330
9D8
100
AcDbEntity
  8
RAHM2
 62
     3
100
AcDbVertex
100
AcDb2dVertex
 10
3656.638406474044
 20
778.272683132129
 30
0.0
  0
VERTEX
  5
9F5
330
9D8
100
AcDbEntity
  8
RAHM2
 62
     3
100
AcDbVertex
100
AcDb2dVertex
 10
3656.678785474043
 20
778.4457361321289
 30
0.0
  0
VERTEX
  5
9F6
330
9D8
100
AcDbEntity
  8
RAHM2
 62
     3
100
AcDbVertex
100
AcDb2dVertex
 10
3656.713395474044
 20
778.6187891321292
 30
0.0
  0
VERTEX
  5
9F7
330
9D8
100
AcDbEntity
  8
RAHM2
 62
     3
100
AcDbVertex
100
AcDb2dVertex
 10
3656.730701474044
 20
778.7976101321292
 30
0.0
  0
VERTEX
  5
9F8
330
9D8
100
AcDbEntity
  8
RAHM2
 62
     3
100
AcDbVertex
100
AcDb2dVertex
 10
3656.748006474043
 20
778.976431132129
 30
0.0
  0
VERTEX
  5
9F9
330
9D8
100
AcDbEntity
  8
RAHM2
 62
     3
100
AcDbVertex
100
AcDb2dVertex
 10
3656.753774474043
 20
779.155253132129
 30
0.0
  0
VERTEX
  5
9FA
330
9D8
100
AcDbEntity
  8
RAHM2
 62
     3
100
AcDbVertex
100
AcDb2dVertex
 10
3655.957731474043
 20
779.155253132129
 30
0.0
  0
VERTEX
  5
9FB
330
9D8
100
AcDbEntity
  8
RAHM2
 62
     3
100
AcDbVertex
100
AcDb2dVertex
 10
3655.957731474043
 20
779.0168101321291
 30
0.0
  0
VERTEX
  5
9FC
330
9D8
100
AcDbEntity
  8
RAHM2
 62
     3
100
AcDbVertex
100
AcDb2dVertex
 10
3655.946194474044
 20
778.8783681321291
 30
0.0
  0
VERTEX
  5
9FD
330
9D8
100
AcDbEntity
  8
RAHM2
 62
     3
100
AcDbVertex
100
AcDb2dVertex
 10
3655.928889474044
 20
778.7399261321292
 30
0.0
  0
VERTEX
  5
9FE
330
9D8
100
AcDbEntity
  8
RAHM2
 62
     3
100
AcDbVertex
100
AcDb2dVertex
 10
3655.905815474044
 20
778.601483132129
 30
0.0
  0
VERTEX
  5
9FF
330
9D8
100
AcDbEntity
  8
RAHM2
 62
     3
100
AcDbVertex
100
AcDb2dVertex
 10
3655.871205474044
 20
778.4688101321291
 30
0.0
  0
VERTEX
  5
A00
330
9D8
100
AcDbEntity
  8
RAHM2
 62
     3
100
AcDbVertex
100
AcDb2dVertex
 10
3655.836594474044
 20
778.3419041321289
 30
0.0
  0
VERTEX
  5
A01
330
9D8
100
AcDbEntity
  8
RAHM2
 62
     3
100
AcDbVertex
100
AcDb2dVertex
 10
3655.790447474043
 20
778.214999132129
 30
0.0
  0
VERTEX
  5
A02
330
9D8
100
AcDbEntity
  8
RAHM2
 62
     3
100
AcDbVertex
100
AcDb2dVertex
 10
3655.744299474044
 20
778.0880931321291
 30
0.0
  0
VERTEX
  5
A03
330
9D8
100
AcDbEntity
  8
RAHM2
 62
     3
100
AcDbVertex
100
AcDb2dVertex
 10
3655.686615474044
 20
777.9669561321292
 30
0.0
  0
VERTEX
  5
A04
330
9D8
100
AcDbEntity
  8
RAHM2
 62
     3
100
AcDbVertex
100
AcDb2dVertex
 10
3655.628930474044
 20
777.8458191321292
 30
0.0
  0
VERTEX
  5
A05
330
9D8
100
AcDbEntity
  8
RAHM2
 62
     3
100
AcDbVertex
100
AcDb2dVertex
 10
3655.559709474044
 20
777.7362191321292
 30
0.0
  0
VERTEX
  5
A06
330
9D8
100
AcDbEntity
  8
RAHM2
 62
     3
100
AcDbVertex
100
AcDb2dVertex
 10
3655.490488474043
 20
777.620850132129
 30
0.0
  0
VERTEX
  5
A07
330
9D8
100
AcDbEntity
  8
RAHM2
 62
     3
100
AcDbVertex
100
AcDb2dVertex
 10
3655.409730474044
 20
777.5170191321292
 30
0.0
  0
VERTEX
  5
A08
330
9D8
100
AcDbEntity
  8
RAHM2
 62
     3
100
AcDbVertex
100
AcDb2dVertex
 10
3655.328972474043
 20
777.4074181321291
 30
0.0
  0
VERTEX
  5
A09
330
9D8
100
AcDbEntity
  8
RAHM2
 62
     3
100
AcDbVertex
100
AcDb2dVertex
 10
3655.242446474044
 20
777.3093551321291
 30
0.0
  0
VERTEX
  5
A0A
330
9D8
100
AcDbEntity
  8
RAHM2
 62
     3
100
AcDbVertex
100
AcDb2dVertex
 10
3655.150151474043
 20
777.2170601321292
 30
0.0
  0
VERTEX
  5
A0B
330
9D8
100
AcDbEntity
  8
RAHM2
 62
     3
100
AcDbVertex
100
AcDb2dVertex
 10
3655.052087474044
 20
777.124765132129
 30
0.0
  0
VERTEX
  5
A0C
330
9D8
100
AcDbEntity
  8
RAHM2
 62
     3
100
AcDbVertex
100
AcDb2dVertex
 10
3654.954024474044
 20
777.0382391321292
 30
0.0
  0
VERTEX
  5
A0D
330
9D8
100
AcDbEntity
  8
RAHM2
 62
     3
100
AcDbVertex
100
AcDb2dVertex
 10
3654.844424474044
 20
776.957481132129
 30
0.0
  0
VERTEX
  5
A0E
330
9D8
100
AcDbEntity
  8
RAHM2
 62
     3
100
AcDbVertex
100
AcDb2dVertex
 10
3654.734824474044
 20
776.8767231321292
 30
0.0
  0
VERTEX
  5
A0F
330
9D8
100
AcDbEntity
  8
RAHM2
 62
     3
100
AcDbVertex
100
AcDb2dVertex
 10
3654.625224474044
 20
776.8075021321292
 30
0.0
  0
VERTEX
  5
A10
330
9D8
100
AcDbEntity
  8
RAHM2
 62
     3
100
AcDbVertex
100
AcDb2dVertex
 10
3654.509855474044
 20
776.7382801321291
 30
0.0
  0
VERTEX
  5
A11
330
9D8
100
AcDbEntity
  8
RAHM2
 62
     3
100
AcDbVertex
100
AcDb2dVertex
 10
3654.388718474044
 20
776.680596132129
 30
0.0
  0
VERTEX
  5
A12
330
9D8
100
AcDbEntity
  8
RAHM2
 62
     3
100
AcDbVertex
100
AcDb2dVertex
 10
3654.261812474044
 20
776.622912132129
 30
0.0
  0
VERTEX
  5
A13
330
9D8
100
AcDbEntity
  8
RAHM2
 62
     3
100
AcDbVertex
100
AcDb2dVertex
 10
3654.134907474044
 20
776.5767641321291
 30
0.0
  0
VERTEX
  5
A14
330
9D8
100
AcDbEntity
  8
RAHM2
 62
     3
100
AcDbVertex
100
AcDb2dVertex
 10
3654.008002474044
 20
776.530617132129
 30
0.0
  0
VERTEX
  5
A15
330
9D8
100
AcDbEntity
  8
RAHM2
 62
     3
100
AcDbVertex
100
AcDb2dVertex
 10
3653.875328474044
 20
776.4960061321292
 30
0.0
  0
VERTEX
  5
A16
330
9D8
100
AcDbEntity
  8
RAHM2
 62
     3
100
AcDbVertex
100
AcDb2dVertex
 10
3653.736885474043
 20
776.4671641321291
 30
0.0
  0
VERTEX
  5
A17
330
9D8
100
AcDbEntity
  8
RAHM2
 62
     3
100
AcDbVertex
100
AcDb2dVertex
 10
3653.598443474044
 20
776.4383221321292
 30
0.0
  0
VERTEX
  5
A18
330
9D8
100
AcDbEntity
  8
RAHM2
 62
     3
100
AcDbVertex
100
AcDb2dVertex
 10
3653.460001474044
 20
776.4210171321289
 30
0.0
  0
VERTEX
  5
A19
330
9D8
100
AcDbEntity
  8
RAHM2
 62
     3
100
AcDbVertex
100
AcDb2dVertex
 10
3653.315790474044
 20
776.4094801321292
 30
0.0
  0
VERTEX
  5
A1A
330
9D8
100
AcDbEntity
  8
RAHM2
 62
     3
100
AcDbVertex
100
AcDb2dVertex
 10
3653.171579474043
 20
776.4094801321292
 30
0.0
  0
VERTEX
  5
A1B
330
9D8
100
AcDbEntity
  8
RAHM2
 62
     3
100
AcDbVertex
100
AcDb2dVertex
 10
3653.171579474043
 20
775.6134371321292
 30
0.0
  0
VERTEX
  5
A1C
330
9D8
100
AcDbEntity
  8
RAHM2
 62
     3
100
AcDbVertex
100
AcDb2dVertex
 10
3653.171579474043
 20
775.6134371321292
 30
0.0
  0
SEQEND
  5
A1D
330
9D8
100
AcDbEntity
  8
RAHM2
 62
     3
  0
POLYLINE
  5
A1E
330
1F
100
AcDbEntity
  8
RAHM2
 62
     3
100
AcDb2dPolyline
 66
     1
 10
0.0
 20
0.0
 30
0.0
  0
VERTEX
  5
A1F
330
A1E
100
AcDbEntity
  8
RAHM2
 62
     3
100
AcDbVertex
100
AcDb2dVertex
 10
3656.753774474043
 20
806.9533191321292
 30
0.0
  0
VERTEX
  5
A20
330
A1E
100
AcDbEntity
  8
RAHM2
 62
     3
100
AcDbVertex
100
AcDb2dVertex
 10
3656.748006474043
 20
807.132140132129
 30
0.0
  0
VERTEX
  5
A21
330
A1E
100
AcDbEntity
  8
RAHM2
 62
     3
100
AcDbVertex
100
AcDb2dVertex
 10
3656.730701474044
 20
807.3109621321291
 30
0.0
  0
VERTEX
  5
A22
330
A1E
100
AcDbEntity
  8
RAHM2
 62
     3
100
AcDbVertex
100
AcDb2dVertex
 10
3656.713395474044
 20
807.489783132129
 30
0.0
  0
VERTEX
  5
A23
330
A1E
100
AcDbEntity
  8
RAHM2
 62
     3
100
AcDbVertex
100
AcDb2dVertex
 10
3656.678785474043
 20
807.6628361321292
 30
0.0
  0
VERTEX
  5
A24
330
A1E
100
AcDbEntity
  8
RAHM2
 62
     3
100
AcDbVertex
100
AcDb2dVertex
 10
3656.638406474044
 20
807.8358891321292
 30
0.0
  0
VERTEX
  5
A25
330
A1E
100
AcDbEntity
  8
RAHM2
 62
     3
100
AcDbVertex
100
AcDb2dVertex
 10
3656.592258474044
 20
808.0031731321291
 30
0.0
  0
VERTEX
  5
A26
330
A1E
100
AcDbEntity
  8
RAHM2
 62
     3
100
AcDbVertex
100
AcDb2dVertex
 10
3656.534574474044
 20
808.1704581321289
 30
0.0
  0
VERTEX
  5
A27
330
A1E
100
AcDbEntity
  8
RAHM2
 62
     3
100
AcDbVertex
100
AcDb2dVertex
 10
3656.471121474044
 20
808.3319741321291
 30
0.0
  0
VERTEX
  5
A28
330
A1E
100
AcDbEntity
  8
RAHM2
 62
     3
100
AcDbVertex
100
AcDb2dVertex
 10
3656.401900474044
 20
808.4934901321291
 30
0.0
  0
VERTEX
  5
A29
330
A1E
100
AcDbEntity
  8
RAHM2
 62
     3
100
AcDbVertex
100
AcDb2dVertex
 10
3656.321142474043
 20
808.6434691321292
 30
0.0
  0
VERTEX
  5
A2A
330
A1E
100
AcDbEntity
  8
RAHM2
 62
     3
100
AcDbVertex
100
AcDb2dVertex
 10
3656.240384474044
 20
808.7934481321292
 30
0.0
  0
VERTEX
  5
A2B
330
A1E
100
AcDbEntity
  8
RAHM2
 62
     3
100
AcDbVertex
100
AcDb2dVertex
 10
3656.142321474044
 20
808.9434271321291
 30
0.0
  0
VERTEX
  5
A2C
330
A1E
100
AcDbEntity
  8
RAHM2
 62
     3
100
AcDbVertex
100
AcDb2dVertex
 10
3656.044257474044
 20
809.0818701321291
 30
0.0
  0
VERTEX
  5
A2D
330
A1E
100
AcDbEntity
  8
RAHM2
 62
     3
100
AcDbVertex
100
AcDb2dVertex
 10
3655.940426474043
 20
809.220312132129
 30
0.0
  0
VERTEX
  5
A2E
330
A1E
100
AcDbEntity
  8
RAHM2
 62
     3
100
AcDbVertex
100
AcDb2dVertex
 10
3655.825057474043
 20
809.3472171321291
 30
0.0
  0
VERTEX
  5
A2F
330
A1E
100
AcDbEntity
  8
RAHM2
 62
     3
100
AcDbVertex
100
AcDb2dVertex
 10
3655.709688474043
 20
809.4741231321291
 30
0.0
  0
VERTEX
  5
A30
330
A1E
100
AcDbEntity
  8
RAHM2
 62
     3
100
AcDbVertex
100
AcDb2dVertex
 10
3655.588551474044
 20
809.589492132129
 30
0.0
  0
VERTEX
  5
A31
330
A1E
100
AcDbEntity
  8
RAHM2
 62
     3
100
AcDbVertex
100
AcDb2dVertex
 10
3655.455878474043
 20
809.7048601321292
 30
0.0
  0
VERTEX
  5
A32
330
A1E
100
AcDbEntity
  8
RAHM2
 62
     3
100
AcDbVertex
100
AcDb2dVertex
 10
3655.323204474044
 20
809.814460132129
 30
0.0
  0
VERTEX
  5
A33
330
A1E
100
AcDbEntity
  8
RAHM2
 62
     3
100
AcDbVertex
100
AcDb2dVertex
 10
3655.178993474044
 20
809.912524132129
 30
0.0
  0
VERTEX
  5
A34
330
A1E
100
AcDbEntity
  8
RAHM2
 62
     3
100
AcDbVertex
100
AcDb2dVertex
 10
3655.034782474044
 20
810.0105871321291
 30
0.0
  0
VERTEX
  5
A35
330
A1E
100
AcDbEntity
  8
RAHM2
 62
     3
100
AcDbVertex
100
AcDb2dVertex
 10
3654.884803474043
 20
810.0971131321291
 30
0.0
  0
VERTEX
  5
A36
330
A1E
100
AcDbEntity
  8
RAHM2
 62
     3
100
AcDbVertex
100
AcDb2dVertex
 10
3654.729055474044
 20
810.1778711321289
 30
0.0
  0
VERTEX
  5
A37
330
A1E
100
AcDbEntity
  8
RAHM2
 62
     3
100
AcDbVertex
100
AcDb2dVertex
 10
3654.573308474044
 20
810.2470931321292
 30
0.0
  0
VERTEX
  5
A38
330
A1E
100
AcDbEntity
  8
RAHM2
 62
     3
100
AcDbVertex
100
AcDb2dVertex
 10
3654.406023474043
 20
810.310545132129
 30
0.0
  0
VERTEX
  5
A39
330
A1E
100
AcDbEntity
  8
RAHM2
 62
     3
100
AcDbVertex
100
AcDb2dVertex
 10
3654.238739474044
 20
810.3682301321292
 30
0.0
  0
VERTEX
  5
A3A
330
A1E
100
AcDbEntity
  8
RAHM2
 62
     3
100
AcDbVertex
100
AcDb2dVertex
 10
3654.071454474043
 20
810.420146132129
 30
0.0
  0
VERTEX
  5
A3B
330
A1E
100
AcDbEntity
  8
RAHM2
 62
     3
100
AcDbVertex
100
AcDb2dVertex
 10
3653.892633474043
 20
810.4605251321292
 30
0.0
  0
VERTEX
  5
A3C
330
A1E
100
AcDbEntity
  8
RAHM2
 62
     3
100
AcDbVertex
100
AcDb2dVertex
 10
3653.719580474044
 20
810.489367132129
 30
0.0
  0
VERTEX
  5
A3D
330
A1E
100
AcDbEntity
  8
RAHM2
 62
     3
100
AcDbVertex
100
AcDb2dVertex
 10
3653.534990474044
 20
810.5124401321292
 30
0.0
  0
VERTEX
  5
A3E
330
A1E
100
AcDbEntity
  8
RAHM2
 62
     3
100
AcDbVertex
100
AcDb2dVertex
 10
3653.356169474043
 20
810.529746132129
 30
0.0
  0
VERTEX
  5
A3F
330
A1E
100
AcDbEntity
  8
RAHM2
 62
     3
100
AcDbVertex
100
AcDb2dVertex
 10
3653.171579474043
 20
810.535514132129
 30
0.0
  0
VERTEX
  5
A40
330
A1E
100
AcDbEntity
  8
RAHM2
 62
     3
100
AcDbVertex
100
AcDb2dVertex
 10
3653.171579474043
 20
809.7394711321289
 30
0.0
  0
VERTEX
  5
A41
330
A1E
100
AcDbEntity
  8
RAHM2
 62
     3
100
AcDbVertex
100
AcDb2dVertex
 10
3653.315790474044
 20
809.7394711321289
 30
0.0
  0
VERTEX
  5
A42
330
A1E
100
AcDbEntity
  8
RAHM2
 62
     3
100
AcDbVertex
100
AcDb2dVertex
 10
3653.460001474044
 20
809.7279341321291
 30
0.0
  0
VERTEX
  5
A43
330
A1E
100
AcDbEntity
  8
RAHM2
 62
     3
100
AcDbVertex
100
AcDb2dVertex
 10
3653.598443474044
 20
809.7048601321292
 30
0.0
  0
VERTEX
  5
A44
330
A1E
100
AcDbEntity
  8
RAHM2
 62
     3
100
AcDbVertex
100
AcDb2dVertex
 10
3653.736885474043
 20
809.6817861321293
 30
0.0
  0
VERTEX
  5
A45
330
A1E
100
AcDbEntity
  8
RAHM2
 62
     3
100
AcDbVertex
100
AcDb2dVertex
 10
3653.869559474044
 20
809.652944132129
 30
0.0
  0
VERTEX
  5
A46
330
A1E
100
AcDbEntity
  8
RAHM2
 62
     3
100
AcDbVertex
100
AcDb2dVertex
 10
3654.002233474044
 20
809.612565132129
 30
0.0
  0
VERTEX
  5
A47
330
A1E
100
AcDbEntity
  8
RAHM2
 62
     3
100
AcDbVertex
100
AcDb2dVertex
 10
3654.134907474044
 20
809.5664181321293
 30
0.0
  0
VERTEX
  5
A48
330
A1E
100
AcDbEntity
  8
RAHM2
 62
     3
100
AcDbVertex
100
AcDb2dVertex
 10
3654.261812474044
 20
809.5202701321291
 30
0.0
  0
VERTEX
  5
A49
330
A1E
100
AcDbEntity
  8
RAHM2
 62
     3
100
AcDbVertex
100
AcDb2dVertex
 10
3654.382949474043
 20
809.4625861321292
 30
0.0
  0
VERTEX
  5
A4A
330
A1E
100
AcDbEntity
  8
RAHM2
 62
     3
100
AcDbVertex
100
AcDb2dVertex
 10
3654.504087474044
 20
809.3991331321289
 30
0.0
  0
VERTEX
  5
A4B
330
A1E
100
AcDbEntity
  8
RAHM2
 62
     3
100
AcDbVertex
100
AcDb2dVertex
 10
3654.619455474044
 20
809.329912132129
 30
0.0
  0
VERTEX
  5
A4C
330
A1E
100
AcDbEntity
  8
RAHM2
 62
     3
100
AcDbVertex
100
AcDb2dVertex
 10
3654.734824474044
 20
809.260691132129
 30
0.0
  0
VERTEX
  5
A4D
330
A1E
100
AcDbEntity
  8
RAHM2
 62
     3
100
AcDbVertex
100
AcDb2dVertex
 10
3654.844424474044
 20
809.179933132129
 30
0.0
  0
VERTEX
  5
A4E
330
A1E
100
AcDbEntity
  8
RAHM2
 62
     3
100
AcDbVertex
100
AcDb2dVertex
 10
3654.948256474044
 20
809.099175132129
 30
0.0
  0
VERTEX
  5
A4F
330
A1E
100
AcDbEntity
  8
RAHM2
 62
     3
100
AcDbVertex
100
AcDb2dVertex
 10
3655.052087474044
 20
809.0068801321292
 30
0.0
  0
VERTEX
  5
A50
330
A1E
100
AcDbEntity
  8
RAHM2
 62
     3
100
AcDbVertex
100
AcDb2dVertex
 10
3655.150151474043
 20
808.9145851321291
 30
0.0
  0
VERTEX
  5
A51
330
A1E
100
AcDbEntity
  8
RAHM2
 62
     3
100
AcDbVertex
100
AcDb2dVertex
 10
3655.236677474043
 20
808.8165221321292
 30
0.0
  0
VERTEX
  5
A52
330
A1E
100
AcDbEntity
  8
RAHM2
 62
     3
100
AcDbVertex
100
AcDb2dVertex
 10
3655.328972474043
 20
808.7184591321291
 30
0.0
  0
VERTEX
  5
A53
330
A1E
100
AcDbEntity
  8
RAHM2
 62
     3
100
AcDbVertex
100
AcDb2dVertex
 10
3655.409730474044
 20
808.6088581321289
 30
0.0
  0
VERTEX
  5
A54
330
A1E
100
AcDbEntity
  8
RAHM2
 62
     3
100
AcDbVertex
100
AcDb2dVertex
 10
3655.484720474044
 20
808.4992581321291
 30
0.0
  0
VERTEX
  5
A55
330
A1E
100
AcDbEntity
  8
RAHM2
 62
     3
100
AcDbVertex
100
AcDb2dVertex
 10
3655.559709474044
 20
808.389658132129
 30
0.0
  0
VERTEX
  5
A56
330
A1E
100
AcDbEntity
  8
RAHM2
 62
     3
100
AcDbVertex
100
AcDb2dVertex
 10
3655.623162474044
 20
808.2685211321292
 30
0.0
  0
VERTEX
  5
A57
330
A1E
100
AcDbEntity
  8
RAHM2
 62
     3
100
AcDbVertex
100
AcDb2dVertex
 10
3655.686615474044
 20
808.1531521321291
 30
0.0
  0
VERTEX
  5
A58
330
A1E
100
AcDbEntity
  8
RAHM2
 62
     3
100
AcDbVertex
100
AcDb2dVertex
 10
3655.744299474044
 20
808.026247132129
 30
0.0
  0
VERTEX
  5
A59
330
A1E
100
AcDbEntity
  8
RAHM2
 62
     3
100
AcDbVertex
100
AcDb2dVertex
 10
3655.790447474043
 20
807.899341132129
 30
0.0
  0
VERTEX
  5
A5A
330
A1E
100
AcDbEntity
  8
RAHM2
 62
     3
100
AcDbVertex
100
AcDb2dVertex
 10
3655.836594474044
 20
807.7724361321292
 30
0.0
  0
VERTEX
  5
A5B
330
A1E
100
AcDbEntity
  8
RAHM2
 62
     3
100
AcDbVertex
100
AcDb2dVertex
 10
3655.871205474044
 20
807.6397621321291
 30
0.0
  0
VERTEX
  5
A5C
330
A1E
100
AcDbEntity
  8
RAHM2
 62
     3
100
AcDbVertex
100
AcDb2dVertex
 10
3655.905815474044
 20
807.5070881321291
 30
0.0
  0
VERTEX
  5
A5D
330
A1E
100
AcDbEntity
  8
RAHM2
 62
     3
100
AcDbVertex
100
AcDb2dVertex
 10
3655.928889474044
 20
807.368646132129
 30
0.0
  0
VERTEX
  5
A5E
330
A1E
100
AcDbEntity
  8
RAHM2
 62
     3
100
AcDbVertex
100
AcDb2dVertex
 10
3655.946194474044
 20
807.2359721321291
 30
0.0
  0
VERTEX
  5
A5F
330
A1E
100
AcDbEntity
  8
RAHM2
 62
     3
100
AcDbVertex
100
AcDb2dVertex
 10
3655.957731474043
 20
807.091761132129
 30
0.0
  0
VERTEX
  5
A60
330
A1E
100
AcDbEntity
  8
RAHM2
 62
     3
100
AcDbVertex
100
AcDb2dVertex
 10
3655.957731474043
 20
806.9533191321292
 30
0.0
  0
VERTEX
  5
A61
330
A1E
100
AcDbEntity
  8
RAHM2
 62
     3
100
AcDbVertex
100
AcDb2dVertex
 10
3656.753774474043
 20
806.9533191321292
 30
0.0
  0
VERTEX
  5
A62
330
A1E
100
AcDbEntity
  8
RAHM2
 62
     3
100
AcDbVertex
100
AcDb2dVertex
 10
3656.753774474043
 20
806.9533191321292
 30
0.0
  0
SEQEND
  5
A63
330
A1E
100
AcDbEntity
  8
RAHM2
 62
     3
  0
POLYLINE
  5
A64
330
1F
100
AcDbEntity
  8
RAHM2
 62
     3
100
AcDb2dPolyline
 66
     1
 10
0.0
 20
0.0
 30
0.0
  0
VERTEX
  5
A65
330
A64
100
AcDbEntity
  8
RAHM2
 62
     3
100
AcDbVertex
100
AcDb2dVertex
 10
3656.753774474043
 20
779.155253132129
 30
0.0
  0
VERTEX
  5
A66
330
A64
100
AcDbEntity
  8
RAHM2
 62
     3
100
AcDbVertex
100
AcDb2dVertex
 10
3656.753774474043
 20
806.9533191321292
 30
0.0
  0
VERTEX
  5
A67
330
A64
100
AcDbEntity
  8
RAHM2
 62
     3
100
AcDbVertex
100
AcDb2dVertex
 10
3655.957731474043
 20
806.9533191321292
 30
0.0
  0
VERTEX
  5
A68
330
A64
100
AcDbEntity
  8
RAHM2
 62
     3
100
AcDbVertex
100
AcDb2dVertex
 10
3655.957731474043
 20
779.155253132129
 30
0.0
  0
VERTEX
  5
A69
330
A64
100
AcDbEntity
  8
RAHM2
 62
     3
100
AcDbVertex
100
AcDb2dVertex
 10
3656.753774474043
 20
779.155253132129
 30
0.0
  0
VERTEX
  5
A6A
330
A64
100
AcDbEntity
  8
RAHM2
 62
     3
100
AcDbVertex
100
AcDb2dVertex
 10
3656.753774474043
 20
779.155253132129
 30
0.0
  0
SEQEND
  5
A6B
330
A64
100
AcDbEntity
  8
RAHM2
 62
     3
  0
DIMENSION
  5
A6C
330
1F
100
AcDbEntity
  8
5
100
AcDbDimension
  2
*D11
 10
2720.429436474043
 20
1056.732377132129
 30
0.0
 11
2708.557735089582
 21
1128.919970857044
 31
0.0
 70
    32
  1
R1-DIN2999
 71
     5
 42
31.9980049999997
  3
GEN-ISO
100
AcDbAlignedDimension
 13
2685.719761474043
 23
1024.734372132129
 33
0.0
 14
2685.719761474043
 24
1056.732377132129
 34
0.0
 50
90.0
100
AcDbRotatedDimension
1001
ACAD
1000
DSTYLE
1002
{
1070
    47
1040
2.0
1070
    48
1040
2.0
1070
   272
1070
     0
1070
   274
1070
     1
1002
}
  0
POINT
  5
A6D
330
1F
100
AcDbEntity
  8
0
 60
     1
100
AcDbPoint
 10
-1293.806615503423
 20
2116.657480331852
 30
0.0
1001
GENIUS_GENODEF_13
1002
{
1000
HIER
1070
   250
1002
}
1002
{
1000
MANEDIT
1070
     1
1002
}
1002
{
1000
NOSEL
1070
     0
1002
}
1002
{
1000
BEHIND
1070
     0
1002
}
1002
{
1000
REACTOR
1002
}
1001
GENIUS_GENOBJ-N-CRC_13
1002
{
1000
OWNER
1000
GEN
1002
}
1001
GENIUS_GENOENT_13
1002
{
1000
MYREF
1005
A6D
1002
}
1002
{
1000
GRP
1005
0
1002
}
1001
GENIUS_GENOLIS_13
1002
{
1000
ENT
1005
6DB
1005
6DA
1005
6DE
1002
}
1001
GENIUS_GENCRC_14
1070
     0
1011
636.4124204965771
1021
3071.119137331851
1031
0.0
1000
d
1000
694
1040
694.0
1070
     4
1040
0.0
  0
VIEWPORT
  5
6F
330
55
100
AcDbEntity
 67
     1
  8
0
100
AcDbViewport
 10
141.0
 20
85.0
 30
0.0
 40
384.7606204379562
 41
222.18
 68
     1
 69
     1
 12
141.0
 22
85.0
 13
0.0
 23
0.0
 14
10.0
 24
10.0
 15
10.0
 25
10.0
 16
0.0
 26
0.0
 36
1.0
 17
0.0
 27
0.0
 37
0.0
 42
50.0
 43
0.0
 44
0.0
 45
222.18
 50
0.0
 51
0.0
 72
   100
 90
    32800
  1

281
     0
 71
     1
 74
     0
110
0.0
120
0.0
130
0.0
111
1.0
121
0.0
131
0.0
112
0.0
122
1.0
132
0.0
 79
     0
146
0.0
170
     0
1001
GENIUS_GENSCREG_15
1000
PF
1040
1.0
1000
DF
1040
1.0
1000
MIN
1011
-51.38031021897808
1021
-26.09
1031
0.0
1000
MAX
1011
333.3803102189782
1021
196.09
1031
0.0
1000
FLAGS
1070
     4
1001
GENIUS_GENOBJ-N-SDF_13
1002
{
1000
OWNER
1000
GEN
1002
}
1001
GENIUS_GENODEF_13
1002
{
1000
HIER
1070
     0
1002
}
1002
{
1000
MANEDIT
1070
     0
1002
}
1002
{
1000
NOSEL
1070
     0
1002
}
1002
{
1000
BEHIND
1070
     0
1002
}
1002
{
1000
OTHER
1070
     0
1002
}
1002
{
1000
REACTOR
1002
}
  0
VIEWPORT
  5
71
330
55
100
AcDbEntity
 67
     1
  8
0
100
AcDbViewport
 10
141.0
 20
85.0
 30
0.0
 40
225.6
 41
136.0
 68
     2
 69
     2
 12
210.0
 22
148.5
 13
0.0
 23
0.0
 14
10.0
 24
10.0
 15
10.0
 25
10.0
 16
0.0
 26
0.0
 36
1.0
 17
0.0
 27
0.0
 37
0.0
 42
50.0
 43
0.0
 44
0.0
 45
302.3194029850746
 50
0.0
 51
0.0
 72
   100
 90
    32864
  1

281
     0
 71
     1
 74
     0
110
0.0
120
0.0
130
0.0
111
1.0
121
0.0
131
0.0
112
0.0
122
1.0
132
0.0
 79
     0
146
0.0
170
     0
1001
GENIUS_GENSCREG_15
1000
PF
1040
0.0
1000
DF
1040
0.0
1000
MIN
1011
28.19999999999999
1021
17.0
1031
0.0
1000
MAX
1011
253.8
1021
153.0
1031
0.0
1000
FLAGS
1070
     4
1001
GENIUS_GENODEF_13
1002
{
1000
HIER
1070
     0
1002
}
1002
{
1000
MANEDIT
1070
     0
1002
}
1002
{
1000
NOSEL
1070
     0
1002
}
1002
{
1000
BEHIND
1070
     0
1002
}
1002
{
1000
OTHER
1070
     0
1002
}
1002
{
1000
REACTOR
1002
}
1001
GENIUS_GENOBJ-N-SDF_13
1002
{
1000
OWNER
1000
GEN
1002
}
  0
ENDSEC
  0
SECTION
  2
OBJECTS
  0
DICTIONARY
  5
C
330
0
100
AcDbDictionary
281
     1
  3
ACAD_COLOR
350
F6
  3
ACAD_GROUP
350
D
  3
ACAD_LAYOUT
350
1A
  3
ACAD_MATERIAL
350
F5
  3
ACAD_MLINESTYLE
350
17
  3
ACAD_PLOTSETTINGS
350
19
  3
ACAD_PLOTSTYLENAME
350
E
  3
ACAD_TABLESTYLE
350
16F
  3
ACAD_VISUALSTYLE
350
1EE
  3
AcDbVariableDictionary
350
DA
  3
AcmDictionary
350
97
  3
AMG
350
7D
  3
AMGSNAPSETTINGS
350
6C4
  0
DICTIONARY
  5
D5
330
1F
100
AcDbDictionary
280
     1
281
     1
  0
DICTIONARY
  5
F6
102
{ACAD_REACTORS
330
C
102
}
330
C
100
AcDbDictionary
281
     1
  0
DICTIONARY
  5
D
102
{ACAD_REACTORS
330
C
102
}
330
C
100
AcDbDictionary
281
     1
  0
DICTIONARY
  5
1A
102
{ACAD_REACTORS
330
C
102
}
330
C
100
AcDbDictionary
281
     1
  3
Layout1
350
51
  3
Layout2
350
56
  3
Model
350
22
  0
DICTIONARY
  5
F5
102
{ACAD_REACTORS
330
C
102
}
330
C
100
AcDbDictionary
281
     1
  3
ByBlock
350
1EC
  3
ByLayer
350
1EB
  3
Global
350
1ED
  0
DICTIONARY
  5
17
102
{ACAD_REACTORS
330
C
102
}
330
C
100
AcDbDictionary
281
     1
  3
Standard
350
18
  0
DICTIONARY
  5
19
102
{ACAD_REACTORS
330
C
102
}
330
C
100
AcDbDictionary
281
     1
  0
ACDBDICTIONARYWDFLT
  5
E
102
{ACAD_REACTORS
330
C
102
}
330
C
100
AcDbDictionary
281
     1
  3
Normal
350
F
100
AcDbDictionaryWithDefault
340
F
  0
DICTIONARY
  5
16F
102
{ACAD_REACTORS
330
C
102
}
330
C
100
AcDbDictionary
281
     1
  3
Standard
350
170
  0
DICTIONARY
  5
1EE
102
{ACAD_REACTORS
330
C
102
}
330
C
100
AcDbDictionary
281
     1
  3
2dWireframe
350
1F4
  3
3D Hidden
350
1F6
  3
3dWireframe
350
1F5
  3
Basic
350
1F3
  3
Brighten
350
1FA
  3
ColorChange
350
1FE
  3
Conceptual
350
1F7
  3
Dim
350
1F9
  3
EdgeColorOff
350
BBD
  3
Facepattern
350
1FD
  3
Flat
350
1EF
  3
FlatWithEdges
350
1F0
  3
Gouraud
350
1F1
  3
GouraudWithEdges
350
1F2
  3
JitterOff
350
BC0
  3
Linepattern
350
1FC
  3
OverhangOff
350
BC3
  3
Realistic
350
1F8
  3
Thicken
350
1FB
  0
DICTIONARY
  5
DA
102
{ACAD_REACTORS
330
C
102
}
330
C
100
AcDbDictionary
281
     1
  3
CTABLESTYLE
350
18F
  3
DIMASSOC
350
DC
  3
INDEXCTL
350
DB
  0
DICTIONARY
  5
97
102
{ACAD_REACTORS
330
C
102
}
330
C
100
AcDbDictionary
281
     1
  3
AcmStdDictionary
350
9D
  3
AMDTSECTSYM_ARROWCOLOR
350
186
  0
DICTIONARY
  5
7D
102
{ACAD_REACTORS
330
C
102
}
330
C
100
AcDbDictionary
281
     1
  0
DICTIONARY
  5
6C4
102
{ACAD_REACTORS
330
C
102
}
330
C
100
AcDbDictionary
281
     1
  0
LAYOUT
  5
51
102
{ACAD_REACTORS
330
1A
102
}
330
1A
100
AcDbPlotSettings
  1

  2
none_device
  4
ISO_A4_(210.00_x_297.00_MM)
  6

 40
7.5
 41
20.0
 42
7.5
 43
20.0
 44
210.0
 45
297.0
 46
0.0
 47
0.0
 48
0.0
 49
0.0
140
0.0
141
0.0
142
1.0
143
1.0
 70
   688
 72
     1
 73
     1
 74
     5
  7
ganz_fein_1.ctb
 75
    16
147
1.0
 76
     0
 77
     2
 78
   300
148
0.0
149
0.0
100
AcDbLayout
  1
Layout1
 70
     1
 71
     1
 10
-20.0
 20
-7.5
 11
277.0
 21
202.5
 12
0.0
 22
0.0
 32
0.0
 14
25.69999999999999
 24
19.5
 34
0.0
 15
231.3
 25
175.5
 35
0.0
146
0.0
 13
0.0
 23
0.0
 33
0.0
 16
1.0
 26
0.0
 36
0.0
 17
0.0
 27
1.0
 37
0.0
 76
     0
330
50
331
69
  0
LAYOUT
  5
56
102
{ACAD_REACTORS
330
1A
102
}
330
1A
100
AcDbPlotSettings
  1

  2
none_device
  4
ISO_A4_(297.00_x_210.00_MM)
  6

 40
7.5
 41
20.0
 42
7.5
 43
20.0
 44
297.0
 45
210.0
 46
0.0
 47
0.0
 48
0.0
 49
0.0
140
0.0
141
0.0
142
1.0
143
1.0
 70
   688
 72
     1
 73
     0
 74
     5
  7
ganz_fein_1.ctb
 75
    16
147
1.0
 76
     0
 77
     2
 78
   300
148
0.0
149
0.0
100
AcDbLayout
  1
Layout2
 70
     1
 71
     2
 10
-7.5
 20
-20.0
 11
289.5
 21
190.0
 12
0.0
 22
0.0
 32
0.0
 14
28.19999999999999
 24
17.0
 34
0.0
 15
253.8
 25
153.0
 35
0.0
146
0.0
 13
0.0
 23
0.0
 33
0.0
 16
1.0
 26
0.0
 36
0.0
 17
0.0
 27
1.0
 37
0.0
 76
     0
330
55
331
6F
  0
LAYOUT
  5
22
102
{ACAD_REACTORS
330
1A
102
}
330
1A
100
AcDbPlotSettings
  1

  2
FreePDF XP
  4
A4
  6

 40
3.174999952316284
 41
3.174999952316284
 42
3.175003051757812
 43
3.17498779296875
 44
209.8886566162109
 45
297.0530090332031
 46
13.45831715647748
 47
-0.0000000000000057
 48
1694.955660589168
 49
667.3339955484867
140
3740.40500062456
141
1910.084728618506
142
1.0
143
7.036216310973725
 70
 11956
 72
     1
 73
     1
 74
     4
  7
ganz_fein_1.ctb
 75
     0
147
0.1421218387559225
 76
     0
 77
     2
 78
   300
148
-1694.955660589168
149
-667.3339955484867
100
AcDbLayout
  1
Model
 70
     1
 71
     0
 10
0.0
 20
0.0
 11
12.0
 21
9.0
 12
0.0
 22
0.0
 32
0.0
 14
0.0
 24
0.0
 34
0.0
 15
0.0
 25
0.0
 35
0.0
146
0.0
 13
0.0
 23
0.0
 33
0.0
 16
1.0
 26
0.0
 36
0.0
 17
0.0
 27
1.0
 37
0.0
 76
     0
330
1F
331
1E9
1001
ACAD_PSEXT
1000
FreePDF XP
1000
Apple Color LW 12/660 PS
1000
FreePDFXP1:
1000

1070
     0
  0
MATERIAL
  5
1EC
102
{ACAD_XDICTIONARY
360
BD4
102
}
102
{ACAD_REACTORS
330
F5
102
}
330
F5
100
AcDbMaterial
  1
ByBlock
  0
MATERIAL
  5
1EB
102
{ACAD_XDICTIONARY
360
BD2
102
}
102
{ACAD_REACTORS
330
F5
102
}
330
F5
100
AcDbMaterial
  1
ByLayer
  0
MATERIAL
  5
1ED
102
{ACAD_XDICTIONARY
360
BD6
102
}
102
{ACAD_REACTORS
330
F5
102
}
330
F5
100
AcDbMaterial
  1
Global
  0
MLINESTYLE
  5
18
102
{ACAD_REACTORS
330
17
102
}
330
17
100
AcDbMlineStyle
  2
STANDARD
 70
     0
  3

 62
   256
 51
90.0
 52
90.0
 71
     2
 49
0.5
 62
   256
  6
BYLAYER
 49
-0.5
 62
   256
  6
BYLAYER
  0
ACDBPLACEHOLDER
  5
F
102
{ACAD_REACTORS
330
E
102
}
330
E
  0
TABLESTYLE
  5
170
102
{ACAD_XDICTIONARY
360
BD0
102
}
102
{ACAD_REACTORS
330
16F
102
}
330
16F
100
AcDbTableStyle
  3
Standard
 70
     0
 71
     0
 40
1.5
 41
1.5
280
     0
281
     0
  7
STANDARD
140
4.5
170
     2
 62
     0
 63
     7
283
     0
274
    -2
284
     1
 64
     0
275
    -2
285
     1
 65
     0
276
    -2
286
     1
 66
     0
277
    -2
287
     1
 67
     0
278
    -2
288
     1
 68
     0
279
    -2
289
     1
 69
     0
  7
STANDARD
140
6.0
170
     5
 62
     0
 63
     7
283
     0
274
    -2
284
     1
 64
     0
275
    -2
285
     1
 65
     0
276
    -2
286
     1
 66
     0
277
    -2
287
     1
 67
     0
278
    -2
288
     1
 68
     0
279
    -2
289
     1
 69
     0
  7
STANDARD
140
4.5
170
     5
 62
     0
 63
     7
283
     0
274
    -2
284
     1
 64
     0
275
    -2
285
     1
 65
     0
276
    -2
286
     1
 66
     0
277
    -2
287
     1
 67
     0
278
    -2
288
     1
 68
     0
279
    -2
289
     1
 69
     0
  0
VISUALSTYLE
  5
1F4
102
{ACAD_REACTORS
330
1EE
102
}
330
1EE
100
AcDbVisualStyle
  2
2dWireframe
 70
     4
 71
     0
 72
     2
 73
     0
 90
        0
 40
-0.6
 41
-30.0
 62
     5
 63
     7
421
 16777215
 74
     1
 91
        4
 64
     7
 65
   257
 75
     1
175
     1
 42
1.0
 92
        0
 66
   257
 43
1.0
 76
     1
 77
     6
 78
     2
 67
     7
 79
     5
170
     0
171
     0
290
     0
174
     0
 93
        1
 44
0.0
173
     0
291
     0
 45
0.0
1001
ACAD
1000
AcDbSavedByObjectVersion
1070
     0
  0
VISUALSTYLE
  5
1F6
102
{ACAD_REACTORS
330
1EE
102
}
330
1EE
100
AcDbVisualStyle
  2
3D Hidden
 70
     6
 71
     1
 72
     2
 73
     2
 90
        0
 40
-0.6
 41
-30.0
 62
     5
 63
     7
421
 16777215
 74
     2
 91
        2
 64
     7
 65
   257
 75
     2
175
     1
 42
40.0
 92
        0
 66
   257
 43
1.0
 76
     1
 77
     6
 78
     2
 67
     7
 79
     3
170
     0
171
     0
290
     0
174
     0
 93
        1
 44
0.0
173
     0
291
     0
 45
0.0
1001
ACAD
1000
AcDbSavedByObjectVersion
1070
     0
  0
VISUALSTYLE
  5
1F5
102
{ACAD_REACTORS
330
1EE
102
}
330
1EE
100
AcDbVisualStyle
  2
3dWireframe
 70
     5
 71
     0
 72
     2
 73
     0
 90
        0
 40
-0.6
 41
-30.0
 62
     5
 63
     7
421
 16777215
 74
     1
 91
        4
 64
     7
 65
   257
 75
     1
175
     1
 42
1.0
 92
        0
 66
   257
 43
1.0
 76
     1
 77
     6
 78
     2
 67
     7
 79
     5
170
     0
171
     0
290
     0
174
     0
 93
        1
 44
0.0
173
     0
291
     0
 45
0.0
1001
ACAD
1000
AcDbSavedByObjectVersion
1070
     0
  0
VISUALSTYLE
  5
1F3
102
{ACAD_REACTORS
330
1EE
102
}
330
1EE
100
AcDbVisualStyle
  2
Basic
 70
     7
 71
     1
 72
     0
 73
     1
 90
        0
 40
-0.6
 41
-30.0
 62
     5
 63
     7
421
 16777215
 74
     0
 91
        4
 64
     7
 65
   257
 75
     1
175
     1
 42
1.0
 92
        8
 66
     7
 43
1.0
 76
     1
 77
     6
 78
     2
 67
     7
 79
     5
170
     0
171
     0
290
     0
174
     0
 93
        1
 44
0.0
173
     0
291
     1
 45
0.0
1001
ACAD
1000
AcDbSavedByObjectVersion
1070
     0
  0
VISUALSTYLE
  5
1FA
102
{ACAD_REACTORS
330
1EE
102
}
330
1EE
100
AcDbVisualStyle
  2
Brighten
 70
    12
 71
     2
 72
     2
 73
     0
 90
        0
 40
-0.6
 41
-30.0
 62
     5
 63
     7
421
 16777215
 74
     1
 91
        4
 64
     7
 65
   257
 75
     1
175
     1
 42
1.0
 92
        8
 66
     7
 43
1.0
 76
     1
 77
     6
 78
     2
 67
     7
 79
     5
170
     0
171
     0
290
     0
174
     0
 93
        1
 44
50.0
173
     0
291
     1
 45
0.0
1001
ACAD
1000
AcDbSavedByObjectVersion
1070
     0
  0
VISUALSTYLE
  5
1FE
102
{ACAD_REACTORS
330
1EE
102
}
330
1EE
100
AcDbVisualStyle
  2
ColorChange
 70
    16
 71
     2
 72
     2
 73
     3
 90
        0
 40
-0.6
 41
-30.0
 62
     5
 63
     8
421
  8421504
 74
     1
 91
        4
 64
     7
 65
   257
 75
     1
175
     1
 42
1.0
 92
        8
 66
     8
424
  8421504
 43
1.0
 76
     1
 77
     6
 78
     2
 67
     7
 79
     5
170
     0
171
     0
290
     0
174
     0
 93
        1
 44
0.0
173
     0
291
     1
 45
0.0
1001
ACAD
1000
AcDbSavedByObjectVersion
1070
     0
  0
VISUALSTYLE
  5
1F7
102
{ACAD_REACTORS
330
1EE
102
}
330
1EE
100
AcDbVisualStyle
  2
Conceptual
 70
     9
 71
     3
 72
     2
 73
     0
 90
        0
 40
-0.6
 41
-30.0
 62
     5
 63
     7
421
 16777215
 74
     2
 91
        2
 64
     7
 65
   257
 75
     1
175
     1
 42
40.0
 92
        8
 66
     7
 43
1.0
 76
     1
 77
     6
 78
     2
 67
     7
 79
     3
170
     0
171
     0
290
     0
174
     0
 93
        1
 44
0.0
173
     0
291
     0
 45
0.0
1001
ACAD
1000
AcDbSavedByObjectVersion
1070
     0
  0
VISUALSTYLE
  5
1F9
102
{ACAD_REACTORS
330
1EE
102
}
330
1EE
100
AcDbVisualStyle
  2
Dim
 70
    11
 71
     2
 72
     2
 73
     0
 90
        0
 40
-0.6
 41
-30.0
 62
     5
 63
     7
421
 16777215
 74
     1
 91
        4
 64
     7
 65
   257
 75
     1
175
     1
 42
1.0
 92
        8
 66
     7
 43
1.0
 76
     1
 77
     6
 78
     2
 67
     7
 79
     5
170
     0
171
     0
290
     0
174
     0
 93
        1
 44
-50.0
173
     0
291
     1
 45
0.0
1001
ACAD
1000
AcDbSavedByObjectVersion
1070
     0
  0
VISUALSTYLE
  5
BBD
102
{ACAD_XDICTIONARY
360
BBE
102
}
102
{ACAD_REACTORS
330
1EE
102
}
330
1EE
100
AcDbVisualStyle
  2
EdgeColorOff
 70
    22
 71
     2
 72
     2
 73
     0
 90
        0
 40
-0.6
 41
-30.0
 62
     5
 63
     7
 74
     1
 91
        4
 64
     7
 65
   257
 75
     1
175
     1
 42
1.0
 92
        8
 66
     7
 43
1.0
 76
     1
 77
     6
 78
     2
 67
     7
 79
     5
170
     0
171
     0
290
     0
174
     0
 93
        1
 44
0.0
173
     0
291
     1
 45
0.0
1001
ACAD
1000
AcDbSavedByObjectVersion
1070
     0
  0
VISUALSTYLE
  5
1FD
102
{ACAD_REACTORS
330
1EE
102
}
330
1EE
100
AcDbVisualStyle
  2
Facepattern
 70
    15
 71
     2
 72
     2
 73
     0
 90
        0
 40
-0.6
 41
-30.0
 62
     5
 63
     7
421
 16777215
 74
     1
 91
        4
 64
     7
 65
   257
 75
     1
175
     1
 42
1.0
 92
        8
 66
     7
 43
1.0
 76
     1
 77
     6
 78
     2
 67
     7
 79
     5
170
     0
171
     0
290
     0
174
     0
 93
        1
 44
0.0
173
     0
291
     1
 45
0.0
1001
ACAD
1000
AcDbSavedByObjectVersion
1070
     0
  0
VISUALSTYLE
  5
1EF
102
{ACAD_REACTORS
330
1EE
102
}
330
1EE
100
AcDbVisualStyle
  2
Flat
 70
     0
 71
     2
 72
     1
 73
     1
 90
        2
 40
-0.6
 41
30.0
 62
     5
 63
     7
421
 16777215
 74
     0
 91
        4
 64
     7
 65
   257
 75
     1
175
     1
 42
1.0
 92
        8
 66
     7
 43
1.0
 76
     1
 77
     6
 78
     2
 67
     7
 79
     5
170
     0
171
     0
290
     0
174
     0
 93
       13
 44
0.0
173
     0
291
     1
 45
0.0
1001
ACAD
1000
AcDbSavedByObjectVersion
1070
     0
  0
VISUALSTYLE
  5
1F0
102
{ACAD_REACTORS
330
1EE
102
}
330
1EE
100
AcDbVisualStyle
  2
FlatWithEdges
 70
     1
 71
     2
 72
     1
 73
     1
 90
        2
 40
-0.6
 41
30.0
 62
     5
 63
     7
421
 16777215
 74
     1
 91
        4
 64
     7
 65
   257
 75
     1
175
     1
 42
1.0
 92
        0
 66
   257
 43
1.0
 76
     1
 77
     6
 78
     2
 67
     7
 79
     5
170
     0
171
     0
290
     0
174
     0
 93
       13
 44
0.0
173
     0
291
     1
 45
0.0
1001
ACAD
1000
AcDbSavedByObjectVersion
1070
     0
  0
VISUALSTYLE
  5
1F1
102
{ACAD_REACTORS
330
1EE
102
}
330
1EE
100
AcDbVisualStyle
  2
Gouraud
 70
     2
 71
     2
 72
     2
 73
     1
 90
        2
 40
-0.6
 41
30.0
 62
     5
 63
     7
421
 16777215
 74
     0
 91
        4
 64
     7
 65
   257
 75
     1
175
     1
 42
1.0
 92
        0
 66
     7
 43
1.0
 76
     1
 77
     6
 78
     2
 67
     7
 79
     5
170
     0
171
     0
290
     0
174
     0
 93
       13
 44
0.0
173
     0
291
     1
 45
0.0
1001
ACAD
1000
AcDbSavedByObjectVersion
1070
     0
  0
VISUALSTYLE
  5
1F2
102
{ACAD_REACTORS
330
1EE
102
}
330
1EE
100
AcDbVisualStyle
  2
GouraudWithEdges
 70
     3
 71
     2
 72
     2
 73
     1
 90
        2
 40
-0.6
 41
30.0
 62
     5
 63
     7
421
 16777215
 74
     1
 91
        4
 64
     7
 65
   257
 75
     1
175
     1
 42
1.0
 92
        0
 66
   257
 43
1.0
 76
     1
 77
     6
 78
     2
 67
     7
 79
     5
170
     0
171
     0
290
     0
174
     0
 93
       13
 44
0.0
173
     0
291
     1
 45
0.0
1001
ACAD
1000
AcDbSavedByObjectVersion
1070
     0
  0
VISUALSTYLE
  5
BC0
102
{ACAD_XDICTIONARY
360
BC1
102
}
102
{ACAD_REACTORS
330
1EE
102
}
330
1EE
100
AcDbVisualStyle
  2
JitterOff
 70
    20
 71
     2
 72
     2
 73
     0
 90
        0
 40
-0.6
 41
-30.0
 62
     5
 63
     7
 74
     1
 91
        4
 64
     7
 65
   257
 75
     1
175
     1
 42
1.0
 92
       10
 66
     7
 43
1.0
 76
     1
 77
     6
 78
     2
 67
     7
 79
     5
170
     0
171
     0
290
     0
174
     0
 93
        1
 44
0.0
173
     0
291
     1
 45
0.0
1001
ACAD
1000
AcDbSavedByObjectVersion
1070
     0
  0
VISUALSTYLE
  5
1FC
102
{ACAD_REACTORS
330
1EE
102
}
330
1EE
100
AcDbVisualStyle
  2
Linepattern
 70
    14
 71
     2
 72
     2
 73
     0
 90
        0
 40
-0.6
 41
-30.0
 62
     5
 63
     7
421
 16777215
 74
     1
 91
        4
 64
     7
 65
   257
 75
     7
175
     7
 42
1.0
 92
        8
 66
     7
 43
1.0
 76
     1
 77
     6
 78
     2
 67
     7
 79
     5
170
     0
171
     0
290
     0
174
     0
 93
        1
 44
0.0
173
     0
291
     1
 45
0.0
1001
ACAD
1000
AcDbSavedByObjectVersion
1070
     0
  0
VISUALSTYLE
  5
BC3
102
{ACAD_XDICTIONARY
360
BC4
102
}
102
{ACAD_REACTORS
330
1EE
102
}
330
1EE
100
AcDbVisualStyle
  2
OverhangOff
 70
    21
 71
     2
 72
     2
 73
     0
 90
        0
 40
-0.6
 41
-30.0
 62
     5
 63
     7
 74
     1
 91
        4
 64
     7
 65
   257
 75
     1
175
     1
 42
1.0
 92
        9
 66
     7
 43
1.0
 76
     1
 77
     6
 78
     2
 67
     7
 79
     5
170
     0
171
     0
290
     0
174
     0
 93
        1
 44
0.0
173
     0
291
     1
 45
0.0
1001
ACAD
1000
AcDbSavedByObjectVersion
1070
     0
  0
VISUALSTYLE
  5
1F8
102
{ACAD_REACTORS
330
1EE
102
}
330
1EE
100
AcDbVisualStyle
  2
Realistic
 70
     8
 71
     2
 72
     2
 73
     0
 90
        0
 40
-0.6
 41
-30.0
 62
     5
 63
     7
421
 16777215
 74
     1
 91
        0
 64
     7
 65
   257
 75
     1
175
     1
 42
1.0
 92
        8
 66
     8
424
  7895160
 43
1.0
 76
     1
 77
     6
 78
     2
 67
     7
 79
     5
170
     0
171
     0
290
     0
174
     0
 93
       13
 44
0.0
173
     0
291
     0
 45
0.0
1001
ACAD
1000
AcDbSavedByObjectVersion
1070
     0
  0
VISUALSTYLE
  5
1FB
102
{ACAD_REACTORS
330
1EE
102
}
330
1EE
100
AcDbVisualStyle
  2
Thicken
 70
    13
 71
     2
 72
     2
 73
     0
 90
        0
 40
-0.6
 41
-30.0
 62
     5
 63
     7
421
 16777215
 74
     1
 91
        4
 64
     7
 65
   257
 75
     1
175
     1
 42
1.0
 92
       12
 66
     7
 43
1.0
 76
     1
 77
     6
 78
     2
 67
     7
 79
     5
170
     0
171
     0
290
     0
174
     0
 93
        1
 44
0.0
173
     0
291
     1
 45
0.0
1001
ACAD
1000
AcDbSavedByObjectVersion
1070
     0
  0
DICTIONARYVAR
  5
18F
102
{ACAD_REACTORS
330
DA
102
}
330
DA
100
DictionaryVariables
280
     0
  1
STANDARD
  0
DICTIONARYVAR
  5
DC
102
{ACAD_REACTORS
330
DA
102
}
330
DA
100
DictionaryVariables
280
     0
  1
1
  0
DICTIONARYVAR
  5
DB
102
{ACAD_REACTORS
330
DA
102
}
330
DA
100
DictionaryVariables
280
     0
  1
1
  0
DICTIONARY
  5
9D
102
{ACAD_REACTORS
330
97
102
}
330
97
100
AcDbDictionary
281
     1
  0
XRECORD
  5
186
102
{ACAD_REACTORS
330
97
102
}
330
97
100
AcDbXrecord
280
     1
 90
-1023410169
  0
DICTIONARY
  5
BD4
330
1EC
100
AcDbDictionary
280
     1
281
     1
  3
ACAD_XREC_ROUNDTRIP
360
BD5
  0
DICTIONARY
  5
BD2
330
1EB
100
AcDbDictionary
280
     1
281
     1
  3
ACAD_XREC_ROUNDTRIP
360
BD3
  0
DICTIONARY
  5
BD6
330
1ED
100
AcDbDictionary
280
     1
281
     1
  3
ACAD_XREC_ROUNDTRIP
360
BD7
  0
DICTIONARY
  5
BD0
330
170
100
AcDbDictionary
280
     1
281
     1
  3
ACAD_XREC_ROUNDTRIP
360
BD1
  0
DICTIONARY
  5
BBE
330
BBD
100
AcDbDictionary
280
     1
281
     1
  3
ACAD_XREC_ROUNDTRIP
360
BBF
  0
DICTIONARY
  5
BC1
330
BC0
100
AcDbDictionary
280
     1
281
     1
  3
ACAD_XREC_ROUNDTRIP
360
BC2
  0
DICTIONARY
  5
BC4
330
BC3
100
AcDbDictionary
280
     1
281
     1
  3
ACAD_XREC_ROUNDTRIP
360
BC5
  0
XRECORD
  5
BD5
102
{ACAD_REACTORS
330
BD4
102
}
330
BD4
100
AcDbXrecord
280
     1
102
MATERIAL
148
0.0
149
0.0
149
0.0
 93
        0
 94
       63
282
     0
 72
     1
 77
     1
171
     1
175
     1
179
     1
273
     0
  0
XRECORD
  5
BD3
102
{ACAD_REACTORS
330
BD2
102
}
330
BD2
100
AcDbXrecord
280
     1
102
MATERIAL
148
0.0
149
0.0
149
0.0
 93
        0
 94
       63
282
     0
 72
     1
 77
     1
171
     1
175
     1
179
     1
273
     0
  0
XRECORD
  5
BD7
102
{ACAD_REACTORS
330
BD6
102
}
330
BD6
100
AcDbXrecord
280
     1
102
MATERIAL
148
0.0
149
0.0
149
0.0
 93
        0
 94
       63
282
     0
 72
     1
 77
     1
171
     1
175
     1
179
     1
273
     0
  0
XRECORD
  5
BD1
102
{ACAD_REACTORS
330
BD0
102
}
330
BD0
100
AcDbXrecord
280
     1
102
ACAD_ROUNDTRIP_PRE2007_TABLESTYLE
 90
        4
 91
        0
  1

 92
        4
 93
        0
  2

 94
        4
 95
        0
  3

  0
XRECORD
  5
BBF
102
{ACAD_REACTORS
330
BBE
102
}
330
BBE
100
AcDbXrecord
280
     1
102
RTVSPropertyOp0
 70
     0
102
RTVSPropertyOp1
 70
     0
102
RTVSPropertyOp2
 70
     0
102
RTVSPropertyOp3
 70
     0
102
RTVSPropertyOp4
 70
     0
102
RTVSPropertyOp5
 70
     0
102
RTVSPropertyOp6
 70
     0
102
RTVSPropertyOp7
 70
     0
102
RTVSPropertyOp8
 70
     0
102
RTVSPropertyOp9
 70
     0
102
RTVSPropertyOp10
 70
     0
102
RTVSPropertyOp11
 70
     0
102
RTVSPropertyOp12
 70
     0
102
RTVSPropertyOp13
 70
     0
102
RTVSPropertyOp14
 70
     2
102
RTVSPropertyOp15
 70
     0
102
RTVSPropertyOp16
 70
     0
102
RTVSPropertyOp17
 70
     0
102
RTVSPropertyOp18
 70
     0
102
RTVSPropertyOp19
 70
     0
102
RTVSPropertyOp20
 70
     0
102
RTVSPropertyOp21
 70
     0
102
RTVSPropertyOp22
 70
     0
102
RTVSPropertyOp23
 70
     0
102
RTVSPropertyOp24
 70
     0
102
RTVSPropertyOp25
 70
     0
102
RTVSPropertyOp26
 70
     0
102
RTVSPropertyOp27
 70
     0
  0
XRECORD
  5
BC2
102
{ACAD_REACTORS
330
BC1
102
}
330
BC1
100
AcDbXrecord
280
     1
102
RTVSPropertyOp0
 70
     0
102
RTVSPropertyOp1
 70
     0
102
RTVSPropertyOp2
 70
     0
102
RTVSPropertyOp3
 70
     0
102
RTVSPropertyOp4
 70
     0
102
RTVSPropertyOp5
 70
     0
102
RTVSPropertyOp6
 70
     0
102
RTVSPropertyOp7
 70
     0
102
RTVSPropertyOp8
 70
     0
102
RTVSPropertyOp9
 70
     0
102
RTVSPropertyOp10
 70
     0
102
RTVSPropertyOp11
 70
     0
102
RTVSPropertyOp12
 70
     0
102
RTVSPropertyOp13
 70
     0
102
RTVSPropertyOp14
 70
     2
102
RTVSPropertyOp15
 70
     0
102
RTVSPropertyOp16
 70
     0
102
RTVSPropertyOp17
 70
     0
102
RTVSPropertyOp18
 70
     0
102
RTVSPropertyOp19
 70
     0
102
RTVSPropertyOp20
 70
     0
102
RTVSPropertyOp21
 70
     0
102
RTVSPropertyOp22
 70
     0
102
RTVSPropertyOp23
 70
     0
102
RTVSPropertyOp24
 70
     0
102
RTVSPropertyOp25
 70
     0
102
RTVSPropertyOp26
 70
     0
102
RTVSPropertyOp27
 70
     0
  0
XRECORD
  5
BC5
102
{ACAD_REACTORS
330
BC4
102
}
330
BC4
100
AcDbXrecord
280
     1
102
RTVSPropertyOp0
 70
     0
102
RTVSPropertyOp1
 70
     0
102
RTVSPropertyOp2
 70
     0
102
RTVSPropertyOp3
 70
     0
102
RTVSPropertyOp4
 70
     0
102
RTVSPropertyOp5
 70
     0
102
RTVSPropertyOp6
 70
     0
102
RTVSPropertyOp7
 70
     0
102
RTVSPropertyOp8
 70
     0
102
RTVSPropertyOp9
 70
     0
102
RTVSPropertyOp10
 70
     0
102
RTVSPropertyOp11
 70
     0
102
RTVSPropertyOp12
 70
     0
102
RTVSPropertyOp13
 70
     0
102
RTVSPropertyOp14
 70
     2
102
RTVSPropertyOp15
 70
     0
102
RTVSPropertyOp16
 70
     0
102
RTVSPropertyOp17
 70
     0
102
RTVSPropertyOp18
 70
     0
102
RTVSPropertyOp19
 70
     0
102
RTVSPropertyOp20
 70
     0
102
RTVSPropertyOp21
 70
     0
102
RTVSPropertyOp22
 70
     0
102
RTVSPropertyOp23
 70
     0
102
RTVSPropertyOp24
 70
     0
102
RTVSPropertyOp25
 70
     0
102
RTVSPropertyOp26
 70
     0
102
RTVSPropertyOp27
 70
     0
  0
ENDSEC
  0
EOF
