  0
SECTION
  2
HEADER
  9
$ACADVER
  1
AC1018
  9
$ACADMAINTVER
 70
   104
  9
$DWGCODEPAGE
  3
ANSI_1252
  9
$LASTSAVEDBY
  1
Oberdoer
  9
$CUSTOMPROPERTYTAG
  1
AmdtFileType
  9
$CUSTOMPROPERTY
  1
84
  9
$INSBASE
 10
0.0
 20
0.0
 30
0.0
  9
$EXTMIN
 10
211.1855597878898
 20
71.51152495189307
 30
-0.0000000349181948
  9
$EXTMAX
 10
1904.331169910985
 20
1188.618348055869
 30
0.0000000814935746
  9
$LIMMIN
 10
0.0
 20
0.0
  9
$LIMMAX
 10
420.0
 20
297.0
  9
$ORTHOMODE
 70
     0
  9
$REGENMODE
 70
     1
  9
$FILLMODE
 70
     1
  9
$QTEXTMODE
 70
     0
  9
$MIRRTEXT
 70
     1
  9
$LTSCALE
 40
1.0
  9
$ATTMODE
 70
     1
  9
$TEXTSIZE
 40
2.5
  9
$TRACEWID
 40
1.0
  9
$TEXTSTYLE
  7
STANDARD
  9
$CLAYER
  8
0
  9
$CELTYPE
  6
ByLayer
  9
$CECOLOR
 62
   256
  9
$CELTSCALE
 40
1.0
  9
$DISPSILH
 70
     0
  9
$DIMSCALE
 40
1.0
  9
$DIMASZ
 40
2.5
  9
$DIMEXO
 40
0.0
  9
$DIMDLI
 40
10.0
  9
$DIMRND
 40
0.0
  9
$DIMDLE
 40
0.0
  9
$DIMEXE
 40
2.0
  9
$DIMTP
 40
0.1
  9
$DIMTM
 40
0.1
  9
$DIMTXT
 40
3.5
  9
$DIMCEN
 40
0.0
  9
$DIMTSZ
 40
0.0
  9
$DIMTOL
 70
     0
  9
$DIMLIM
 70
     0
  9
$DIMTIH
 70
     0
  9
$DIMTOH
 70
     0
  9
$DIMSE1
 70
     0
  9
$DIMSE2
 70
     0
  9
$DIMTAD
 70
     1
  9
$DIMZIN
 70
     8
  9
$DIMBLK
  1

  9
$DIMASO
 70
     1
  9
$DIMSHO
 70
     1
  9
$DIMPOST
  1

  9
$DIMAPOST
  1
"
  9
$DIMALT
 70
     0
  9
$DIMALTD
 70
     2
  9
$DIMALTF
 40
0.0393701
  9
$DIMLFAC
 40
1.0
  9
$DIMTOFL
 70
     1
  9
$DIMTVP
 40
0.0
  9
$DIMTIX
 70
     0
  9
$DIMSOXD
 70
     0
  9
$DIMSAH
 70
     0
  9
$DIMBLK1
  1

  9
$DIMBLK2
  1

  9
$DIMSTYLE
  2
AM_DIN
  9
$DIMCLRD
 70
   256
  9
$DIMCLRE
 70
   256
  9
$DIMCLRT
 70
     2
  9
$DIMTFAC
 40
0.71
  9
$DIMGAP
 40
1.5
  9
$DIMJUST
 70
     0
  9
$DIMSD1
 70
     0
  9
$DIMSD2
 70
     0
  9
$DIMTOLJ
 70
     0
  9
$DIMTZIN
 70
     8
  9
$DIMALTZ
 70
     0
  9
$DIMALTTZ
 70
     0
  9
$DIMUPT
 70
     0
  9
$DIMDEC
 70
     2
  9
$DIMTDEC
 70
     2
  9
$DIMALTU
 70
     2
  9
$DIMALTTD
 70
     2
  9
$DIMTXSTY
  7
STANDARD
  9
$DIMAUNIT
 70
     0
  9
$DIMADEC
 70
     0
  9
$DIMALTRND
 40
0.0
  9
$DIMAZIN
 70
     2
  9
$DIMDSEP
 70
    46
  9
$DIMATFIT
 70
     3
  9
$DIMFRAC
 70
     0
  9
$DIMLDRBLK
  1

  9
$DIMLUNIT
 70
     2
  9
$DIMLWD
 70
    -1
  9
$DIMLWE
 70
    -1
  9
$DIMTMOVE
 70
     0
  9
$LUNITS
 70
     2
  9
$LUPREC
 70
     2
  9
$SKETCHINC
 40
1.0
  9
$FILLETRAD
 40
2.5
  9
$AUNITS
 70
     0
  9
$AUPREC
 70
     0
  9
$MENU
  1
.
  9
$ELEVATION
 40
0.0
  9
$PELEVATION
 40
0.0
  9
$THICKNESS
 40
0.0
  9
$LIMCHECK
 70
     0
  9
$CHAMFERA
 40
2.5
  9
$CHAMFERB
 40
2.5
  9
$CHAMFERC
 40
20.0
  9
$CHAMFERD
 40
0.0
  9
$SKPOLY
 70
     0
  9
$TDCREATE
 40
2455481.456265000
  9
$TDUCREATE
 40
2455481.414598333
  9
$TDUPDATE
 40
2455513.442510127
  9
$TDUUPDATE
 40
2455513.400843461
  9
$TDINDWG
 40
0.0045131713
  9
$TDUSRTIMER
 40
0.0045131713
  9
$USRTIMER
 70
     1
  9
$ANGBASE
 50
0.0
  9
$ANGDIR
 70
     0
  9
$PDMODE
 70
     0
  9
$PDSIZE
 40
0.0
  9
$PLINEWID
 40
0.0
  9
$SPLFRAME
 70
     0
  9
$SPLINETYPE
 70
     6
  9
$SPLINESEGS
 70
     8
  9
$HANDSEED
  5
C35
  9
$SURFTAB1
 70
     6
  9
$SURFTAB2
 70
     6
  9
$SURFTYPE
 70
     6
  9
$SURFU
 70
     6
  9
$SURFV
 70
     6
  9
$UCSBASE
  2

  9
$UCSNAME
  2

  9
$UCSORG
 10
0.0
 20
0.0
 30
0.0
  9
$UCSXDIR
 10
1.0
 20
0.0
 30
0.0
  9
$UCSYDIR
 10
0.0
 20
1.0
 30
0.0
  9
$UCSORTHOREF
  2

  9
$UCSORTHOVIEW
 70
     0
  9
$UCSORGTOP
 10
0.0
 20
0.0
 30
0.0
  9
$UCSORGBOTTOM
 10
0.0
 20
0.0
 30
0.0
  9
$UCSORGLEFT
 10
0.0
 20
0.0
 30
0.0
  9
$UCSORGRIGHT
 10
0.0
 20
0.0
 30
0.0
  9
$UCSORGFRONT
 10
0.0
 20
0.0
 30
0.0
  9
$UCSORGBACK
 10
0.0
 20
0.0
 30
0.0
  9
$PUCSBASE
  2

  9
$PUCSNAME
  2

  9
$PUCSORG
 10
0.0
 20
0.0
 30
0.0
  9
$PUCSXDIR
 10
1.0
 20
0.0
 30
0.0
  9
$PUCSYDIR
 10
0.0
 20
1.0
 30
0.0
  9
$PUCSORTHOREF
  2

  9
$PUCSORTHOVIEW
 70
     0
  9
$PUCSORGTOP
 10
0.0
 20
0.0
 30
0.0
  9
$PUCSORGBOTTOM
 10
0.0
 20
0.0
 30
0.0
  9
$PUCSORGLEFT
 10
0.0
 20
0.0
 30
0.0
  9
$PUCSORGRIGHT
 10
0.0
 20
0.0
 30
0.0
  9
$PUCSORGFRONT
 10
0.0
 20
0.0
 30
0.0
  9
$PUCSORGBACK
 10
0.0
 20
0.0
 30
0.0
  9
$USERI1
 70
     0
  9
$USERI2
 70
     0
  9
$USERI3
 70
     0
  9
$USERI4
 70
     0
  9
$USERI5
 70
     0
  9
$USERR1
 40
0.0
  9
$USERR2
 40
0.0
  9
$USERR3
 40
0.0
  9
$USERR4
 40
0.0
  9
$USERR5
 40
0.0
  9
$WORLDVIEW
 70
     1
  9
$SHADEDGE
 70
     3
  9
$SHADEDIF
 70
    70
  9
$TILEMODE
 70
     1
  9
$MAXACTVP
 70
    64
  9
$PINSBASE
 10
0.0
 20
0.0
 30
0.0
  9
$PLIMCHECK
 70
     0
  9
$PEXTMIN
 10
28.19999999999999
 20
17.0
 30
0.0
  9
$PEXTMAX
 10
253.8
 20
153.0
 30
0.0
  9
$PLIMMIN
 10
-7.5
 20
-20.0
  9
$PLIMMAX
 10
289.5
 20
190.0
  9
$UNITMODE
 70
     0
  9
$VISRETAIN
 70
     1
  9
$PLINEGEN
 70
     0
  9
$PSLTSCALE
 70
     1
  9
$TREEDEPTH
 70
  3020
  9
$CMLSTYLE
  2
Standard
  9
$CMLJUST
 70
     0
  9
$CMLSCALE
 40
20.0
  9
$PROXYGRAPHICS
 70
     1
  9
$MEASUREMENT
 70
     1
  9
$CELWEIGHT
370
    -1
  9
$ENDCAPS
280
     0
  9
$JOINSTYLE
280
     0
  9
$LWDISPLAY
290
     0
  9
$INSUNITS
 70
     4
  9
$HYPERLINKBASE
  1

  9
$STYLESHEET
  1
ganz_fein_1.ctb
  9
$XEDIT
290
     1
  9
$CEPSNTYPE
380
     0
  9
$PSTYLEMODE
290
     1
  9
$FINGERPRINTGUID
  2
{C697C54E-305A-45C3-A3A5-49D03FAC64F3}
  9
$VERSIONGUID
  2
{BA385760-7241-4660-9A6D-C537AA5C31B9}
  9
$EXTNAMES
290
     1
  9
$PSVPSCALE
 40
0.0
  9
$OLESTARTUP
290
     0
  9
$SORTENTS
280
   127
  9
$INDEXCTL
280
     0
  9
$HIDETEXT
280
     0
  9
$XCLIPFRAME
290
     0
  9
$HALOGAP
280
     0
  9
$OBSCOLOR
 70
   257
  9
$OBSLTYPE
280
     0
  9
$INTERSECTIONDISPLAY
280
     0
  9
$INTERSECTIONCOLOR
 70
   257
  9
$DIMASSOC
280
     1
  9
$PROJECTNAME
  1

  0
ENDSEC
  0
SECTION
  2
CLASSES
  0
CLASS
  1
ACDBDICTIONARYWDFLT
  2
AcDbDictionaryWithDefault
  3
ObjectDBX Classes
 90
        0
 91
        1
280
     0
281
     0
  0
CLASS
  1
ACME_DOCUMENT
  2
AcMeDbDoc
  3
AcMeServices
 90
        0
 91
        2
280
     0
281
     0
  0
CLASS
  1
AMGSETTINGSOBJ
  2
AmgSettingsObj
  3
"AcadM|Product Description: AutoCAD Mechanical|Company: Autodesk"
 90
        0
 91
        4
280
     0
281
     0
  0
CLASS
  1
ACMESCOPE
  2
AcMeScope
  3
AcMeServices
 90
        0
 91
        1
280
     0
281
     0
  0
CLASS
  1
ACMECOMMANDHISTORY
  2
AcMeCommandHistory
  3
AcMeServices
 90
        0
 91
        1
280
     0
281
     0
  0
CLASS
  1
ACIMSYSVARMAN
  2
AcImSysVarManager
  3
AcMeServices
 90
        0
 91
        5
280
     0
281
     0
  0
CLASS
  1
ACIMREALSYSVAR
  2
AcImRealSysVar
  3
AcMeServices
 90
        0
 91
        3
280
     0
281
     0
  0
CLASS
  1
ACIMINTSYSVAR
  2
AcImIntSysVar
  3
AcMeServices
 90
        0
 91
       27
280
     0
281
     0
  0
CLASS
  1
ACMEDRAWINGMAN
  2
AcMeDrawingMan
  3
AcMeServices
 90
        0
 91
        1
280
     0
281
     0
  0
CLASS
  1
ACMEVIEW
  2
AcMeView
  3
AcMeServices
 90
        0
 91
        1
280
     0
281
     0
  0
CLASS
  1
ACDBENTITYCACHE
  2
AcMeEntityCache
  3
AcMeServices
 90
        0
 91
        1
280
     0
281
     0
  0
CLASS
  1
GSMANAGER
  2
AcMeGSManager
  3
AcMeServices
 90
        0
 91
        1
280
     0
281
     0
  0
CLASS
  1
AMDTINTERNALREACTOR
  2
AmdtInternalReactor
  3
AcMeServices
 90
        0
 91
        2
280
     0
281
     0
  0
CLASS
  1
ACMESTATEMGR
  2
AcMeStateMgr
  3
AcMeServices
 90
        0
 91
        1
280
     0
281
     0
  0
CLASS
  1
ACGREFMASTER
  2
AcGrefMaster
  3
AcAttribServices
 90
        0
 91
        1
280
     0
281
     0
  0
CLASS
  1
ACME_DATABASE
  2
AcMeDbDatabase
  3
AcMeServices
 90
        0
 91
        1
280
     0
281
     0
  0
CLASS
  1
ACRFINSADJUSTERMGR
  2
AcRfInsAdjusterMgr
  3
AcMeServices
 90
        0
 91
        1
280
     0
281
     0
  0
CLASS
  1
ACGREFACADMASTER
  2
AcGrefacadMaster
  3
AcGrefServices
 90
        0
 91
        1
280
     0
281
     0
  0
CLASS
  1
AMIMASTER
  2
AmiMaster
  3
AmiServices
 90
        0
 91
        1
280
     0
281
     0
  0
CLASS
  1
ACMDATADICTIONARY
  2
AcmDataDictionary
  3
"AcmSymBB|Product Description: AutoCAD Mechanical|Company: Autodesk"
 90
        0
 91
        1
280
     0
281
     0
  0
CLASS
  1
ACMDATAENTRYBLOCK
  2
AcmDataEntryBlock
  3
"AcmSymBB|Product Description: AutoCAD Mechanical|Company: Autodesk"
 90
        0
 91
        1
280
     0
281
     0
  0
CLASS
  1
ACIMSTRSYSVAR
  2
AcImStrSysVar
  3
AcMeServices
 90
        0
 91
        5
280
     0
281
     0
  0
CLASS
  1
ACMSTANDARDDIN
  2
AcmStandardDIN
  3
"Amdt_StdImp|Product Description: AutoCAD Mechanical|Company: Autodesk"
 90
        0
 91
        1
280
     0
281
     0
  0
CLASS
  1
AMGOBJPROPCFG
  2
AmgObjPropCfg
  3
"AmgLay|Product Description: AutoCAD Mechanical|Company: Autodesk"
 90
        1
 91
        1
280
     0
281
     0
  0
CLASS
  1
AMDTEDGESTANDARDDIN
  2
AmdtEdgeStdDIN
  3
"Amdt_StdImp|Product Description: AutoCAD Mechanical|Company: Autodesk"
 90
        0
 91
        1
280
     0
281
     0
  0
CLASS
  1
ACMSURFSTANDARDDIN
  2
AcmSurfTextStdDIN
  3
"Amdt_StdImp|Product Description: AutoCAD Mechanical|Company: Autodesk"
 90
        0
 91
        1
280
     0
281
     0
  0
CLASS
  1
ACMFCFSTANDARDDIN
  2
AcmFCFStdDIN
  3
"Amdt_StdImp|Product Description: AutoCAD Mechanical|Company: Autodesk"
 90
        0
 91
        1
280
     0
281
     0
  0
CLASS
  1
ACMWELDSTANDARDDIN
  2
AcmWeldingStdDIN
  3
"Amdt_StdImp|Product Description: AutoCAD Mechanical|Company: Autodesk"
 90
        0
 91
        1
280
     0
281
     0
  0
CLASS
  1
ACMIDSTANDARDDIN
  2
AcmIdStdDIN
  3
"Amdt_StdImp|Product Description: AutoCAD Mechanical|Company: Autodesk"
 90
        0
 91
        1
280
     0
281
     0
  0
CLASS
  1
ACMDATUMSTANDARDDIN
  2
AcmDatumStdDIN
  3
"Amdt_StdImp|Product Description: AutoCAD Mechanical|Company: Autodesk"
 90
        0
 91
        1
280
     0
281
     0
  0
CLASS
  1
ACMBOMSTANDARDDIN
  2
AcmBOMStdDIN
  3
"Amdt_StdImp|Product Description: AutoCAD Mechanical|Company: Autodesk"
 90
        0
 91
        1
280
     0
281
     0
  0
CLASS
  1
ACMDETAILSTANDARDDIN
  2
AmdtDetailSymStdDIN
  3
"Amdt_StdImp|Product Description: AutoCAD Mechanical|Company: Autodesk"
 90
        0
 91
        1
280
     0
281
     0
  0
CLASS
  1
ACMSECTIONSTANDARDDIN
  2
AmdtSectionSymStdDIN
  3
"Amdt_StdImp|Product Description: AutoCAD Mechanical|Company: Autodesk"
 90
        0
 91
        1
280
     0
281
     0
  0
CLASS
  1
ACMCENTERLINESTANDARDDIN
  2
AmdtCenterLineStdDIN
  3
"Amdt_StdImp|Product Description: AutoCAD Mechanical|Company: Autodesk"
 90
        0
 91
        1
280
     0
281
     0
  0
CLASS
  1
ACMNOTESTANDARDDIN
  2
AmdtNoteStdDIN
  3
"Amdt_StdImp|Product Description: AutoCAD Mechanical|Company: Autodesk"
 90
        0
 91
        1
280
     0
281
     0
  0
CLASS
  1
ACAMGLAYSTD
  2
AcAmgLayStd
  3
"AmgLay|Product Description: AutoCAD Mechanical|Company: Autodesk"
 90
        0
 91
        1
280
     0
281
     0
  0
CLASS
  1
ACAMGDIMSTD
  2
AcAmgDimStd
  3
"AmgDim|Product Description: AutoCAD Mechanical|Company: Autodesk"
 90
        0
 91
        1
280
     0
281
     0
  0
CLASS
  1
ACAMGHOLECHARTSTDDIN
  2
AcAmgHoleChartStdDIN
  3
ACMSYMBB_MODULE_NAME
 90
        0
 91
        1
280
     0
281
     0
  0
CLASS
  1
ACAMGTITLESTD
  2
AcAmgTitleStd
  3
"AmgTitle|Product Description: AutoCAD Mechanical|Company: Autodesk"
 90
        0
 91
        1
280
     0
281
     0
  0
CLASS
  1
LAYER_INDEX
  2
AcDbLayerIndex
  3
ObjectDBX Classes
 90
        0
 91
        0
280
     0
281
     0
  0
CLASS
  1
IDBUFFER
  2
AcDbIdBuffer
  3
ObjectDBX Classes
 90
        0
 91
        0
280
     0
281
     0
  0
CLASS
  1
DICTIONARYVAR
  2
AcDbDictionaryVar
  3
ObjectDBX Classes
 90
        0
 91
        3
280
     0
281
     0
  0
CLASS
  1
AM_DRAWING_MGR
  2
AcDmDwgMgr
  3
AcMechDwgViewMgmt
 90
        0
 91
        1
280
     0
281
     0
  0
CLASS
  1
AM_DWG_DOCUMENT
  2
AcDmDwgDocument
  3
AcMechDwgViewMgmt
 90
        0
 91
        1
280
     0
281
     0
  0
CLASS
  1
AM_DWG_SHEET
  2
AcDmSheet
  3
AcMechDwgViewMgmt
 90
        0
 91
        2
280
     0
281
     0
  0
CLASS
  1
AM_VIEWDIMPARMAP
  2
AcDmViewDimParMap
  3
AcMechDwgViewMgmt
 90
        0
 91
        2
280
     0
281
     0
  0
CLASS
  1
AM_DWGMGR_NAME
  2
AcDmDwgMgrName
  3
AcMechDwgViewMgmt
 90
        0
 91
        1
280
     0
281
     0
  0
CLASS
  1
AMDTMENUSTATEMGR
  2
AmdtMenuStateMgr
  3
McadcomServices
 90
        0
 91
        1
280
     0
281
     0
  0
CLASS
  1
AMDTMCOMMENUSTATE
  2
AmdtMcomMenuState
  3
McadcomServices
 90
        0
 91
        1
280
     0
281
     0
  0
CLASS
  1
MAPIAMMOUDLE
  2
MApiAmModule
  3
MApiAmServices
 90
        0
 91
        1
280
     0
281
     0
  0
CLASS
  1
AMDTADMENUSTATE
  2
AmdtAdMenuState
  3
DesignerServices
 90
        0
 91
        1
280
     0
281
     0
  0
CLASS
  1
ADAPPL
  2
AcAdAppl
  3
DesignerServices
 90
        0
 91
        1
280
     0
281
     0
  0
CLASS
  1
DEPMGR
  2
AcAdDepMgr
  3
DesignerServices
 90
        0
 91
        1
280
     0
281
     0
  0
CLASS
  1
PARAMMGR
  2
AcAdParamMgr
  3
DesignerServices
 90
        0
 91
        1
280
     0
281
     0
  0
CLASS
  1
PARAMSCOPE
  2
AcAdParamScope
  3
DesignerServices
 90
        0
 91
        1
280
     0
281
     0
  0
CLASS
  1
NAMEDAPPL
  2
AcAdNamedAppl
  3
DesignerServices
 90
        0
 91
        1
280
     0
281
     0
  0
CLASS
  1
AMDTDMMENUSTATE
  2
AmdtDmMenuState
  3
AcMechDwgViewMgmt
 90
        0
 91
        1
280
     0
281
     0
  0
CLASS
  1
AMDTAMMENUSTATE
  2
AmdtAmMenuState
  3
DesignerAssemblies
 90
        0
 91
        1
280
     0
281
     0
  0
CLASS
  1
ACAMPROJECT
  2
AcAmProject
  3
DesignerAssemblies
 90
        0
 91
        1
280
     0
281
     0
  0
CLASS
  1
ACAMGRCOMPDEF
  2
AcAmGrCompDef
  3
DesignerAssemblies
 90
        0
 91
        1
280
     0
281
     0
  0
CLASS
  1
ACCMCONTEXT
  2
AcCmContext
  3
DesignerAssemblies
 90
        0
 91
        1
280
     0
281
     0
  0
CLASS
  1
ACAMCOMPDEF
  2
AcAmCompDef
  3
DesignerAssemblies
 90
        0
 91
        1
280
     0
281
     0
  0
CLASS
  1
ACAMCOMPDEFMGR
  2
AcAmCompDefMgr
  3
DesignerAssemblies
 90
        0
 91
        1
280
     0
281
     0
  0
CLASS
  1
AMCONTEXTMGR
  2
AcAmContextMgr
  3
DesignerAssemblies
 90
        0
 91
        1
280
     0
281
     0
  0
CLASS
  1
ACAMCONTEXTMODELER
  2
AcAmContextModeler
  3
DesignerAssemblies
 90
        0
 91
        1
280
     0
281
     0
  0
CLASS
  1
ACMTHREADLINESTANDARDDIN
  2
AmdtThreadLineStdDIN
  3
"Amdt_StdImp|Product Description: AutoCAD Mechanical|Company: Autodesk"
 90
        0
 91
        1
280
     0
281
     0
  0
CLASS
  1
CATALOGSTATE
  2
AcAmCatalogState
  3
DesignerAssemblies
 90
        0
 91
        1
280
     0
281
     0
  0
CLASS
  1
ACAMGRCOMPDEFSET
  2
AcAmGrCompDefSet
  3
DesignerAssemblies
 90
        0
 91
        1
280
     0
281
     0
  0
CLASS
  1
AMDTBROWSERDBTAB
  2
AmdtBrowserDbTab
  3
McadcomServices
 90
        0
 91
        1
280
     0
281
     0
  0
CLASS
  1
CBROWSERAPPOBJECT
  2
CBrowserAppObject
  3
McadcomServices
 90
        0
 91
        3
280
     0
281
     0
  0
CLASS
  1
DM_PLACEHOLDER
  2
AcDmSelsetPlaceholder
  3
AcMechDwgViewMgmt
 90
        0
 91
        1
280
     0
281
     0
  0
CLASS
  1
TABLESTYLE
  2
AcDbTableStyle
  3
ObjectDBX Classes
 90
     4095
 91
        1
280
     0
281
     0
  0
CLASS
  1
MATERIAL
  2
AcDbMaterial
  3
ObjectDBX Classes
 90
     1024
 91
        3
280
     0
281
     0
  0
CLASS
  1
VISUALSTYLE
  2
AcDbVisualStyle
  3
ObjectDBX Classes
 90
     4095
 91
       19
280
     0
281
     0
  0
CLASS
  1
ACRFATTGENMGR
  2
AcRfAttGeneralMgr
  3
AcAttribServices
 90
        0
 91
        1
280
     0
281
     0
  0
CLASS
  1
ACRFOBJATTMGR
  2
AcRfObjAttGroupMgr
  3
AcAttribServices
 90
        0
 91
        1
280
     0
281
     0
  0
CLASS
  1
ACRFMCADAPIATTHOLDER
  2
AcRfMCADAPIAttHolder
  3
AcAttribServices
 90
        0
 91
        1
280
     0
281
     0
  0
CLASS
  1
AMDTSYSATTR
  2
AmdtSystemAttribute
  3
AcAttribServices
 90
        0
 91
        1
280
     0
281
     0
  0
CLASS
  1
ACMTAPERSTANDARDDIN
  2
AcmTaperStdDIN
  3
"Amdt_StdImp|Product Description: AutoCAD Mechanical|Company: Autodesk"
 90
        0
 91
        1
280
     0
281
     0
  0
CLASS
  1
CAMSSTRUCTBTNSTATE
  2
StructBtnState
  3
L"DesignerAssemblies"
 90
        0
 91
        1
280
     0
281
     0
  0
CLASS
  1
SORTENTSTABLE
  2
AcDbSortentsTable
  3
ObjectDBX Classes
 90
        0
 91
        0
280
     0
281
     0
  0
CLASS
  1
ACAMGFILTERDAT
  2
AcAmgFilterDat
  3
"AcadM|Product Description: AutoCAD Mechanical|Company: Autodesk"
 90
        0
 91
        6
280
     0
281
     0
  0
ENDSEC
  0
SECTION
  2
TABLES
  0
TABLE
  2
VPORT
  5
8
330
0
100
AcDbSymbolTable
 70
     1
  0
VPORT
  5
1E9
330
8
100
AcDbSymbolTableRecord
100
AcDbViewportTableRecord
  2
*Active
 70
     0
 10
0.0
 20
0.0
 11
1.0
 21
1.0
 12
1057.758364849437
 22
630.0649365038812
 13
0.0
 23
0.0
 14
2.5
 24
2.5
 15
10.0
 25
10.0
 16
0.0
 26
0.0
 36
1.0
 17
0.0
 27
0.0
 37
0.0
 40
1124.002544234248
 41
1.928939237899073
 42
50.0
 43
0.0
 44
0.0
 50
0.0
 51
0.0
 71
     0
 72
   100
 73
     1
 74
     3
 75
     0
 76
     0
 77
     0
 78
     0
281
     0
 65
     1
110
0.0
120
0.0
130
0.0
111
1.0
121
0.0
131
0.0
112
0.0
122
1.0
132
0.0
 79
     0
146
0.0
  0
ENDTAB
  0
TABLE
  2
LTYPE
  5
5
330
0
100
AcDbSymbolTable
 70
    60
  0
LTYPE
  5
14
330
5
100
AcDbSymbolTableRecord
100
AcDbLinetypeTableRecord
  2
ByBlock
 70
     0
  3

 72
    65
 73
     0
 40
0.0
  0
LTYPE
  5
15
330
5
100
AcDbSymbolTableRecord
100
AcDbLinetypeTableRecord
  2
ByLayer
 70
     0
  3

 72
    65
 73
     0
 40
0.0
  0
LTYPE
  5
16
330
5
100
AcDbSymbolTableRecord
100
AcDbLinetypeTableRecord
  2
Continuous
 70
     0
  3
Solid line
 72
    65
 73
     0
 40
0.0
  0
LTYPE
  5
A0
330
5
100
AcDbSymbolTableRecord
100
AcDbLinetypeTableRecord
  2
AM_ISO02W050
 70
     0
  3
__ __ __ __ __ __ __ __ __ __ __ __ __ __ __
 72
    65
 73
     2
 40
7.5
 49
6.0
 74
     0
 49
-1.5
 74
     0
  0
LTYPE
  5
A1
330
5
100
AcDbSymbolTableRecord
100
AcDbLinetypeTableRecord
  2
AM_ISO08W050
 70
     0
  3
____ . ____ . ____ . ____ . ____ . ____ . ____
 72
    65
 73
     4
 40
18.0
 49
12.0
 74
     0
 49
-1.5
 74
     0
 49
3.0
 74
     0
 49
-1.5
 74
     0
  0
LTYPE
  5
A2
330
5
100
AcDbSymbolTableRecord
100
AcDbLinetypeTableRecord
  2
AM_ISO09W050
 70
     0
  3
_____ . . _____ . . _____ . . ____ .. ____
 72
    65
 73
     6
 40
22.5
 49
12.0
 74
     0
 49
-1.5
 74
     0
 49
3.0
 74
     0
 49
-1.5
 74
     0
 49
3.0
 74
     0
 49
-1.5
 74
     0
  0
LTYPE
  5
A3
330
5
100
AcDbSymbolTableRecord
100
AcDbLinetypeTableRecord
  2
Amconstr
 70
     0
  3
_______________________
 72
    65
 73
     2
 40
9999.0
 49
9999.0
 74
     0
 49
0.0
 74
     0
  0
LTYPE
  5
A4
330
5
100
AcDbSymbolTableRecord
100
AcDbLinetypeTableRecord
  2
AM_ISO08W050x2
 70
     0
  3
__ . __ . __ . __ . __ . __
 72
    65
 73
     4
 40
9.0
 49
6.0
 74
     0
 49
-0.75
 74
     0
 49
1.5
 74
     0
 49
-0.75
 74
     0
  0
LTYPE
  5
A5
330
5
100
AcDbSymbolTableRecord
100
AcDbLinetypeTableRecord
  2
AM_ISO02W050x2
 70
     0
  3
 _ _ _ _ _ _ _ _ _ _ _ _
 72
    65
 73
     2
 40
3.75
 49
3.0
 74
     0
 49
-0.75
 74
     0
  0
LTYPE
  5
A8
330
5
100
AcDbSymbolTableRecord
100
AcDbLinetypeTableRecord
  2
Amzigzag
 70
     0
  3
/\/-/\/-/\/-/\/-/\/-/\/
 72
    65
 73
     2
 40
11.0001
 49
0.0001
 74
     4
 75
   135
340
A7
 46
0.04
 50
0.0
 44
0.0
 45
0.0
 49
-11.0
 74
     0
  0
LTYPE
  5
A9
330
5
100
AcDbSymbolTableRecord
100
AcDbLinetypeTableRecord
  2
AM_DIN_F_W050
 70
     0
  3
__ __ __ __ __ __ __ __ __ __ __ __ __ __ __
 72
    65
 73
     2
 40
6.25
 49
4.75
 74
     0
 49
-1.5
 74
     0
  0
LTYPE
  5
AA
330
5
100
AcDbSymbolTableRecord
100
AcDbLinetypeTableRecord
  2
AM_DIN_G_W050
 70
     0
  3
____ . ____ . ____ . ____ . ____ . ____ . ____
 72
    65
 73
     4
 40
13.75
 49
9.75
 74
     0
 49
-1.5
 74
     0
 49
1.0
 74
     0
 49
-1.5
 74
     0
  0
LTYPE
  5
AB
330
5
100
AcDbSymbolTableRecord
100
AcDbLinetypeTableRecord
  2
AM_DIN_K_W050
 70
     0
  3
_____ . . _____ . . _____ . . ____ .. ____
 72
    65
 73
     6
 40
16.25
 49
9.75
 74
     0
 49
-1.5
 74
     0
 49
1.0
 74
     0
 49
-1.5
 74
     0
 49
1.0
 74
     0
 49
-1.5
 74
     0
  0
LTYPE
  5
AC
330
5
100
AcDbSymbolTableRecord
100
AcDbLinetypeTableRecord
  2
AM_DIN_G_W050x2
 70
     0
  3
__ . __ . __ . __ . __ . __
 72
    65
 73
     4
 40
6.875
 49
4.75
 74
     0
 49
-0.875
 74
     0
 49
0.375
 74
     0
 49
-0.875
 74
     0
  0
LTYPE
  5
AD
330
5
100
AcDbSymbolTableRecord
100
AcDbLinetypeTableRecord
  2
AM_DIN_F_W050x2
 70
     0
  3
 _ _ _ _ _ _ _ _ _ _ _ _
 72
    65
 73
     2
 40
3.125
 49
2.25
 74
     0
 49
-0.875
 74
     0
  0
LTYPE
  5
BB
330
5
100
AcDbSymbolTableRecord
100
AcDbLinetypeTableRecord
  2
ACDINWELD
 70
     0
  3
_ _ _ _ _
 72
    65
 73
     2
 40
2.0
 49
2.0
 74
     0
 49
-1.0
 74
     0
  0
LTYPE
  5
BC
330
5
100
AcDbSymbolTableRecord
100
AcDbLinetypeTableRecord
  2
ACDINTGB
 70
     0
  3
__ . . __ . .
 72
    65
 73
     6
 40
9.0
 49
4.0
 74
     0
 49
-1.0
 74
     0
 49
1.0
 74
     0
 49
-1.0
 74
     0
 49
1.0
 74
     0
 49
-1.0
 74
     0
  0
LTYPE
  5
BD
330
5
100
AcDbSymbolTableRecord
100
AcDbLinetypeTableRecord
  2
ACDINTGL
 70
     0
  3
_ _ _ _ _
 72
    65
 73
     2
 40
3.0
 49
2.0
 74
     0
 49
-1.0
 74
     0
  0
LTYPE
  5
BF
330
5
100
AcDbSymbolTableRecord
100
AcDbLinetypeTableRecord
  2
CENTER
 70
     0
  3
__ . __
 72
    65
 73
     4
 40
7.0
 49
4.0
 74
     0
 49
-1.0
 74
     0
 49
1.0
 74
     0
 49
-1.0
 74
     0
  0
LTYPE
  5
10F
330
5
100
AcDbSymbolTableRecord
100
AcDbLinetypeTableRecord
  2
HIDDEN
 70
     0
  3
Verdeckt
 72
    65
 73
     2
 40
9.525
 49
6.349999999999999
 74
     0
 49
-3.174999999999999
 74
     0
  0
LTYPE
  5
110
330
5
100
AcDbSymbolTableRecord
100
AcDbLinetypeTableRecord
  2
PHANTOM2
 70
     0
  3
Phantom (.5x) ___ _ _ ___ _ _ ___ _ _ ___ _ _
 72
    65
 73
     6
 40
31.75
 49
15.875
 74
     0
 49
-3.174999999999999
 74
     0
 49
3.174999999999999
 74
     0
 49
-3.174999999999999
 74
     0
 49
3.174999999999999
 74
     0
 49
-3.174999999999999
 74
     0
  0
LTYPE
  5
31A
330
5
100
AcDbSymbolTableRecord
100
AcDbLinetypeTableRecord
  2
GEN7
 70
     0
  3
____ . ____ . ____ . ____ . ____ . ____ . ____
 72
    65
 73
     4
 40
13.75
 49
9.75
 74
     0
 49
-1.5
 74
     0
 49
1.0
 74
     0
 49
-1.5
 74
     0
  0
LTYPE
  5
BE2
330
5
100
AcDbSymbolTableRecord
100
AcDbLinetypeTableRecord
  2
BORDER
 70
     0
  3
Border __ __ . __ __ . __ __ . __ __ . __ __ .
 72
    65
 73
     6
 40
1.75
 49
0.5
 74
     0
 49
-0.25
 74
     0
 49
0.5
 74
     0
 49
-0.25
 74
     0
 49
0.0
 74
     0
 49
-0.25
 74
     0
  0
LTYPE
  5
BE3
330
5
100
AcDbSymbolTableRecord
100
AcDbLinetypeTableRecord
  2
BORDER2
 70
     0
  3
Border (.5x) __.__.__.__.__.__.__.__.__.__.__.
 72
    65
 73
     6
 40
0.875
 49
0.25
 74
     0
 49
-0.125
 74
     0
 49
0.25
 74
     0
 49
-0.125
 74
     0
 49
0.0
 74
     0
 49
-0.125
 74
     0
  0
LTYPE
  5
BE4
330
5
100
AcDbSymbolTableRecord
100
AcDbLinetypeTableRecord
  2
BORDERX2
 70
     0
  3
Border (2x) ____  ____  .  ____  ____  .  ___
 72
    65
 73
     6
 40
3.5
 49
1.0
 74
     0
 49
-0.5
 74
     0
 49
1.0
 74
     0
 49
-0.5
 74
     0
 49
0.0
 74
     0
 49
-0.5
 74
     0
  0
LTYPE
  5
BE5
330
5
100
AcDbSymbolTableRecord
100
AcDbLinetypeTableRecord
  2
CENTER2
 70
     0
  3
Center (.5x) ___ _ ___ _ ___ _ ___ _ ___ _ ___
 72
    65
 73
     4
 40
1.125
 49
0.75
 74
     0
 49
-0.125
 74
     0
 49
0.125
 74
     0
 49
-0.125
 74
     0
  0
LTYPE
  5
BE6
330
5
100
AcDbSymbolTableRecord
100
AcDbLinetypeTableRecord
  2
CENTERX2
 70
     0
  3
Center (2x) ________  __  ________  __  _____
 72
    65
 73
     4
 40
4.0
 49
2.5
 74
     0
 49
-0.5
 74
     0
 49
0.5
 74
     0
 49
-0.5
 74
     0
  0
LTYPE
  5
BE7
330
5
100
AcDbSymbolTableRecord
100
AcDbLinetypeTableRecord
  2
DASHDOT
 70
     0
  3
Dash dot __ . __ . __ . __ . __ . __ . __ . __
 72
    65
 73
     4
 40
1.0
 49
0.5
 74
     0
 49
-0.25
 74
     0
 49
0.0
 74
     0
 49
-0.25
 74
     0
  0
LTYPE
  5
BE8
330
5
100
AcDbSymbolTableRecord
100
AcDbLinetypeTableRecord
  2
DASHDOT2
 70
     0
  3
Dash dot (.5x) _._._._._._._._._._._._._._._.
 72
    65
 73
     4
 40
0.5
 49
0.25
 74
     0
 49
-0.125
 74
     0
 49
0.0
 74
     0
 49
-0.125
 74
     0
  0
LTYPE
  5
BE9
330
5
100
AcDbSymbolTableRecord
100
AcDbLinetypeTableRecord
  2
DASHDOTX2
 70
     0
  3
Dash dot (2x) ____  .  ____  .  ____  .  ___
 72
    65
 73
     4
 40
2.0
 49
1.0
 74
     0
 49
-0.5
 74
     0
 49
0.0
 74
     0
 49
-0.5
 74
     0
  0
LTYPE
  5
BEA
330
5
100
AcDbSymbolTableRecord
100
AcDbLinetypeTableRecord
  2
DASHED
 70
     0
  3
Dashed __ __ __ __ __ __ __ __ __ __ __ __ __ _
 72
    65
 73
     2
 40
0.75
 49
0.5
 74
     0
 49
-0.25
 74
     0
  0
LTYPE
  5
BEB
330
5
100
AcDbSymbolTableRecord
100
AcDbLinetypeTableRecord
  2
DASHED2
 70
     0
  3
Dashed (.5x) _ _ _ _ _ _ _ _ _ _ _ _ _ _ _ _ _
 72
    65
 73
     2
 40
0.375
 49
0.25
 74
     0
 49
-0.125
 74
     0
  0
LTYPE
  5
BEC
330
5
100
AcDbSymbolTableRecord
100
AcDbLinetypeTableRecord
  2
DASHEDX2
 70
     0
  3
Dashed (2x) ____  ____  ____  ____  ____  ___
 72
    65
 73
     2
 40
1.5
 49
1.0
 74
     0
 49
-0.5
 74
     0
  0
LTYPE
  5
BED
330
5
100
AcDbSymbolTableRecord
100
AcDbLinetypeTableRecord
  2
DIVIDE
 70
     0
  3
Divide ____ . . ____ . . ____ . . ____ . . ____
 72
    65
 73
     6
 40
1.25
 49
0.5
 74
     0
 49
-0.25
 74
     0
 49
0.0
 74
     0
 49
-0.25
 74
     0
 49
0.0
 74
     0
 49
-0.25
 74
     0
  0
LTYPE
  5
BEE
330
5
100
AcDbSymbolTableRecord
100
AcDbLinetypeTableRecord
  2
DIVIDE2
 70
     0
  3
Divide (.5x) __..__..__..__..__..__..__..__.._
 72
    65
 73
     6
 40
0.625
 49
0.25
 74
     0
 49
-0.125
 74
     0
 49
0.0
 74
     0
 49
-0.125
 74
     0
 49
0.0
 74
     0
 49
-0.125
 74
     0
  0
LTYPE
  5
BEF
330
5
100
AcDbSymbolTableRecord
100
AcDbLinetypeTableRecord
  2
DIVIDEX2
 70
     0
  3
Divide (2x) ________  .  .  ________  .  .  _
 72
    65
 73
     6
 40
2.5
 49
1.0
 74
     0
 49
-0.5
 74
     0
 49
0.0
 74
     0
 49
-0.5
 74
     0
 49
0.0
 74
     0
 49
-0.5
 74
     0
  0
LTYPE
  5
BF0
330
5
100
AcDbSymbolTableRecord
100
AcDbLinetypeTableRecord
  2
DOT
 70
     0
  3
Dot . . . . . . . . . . . . . . . . . . . . . .
 72
    65
 73
     2
 40
0.25
 49
0.0
 74
     0
 49
-0.25
 74
     0
  0
LTYPE
  5
BF1
330
5
100
AcDbSymbolTableRecord
100
AcDbLinetypeTableRecord
  2
DOT2
 70
     0
  3
Dot (.5x) .....................................
 72
    65
 73
     2
 40
0.125
 49
0.0
 74
     0
 49
-0.125
 74
     0
  0
LTYPE
  5
BF2
330
5
100
AcDbSymbolTableRecord
100
AcDbLinetypeTableRecord
  2
DOTX2
 70
     0
  3
Dot (2x) .  .  .  .  .  .  .  .  .  .  .  .  . 
 72
    65
 73
     2
 40
0.5
 49
0.0
 74
     0
 49
-0.5
 74
     0
  0
LTYPE
  5
BF3
330
5
100
AcDbSymbolTableRecord
100
AcDbLinetypeTableRecord
  2
GAS_LINE
 70
     0
  3
Gas line ----GAS----GAS----GAS----GAS----GAS---
 72
    65
 73
     3
 40
0.95
 49
0.5
 74
     0
 49
-0.2
 74
     2
 75
     0
340
11
 46
0.1
 50
0.0
 44
-0.1
 45
-0.05
  9
GAS
 49
-0.25
 74
     0
  0
LTYPE
  5
BF4
330
5
100
AcDbSymbolTableRecord
100
AcDbLinetypeTableRecord
  2
HIDDEN2
 70
     0
  3
Hidden (.5x) _ _ _ _ _ _ _ _ _ _ _ _ _ _ _ _ _
 72
    65
 73
     2
 40
0.1875
 49
0.125
 74
     0
 49
-0.0625
 74
     0
  0
LTYPE
  5
BF5
330
5
100
AcDbSymbolTableRecord
100
AcDbLinetypeTableRecord
  2
HIDDENX2
 70
     0
  3
Hidden (2x) ____ ____ ____ ____ ____ ____ ____
 72
    65
 73
     2
 40
0.75
 49
0.5
 74
     0
 49
-0.25
 74
     0
  0
LTYPE
  5
BF6
330
5
100
AcDbSymbolTableRecord
100
AcDbLinetypeTableRecord
  2
PHANTOM
 70
     0
  3
Phantom ______  __  __  ______  __  __  ______
 72
    65
 73
     6
 40
2.5
 49
1.25
 74
     0
 49
-0.25
 74
     0
 49
0.25
 74
     0
 49
-0.25
 74
     0
 49
0.25
 74
     0
 49
-0.25
 74
     0
  0
LTYPE
  5
BF7
330
5
100
AcDbSymbolTableRecord
100
AcDbLinetypeTableRecord
  2
PHANTOMX2
 70
     0
  3
Phantom (2x) ____________    ____    ____   _
 72
    65
 73
     6
 40
5.0
 49
2.5
 74
     0
 49
-0.5
 74
     0
 49
0.5
 74
     0
 49
-0.5
 74
     0
 49
0.5
 74
     0
 49
-0.5
 74
     0
  0
LTYPE
  5
BF8
330
5
100
AcDbSymbolTableRecord
100
AcDbLinetypeTableRecord
  2
ZIGZAG
 70
     0
  3
Zig zag /\/\/\/\/\/\/\/\/\/\/\/\/\/\/\/\/\/\/\/
 72
    65
 73
     4
 40
0.8001000000000001
 49
0.0001
 74
     0
 49
-0.2
 74
     4
 75
   131
340
C0C
 46
0.2
 50
0.0
 44
-0.2
 45
0.0
 49
-0.4
 74
     4
 75
   131
340
C0C
 46
0.2
 50
180.0
 44
0.2
 45
0.0
 49
-0.2
 74
     0
  0
LTYPE
  5
BF9
330
5
100
AcDbSymbolTableRecord
100
AcDbLinetypeTableRecord
  2
CPFLEX
 70
     0
  3
CP flex /\/\/\/\/\/\/\/\/\/\/\/\/\/\/\/\/\/\/\/
 72
    65
 73
     4
 40
0.8001000000000001
 49
0.0001
 74
     0
 49
-0.2
 74
     4
 75
   131
340
C0C
 46
0.2
 50
0.0
 44
-0.2
 45
0.0
 49
-0.4
 74
     4
 75
   131
340
C0C
 46
0.2
 50
180.0
 44
0.2
 45
0.0
 49
-0.2
 74
     0
  0
LTYPE
  5
BFA
330
5
100
AcDbSymbolTableRecord
100
AcDbLinetypeTableRecord
  2
CIRC
 70
     0
  3
 ----- ~ ----- ~ ---- ~ -----
 72
    65
 73
     3
 40
9.0
 49
7.0
 74
     0
 49
-1.0
 74
     2
 75
     0
340
11
 46
1.0
 50
0.0
 44
-0.3
 45
-0.6
  9
~
 49
-1.0
 74
     0
  0
LTYPE
  5
BFB
330
5
100
AcDbSymbolTableRecord
100
AcDbLinetypeTableRecord
  2
DN 010
 70
     0
  3
 DN10  ---- 10 ---- 10 ---- 10 ----
 72
    65
 73
     3
 40
9.0
 49
5.0
 74
     0
 49
-2.0
 74
     2
 75
     0
340
11
 46
1.0
 50
0.0
 44
-0.5
 45
-0.5
  9
10
 49
-2.0
 74
     0
  0
LTYPE
  5
BFC
330
5
100
AcDbSymbolTableRecord
100
AcDbLinetypeTableRecord
  2
DN 015
 70
     0
  3
 DN15  ---- 15 ---- 15 ---- 15 ----
 72
    65
 73
     3
 40
9.0
 49
5.0
 74
     0
 49
-2.0
 74
     2
 75
     0
340
11
 46
1.0
 50
0.0
 44
-0.5
 45
-0.5
  9
15
 49
-2.0
 74
     0
  0
LTYPE
  5
BFD
330
5
100
AcDbSymbolTableRecord
100
AcDbLinetypeTableRecord
  2
DN 020
 70
     0
  3
 DN20  ---- 20 ---- 20 ---- 20 ----
 72
    65
 73
     3
 40
9.0
 49
5.0
 74
     0
 49
-2.0
 74
     2
 75
     0
340
11
 46
1.0
 50
0.0
 44
-0.5
 45
-0.5
  9
20
 49
-2.0
 74
     0
  0
LTYPE
  5
BFE
330
5
100
AcDbSymbolTableRecord
100
AcDbLinetypeTableRecord
  2
DN 025
 70
     0
  3
 DN25  ---- 25 ---- 25 ---- 25 ----
 72
    65
 73
     3
 40
9.0
 49
5.0
 74
     0
 49
-2.0
 74
     2
 75
     0
340
11
 46
1.0
 50
0.0
 44
-0.5
 45
-0.5
  9
25
 49
-2.0
 74
     0
  0
LTYPE
  5
BFF
330
5
100
AcDbSymbolTableRecord
100
AcDbLinetypeTableRecord
  2
DN 032
 70
     0
  3
 DN32  ---- 32 ---- 32 ---- 32 ----
 72
    65
 73
     3
 40
9.0
 49
5.0
 74
     0
 49
-2.0
 74
     2
 75
     0
340
11
 46
1.0
 50
0.0
 44
-0.5
 45
-0.5
  9
32
 49
-2.0
 74
     0
  0
LTYPE
  5
C00
330
5
100
AcDbSymbolTableRecord
100
AcDbLinetypeTableRecord
  2
DN 040
 70
     0
  3
 DN40  ---- 40 ---- 40 ---- 40 ----
 72
    65
 73
     3
 40
9.0
 49
5.0
 74
     0
 49
-2.0
 74
     2
 75
     0
340
11
 46
1.0
 50
0.0
 44
-0.5
 45
-0.5
  9
40
 49
-2.0
 74
     0
  0
LTYPE
  5
C01
330
5
100
AcDbSymbolTableRecord
100
AcDbLinetypeTableRecord
  2
DN 050
 70
     0
  3
 DN50  ---- 50 ---- 50 ---- 50 ----
 72
    65
 73
     3
 40
9.0
 49
5.0
 74
     0
 49
-2.0
 74
     2
 75
     0
340
11
 46
1.0
 50
0.0
 44
-0.5
 45
-0.5
  9
50
 49
-2.0
 74
     0
  0
LTYPE
  5
C02
330
5
100
AcDbSymbolTableRecord
100
AcDbLinetypeTableRecord
  2
DN 065
 70
     0
  3
 DN65  ---- 65 ---- 65 ---- 65 ----
 72
    65
 73
     3
 40
9.0
 49
5.0
 74
     0
 49
-2.0
 74
     2
 75
     0
340
11
 46
1.0
 50
0.0
 44
-0.5
 45
-0.5
  9
65
 49
-2.0
 74
     0
  0
LTYPE
  5
C03
330
5
100
AcDbSymbolTableRecord
100
AcDbLinetypeTableRecord
  2
DN 080
 70
     0
  3
 DN80  ---- 80 ---- 80 ---- 80 ----
 72
    65
 73
     3
 40
9.0
 49
5.0
 74
     0
 49
-2.0
 74
     2
 75
     0
340
11
 46
1.0
 50
0.0
 44
-0.5
 45
-0.5
  9
80
 49
-2.0
 74
     0
  0
LTYPE
  5
C04
330
5
100
AcDbSymbolTableRecord
100
AcDbLinetypeTableRecord
  2
DN 100
 70
     0
  3
 DN100 ---- 100 --- 100 --- 100 ---
 72
    65
 73
     3
 40
9.0
 49
5.0
 74
     0
 49
-2.0
 74
     2
 75
     0
340
11
 46
1.0
 50
0.0
 44
-1.0
 45
-0.5
  9
100
 49
-2.0
 74
     0
  0
LTYPE
  5
C05
330
5
100
AcDbSymbolTableRecord
100
AcDbLinetypeTableRecord
  2
DN 125
 70
     0
  3
 DN125 ---- 125 --- 125 --- 125 ---
 72
    65
 73
     3
 40
9.0
 49
5.0
 74
     0
 49
-2.0
 74
     2
 75
     0
340
11
 46
1.0
 50
0.0
 44
-1.0
 45
-0.5
  9
125
 49
-2.0
 74
     0
  0
LTYPE
  5
C06
330
5
100
AcDbSymbolTableRecord
100
AcDbLinetypeTableRecord
  2
DN 150
 70
     0
  3
 DN150 ---- 150 --- 150 --- 150 ---
 72
    65
 73
     3
 40
9.0
 49
5.0
 74
     0
 49
-2.0
 74
     2
 75
     0
340
11
 46
1.0
 50
0.0
 44
-1.0
 45
-0.5
  9
150
 49
-2.0
 74
     0
  0
LTYPE
  5
C07
330
5
100
AcDbSymbolTableRecord
100
AcDbLinetypeTableRecord
  2
DN 200
 70
     0
  3
 DN200 ---- 200 --- 200 --- 200 ---
 72
    65
 73
     3
 40
9.0
 49
5.0
 74
     0
 49
-2.0
 74
     2
 75
     0
340
11
 46
1.0
 50
0.0
 44
-1.0
 45
-0.5
  9
200
 49
-2.0
 74
     0
  0
LTYPE
  5
C08
330
5
100
AcDbSymbolTableRecord
100
AcDbLinetypeTableRecord
  2
DN 250
 70
     0
  3
 DN250 ---- 250 --- 250 --- 250 ---
 72
    65
 73
     3
 40
9.0
 49
5.0
 74
     0
 49
-2.0
 74
     2
 75
     0
340
11
 46
1.0
 50
0.0
 44
-1.0
 45
-0.5
  9
250
 49
-2.0
 74
     0
  0
LTYPE
  5
C09
330
5
100
AcDbSymbolTableRecord
100
AcDbLinetypeTableRecord
  2
DN 300
 70
     0
  3
 DN300 ---- 300 --- 300 --- 300 ---
 72
    65
 73
     3
 40
9.0
 49
5.0
 74
     0
 49
-2.0
 74
     2
 75
     0
340
11
 46
1.0
 50
0.0
 44
-1.0
 45
-0.5
  9
300
 49
-2.0
 74
     0
  0
ENDTAB
  0
TABLE
  2
LAYER
  5
2
330
0
100
AcDbSymbolTable
 70
    15
  0
LAYER
  5
10
330
2
100
AcDbSymbolTableRecord
100
AcDbLayerTableRecord
  2
0
 70
     0
 62
     7
  6
Continuous
370
    -3
390
F
  0
LAYER
  5
F0
330
2
100
AcDbSymbolTableRecord
100
AcDbLayerTableRecord
  2
AM_5
 70
     0
 62
     3
  6
Continuous
370
    25
390
F
  0
LAYER
  5
31B
330
2
100
AcDbSymbolTableRecord
100
AcDbLayerTableRecord
  2
REFLEX-LOGO
 70
     0
 62
     3
  6
Continuous
370
    -3
390
F
  0
LAYER
  5
31C
330
2
100
AcDbSymbolTableRecord
100
AcDbLayerTableRecord
  2
REFLEX-PLOTLOGO
 70
     0
 62
     3
  6
Continuous
370
    -3
390
F
  0
LAYER
  5
31D
330
2
100
AcDbSymbolTableRecord
100
AcDbLayerTableRecord
  2
6
 70
     0
 62
     2
  6
Continuous
370
    -3
390
F
  0
LAYER
  5
31E
330
2
100
AcDbSymbolTableRecord
100
AcDbLayerTableRecord
  2
7
 70
     0
 62
     4
  6
GEN7
370
    -3
390
F
  0
LAYER
  5
31F
330
2
100
AcDbSymbolTableRecord
100
AcDbLayerTableRecord
  2
VENTILUKAPPE
 70
     0
 62
     1
  6
Continuous
370
    -3
390
F
  0
LAYER
  5
320
330
2
100
AcDbSymbolTableRecord
100
AcDbLayerTableRecord
  2
DEFPOINTS
 70
     0
 62
     7
  6
Continuous
290
     0
370
    -3
390
F
  0
LAYER
  5
321
330
2
100
AcDbSymbolTableRecord
100
AcDbLayerTableRecord
  2
RAHMENPOLY
 70
     0
 62
     2
  6
Continuous
370
    -3
390
F
  0
LAYER
  5
322
330
2
100
AcDbSymbolTableRecord
100
AcDbLayerTableRecord
  2
AM_0
 70
     0
 62
     7
  6
Continuous
370
    50
390
F
  0
LAYER
  5
323
330
2
100
AcDbSymbolTableRecord
100
AcDbLayerTableRecord
  2
AM_7
 70
     0
 62
     4
  6
AM_DIN_G_W050
370
    25
390
F
  0
LAYER
  5
324
330
2
100
AcDbSymbolTableRecord
100
AcDbLayerTableRecord
  2
AM_3
 70
     0
 62
     6
  6
AM_DIN_F_W050
370
    25
390
F
1001
AcAecLayerStandard
1000

1000

  0
LAYER
  5
325
330
2
100
AcDbSymbolTableRecord
100
AcDbLayerTableRecord
  2
AM_8
 70
     0
 62
     1
  6
Continuous
370
    25
390
F
1001
AcAecLayerStandard
1000

1000

  0
LAYER
  5
326
330
2
100
AcDbSymbolTableRecord
100
AcDbLayerTableRecord
  2
4
 70
     0
 62
     3
  6
Continuous
370
    -3
390
F
  0
LAYER
  5
327
330
2
100
AcDbSymbolTableRecord
100
AcDbLayerTableRecord
  2
DN50-0
 70
     0
 62
     7
  6
Continuous
370
    -3
390
F
  0
ENDTAB
  0
TABLE
  2
STYLE
  5
3
330
0
100
AcDbSymbolTable
 70
    15
  0
STYLE
  5
11
330
3
100
AcDbSymbolTableRecord
100
AcDbTextStyleTableRecord
  2
STANDARD
 70
     0
 40
0.0
 41
1.0
 50
0.0
 71
     0
 42
2.5
  3
ISOCP.SHX
  4

  0
STYLE
  5
A7
330
3
100
AcDbSymbolTableRecord
100
AcDbTextStyleTableRecord
  2

 70
     1
 40
0.0
 41
1.0
 50
0.0
 71
     0
 42
2.5
  3
ltypeshp.shx
  4

  0
STYLE
  5
AE
330
3
100
AcDbSymbolTableRecord
100
AcDbTextStyleTableRecord
  2
ACDINTS
 70
     0
 40
1.0
 41
1.0
 50
0.0
 71
     0
 42
2.5
  3
isocp.shx
  4

  0
STYLE
  5
BA
330
3
100
AcDbSymbolTableRecord
100
AcDbTextStyleTableRecord
  2
ACDINGDT
 70
     0
 40
0.0
 41
1.0
 50
0.0
 71
     0
 42
2.5
  3
amgdt.shx
  4

  0
STYLE
  5
23D
330
3
100
AcDbSymbolTableRecord
100
AcDbTextStyleTableRecord
  2
USER1
 70
     0
 40
0.0
 41
1.0
 50
0.0
 71
     0
 42
2.5
  3
TXT.SHX
  4

  0
STYLE
  5
23E
330
3
100
AcDbSymbolTableRecord
100
AcDbTextStyleTableRecord
  2
USER2
 70
     0
 40
0.0
 41
1.0
 50
0.0
 71
     0
 42
2.5
  3
SIMPLEX.SHX
  4

  0
STYLE
  5
23F
330
3
100
AcDbSymbolTableRecord
100
AcDbTextStyleTableRecord
  2
USER3
 70
     0
 40
0.0
 41
1.0
 50
0.0
 71
     0
 42
2.5
  3
ITALIC.SHX
  4

  0
STYLE
  5
C0A
330
3
100
AcDbSymbolTableRecord
100
AcDbTextStyleTableRecord
  2
Annotative
 70
     0
 40
0.0
 41
1.0
 50
0.0
 71
     0
 42
2.5
  3
ARIAL.TTF
  4

1001
AcadAnnotative
1000
AnnotativeData
1002
{
1070
     1
1070
     1
1002
}
1001
ACAD
1000
Arial
1071
       34
  0
STYLE
  5
C0B
330
3
100
AcDbSymbolTableRecord
100
AcDbTextStyleTableRecord
  2
CP_TXT
 70
     0
 40
0.0
 41
1.0
 50
0.0
 71
     0
 42
2.5
  3
ROMANS.SHX
  4

  0
STYLE
  5
C0C
330
3
100
AcDbSymbolTableRecord
100
AcDbTextStyleTableRecord
  2

 70
     1
 40
0.0
 41
1.0
 50
0.0
 71
     0
 42
2.5
  3
LTYPESHP.SHX
  4

  0
STYLE
  5
C0D
330
3
100
AcDbSymbolTableRecord
100
AcDbTextStyleTableRecord
  2
CP_ATTR
 70
     0
 40
0.0
 41
1.0
 50
0.0
 71
     0
 42
0.2
  3
ROMANS.SHX
  4

  0
STYLE
  5
C0E
330
3
100
AcDbSymbolTableRecord
100
AcDbTextStyleTableRecord
  2
CP_TXT_IT
 70
     0
 40
0.0
 41
1.0
 50
15.0
 71
     0
 42
2.5
  3
ROMANS.SHX
  4

  0
STYLE
  5
C0F
330
3
100
AcDbSymbolTableRecord
100
AcDbTextStyleTableRecord
  2
CP_TXTCON
 70
     0
 40
0.0
 41
0.8
 50
0.0
 71
     0
 42
2.5
  3
ROMANS.SHX
  4

  0
STYLE
  5
C10
330
3
100
AcDbSymbolTableRecord
100
AcDbTextStyleTableRecord
  2
CP_TXTCON_IT
 70
     0
 40
0.0
 41
0.8
 50
15.0
 71
     0
 42
2.5
  3
ROMANS.SHX
  4

  0
ENDTAB
  0
TABLE
  2
VIEW
  5
6
330
0
100
AcDbSymbolTable
 70
     0
  0
ENDTAB
  0
TABLE
  2
UCS
  5
7
330
0
100
AcDbSymbolTable
 70
     0
  0
ENDTAB
  0
TABLE
  2
APPID
  5
9
330
0
100
AcDbSymbolTable
 70
    36
  0
APPID
  5
12
330
9
100
AcDbSymbolTableRecord
100
AcDbRegAppTableRecord
  2
ACAD
 70
     0
  0
APPID
  5
82
330
9
100
AcDbSymbolTableRecord
100
AcDbRegAppTableRecord
  2
MCAD_NO_VIS
 70
     0
  0
APPID
  5
83
330
9
100
AcDbSymbolTableRecord
100
AcDbRegAppTableRecord
  2
ACAD_TEMP_GRAPHIC
 70
     0
  0
APPID
  5
94
330
9
100
AcDbSymbolTableRecord
100
AcDbRegAppTableRecord
  2
ACATTRIBSERVICES
 70
     0
  0
APPID
  5
CF
330
9
100
AcDbSymbolTableRecord
100
AcDbRegAppTableRecord
  2
GENIUS_GENSCREG_15
 70
     0
  0
APPID
  5
D0
330
9
100
AcDbSymbolTableRecord
100
AcDbRegAppTableRecord
  2
GENIUS_GENOBJ-N-SDF_13
 70
     0
  0
APPID
  5
D1
330
9
100
AcDbSymbolTableRecord
100
AcDbRegAppTableRecord
  2
GENIUS_GENODEF_13
 70
     0
  0
APPID
  5
125
330
9
100
AcDbSymbolTableRecord
100
AcDbRegAppTableRecord
  2
AD_DRAW
 70
     0
  0
APPID
  5
143
330
9
100
AcDbSymbolTableRecord
100
AcDbRegAppTableRecord
  2
DESIGNERASSEMBLIES
 70
     0
  0
APPID
  5
148
330
9
100
AcDbSymbolTableRecord
100
AcDbRegAppTableRecord
  2
ACADM_DIM_EDIT
 70
     0
  0
APPID
  5
149
330
9
100
AcDbSymbolTableRecord
100
AcDbRegAppTableRecord
  2
AMDT_DM_ADJ
 70
     0
  0
APPID
  5
329
330
9
100
AcDbSymbolTableRecord
100
AcDbRegAppTableRecord
  2
GENIUS_GENDTOL_13
 70
     0
  0
APPID
  5
32A
330
9
100
AcDbSymbolTableRecord
100
AcDbRegAppTableRecord
  2
GENIUS_GENOENT_13
 70
     0
  0
APPID
  5
32B
330
9
100
AcDbSymbolTableRecord
100
AcDbRegAppTableRecord
  2
GENIUS_GENOBJ-N-HTC_13
 70
     0
  0
APPID
  5
32C
330
9
100
AcDbSymbolTableRecord
100
AcDbRegAppTableRecord
  2
GENIUS_GENHATCH_13
 70
     0
  0
APPID
  5
32D
330
9
100
AcDbSymbolTableRecord
100
AcDbRegAppTableRecord
  2
GENIUS_GENOLIS_13
 70
     0
  0
APPID
  5
32E
330
9
100
AcDbSymbolTableRecord
100
AcDbRegAppTableRecord
  2
GENIUS_GENOREF_13
 70
     0
  0
APPID
  5
32F
330
9
100
AcDbSymbolTableRecord
100
AcDbRegAppTableRecord
  2
GENIUS_GENREC_14
 70
     0
  0
APPID
  5
330
330
9
100
AcDbSymbolTableRecord
100
AcDbRegAppTableRecord
  2
GENIUS_GENOBJ-N-REC_13
 70
     0
  0
APPID
  5
331
330
9
100
AcDbSymbolTableRecord
100
AcDbRegAppTableRecord
  2
GENIUS_GENOBJ-N-FIL_13
 70
     0
  0
APPID
  5
332
330
9
100
AcDbSymbolTableRecord
100
AcDbRegAppTableRecord
  2
GENIUS_GENOBJ-N-CEN_13
 70
     0
  0
APPID
  5
333
330
9
100
AcDbSymbolTableRecord
100
AcDbRegAppTableRecord
  2
GENIUS_GENOBJ-N-DIMBR_13
 70
     0
  0
APPID
  5
334
330
9
100
AcDbSymbolTableRecord
100
AcDbRegAppTableRecord
  2
GENIUS_DIMBR_14
 70
     0
  0
APPID
  5
335
330
9
100
AcDbSymbolTableRecord
100
AcDbRegAppTableRecord
  2
GENIUS_GENFIL_13
 70
     0
  0
APPID
  5
336
330
9
100
AcDbSymbolTableRecord
100
AcDbRegAppTableRecord
  2
GENIUS_GENOBJ-N-CHA_13
 70
     0
  0
APPID
  5
337
330
9
100
AcDbSymbolTableRecord
100
AcDbRegAppTableRecord
  2
GENIUS_GENOBJ-N-CRC_13
 70
     0
  0
APPID
  5
338
330
9
100
AcDbSymbolTableRecord
100
AcDbRegAppTableRecord
  2
GENIUS_GENCRC_14
 70
     0
  0
APPID
  5
339
330
9
100
AcDbSymbolTableRecord
100
AcDbRegAppTableRecord
  2
EDBMODELINFO
 70
     0
  0
APPID
  5
33A
330
9
100
AcDbSymbolTableRecord
100
AcDbRegAppTableRecord
  2
AcAecLayerStandard
 70
     0
  0
APPID
  5
C13
330
9
100
AcDbSymbolTableRecord
100
AcDbRegAppTableRecord
  2
ACAD_PSEXT
 70
     0
  0
APPID
  5
C14
330
9
100
AcDbSymbolTableRecord
100
AcDbRegAppTableRecord
  2
AcadAnnoPO
 70
     0
  0
APPID
  5
C15
330
9
100
AcDbSymbolTableRecord
100
AcDbRegAppTableRecord
  2
AcadAnnotative
 70
     0
  0
APPID
  5
C16
330
9
100
AcDbSymbolTableRecord
100
AcDbRegAppTableRecord
  2
ACAD_DSTYLE_DIMJAG
 70
     0
  0
APPID
  5
C17
330
9
100
AcDbSymbolTableRecord
100
AcDbRegAppTableRecord
  2
ACAD_DSTYLE_DIMTALN
 70
     0
  0
APPID
  5
C18
330
9
100
AcDbSymbolTableRecord
100
AcDbRegAppTableRecord
  2
ACAD_MLEADERVER
 70
     0
  0
APPID
  5
C19
330
9
100
AcDbSymbolTableRecord
100
AcDbRegAppTableRecord
  2
DCO15
 70
     0
  0
ENDTAB
  0
TABLE
  2
DIMSTYLE
  5
A
330
0
100
AcDbSymbolTable
 70
    12
100
AcDbDimStyleTable
 71
     2
340
C2
340
27
  0
DIMSTYLE
105
27
330
A
100
AcDbSymbolTableRecord
100
AcDbDimStyleTableRecord
  2
ISO-25
 70
     0
 41
2.5
 42
0.625
 43
3.75
 44
1.25
 73
     0
 74
     0
 77
     1
 78
     8
140
2.5
141
2.5
143
0.03937007874016
147
0.625
171
     3
172
     1
271
     2
272
     2
274
     3
278
    44
283
     0
284
     8
340
11
  0
DIMSTYLE
105
C2
330
A
100
AcDbSymbolTableRecord
100
AcDbDimStyleTableRecord
  2
AM_DIN
 70
     0
  4
"
 41
2.5
 42
0.0
 43
10.0
 44
2.0
 47
0.1
 48
0.1
 73
     0
 74
     0
 77
     1
 78
     8
 79
     2
140
3.5
141
0.0
143
0.0393701
146
0.71
147
1.5
172
     1
176
   256
177
   256
178
     2
271
     2
272
     2
283
     0
284
     8
340
11
371
    -1
372
    -1
  0
DIMSTYLE
105
C3
330
A
100
AcDbSymbolTableRecord
100
AcDbDimStyleTableRecord
  2
AM_DIN$3
 70
     0
  4
"
 41
2.5
 42
1.0
 43
10.0
 44
1.0
 47
0.1
 48
0.1
 73
     0
 77
     1
 78
     8
 79
     2
140
3.5
141
0.0
143
0.0393701
146
0.71
147
1.5
176
   256
177
   256
178
     2
271
     2
272
     3
274
     4
283
     0
284
     8
288
     1
289
     0
340
11
371
    -1
372
    -1
  0
DIMSTYLE
105
C4
330
A
100
AcDbSymbolTableRecord
100
AcDbDimStyleTableRecord
  2
AM_DIN$4
 70
     0
  4
"
 41
2.5
 42
1.0
 43
10.0
 44
1.0
 47
0.1
 48
0.1
 73
     0
 77
     1
 78
     8
 79
     2
140
3.5
141
0.0
143
0.0393701
146
0.71
147
1.5
176
   256
177
   256
178
     2
271
     2
272
     3
274
     4
283
     0
284
     8
288
     1
289
     0
340
11
371
    -1
372
    -1
  0
DIMSTYLE
105
C5
330
A
100
AcDbSymbolTableRecord
100
AcDbDimStyleTableRecord
  2
AM_DIN$6
 70
     0
  4
"
 41
2.5
 42
1.0
 43
10.0
 44
1.0
 47
0.1
 48
0.1
 73
     0
 74
     0
 78
     8
 79
     2
140
3.5
141
0.0
143
0.0393701
146
0.71
147
1.5
172
     1
176
   256
177
   256
178
     2
271
     2
272
     3
274
     4
283
     0
284
     8
340
11
371
    -1
372
    -1
  0
DIMSTYLE
105
C6
330
A
100
AcDbSymbolTableRecord
100
AcDbDimStyleTableRecord
  2
AM_DIN$7
 70
     0
  4
"
 41
2.5
 42
1.0
 43
10.0
 44
1.0
 47
0.1
 48
0.1
 73
     0
 74
     0
 77
     1
 78
     8
 79
     2
140
5.0
141
0.0
143
0.0393701
146
0.71
147
1.5
172
     1
176
   256
177
   256
178
     2
271
     2
272
     3
274
     4
283
     0
284
     8
340
11
371
    -1
372
    -1
  0
DIMSTYLE
105
C7
330
A
100
AcDbSymbolTableRecord
100
AcDbDimStyleTableRecord
  2
AM_DIN$SF
 70
     0
  4
"
 41
2.5
 42
1.0
 43
10.0
 44
1.0
 47
0.1
 48
0.1
 73
     0
 74
     0
 75
     1
 76
     1
 77
     1
 78
     8
 79
     2
140
3.5
141
0.0
143
0.0393701
146
0.71
147
1.5
172
     1
176
   256
177
   256
178
     2
271
     2
272
     3
274
     4
283
     0
284
     8
340
11
371
    -1
372
    -1
  0
DIMSTYLE
105
CC
330
A
100
AcDbSymbolTableRecord
100
AcDbDimStyleTableRecord
  2
AM_DIN$SH
 70
     0
  4
"
 41
2.5
 42
1.0
 43
10.0
 44
1.0
 47
0.1
 48
0.1
 73
     0
 74
     0
 75
     1
 76
     1
 77
     1
 78
     8
 79
     2
140
3.5
141
0.0
143
0.0393701
144
2.0
146
0.71
147
1.5
172
     1
173
     1
176
   256
177
   256
178
     2
271
     2
272
     3
274
     4
283
     0
284
     8
340
11
343
C8
371
    -1
372
    -1
  0
DIMSTYLE
105
328
102
{ACAD_REACTORS
330
B12
330
72F
330
730
330
734
330
738
330
739
330
73B
330
748
102
}
330
A
100
AcDbSymbolTableRecord
100
AcDbDimStyleTableRecord
  2
GEN-ISO
 70
     0
  4
"
 40
5.0
 41
2.5
 42
1.0
 43
7.0
 44
1.0
 47
0.1
 48
0.1
 73
     0
 74
     0
 77
     1
 78
     8
140
3.5
141
0.0
143
0.0393701
146
0.71
147
0.6
172
     1
176
   256
177
   256
178
     2
271
     2
272
     3
274
     4
283
     0
340
11
  0
DIMSTYLE
105
C11
330
A
100
AcDbSymbolTableRecord
100
AcDbDimStyleTableRecord
  2
Standard
 70
     0
340
11
  0
DIMSTYLE
105
C12
330
A
100
AcDbSymbolTableRecord
100
AcDbDimStyleTableRecord
  2
Opisowy
 70
     0
 40
0.0
 41
2.5
 42
0.625
 43
3.75
 44
1.25
 73
     0
 74
     0
 77
     1
 78
     8
140
2.5
141
2.5
143
0.03937007874016
147
0.625
171
     3
172
     1
271
     2
272
     2
274
     3
278
    44
283
     0
284
     8
340
11
1001
AcadAnnotative
1000
AnnotativeData
1002
{
1070
     1
1070
     1
1002
}
1001
ACAD_DSTYLE_DIMJAG
1070
   388
1040
1.5
1001
ACAD_DSTYLE_DIMTALN
1070
   392
1070
     0
  0
ENDTAB
  0
TABLE
  2
BLOCK_RECORD
  5
1
330
0
100
AcDbSymbolTable
 70
    22
  0
BLOCK_RECORD
  5
1F
102
{ACAD_XDICTIONARY
360
D5
102
}
330
1
100
AcDbSymbolTableRecord
100
AcDbBlockTableRecord
  2
*Model_Space
340
22
  0
BLOCK_RECORD
  5
55
330
1
100
AcDbSymbolTableRecord
100
AcDbBlockTableRecord
  2
*Paper_Space
340
56
  0
BLOCK_RECORD
  5
50
330
1
100
AcDbSymbolTableRecord
100
AcDbBlockTableRecord
  2
*Paper_Space0
340
51
  0
BLOCK_RECORD
  5
C8
330
1
100
AcDbSymbolTableRecord
100
AcDbBlockTableRecord
  2
GENAXEH
340
0
  0
BLOCK_RECORD
  5
29B
330
1
100
AcDbSymbolTableRecord
100
AcDbBlockTableRecord
  2
REFLEX-LOGO
340
0
102
{BLKREFS
331
2B4
102
}
  0
BLOCK_RECORD
  5
2B2
330
1
100
AcDbSymbolTableRecord
100
AcDbBlockTableRecord
  2
LOGO
340
0
102
{BLKREFS
331
770
102
}
  0
BLOCK_RECORD
  5
B14
330
1
100
AcDbSymbolTableRecord
100
AcDbBlockTableRecord
  2
*D13
340
0
  0
BLOCK_RECORD
  5
B22
330
1
100
AcDbSymbolTableRecord
100
AcDbBlockTableRecord
  2
*D14
340
0
  0
BLOCK_RECORD
  5
B30
330
1
100
AcDbSymbolTableRecord
100
AcDbBlockTableRecord
  2
*D15
340
0
  0
BLOCK_RECORD
  5
B3C
330
1
100
AcDbSymbolTableRecord
100
AcDbBlockTableRecord
  2
*D16
340
0
  0
BLOCK_RECORD
  5
B48
330
1
100
AcDbSymbolTableRecord
100
AcDbBlockTableRecord
  2
*D17
340
0
  0
BLOCK_RECORD
  5
B54
330
1
100
AcDbSymbolTableRecord
100
AcDbBlockTableRecord
  2
*D18
340
0
  0
BLOCK_RECORD
  5
B60
330
1
100
AcDbSymbolTableRecord
100
AcDbBlockTableRecord
  2
*D19
340
0
  0
BLOCK_RECORD
  5
B6C
330
1
100
AcDbSymbolTableRecord
100
AcDbBlockTableRecord
  2
*D20
340
0
  0
ENDTAB
  0
ENDSEC
  0
SECTION
  2
BLOCKS
  0
BLOCK
  5
20
330
1F
100
AcDbEntity
  8
0
100
AcDbBlockBegin
  2
*Model_Space
 70
     0
 10
0.0
 20
0.0
 30
0.0
  3
*Model_Space
  1

  0
ENDBLK
  5
21
330
1F
100
AcDbEntity
  8
0
100
AcDbBlockEnd
  0
BLOCK
  5
57
330
55
100
AcDbEntity
 67
     1
  8
0
100
AcDbBlockBegin
  2
*Paper_Space
 70
     0
 10
0.0
 20
0.0
 30
0.0
  3
*Paper_Space
  1

  0
ENDBLK
  5
58
330
55
100
AcDbEntity
 67
     1
  8
0
100
AcDbBlockEnd
  0
BLOCK
  5
52
330
50
100
AcDbEntity
 67
     1
  8
0
100
AcDbBlockBegin
  2
*Paper_Space0
 70
     0
 10
0.0
 20
0.0
 30
0.0
  3
*Paper_Space0
  1

  0
VIEWPORT
  5
69
330
50
100
AcDbEntity
 67
     1
  8
0
100
AcDbViewport
 10
128.5
 20
97.5
 30
0.0
 40
384.7606204379562
 41
222.18
 68
     0
 69
     0
 12
128.5
 22
97.5
 13
0.0
 23
0.0
 14
10.0
 24
10.0
 15
10.0
 25
10.0
 16
0.0
 26
0.0
 36
1.0
 17
0.0
 27
0.0
 37
0.0
 42
50.0
 43
0.0
 44
0.0
 45
222.18
 50
0.0
 51
0.0
 72
   100
 90
    32800
  1

281
     0
 71
     1
 74
     0
110
0.0
120
0.0
130
0.0
111
1.0
121
0.0
131
0.0
112
0.0
122
1.0
132
0.0
 79
     0
146
0.0
170
     0
1001
GENIUS_GENSCREG_15
1000
PF
1040
1.0
1000
DF
1040
1.0
1000
MIN
1011
-63.88031021897808
1021
-13.59
1031
0.0
1000
MAX
1011
320.8803102189782
1021
208.59
1031
0.0
1000
FLAGS
1070
     4
1001
GENIUS_GENOBJ-N-SDF_13
1002
{
1000
OWNER
1000
GEN
1002
}
1001
GENIUS_GENODEF_13
1002
{
1000
HIER
1070
     0
1002
}
1002
{
1000
MANEDIT
1070
     0
1002
}
1002
{
1000
NOSEL
1070
     0
1002
}
1002
{
1000
BEHIND
1070
     0
1002
}
1002
{
1000
OTHER
1070
     0
1002
}
1002
{
1000
REACTOR
1002
}
  0
VIEWPORT
  5
6B
330
50
100
AcDbEntity
 67
     1
  8
0
100
AcDbViewport
 10
128.5
 20
97.5
 30
0.0
 40
205.6
 41
156.0
 68
     0
 69
     0
 12
210.0
 22
148.5
 13
0.0
 23
0.0
 14
10.0
 24
10.0
 15
10.0
 25
10.0
 16
0.0
 26
0.0
 36
1.0
 17
0.0
 27
0.0
 37
0.0
 42
50.0
 43
0.0
 44
0.0
 45
322.4558219652112
 50
0.0
 51
0.0
 72
   100
 90
    32864
  1

281
     0
 71
     1
 74
     0
110
0.0
120
0.0
130
0.0
111
1.0
121
0.0
131
0.0
112
0.0
122
1.0
132
0.0
 79
     0
146
0.0
170
     0
1001
GENIUS_GENSCREG_15
1000
PF
1040
0.0
1000
DF
1040
0.0
1000
MIN
1011
25.69999999999999
1021
19.5
1031
0.0
1000
MAX
1011
231.3
1021
175.5
1031
0.0
1000
FLAGS
1070
     4
1001
GENIUS_GENOBJ-N-SDF_13
1002
{
1000
OWNER
1000
GEN
1002
}
1001
GENIUS_GENODEF_13
1002
{
1000
HIER
1070
     0
1002
}
1002
{
1000
MANEDIT
1070
     0
1002
}
1002
{
1000
NOSEL
1070
     0
1002
}
1002
{
1000
BEHIND
1070
     0
1002
}
1002
{
1000
OTHER
1070
     0
1002
}
1002
{
1000
REACTOR
1002
}
  0
ENDBLK
  5
53
330
50
100
AcDbEntity
 67
     1
  8
0
100
AcDbBlockEnd
  0
BLOCK
  5
CA
330
C8
100
AcDbEntity
  8
0
100
AcDbBlockBegin
  2
GENAXEH
 70
     0
 10
0.0
 20
0.0
 30
0.0
  3
GENAXEH
  1

  0
LINE
  5
C9
330
C8
100
AcDbEntity
  8
0
100
AcDbLine
 10
-1.0
 20
0.0
 30
0.0
 11
1.0
 21
0.0
 31
0.0
  0
ENDBLK
  5
CB
330
C8
100
AcDbEntity
  8
0
100
AcDbBlockEnd
  0
BLOCK
  5
29C
330
29B
100
AcDbEntity
  8
0
100
AcDbBlockBegin
  2
REFLEX-LOGO
 70
     0
 10
0.0
 20
0.0
 30
0.0
  3
REFLEX-LOGO
  1

  0
LWPOLYLINE
  5
29D
330
29B
100
AcDbEntity
  8
REFLEX-PLOTLOGO
100
AcDbPolyline
 90
        4
 70
     1
 43
0.0
 10
7.168892660582512
 20
2.770000148494325
 10
8.050201288629978
 20
1.751758672336855
 42
-2.569163999999998
 10
8.456599988157789
 20
5.004874880845262
 10
6.110138560493052
 20
2.57088252848068
 42
0.268569
  0
LWPOLYLINE
  5
29E
330
29B
100
AcDbEntity
  8
REFLEX-LOGO
100
AcDbPolyline
 90
        2
 70
     0
 43
1.344148106570167
 10
7.675506562442477
 20
4.839334080533808
 42
2.261413
 10
7.610669338275214
 20
2.260218537596536
 42
0.9802239999999999
  0
LWPOLYLINE
  5
29F
330
29B
100
AcDbEntity
  8
REFLEX-PLOTLOGO
100
AcDbPolyline
 90
        7
 70
     0
 43
0.0
 10
3.098261093164296
 20
4.704713167167128
 42
0.412244
 10
2.574401771097086
 20
4.210062183455618
 10
2.574401771097086
 20
1.142232310944137
 10
1.222421761559302
 20
1.142232310944137
 10
1.222421761559302
 20
4.253388557424051
 42
-0.412244
 10
3.132487584451381
 20
6.056957525832537
 10
3.132487584451381
 20
4.704283039773093
  0
LWPOLYLINE
  5
2A0
330
29B
100
AcDbEntity
  8
REFLEX-LOGO
100
AcDbPolyline
 90
        2
 70
     0
 43
0.6720740532850843
 10
8.213784113199606
 20
5.242072216718078
 10
5.791651627628537
 20
2.724738201252328
  0
LWPOLYLINE
  5
2A1
330
29B
100
AcDbEntity
  8
REFLEX-LOGO
100
AcDbPolyline
 90
        3
 70
     0
 43
1.344148106570167
 10
1.892757383293085
 20
1.13836116439716
 10
1.892757383293085
 20
4.189317497677578
 42
-0.4225800000000002
 10
3.116308521741871
 20
5.378512210522308
 42
-0.5840260000000001
  0
LWPOLYLINE
  5
2A2
330
29B
100
AcDbEntity
  8
REFLEX-PLOTLOGO
100
AcDbPolyline
 90
        2
 70
     1
 43
0.0
 10
7.030078005123299
 20
4.486212931456776
 10
5.577363055985528
 20
2.986869484502058
 42
-0.802942
  0
LWPOLYLINE
  5
2A3
330
29B
100
AcDbEntity
  8
REFLEX-PLOTLOGO
100
AcDbPolyline
 90
        4
 70
     1
 43
0.0
 10
12.61697584415799
 20
7.8500466195035
 10
12.61697584415799
 20
1.13136263325574
 10
13.96896033418943
 20
1.13136263325574
 10
13.96896033418943
 20
7.8500466195035
  0
LWPOLYLINE
  5
2A4
330
29B
100
AcDbEntity
  8
REFLEX-PLOTLOGO
100
AcDbPolyline
 90
       10
 70
     0
 43
0.0
 10
11.53981587599583
 20
6.502412688843596
 10
11.53981587599583
 20
7.85508717490314
 42
0.412244
 10
9.62975453359752
 20
6.051518206494556
 10
9.62975453359752
 20
1.141882832436427
 10
10.9817345431353
 20
1.141882832436427
 10
10.9817345431353
 20
4.656960065434353
 10
11.54785388167306
 20
4.656960065434353
 10
11.54785388167306
 20
6.008196313019928
 10
10.9817345431353
 20
6.008196313019928
 42
-0.412244
 10
11.50559386520251
 20
6.502842816237752
  0
LWPOLYLINE
  5
2A5
330
29B
100
AcDbEntity
  8
REFLEX-LOGO
100
AcDbPolyline
 90
        2
 70
     0
 43
1.344148106570167
 10
13.29213247710083
 20
7.847205986504872
 10
13.29213247710083
 20
1.133598399606277
  0
LWPOLYLINE
  5
2A6
330
29B
100
AcDbEntity
  8
REFLEX-LOGO
100
AcDbPolyline
 90
        3
 70
     0
 43
1.344148106570167
 10
10.30394337990355
 20
1.13836116439716
 10
10.30394337990355
 20
5.981488090142311
 42
-0.4225800000000002
 10
11.52749003785857
 20
7.170678322493343
 42
-0.5840260000000001
  0
LWPOLYLINE
  5
2A7
330
29B
100
AcDbEntity
  8
REFLEX-PLOTLOGO
100
AcDbPolyline
 90
       20
 70
     1
 43
0.0
 10
23.69623758589217
 20
5.229777742036587
 10
23.69623758589217
 20
5.996381251163063
 10
25.04057835369088
 20
5.996381251163063
 10
25.04057835369088
 20
5.22789593468746
 42
-0.200193
 10
24.36593249702855
 20
3.612713803908484
 42
-0.200193
 10
25.04057835369088
 20
1.997531673129543
 10
25.04057835369088
 20
1.087476197576085
 10
23.69623758589217
 20
1.087476197576085
 10
23.69623758589217
 20
1.995649865780271
 42
0.431175
 10
22.72309675920372
 20
2.938300932918009
 42
0.431175
 10
21.74996041300915
 20
1.995649865780271
 10
21.74996041300915
 20
1.087476197576085
 10
20.40561964521032
 20
1.087476197576085
 10
20.40561964521032
 20
1.997531673129543
 42
-0.200193
 10
21.08026550187265
 20
3.612713803908484
 42
-0.200193
 10
20.40561964521032
 20
5.22789593468746
 10
20.40561964521032
 20
5.996381251163063
 10
21.74996041300915
 20
5.996381251163063
 10
21.74996041300915
 20
5.229777742036587
 42
0.431175
 10
22.72309675920372
 20
4.287126674899006
 42
0.431175
  0
LWPOLYLINE
  5
2A8
330
29B
100
AcDbEntity
  8
REFLEX-PLOTLOGO
100
AcDbPolyline
 90
        4
 70
     1
 43
0.0
 10
18.24867862007818
 20
2.771756502020279
 10
19.12998724812576
 20
1.753515025862803
 42
-2.569163999999998
 10
19.53638594765357
 20
5.006631234371217
 10
17.18992451998872
 20
2.572638882006627
 42
0.268569
  0
LWPOLYLINE
  5
2A9
330
29B
100
AcDbEntity
  8
REFLEX-LOGO
100
AcDbPolyline
 90
        3
 70
     0
 43
1.344148106570167
 10
24.36839676855732
 20
5.996381251163063
 10
24.36839676855732
 20
5.229777742036587
 42
-0.4192720000000003
 10
22.72309675920372
 20
3.612601791566311
 42
-1.628846999999999
  0
LWPOLYLINE
  5
2AA
330
29B
100
AcDbEntity
  8
REFLEX-LOGO
100
AcDbPolyline
 90
        3
 70
     0
 43
1.344148106570167
 10
24.36839676855732
 20
1.087538924487837
 10
24.36839676855732
 20
1.995425841095894
 42
0.4192720000000003
 10
22.72309675920372
 20
3.612601791566311
 42
1.628846999999999
  0
LWPOLYLINE
  5
2AB
330
29B
100
AcDbEntity
  8
REFLEX-LOGO
100
AcDbPolyline
 90
        2
 70
     0
 43
0.6720740532850843
 10
19.2903620392143
 20
5.242072216718078
 10
16.86822955364334
 20
2.724738201252328
  0
LWPOLYLINE
  5
2AC
330
29B
100
AcDbEntity
  8
REFLEX-LOGO
100
AcDbPolyline
 90
        2
 70
     0
 43
1.344148106570167
 10
18.75208448845728
 20
4.839334080533808
 42
2.261413
 10
18.68724726429002
 20
2.260218537596536
 42
0.9802239999999999
  0
LWPOLYLINE
  5
2AD
330
29B
100
AcDbEntity
  8
REFLEX-LOGO
100
AcDbPolyline
 90
        3
 70
     0
 43
1.344148106570167
 10
21.07779674985033
 20
5.996381251163063
 10
21.07779674985033
 20
5.229777742036587
 42
0.4192720000000003
 10
22.72309675920372
 20
3.612601791566311
 42
1.628846999999999
  0
LWPOLYLINE
  5
2AE
330
29B
100
AcDbEntity
  8
REFLEX-LOGO
100
AcDbPolyline
 90
        3
 70
     0
 43
1.344148106570167
 10
21.07779674985033
 20
1.087538924487837
 10
21.07779674985033
 20
1.995425841095894
 42
-0.4192720000000003
 10
22.72309675920372
 20
3.612601791566311
 42
-1.628846999999999
  0
LWPOLYLINE
  5
2AF
330
29B
100
AcDbEntity
  8
REFLEX-PLOTLOGO
100
AcDbPolyline
 90
        2
 70
     1
 43
0.0
 10
18.10986396461907
 20
4.487969284982695
 10
16.65714901548119
 20
2.988625838027898
 42
-0.802942
  0
LWPOLYLINE
  5
2B0
330
29B
100
AcDbEntity
  8
REFLEX-LOGO
100
AcDbPolyline
 90
        2
 70
     0
 43
1.344148106570167
 10
10.95095803198853
 20
5.331924037148652
 10
11.54826608709243
 20
5.331924037148652
  0
ENDBLK
  5
2B1
330
29B
100
AcDbEntity
  8
0
100
AcDbBlockEnd
  0
BLOCK
  5
2B3
330
2B2
100
AcDbEntity
  8
0
100
AcDbBlockBegin
  2
LOGO
 70
     0
 10
0.0
 20
0.0
 30
0.0
  3
LOGO
  1

  0
INSERT
  5
2B4
330
2B2
100
AcDbEntity
  8
6
100
AcDbBlockReference
  2
REFLEX-LOGO
 10
0.184902540976509
 20
0.7393083952857751
 30
0.0
  0
ENDBLK
  5
2B5
330
2B2
100
AcDbEntity
  8
0
100
AcDbBlockEnd
  0
BLOCK
  5
B20
330
B14
100
AcDbEntity
  8
0
100
AcDbBlockBegin
  2
*D13
 70
     1
 10
0.0
 20
0.0
 30
0.0
  3
*D13
  1

  0
LINE
  5
B78
330
B14
100
AcDbEntity
  8
AM_5
370
    -2
100
AcDbLine
 10
994.4727311362756
 20
412.7355938055377
 30
0.0
 11
1026.27004473778
 21
412.7355938055377
 31
0.0
  0
LINE
  5
B79
330
B14
100
AcDbEntity
  8
AM_5
370
    -2
100
AcDbLine
 10
995.4712840664583
 20
443.6798208432269
 30
0.0
 11
1026.27004473778
 21
443.6798208432269
 31
0.0
  0
LINE
  5
B7A
330
B14
100
AcDbEntity
  8
AM_5
370
    -2
100
AcDbLine
 10
1021.27004473778
 20
400.2355938055377
 30
0.0
 11
1021.27004473778
 21
387.7355938055377
 31
0.0
  0
LINE
  5
B7B
330
B14
100
AcDbEntity
  8
AM_5
370
    -2
100
AcDbLine
 10
1021.27004473778
 20
456.1798208432269
 30
0.0
 11
1021.27004473778
 21
595.0550082930572
 31
0.0
  0
LINE
  5
B7C
330
B14
100
AcDbEntity
  8
AM_5
370
    -2
100
AcDbLine
 10
1021.27004473778
 20
412.7355938055377
 30
0.0
 11
1021.27004473778
 21
443.6798208432269
 31
0.0
  0
SOLID
  5
B7D
330
B14
100
AcDbEntity
  8
AM_5
100
AcDbTrace
 10
1019.186711404447
 20
400.2355938055377
 30
0.0
 11
1023.353378071114
 21
400.2355938055377
 31
0.0
 12
1021.27004473778
 22
412.7355938055377
 32
0.0
 13
1021.27004473778
 23
412.7355938055377
 33
0.0
  0
SOLID
  5
B7E
330
B14
100
AcDbEntity
  8
AM_5
100
AcDbTrace
 10
1019.186711404447
 20
456.1798208432269
 30
0.0
 11
1023.353378071114
 21
456.1798208432269
 31
0.0
 12
1021.27004473778
 22
443.6798208432269
 32
0.0
 13
1021.27004473778
 23
443.6798208432269
 33
0.0
  0
MTEXT
  5
B7F
330
B14
100
AcDbEntity
  8
AM_5
 62
     2
100
AcDbMText
 10
1009.39834335332
 20
531.8674145681422
 30
0.0
 40
17.5
 41
0.0
 71
     5
 72
     1
  1
R1-DIN 2999
 11
0.0000000000000001
 21
1.0
 31
0.0
 73
     1
 44
1.0
  0
POINT
  5
B80
330
B14
100
AcDbEntity
  8
DEFPOINTS
 62
     0
100
AcDbPoint
 10
989.4727311362755
 20
412.7355938055377
 30
0.0
  0
POINT
  5
B81
330
B14
100
AcDbEntity
  8
DEFPOINTS
 62
     0
100
AcDbPoint
 10
990.4712840664583
 20
443.6798208432269
 30
0.0
  0
POINT
  5
B82
330
B14
100
AcDbEntity
  8
DEFPOINTS
 62
     0
100
AcDbPoint
 10
1021.27004473778
 20
443.6798208432269
 30
0.0
  0
ENDBLK
  5
B21
330
B14
100
AcDbEntity
  8
0
100
AcDbBlockEnd
  0
BLOCK
  5
B2E
330
B22
100
AcDbEntity
  8
0
100
AcDbBlockBegin
  2
*D14
 70
     1
 10
0.0
 20
0.0
 30
0.0
  3
*D14
  1

  0
LINE
  5
B83
330
B22
100
AcDbEntity
  8
AM_5
370
    -2
100
AcDbLine
 10
1574.214935213857
 20
1093.262925963959
 30
0.0
 11
1574.214935213857
 21
1188.545798335587
 31
0.0
  0
LINE
  5
B84
330
B22
100
AcDbEntity
  8
AM_5
370
    -2
100
AcDbLine
 10
1359.873647777197
 20
694.0129259639616
 30
0.0
 11
1253.107548451867
 21
632.3714897781576
 31
0.0
  0
ARC
  5
B85
330
B22
100
AcDbEntity
  8
AM_5
370
    -2
100
AcDbCircle
 10
1574.214935213857
 20
817.7629259639649
 30
0.0
 40
365.7828723716221
100
AcDbArc
 50
91.9580799210205
 51
208.0419200789789
  0
SOLID
  5
B86
330
B22
100
AcDbEntity
  8
AM_5
100
AcDbTrace
 10
1561.681162889628
 20
1185.415244537589
 30
0.0
 11
1561.752357220018
 21
1181.249186151244
 31
0.0
 12
1574.214935213857
 22
1183.545798335587
 32
0.0
 13
1574.214935213857
 23
1183.545798335587
 33
0.0
  0
SOLID
  5
B87
330
B22
100
AcDbEntity
  8
AM_5
100
AcDbTrace
 10
1253.195310968152
 20
646.8127050096379
 30
0.0
 11
1249.551801406733
 21
644.7913319151889
 31
0.0
 12
1257.437675470789
 22
634.8714897781576
 32
0.0
 13
1257.437675470789
 23
634.8714897781576
 33
0.0
  0
MTEXT
  5
B88
330
B22
100
AcDbEntity
  8
AM_5
 62
     2
100
AcDbMText
 10
1247.260385298711
 20
1006.53022337025
 30
0.0
 40
17.5
 41
0.0
 71
     5
 72
     1
  1
3x120\U+00B0
 11
0.5000000000000046
 21
0.866025403784436
 31
0.0
 73
     1
 44
1.0
  0
POINT
  5
B89
330
B22
100
AcDbEntity
  8
DEFPOINTS
 62
     0
100
AcDbPoint
 10
1339.094237017827
 20
1097.968862732345
 30
0.0
  0
POINT
  5
B8A
330
B22
100
AcDbEntity
  8
DEFPOINTS
 62
     0
100
AcDbPoint
 10
1574.214935213857
 20
1032.262925963958
 30
0.0
  0
POINT
  5
B8B
330
B22
100
AcDbEntity
  8
DEFPOINTS
 62
     0
100
AcDbPoint
 10
1574.214935213846
 20
817.7629259639585
 30
0.0
  0
POINT
  5
B8C
330
B22
100
AcDbEntity
  8
DEFPOINTS
 62
     0
100
AcDbPoint
 10
1364.203774796119
 20
696.5129259639616
 30
0.0
  0
POINT
  5
B8D
330
B22
100
AcDbEntity
  8
DEFPOINTS
 62
     0
100
AcDbPoint
 10
1574.214935213857
 20
1088.262925963959
 30
0.0
  0
ENDBLK
  5
B2F
330
B22
100
AcDbEntity
  8
0
100
AcDbBlockEnd
  0
BLOCK
  5
B3A
330
B30
100
AcDbEntity
  8
0
100
AcDbBlockBegin
  2
*D15
 70
     1
 10
0.0
 20
0.0
 30
0.0
  3
*D15
  1

  0
LINE
  5
B8E
330
B30
100
AcDbEntity
  8
AM_5
370
    -2
100
AcDbLine
 10
1359.873647777193
 20
699.0129259639689
 30
0.0
 11
1247.366942360111
 21
763.9687026221654
 31
0.0
  0
LINE
  5
B8F
330
B30
100
AcDbEntity
  8
AM_5
370
    -2
100
AcDbLine
 10
1569.884808194935
 20
1062.762925963959
 30
0.0
 11
1457.378102777854
 21
1127.718702622155
 31
0.0
  0
LINE
  5
B90
330
B30
100
AcDbEntity
  8
AM_5
370
    -2
100
AcDbLine
 10
1257.947069379034
 20
772.2940201694703
 30
0.0
 11
1455.458229796776
 21
1114.39338507485
 31
0.0
  0
SOLID
  5
B91
330
B30
100
AcDbEntity
  8
AM_5
100
AcDbTrace
 10
1256.142849787816
 20
773.3356868361371
 30
0.0
 11
1259.751288970252
 21
771.2523535028037
 31
0.0
 12
1251.697069379033
 22
761.4687026221653
 32
0.0
 13
1251.697069379033
 23
761.4687026221653
 33
0.0
  0
SOLID
  5
B92
330
B30
100
AcDbEntity
  8
AM_5
100
AcDbTrace
 10
1453.654010205558
 20
1115.435051741517
 30
0.0
 11
1457.262449387993
 21
1113.351718408183
 31
0.0
 12
1461.708229796776
 22
1125.218702622155
 32
0.0
 13
1461.708229796776
 23
1125.218702622155
 33
0.0
  0
MTEXT
  5
B93
330
B30
100
AcDbEntity
  8
AM_5
 62
     2
100
AcDbMText
 10
1345.769078865127
 20
949.6562026221608
 30
0.0
 40
17.5
 41
0.0
 71
     5
 72
     1
  1
(420)
 11
0.5000000000000396
 21
0.8660254037844158
 31
0.0
 73
     1
 44
1.0
  0
POINT
  5
B94
330
B30
100
AcDbEntity
  8
DEFPOINTS
 62
     0
100
AcDbPoint
 10
1364.203774796115
 20
696.5129259639688
 30
0.0
  0
POINT
  5
B95
330
B30
100
AcDbEntity
  8
DEFPOINTS
 62
     0
100
AcDbPoint
 10
1574.214935213857
 20
1060.262925963959
 30
0.0
  0
POINT
  5
B96
330
B30
100
AcDbEntity
  8
DEFPOINTS
 62
     0
100
AcDbPoint
 10
1461.708229796776
 20
1125.218702622155
 30
0.0
  0
ENDBLK
  5
B3B
330
B30
100
AcDbEntity
  8
0
100
AcDbBlockEnd
  0
BLOCK
  5
B46
330
B3C
100
AcDbEntity
  8
0
100
AcDbBlockBegin
  2
*D16
 70
     1
 10
0.0
 20
0.0
 30
0.0
  3
*D16
  1

  0
LINE
  5
B97
330
B3C
100
AcDbEntity
  8
AM_5
370
    -2
100
AcDbLine
 10
643.471284066459
 20
1111.95616729646
 30
0.0
 11
225.8295910820204
 21
1111.95616729646
 31
0.0
  0
LINE
  5
B98
330
B3C
100
AcDbEntity
  8
AM_5
370
    -2
100
AcDbLine
 10
394.9712840664586
 20
223.7459867757444
 30
0.0
 11
225.8295910820202
 21
223.7459867757444
 31
0.0
  0
LINE
  5
B99
330
B3C
100
AcDbEntity
  8
AM_5
370
    -2
100
AcDbLine
 10
230.8295910820204
 20
1099.45616729646
 30
0.0
 11
230.8295910820202
 21
236.2459867757444
 31
0.0
  0
SOLID
  5
B9A
330
B3C
100
AcDbEntity
  8
AM_5
100
AcDbTrace
 10
228.7462577486871
 20
1099.45616729646
 30
0.0
 11
232.9129244153538
 21
1099.45616729646
 31
0.0
 12
230.8295910820204
 22
1111.95616729646
 32
0.0
 13
230.8295910820204
 23
1111.95616729646
 33
0.0
  0
SOLID
  5
B9B
330
B3C
100
AcDbEntity
  8
AM_5
100
AcDbTrace
 10
228.7462577486869
 20
236.2459867757444
 30
0.0
 11
232.9129244153536
 21
236.2459867757444
 31
0.0
 12
230.8295910820202
 22
223.7459867757444
 32
0.0
 13
230.8295910820202
 23
223.7459867757444
 33
0.0
  0
MTEXT
  5
B9C
330
B3C
100
AcDbEntity
  8
AM_5
 62
     2
100
AcDbMText
 10
219.0795910820202
 20
667.8510770361023
 30
0.0
 40
17.5
 41
0.0
 71
     5
 72
     1
  1
888 {}{\C2;%%p8}
 11
0.0000000000000001
 21
1.0
 31
0.0
 73
     1
 44
1.0
  0
POINT
  5
B9D
330
B3C
100
AcDbEntity
  8
DEFPOINTS
 62
     0
100
AcDbPoint
 10
648.471284066459
 20
1111.95616729646
 30
0.0
  0
POINT
  5
B9E
330
B3C
100
AcDbEntity
  8
DEFPOINTS
 62
     0
100
AcDbPoint
 10
399.9712840664586
 20
223.7459867757444
 30
0.0
  0
POINT
  5
B9F
330
B3C
100
AcDbEntity
  8
DEFPOINTS
 62
     0
100
AcDbPoint
 10
230.8295910820202
 20
223.7459867757444
 30
0.0
  0
ENDBLK
  5
B47
330
B3C
100
AcDbEntity
  8
0
100
AcDbBlockEnd
  0
BLOCK
  5
B52
330
B48
100
AcDbEntity
  8
0
100
AcDbBlockBegin
  2
*D17
 70
     1
 10
0.0
 20
0.0
 30
0.0
  3
*D17
  1

  0
LINE
  5
BA0
330
B48
100
AcDbEntity
  8
AM_5
370
    -2
100
AcDbLine
 10
331.4712840664593
 20
934.1582311414418
 30
0.0
 11
331.4712840664593
 21
910.3099925548228
 31
0.0
  0
LINE
  5
BA1
330
B48
100
AcDbEntity
  8
AM_5
370
    -2
100
AcDbLine
 10
965.4712840664592
 20
934.1582311414427
 30
0.0
 11
965.4712840664592
 21
910.3099925548228
 31
0.0
  0
LINE
  5
BA2
330
B48
100
AcDbEntity
  8
AM_5
370
    -2
100
AcDbLine
 10
343.9712840664593
 20
915.3099925548229
 30
0.0
 11
952.9712840664592
 21
915.3099925548229
 31
0.0
  0
SOLID
  5
BA3
330
B48
100
AcDbEntity
  8
AM_5
100
AcDbTrace
 10
343.9712840664593
 20
917.3933258881563
 30
0.0
 11
343.9712840664593
 21
913.2266592214895
 31
0.0
 12
331.4712840664593
 22
915.3099925548229
 32
0.0
 13
331.4712840664593
 23
915.3099925548229
 33
0.0
  0
SOLID
  5
BA4
330
B48
100
AcDbEntity
  8
AM_5
100
AcDbTrace
 10
952.9712840664592
 20
917.3933258881563
 30
0.0
 11
952.9712840664592
 21
913.2266592214895
 31
0.0
 12
965.4712840664592
 22
915.3099925548229
 32
0.0
 13
965.4712840664592
 23
915.3099925548229
 33
0.0
  0
MTEXT
  5
BA5
330
B48
100
AcDbEntity
  8
AM_5
 62
     2
100
AcDbMText
 10
505.3140621254745
 20
927.0599925548228
 30
0.0
 40
17.5
 41
0.0
 71
     5
 72
     1
  1
%%c634
 73
     1
 44
1.0
  0
POINT
  5
BA6
330
B48
100
AcDbEntity
  8
DEFPOINTS
 62
     0
100
AcDbPoint
 10
331.4712840664593
 20
939.1582311414417
 30
0.0
  0
POINT
  5
BA7
330
B48
100
AcDbEntity
  8
DEFPOINTS
 62
     0
100
AcDbPoint
 10
965.4712840664592
 20
939.1582311414426
 30
0.0
  0
POINT
  5
BA8
330
B48
100
AcDbEntity
  8
DEFPOINTS
 62
     0
100
AcDbPoint
 10
965.4712840664592
 20
915.3099925548229
 30
0.0
  0
ENDBLK
  5
B53
330
B48
100
AcDbEntity
  8
0
100
AcDbBlockEnd
  0
BLOCK
  5
B5E
330
B54
100
AcDbEntity
  8
0
100
AcDbBlockBegin
  2
*D18
 70
     1
 10
0.0
 20
0.0
 30
0.0
  3
*D18
  1

  0
LINE
  5
BA9
330
B54
100
AcDbEntity
  8
AM_5
370
    -2
100
AcDbLine
 10
643.471284066459
 20
1101.564696532535
 30
0.0
 11
256.4688081211559
 21
1101.564696532535
 31
0.0
  0
LINE
  5
BAA
330
B54
100
AcDbEntity
  8
AM_5
370
    -2
100
AcDbLine
 10
388.4712840664586
 20
223.6173134524629
 30
0.0
 11
256.4688081211557
 21
223.6173134524629
 31
0.0
  0
LINE
  5
BAB
330
B54
100
AcDbEntity
  8
AM_5
370
    -2
100
AcDbLine
 10
261.4688081211558
 20
1089.064696532535
 30
0.0
 11
261.4688081211557
 21
236.1173134524629
 31
0.0
  0
SOLID
  5
BAC
330
B54
100
AcDbEntity
  8
AM_5
100
AcDbTrace
 10
259.3854747878225
 20
1089.064696532535
 30
0.0
 11
263.5521414544892
 21
1089.064696532535
 31
0.0
 12
261.4688081211558
 22
1101.564696532535
 32
0.0
 13
261.4688081211558
 23
1101.564696532535
 33
0.0
  0
SOLID
  5
BAD
330
B54
100
AcDbEntity
  8
AM_5
100
AcDbTrace
 10
259.3854747878224
 20
236.1173134524629
 30
0.0
 11
263.552141454489
 21
236.1173134524629
 31
0.0
 12
261.4688081211557
 22
223.6173134524629
 32
0.0
 13
261.4688081211557
 23
223.6173134524629
 33
0.0
  0
MTEXT
  5
BAE
330
B54
100
AcDbEntity
  8
AM_5
 62
     2
100
AcDbMText
 10
249.7188081211556
 20
662.591004992499
 30
0.0
 40
17.5
 41
0.0
 71
     5
 72
     1
  1
878 {}{\C2;%%p5}
 11
0.0000000000000001
 21
1.0
 31
0.0
 73
     1
 44
1.0
  0
POINT
  5
BAF
330
B54
100
AcDbEntity
  8
DEFPOINTS
 62
     0
100
AcDbPoint
 10
648.471284066459
 20
1101.564696532535
 30
0.0
  0
POINT
  5
BB0
330
B54
100
AcDbEntity
  8
DEFPOINTS
 62
     0
100
AcDbPoint
 10
393.4712840664586
 20
223.6173134524629
 30
0.0
  0
POINT
  5
BB1
330
B54
100
AcDbEntity
  8
DEFPOINTS
 62
     0
100
AcDbPoint
 10
261.4688081211557
 20
223.6173134524629
 30
0.0
  0
ENDBLK
  5
B5F
330
B54
100
AcDbEntity
  8
0
100
AcDbBlockEnd
  0
BLOCK
  5
B6A
330
B60
100
AcDbEntity
  8
0
100
AcDbBlockBegin
  2
*D19
 70
     1
 10
0.0
 20
0.0
 30
0.0
  3
*D19
  1

  0
LINE
  5
BB2
330
B60
100
AcDbEntity
  8
AM_5
370
    -2
100
AcDbLine
 10
405.9712840664583
 20
224.1745931481535
 30
0.0
 11
405.9712840664583
 21
152.6370492339437
 31
0.0
  0
LINE
  5
BB3
330
B60
100
AcDbEntity
  8
AM_5
370
    -2
100
AcDbLine
 10
890.9712840664596
 20
224.1745931481529
 30
0.0
 11
890.9712840664596
 21
152.6370492339437
 31
0.0
  0
LINE
  5
BB4
330
B60
100
AcDbEntity
  8
AM_5
370
    -2
100
AcDbLine
 10
418.4712840664583
 20
157.6370492339437
 30
0.0
 11
878.4712840664596
 21
157.6370492339437
 31
0.0
  0
SOLID
  5
BB5
330
B60
100
AcDbEntity
  8
AM_5
100
AcDbTrace
 10
418.4712840664583
 20
159.720382567277
 30
0.0
 11
418.4712840664583
 21
155.5537159006103
 31
0.0
 12
405.9712840664583
 22
157.6370492339437
 32
0.0
 13
405.9712840664583
 23
157.6370492339437
 33
0.0
  0
SOLID
  5
BB6
330
B60
100
AcDbEntity
  8
AM_5
100
AcDbTrace
 10
878.4712840664596
 20
159.720382567277
 30
0.0
 11
878.4712840664596
 21
155.5537159006103
 31
0.0
 12
890.9712840664596
 22
157.6370492339437
 32
0.0
 13
890.9712840664596
 23
157.6370492339437
 33
0.0
  0
MTEXT
  5
BB7
330
B60
100
AcDbEntity
  8
AM_5
 62
     2
100
AcDbMText
 10
648.471284066459
 20
169.3870492339437
 30
0.0
 40
17.5
 41
0.0
 71
     5
 72
     1
  1
%%c485{}{\C2;%%p1.5}
 73
     1
 44
1.0
  0
POINT
  5
BB8
330
B60
100
AcDbEntity
  8
DEFPOINTS
 62
     0
100
AcDbPoint
 10
405.9712840664583
 20
229.1745931481535
 30
0.0
  0
POINT
  5
BB9
330
B60
100
AcDbEntity
  8
DEFPOINTS
 62
     0
100
AcDbPoint
 10
890.9712840664596
 20
229.1745931481529
 30
0.0
  0
POINT
  5
BBA
330
B60
100
AcDbEntity
  8
DEFPOINTS
 62
     0
100
AcDbPoint
 10
890.9712840664596
 20
157.6370492339437
 30
0.0
  0
ENDBLK
  5
B6B
330
B60
100
AcDbEntity
  8
0
100
AcDbBlockEnd
  0
BLOCK
  5
B76
330
B6C
100
AcDbEntity
  8
0
100
AcDbBlockBegin
  2
*D20
 70
     1
 10
0.0
 20
0.0
 30
0.0
  3
*D20
  1

  0
LINE
  5
BBB
330
B6C
100
AcDbEntity
  8
AM_5
370
    -2
100
AcDbLine
 10
995.4712840664583
 20
428.7345961957946
 30
0.0
 11
1071.5674221808
 21
428.7345961957946
 31
0.0
  0
LINE
  5
BBC
330
B6C
100
AcDbEntity
  8
AM_5
370
    -2
100
AcDbLine
 10
901.9712840664592
 20
223.7459867757444
 30
0.0
 11
1071.5674221808
 21
223.7459867757444
 31
0.0
  0
LINE
  5
BBD
330
B6C
100
AcDbEntity
  8
AM_5
370
    -2
100
AcDbLine
 10
1066.5674221808
 20
416.2345961957946
 30
0.0
 11
1066.5674221808
 21
236.2459867757444
 31
0.0
  0
SOLID
  5
BBE
330
B6C
100
AcDbEntity
  8
AM_5
100
AcDbTrace
 10
1064.484088847467
 20
416.2345961957946
 30
0.0
 11
1068.650755514134
 21
416.2345961957946
 31
0.0
 12
1066.5674221808
 22
428.7345961957946
 32
0.0
 13
1066.5674221808
 23
428.7345961957946
 33
0.0
  0
SOLID
  5
BBF
330
B6C
100
AcDbEntity
  8
AM_5
100
AcDbTrace
 10
1064.484088847467
 20
236.2459867757444
 30
0.0
 11
1068.650755514134
 21
236.2459867757444
 31
0.0
 12
1066.5674221808
 22
223.7459867757444
 32
0.0
 13
1066.5674221808
 23
223.7459867757444
 33
0.0
  0
MTEXT
  5
BC0
330
B6C
100
AcDbEntity
  8
AM_5
 62
     2
100
AcDbMText
 10
1054.815699739856
 20
326.2402914857697
 30
0.0
 40
17.5
 41
0.0
 71
     5
 72
     1
  1
205 {}{\C2;%%p3}
 11
0.0000000000000001
 21
1.0
 31
0.0
 73
     1
 44
1.0
  0
POINT
  5
BC1
330
B6C
100
AcDbEntity
  8
DEFPOINTS
 62
     0
100
AcDbPoint
 10
990.4712840664583
 20
428.7345961957946
 30
0.0
  0
POINT
  5
BC2
330
B6C
100
AcDbEntity
  8
DEFPOINTS
 62
     0
100
AcDbPoint
 10
896.9712840664591
 20
223.7459867757444
 30
0.0
  0
POINT
  5
BC3
330
B6C
100
AcDbEntity
  8
DEFPOINTS
 62
     0
100
AcDbPoint
 10
1066.5674221808
 20
223.7459867757444
 30
0.0
  0
ENDBLK
  5
B77
330
B6C
100
AcDbEntity
  8
0
100
AcDbBlockEnd
  0
ENDSEC
  0
SECTION
  2
ENTITIES
  0
LWPOLYLINE
  5
72E
330
1F
100
AcDbEntity
  8
AM_0
 62
     7
100
AcDbPolyline
 90
        8
 70
     1
 43
0.0
 10
1369.052854831706
 20
850.0955153987927
 10
1368.879032221442
 20
788.0957590629798
 42
0.4142135623730951
 10
1369.876224700886
 20
787.0929594025588
 10
1407.87607535832
 20
786.9864229640106
 42
0.4142135623730951
 10
1408.878875018741
 20
787.9836154434546
 10
1409.052697629004
 20
849.9833717792675
 42
0.4142135623730951
 10
1408.055505149559
 20
850.9861714396889
 10
1370.055654492125
 20
851.0927078782367
 42
0.4142135623730951
1001
GENIUS_GENREC_14
1002
{
1000
PYDIR
1011
1409.055501219492
1021
850.9833678492009
1031
0.0
1002
}
1002
{
1000
PXDIR
1011
1368.876228630955
1021
787.0957629930467
1031
0.0
1002
}
1002
{
1000
PORI
1011
1369.055658422194
1021
851.0955114687247
1031
0.0
1002
}
1002
{
1000
PINS
1011
1369.055658422194
1021
851.0955114687247
1031
0.0
1002
}
1002
{
1000
HVAL
1000
40
1002
}
1002
{
1000
H
1070
     2
1002
}
1002
{
1000
WVAL
1000
64
1002
}
1002
{
1000
W
1070
     2
1002
}
1002
{
1000
C
1070
     1
1002
}
1001
GENIUS_GENODEF_13
1002
{
1000
HIER
1070
     0
1002
}
1002
{
1000
MANEDIT
1070
     0
1002
}
1002
{
1000
NOSEL
1070
     0
1002
}
1002
{
1000
BEHIND
1070
     0
1002
}
1002
{
1000
REACTOR
1002
}
1001
GENIUS_GENOBJ-N-REC_13
1002
{
1000
OWNER
1000
GEN
1002
}
  0
DIMENSION
  5
72F
330
1F
100
AcDbEntity
  8
AM_5
100
AcDbDimension
  2
*D14
 10
1574.214935213857
 20
1088.262925963959
 30
0.0
 11
1247.260385298711
 21
1006.53022337025
 31
0.0
 70
    34
  1
3x<>
 71
     5
 42
2.094395102393182
  3
GEN-ISO
100
AcDb2LineAngularDimension
 13
1574.214935213846
 23
817.7629259639589
 33
0.0
 14
1364.203774796119
 24
696.5129259639618
 34
0.0
 15
1574.214935213857
 25
1032.262925963959
 35
0.0
 16
1339.094237017827
 26
1097.968862732345
 36
0.0
1001
GENIUS_GENDTOL_13
1000

1000
h7
1000

1040
0.0
1000
3x<>
1001
ACAD
1000
DSTYLE
1002
{
1070
    47
1040
1.0
1070
    48
1040
1.0
1070
    79
1070
     2
1070
   171
1070
     0
1070
   271
1070
     0
1070
   272
1070
     0
1002
}
  0
DIMENSION
  5
730
330
1F
100
AcDbEntity
  8
AM_5
100
AcDbDimension
  2
*D15
 10
1461.708229796776
 20
1125.218702622155
 30
0.0
 11
1345.769078865127
 21
949.6562026221608
 31
0.0
 70
    33
  1
(<>)
 71
     5
 42
420.0223208354523
  3
GEN-ISO
100
AcDbAlignedDimension
 13
1364.203774796114
 23
696.5129259639688
 33
0.0
 14
1574.214935213857
 24
1060.262925963959
 34
0.0
1001
GENIUS_GENDTOL_13
1000

1000
h7
1000

1040
0.0
1000
(<>)
1001
ACAD
1000
DSTYLE
1002
{
1070
    47
1040
1.0
1070
    48
1040
1.0
1070
    79
1070
     2
1070
   171
1070
     0
1070
   271
1070
     0
1070
   272
1070
     0
1002
}
  0
LINE
  5
731
330
1F
100
AcDbEntity
  8
7
 48
2.0
100
AcDbLine
 10
1574.214935213846
 20
817.7629259639589
 30
0.0
 11
1244.214935213846
 21
817.7629259639589
 31
0.0
1001
GENIUS_GENOREF_13
1005
0
  0
CIRCLE
  5
732
330
1F
100
AcDbEntity
  8
AM_0
 62
     7
100
AcDbCircle
 10
1574.214935213846
 20
817.7629259639589
 30
0.0
 40
317.0
  0
CIRCLE
  5
733
330
1F
100
AcDbEntity
  8
AM_7
 48
2.0
100
AcDbCircle
 10
1574.214935213846
 20
817.7629259639589
 30
0.0
 40
242.5
1001
GENIUS_GENOREF_13
1005
B13
  0
DIMENSION
  5
734
330
1F
100
AcDbEntity
  8
AM_5
100
AcDbDimension
  2
*D16
 10
230.8295910820202
 20
223.7459867757444
 30
0.0
 11
219.0795910820202
 21
667.8510770361023
 31
0.0
 70
    32
  1
<> {}{\C2;%%p8}
 71
     5
 42
888.2101805207154
  3
GEN-ISO
100
AcDbAlignedDimension
 13
648.471284066459
 23
1111.95616729646
 33
0.0
 14
399.9712840664586
 24
223.7459867757444
 34
0.0
 50
90.0
100
AcDbRotatedDimension
1001
GENIUS_GENDTOL_13
1000
TolPm
1000
h7
1000
{$3%%p$P}
1040
758.0
1001
ACAD
1000
DSTYLE
1002
{
1070
    47
1040
1.0
1070
    48
1040
1.0
1070
    79
1070
     2
1070
   171
1070
     0
1070
   271
1070
     0
1070
   272
1070
     0
1002
}
  0
LINE
  5
735
330
1F
100
AcDbEntity
  8
AM_7
 48
2.0
100
AcDbLine
 10
317.7212840664594
 20
631.1613078577647
 30
0.0
 11
979.0530990668953
 21
631.1613078577647
 31
0.0
1001
GENIUS_GENODEF_13
1002
{
1000
HIER
1070
     0
1002
}
1002
{
1000
MANEDIT
1070
     0
1002
}
1002
{
1000
NOSEL
1070
     0
1002
}
1002
{
1000
BEHIND
1070
     0
1002
}
1002
{
1000
REACTOR
1002
}
1001
GENIUS_GENOBJ-N-CEN_13
1002
{
1000
OWNER
1000
GEN
1002
}
  0
LINE
  5
736
330
1F
100
AcDbEntity
  8
0
 62
     2
100
AcDbLine
 10
334.5871034288426
 20
674.8508877313459
 30
0.0
 11
957.6470723363522
 21
674.8508877313459
 31
0.0
  0
ARC
  5
737
330
1F
100
AcDbEntity
  8
AM_0
 62
     7
100
AcDbCircle
 10
648.4712840664592
 20
740.4113078577638
 30
0.0
 40
509.25
100
AcDbArc
 50
237.9978490718713
 51
270.0
  0
DIMENSION
  5
738
330
1F
100
AcDbEntity
  8
AM_5
100
AcDbDimension
  2
*D17
 10
965.4712840664592
 20
915.3099925548229
 30
0.0
 11
505.3140621254745
 21
915.3099925548229
 31
0.0
 70
   161
  1
%%c<>
 71
     5
 42
633.9999999999998
  3
GEN-ISO
100
AcDbAlignedDimension
 13
331.4712840664593
 23
939.1582311414417
 33
0.0
 14
965.4712840664592
 24
939.1582311414426
 34
0.0
1001
GENIUS_GENDTOL_13
1000

1000
h7
1000

1040
0.0
1000
%%c<>
1001
ACAD
1000
DSTYLE
1002
{
1070
    47
1040
1.0
1070
    48
1040
1.0
1070
    79
1070
     2
1070
   171
1070
     0
1070
   271
1070
     0
1070
   272
1070
     0
1002
}
  0
DIMENSION
  5
739
330
1F
100
AcDbEntity
  8
AM_5
100
AcDbDimension
  2
*D18
 10
261.4688081211557
 20
223.6173134524629
 30
0.0
 11
249.7188081211556
 21
662.591004992499
 31
0.0
 70
    32
  1
<> {}{\C2;%%p5}
 71
     5
 42
877.9473830800721
  3
GEN-ISO
100
AcDbAlignedDimension
 13
648.471284066459
 23
1101.564696532535
 33
0.0
 14
393.4712840664586
 24
223.6173134524629
 34
0.0
 50
90.0
100
AcDbRotatedDimension
1001
GENIUS_GENODEF_13
1002
{
1000
HIER
1070
     0
1002
}
1002
{
1000
MANEDIT
1070
     0
1002
}
1002
{
1000
NOSEL
1070
     0
1002
}
1002
{
1000
BEHIND
1070
     0
1002
}
1002
{
1000
REACTOR
1002
}
1001
GENIUS_GENOBJ-N-DIMBR_13
1002
{
1000
OWNER
1000
GEN
1002
}
1001
GENIUS_DIMBR_14
1000
3A3C7
1001
GENIUS_GENDTOL_13
1000
TolPm
1000
h7
1000
{$3%%p$P}
1040
740.0
1001
ACAD
1000
DSTYLE
1002
{
1070
    47
1040
1.0
1070
    48
1040
1.0
1070
    79
1070
     2
1070
   171
1070
     0
1070
   271
1070
     0
1070
   272
1070
     0
1002
}
  0
ARC
  5
73A
330
1F
100
AcDbEntity
  8
AM_0
 62
     7
100
AcDbCircle
 10
646.8590447610689
 20
595.9182825752068
 30
0.0
 40
505.3399406101918
100
AcDbArc
 50
91.50184168696918
 51
122.0636599505169
  0
DIMENSION
  5
73B
330
1F
100
AcDbEntity
  8
AM_5
100
AcDbDimension
  2
*D19
 10
890.9712840664596
 20
157.6370492339437
 30
0.0
 11
648.471284066459
 21
169.3870492339437
 31
0.0
 70
    33
  1
%%c<>{}{\C2;%%p1.5}
 71
     5
 42
485.0000000000012
  3
GEN-ISO
100
AcDbAlignedDimension
 13
405.9712840664583
 23
229.1745931481535
 33
0.0
 14
890.9712840664596
 24
229.1745931481529
 34
0.0
1001
GENIUS_GENDTOL_13
1000
TolPm
1000
h7
1000
{$3%%p$P}
1040
485.0
1001
ACAD
1000
DSTYLE
1002
{
1070
    47
1040
1.0
1070
    48
1040
1.0
1070
    79
1070
     2
1070
   171
1070
     0
1070
   271
1070
     0
1070
   272
1070
     0
1002
}
  0
LINE
  5
73C
330
1F
100
AcDbEntity
  8
AM_0
 62
     7
100
AcDbLine
 10
331.4712840664593
 20
939.1582311414417
 30
0.0
 11
331.4712840664594
 21
674.9203303899999
 31
0.0
1001
GENIUS_GENODEF_13
1002
{
1000
HIER
1070
     0
1002
}
1002
{
1000
MANEDIT
1070
     0
1002
}
1002
{
1000
NOSEL
1070
     0
1002
}
1002
{
1000
BEHIND
1070
     0
1002
}
1002
{
1000
REACTOR
1002
}
1001
GENIUS_GENOBJ-N-CEN_13
1002
{
1000
OWNER
1000
GEN
1002
}
  0
ARC
  5
73D
330
1F
100
AcDbEntity
  8
AM_0
 62
     7
100
AcDbCircle
 10
431.7212840664584
 20
393.5677732488577
 30
0.0
 40
100.25
100
AcDbArc
 50
180.0
 51
237.9978490718713
1001
GENIUS_GENODEF_13
1002
{
1000
HIER
1070
     0
1002
}
1002
{
1000
MANEDIT
1070
     0
1002
}
1002
{
1000
NOSEL
1070
     0
1002
}
1002
{
1000
BEHIND
1070
     0
1002
}
1002
{
1000
REACTOR
1002
}
1001
GENIUS_GENOBJ-N-FIL_13
1002
{
1000
OWNER
1000
GEN
1002
}
  0
LINE
  5
73E
330
1F
100
AcDbEntity
  8
AM_0
 62
     7
100
AcDbLine
 10
331.4712840664602
 20
626.9482329711839
 30
0.0
 11
331.4712840664586
 21
393.5677732488577
 31
0.0
1001
GENIUS_GENODEF_13
1002
{
1000
HIER
1070
     0
1002
}
1002
{
1000
MANEDIT
1070
     0
1002
}
1002
{
1000
NOSEL
1070
     0
1002
}
1002
{
1000
BEHIND
1070
     0
1002
}
1002
{
1000
REACTOR
1002
}
1001
GENIUS_GENOBJ-N-CEN_13
1002
{
1000
OWNER
1000
GEN
1002
}
  0
LINE
  5
73F
330
1F
100
AcDbEntity
  8
AM_0
 62
     7
100
AcDbLine
 10
331.4712840664594
 20
671.1613078577638
 30
0.0
 11
331.4712840664594
 21
635.374382744345
 31
0.0
1001
GENIUS_GENODEF_13
1002
{
1000
HIER
1070
     0
1002
}
1002
{
1000
MANEDIT
1070
     0
1002
}
1002
{
1000
NOSEL
1070
     0
1002
}
1002
{
1000
BEHIND
1070
     0
1002
}
1002
{
1000
REACTOR
1002
}
1001
GENIUS_GENOBJ-N-CEN_13
1002
{
1000
OWNER
1000
GEN
1002
}
  0
ARC
  5
740
330
1F
100
AcDbEntity
  8
AM_0
 62
     7
100
AcDbCircle
 10
330.9712840664594
 20
635.374382744345
 30
0.0
 40
0.5
100
AcDbArc
 50
314.8865851757216
 51
0.0
1001
GENIUS_GENODEF_13
1002
{
1000
HIER
1070
     0
1002
}
1002
{
1000
MANEDIT
1070
     0
1002
}
1002
{
1000
NOSEL
1070
     0
1002
}
1002
{
1000
BEHIND
1070
     0
1002
}
1002
{
1000
REACTOR
1002
}
1001
GENIUS_GENOBJ-N-FIL_13
1002
{
1000
OWNER
1000
GEN
1002
}
  0
ARC
  5
741
330
1F
100
AcDbEntity
  8
AM_0
 62
     7
100
AcDbCircle
 10
330.9712840664594
 20
626.9482329711839
 30
0.0
 40
0.5
100
AcDbArc
 50
0.0
 51
45.11341482427841
1001
GENIUS_GENODEF_13
1002
{
1000
HIER
1070
     0
1002
}
1002
{
1000
MANEDIT
1070
     0
1002
}
1002
{
1000
NOSEL
1070
     0
1002
}
1002
{
1000
BEHIND
1070
     0
1002
}
1002
{
1000
REACTOR
1002
}
1001
GENIUS_GENOBJ-N-FIL_13
1002
{
1000
OWNER
1000
GEN
1002
}
  0
ARC
  5
742
330
1F
100
AcDbEntity
  8
AM_0
 62
     7
100
AcDbCircle
 10
335.1677126378868
 20
631.1613078577647
 30
0.0
 40
5.446428571428463
100
AcDbArc
 50
134.8865851757216
 51
225.1134148242784
  0
ARC
  5
743
330
1F
100
AcDbEntity
  8
AM_0
 62
     7
100
AcDbCircle
 10
332.7212840664594
 20
671.0853938994607
 30
0.0
 40
0.5
100
AcDbArc
 50
0.0
 51
30.00000000001086
1001
GENIUS_GENOBJ-N-CEN_13
1002
{
1000
OWNER
1000
GEN
1002
}
1001
GENIUS_GENODEF_13
1002
{
1000
HIER
1070
     0
1002
}
1002
{
1000
MANEDIT
1070
     0
1002
}
1002
{
1000
NOSEL
1070
     0
1002
}
1002
{
1000
BEHIND
1070
     0
1002
}
1002
{
1000
REACTOR
1002
}
1001
GENIUS_GENOBJ-N-FIL_13
1002
{
1000
OWNER
1000
GEN
1002
}
  0
LINE
  5
744
330
1F
100
AcDbEntity
  8
AM_0
 62
     7
100
AcDbLine
 10
331.8062205569981
 20
673.6703303899998
 30
0.0
 11
333.1542967683522
 21
671.3353938994607
 31
0.0
  0
ARC
  5
745
330
1F
100
AcDbEntity
  8
AM_0
 62
     7
100
AcDbCircle
 10
333.9712840664593
 20
674.9203303899999
 30
0.0
 40
2.5
100
AcDbArc
 50
180.0
 51
210.0000000000108
1001
GENIUS_GENODEF_13
1002
{
1000
HIER
1070
     0
1002
}
1002
{
1000
MANEDIT
1070
     0
1002
}
1002
{
1000
NOSEL
1070
     0
1002
}
1002
{
1000
BEHIND
1070
     0
1002
}
1002
{
1000
REACTOR
1002
}
1001
GENIUS_GENOBJ-N-FIL_13
1002
{
1000
OWNER
1000
GEN
1002
}
  0
LINE
  5
746
330
1F
100
AcDbEntity
  8
AM_0
 62
     7
100
AcDbLine
 10
331.4712840664594
 20
671.1613078577648
 30
0.0
 11
333.2154875376488
 21
671.1613078577648
 31
0.0
  0
ARC
  5
747
330
1F
100
AcDbEntity
  8
AM_0
 62
     7
100
AcDbCircle
 10
431.7212840664589
 20
939.1582311414417
 30
0.0
 40
100.25
100
AcDbArc
 50
122.0021509281287
 51
180.0
1001
GENIUS_GENODEF_13
1002
{
1000
HIER
1070
     0
1002
}
1002
{
1000
MANEDIT
1070
     0
1002
}
1002
{
1000
NOSEL
1070
     0
1002
}
1002
{
1000
BEHIND
1070
     0
1002
}
1002
{
1000
REACTOR
1002
}
1001
GENIUS_GENOBJ-N-FIL_13
1002
{
1000
OWNER
1000
GEN
1002
}
  0
DIMENSION
  5
748
330
1F
100
AcDbEntity
  8
AM_5
100
AcDbDimension
  2
*D20
 10
1066.5674221808
 20
223.7459867757444
 30
0.0
 11
1054.815699739856
 21
326.2402914857697
 31
0.0
 70
    32
  1
205 {}{\C2;%%p3}
 71
     5
 42
204.9886094200503
  3
GEN-ISO
100
AcDbAlignedDimension
 13
990.4712840664583
 23
428.7345961957946
 33
0.0
 14
896.9712840664591
 24
223.7459867757444
 34
0.0
 50
90.0
100
AcDbRotatedDimension
1001
GENIUS_GENDTOL_13
1000
TolPm
1000
h7
1000
{$3%%p$P}
1040
205.0
1001
ACAD
1000
DSTYLE
1002
{
1070
   286
1070
     0
1070
   284
1070
     0
1070
   274
1070
     4
1070
    47
1040
3.0
1070
    48
1040
3.0
1070
    79
1070
     2
1070
   171
1070
     0
1070
   271
1070
     0
1070
   272
1070
     0
1002
}
  0
ARC
  5
749
330
1F
100
AcDbEntity
  8
AM_0
 62
     7
100
AcDbCircle
 10
865.221284066459
 20
939.1582311414426
 30
0.0
 40
100.25
100
AcDbArc
 50
0.0
 51
57.99784907187127
1001
GENIUS_GENODEF_13
1002
{
1000
HIER
1070
     0
1002
}
1002
{
1000
MANEDIT
1070
     0
1002
}
1002
{
1000
NOSEL
1070
     0
1002
}
1002
{
1000
BEHIND
1070
     0
1002
}
1002
{
1000
REACTOR
1002
}
1001
GENIUS_GENOBJ-N-FIL_13
1002
{
1000
OWNER
1000
GEN
1002
}
  0
ARC
  5
74A
330
1F
100
AcDbEntity
  8
AM_0
 62
     7
100
AcDbCircle
 10
865.2212840664592
 20
393.5677732488569
 30
0.0
 40
100.25
100
AcDbArc
 50
302.0021509281288
 51
0.0
1001
GENIUS_GENODEF_13
1002
{
1000
HIER
1070
     0
1002
}
1002
{
1000
MANEDIT
1070
     0
1002
}
1002
{
1000
NOSEL
1070
     0
1002
}
1002
{
1000
BEHIND
1070
     0
1002
}
1002
{
1000
REACTOR
1002
}
1001
GENIUS_GENOBJ-N-FIL_13
1002
{
1000
OWNER
1000
GEN
1002
}
  0
LINE
  5
74B
330
1F
100
AcDbEntity
  8
AM_7
 48
2.0
100
AcDbLine
 10
648.471284066459
 20
1134.433636397967
 30
0.0
 11
648.4712840664585
 21
212.5353203300313
 31
0.0
1001
GENIUS_GENODEF_13
1002
{
1000
HIER
1070
     0
1002
}
1002
{
1000
MANEDIT
1070
     0
1002
}
1002
{
1000
NOSEL
1070
     0
1002
}
1002
{
1000
BEHIND
1070
     0
1002
}
1002
{
1000
REACTOR
1002
}
1001
GENIUS_GENOBJ-N-CEN_13
1002
{
1000
OWNER
1000
GEN
1002
}
  0
ARC
  5
74C
330
1F
100
AcDbEntity
  8
AM_0
 62
     7
100
AcDbCircle
 10
648.4712840664592
 20
740.4113078577638
 30
0.0
 40
509.25
100
AcDbArc
 50
270.0
 51
302.0021509281288
  0
LINE
  5
74D
330
1F
100
AcDbEntity
  8
AM_0
 62
     7
100
AcDbLine
 10
890.9712840664596
 20
226.6613501218052
 30
0.0
 11
890.9712840664596
 21
226.6613501218052
 31
0.0
1001
GENIUS_GENODEF_13
1002
{
1000
HIER
1070
     0
1002
}
1002
{
1000
MANEDIT
1070
     0
1002
}
1002
{
1000
NOSEL
1070
     0
1002
}
1002
{
1000
BEHIND
1070
     0
1002
}
1002
{
1000
REACTOR
1002
}
1001
GENIUS_GENOBJ-N-CEN_13
1002
{
1000
OWNER
1000
GEN
1002
}
  0
ARC
  5
74E
330
1F
100
AcDbEntity
  8
AM_0
 62
     7
100
AcDbCircle
 10
650.0094963237564
 20
595.7508166091527
 30
0.0
 40
505.521159879044
100
AcDbArc
 50
57.93930573944424
 51
88.44007487830609
  0
LINE
  5
74F
330
1F
100
AcDbEntity
  8
AM_0
 62
     7
100
AcDbLine
 10
965.4712840664592
 20
674.9203303899999
 30
0.0
 11
965.4712840664592
 21
939.1582311414426
 31
0.0
1001
GENIUS_GENODEF_13
1002
{
1000
HIER
1070
     0
1002
}
1002
{
1000
MANEDIT
1070
     0
1002
}
1002
{
1000
NOSEL
1070
     0
1002
}
1002
{
1000
BEHIND
1070
     0
1002
}
1002
{
1000
REACTOR
1002
}
1001
GENIUS_GENOBJ-N-CEN_13
1002
{
1000
OWNER
1000
GEN
1002
}
  0
LINE
  5
750
330
1F
100
AcDbEntity
  8
AM_0
 62
     7
100
AcDbLine
 10
965.4712840664592
 20
626.9482329711839
 30
0.0
 11
965.4712840664583
 21
393.5677732488569
 31
0.0
1001
GENIUS_GENODEF_13
1002
{
1000
HIER
1070
     0
1002
}
1002
{
1000
MANEDIT
1070
     0
1002
}
1002
{
1000
NOSEL
1070
     0
1002
}
1002
{
1000
BEHIND
1070
     0
1002
}
1002
{
1000
REACTOR
1002
}
1001
GENIUS_GENOBJ-N-CEN_13
1002
{
1000
OWNER
1000
GEN
1002
}
  0
LINE
  5
751
330
1F
100
AcDbEntity
  8
AM_0
 62
     7
100
AcDbLine
 10
973.6712840664589
 20
411.8845961957947
 30
0.0
 11
989.4727311362755
 21
412.7355938055377
 31
0.0
  0
LINE
  5
752
330
1F
100
AcDbEntity
  8
AM_8
 62
     1
100
AcDbLine
 10
990.2819782426799
 20
413.5895961957958
 30
0.0
 11
969.963926405137
 21
412.8556777234348
 31
0.0
  0
LINE
  5
753
330
1F
100
AcDbEntity
  8
AM_8
 62
     1
100
AcDbLine
 10
990.2819782426799
 20
443.8795961957957
 30
0.0
 11
969.963926405137
 21
444.6135146681549
 31
0.0
  0
LINE
  5
754
330
1F
100
AcDbEntity
  8
AM_0
 62
     7
100
AcDbLine
 10
973.6712840664589
 20
445.5845961957959
 30
0.0
 11
989.4727311362755
 21
444.7335985860527
 31
0.0
  0
LINE
  5
755
330
1F
100
AcDbEntity
  8
AM_7
 48
2.0
100
AcDbLine
 10
993.4712840664584
 20
428.7345961957946
 30
0.0
 11
962.4712840664583
 21
428.7345961957946
 31
0.0
1001
GENIUS_GENODEF_13
1002
{
1000
HIER
1070
     0
1002
}
1002
{
1000
MANEDIT
1070
     0
1002
}
1002
{
1000
NOSEL
1070
     0
1002
}
1002
{
1000
BEHIND
1070
     0
1002
}
1002
{
1000
REACTOR
1002
}
1001
GENIUS_GENOBJ-N-CEN_13
1002
{
1000
OWNER
1000
GEN
1002
}
  0
LINE
  5
756
330
1F
100
AcDbEntity
  8
AM_0
 62
     7
100
AcDbLine
 10
973.6712840664589
 20
411.8845961957947
 30
0.0
 11
965.4712840664583
 21
411.8845961957947
 31
0.0
  0
LINE
  5
757
330
1F
100
AcDbEntity
  8
AM_0
 62
     7
100
AcDbLine
 10
973.6712840664589
 20
445.5845961957959
 30
0.0
 11
965.4712840664583
 21
445.5845961957959
 31
0.0
  0
LINE
  5
758
330
1F
100
AcDbEntity
  8
AM_0
 62
     7
100
AcDbLine
 10
969.963926405137
 20
445.5845961957959
 30
0.0
 11
969.963926405137
 21
411.8845961957947
 31
0.0
  0
LINE
  5
759
330
1F
100
AcDbEntity
  8
AM_0
 62
     7
100
AcDbLine
 10
965.4712840664583
 20
445.5845961957959
 30
0.0
 11
965.4712840664583
 21
411.6522940244538
 31
0.0
  0
LINE
  5
75A
330
1F
100
AcDbEntity
  8
AM_0
 62
     7
100
AcDbLine
 10
989.4727311362755
 20
412.7355938055377
 30
0.0
 11
990.4712840664583
 21
413.7893715483637
 31
0.0
1001
GENIUS_GENFIL_13
1070
     0
1040
1.0
1040
1.0
1040
20.0
1040
0.0
1002
{
1002
}
1001
GENIUS_GENODEF_13
1002
{
1000
HIER
1070
     0
1002
}
1002
{
1000
MANEDIT
1070
     0
1002
}
1002
{
1000
NOSEL
1070
     0
1002
}
1002
{
1000
BEHIND
1070
     0
1002
}
1002
{
1000
REACTOR
1002
}
1001
GENIUS_GENOBJ-N-CHA_13
1002
{
1000
OWNER
1000
GEN
1002
}
  0
LINE
  5
75B
330
1F
100
AcDbEntity
  8
AM_0
 62
     7
100
AcDbLine
 10
989.4727311362755
 20
444.7335985860527
 30
0.0
 11
990.4712840664583
 21
443.6798208432269
 31
0.0
1001
GENIUS_GENFIL_13
1070
     0
1040
1.0
1040
1.0
1040
20.0
1040
0.0
1002
{
1002
}
1001
GENIUS_GENODEF_13
1002
{
1000
HIER
1070
     0
1002
}
1002
{
1000
MANEDIT
1070
     0
1002
}
1002
{
1000
NOSEL
1070
     0
1002
}
1002
{
1000
BEHIND
1070
     0
1002
}
1002
{
1000
REACTOR
1002
}
1001
GENIUS_GENOBJ-N-CHA_13
1002
{
1000
OWNER
1000
GEN
1002
}
  0
LINE
  5
75C
330
1F
100
AcDbEntity
  8
AM_0
 62
     7
100
AcDbLine
 10
990.4712840664583
 20
443.6798208432269
 30
0.0
 11
990.4712840664583
 21
413.7893715483637
 31
0.0
  0
LINE
  5
75D
330
1F
100
AcDbEntity
  8
AM_0
 62
     7
100
AcDbLine
 10
965.4712840664592
 20
671.1613078577638
 30
0.0
 11
965.4712840664592
 21
635.374382744345
 31
0.0
1001
GENIUS_GENODEF_13
1002
{
1000
HIER
1070
     0
1002
}
1002
{
1000
MANEDIT
1070
     0
1002
}
1002
{
1000
NOSEL
1070
     0
1002
}
1002
{
1000
BEHIND
1070
     0
1002
}
1002
{
1000
REACTOR
1002
}
1001
GENIUS_GENOBJ-N-CEN_13
1002
{
1000
OWNER
1000
GEN
1002
}
  0
ARC
  5
75E
330
1F
100
AcDbEntity
  8
AM_0
 62
     7
100
AcDbCircle
 10
961.7748554950319
 20
631.1613078577647
 30
0.0
 40
5.446428571428463
100
AcDbArc
 50
314.8865851757216
 51
45.11341482427841
  0
LINE
  5
75F
330
1F
100
AcDbEntity
  8
AM_0
 62
     7
100
AcDbLine
 10
965.4712840664592
 20
671.1613078577648
 30
0.0
 11
963.7270805952718
 21
671.1613078577648
 31
0.0
  0
LINE
  5
760
330
1F
100
AcDbEntity
  8
AM_0
 62
     7
100
AcDbLine
 10
965.1363475759204
 20
673.6703303899998
 30
0.0
 11
963.7882713645678
 21
671.3353938994607
 31
0.0
  0
ARC
  5
761
330
1F
100
AcDbEntity
  8
AM_0
 62
     7
100
AcDbCircle
 10
962.9712840664591
 20
674.9203303899999
 30
0.0
 40
2.5
100
AcDbArc
 50
329.9999999999891
 51
0.0
1001
GENIUS_GENODEF_13
1002
{
1000
HIER
1070
     0
1002
}
1002
{
1000
MANEDIT
1070
     0
1002
}
1002
{
1000
NOSEL
1070
     0
1002
}
1002
{
1000
BEHIND
1070
     0
1002
}
1002
{
1000
REACTOR
1002
}
1001
GENIUS_GENOBJ-N-FIL_13
1002
{
1000
OWNER
1000
GEN
1002
}
  0
LINE
  5
762
330
1F
100
AcDbEntity
  8
AM_7
 48
2.0
100
AcDbLine
 10
1574.214935213846
 20
817.7629259639589
 30
0.0
 11
1904.214935213845
 21
817.7629259639589
 31
0.0
1001
GENIUS_GENOREF_13
1005
0
  0
LINE
  5
763
330
1F
100
AcDbEntity
  8
AM_7
 48
2.0
100
AcDbLine
 10
1574.214935213846
 20
480.2555683026368
 30
0.0
 11
1574.214935213846
 21
1147.762925963958
 31
0.0
1001
GENIUS_GENOREF_13
1005
0
  0
LINE
  5
764
330
1F
100
AcDbEntity
  8
AM_0
 62
     7
 48
0.3
100
AcDbLine
 10
1557.364935213847
 20
500.7629259639588
 30
0.0
 11
1590.093853686206
 21
500.7629259639588
 31
0.0
  0
LINE
  5
765
330
1F
100
AcDbEntity
  8
AM_0
 62
     7
100
AcDbLine
 10
1589.16015986128
 20
480.2555683026368
 30
0.0
 11
1559.269710566414
 21
480.2555683026368
 31
0.0
  0
LINE
  5
766
330
1F
100
AcDbEntity
  8
AM_8
 62
     1
100
AcDbLine
 10
1559.069935213846
 20
480.4448741264147
 30
0.0
 11
1558.336016741487
 21
500.7629259639588
 31
0.0
  0
LINE
  5
767
330
1F
100
AcDbEntity
  8
AM_0
 62
     7
100
AcDbLine
 10
1558.215932823589
 20
481.2541212328197
 30
0.0
 11
1559.269710566414
 21
480.2555683026368
 31
0.0
1001
GENIUS_GENFIL_13
1070
     0
1040
1.0
1040
1.0
1040
20.0
1040
0.0
1002
{
1002
}
1001
GENIUS_GENODEF_13
1002
{
1000
HIER
1070
     0
1002
}
1002
{
1000
MANEDIT
1070
     0
1002
}
1002
{
1000
NOSEL
1070
     0
1002
}
1002
{
1000
BEHIND
1070
     0
1002
}
1002
{
1000
REACTOR
1002
}
1001
GENIUS_GENOBJ-N-CHA_13
1002
{
1000
OWNER
1000
GEN
1002
}
  0
LINE
  5
768
330
1F
100
AcDbEntity
  8
AM_0
 62
     7
 48
0.3
100
AcDbLine
 10
1557.364935213847
 20
497.0555683026368
 30
0.0
 11
1558.215932823589
 21
481.2541212328197
 31
0.0
  0
LINE
  5
769
330
1F
100
AcDbEntity
  8
AM_0
 62
     7
 48
0.3
100
AcDbLine
 10
1557.364935213847
 20
497.0555683026368
 30
0.0
 11
1557.364935213847
 21
501.2110700224718
 31
0.0
  0
LINE
  5
76A
330
1F
100
AcDbEntity
  8
AM_8
 62
     1
100
AcDbLine
 10
1589.359935213847
 20
480.4448741264147
 30
0.0
 11
1590.093853686206
 21
500.7629259639588
 31
0.0
  0
LINE
  5
76B
330
1F
100
AcDbEntity
  8
AM_0
 62
     7
100
AcDbLine
 10
1591.064935213848
 20
500.7629259639588
 30
0.0
 11
1590.093853686206
 21
500.7629259639588
 31
0.0
  0
LINE
  5
76C
330
1F
100
AcDbEntity
  8
AM_0
 62
     7
100
AcDbLine
 10
1590.213937604105
 20
481.2541212328197
 30
0.0
 11
1589.16015986128
 21
480.2555683026368
 31
0.0
1001
GENIUS_GENFIL_13
1070
     0
1040
1.0
1040
1.0
1040
20.0
1040
0.0
1002
{
1002
}
1001
GENIUS_GENODEF_13
1002
{
1000
HIER
1070
     0
1002
}
1002
{
1000
MANEDIT
1070
     0
1002
}
1002
{
1000
NOSEL
1070
     0
1002
}
1002
{
1000
BEHIND
1070
     0
1002
}
1002
{
1000
REACTOR
1002
}
1001
GENIUS_GENOBJ-N-CHA_13
1002
{
1000
OWNER
1000
GEN
1002
}
  0
LINE
  5
76D
330
1F
100
AcDbEntity
  8
AM_0
 62
     7
 48
0.3
100
AcDbLine
 10
1591.064935213848
 20
497.0555683026368
 30
0.0
 11
1590.213937604105
 21
481.2541212328197
 31
0.0
  0
LINE
  5
76E
330
1F
100
AcDbEntity
  8
AM_0
 62
     7
 48
0.3
100
AcDbLine
 10
1591.064935213848
 20
497.0555683026368
 30
0.0
 11
1591.064935213848
 21
501.2110700224718
 31
0.0
  0
CIRCLE
  5
76F
330
1F
100
AcDbEntity
  8
VENTILUKAPPE
 62
     7
100
AcDbCircle
 10
1574.214935213846
 20
817.7629259639589
 30
0.0
 40
7.929719931403195
  0
INSERT
  5
770
330
1F
100
AcDbEntity
  8
REFLEX-LOGO
100
AcDbBlockReference
  2
LOGO
 10
575.8723601128052
 20
720.8367109266539
 30
0.0
 41
5.184000000000196
 42
5.183999999999741
 43
5.184000000000001
  0
LWPOLYLINE
  5
771
330
1F
100
AcDbEntity
  8
RAHMENPOLY
100
AcDbPolyline
 90
        8
 70
     1
 43
2.0
 10
570.1454883215549
 20
778.6764622486118
 10
720.1454883215549
 20
778.6764622486118
 42
-0.4142135623730951
 10
725.1454883215549
 20
773.6764622486118
 10
725.1454883215549
 20
718.6764622486118
 42
-0.4142135623730951
 10
720.1454883215549
 20
713.6764622486118
 10
570.1454883215549
 20
713.6764622486118
 42
-0.4142135623730951
 10
565.1454883215551
 20
718.6764622486118
 10
565.1454883215551
 20
773.6764622486118
 42
-0.4142135623730951
  0
LINE
  5
772
330
1F
100
AcDbEntity
  8
AM_0
 62
     7
100
AcDbLine
 10
393.4712840664586
 20
226.7345961957956
 30
0.0
 11
393.4712840664586
 21
223.6173134524629
 31
0.0
  0
LINE
  5
773
330
1F
100
AcDbEntity
  8
AM_0
 62
     7
100
AcDbLine
 10
393.4712840664586
 20
226.7345961957956
 30
0.0
 11
418.7264612328842
 21
226.7345961957956
 31
0.0
  0
CIRCLE
  5
774
330
1F
100
AcDbEntity
  8
AM_3
100
AcDbCircle
 10
1574.214935213846
 20
1060.262925963959
 30
0.0
 40
6.0
  0
ARC
  5
775
330
1F
100
AcDbEntity
  8
AM_3
100
AcDbCircle
 10
1574.214935213846
 20
1057.762925963959
 30
0.0
 40
15.0
100
AcDbArc
 50
0.0
 51
180.0
  0
LINE
  5
776
330
1F
100
AcDbEntity
  8
AM_0
 62
     7
100
AcDbLine
 10
399.9712840664586
 20
226.7345961957956
 30
0.0
 11
399.9712840664586
 21
223.7459867757444
 31
0.0
  0
LINE
  5
777
330
1F
100
AcDbEntity
  8
AM_0
 62
     7
100
AcDbLine
 10
411.9712840664583
 20
226.7345961957956
 30
0.0
 11
411.9712840664583
 21
223.767015538727
 31
0.0
  0
LINE
  5
778
330
1F
100
AcDbEntity
  8
AM_3
100
AcDbLine
 10
1589.214935213846
 20
1057.762925963959
 30
0.0
 11
1589.214935213846
 21
1047.507748797533
 31
0.0
  0
LINE
  5
779
330
1F
100
AcDbEntity
  8
AM_3
100
AcDbLine
 10
1559.214935213848
 20
1057.762925963959
 30
0.0
 11
1559.214935213848
 21
1047.507748797533
 31
0.0
  0
LINE
  5
77A
330
1F
100
AcDbEntity
  8
AM_3
100
AcDbLine
 10
1584.299824711729
 20
1060.262925963959
 30
0.0
 11
1564.5179258293
 21
1060.262925963959
 31
0.0
  0
LINE
  5
77B
330
1F
100
AcDbEntity
  8
AM_7
 48
2.0
100
AcDbLine
 10
405.9712840664583
 20
232.4064363070681
 30
0.0
 11
405.9712840664583
 21
219.9942646733582
 31
0.0
  0
ARC
  5
77C
330
1F
100
AcDbEntity
  8
AM_0
 62
     7
100
AcDbCircle
 10
418.7264612328842
 20
231.7345961957958
 30
0.0
 40
5.0
100
AcDbArc
 50
270.0
 51
356.9999999999946
1001
GENIUS_GENODEF_13
1002
{
1000
HIER
1070
     0
1002
}
1002
{
1000
MANEDIT
1070
     0
1002
}
1002
{
1000
NOSEL
1070
     0
1002
}
1002
{
1000
BEHIND
1070
     0
1002
}
1002
{
1000
REACTOR
1002
}
1001
GENIUS_GENOBJ-N-FIL_13
1002
{
1000
OWNER
1000
GEN
1002
}
  0
ARC
  5
77D
330
1F
100
AcDbEntity
  8
AM_0
 62
     7
100
AcDbCircle
 10
434.654740010427
 20
268.1617442201698
 30
0.0
 40
9.0
100
AcDbArc
 50
64.31280354124955
 51
176.9999999999946
1001
GENIUS_GENODEF_13
1002
{
1000
HIER
1070
     0
1002
}
1002
{
1000
MANEDIT
1070
     0
1002
}
1002
{
1000
NOSEL
1070
     0
1002
}
1002
{
1000
BEHIND
1070
     0
1002
}
1002
{
1000
REACTOR
1002
}
1001
GENIUS_GENOBJ-N-FIL_13
1002
{
1000
OWNER
1000
GEN
1002
}
  0
LINE
  5
77E
330
1F
100
AcDbEntity
  8
AM_0
 62
     7
100
AcDbLine
 10
477.6608007924319
 20
259.398244134034
 30
0.0
 11
477.9712840664583
 21
260.3345961957954
 31
0.0
  0
LINE
  5
77F
330
1F
100
AcDbEntity
  8
AM_3
100
AcDbLine
 10
1563.214935213846
 20
1042.762925963959
 30
0.0
 11
1585.214935213848
 21
1042.762925963959
 31
0.0
  0
LINE
  5
780
330
1F
100
AcDbEntity
  8
AM_3
100
AcDbLine
 10
1563.214935213846
 20
988.2629259639598
 30
0.0
 11
1585.214935213848
 21
988.2629259639598
 31
0.0
  0
LINE
  5
781
330
1F
100
AcDbEntity
  8
AM_3
100
AcDbLine
 10
1587.214935213846
 20
1040.762925963959
 30
0.0
 11
1587.214935213846
 21
990.2629259639597
 31
0.0
1001
GENIUS_GENODEF_13
1002
{
1000
HIER
1070
     0
1002
}
1002
{
1000
MANEDIT
1070
     0
1002
}
1002
{
1000
NOSEL
1070
     0
1002
}
1002
{
1000
BEHIND
1070
     0
1002
}
1002
{
1000
REACTOR
1002
}
1001
GENIUS_GENOBJ-N-CEN_13
1002
{
1000
OWNER
1000
GEN
1002
}
  0
LINE
  5
782
330
1F
100
AcDbEntity
  8
AM_3
100
AcDbLine
 10
1561.214935213848
 20
1040.762925963959
 30
0.0
 11
1561.214935213848
 21
990.2629259639597
 31
0.0
1001
GENIUS_GENODEF_13
1002
{
1000
HIER
1070
     0
1002
}
1002
{
1000
MANEDIT
1070
     0
1002
}
1002
{
1000
NOSEL
1070
     0
1002
}
1002
{
1000
BEHIND
1070
     0
1002
}
1002
{
1000
REACTOR
1002
}
1001
GENIUS_GENOBJ-N-CEN_13
1002
{
1000
OWNER
1000
GEN
1002
}
  0
ARC
  5
783
330
1F
100
AcDbEntity
  8
AM_0
 62
     7
100
AcDbCircle
 10
425.7770794549965
 20
251.6244705691116
 30
0.0
 40
1.0
100
AcDbArc
 50
266.9999999999944
 51
356.9999999999946
1001
GENIUS_GENODEF_13
1002
{
1000
HIER
1070
     0
1002
}
1002
{
1000
MANEDIT
1070
     0
1002
}
1002
{
1000
NOSEL
1070
     0
1002
}
1002
{
1000
BEHIND
1070
     0
1002
}
1002
{
1000
REACTOR
1002
}
1001
GENIUS_GENOBJ-N-FIL_13
1002
{
1000
OWNER
1000
GEN
1002
}
  0
ARC
  5
784
330
1F
100
AcDbEntity
  8
AM_0
 62
     7
100
AcDbCircle
 10
425.6724075425104
 20
249.6272114996026
 30
0.0
 40
1.0
100
AcDbArc
 50
86.99999999999441
 51
176.9999999999946
1001
GENIUS_GENODEF_13
1002
{
1000
HIER
1070
     0
1002
}
1002
{
1000
MANEDIT
1070
     0
1002
}
1002
{
1000
NOSEL
1070
     0
1002
}
1002
{
1000
BEHIND
1070
     0
1002
}
1002
{
1000
REACTOR
1002
}
1001
GENIUS_GENOBJ-N-FIL_13
1002
{
1000
OWNER
1000
GEN
1002
}
  0
LINE
  5
785
330
1F
100
AcDbEntity
  8
AM_0
 62
     7
100
AcDbLine
 10
426.7757089897499
 20
251.5721346128688
 30
0.0
 11
427.6777656891433
 21
268.7844017940498
 31
0.0
  0
ARC
  5
786
330
1F
100
AcDbEntity
  8
AM_0
 62
     7
100
AcDbCircle
 10
435.0376305196318
 20
276.1535958013499
 30
0.0
 40
1.0
100
AcDbArc
 50
84.514100343061
 51
176.0170048390383
1001
GENIUS_GENODEF_13
1002
{
1000
HIER
1070
     0
1002
}
1002
{
1000
MANEDIT
1070
     0
1002
}
1002
{
1000
NOSEL
1070
     0
1002
}
1002
{
1000
BEHIND
1070
     0
1002
}
1002
{
1000
REACTOR
1002
}
1001
GENIUS_GENOBJ-N-FIL_13
1002
{
1000
OWNER
1000
GEN
1002
}
  0
ARC
  5
787
330
1F
100
AcDbEntity
  8
AM_0
 62
     7
100
AcDbCircle
 10
418.7264612328842
 20
231.7345961957958
 30
0.0
 40
3.0
100
AcDbArc
 50
270.0
 51
356.9999999999946
1001
GENIUS_GENODEF_13
1002
{
1000
HIER
1070
     0
1002
}
1002
{
1000
MANEDIT
1070
     0
1002
}
1002
{
1000
NOSEL
1070
     0
1002
}
1002
{
1000
BEHIND
1070
     0
1002
}
1002
{
1000
REACTOR
1002
}
1001
GENIUS_GENOBJ-N-FIL_13
1002
{
1000
OWNER
1000
GEN
1002
}
  0
LINE
  5
788
330
1F
100
AcDbEntity
  8
AM_0
 62
     7
100
AcDbLine
 10
416.4712840664585
 20
228.7345961957956
 30
0.0
 11
418.7264612328842
 21
228.7345961957956
 31
0.0
  0
LINE
  5
789
330
1F
100
AcDbEntity
  8
AM_0
 62
     7
100
AcDbLine
 10
421.7223498371481
 20
231.5775883270668
 30
0.0
 11
421.7308231154371
 21
231.7392681082815
 31
0.0
  0
ARC
  5
78A
330
1F
100
AcDbEntity
  8
AM_0
 62
     7
100
AcDbCircle
 10
416.4712840664585
 20
226.7345961957956
 30
0.0
 40
2.0
100
AcDbArc
 50
90.0
 51
180.0
1001
GENIUS_GENODEF_13
1002
{
1000
HIER
1070
     0
1002
}
1002
{
1000
MANEDIT
1070
     0
1002
}
1002
{
1000
NOSEL
1070
     0
1002
}
1002
{
1000
BEHIND
1070
     0
1002
}
1002
{
1000
REACTOR
1002
}
1001
GENIUS_GENOBJ-N-FIL_13
1002
{
1000
OWNER
1000
GEN
1002
}
  0
LINE
  5
78B
330
1F
100
AcDbEntity
  8
AM_0
 62
     7
100
AcDbLine
 10
423.8328977435127
 20
235.6345961957956
 30
0.0
 11
423.9377133020777
 21
235.6345961957956
 31
0.0
  0
LINE
  5
78C
330
1F
100
AcDbEntity
  8
AM_0
 62
     7
100
AcDbLine
 10
421.7223498371481
 20
231.5775883270668
 30
0.0
 11
421.8356386740019
 21
233.7392681082815
 31
0.0
  0
ARC
  5
78D
330
1F
100
AcDbEntity
  8
AM_0
 62
     7
100
AcDbCircle
 10
423.8328977435127
 20
233.6345961957954
 30
0.0
 40
2.0
100
AcDbArc
 50
90.0
 51
176.9999999999946
1001
GENIUS_GENODEF_13
1002
{
1000
HIER
1070
     0
1002
}
1002
{
1000
MANEDIT
1070
     0
1002
}
1002
{
1000
NOSEL
1070
     0
1002
}
1002
{
1000
BEHIND
1070
     0
1002
}
1002
{
1000
REACTOR
1002
}
1001
GENIUS_GENOBJ-N-FIL_13
1002
{
1000
OWNER
1000
GEN
1002
}
  0
LINE
  5
78E
330
1F
100
AcDbEntity
  8
AM_3
100
AcDbLine
 10
1579.214935213846
 20
1053.626291751307
 30
0.0
 11
1579.214935213846
 21
1051.019790607472
 31
0.0
1001
GENIUS_GENODEF_13
1002
{
1000
HIER
1070
     0
1002
}
1002
{
1000
MANEDIT
1070
     0
1002
}
1002
{
1000
NOSEL
1070
     0
1002
}
1002
{
1000
BEHIND
1070
     0
1002
}
1002
{
1000
REACTOR
1002
}
1001
GENIUS_GENOBJ-N-CEN_13
1002
{
1000
OWNER
1000
GEN
1002
}
  0
LINE
  5
78F
330
1F
100
AcDbEntity
  8
AM_3
100
AcDbLine
 10
1569.214935213848
 20
1053.626291751307
 30
0.0
 11
1569.214935213848
 21
1038.16496090834
 31
0.0
1001
GENIUS_GENODEF_13
1002
{
1000
HIER
1070
     0
1002
}
1002
{
1000
MANEDIT
1070
     0
1002
}
1002
{
1000
NOSEL
1070
     0
1002
}
1002
{
1000
BEHIND
1070
     0
1002
}
1002
{
1000
REACTOR
1002
}
1001
GENIUS_GENOBJ-N-CEN_13
1002
{
1000
OWNER
1000
GEN
1002
}
  0
LINE
  5
790
330
1F
100
AcDbEntity
  8
AM_3
100
AcDbLine
 10
1582.714935213846
 20
1048.262925963959
 30
0.0
 11
1582.714935213846
 21
1042.762925963959
 31
0.0
1001
GENIUS_GENODEF_13
1002
{
1000
HIER
1070
     0
1002
}
1002
{
1000
MANEDIT
1070
     0
1002
}
1002
{
1000
NOSEL
1070
     0
1002
}
1002
{
1000
BEHIND
1070
     0
1002
}
1002
{
1000
REACTOR
1002
}
1001
GENIUS_GENOBJ-N-CEN_13
1002
{
1000
OWNER
1000
GEN
1002
}
  0
LINE
  5
791
330
1F
100
AcDbEntity
  8
AM_3
100
AcDbLine
 10
1575.714935213847
 20
1048.262925963959
 30
0.0
 11
1575.714935213847
 21
1042.762925963959
 31
0.0
1001
GENIUS_GENODEF_13
1002
{
1000
HIER
1070
     0
1002
}
1002
{
1000
MANEDIT
1070
     0
1002
}
1002
{
1000
NOSEL
1070
     0
1002
}
1002
{
1000
BEHIND
1070
     0
1002
}
1002
{
1000
REACTOR
1002
}
1001
GENIUS_GENOBJ-N-CEN_13
1002
{
1000
OWNER
1000
GEN
1002
}
  0
LINE
  5
792
330
1F
100
AcDbEntity
  8
AM_3
100
AcDbLine
 10
1565.714935213847
 20
1048.262925963959
 30
0.0
 11
1565.714935213847
 21
1042.762925963959
 31
0.0
1001
GENIUS_GENODEF_13
1002
{
1000
HIER
1070
     0
1002
}
1002
{
1000
MANEDIT
1070
     0
1002
}
1002
{
1000
NOSEL
1070
     0
1002
}
1002
{
1000
BEHIND
1070
     0
1002
}
1002
{
1000
REACTOR
1002
}
1001
GENIUS_GENOBJ-N-CEN_13
1002
{
1000
OWNER
1000
GEN
1002
}
  0
LINE
  5
793
330
1F
100
AcDbEntity
  8
AM_3
100
AcDbLine
 10
1572.714935213846
 20
1048.262925963959
 30
0.0
 11
1572.714935213846
 21
1042.762925963959
 31
0.0
1001
GENIUS_GENODEF_13
1002
{
1000
HIER
1070
     0
1002
}
1002
{
1000
MANEDIT
1070
     0
1002
}
1002
{
1000
NOSEL
1070
     0
1002
}
1002
{
1000
BEHIND
1070
     0
1002
}
1002
{
1000
REACTOR
1002
}
1001
GENIUS_GENOBJ-N-CEN_13
1002
{
1000
OWNER
1000
GEN
1002
}
  0
ARC
  5
794
330
1F
100
AcDbEntity
  8
AM_3
100
AcDbCircle
 10
1579.214935213846
 20
1048.262925963959
 30
0.0
 40
3.5
100
AcDbArc
 50
0.0
 51
180.0
  0
ARC
  5
795
330
1F
100
AcDbEntity
  8
AM_3
100
AcDbCircle
 10
1569.214935213848
 20
1048.262925963959
 30
0.0
 40
3.5
100
AcDbArc
 50
0.0
 51
180.0
  0
ARC
  5
796
330
1F
100
AcDbEntity
  8
AM_3
100
AcDbCircle
 10
1578.923649187713
 20
1046.547121712988
 30
0.0
 40
10.33602304889329
100
AcDbArc
 50
323.3381812573037
 51
5.332749755142256
  0
ARC
  5
797
330
1F
100
AcDbEntity
  8
AM_3
100
AcDbCircle
 10
1580.714935213846
 20
1042.762925963959
 30
0.0
 40
2.0
100
AcDbArc
 50
0.0
 51
90.0
  0
LINE
  5
798
330
1F
100
AcDbEntity
  8
AM_3
100
AcDbLine
 10
1567.714935213847
 20
1044.762925963959
 30
0.0
 11
1570.714935213846
 21
1044.762925963959
 31
0.0
  0
ARC
  5
799
330
1F
100
AcDbEntity
  8
AM_3
100
AcDbCircle
 10
1577.714935213846
 20
1042.762925963959
 30
0.0
 40
2.0
100
AcDbArc
 50
90.0
 51
180.0
  0
ARC
  5
79A
330
1F
100
AcDbEntity
  8
AM_3
100
AcDbCircle
 10
1567.714935213847
 20
1042.762925963959
 30
0.0
 40
2.0
100
AcDbArc
 50
90.0
 51
180.0
  0
ARC
  5
79B
330
1F
100
AcDbEntity
  8
AM_3
100
AcDbCircle
 10
1570.714935213846
 20
1042.762925963959
 30
0.0
 40
2.0
100
AcDbArc
 50
0.0
 51
90.0
  0
LINE
  5
79C
330
1F
100
AcDbEntity
  8
AM_3
100
AcDbLine
 10
1577.714935213846
 20
1044.762925963959
 30
0.0
 11
1580.714935213846
 21
1044.762925963959
 31
0.0
  0
LINE
  5
79D
330
1F
100
AcDbEntity
  8
AM_3
100
AcDbLine
 10
1577.214935213848
 20
1041.560432022662
 30
0.0
 11
1577.214935213848
 21
1034.516643658568
 31
0.0
1001
GENIUS_GENODEF_13
1002
{
1000
HIER
1070
     0
1002
}
1002
{
1000
MANEDIT
1070
     0
1002
}
1002
{
1000
NOSEL
1070
     0
1002
}
1002
{
1000
BEHIND
1070
     0
1002
}
1002
{
1000
REACTOR
1002
}
1001
GENIUS_GENOBJ-N-CEN_13
1002
{
1000
OWNER
1000
GEN
1002
}
  0
LINE
  5
79E
330
1F
100
AcDbEntity
  8
AM_3
100
AcDbLine
 10
1571.214935213846
 20
1041.560432022662
 30
0.0
 11
1571.214935213846
 21
1034.516643658566
 31
0.0
1001
GENIUS_GENODEF_13
1002
{
1000
HIER
1070
     0
1002
}
1002
{
1000
MANEDIT
1070
     0
1002
}
1002
{
1000
NOSEL
1070
     0
1002
}
1002
{
1000
BEHIND
1070
     0
1002
}
1002
{
1000
REACTOR
1002
}
1001
GENIUS_GENOBJ-N-CEN_13
1002
{
1000
OWNER
1000
GEN
1002
}
  0
ELLIPSE
  5
79F
330
1F
100
AcDbEntity
  8
AM_3
100
AcDbEllipse
 10
1574.214935213846
 20
1034.516643658568
 30
0.0
 11
2.999999999999983
 21
-0.0000000000000006
 31
0.0
210
0.0
220
0.0
230
1.0
 40
0.7741598128011863
 41
3.141592653589792
 42
6.283185307179584
  0
LINE
  5
7A0
330
1F
100
AcDbEntity
  8
AM_3
100
AcDbLine
 10
1575.214935213848
 20
1039.458501040667
 30
0.0
 11
1575.214935213848
 21
1034.516643658568
 31
0.0
1001
GENIUS_GENODEF_13
1002
{
1000
HIER
1070
     0
1002
}
1002
{
1000
MANEDIT
1070
     0
1002
}
1002
{
1000
NOSEL
1070
     0
1002
}
1002
{
1000
BEHIND
1070
     0
1002
}
1002
{
1000
REACTOR
1002
}
1001
GENIUS_GENOBJ-N-CEN_13
1002
{
1000
OWNER
1000
GEN
1002
}
  0
SPLINE
  5
7A1
330
1F
100
AcDbEntity
  8
AM_3
100
AcDbSpline
210
0.0
220
0.0
230
1.0
 70
     8
 71
     3
 72
    18
 73
    14
 74
     0
 42
0.0000000001
 43
0.0000000001
 40
3.628703069452225
 40
3.628703069452225
 40
3.628703069452225
 40
3.628703069452225
 40
3.912493910190088
 40
3.912493910190088
 40
4.196284750927953
 40
4.196284750927953
 40
4.622228449873871
 40
4.622228449873871
 40
5.048172148819786
 40
5.048172148819786
 40
5.474115847765705
 40
5.474115847765705
 40
5.796074891333204
 40
5.796074891333204
 40
5.796074891333204
 40
5.796074891333204
 10
1573.21448856283
 20
1034.558909538123
 30
0.0
 10
1573.226954945988
 20
1034.54068922901
 30
0.0
 10
1573.256098930761
 20
1034.50505322242
 30
0.0
 10
1573.363007923985
 20
1034.419853440994
 30
0.0
 10
1573.440561410811
 20
1034.370948211087
 30
0.0
 10
1573.686217546587
 20
1034.26304164245
 30
0.0
 10
1573.880252061914
 20
1034.213008848655
 30
0.0
 10
1574.288658265029
 20
1034.184425149625
 30
0.0
 10
1574.50152273257
 20
1034.205930387771
 30
0.0
 10
1574.862083850048
 20
1034.303347272322
 30
0.0
 10
1575.007813925166
 20
1034.378738566524
 30
0.0
 10
1575.165258864752
 20
1034.494988046374
 30
0.0
 10
1575.201238826325
 20
1034.538238704354
 30
0.0
 10
1575.215381864865
 20
1034.558909538126
 30
0.0
  0
LINE
  5
7A2
330
1F
100
AcDbEntity
  8
AM_3
100
AcDbLine
 10
1573.214935213846
 20
1039.458501040667
 30
0.0
 11
1573.214935213846
 21
1034.516643658566
 31
0.0
1001
GENIUS_GENODEF_13
1002
{
1000
HIER
1070
     0
1002
}
1002
{
1000
MANEDIT
1070
     0
1002
}
1002
{
1000
NOSEL
1070
     0
1002
}
1002
{
1000
BEHIND
1070
     0
1002
}
1002
{
1000
REACTOR
1002
}
1001
GENIUS_GENOBJ-N-CEN_13
1002
{
1000
OWNER
1000
GEN
1002
}
  0
ARC
  5
7A3
330
1F
100
AcDbEntity
  8
AM_3
100
AcDbCircle
 10
1569.50622123998
 20
1046.547121712988
 30
0.0
 40
10.33602304889329
100
AcDbArc
 50
174.6672502448577
 51
216.6618187426963
  0
ARC
  5
7A4
330
1F
100
AcDbEntity
  8
AM_3
100
AcDbCircle
 10
1585.214935213848
 20
1040.762925963959
 30
0.0
 40
2.0
100
AcDbArc
 50
0.0
 51
90.0
1001
GENIUS_GENOBJ-N-CEN_13
1002
{
1000
OWNER
1000
GEN
1002
}
1001
GENIUS_GENODEF_13
1002
{
1000
HIER
1070
     0
1002
}
1002
{
1000
MANEDIT
1070
     0
1002
}
1002
{
1000
NOSEL
1070
     0
1002
}
1002
{
1000
BEHIND
1070
     0
1002
}
1002
{
1000
REACTOR
1002
}
1001
GENIUS_GENOBJ-N-FIL_13
1002
{
1000
OWNER
1000
GEN
1002
}
  0
ARC
  5
7A5
330
1F
100
AcDbEntity
  8
AM_3
100
AcDbCircle
 10
1563.214935213846
 20
1040.762925963959
 30
0.0
 40
2.0
100
AcDbArc
 50
90.0
 51
180.0
1001
GENIUS_GENOBJ-N-CEN_13
1002
{
1000
OWNER
1000
GEN
1002
}
1001
GENIUS_GENODEF_13
1002
{
1000
HIER
1070
     0
1002
}
1002
{
1000
MANEDIT
1070
     0
1002
}
1002
{
1000
NOSEL
1070
     0
1002
}
1002
{
1000
BEHIND
1070
     0
1002
}
1002
{
1000
REACTOR
1002
}
1001
GENIUS_GENOBJ-N-FIL_13
1002
{
1000
OWNER
1000
GEN
1002
}
  0
ARC
  5
7A6
330
1F
100
AcDbEntity
  8
AM_3
100
AcDbCircle
 10
1585.214935213848
 20
990.2629259639597
 30
0.0
 40
2.0
100
AcDbArc
 50
270.0
 51
0.0
1001
GENIUS_GENODEF_13
1002
{
1000
HIER
1070
     0
1002
}
1002
{
1000
MANEDIT
1070
     0
1002
}
1002
{
1000
NOSEL
1070
     0
1002
}
1002
{
1000
BEHIND
1070
     0
1002
}
1002
{
1000
REACTOR
1002
}
1001
GENIUS_GENOBJ-N-FIL_13
1002
{
1000
OWNER
1000
GEN
1002
}
  0
ARC
  5
7A7
330
1F
100
AcDbEntity
  8
AM_3
100
AcDbCircle
 10
1563.214935213846
 20
990.2629259639597
 30
0.0
 40
2.0
100
AcDbArc
 50
180.0
 51
270.0
1001
GENIUS_GENOBJ-N-CEN_13
1002
{
1000
OWNER
1000
GEN
1002
}
1001
GENIUS_GENODEF_13
1002
{
1000
HIER
1070
     0
1002
}
1002
{
1000
MANEDIT
1070
     0
1002
}
1002
{
1000
NOSEL
1070
     0
1002
}
1002
{
1000
BEHIND
1070
     0
1002
}
1002
{
1000
REACTOR
1002
}
1001
GENIUS_GENOBJ-N-FIL_13
1002
{
1000
OWNER
1000
GEN
1002
}
  0
LINE
  5
7A8
330
1F
100
AcDbEntity
  8
AM_3
100
AcDbLine
 10
1573.214935213846
 20
1039.458501040667
 30
0.0
 11
1575.214935213848
 21
1039.458501040667
 31
0.0
  0
LINE
  5
7A9
330
1F
100
AcDbEntity
  8
AM_3
100
AcDbLine
 10
1563.214935213846
 20
1041.560432022662
 30
0.0
 11
1571.214935213846
 21
1041.560432022662
 31
0.0
  0
ARC
  5
7AA
330
1F
100
AcDbEntity
  8
AM_3
100
AcDbCircle
 10
1585.214935213848
 20
1039.560432022663
 30
0.0
 40
2.0
100
AcDbArc
 50
0.0
 51
90.0
1001
GENIUS_GENOBJ-N-CEN_13
1002
{
1000
OWNER
1000
GEN
1002
}
1001
GENIUS_GENODEF_13
1002
{
1000
HIER
1070
     0
1002
}
1002
{
1000
MANEDIT
1070
     0
1002
}
1002
{
1000
NOSEL
1070
     0
1002
}
1002
{
1000
BEHIND
1070
     0
1002
}
1002
{
1000
REACTOR
1002
}
1001
GENIUS_GENOBJ-N-FIL_13
1002
{
1000
OWNER
1000
GEN
1002
}
  0
ARC
  5
7AB
330
1F
100
AcDbEntity
  8
AM_3
100
AcDbCircle
 10
1563.214935213846
 20
1039.560432022663
 30
0.0
 40
2.0
100
AcDbArc
 50
90.0
 51
180.0
1001
GENIUS_GENOBJ-N-CEN_13
1002
{
1000
OWNER
1000
GEN
1002
}
1001
GENIUS_GENODEF_13
1002
{
1000
HIER
1070
     0
1002
}
1002
{
1000
MANEDIT
1070
     0
1002
}
1002
{
1000
NOSEL
1070
     0
1002
}
1002
{
1000
BEHIND
1070
     0
1002
}
1002
{
1000
REACTOR
1002
}
1001
GENIUS_GENOBJ-N-FIL_13
1002
{
1000
OWNER
1000
GEN
1002
}
  0
ARC
  5
7AC
330
1F
100
AcDbEntity
  8
AM_3
100
AcDbCircle
 10
1570.49113629477
 20
1038.869261468948
 30
0.0
 40
2.786805307953311
100
AcDbArc
 50
12.20669979365999
 51
74.94634181855772
  0
ARC
  5
7AD
330
1F
100
AcDbEntity
  8
AM_3
100
AcDbCircle
 10
1577.938734132921
 20
1038.869261468948
 30
0.0
 40
2.786805307953311
100
AcDbArc
 50
105.0536581814422
 51
167.79330020634
  0
LINE
  5
7AE
330
1F
100
AcDbEntity
  8
AM_3
100
AcDbLine
 10
1572.701002007675
 20
1040.567135832782
 30
0.0
 11
1575.728868420017
 21
1040.567135832782
 31
0.0
  0
ARC
  5
7AF
330
1F
100
AcDbEntity
  8
AM_3
100
AcDbCircle
 10
1577.809194203885
 20
1038.366565116933
 30
0.0
 40
2.775392306579831
100
AcDbArc
 50
102.3637354700703
 51
159.1855291363004
  0
ARC
  5
7B0
330
1F
100
AcDbEntity
  8
AM_3
100
AcDbCircle
 10
1570.620676223806
 20
1038.366565116933
 30
0.0
 40
2.77539230657983
100
AcDbArc
 50
20.8144708636996
 51
77.63626452992967
  0
LINE
  5
7B1
330
1F
100
AcDbEntity
  8
AM_3
100
AcDbLine
 10
1577.214935213848
 20
1041.560432022662
 30
0.0
 11
1585.214935213848
 21
1041.560432022662
 31
0.0
  0
LINE
  5
7B2
330
1F
100
AcDbEntity
  8
AM_3
100
AcDbLine
 10
1579.214935213846
 20
1044.371345219727
 30
0.0
 11
1579.214935213846
 21
1037.842850169915
 31
0.0
1001
GENIUS_GENODEF_13
1002
{
1000
HIER
1070
     0
1002
}
1002
{
1000
MANEDIT
1070
     0
1002
}
1002
{
1000
NOSEL
1070
     0
1002
}
1002
{
1000
BEHIND
1070
     0
1002
}
1002
{
1000
REACTOR
1002
}
1001
GENIUS_GENOBJ-N-CEN_13
1002
{
1000
OWNER
1000
GEN
1002
}
  0
LINE
  5
7B3
330
1F
100
AcDbEntity
  8
AM_3
100
AcDbLine
 10
1578.770739496743
 20
1024.073869475695
 30
0.0
 11
1569.813480208394
 21
1024.073869475695
 31
0.0
  0
LINE
  5
7B4
330
1F
100
AcDbEntity
  8
AM_3
100
AcDbLine
 10
1578.682922827447
 20
993.9409349372491
 30
0.0
 11
1569.989112439422
 21
993.9409349372491
 31
0.0
  0
ELLIPSE
  5
7B5
330
1F
100
AcDbEntity
  8
AM_3
100
AcDbEllipse
 10
1574.214935213846
 20
993.9409349372491
 30
0.0
 11
3.0
 21
-0.0000000000000006
 31
0.0
210
0.0
220
0.0
230
1.0
 40
0.9449126231368628
 41
3.141592653589792
 42
6.283185307179584
  0
ELLIPSE
  5
7B6
330
1F
100
AcDbEntity
  8
AM_3
100
AcDbEllipse
 10
1574.214935213846
 20
1024.073869475695
 30
0.0
 11
3.0
 21
-0.0000000000000006
 31
0.0
210
0.0
220
0.0
230
1.0
 40
0.9201419238112578
 41
6.283185307179584
 42
9.424777960769381
  0
ARC
  5
7B7
330
1F
100
AcDbEntity
  8
AM_0
 62
     7
100
AcDbCircle
 10
434.668172432425
 20
268.4180501003488
 30
0.0
 40
7.0
100
AcDbArc
 50
101.739834704569
 51
176.9999999999946
1001
GENIUS_GENODEF_13
1002
{
1000
HIER
1070
     0
1002
}
1002
{
1000
MANEDIT
1070
     0
1002
}
1002
{
1000
NOSEL
1070
     0
1002
}
1002
{
1000
BEHIND
1070
     0
1002
}
1002
{
1000
REACTOR
1002
}
1001
GENIUS_GENOBJ-N-FIL_13
1002
{
1000
OWNER
1000
GEN
1002
}
  0
ARC
  5
7B8
330
1F
100
AcDbEntity
  8
AM_0
 62
     7
100
AcDbCircle
 10
433.0404280502741
 20
276.2507027944479
 30
0.0
 40
1.0
100
AcDbArc
 50
281.739834704569
 51
358.4157652238414
1001
GENIUS_GENODEF_13
1002
{
1000
HIER
1070
     0
1002
}
1002
{
1000
MANEDIT
1070
     0
1002
}
1002
{
1000
NOSEL
1070
     0
1002
}
1002
{
1000
BEHIND
1070
     0
1002
}
1002
{
1000
REACTOR
1002
}
1001
GENIUS_GENOBJ-N-FIL_13
1002
{
1000
OWNER
1000
GEN
1002
}
  0
LINE
  5
7B9
330
1F
100
AcDbEntity
  8
AM_0
 62
     7
100
AcDbLine
 10
477.9712840664583
 20
260.3345961957954
 30
0.0
 11
477.0097810416614
 21
257.4891432404455
 31
0.0
  0
ARC
  5
7BA
330
1F
100
AcDbEntity
  8
AM_0
 62
     7
100
AcDbCircle
 10
582.4638210061273
 20
575.4620461647118
 30
0.0
 40
335.0
100
AcDbArc
 50
244.3203439848365
 51
251.6550892792484
  0
HATCH
  5
7BB
330
1F
100
AcDbEntity
  8
AM_0
 62
     7
100
AcDbHatch
 10
0.0
 20
0.0
 30
0.0
210
0.0
220
0.0
230
1.0
  2
_U
 70
     0
 71
     0
 91
        1
 92
        1
 93
        4
 72
     1
 10
476.5485819745324
 20
260.8099173925076
 11
475.6043627524827
 21
257.9623513904692
 72
     2
 10
582.463821006137
 20
575.4620461647427
 40
335.0000000000328
 50
251.3985401555314
 51
251.6521730466661
 73
     1
 72
     1
 10
477.010890285285
 20
257.4924259139951
 11
477.971284066459
 21
260.3345961957954
 72
     2
 10
582.4638210061326
 20
575.4620461647118
 40
332.0000000000017
 50
108.344910720729
 51
108.6037780751466
 73
     0
 97
        0
 75
     0
 76
     0
 52
45.0
 41
1.5
 77
     0
 78
     1
 53
45.0
 43
339.6910013021813
 44
99.79523263124645
 45
-1.060660171779819
 46
1.060660171779819
 79
     0
 98
        1
 10
339.6910013021813
 20
99.79523263124645
1001
GENIUS_GENODEF_13
1002
{
1000
HIER
1070
     0
1002
}
1002
{
1000
MANEDIT
1070
     0
1002
}
1002
{
1000
NOSEL
1070
     0
1002
}
1002
{
1000
BEHIND
1070
     0
1002
}
1002
{
1000
REACTOR
1002
}
1001
GENIUS_GENOBJ-N-HTC_13
1002
{
1000
OWNER
1000
GEN
1002
}
1001
GENIUS_GENHATCH_13
1002
{
1000
DATA
1040
45.0
1042
2.5
1000
_U
1070
     0
1011
475.4055378560313
1021
279.0257977117619
1031
0.0
1002
}
1002
{
1000
UCS
1010
0.0
1020
0.0
1030
0.0
1010
1.0
1020
0.0
1030
0.0
1010
0.0
1020
1.0
1030
0.0
1002
}
  0
ARC
  5
7BC
330
1F
100
AcDbEntity
  8
AM_0
 62
     7
100
AcDbCircle
 10
434.2641304926807
 20
274.1490160700729
 30
0.0
 40
2.0
100
AcDbArc
 50
273.7326859624157
 51
329.9874957708109
1001
GENIUS_GENODEF_13
1002
{
1000
HIER
1070
     0
1002
}
1002
{
1000
MANEDIT
1070
     0
1002
}
1002
{
1000
NOSEL
1070
     0
1002
}
1002
{
1000
BEHIND
1070
     0
1002
}
1002
{
1000
REACTOR
1002
}
1001
GENIUS_GENOBJ-N-FIL_13
1002
{
1000
OWNER
1000
GEN
1002
}
  0
ARC
  5
7BD
330
1F
100
AcDbEntity
  8
AM_0
 62
     7
100
AcDbCircle
 10
434.654740010427
 20
268.1617442201698
 30
0.0
 40
4.0
100
AcDbArc
 50
93.73268596241572
 51
176.9999999999946
1001
GENIUS_GENODEF_13
1002
{
1000
HIER
1070
     0
1002
}
1002
{
1000
MANEDIT
1070
     0
1002
}
1002
{
1000
NOSEL
1070
     0
1002
}
1002
{
1000
BEHIND
1070
     0
1002
}
1002
{
1000
REACTOR
1002
}
1001
GENIUS_GENOBJ-N-FIL_13
1002
{
1000
OWNER
1000
GEN
1002
}
  0
LINE
  5
7BE
330
1F
100
AcDbEntity
  8
AM_0
 62
     7
100
AcDbLine
 10
429.6669256815281
 20
249.4178676746311
 30
0.0
 11
430.6602218714094
 21
268.3710880451418
 31
0.0
  0
ARC
  5
7BF
330
1F
100
AcDbEntity
  8
AM_0
 62
     7
100
AcDbCircle
 10
436.8618792822095
 20
272.6484491017249
 30
0.0
 40
1.0
100
AcDbArc
 50
64.32034398483651
 51
149.9874957708108
1001
GENIUS_GENODEF_13
1002
{
1000
HIER
1070
     0
1002
}
1002
{
1000
MANEDIT
1070
     0
1002
}
1002
{
1000
NOSEL
1070
     0
1002
}
1002
{
1000
BEHIND
1070
     0
1002
}
1002
{
1000
REACTOR
1002
}
1001
GENIUS_GENOBJ-N-FIL_13
1002
{
1000
OWNER
1000
GEN
1002
}
  0
ARC
  5
7C0
330
1F
100
AcDbEntity
  8
AM_0
 62
     7
100
AcDbCircle
 10
427.6696666120193
 20
249.5225395871169
 30
0.0
 40
2.0
100
AcDbArc
 50
286.4712206344904
 51
356.9999999999946
1001
GENIUS_GENODEF_13
1002
{
1000
HIER
1070
     0
1002
}
1002
{
1000
MANEDIT
1070
     0
1002
}
1002
{
1000
NOSEL
1070
     0
1002
}
1002
{
1000
BEHIND
1070
     0
1002
}
1002
{
1000
REACTOR
1002
}
1001
GENIUS_GENOBJ-N-FIL_13
1002
{
1000
OWNER
1000
GEN
1002
}
  0
LINE
  5
7C1
330
1F
100
AcDbEntity
  8
AM_0
 62
     7
100
AcDbLine
 10
426.7154975109211
 20
231.315908545852
 30
0.0
 11
427.5216381737815
 21
246.6979887234442
 31
0.0
  0
ARC
  5
7C2
330
1F
100
AcDbEntity
  8
AM_0
 62
     7
100
AcDbCircle
 10
428.5202677085368
 20
246.6456527672012
 30
0.0
 40
1.0
100
AcDbArc
 50
106.4712206344903
 51
176.9999999999946
1001
GENIUS_GENODEF_13
1002
{
1000
HIER
1070
     0
1002
}
1002
{
1000
MANEDIT
1070
     0
1002
}
1002
{
1000
NOSEL
1070
     0
1002
}
1002
{
1000
BEHIND
1070
     0
1002
}
1002
{
1000
REACTOR
1002
}
1001
GENIUS_GENOBJ-N-FIL_13
1002
{
1000
OWNER
1000
GEN
1002
}
  0
ARC
  5
7C3
330
1F
100
AcDbEntity
  8
AM_0
 62
     7
100
AcDbCircle
 10
418.7264612328842
 20
231.7345961957956
 30
0.0
 40
8.0
100
AcDbArc
 50
276.1307821741098
 51
356.9999999999946
1001
GENIUS_GENODEF_13
1002
{
1000
HIER
1070
     0
1002
}
1002
{
1000
MANEDIT
1070
     0
1002
}
1002
{
1000
NOSEL
1070
     0
1002
}
1002
{
1000
BEHIND
1070
     0
1002
}
1002
{
1000
REACTOR
1002
}
1001
GENIUS_GENOBJ-N-FIL_13
1002
{
1000
OWNER
1000
GEN
1002
}
  0
LINE
  5
7C4
330
1F
100
AcDbEntity
  8
AM_0
 62
     7
100
AcDbLine
 10
393.4712840664586
 20
223.7345961957956
 30
0.0
 11
419.5808473474649
 21
223.7803505139468
 31
0.0
  0
HATCH
  5
7C5
330
1F
100
AcDbEntity
  8
AM_0
 62
     7
100
AcDbHatch
 10
0.0
 20
0.0
 30
0.0
210
0.0
220
0.0
230
1.0
  2
_U
 70
     0
 71
     0
 91
        1
 92
        1
 93
        4
 72
     1
 10
393.4712840664586
 20
223.7345961957956
 11
399.9712840664586
 21
223.7459867757444
 72
     1
 10
399.9712840664586
 20
223.7459867757444
 11
399.9712840664586
 21
226.7345961957956
 72
     1
 10
399.9712840664586
 20
226.7345961957956
 11
393.4712840664586
 21
226.7345961957956
 72
     1
 10
393.4712840664586
 20
226.7345961957956
 11
393.4712840664586
 21
223.7345961957956
 97
        0
 75
     0
 76
     0
 52
45.0
 41
1.5
 77
     0
 78
     1
 53
45.0
 43
339.6910013021813
 44
99.79523263124645
 45
-1.060660171779819
 46
1.060660171779819
 79
     0
 98
        1
 10
339.6910013021813
 20
99.79523263124645
1001
GENIUS_GENODEF_13
1002
{
1000
HIER
1070
     0
1002
}
1002
{
1000
MANEDIT
1070
     0
1002
}
1002
{
1000
NOSEL
1070
     0
1002
}
1002
{
1000
BEHIND
1070
     0
1002
}
1002
{
1000
REACTOR
1002
}
1001
GENIUS_GENOBJ-N-HTC_13
1002
{
1000
OWNER
1000
GEN
1002
}
1001
GENIUS_GENHATCH_13
1002
{
1000
DATA
1040
45.0
1042
2.5
1000
_U
1070
     0
1011
396.4394928397503
1021
245.7839757868787
1031
0.0
1002
}
1002
{
1000
UCS
1010
0.0
1020
0.0
1030
0.0
1010
1.0
1020
0.0
1030
0.0
1010
0.0
1020
1.0
1030
0.0
1002
}
  0
HATCH
  5
7C6
330
1F
100
AcDbEntity
  8
AM_0
 62
     7
100
AcDbHatch
 10
0.0
 20
0.0
 30
0.0
210
0.0
220
0.0
230
1.0
  2
_U
 70
     0
 71
     0
 91
        1
 92
        1
 93
       23
 72
     1
 10
438.4483085168435
 20
272.9979455470529
 11
439.3999147832893
 21
275.8677893167819
 72
     2
 10
582.4638210061417
 20
575.4620461647427
 40
332.0000000000344
 50
115.5256665021862
 51
115.6871964587129
 73
     0
 72
     2
 10
434.654740010427
 20
268.1617442201698
 40
8.999999999999914
 50
64.31280354129654
 51
87.56170740711004
 73
     1
 72
     2
 10
435.0376305196318
 20
276.1535958013499
 40
0.9999999999999998
 50
89.99999999993894
 51
176.0170048390352
 73
     1
 72
     2
 10
433.0404280502741
 20
276.2507027944479
 40
0.9999999999999575
 50
1.584234776147198
 51
78.26016529544455
 73
     0
 72
     2
 10
434.668172432425
 20
268.4180501003488
 40
6.999999999999928
 50
101.7398347045586
 51
177.0000000000002
 73
     1
 72
     1
 10
427.6777656891433
 20
268.7844017940498
 11
426.7757089897511
 21
251.5721346128688
 72
     2
 10
425.7770794549965
 20
251.6244705691116
 40
0.9999999999999326
 50
2.999999999995996
 51
93.00000000000332
 73
     0
 72
     2
 10
425.6724075425104
 20
249.6272114996026
 40
0.9999999999999971
 50
87.00000000000089
 51
176.9999999999976
 73
     1
 72
     1
 10
424.6737780077551
 20
249.6795474558457
 11
423.7196089066567
 21
231.4729164145808
 72
     2
 10
418.7264612328842
 20
231.7345961957956
 40
4.999999999999943
 50
2.999999999999711
 51
90.00000000000046
 73
     0
 72
     1
 10
418.7264612328842
 20
226.7345961957956
 11
411.9712840664583
 21
226.7345961957956
 72
     1
 10
411.9712840664583
 20
226.7345961957956
 11
411.9712840664583
 21
223.767015538727
 72
     1
 10
411.9712840664583
 20
223.767015538727
 11
419.5808473474649
 21
223.7803505139468
 72
     2
 10
418.7264612328842
 20
231.7345961957956
 40
8.000000000000026
 50
276.1307821741113
 51
357.0000000000002
 73
     1
 72
     1
 10
426.7154975109211
 20
231.315908545852
 11
427.5216381737824
 21
246.6979887234442
 72
     2
 10
428.5202677085368
 20
246.6456527672012
 40
1.000000000000017
 50
183.0000000000006
 51
253.5287793655104
 73
     0
 72
     2
 10
427.6696666120193
 20
249.5225395871169
 40
2.000000000000044
 50
286.4712206344913
 51
356.9999999999994
 73
     1
 72
     1
 10
429.6669256815281
 20
249.4178676746311
 11
430.6602218714086
 21
268.3710880451418
 72
     2
 10
434.654740010427
 20
268.1617442201698
 40
4.000000000000006
 50
182.9999999999998
 51
266.267314037591
 73
     0
 72
     2
 10
434.2641304926807
 20
274.1490160700738
 40
2.000000000000026
 50
273.7326859624086
 51
329.9874957708012
 73
     1
 72
     2
 10
436.8618792822095
 20
272.6484491017249
 40
0.9999999999999291
 50
210.0125042291952
 51
295.6796560151707
 73
     0
 72
     2
 10
582.4638210061088
 20
575.4620461646777
 40
334.9999999999615
 50
244.3203439848419
 51
244.5389730046084
 73
     1
 97
        0
 75
     0
 76
     0
 52
45.0
 41
1.5
 77
     0
 78
     1
 53
45.0
 43
339.6910013021813
 44
99.79523263124645
 45
-1.060660171779819
 46
1.060660171779819
 79
     0
 98
        1
 10
339.6910013021813
 20
99.79523263124645
1001
GENIUS_GENODEF_13
1002
{
1000
HIER
1070
     0
1002
}
1002
{
1000
MANEDIT
1070
     0
1002
}
1002
{
1000
NOSEL
1070
     0
1002
}
1002
{
1000
BEHIND
1070
     0
1002
}
1002
{
1000
REACTOR
1002
}
1001
GENIUS_GENOBJ-N-HTC_13
1002
{
1000
OWNER
1000
GEN
1002
}
1001
GENIUS_GENHATCH_13
1002
{
1000
DATA
1040
45.0
1042
2.5
1000
_U
1070
     0
1011
428.1733233051977
1021
277.2293800737568
1031
0.0
1002
}
1002
{
1000
UCS
1010
0.0
1020
0.0
1030
0.0
1010
1.0
1020
0.0
1030
0.0
1010
0.0
1020
1.0
1030
0.0
1002
}
  0
ELLIPSE
  5
7C7
330
1F
100
AcDbEntity
  8
AM_3
100
AcDbEllipse
 10
1574.214935213846
 20
993.9409349372491
 30
0.0
 11
3.0
 21
-0.0000000000000006
 31
0.0
210
0.0
220
0.0
230
1.0
 40
0.6301633309658806
 41
3.141592653589792
 42
6.283185307179584
  0
ARC
  5
7C8
330
1F
100
AcDbEntity
  8
AM_0
 62
     7
100
AcDbCircle
 10
582.4638210061273
 20
575.4620461647118
 30
0.0
 40
340.0
100
AcDbArc
 50
244.3128035412495
 51
251.1450310927041
  0
LINE
  5
7C9
330
1F
100
AcDbEntity
  8
AM_0
 62
     7
100
AcDbLine
 10
431.7656389997288
 20
234.5133999446606
 30
0.0
 11
433.6557330868532
 21
268.2071118034897
 31
0.0
  0
ARC
  5
7CA
330
1F
100
AcDbEntity
  8
AM_0
 62
     7
100
AcDbCircle
 10
434.654740010427
 20
268.1617442201698
 30
0.0
 40
1.0
100
AcDbArc
 50
64.31280354124955
 51
176.9999999999946
1001
GENIUS_GENODEF_13
1002
{
1000
HIER
1070
     0
1002
}
1002
{
1000
MANEDIT
1070
     0
1002
}
1002
{
1000
NOSEL
1070
     0
1002
}
1002
{
1000
BEHIND
1070
     0
1002
}
1002
{
1000
REACTOR
1002
}
1001
GENIUS_GENOBJ-N-FIL_13
1002
{
1000
OWNER
1000
GEN
1002
}
  0
ARC
  5
7CB
330
1F
100
AcDbEntity
  8
AM_0
 62
     7
100
AcDbCircle
 10
473.5542668796448
 20
256.5455852851101
 30
0.0
 40
3.0
100
AcDbArc
 50
251.1450310927041
 51
341.6550892792684
1001
GENIUS_GENODEF_13
1002
{
1000
HIER
1070
     0
1002
}
1002
{
1000
MANEDIT
1070
     0
1002
}
1002
{
1000
NOSEL
1070
     0
1002
}
1002
{
1000
BEHIND
1070
     0
1002
}
1002
{
1000
REACTOR
1002
}
1001
GENIUS_GENOBJ-N-FIL_13
1002
{
1000
OWNER
1000
GEN
1002
}
  0
ARC
  5
7CC
330
1F
100
AcDbEntity
  8
AM_0
 62
     7
100
AcDbCircle
 10
419.9940420545686
 20
235.5942397768529
 30
0.0
 40
11.82111286563938
100
AcDbArc
 50
267.9968775737723
 51
354.7539480148086
  0
POINT
  5
7CD
330
1F
100
AcDbEntity
  8
AM_0
  6
ByBlock
 62
     7
380
     1
100
AcDbPoint
 10
453.3223521054375
 20
269.6083540010038
 30
0.0
  0
ARC
  5
7CE
330
1F
100
AcDbEntity
  8
AM_0
 62
     7
100
AcDbCircle
 10
582.4638210061273
 20
575.4620461647118
 30
0.0
 40
332.0
100
AcDbArc
 50
244.3128035412495
 51
251.6550892792484
  0
LINE
  5
7CF
330
1F
100
AcDbEntity
  8
AM_0
 62
     7
100
AcDbLine
 10
439.3999147832898
 20
275.8677893167819
 30
0.0
 11
438.4483085168435
 21
272.9979455470529
 31
0.0
  0
LINE
  5
7D0
330
1F
100
AcDbEntity
  8
AM_0
 62
     7
100
AcDbLine
 10
476.5485819745324
 20
260.8099173925076
 30
0.0
 11
475.604362752482
 21
257.9623513904692
 31
0.0
  0
LINE
  5
7D1
330
1F
100
AcDbEntity
  8
AM_0
 62
     7
100
AcDbLine
 10
476.4018040781581
 20
255.6013756139686
 30
0.0
 11
477.0097810416614
 21
257.4891432404455
 31
0.0
  0
LINE
  5
7D2
330
1F
100
AcDbEntity
  8
AM_3
100
AcDbLine
 10
1577.214935213848
 20
1024.073869475694
 30
0.0
 11
1577.214935213848
 21
993.9409349372491
 31
0.0
  0
LINE
  5
7D3
330
1F
100
AcDbEntity
  8
AM_3
100
AcDbLine
 10
1571.214935213846
 20
1024.073869475694
 30
0.0
 11
1571.214935213846
 21
993.9409349372491
 31
0.0
  0
LINE
  5
7D4
330
1F
100
AcDbEntity
  8
AM_0
 62
     7
100
AcDbLine
 10
425.6670741976363
 20
268.6327678263558
 30
0.0
 11
423.7196089066571
 21
231.4729164145808
 31
0.0
  0
LINE
  5
7D5
330
1F
100
AcDbEntity
  8
AM_0
 62
     7
100
AcDbLine
 10
643.5689439408563
 20
1110.446124691121
 30
0.0
 11
653.4274930872255
 21
1110.446124691121
 31
0.0
  0
LINE
  5
7D6
330
1F
100
AcDbEntity
  8
AM_0
 62
     7
100
AcDbLine
 10
643.5689439408563
 20
1101.617313452463
 30
0.0
 11
643.5689439408563
 21
1110.446124691121
 31
0.0
  0
ARC
  5
7D7
330
1F
100
AcDbEntity
  8
AM_0
 62
     7
100
AcDbCircle
 10
638.6927891615571
 20
1101.580056467539
 30
0.0
 40
3.000000009374998
100
AcDbArc
 50
215.5555928020188
 51
270.0
  0
LINE
  5
7D8
330
1F
100
AcDbEntity
  8
AM_0
 62
     7
100
AcDbLine
 10
638.6927891615571
 20
1098.580056458164
 30
0.0
 11
658.6927892240558
 21
1098.580056458164
 31
0.0
  0
ARC
  5
7D9
330
1F
100
AcDbEntity
  8
AM_0
 62
     7
100
AcDbCircle
 10
633.8114789927997
 20
1098.091100855699
 30
0.0
 40
3.000000009374998
100
AcDbArc
 50
35.55559280201883
 51
93.76378383210479
1001
GENIUS_GENODEF_13
1002
{
1000
HIER
1070
     0
1002
}
1002
{
1000
MANEDIT
1070
     0
1002
}
1002
{
1000
NOSEL
1070
     0
1002
}
1002
{
1000
BEHIND
1070
     0
1002
}
1002
{
1000
REACTOR
1002
}
1001
GENIUS_GENOBJ-N-FIL_13
1002
{
1000
OWNER
1000
GEN
1002
}
  0
LINE
  5
7DA
330
1F
100
AcDbEntity
  8
AM_0
 62
     7
100
AcDbLine
 10
641.4348170891356
 20
1100.544223374913
 30
0.0
 11
641.4348170891356
 21
1098.544223368663
 31
0.0
  0
LINE
  5
7DB
330
1F
100
AcDbEntity
  8
AM_0
 62
     7
100
AcDbLine
 10
641.4348170891356
 20
1098.544223368663
 30
0.0
 11
645.4348171016356
 21
1098.544223368663
 31
0.0
  0
LINE
  5
7DC
330
1F
100
AcDbEntity
  8
AM_0
 62
     7
100
AcDbLine
 10
641.4348170891356
 20
1100.544223374913
 30
0.0
 11
655.4348171328857
 21
1100.544223374913
 31
0.0
  0
LINE
  5
7DD
330
1F
100
AcDbEntity
  8
AM_0
 62
     7
100
AcDbLine
 10
643.5689439408563
 20
1101.617313452463
 30
0.0
 11
653.4274930872255
 21
1101.617313452463
 31
0.0
  0
ARC
  5
7DE
330
1F
100
AcDbEntity
  8
AM_0
 62
     7
100
AcDbCircle
 10
648.4209841836476
 20
1110.430962762962
 30
0.0
 40
1.539277951260048
100
AcDbArc
 50
0.5643740561916068
 51
179.4356259438084
  0
LINE
  5
7DF
330
1F
100
AcDbEntity
  8
AM_0
 62
     7
100
AcDbLine
 10
653.4274930872255
 20
1110.446124691121
 30
0.0
 11
653.4274930872255
 21
1101.617313452463
 31
0.0
  0
ARC
  5
7E0
330
1F
100
AcDbEntity
  8
AM_0
 62
     7
100
AcDbCircle
 10
658.6927892240558
 20
1101.580056467539
 30
0.0
 40
3.000000009374998
100
AcDbArc
 50
270.0
 51
324.4444071979811
  0
ARC
  5
7E1
330
1F
100
AcDbEntity
  8
AM_0
 62
     7
100
AcDbCircle
 10
663.5740993928132
 20
1098.091100855699
 30
0.0
 40
3.000000009374998
100
AcDbArc
 50
86.2362161678952
 51
144.4444071979811
1001
GENIUS_GENODEF_13
1002
{
1000
HIER
1070
     0
1002
}
1002
{
1000
MANEDIT
1070
     0
1002
}
1002
{
1000
NOSEL
1070
     0
1002
}
1002
{
1000
BEHIND
1070
     0
1002
}
1002
{
1000
REACTOR
1002
}
1001
GENIUS_GENOBJ-N-FIL_13
1002
{
1000
OWNER
1000
GEN
1002
}
  0
LINE
  5
7E2
330
1F
100
AcDbEntity
  8
AM_0
 62
     7
100
AcDbLine
 10
655.4348171328857
 20
1100.544223374913
 30
0.0
 11
655.4348171328857
 21
1098.544223368663
 31
0.0
  0
LINE
  5
7E3
330
1F
100
AcDbEntity
  8
AM_0
 62
     7
100
AcDbLine
 10
655.4348171328857
 20
1098.544223368663
 30
0.0
 11
651.4348171203858
 21
1098.544223368663
 31
0.0
  0
CIRCLE
  5
7E4
330
1F
100
AcDbEntity
  8
AM_3
100
AcDbCircle
 10
1364.203774796121
 20
696.5129259639589
 30
0.0
 40
5.999999999999999
  0
ARC
  5
7E5
330
1F
100
AcDbEntity
  8
AM_3
100
AcDbCircle
 10
1366.368838305582
 20
697.7629259639589
 30
0.0
 40
15.0
100
AcDbArc
 50
119.9999999999997
 51
299.9999999999997
  0
LINE
  5
7E6
330
1F
100
AcDbEntity
  8
AM_3
100
AcDbLine
 10
1358.868838305582
 20
710.7533070207257
 30
0.0
 11
1367.750082252017
 21
715.8808956039385
 31
0.0
  0
LINE
  5
7E7
330
1F
100
AcDbEntity
  8
AM_3
100
AcDbLine
 10
1373.868838305582
 20
684.7725449071926
 30
0.0
 11
1382.750082252018
 21
689.9001334904048
 31
0.0
  0
LINE
  5
7E8
330
1F
100
AcDbEntity
  8
AM_3
100
AcDbLine
 10
1359.161330047179
 20
705.2466964634848
 30
0.0
 11
1369.052279488393
 21
688.1150694962059
 31
0.0
  0
LINE
  5
7E9
330
1F
100
AcDbEntity
  8
AM_3
100
AcDbLine
 10
1384.859219362349
 20
695.7366465223299
 30
0.0
 11
1373.859219362349
 21
714.7892054055878
 31
0.0
  0
LINE
  5
7EA
330
1F
100
AcDbEntity
  8
AM_3
100
AcDbLine
 10
1432.057603868601
 20
722.9866465223299
 30
0.0
 11
1421.0576038686
 21
742.0392054055878
 31
0.0
  0
LINE
  5
7EB
330
1F
100
AcDbEntity
  8
AM_3
100
AcDbLine
 10
1374.591270169917
 20
717.5212562131568
 30
0.0
 11
1418.325553061031
 21
742.7712562131569
 31
0.0
1001
GENIUS_GENODEF_13
1002
{
1000
HIER
1070
     0
1002
}
1002
{
1000
MANEDIT
1070
     0
1002
}
1002
{
1000
NOSEL
1070
     0
1002
}
1002
{
1000
BEHIND
1070
     0
1002
}
1002
{
1000
REACTOR
1002
}
1001
GENIUS_GENOBJ-N-CEN_13
1002
{
1000
OWNER
1000
GEN
1002
}
  0
LINE
  5
7EC
330
1F
100
AcDbEntity
  8
AM_3
100
AcDbLine
 10
1387.591270169918
 20
695.0045957147617
 30
0.0
 11
1431.32555306103
 21
720.2545957147608
 31
0.0
1001
GENIUS_GENODEF_13
1002
{
1000
HIER
1070
     0
1002
}
1002
{
1000
MANEDIT
1070
     0
1002
}
1002
{
1000
NOSEL
1070
     0
1002
}
1002
{
1000
BEHIND
1070
     0
1002
}
1002
{
1000
REACTOR
1002
}
1001
GENIUS_GENOBJ-N-CEN_13
1002
{
1000
OWNER
1000
GEN
1002
}
  0
LINE
  5
7ED
330
1F
100
AcDbEntity
  8
AM_3
100
AcDbLine
 10
1367.451268619902
 20
704.1613700892078
 30
0.0
 11
1369.708564825457
 21
705.4646206611237
 31
0.0
1001
GENIUS_GENODEF_13
1002
{
1000
HIER
1070
     0
1002
}
1002
{
1000
MANEDIT
1070
     0
1002
}
1002
{
1000
NOSEL
1070
     0
1002
}
1002
{
1000
BEHIND
1070
     0
1002
}
1002
{
1000
REACTOR
1002
}
1001
GENIUS_GENOBJ-N-CEN_13
1002
{
1000
OWNER
1000
GEN
1002
}
  0
LINE
  5
7EE
330
1F
100
AcDbEntity
  8
AM_3
100
AcDbLine
 10
1372.451268619902
 20
695.5011160513627
 30
0.0
 11
1385.841173906227
 21
703.2317814728457
 31
0.0
1001
GENIUS_GENODEF_13
1002
{
1000
HIER
1070
     0
1002
}
1002
{
1000
MANEDIT
1070
     0
1002
}
1002
{
1000
NOSEL
1070
     0
1002
}
1002
{
1000
BEHIND
1070
     0
1002
}
1002
{
1000
REACTOR
1002
}
1001
GENIUS_GENOBJ-N-CEN_13
1002
{
1000
OWNER
1000
GEN
1002
}
  0
LINE
  5
7EF
330
1F
100
AcDbEntity
  8
AM_3
100
AcDbLine
 10
1370.346079641534
 20
709.8741418961267
 30
0.0
 11
1375.109219362349
 21
712.6241418961267
 31
0.0
1001
GENIUS_GENODEF_13
1002
{
1000
HIER
1070
     0
1002
}
1002
{
1000
MANEDIT
1070
     0
1002
}
1002
{
1000
NOSEL
1070
     0
1002
}
1002
{
1000
BEHIND
1070
     0
1002
}
1002
{
1000
REACTOR
1002
}
1001
GENIUS_GENOBJ-N-CEN_13
1002
{
1000
OWNER
1000
GEN
1002
}
  0
LINE
  5
7F0
330
1F
100
AcDbEntity
  8
AM_3
100
AcDbLine
 10
1373.846079641534
 20
703.8119640696357
 30
0.0
 11
1378.60921936235
 21
706.5619640696357
 31
0.0
1001
GENIUS_GENODEF_13
1002
{
1000
HIER
1070
     0
1002
}
1002
{
1000
MANEDIT
1070
     0
1002
}
1002
{
1000
NOSEL
1070
     0
1002
}
1002
{
1000
BEHIND
1070
     0
1002
}
1002
{
1000
REACTOR
1002
}
1001
GENIUS_GENOBJ-N-CEN_13
1002
{
1000
OWNER
1000
GEN
1002
}
  0
LINE
  5
7F1
330
1F
100
AcDbEntity
  8
AM_3
100
AcDbLine
 10
1378.846079641534
 20
695.1517100317917
 30
0.0
 11
1383.609219362349
 21
697.9017100317917
 31
0.0
1001
GENIUS_GENODEF_13
1002
{
1000
HIER
1070
     0
1002
}
1002
{
1000
MANEDIT
1070
     0
1002
}
1002
{
1000
NOSEL
1070
     0
1002
}
1002
{
1000
BEHIND
1070
     0
1002
}
1002
{
1000
REACTOR
1002
}
1001
GENIUS_GENOBJ-N-CEN_13
1002
{
1000
OWNER
1000
GEN
1002
}
  0
LINE
  5
7F2
330
1F
100
AcDbEntity
  8
AM_3
100
AcDbLine
 10
1375.346079641534
 20
701.2138878582818
 30
0.0
 11
1380.10921936235
 21
703.9638878582829
 31
0.0
1001
GENIUS_GENODEF_13
1002
{
1000
HIER
1070
     0
1002
}
1002
{
1000
MANEDIT
1070
     0
1002
}
1002
{
1000
NOSEL
1070
     0
1002
}
1002
{
1000
BEHIND
1070
     0
1002
}
1002
{
1000
REACTOR
1002
}
1001
GENIUS_GENOBJ-N-CEN_13
1002
{
1000
OWNER
1000
GEN
1002
}
  0
ARC
  5
7F3
330
1F
100
AcDbEntity
  8
AM_3
100
AcDbCircle
 10
1372.096079641534
 20
706.8430529828797
 30
0.0
 40
3.499999999999998
100
AcDbArc
 50
119.9999999999997
 51
299.9999999999997
  0
ARC
  5
7F4
330
1F
100
AcDbEntity
  8
AM_3
100
AcDbCircle
 10
1377.096079641534
 20
698.1827989450358
 30
0.0
 40
3.499999999999998
100
AcDbArc
 50
119.9999999999997
 51
299.9999999999997
  0
ARC
  5
7F5
330
1F
100
AcDbEntity
  8
AM_3
100
AcDbCircle
 10
1373.727652723861
 20
707.4486940099668
 30
0.0
 40
10.33602304889328
100
AcDbArc
 50
83.33818125729768
 51
125.3327497551277
  0
ARC
  5
7F6
330
1F
100
AcDbEntity
  8
AM_3
100
AcDbCircle
 10
1376.10921936235
 20
710.8920910885578
 30
0.0
 40
1.999999999999999
100
AcDbArc
 50
119.9999999999997
 51
210.0000000000108
  0
LINE
  5
7F7
330
1F
100
AcDbEntity
  8
AM_3
100
AcDbLine
 10
1380.877168554779
 20
698.6337608393608
 30
0.0
 11
1379.377168554779
 21
701.2318370507139
 31
0.0
  0
ARC
  5
7F8
330
1F
100
AcDbEntity
  8
AM_3
100
AcDbCircle
 10
1377.609219362349
 20
708.2940148772047
 30
0.0
 40
1.999999999999999
100
AcDbArc
 50
210.0000000000108
 51
299.9999999999997
  0
ARC
  5
7F9
330
1F
100
AcDbEntity
  8
AM_3
100
AcDbCircle
 10
1382.60921936235
 20
699.6337608393607
 30
0.0
 40
1.999999999999999
100
AcDbArc
 50
210.0000000000108
 51
299.9999999999997
  0
ARC
  5
7FA
330
1F
100
AcDbEntity
  8
AM_3
100
AcDbCircle
 10
1381.109219362349
 20
702.2318370507139
 30
0.0
 40
1.999999999999999
100
AcDbArc
 50
119.9999999999997
 51
210.0000000000108
  0
LINE
  5
7FB
330
1F
100
AcDbEntity
  8
AM_3
100
AcDbLine
 10
1375.877168554779
 20
707.2940148772048
 30
0.0
 11
1374.377168554779
 21
709.8920910885579
 31
0.0
  0
LINE
  5
7FC
330
1F
100
AcDbEntity
  8
AM_3
100
AcDbLine
 10
1378.900609663408
 20
708.4622491459608
 30
0.0
 11
1385.000709325594
 21
711.9841433280078
 31
0.0
1001
GENIUS_GENODEF_13
1002
{
1000
HIER
1070
     0
1002
}
1002
{
1000
MANEDIT
1070
     0
1002
}
1002
{
1000
NOSEL
1070
     0
1002
}
1002
{
1000
BEHIND
1070
     0
1002
}
1002
{
1000
REACTOR
1002
}
1001
GENIUS_GENOBJ-N-CEN_13
1002
{
1000
OWNER
1000
GEN
1002
}
  0
LINE
  5
7FD
330
1F
100
AcDbEntity
  8
AM_3
100
AcDbLine
 10
1381.900609663408
 20
703.2660967232539
 30
0.0
 11
1388.000709325594
 21
706.7879909053019
 31
0.0
1001
GENIUS_GENODEF_13
1002
{
1000
HIER
1070
     0
1002
}
1002
{
1000
MANEDIT
1070
     0
1002
}
1002
{
1000
NOSEL
1070
     0
1002
}
1002
{
1000
BEHIND
1070
     0
1002
}
1002
{
1000
REACTOR
1002
}
1001
GENIUS_GENOBJ-N-CEN_13
1002
{
1000
OWNER
1000
GEN
1002
}
  0
ELLIPSE
  5
7FE
330
1F
100
AcDbEntity
  8
AM_3
100
AcDbEllipse
 10
1386.500709325594
 20
709.3860671166546
 30
0.0
 11
-1.499999999999991
 21
2.598076211353304
 31
0.0
210
0.0
220
0.0
230
1.0
 40
0.7741598128011863
 41
3.141592653589792
 42
6.283185307179584
  0
LINE
  5
7FF
330
1F
100
AcDbEntity
  8
AM_3
100
AcDbLine
 10
1381.720935290818
 20
707.7811638293897
 30
0.0
 11
1386.000709325594
 21
710.2520925204389
 31
0.0
1001
GENIUS_GENODEF_13
1002
{
1000
HIER
1070
     0
1002
}
1002
{
1000
MANEDIT
1070
     0
1002
}
1002
{
1000
NOSEL
1070
     0
1002
}
1002
{
1000
BEHIND
1070
     0
1002
}
1002
{
1000
REACTOR
1002
}
1001
GENIUS_GENOBJ-N-CEN_13
1002
{
1000
OWNER
1000
GEN
1002
}
  0
SPLINE
  5
800
330
1F
100
AcDbEntity
  8
AM_3
100
AcDbSpline
210
0.0
220
0.0
230
1.0
 70
     8
 71
     3
 72
    18
 73
    14
 74
     0
 42
0.0000000001
 43
0.0000000001
 40
3.628703069452225
 40
3.628703069452225
 40
3.628703069452225
 40
3.628703069452225
 40
3.912493910190088
 40
3.912493910190088
 40
4.196284750927953
 40
4.196284750927953
 40
4.622228449873871
 40
4.622228449873871
 40
5.048172148819786
 40
5.048172148819786
 40
5.474115847765705
 40
5.474115847765705
 40
5.796074891333204
 40
5.796074891333204
 40
5.796074891333204
 40
5.796074891333204
 10
1386.964329325695
 20
708.4985219619657
 30
0.0
 10
1386.973875384673
 20
708.5184283210296
 30
0.0
 10
1386.990165079282
 20
708.5614857555067
 30
0.0
 10
1387.010495757781
 20
708.6966715502439
 30
0.0
 10
1387.01407218585
 20
708.7882874549386
 30
0.0
 10
1386.984693947631
 20
709.0549851934379
 30
0.0
 10
1386.93100636042
 20
709.2480404098198
 30
0.0
 10
1386.751557468355
 20
709.6160224062948
 30
0.0
 10
1386.626501152036
 20
709.7896158236758
 30
0.0
 10
1386.361855096519
 20
710.0531624687528
 30
0.0
 10
1386.223699282955
 20
710.1416727687999
 30
0.0
 10
1386.044301810437
 20
710.2198993462518
 30
0.0
 10
1385.988855661108
 20
710.2294335780136
 30
0.0
 10
1385.963882674676
 20
710.2313463917878
 30
0.0
  0
LINE
  5
801
330
1F
100
AcDbEntity
  8
AM_3
100
AcDbLine
 10
1382.720935290816
 20
706.0491130218208
 30
0.0
 11
1387.000709325594
 21
708.5200417128707
 31
0.0
1001
GENIUS_GENODEF_13
1002
{
1000
HIER
1070
     0
1002
}
1002
{
1000
MANEDIT
1070
     0
1002
}
1002
{
1000
NOSEL
1070
     0
1002
}
1002
{
1000
BEHIND
1070
     0
1002
}
1002
{
1000
REACTOR
1002
}
1001
GENIUS_GENOBJ-N-CEN_13
1002
{
1000
OWNER
1000
GEN
1002
}
  0
ARC
  5
802
330
1F
100
AcDbEntity
  8
AM_3
100
AcDbCircle
 10
1378.436366697729
 20
699.2929621689206
 30
0.0
 40
10.33602304889328
100
AcDbArc
 50
294.6672502448763
 51
336.6618187426912
  0
ARC
  5
803
330
1F
100
AcDbEntity
  8
AM_3
100
AcDbCircle
 10
1375.591270169918
 20
715.7892054055878
 30
0.0
 40
1.999999999999999
100
AcDbArc
 50
119.9999999999997
 51
210.0000000000108
1001
GENIUS_GENOBJ-N-CEN_13
1002
{
1000
OWNER
1000
GEN
1002
}
1001
GENIUS_GENODEF_13
1002
{
1000
HIER
1070
     0
1002
}
1002
{
1000
MANEDIT
1070
     0
1002
}
1002
{
1000
NOSEL
1070
     0
1002
}
1002
{
1000
BEHIND
1070
     0
1002
}
1002
{
1000
REACTOR
1002
}
1001
GENIUS_GENOBJ-N-FIL_13
1002
{
1000
OWNER
1000
GEN
1002
}
  0
ARC
  5
804
330
1F
100
AcDbEntity
  8
AM_3
100
AcDbCircle
 10
1386.591270169917
 20
696.7366465223299
 30
0.0
 40
1.999999999999999
100
AcDbArc
 50
210.0000000000108
 51
299.9999999999997
1001
GENIUS_GENOBJ-N-CEN_13
1002
{
1000
OWNER
1000
GEN
1002
}
1001
GENIUS_GENODEF_13
1002
{
1000
HIER
1070
     0
1002
}
1002
{
1000
MANEDIT
1070
     0
1002
}
1002
{
1000
NOSEL
1070
     0
1002
}
1002
{
1000
BEHIND
1070
     0
1002
}
1002
{
1000
REACTOR
1002
}
1001
GENIUS_GENOBJ-N-FIL_13
1002
{
1000
OWNER
1000
GEN
1002
}
  0
ARC
  5
805
330
1F
100
AcDbEntity
  8
AM_3
100
AcDbCircle
 10
1419.32555306103
 20
741.0392054055878
 30
0.0
 40
1.999999999999999
100
AcDbArc
 50
30.00000000001086
 51
119.9999999999997
1001
GENIUS_GENODEF_13
1002
{
1000
HIER
1070
     0
1002
}
1002
{
1000
MANEDIT
1070
     0
1002
}
1002
{
1000
NOSEL
1070
     0
1002
}
1002
{
1000
BEHIND
1070
     0
1002
}
1002
{
1000
REACTOR
1002
}
1001
GENIUS_GENOBJ-N-FIL_13
1002
{
1000
OWNER
1000
GEN
1002
}
  0
ARC
  5
806
330
1F
100
AcDbEntity
  8
AM_3
100
AcDbCircle
 10
1430.325553061031
 20
721.9866465223299
 30
0.0
 40
1.999999999999999
100
AcDbArc
 50
299.9999999999997
 51
30.00000000001086
1001
GENIUS_GENOBJ-N-CEN_13
1002
{
1000
OWNER
1000
GEN
1002
}
1001
GENIUS_GENODEF_13
1002
{
1000
HIER
1070
     0
1002
}
1002
{
1000
MANEDIT
1070
     0
1002
}
1002
{
1000
NOSEL
1070
     0
1002
}
1002
{
1000
BEHIND
1070
     0
1002
}
1002
{
1000
REACTOR
1002
}
1001
GENIUS_GENOBJ-N-FIL_13
1002
{
1000
OWNER
1000
GEN
1002
}
  0
LINE
  5
807
330
1F
100
AcDbEntity
  8
AM_3
100
AcDbLine
 10
1382.720935290816
 20
706.0491130218208
 30
0.0
 11
1381.720935290816
 21
707.7811638293897
 31
0.0
  0
LINE
  5
808
330
1F
100
AcDbEntity
  8
AM_3
100
AcDbLine
 10
1385.900609663408
 20
696.337893492979
 30
0.0
 11
1381.900609663408
 21
703.2660967232539
 31
0.0
  0
ARC
  5
809
330
1F
100
AcDbEntity
  8
AM_3
100
AcDbCircle
 10
1376.632660470976
 20
716.3904523762357
 30
0.0
 40
1.999999999999999
100
AcDbArc
 50
119.9999999999997
 51
210.0000000000108
1001
GENIUS_GENOBJ-N-CEN_13
1002
{
1000
OWNER
1000
GEN
1002
}
1001
GENIUS_GENODEF_13
1002
{
1000
HIER
1070
     0
1002
}
1002
{
1000
MANEDIT
1070
     0
1002
}
1002
{
1000
NOSEL
1070
     0
1002
}
1002
{
1000
BEHIND
1070
     0
1002
}
1002
{
1000
REACTOR
1002
}
1001
GENIUS_GENOBJ-N-FIL_13
1002
{
1000
OWNER
1000
GEN
1002
}
  0
ARC
  5
80A
330
1F
100
AcDbEntity
  8
AM_3
100
AcDbCircle
 10
1387.632660470976
 20
697.3378934929789
 30
0.0
 40
1.999999999999999
100
AcDbArc
 50
210.0000000000108
 51
299.9999999999997
1001
GENIUS_GENOBJ-N-CEN_13
1002
{
1000
OWNER
1000
GEN
1002
}
1001
GENIUS_GENODEF_13
1002
{
1000
HIER
1070
     0
1002
}
1002
{
1000
MANEDIT
1070
     0
1002
}
1002
{
1000
NOSEL
1070
     0
1002
}
1002
{
1000
BEHIND
1070
     0
1002
}
1002
{
1000
REACTOR
1002
}
1001
GENIUS_GENOBJ-N-FIL_13
1002
{
1000
OWNER
1000
GEN
1002
}
  0
ARC
  5
80B
330
1F
100
AcDbEntity
  8
AM_3
100
AcDbCircle
 10
1384.593131188379
 20
703.9848537489606
 30
0.0
 40
2.786805307953311
100
AcDbArc
 50
132.2066997937028
 51
194.9463418185715
  0
ARC
  5
80C
330
1F
100
AcDbEntity
  8
AM_3
100
AcDbCircle
 10
1380.869332269304
 20
710.4346626739689
 30
0.0
 40
2.786805307953311
100
AcDbArc
 50
225.0536581814519
 51
287.7933002063439
  0
LINE
  5
80D
330
1F
100
AcDbEntity
  8
AM_3
100
AcDbLine
 10
1382.017796000413
 20
705.0497164133708
 30
0.0
 11
1380.503862794242
 21
707.6719256457236
 31
0.0
  0
ARC
  5
80E
330
1F
100
AcDbEntity
  8
AM_3
100
AcDbCircle
 10
1381.369450045055
 20
710.5738259806278
 30
0.0
 40
2.775392306579831
100
AcDbArc
 50
222.3637354700761
 51
279.1855291363101
  0
ARC
  5
80F
330
1F
100
AcDbEntity
  8
AM_3
100
AcDbCircle
 10
1384.963709035097
 20
704.3483867943169
 30
0.0
 40
2.775392306579828
100
AcDbArc
 50
140.8144708636852
 51
197.6362645299352
  0
LINE
  5
810
330
1F
100
AcDbEntity
  8
AM_3
100
AcDbLine
 10
1378.900609663408
 20
708.4622491459608
 30
0.0
 11
1374.900609663408
 21
715.3904523762357
 31
0.0
  0
LINE
  5
811
330
1F
100
AcDbEntity
  8
AM_3
100
AcDbLine
 10
1375.466287426917
 20
708.7888433549978
 30
0.0
 11
1381.120129988535
 21
712.053090879904
 31
0.0
1001
GENIUS_GENODEF_13
1002
{
1000
HIER
1070
     0
1002
}
1002
{
1000
MANEDIT
1070
     0
1002
}
1002
{
1000
NOSEL
1070
     0
1002
}
1002
{
1000
BEHIND
1070
     0
1002
}
1002
{
1000
REACTOR
1002
}
1001
GENIUS_GENOBJ-N-CEN_13
1002
{
1000
OWNER
1000
GEN
1002
}
  0
LINE
  5
812
330
1F
100
AcDbEntity
  8
AM_3
100
AcDbLine
 10
1393.266514912499
 20
718.5528964517509
 30
0.0
 11
1397.745144556674
 21
710.795682359756
 31
0.0
  0
LINE
  5
813
330
1F
100
AcDbEntity
  8
AM_3
100
AcDbLine
 10
1419.406310048015
 20
733.5433122544868
 30
0.0
 11
1423.753215242027
 21
726.0142516027729
 31
0.0
  0
ELLIPSE
  5
814
330
1F
100
AcDbEntity
  8
AM_3
100
AcDbEllipse
 10
1421.640303854815
 20
729.6739214773149
 30
0.0
 11
-1.499999999999997
 21
2.598076211353316
 31
0.0
210
0.0
220
0.0
230
0.9999999999999998
 40
0.9449126231368628
 41
3.141592653589792
 42
6.283185307179584
  0
ELLIPSE
  5
815
330
1F
100
AcDbEntity
  8
AM_3
100
AcDbEllipse
 10
1395.544417053947
 20
714.6074542080919
 30
0.0
 11
-1.499999999999997
 21
2.598076211353316
 31
0.0
210
0.0
220
0.0
230
0.9999999999999998
 40
0.9201419238112578
 41
6.283185307179584
 42
9.424777960769381
  0
ELLIPSE
  5
816
330
1F
100
AcDbEntity
  8
AM_3
100
AcDbEllipse
 10
1421.640303854815
 20
729.6739214773149
 30
0.0
 11
-1.499999999999997
 21
2.598076211353316
 31
0.0
210
0.0
220
0.0
230
0.9999999999999998
 40
0.6301633309658806
 41
3.141592653589792
 42
6.283185307179584
  0
LINE
  5
817
330
1F
100
AcDbEntity
  8
AM_3
100
AcDbLine
 10
1394.044417053947
 20
717.2055304194445
 30
0.0
 11
1420.140303854815
 21
732.2719976886676
 31
0.0
  0
LINE
  5
818
330
1F
100
AcDbEntity
  8
AM_3
100
AcDbLine
 10
1397.044417053947
 20
712.0093779967387
 30
0.0
 11
1423.140303854815
 21
727.0758452659609
 31
0.0
  0
CIRCLE
  5
819
330
1F
100
AcDbEntity
  8
AM_3
100
AcDbCircle
 10
1784.226095631572
 20
696.5129259639597
 30
0.0
 40
6.0
  0
ARC
  5
81A
330
1F
100
AcDbEntity
  8
AM_3
100
AcDbCircle
 10
1782.061032122111
 20
697.7629259639598
 30
0.0
 40
15.0
100
AcDbArc
 50
239.9999999999995
 51
59.99999999999946
  0
LINE
  5
81B
330
1F
100
AcDbEntity
  8
AM_3
100
AcDbLine
 10
1774.561032122111
 20
684.7725449071926
 30
0.0
 11
1765.679788175676
 21
689.9001334904057
 31
0.0
  0
LINE
  5
81C
330
1F
100
AcDbEntity
  8
AM_3
100
AcDbLine
 10
1789.561032122111
 20
710.7533070207257
 30
0.0
 11
1780.679788175676
 21
715.8808956039385
 31
0.0
  0
LINE
  5
81D
330
1F
100
AcDbEntity
  8
AM_3
100
AcDbLine
 10
1779.183650882631
 20
687.7791554644336
 30
0.0
 11
1789.074600323846
 21
704.9107824317127
 31
0.0
  0
LINE
  5
81E
330
1F
100
AcDbEntity
  8
AM_3
100
AcDbLine
 10
1774.570651065344
 20
714.7892054055878
 30
0.0
 11
1763.570651065345
 21
695.7366465223308
 31
0.0
  0
LINE
  5
81F
330
1F
100
AcDbEntity
  8
AM_3
100
AcDbLine
 10
1727.372266559092
 20
742.0392054055878
 30
0.0
 11
1716.372266559093
 21
722.9866465223308
 31
0.0
  0
LINE
  5
820
330
1F
100
AcDbEntity
  8
AM_3
100
AcDbLine
 10
1760.838600257776
 20
695.0045957147617
 30
0.0
 11
1717.104317366663
 21
720.2545957147617
 31
0.0
1001
GENIUS_GENODEF_13
1002
{
1000
HIER
1070
     0
1002
}
1002
{
1000
MANEDIT
1070
     0
1002
}
1002
{
1000
NOSEL
1070
     0
1002
}
1002
{
1000
BEHIND
1070
     0
1002
}
1002
{
1000
REACTOR
1002
}
1001
GENIUS_GENOBJ-N-CEN_13
1002
{
1000
OWNER
1000
GEN
1002
}
  0
LINE
  5
821
330
1F
100
AcDbEntity
  8
AM_3
100
AcDbLine
 10
1773.838600257776
 20
717.5212562131568
 30
0.0
 11
1730.104317366663
 21
742.7712562131569
 31
0.0
1001
GENIUS_GENODEF_13
1002
{
1000
HIER
1070
     0
1002
}
1002
{
1000
MANEDIT
1070
     0
1002
}
1002
{
1000
NOSEL
1070
     0
1002
}
1002
{
1000
BEHIND
1070
     0
1002
}
1002
{
1000
REACTOR
1002
}
1001
GENIUS_GENOBJ-N-CEN_13
1002
{
1000
OWNER
1000
GEN
1002
}
  0
LINE
  5
822
330
1F
100
AcDbEntity
  8
AM_3
100
AcDbLine
 10
1775.978601807791
 20
695.5011160513627
 30
0.0
 11
1773.721305602236
 21
696.8043666232806
 31
0.0
1001
GENIUS_GENODEF_13
1002
{
1000
HIER
1070
     0
1002
}
1002
{
1000
MANEDIT
1070
     0
1002
}
1002
{
1000
NOSEL
1070
     0
1002
}
1002
{
1000
BEHIND
1070
     0
1002
}
1002
{
1000
REACTOR
1002
}
1001
GENIUS_GENOBJ-N-CEN_13
1002
{
1000
OWNER
1000
GEN
1002
}
  0
LINE
  5
823
330
1F
100
AcDbEntity
  8
AM_3
100
AcDbLine
 10
1780.978601807791
 20
704.1613700892078
 30
0.0
 11
1767.588696521465
 21
711.8920355106911
 31
0.0
1001
GENIUS_GENODEF_13
1002
{
1000
HIER
1070
     0
1002
}
1002
{
1000
MANEDIT
1070
     0
1002
}
1002
{
1000
NOSEL
1070
     0
1002
}
1002
{
1000
BEHIND
1070
     0
1002
}
1002
{
1000
REACTOR
1002
}
1001
GENIUS_GENOBJ-N-CEN_13
1002
{
1000
OWNER
1000
GEN
1002
}
  0
LINE
  5
824
330
1F
100
AcDbEntity
  8
AM_3
100
AcDbLine
 10
1769.583790786159
 20
695.1517100317917
 30
0.0
 11
1764.820651065345
 21
697.9017100317917
 31
0.0
1001
GENIUS_GENODEF_13
1002
{
1000
HIER
1070
     0
1002
}
1002
{
1000
MANEDIT
1070
     0
1002
}
1002
{
1000
NOSEL
1070
     0
1002
}
1002
{
1000
BEHIND
1070
     0
1002
}
1002
{
1000
REACTOR
1002
}
1001
GENIUS_GENOBJ-N-CEN_13
1002
{
1000
OWNER
1000
GEN
1002
}
  0
LINE
  5
825
330
1F
100
AcDbEntity
  8
AM_3
100
AcDbLine
 10
1773.083790786161
 20
701.2138878582829
 30
0.0
 11
1768.320651065345
 21
703.9638878582829
 31
0.0
1001
GENIUS_GENODEF_13
1002
{
1000
HIER
1070
     0
1002
}
1002
{
1000
MANEDIT
1070
     0
1002
}
1002
{
1000
NOSEL
1070
     0
1002
}
1002
{
1000
BEHIND
1070
     0
1002
}
1002
{
1000
REACTOR
1002
}
1001
GENIUS_GENOBJ-N-CEN_13
1002
{
1000
OWNER
1000
GEN
1002
}
  0
LINE
  5
826
330
1F
100
AcDbEntity
  8
AM_3
100
AcDbLine
 10
1778.083790786159
 20
709.8741418961276
 30
0.0
 11
1773.320651065344
 21
712.6241418961276
 31
0.0
1001
GENIUS_GENODEF_13
1002
{
1000
HIER
1070
     0
1002
}
1002
{
1000
MANEDIT
1070
     0
1002
}
1002
{
1000
NOSEL
1070
     0
1002
}
1002
{
1000
BEHIND
1070
     0
1002
}
1002
{
1000
REACTOR
1002
}
1001
GENIUS_GENOBJ-N-CEN_13
1002
{
1000
OWNER
1000
GEN
1002
}
  0
LINE
  5
827
330
1F
100
AcDbEntity
  8
AM_3
100
AcDbLine
 10
1774.583790786158
 20
703.8119640696357
 30
0.0
 11
1769.820651065345
 21
706.5619640696357
 31
0.0
1001
GENIUS_GENODEF_13
1002
{
1000
HIER
1070
     0
1002
}
1002
{
1000
MANEDIT
1070
     0
1002
}
1002
{
1000
NOSEL
1070
     0
1002
}
1002
{
1000
BEHIND
1070
     0
1002
}
1002
{
1000
REACTOR
1002
}
1001
GENIUS_GENOBJ-N-CEN_13
1002
{
1000
OWNER
1000
GEN
1002
}
  0
ARC
  5
828
330
1F
100
AcDbEntity
  8
AM_3
100
AcDbCircle
 10
1771.333790786159
 20
698.1827989450358
 30
0.0
 40
3.5
100
AcDbArc
 50
239.9999999999995
 51
59.99999999999946
  0
ARC
  5
829
330
1F
100
AcDbEntity
  8
AM_3
100
AcDbCircle
 10
1776.333790786159
 20
706.8430529828817
 30
0.0
 40
3.5
100
AcDbArc
 50
239.9999999999995
 51
59.99999999999946
  0
ARC
  5
82A
330
1F
100
AcDbEntity
  8
AM_3
100
AcDbCircle
 10
1769.993503729965
 20
699.2929621689206
 30
0.0
 40
10.33602304889329
100
AcDbArc
 50
203.3381812573088
 51
245.3327497551236
  0
ARC
  5
82B
330
1F
100
AcDbEntity
  8
AM_3
100
AcDbCircle
 10
1765.820651065345
 20
699.6337608393607
 30
0.0
 40
2.0
100
AcDbArc
 50
239.9999999999995
 51
329.9999999999891
  0
LINE
  5
82C
330
1F
100
AcDbEntity
  8
AM_3
100
AcDbLine
 10
1774.052701872914
 20
709.8920910885579
 30
0.0
 11
1772.552701872914
 21
707.2940148772048
 31
0.0
  0
ARC
  5
82D
330
1F
100
AcDbEntity
  8
AM_3
100
AcDbCircle
 10
1767.320651065344
 20
702.2318370507139
 30
0.0
 40
2.0
100
AcDbArc
 50
329.9999999999891
 51
59.99999999999946
  0
ARC
  5
82E
330
1F
100
AcDbEntity
  8
AM_3
100
AcDbCircle
 10
1772.320651065345
 20
710.8920910885578
 30
0.0
 40
2.0
100
AcDbArc
 50
329.9999999999891
 51
59.99999999999946
  0
ARC
  5
82F
330
1F
100
AcDbEntity
  8
AM_3
100
AcDbCircle
 10
1770.820651065345
 20
708.2940148772047
 30
0.0
 40
2.0
100
AcDbArc
 50
239.9999999999995
 51
329.9999999999891
  0
LINE
  5
830
330
1F
100
AcDbEntity
  8
AM_3
100
AcDbLine
 10
1769.052701872914
 20
701.2318370507139
 30
0.0
 11
1767.552701872914
 21
698.6337608393608
 31
0.0
  0
LINE
  5
831
330
1F
100
AcDbEntity
  8
AM_3
100
AcDbLine
 10
1766.529260764285
 20
703.2660967232548
 30
0.0
 11
1760.4291611021
 21
706.7879909053019
 31
0.0
1001
GENIUS_GENODEF_13
1002
{
1000
HIER
1070
     0
1002
}
1002
{
1000
MANEDIT
1070
     0
1002
}
1002
{
1000
NOSEL
1070
     0
1002
}
1002
{
1000
BEHIND
1070
     0
1002
}
1002
{
1000
REACTOR
1002
}
1001
GENIUS_GENOBJ-N-CEN_13
1002
{
1000
OWNER
1000
GEN
1002
}
  0
LINE
  5
832
330
1F
100
AcDbEntity
  8
AM_3
100
AcDbLine
 10
1769.529260764286
 20
708.4622491459608
 30
0.0
 11
1763.4291611021
 21
711.9841433280089
 31
0.0
1001
GENIUS_GENODEF_13
1002
{
1000
HIER
1070
     0
1002
}
1002
{
1000
MANEDIT
1070
     0
1002
}
1002
{
1000
NOSEL
1070
     0
1002
}
1002
{
1000
BEHIND
1070
     0
1002
}
1002
{
1000
REACTOR
1002
}
1001
GENIUS_GENOBJ-N-CEN_13
1002
{
1000
OWNER
1000
GEN
1002
}
  0
ELLIPSE
  5
833
330
1F
100
AcDbEntity
  8
AM_3
100
AcDbEllipse
 10
1761.929161102099
 20
709.3860671166546
 30
0.0
 11
-1.499999999999993
 21
-2.5980762113533
 31
0.0
210
0.0
220
0.0
230
1.0
 40
0.7741598128011864
 41
3.141592653589792
 42
6.283185307179584
  0
LINE
  5
834
330
1F
100
AcDbEntity
  8
AM_3
100
AcDbLine
 10
1765.708935136878
 20
706.0491130218208
 30
0.0
 11
1761.4291611021
 21
708.5200417128707
 31
0.0
1001
GENIUS_GENODEF_13
1002
{
1000
HIER
1070
     0
1002
}
1002
{
1000
MANEDIT
1070
     0
1002
}
1002
{
1000
NOSEL
1070
     0
1002
}
1002
{
1000
BEHIND
1070
     0
1002
}
1002
{
1000
REACTOR
1002
}
1001
GENIUS_GENOBJ-N-CEN_13
1002
{
1000
OWNER
1000
GEN
1002
}
  0
SPLINE
  5
835
330
1F
100
AcDbEntity
  8
AM_3
100
AcDbSpline
210
0.0
220
0.0
230
1.0
 70
     8
 71
     3
 72
    18
 73
    14
 74
     0
 42
0.0000000001
 43
0.0000000001
 40
3.628703069452225
 40
3.628703069452225
 40
3.628703069452225
 40
3.628703069452225
 40
3.912493910190088
 40
3.912493910190088
 40
4.196284750927953
 40
4.196284750927953
 40
4.622228449873871
 40
4.622228449873871
 40
5.048172148819786
 40
5.048172148819786
 40
5.474115847765705
 40
5.474115847765705
 40
5.796074891333204
 40
5.796074891333204
 40
5.796074891333204
 40
5.796074891333204
 10
1762.465987753015
 20
710.2313463917878
 30
0.0
 10
1762.443975310879
 20
710.2296603418379
 30
0.0
 10
1762.398541631497
 20
710.2222389139517
 30
0.0
 10
1762.271301959773
 20
710.1722529006387
 30
0.0
 10
1762.190172044883
 20
710.1295422258508
 30
0.0
 10
1761.973894147319
 20
709.9707510559888
 30
0.0
 10
1761.833547219205
 20
709.8277286334027
 30
0.0
 10
1761.604589908155
 20
709.4883303359576
 30
0.0
 10
1761.516781756933
 20
709.2932316804296
 30
0.0
 10
1761.420866694973
 20
708.932268150804
 30
0.0
 10
1761.413292433419
 20
708.7683665565537
 30
0.0
 10
1761.435244966353
 20
708.5738904992517
 30
0.0
 10
1761.454711154105
 20
708.5211056095097
 30
0.0
 10
1761.465541102
 20
708.4985219619627
 30
0.0
  0
LINE
  5
836
330
1F
100
AcDbEntity
  8
AM_3
100
AcDbLine
 10
1766.708935136878
 20
707.7811638293897
 30
0.0
 11
1762.4291611021
 21
710.2520925204398
 31
0.0
1001
GENIUS_GENODEF_13
1002
{
1000
HIER
1070
     0
1002
}
1002
{
1000
MANEDIT
1070
     0
1002
}
1002
{
1000
NOSEL
1070
     0
1002
}
1002
{
1000
BEHIND
1070
     0
1002
}
1002
{
1000
REACTOR
1002
}
1001
GENIUS_GENOBJ-N-CEN_13
1002
{
1000
OWNER
1000
GEN
1002
}
  0
ARC
  5
837
330
1F
100
AcDbEntity
  8
AM_3
100
AcDbCircle
 10
1774.702217703832
 20
707.4486940099677
 30
0.0
 40
10.33602304889329
100
AcDbArc
 50
54.66725024487224
 51
96.66181874270231
  0
ARC
  5
838
330
1F
100
AcDbEntity
  8
AM_3
100
AcDbCircle
 10
1761.838600257776
 20
696.7366465223308
 30
0.0
 40
2.0
100
AcDbArc
 50
239.9999999999995
 51
329.9999999999891
1001
GENIUS_GENOBJ-N-CEN_13
1002
{
1000
OWNER
1000
GEN
1002
}
1001
GENIUS_GENODEF_13
1002
{
1000
HIER
1070
     0
1002
}
1002
{
1000
MANEDIT
1070
     0
1002
}
1002
{
1000
NOSEL
1070
     0
1002
}
1002
{
1000
BEHIND
1070
     0
1002
}
1002
{
1000
REACTOR
1002
}
1001
GENIUS_GENOBJ-N-FIL_13
1002
{
1000
OWNER
1000
GEN
1002
}
  0
ARC
  5
839
330
1F
100
AcDbEntity
  8
AM_3
100
AcDbCircle
 10
1772.838600257776
 20
715.7892054055878
 30
0.0
 40
2.0
100
AcDbArc
 50
329.9999999999891
 51
59.99999999999946
1001
GENIUS_GENOBJ-N-CEN_13
1002
{
1000
OWNER
1000
GEN
1002
}
1001
GENIUS_GENODEF_13
1002
{
1000
HIER
1070
     0
1002
}
1002
{
1000
MANEDIT
1070
     0
1002
}
1002
{
1000
NOSEL
1070
     0
1002
}
1002
{
1000
BEHIND
1070
     0
1002
}
1002
{
1000
REACTOR
1002
}
1001
GENIUS_GENOBJ-N-FIL_13
1002
{
1000
OWNER
1000
GEN
1002
}
  0
ARC
  5
83A
330
1F
100
AcDbEntity
  8
AM_3
100
AcDbCircle
 10
1718.104317366663
 20
721.9866465223308
 30
0.0
 40
2.0
100
AcDbArc
 50
149.9999999999891
 51
239.9999999999995
1001
GENIUS_GENODEF_13
1002
{
1000
HIER
1070
     0
1002
}
1002
{
1000
MANEDIT
1070
     0
1002
}
1002
{
1000
NOSEL
1070
     0
1002
}
1002
{
1000
BEHIND
1070
     0
1002
}
1002
{
1000
REACTOR
1002
}
1001
GENIUS_GENOBJ-N-FIL_13
1002
{
1000
OWNER
1000
GEN
1002
}
  0
ARC
  5
83B
330
1F
100
AcDbEntity
  8
AM_3
100
AcDbCircle
 10
1729.104317366663
 20
741.0392054055878
 30
0.0
 40
2.0
100
AcDbArc
 50
59.99999999999946
 51
149.9999999999891
1001
GENIUS_GENOBJ-N-CEN_13
1002
{
1000
OWNER
1000
GEN
1002
}
1001
GENIUS_GENODEF_13
1002
{
1000
HIER
1070
     0
1002
}
1002
{
1000
MANEDIT
1070
     0
1002
}
1002
{
1000
NOSEL
1070
     0
1002
}
1002
{
1000
BEHIND
1070
     0
1002
}
1002
{
1000
REACTOR
1002
}
1001
GENIUS_GENOBJ-N-FIL_13
1002
{
1000
OWNER
1000
GEN
1002
}
  0
LINE
  5
83C
330
1F
100
AcDbEntity
  8
AM_3
100
AcDbLine
 10
1766.708935136878
 20
707.7811638293897
 30
0.0
 11
1765.708935136878
 21
706.0491130218208
 31
0.0
  0
LINE
  5
83D
330
1F
100
AcDbEntity
  8
AM_3
100
AcDbLine
 10
1773.529260764286
 20
715.3904523762366
 30
0.0
 11
1769.529260764286
 21
708.4622491459608
 31
0.0
  0
ARC
  5
83E
330
1F
100
AcDbEntity
  8
AM_3
100
AcDbCircle
 10
1760.797209956717
 20
697.3378934929789
 30
0.0
 40
2.0
100
AcDbArc
 50
239.9999999999995
 51
329.9999999999891
1001
GENIUS_GENOBJ-N-CEN_13
1002
{
1000
OWNER
1000
GEN
1002
}
1001
GENIUS_GENODEF_13
1002
{
1000
HIER
1070
     0
1002
}
1002
{
1000
MANEDIT
1070
     0
1002
}
1002
{
1000
NOSEL
1070
     0
1002
}
1002
{
1000
BEHIND
1070
     0
1002
}
1002
{
1000
REACTOR
1002
}
1001
GENIUS_GENOBJ-N-FIL_13
1002
{
1000
OWNER
1000
GEN
1002
}
  0
ARC
  5
83F
330
1F
100
AcDbEntity
  8
AM_3
100
AcDbCircle
 10
1771.797209956717
 20
716.3904523762367
 30
0.0
 40
2.0
100
AcDbArc
 50
329.9999999999891
 51
59.99999999999946
1001
GENIUS_GENOBJ-N-CEN_13
1002
{
1000
OWNER
1000
GEN
1002
}
1001
GENIUS_GENODEF_13
1002
{
1000
HIER
1070
     0
1002
}
1002
{
1000
MANEDIT
1070
     0
1002
}
1002
{
1000
NOSEL
1070
     0
1002
}
1002
{
1000
BEHIND
1070
     0
1002
}
1002
{
1000
REACTOR
1002
}
1001
GENIUS_GENOBJ-N-FIL_13
1002
{
1000
OWNER
1000
GEN
1002
}
  0
ARC
  5
840
330
1F
100
AcDbEntity
  8
AM_3
100
AcDbCircle
 10
1767.560538158389
 20
710.4346626739697
 30
0.0
 40
2.786805307953311
100
AcDbArc
 50
252.2066997936561
 51
314.9463418185482
  0
ARC
  5
841
330
1F
100
AcDbEntity
  8
AM_3
100
AcDbCircle
 10
1763.836739239315
 20
703.9848537489606
 30
0.0
 40
2.786805307953311
100
AcDbArc
 50
345.0536581814285
 51
47.7933002062972
  0
LINE
  5
842
330
1F
100
AcDbEntity
  8
AM_3
100
AcDbLine
 10
1767.926007633453
 20
707.6719256457249
 30
0.0
 11
1766.412074427281
 21
705.0497164133708
 31
0.0
  0
ARC
  5
843
330
1F
100
AcDbEntity
  8
AM_3
100
AcDbCircle
 10
1763.466161392598
 20
704.3483867943177
 30
0.0
 40
2.775392306579831
100
AcDbArc
 50
342.3637354700648
 51
39.18552913631482
  0
ARC
  5
844
330
1F
100
AcDbEntity
  8
AM_3
100
AcDbCircle
 10
1767.060420382638
 20
710.5738259806278
 30
0.0
 40
2.77539230657983
100
AcDbArc
 50
260.81447086369
 51
317.6362645299239
  0
LINE
  5
845
330
1F
100
AcDbEntity
  8
AM_3
100
AcDbLine
 10
1766.529260764285
 20
703.2660967232548
 30
0.0
 11
1762.529260764286
 21
696.3378934929798
 31
0.0
  0
LINE
  5
846
330
1F
100
AcDbEntity
  8
AM_3
100
AcDbLine
 10
1767.963583000776
 20
700.1285893171528
 30
0.0
 11
1762.309740439158
 21
703.3928368420588
 31
0.0
1001
GENIUS_GENODEF_13
1002
{
1000
HIER
1070
     0
1002
}
1002
{
1000
MANEDIT
1070
     0
1002
}
1002
{
1000
NOSEL
1070
     0
1002
}
1002
{
1000
BEHIND
1070
     0
1002
}
1002
{
1000
REACTOR
1002
}
1001
GENIUS_GENOBJ-N-CEN_13
1002
{
1000
OWNER
1000
GEN
1002
}
  0
LINE
  5
847
330
1F
100
AcDbEntity
  8
AM_3
100
AcDbLine
 10
1750.607551232298
 20
710.6620119644328
 30
0.0
 11
1755.086180876472
 21
718.4192260564268
 31
0.0
  0
LINE
  5
848
330
1F
100
AcDbEntity
  8
AM_3
100
AcDbLine
 10
1724.555572766078
 20
725.804530700143
 30
0.0
 11
1728.90247796009
 21
733.3335913518567
 31
0.0
  0
ELLIPSE
  5
849
330
1F
100
AcDbEntity
  8
AM_3
100
AcDbEllipse
 10
1726.789566572878
 20
729.6739214773149
 30
0.0
 11
-1.5
 21
-2.598076211353313
 31
0.0
210
0.0
220
0.0
230
1.0
 40
0.9449126231368627
 41
3.141592653589792
 42
6.283185307179584
  0
ELLIPSE
  5
84A
330
1F
100
AcDbEntity
  8
AM_3
100
AcDbEllipse
 10
1752.885453373746
 20
714.6074542080919
 30
0.0
 11
-1.5
 21
-2.598076211353313
 31
0.0
210
0.0
220
0.0
230
1.0
 40
0.9201419238112576
 41
6.283185307179584
 42
9.424777960769381
  0
ELLIPSE
  5
84B
330
1F
100
AcDbEntity
  8
AM_3
100
AcDbEllipse
 10
1726.789566572878
 20
729.6739214773149
 30
0.0
 11
-1.5
 21
-2.598076211353313
 31
0.0
210
0.0
220
0.0
230
1.0
 40
0.630163330965881
 41
3.141592653589792
 42
6.283185307179584
  0
LINE
  5
84C
330
1F
100
AcDbEntity
  8
AM_3
100
AcDbLine
 10
1751.385453373746
 20
712.0093779967387
 30
0.0
 11
1725.289566572878
 21
727.0758452659609
 31
0.0
  0
LINE
  5
84D
330
1F
100
AcDbEntity
  8
AM_3
100
AcDbLine
 10
1754.385453373746
 20
717.2055304194445
 30
0.0
 11
1728.289566572879
 21
732.2719976886676
 31
0.0
  0
LINE
  5
84E
330
1F
100
AcDbEntity
  8
AM_0
 62
     7
100
AcDbLine
 10
903.4712840664596
 20
226.7345961957956
 30
0.0
 11
903.4712840664596
 21
223.7345961957956
 31
0.0
  0
LINE
  5
84F
330
1F
100
AcDbEntity
  8
AM_0
 62
     7
100
AcDbLine
 10
903.4712840664596
 20
226.7345961957956
 30
0.0
 11
878.2161069000332
 21
226.7345961957956
 31
0.0
  0
LINE
  5
850
330
1F
100
AcDbEntity
  8
AM_0
 62
     7
100
AcDbLine
 10
896.9712840664591
 20
226.7345961957956
 30
0.0
 11
896.9712840664591
 21
223.7459867757444
 31
0.0
  0
LINE
  5
851
330
1F
100
AcDbEntity
  8
AM_0
 62
     7
100
AcDbLine
 10
884.9712840664592
 20
226.7345961957956
 30
0.0
 11
884.9712840664592
 21
223.767015538727
 31
0.0
  0
LINE
  5
852
330
1F
100
AcDbEntity
  8
AM_7
 48
2.0
100
AcDbLine
 10
890.9712840664596
 20
232.4064363070681
 30
0.0
 11
890.9712840664596
 21
219.9942646733582
 31
0.0
  0
ARC
  5
853
330
1F
100
AcDbEntity
  8
AM_0
 62
     7
100
AcDbCircle
 10
878.2161069000332
 20
231.7345961957958
 30
0.0
 40
5.0
100
AcDbArc
 50
183.0000000000054
 51
270.0
1001
GENIUS_GENODEF_13
1002
{
1000
HIER
1070
     0
1002
}
1002
{
1000
MANEDIT
1070
     0
1002
}
1002
{
1000
NOSEL
1070
     0
1002
}
1002
{
1000
BEHIND
1070
     0
1002
}
1002
{
1000
REACTOR
1002
}
1001
GENIUS_GENOBJ-N-FIL_13
1002
{
1000
OWNER
1000
GEN
1002
}
  0
ARC
  5
854
330
1F
100
AcDbEntity
  8
AM_0
 62
     7
100
AcDbCircle
 10
862.2878281224897
 20
268.1617442201698
 30
0.0
 40
9.0
100
AcDbArc
 50
3.000000000005424
 51
115.6871964587504
1001
GENIUS_GENODEF_13
1002
{
1000
HIER
1070
     0
1002
}
1002
{
1000
MANEDIT
1070
     0
1002
}
1002
{
1000
NOSEL
1070
     0
1002
}
1002
{
1000
BEHIND
1070
     0
1002
}
1002
{
1000
REACTOR
1002
}
1001
GENIUS_GENOBJ-N-FIL_13
1002
{
1000
OWNER
1000
GEN
1002
}
  0
LINE
  5
855
330
1F
100
AcDbEntity
  8
AM_0
 62
     7
100
AcDbLine
 10
819.2817673404867
 20
259.398244134034
 30
0.0
 11
818.9712840664592
 21
260.3345961957954
 31
0.0
  0
ARC
  5
856
330
1F
100
AcDbEntity
  8
AM_0
 62
     7
100
AcDbCircle
 10
871.165488677922
 20
251.6244705691116
 30
0.0
 40
1.0
100
AcDbArc
 50
183.0000000000054
 51
273.0000000000056
1001
GENIUS_GENODEF_13
1002
{
1000
HIER
1070
     0
1002
}
1002
{
1000
MANEDIT
1070
     0
1002
}
1002
{
1000
NOSEL
1070
     0
1002
}
1002
{
1000
BEHIND
1070
     0
1002
}
1002
{
1000
REACTOR
1002
}
1001
GENIUS_GENOBJ-N-FIL_13
1002
{
1000
OWNER
1000
GEN
1002
}
  0
ARC
  5
857
330
1F
100
AcDbEntity
  8
AM_0
 62
     7
100
AcDbCircle
 10
871.2701605904081
 20
249.6272114996026
 30
0.0
 40
1.0
100
AcDbArc
 50
3.000000000005424
 51
93.00000000000558
1001
GENIUS_GENODEF_13
1002
{
1000
HIER
1070
     0
1002
}
1002
{
1000
MANEDIT
1070
     0
1002
}
1002
{
1000
NOSEL
1070
     0
1002
}
1002
{
1000
BEHIND
1070
     0
1002
}
1002
{
1000
REACTOR
1002
}
1001
GENIUS_GENOBJ-N-FIL_13
1002
{
1000
OWNER
1000
GEN
1002
}
  0
LINE
  5
858
330
1F
100
AcDbEntity
  8
AM_0
 62
     7
100
AcDbLine
 10
870.1668591431667
 20
251.5721346128688
 30
0.0
 11
869.2648024437753
 21
268.7844017940498
 31
0.0
  0
ARC
  5
859
330
1F
100
AcDbEntity
  8
AM_0
 62
     7
100
AcDbCircle
 10
861.9049376132856
 20
276.1535958013499
 30
0.0
 40
1.0
100
AcDbArc
 50
3.98299516096171
 51
95.48589965693897
1001
GENIUS_GENODEF_13
1002
{
1000
HIER
1070
     0
1002
}
1002
{
1000
MANEDIT
1070
     0
1002
}
1002
{
1000
NOSEL
1070
     0
1002
}
1002
{
1000
BEHIND
1070
     0
1002
}
1002
{
1000
REACTOR
1002
}
1001
GENIUS_GENOBJ-N-FIL_13
1002
{
1000
OWNER
1000
GEN
1002
}
  0
ARC
  5
85A
330
1F
100
AcDbEntity
  8
AM_0
 62
     7
100
AcDbCircle
 10
878.2161069000332
 20
231.7345961957958
 30
0.0
 40
3.0
100
AcDbArc
 50
183.0000000000054
 51
270.0
1001
GENIUS_GENODEF_13
1002
{
1000
HIER
1070
     0
1002
}
1002
{
1000
MANEDIT
1070
     0
1002
}
1002
{
1000
NOSEL
1070
     0
1002
}
1002
{
1000
BEHIND
1070
     0
1002
}
1002
{
1000
REACTOR
1002
}
1001
GENIUS_GENOBJ-N-FIL_13
1002
{
1000
OWNER
1000
GEN
1002
}
  0
LINE
  5
85B
330
1F
100
AcDbEntity
  8
AM_0
 62
     7
100
AcDbLine
 10
880.4712840664592
 20
228.7345961957956
 30
0.0
 11
878.2161069000332
 21
228.7345961957956
 31
0.0
  0
LINE
  5
85C
330
1F
100
AcDbEntity
  8
AM_0
 62
     7
100
AcDbLine
 10
875.2202182957697
 20
231.5775883270668
 30
0.0
 11
875.2117450174816
 21
231.7392681082815
 31
0.0
  0
ARC
  5
85D
330
1F
100
AcDbEntity
  8
AM_0
 62
     7
100
AcDbCircle
 10
880.4712840664592
 20
226.7345961957956
 30
0.0
 40
2.0
100
AcDbArc
 50
0.0
 51
90.0
1001
GENIUS_GENODEF_13
1002
{
1000
HIER
1070
     0
1002
}
1002
{
1000
MANEDIT
1070
     0
1002
}
1002
{
1000
NOSEL
1070
     0
1002
}
1002
{
1000
BEHIND
1070
     0
1002
}
1002
{
1000
REACTOR
1002
}
1001
GENIUS_GENOBJ-N-FIL_13
1002
{
1000
OWNER
1000
GEN
1002
}
  0
LINE
  5
85E
330
1F
100
AcDbEntity
  8
AM_0
 62
     7
100
AcDbLine
 10
873.109670389406
 20
235.6345961957956
 30
0.0
 11
873.0048548308399
 21
235.6345961957956
 31
0.0
  0
LINE
  5
85F
330
1F
100
AcDbEntity
  8
AM_0
 62
     7
100
AcDbLine
 10
875.2202182957697
 20
231.5775883270668
 30
0.0
 11
875.1069294589147
 21
233.7392681082815
 31
0.0
  0
ARC
  5
860
330
1F
100
AcDbEntity
  8
AM_0
 62
     7
100
AcDbCircle
 10
873.109670389406
 20
233.6345961957954
 30
0.0
 40
2.0
100
AcDbArc
 50
3.000000000005424
 51
90.0
1001
GENIUS_GENODEF_13
1002
{
1000
HIER
1070
     0
1002
}
1002
{
1000
MANEDIT
1070
     0
1002
}
1002
{
1000
NOSEL
1070
     0
1002
}
1002
{
1000
BEHIND
1070
     0
1002
}
1002
{
1000
REACTOR
1002
}
1001
GENIUS_GENOBJ-N-FIL_13
1002
{
1000
OWNER
1000
GEN
1002
}
  0
ARC
  5
861
330
1F
100
AcDbEntity
  8
AM_0
 62
     7
100
AcDbCircle
 10
862.2743957004935
 20
268.4180501003488
 30
0.0
 40
7.0
100
AcDbArc
 50
3.000000000005424
 51
78.260165295431
1001
GENIUS_GENODEF_13
1002
{
1000
HIER
1070
     0
1002
}
1002
{
1000
MANEDIT
1070
     0
1002
}
1002
{
1000
NOSEL
1070
     0
1002
}
1002
{
1000
BEHIND
1070
     0
1002
}
1002
{
1000
REACTOR
1002
}
1001
GENIUS_GENOBJ-N-FIL_13
1002
{
1000
OWNER
1000
GEN
1002
}
  0
ARC
  5
862
330
1F
100
AcDbEntity
  8
AM_0
 62
     7
100
AcDbCircle
 10
863.9021400826445
 20
276.2507027944479
 30
0.0
 40
1.0
100
AcDbArc
 50
181.5842347761325
 51
258.260165295431
1001
GENIUS_GENODEF_13
1002
{
1000
HIER
1070
     0
1002
}
1002
{
1000
MANEDIT
1070
     0
1002
}
1002
{
1000
NOSEL
1070
     0
1002
}
1002
{
1000
BEHIND
1070
     0
1002
}
1002
{
1000
REACTOR
1002
}
1001
GENIUS_GENOBJ-N-FIL_13
1002
{
1000
OWNER
1000
GEN
1002
}
  0
LINE
  5
863
330
1F
100
AcDbEntity
  8
AM_0
 62
     7
100
AcDbLine
 10
818.9712840664592
 20
260.3345961957954
 30
0.0
 11
819.9327870912563
 21
257.4891432404455
 31
0.0
  0
ARC
  5
864
330
1F
100
AcDbEntity
  8
AM_0
 62
     7
100
AcDbCircle
 10
714.4787471267912
 20
575.4620461647118
 30
0.0
 40
335.0
100
AcDbArc
 50
288.3449107207517
 51
295.6796560151635
  0
HATCH
  5
865
330
1F
100
AcDbEntity
  8
AM_0
 62
     7
100
AcDbHatch
 10
0.0
 20
0.0
 30
0.0
210
0.0
220
0.0
230
1.0
  2
_U
 70
     0
 71
     0
 91
        1
 92
        1
 93
        4
 72
     1
 10
820.3939861583865
 20
260.8099173925076
 11
821.3382053804359
 21
257.9623513904692
 72
     2
 10
714.4787471267814
 20
575.4620461647427
 40
335.0000000000328
 50
71.39854015553144
 51
71.65217304666615
 73
     0
 72
     1
 10
819.9316778476337
 20
257.4924259139951
 11
818.9712840664597
 21
260.3345961957954
 72
     2
 10
714.4787471267849
 20
575.4620461647118
 40
332.0000000000017
 50
288.344910720729
 51
288.6037780751467
 73
     1
 97
        0
 75
     0
 76
     0
 52
45.0
 41
1.5
 77
     0
 78
     1
 53
135.0
 43
957.2515668307364
 44
99.79523263124645
 45
1.060660171779819
 46
1.060660171779819
 79
     0
 98
        1
 10
957.2515668307364
 20
99.79523263124645
1001
GENIUS_GENODEF_13
1002
{
1000
HIER
1070
     0
1002
}
1002
{
1000
MANEDIT
1070
     0
1002
}
1002
{
1000
NOSEL
1070
     0
1002
}
1002
{
1000
BEHIND
1070
     0
1002
}
1002
{
1000
REACTOR
1002
}
1001
GENIUS_GENOBJ-N-HTC_13
1002
{
1000
OWNER
1000
GEN
1002
}
1001
GENIUS_GENHATCH_13
1002
{
1000
DATA
1040
45.0
1042
-2.5
1000
_U
1070
     0
1011
821.5370302768857
1021
279.0257977117619
1031
0.0
1002
}
1002
{
1000
UCS
1010
0.0
1020
0.0
1030
0.0
1010
1.0
1020
0.0
1030
0.0
1010
0.0
1020
1.0
1030
0.0
1002
}
  0
ARC
  5
866
330
1F
100
AcDbEntity
  8
AM_0
 62
     7
100
AcDbCircle
 10
862.6784376402378
 20
274.1490160700729
 30
0.0
 40
2.0
100
AcDbArc
 50
210.0125042291891
 51
266.2673140375843
1001
GENIUS_GENODEF_13
1002
{
1000
HIER
1070
     0
1002
}
1002
{
1000
MANEDIT
1070
     0
1002
}
1002
{
1000
NOSEL
1070
     0
1002
}
1002
{
1000
BEHIND
1070
     0
1002
}
1002
{
1000
REACTOR
1002
}
1001
GENIUS_GENOBJ-N-FIL_13
1002
{
1000
OWNER
1000
GEN
1002
}
  0
ARC
  5
867
330
1F
100
AcDbEntity
  8
AM_0
 62
     7
100
AcDbCircle
 10
862.2878281224906
 20
268.1617442201698
 30
0.0
 40
4.0
100
AcDbArc
 50
3.000000000005424
 51
86.26731403758427
1001
GENIUS_GENODEF_13
1002
{
1000
HIER
1070
     0
1002
}
1002
{
1000
MANEDIT
1070
     0
1002
}
1002
{
1000
NOSEL
1070
     0
1002
}
1002
{
1000
BEHIND
1070
     0
1002
}
1002
{
1000
REACTOR
1002
}
1001
GENIUS_GENOBJ-N-FIL_13
1002
{
1000
OWNER
1000
GEN
1002
}
  0
LINE
  5
868
330
1F
100
AcDbEntity
  8
AM_0
 62
     7
100
AcDbLine
 10
867.2756424513897
 20
249.4178676746311
 30
0.0
 11
866.2823462615094
 21
268.3710880451418
 31
0.0
  0
ARC
  5
869
330
1F
100
AcDbEntity
  8
AM_0
 62
     7
100
AcDbCircle
 10
860.0806888507083
 20
272.6484491017249
 30
0.0
 40
1.0
100
AcDbArc
 50
30.01250422918911
 51
115.6796560151635
1001
GENIUS_GENODEF_13
1002
{
1000
HIER
1070
     0
1002
}
1002
{
1000
MANEDIT
1070
     0
1002
}
1002
{
1000
NOSEL
1070
     0
1002
}
1002
{
1000
BEHIND
1070
     0
1002
}
1002
{
1000
REACTOR
1002
}
1001
GENIUS_GENOBJ-N-FIL_13
1002
{
1000
OWNER
1000
GEN
1002
}
  0
ARC
  5
86A
330
1F
100
AcDbEntity
  8
AM_0
 62
     7
100
AcDbCircle
 10
869.2729015208984
 20
249.5225395871169
 30
0.0
 40
2.0
100
AcDbArc
 50
183.0000000000054
 51
253.5287793655097
1001
GENIUS_GENODEF_13
1002
{
1000
HIER
1070
     0
1002
}
1002
{
1000
MANEDIT
1070
     0
1002
}
1002
{
1000
NOSEL
1070
     0
1002
}
1002
{
1000
BEHIND
1070
     0
1002
}
1002
{
1000
REACTOR
1002
}
1001
GENIUS_GENOBJ-N-FIL_13
1002
{
1000
OWNER
1000
GEN
1002
}
  0
LINE
  5
86B
330
1F
100
AcDbEntity
  8
AM_0
 62
     7
100
AcDbLine
 10
870.2270706219964
 20
231.315908545852
 30
0.0
 11
869.4209299591351
 21
246.6979887234442
 31
0.0
  0
ARC
  5
86C
330
1F
100
AcDbEntity
  8
AM_0
 62
     7
100
AcDbCircle
 10
868.4223004243809
 20
246.6456527672012
 30
0.0
 40
1.0
100
AcDbArc
 50
3.000000000005424
 51
73.52877936550965
1001
GENIUS_GENODEF_13
1002
{
1000
HIER
1070
     0
1002
}
1002
{
1000
MANEDIT
1070
     0
1002
}
1002
{
1000
NOSEL
1070
     0
1002
}
1002
{
1000
BEHIND
1070
     0
1002
}
1002
{
1000
REACTOR
1002
}
1001
GENIUS_GENOBJ-N-FIL_13
1002
{
1000
OWNER
1000
GEN
1002
}
  0
ARC
  5
86D
330
1F
100
AcDbEntity
  8
AM_0
 62
     7
100
AcDbCircle
 10
878.2161069000332
 20
231.7345961957956
 30
0.0
 40
8.0
100
AcDbArc
 50
183.0000000000054
 51
263.8692178258902
1001
GENIUS_GENODEF_13
1002
{
1000
HIER
1070
     0
1002
}
1002
{
1000
MANEDIT
1070
     0
1002
}
1002
{
1000
NOSEL
1070
     0
1002
}
1002
{
1000
BEHIND
1070
     0
1002
}
1002
{
1000
REACTOR
1002
}
1001
GENIUS_GENOBJ-N-FIL_13
1002
{
1000
OWNER
1000
GEN
1002
}
  0
LINE
  5
86E
330
1F
100
AcDbEntity
  8
AM_0
 62
     7
100
AcDbLine
 10
903.4712840664596
 20
223.7345961957956
 30
0.0
 11
877.3617207854528
 21
223.7803505139468
 31
0.0
  0
HATCH
  5
86F
330
1F
100
AcDbEntity
  8
AM_0
 62
     7
100
AcDbHatch
 10
0.0
 20
0.0
 30
0.0
210
0.0
220
0.0
230
1.0
  2
_U
 70
     0
 71
     0
 91
        1
 92
        1
 93
        4
 72
     1
 10
903.4712840664596
 20
223.7345961957956
 11
896.9712840664591
 21
223.7459867757444
 72
     1
 10
896.9712840664591
 20
223.7459867757444
 11
896.9712840664591
 21
226.7345961957956
 72
     1
 10
896.9712840664591
 20
226.7345961957956
 11
903.4712840664596
 21
226.7345961957956
 72
     1
 10
903.4712840664596
 20
226.7345961957956
 11
903.4712840664596
 21
223.7345961957956
 97
        0
 75
     0
 76
     0
 52
45.0
 41
1.5
 77
     0
 78
     1
 53
135.0
 43
957.2515668307364
 44
99.79523263124645
 45
1.060660171779819
 46
1.060660171779819
 79
     0
 98
        1
 10
957.2515668307364
 20
99.79523263124645
1001
GENIUS_GENODEF_13
1002
{
1000
HIER
1070
     0
1002
}
1002
{
1000
MANEDIT
1070
     0
1002
}
1002
{
1000
NOSEL
1070
     0
1002
}
1002
{
1000
BEHIND
1070
     0
1002
}
1002
{
1000
REACTOR
1002
}
1001
GENIUS_GENOBJ-N-HTC_13
1002
{
1000
OWNER
1000
GEN
1002
}
1001
GENIUS_GENHATCH_13
1002
{
1000
DATA
1040
45.0
1042
-2.5
1000
_U
1070
     0
1011
900.5030752931658
1021
245.7839757868787
1031
0.0
1002
}
1002
{
1000
UCS
1010
0.0
1020
0.0
1030
0.0
1010
1.0
1020
0.0
1030
0.0
1010
0.0
1020
1.0
1030
0.0
1002
}
  0
HATCH
  5
870
330
1F
100
AcDbEntity
  8
AM_0
 62
     7
100
AcDbHatch
 10
0.0
 20
0.0
 30
0.0
210
0.0
220
0.0
230
1.0
  2
_U
 70
     0
 71
     0
 91
        1
 92
        1
 93
       23
 72
     1
 10
858.4942596160733
 20
272.9979455470529
 11
857.5426533496274
 21
275.8677893167819
 72
     2
 10
714.4787471267769
 20
575.4620461647427
 40
332.0000000000344
 50
295.5256665021863
 51
295.6871964587129
 73
     1
 72
     2
 10
862.2878281224906
 20
268.1617442201698
 40
8.999999999999914
 50
-115.6871964587034
 51
-92.43829259288995
 73
     0
 72
     2
 10
861.9049376132856
 20
276.1535958013499
 40
0.9999999999999998
 50
-90.00000000006105
 51
-3.982995160964785
 73
     0
 72
     2
 10
863.9021400826445
 20
276.2507027944479
 40
0.9999999999999575
 50
181.5842347761472
 51
258.2601652954445
 73
     1
 72
     2
 10
862.2743957004935
 20
268.4180501003488
 40
6.999999999999928
 50
-78.26016529544141
 51
-2.999999999999813
 73
     0
 72
     1
 10
869.2648024437753
 20
268.7844017940498
 11
870.1668591431674
 21
251.5721346128688
 72
     2
 10
871.165488677922
 20
251.6244705691116
 40
0.9999999999999326
 50
182.999999999996
 51
273.0000000000033
 73
     1
 72
     2
 10
871.2701605904081
 20
249.6272114996026
 40
0.9999999999999971
 50
-92.9999999999991
 51
-3.000000000002356
 73
     0
 72
     1
 10
872.2687901251626
 20
249.6795474558457
 11
873.2229592262608
 21
231.4729164145808
 72
     2
 10
878.2161069000332
 20
231.7345961957956
 40
4.999999999999943
 50
182.9999999999997
 51
270.0000000000005
 73
     1
 72
     1
 10
878.2161069000332
 20
226.7345961957956
 11
884.9712840664592
 21
226.7345961957956
 72
     1
 10
884.9712840664592
 20
226.7345961957956
 11
884.9712840664592
 21
223.767015538727
 72
     1
 10
884.9712840664592
 20
223.767015538727
 11
877.3617207854528
 21
223.7803505139468
 72
     2
 10
878.2161069000332
 20
231.7345961957956
 40
8.000000000000026
 50
96.13078217411135
 51
177.0000000000001
 73
     0
 72
     1
 10
870.2270706219964
 20
231.315908545852
 11
869.4209299591351
 21
246.6979887234442
 72
     2
 10
868.4223004243809
 20
246.6456527672012
 40
1.000000000000017
 50
363.0000000000006
 51
433.5287793655104
 73
     1
 72
     2
 10
869.2729015208984
 20
249.5225395871169
 40
2.000000000000044
 50
106.4712206344913
 51
176.9999999999994
 73
     0
 72
     1
 10
867.2756424513897
 20
249.4178676746311
 11
866.282346261509
 21
268.3710880451418
 72
     2
 10
862.2878281224906
 20
268.1617442201698
 40
4.000000000000006
 50
362.9999999999999
 51
446.267314037591
 73
     1
 72
     2
 10
862.6784376402378
 20
274.1490160700738
 40
2.000000000000026
 50
93.73268596240869
 51
149.9874957708012
 73
     0
 72
     2
 10
860.0806888507083
 20
272.6484491017249
 40
0.9999999999999291
 50
390.0125042291952
 51
475.6796560151705
 73
     1
 72
     2
 10
714.4787471268095
 20
575.4620461646777
 40
334.9999999999615
 50
64.32034398484194
 51
64.53897300460837
 73
     0
 97
        0
 75
     0
 76
     0
 52
45.0
 41
1.5
 77
     0
 78
     1
 53
135.0
 43
957.2515668307364
 44
99.79523263124645
 45
1.060660171779819
 46
1.060660171779819
 79
     0
 98
        1
 10
957.2515668307364
 20
99.79523263124645
1001
GENIUS_GENODEF_13
1002
{
1000
HIER
1070
     0
1002
}
1002
{
1000
MANEDIT
1070
     0
1002
}
1002
{
1000
NOSEL
1070
     0
1002
}
1002
{
1000
BEHIND
1070
     0
1002
}
1002
{
1000
REACTOR
1002
}
1001
GENIUS_GENOBJ-N-HTC_13
1002
{
1000
OWNER
1000
GEN
1002
}
1001
GENIUS_GENHATCH_13
1002
{
1000
DATA
1040
45.0
1042
-2.5
1000
_U
1070
     0
1011
868.7692448277182
1021
277.2293800737568
1031
0.0
1002
}
1002
{
1000
UCS
1010
0.0
1020
0.0
1030
0.0
1010
1.0
1020
0.0
1030
0.0
1010
0.0
1020
1.0
1030
0.0
1002
}
  0
ARC
  5
871
330
1F
100
AcDbEntity
  8
AM_0
 62
     7
100
AcDbCircle
 10
714.4787471267912
 20
575.4620461647118
 30
0.0
 40
340.0
100
AcDbArc
 50
288.8549689072958
 51
295.6871964587505
  0
LINE
  5
872
330
1F
100
AcDbEntity
  8
AM_0
 62
     7
100
AcDbLine
 10
865.1769291331881
 20
234.5133999446606
 30
0.0
 11
863.2868350460645
 21
268.2071118034897
 31
0.0
  0
ARC
  5
873
330
1F
100
AcDbEntity
  8
AM_0
 62
     7
100
AcDbCircle
 10
862.2878281224906
 20
268.1617442201698
 30
0.0
 40
1.0
100
AcDbArc
 50
3.000000000005424
 51
115.6871964587504
1001
GENIUS_GENODEF_13
1002
{
1000
HIER
1070
     0
1002
}
1002
{
1000
MANEDIT
1070
     0
1002
}
1002
{
1000
NOSEL
1070
     0
1002
}
1002
{
1000
BEHIND
1070
     0
1002
}
1002
{
1000
REACTOR
1002
}
1001
GENIUS_GENOBJ-N-FIL_13
1002
{
1000
OWNER
1000
GEN
1002
}
  0
ARC
  5
874
330
1F
100
AcDbEntity
  8
AM_0
 62
     7
100
AcDbCircle
 10
823.3883012532739
 20
256.5455852851101
 30
0.0
 40
3.0
100
AcDbArc
 50
198.3449107207316
 51
288.8549689072958
1001
GENIUS_GENODEF_13
1002
{
1000
HIER
1070
     0
1002
}
1002
{
1000
MANEDIT
1070
     0
1002
}
1002
{
1000
NOSEL
1070
     0
1002
}
1002
{
1000
BEHIND
1070
     0
1002
}
1002
{
1000
REACTOR
1002
}
1001
GENIUS_GENOBJ-N-FIL_13
1002
{
1000
OWNER
1000
GEN
1002
}
  0
ARC
  5
875
330
1F
100
AcDbEntity
  8
AM_0
 62
     7
100
AcDbCircle
 10
876.94852607835
 20
235.5942397768529
 30
0.0
 40
11.82111286563938
100
AcDbArc
 50
185.2460519851589
 51
272.0031224262277
  0
POINT
  5
876
330
1F
100
AcDbEntity
  8
AM_0
  6
ByBlock
 62
     7
380
     1
100
AcDbPoint
 10
843.6202160274801
 20
269.6083540010038
 30
0.0
 50
180.0
  0
ARC
  5
877
330
1F
100
AcDbEntity
  8
AM_0
 62
     7
100
AcDbCircle
 10
714.4787471267912
 20
575.4620461647118
 30
0.0
 40
332.0
100
AcDbArc
 50
288.3449107207517
 51
295.6871964587505
  0
LINE
  5
878
330
1F
100
AcDbEntity
  8
AM_0
 62
     7
100
AcDbLine
 10
857.542653349628
 20
275.8677893167819
 30
0.0
 11
858.4942596160733
 21
272.9979455470529
 31
0.0
  0
LINE
  5
879
330
1F
100
AcDbEntity
  8
AM_0
 62
     7
100
AcDbLine
 10
820.3939861583865
 20
260.8099173925076
 30
0.0
 11
821.3382053804359
 21
257.9623513904692
 31
0.0
  0
LINE
  5
87A
330
1F
100
AcDbEntity
  8
AM_0
 62
     7
100
AcDbLine
 10
820.5407640547587
 20
255.6013756139686
 30
0.0
 11
819.9327870912563
 21
257.4891432404455
 31
0.0
  0
LINE
  5
87B
330
1F
100
AcDbEntity
  8
AM_0
 62
     7
100
AcDbLine
 10
871.2754939352812
 20
268.6327678263558
 30
0.0
 11
873.2229592262607
 21
231.4729164145808
 31
0.0
  0
LINE
  5
87C
330
1F
100
AcDbEntity
  8
AM_7
 48
2.0
100
AcDbLine
 10
1574.214935213846
 20
817.7629259639589
 30
0.0
 11
1364.106804767786
 21
696.6808829798447
 31
0.0
  0
LINE
  5
87D
330
1F
100
AcDbEntity
  8
AM_7
 48
2.0
100
AcDbLine
 10
1574.214935213846
 20
817.7629259639589
 30
0.0
 11
1784.226095631574
 21
696.5129259639597
 31
0.0
  0
LINE
  5
87E
330
1F
100
AcDbEntity
  8
AM_0
 62
     7
100
AcDbLine
 10
652.2848171230418
 20
1101.617313452463
 30
0.0
 11
652.2848171230418
 21
1100.544223374913
 31
0.0
  0
LINE
  5
87F
330
1F
100
AcDbEntity
  8
AM_0
 62
     7
100
AcDbLine
 10
644.6577588791971
 20
1101.617313452463
 30
0.0
 11
644.6577588791971
 21
1100.544223374913
 31
0.0
  0
LINE
  5
880
330
1F
100
AcDbEntity
  8
0
100
AcDbLine
 10
333.2212840664594
 20
671.0853938994607
 30
0.0
 11
965.4712840664592
 21
671.0853938994607
 31
0.0
  0
LINE
  5
881
330
1F
100
AcDbEntity
  8
0
 62
     2
100
AcDbLine
 10
336.7994533437927
 20
635.0439429104946
 30
0.0
 11
959.8594222513021
 21
635.0439429104946
 31
0.0
  0
LINE
  5
882
330
1F
100
AcDbEntity
  8
0
 62
     2
100
AcDbLine
 10
336.7994533437927
 20
625.0922042605609
 30
0.0
 11
959.8594222513021
 21
625.0922042605609
 31
0.0
  0
LINE
  5
883
330
1F
100
AcDbEntity
  8
AM_0
 62
     7
100
AcDbLine
 10
989.4727311362755
 20
444.7335985860527
 30
0.0
 11
989.4727311362755
 21
412.7355938055377
 31
0.0
  0
HATCH
  5
884
330
1F
100
AcDbEntity
  8
4
100
AcDbHatch
 10
0.0
 20
0.0
 30
0.0
210
0.0
220
0.0
230
1.0
  2
SOLID
 70
     1
 71
     0
 91
        8
 92
        7
 72
     0
 73
     1
 93
       23
 10
1500.194311492795
 20
338.8661234881838
 10
1500.355827543758
 20
339.7544617684698
 10
1500.678859645683
 20
340.4005259723149
 10
1501.163407798564
 20
340.8850741251967
 10
1501.647955951449
 20
341.2888642526027
 10
1502.617052257215
 20
341.5311383290448
 10
1503.101600410103
 20
341.6118963545248
 10
1503.98993869039
 20
341.6118963545259
 10
1503.98993869039
 20
348.3032756086377
 10
1501.082649773083
 20
348.3032756086377
 10
1499.467489263476
 20
348.22251758316
 10
1498.094602830301
 20
348.0610015321968
 10
1496.963990473562
 20
347.6572114047958
 10
1495.914136142324
 20
347.2534212773898
 10
1495.11809274829
 20
346.6881150990307
 10
1494.391270518976
 20
346.1228089206648
 10
1493.82596434061
 20
345.4767447168158
 10
1493.341416187722
 20
344.8306805129689
 10
1492.77611000936
 20
343.4693309405798
 10
1492.453077907436
 20
342.338718583854
 10
1492.372319881956
 20
341.288864252608
 10
1492.372319881956
 20
322.8068132783119
 10
1500.194311492798
 20
322.8068132783119
 97
        0
 92
        7
 72
     0
 73
     1
 93
       54
 10
1528.921094842353
 20
340.1582518958737
 10
1528.194272613029
 20
341.7734124054878
 10
1527.144418281779
 20
343.3885729151027
 10
1525.933047899572
 20
344.749922487488
 10
1524.398645415439
 20
346.0420508951799
 10
1522.702726880345
 20
347.0919052264287
 10
1520.845292294286
 20
347.8994854812358
 10
1518.837878518051
 20
348.4647916596009
 10
1516.738169855552
 20
348.6263077105618
 10
1515.203767371425
 20
348.5455496850807
 10
1513.830880938247
 20
348.3032756086409
 10
1512.538752530558
 20
347.9802435067167
 10
1511.327382148351
 20
347.495695353832
 10
1510.196769791623
 20
346.9303891754657
 10
1509.227673485852
 20
346.2843249716239
 10
1508.339335205565
 20
345.4767447168149
 10
1507.450996925278
 20
344.669164462013
 10
1506.735711556735
 20
343.792363042508
 10
1506.170405378373
 20
342.8232667367358
 10
1505.605099200003
 20
341.7734124054839
 10
1505.201309072602
 20
340.7235580742419
 10
1504.636002894236
 20
338.5430913862599
 10
1504.393728817794
 20
336.2818666728049
 10
1504.474486843276
 20
334.585948137712
 10
1504.716760919716
 20
333.063082514356
 10
1505.120551047119
 20
331.6094380557079
 10
1505.685857225485
 20
330.2365516225298
 10
1506.331921429333
 20
329.0251812403208
 10
1507.058743658655
 20
327.8945688835968
 10
1507.935545078156
 20
326.8447145523478
 10
1508.904641383927
 20
325.8756182465759
 10
1510.035253740656
 20
325.0680379917708
 10
1511.165866097378
 20
324.4219737879298
 10
1512.3772364796
 20
323.7759095840788
 10
1513.588606861808
 20
323.2913614311938
 10
1514.961493294989
 20
322.9683293292687
 10
1516.253621702669
 20
322.6452972273489
 10
1517.626508135837
 20
322.4837811763889
 10
1518.987857708236
 20
322.4837811763889
 10
1520.845292294286
 20
322.5645392018698
 10
1522.541210829381
 20
322.8068132783119
 10
1523.994855288036
 20
323.129845380234
 10
1525.286983695726
 20
323.5336355076388
 10
1527.063660256295
 20
324.3412157624439
 10
1527.628966434661
 20
324.6642478643669
 10
1527.628966434661
 20
332.578534361473
 10
1525.852289874084
 20
331.3671639792638
 10
1524.075613313514
 20
330.3980676734948
 10
1522.05666267649
 20
329.6712454441668
 10
1521.087566370727
 20
329.4289713677269
 10
1520.118470064963
 20
329.3482133422458
 10
1518.514846416131
 20
329.3482133422458
 10
1517.384234059403
 20
329.5904874186867
 10
1516.899685906514
 20
329.6712454441679
 97
        0
 92
       22
 72
     0
 73
     1
 93
       15
 10
1512.054204377677
 20
334.3436740612637
 10
1511.811930301234
 20
334.9089802396288
 10
1511.650414250277
 20
335.5550444434568
 10
1511.488898199309
 20
336.3626246982817
 10
1511.569656224794
 20
337.3317210040498
 10
1511.811930301234
 20
338.3815753352999
 10
1512.3772364796
 20
339.5121876920298
 10
1513.346332785367
 20
340.6428000487579
 10
1514.476945142095
 20
341.4503803035629
 10
1515.688315524304
 20
341.8541704309678
 10
1516.818927881036
 20
341.9349284564487
 10
1517.788024186804
 20
341.7734124054878
 10
1518.676362467091
 20
341.5311383290459
 10
1519.310889810153
 20
341.2081062271227
 10
1519.876195988518
 20
340.8850741252008
 97
        0
 92
        7
 72
     0
 73
     1
 93
       27
 10
1538.439004988293
 20
340.1582518958737
 10
1541.911600083961
 20
340.1582518958737
 10
1541.911600083961
 20
346.2035669461418
 10
1538.439004988293
 20
346.2035669461418
 10
1538.439004988293
 20
348.8685817870028
 10
1538.600521039249
 20
349.7569200672908
 10
1538.923553141176
 20
350.4029842711377
 10
1539.408101294063
 20
350.8875324240198
 10
1539.892649446943
 20
351.2913225514249
 10
1540.94250377819
 20
351.5335966278658
 10
1541.346293905594
 20
351.6143546533467
 10
1542.223095325101
 20
351.6143546533467
 10
1542.223095325101
 20
357.8211857545757
 10
1539.327343268579
 20
357.8211857545769
 10
1537.792940784445
 20
357.7404277290948
 10
1536.420054351277
 20
357.498153652653
 10
1535.208683969075
 20
357.0943635252538
 10
1534.158829637815
 20
356.6905733978467
 10
1533.351249383007
 20
356.1252672194828
 10
1532.624427153682
 20
355.5714979019028
 10
1532.059120975316
 20
354.9254336980548
 10
1531.655330847917
 20
354.2793694942138
 10
1531.009266644069
 20
352.9872410865207
 10
1530.686234542147
 20
351.775870704307
 10
1530.605476516665
 20
350.7260163730518
 10
1530.605476516665
 20
322.8875713037917
 10
1538.439004988293
 20
322.8875713037917
 97
        0
 92
        7
 72
     0
 73
     1
 93
        4
 10
1552.963912714028
 20
357.8211857545757
 10
1544.807352140483
 20
357.8211857545769
 10
1544.807352140483
 20
322.8875713037917
 10
1552.963912714028
 20
322.8875713037917
 97
        0
 92
        7
 72
     0
 73
     1
 93
       54
 10
1579.660208565784
 20
340.1582518958737
 10
1578.93338633646
 20
341.7734124054878
 10
1577.88353200521
 20
343.3885729151009
 10
1576.672161623003
 20
344.7499224874889
 10
1575.149295999648
 20
346.0420508951818
 10
1573.453377464557
 20
347.0919052264287
 10
1571.595942878498
 20
347.8994854812358
 10
1569.576992241483
 20
348.4647916596009
 10
1567.477283578983
 20
348.6263077105609
 10
1565.942881094857
 20
348.5455496850828
 10
1564.581531522462
 20
348.3032756086398
 10
1563.289403114777
 20
347.9802435067159
 10
1562.078032732559
 20
347.495695353832
 10
1560.94742037583
 20
346.9303891754657
 10
1559.978324070059
 20
346.2843249716197
 10
1559.089985789777
 20
345.4767447168149
 10
1558.20164750949
 20
344.6691644620087
 10
1557.55558330565
 20
343.7923630425048
 10
1556.909519101805
 20
342.8232667367379
 10
1556.344212923433
 20
341.7734124054889
 10
1555.940422796031
 20
340.7235580742408
 10
1555.375116617667
 20
338.543091386262
 10
1555.132842541226
 20
336.2818666728008
 10
1555.213600566704
 20
334.5859481377088
 10
1555.455874643146
 20
333.0630825143587
 10
1555.85966477055
 20
331.6094380557079
 10
1556.424970948917
 20
330.2365516225327
 10
1557.071035152769
 20
329.0251812403119
 10
1557.79785738209
 20
327.8945688835927
 10
1558.686195662373
 20
326.8447145523457
 10
1559.736049993623
 20
325.8756182465779
 10
1560.785904324873
 20
325.0680379917699
 10
1561.916516681602
 20
324.4219737879248
 10
1563.127887063813
 20
323.7759095840788
 10
1564.33925744602
 20
323.2913614311938
 10
1565.70060701842
 20
322.9683293292687
 10
1566.992735426101
 20
322.6452972273498
 10
1568.365621859276
 20
322.4837811763889
 10
1569.738508292441
 20
322.4837811763889
 10
1571.595942878498
 20
322.5645392018689
 10
1573.2918614136
 20
322.8068132783119
 10
1574.826263897726
 20
323.1298453802328
 10
1576.037634279942
 20
323.5336355076368
 10
1577.802773979727
 20
324.3412157624439
 10
1578.368080158093
 20
324.6642478643669
 10
1578.368080158093
 20
332.5785343614719
 10
1576.591403597519
 20
331.3671639792649
 10
1574.826263897726
 20
330.3980676734937
 10
1572.80731326071
 20
329.6712454441679
 10
1571.838216954942
 20
329.4289713677269
 10
1570.869120649174
 20
329.3482133422458
 10
1569.25396013956
 20
329.3482133422458
 10
1568.123347782829
 20
329.5904874186879
 10
1567.638799629947
 20
329.6712454441679
 97
        0
 92
       22
 72
     0
 73
     1
 93
       15
 10
1562.239548783526
 20
336.3626246982817
 10
1562.320306809005
 20
337.3317210040489
 10
1562.562580885446
 20
338.3815753352978
 10
1563.12788706381
 20
339.5121876920248
 10
1564.096983369579
 20
340.6428000487567
 10
1565.216058865527
 20
341.4503803035648
 10
1566.42742924774
 20
341.8541704309689
 10
1567.558041604468
 20
341.9349284564487
 10
1568.527137910233
 20
341.7734124054878
 10
1569.41547619052
 20
341.5311383290459
 10
1570.061540394371
 20
341.2081062271198
 10
1570.626846572732
 20
340.8850741252008
 10
1562.804854961888
 20
334.3436740612647
 10
1562.562580885446
 20
334.9089802396268
 10
1562.401064834489
 20
335.5550444434598
 97
        0
 92
        7
 72
     0
 73
     1
 93
       66
 10
1600.391947392754
 20
335.5550444434748
 10
1599.745883188902
 20
335.9588345708798
 10
1599.192113871327
 20
336.2818666728008
 10
1600.311189367272
 20
337.0086889021268
 10
1601.118769622078
 20
337.9777852078898
 10
1601.764833825926
 20
339.0276395391449
 10
1602.168623953327
 20
340.0774938703937
 10
1602.491656055254
 20
341.8541704309657
 10
1602.491656055254
 20
342.6617506857738
 10
1602.491656055254
 20
348.0610015321968
 10
1594.911938520849
 20
348.0610015321968
 10
1594.911938520849
 20
343.4693309405859
 10
1594.831180495371
 20
342.9040247622188
 10
1594.508148393448
 20
341.7734124054898
 10
1594.185116291525
 20
341.2081062271227
 10
1593.619810113158
 20
340.6428000487567
 10
1592.81222985835
 20
340.239009921354
 10
1591.843133552584
 20
340.1582518958737
 10
1590.874037246816
 20
340.2390099213548
 10
1590.066456992011
 20
340.6428000487579
 10
1589.581908839125
 20
341.1273482016418
 10
1589.258876737202
 20
341.7734124054878
 10
1589.016602660761
 20
342.9040247622188
 10
1589.016602660761
 20
343.3885729151009
 10
1589.016602660761
 20
348.0610015321968
 10
1581.275369075398
 20
348.0610015321968
 10
1581.2753690754
 20
342.5809926602919
 10
1581.436885126358
 20
340.8850741252018
 10
1581.840675253762
 20
339.5929457175118
 10
1582.32522340665
 20
338.4623333607779
 10
1582.97128761049
 20
337.6547531059769
 10
1583.617351814341
 20
337.0086889021259
 10
1584.101899967224
 20
336.6048987747229
 10
1584.667206145585
 20
336.2818666728008
 10
1583.940383916262
 20
335.9588345708798
 10
1583.3750777379
 20
335.5550444434757
 10
1582.486739457608
 20
334.5859481377108
 10
1581.759917228283
 20
333.4553357809769
 10
1581.35612710088
 20
332.3362602850318
 10
1581.033094998959
 20
331.2864059537849
 10
1580.871578947997
 20
330.3980676734918
 10
1580.790820922515
 20
329.5904874186838
 10
1580.790820922515
 20
322.8875713037917
 10
1588.855086609799
 20
322.8875713037917
 10
1588.855086609799
 20
329.0251812403249
 10
1588.935844635277
 20
329.6712454441758
 10
1589.016602660765
 20
330.2365516225327
 10
1589.178118711725
 20
330.9633738518587
 10
1589.581908839122
 20
331.6094380557038
 10
1590.147215017489
 20
332.2555022595498
 10
1590.954795272299
 20
332.6592923869548
 10
1592.085407629026
 20
332.8208084379148
 10
1593.135261960276
 20
332.6592923869528
 10
1593.942842215084
 20
332.2555022595498
 10
1594.427390367967
 20
331.6094380557047
 10
1594.750422469887
 20
330.8826158263819
 10
1594.911938520849
 20
330.2365516225279
 10
1594.992696546334
 20
329.5904874186879
 10
1594.992696546334
 20
329.0251812403228
 10
1594.992696546334
 20
322.8875713037917
 10
1602.976204208137
 20
322.8875713037917
 10
1602.976204208137
 20
329.6712454441717
 10
1602.814688157173
 20
331.4479220047449
 10
1602.33014000429
 20
332.9015664633928
 10
1601.764833825923
 20
334.0206419593437
 10
1601.038011596599
 20
334.9089802396306
 97
        0
 75
     0
 76
     1
 47
0.0429800832770381
 98
        8
 10
1496.691628053252
 20
337.5851452343738
 10
1512.78978622399
 20
330.3279616721789
 10
1512.78978622399
 20
330.3279616721789
 10
1534.885308659418
 20
333.4832559966808
 10
1549.405216332362
 20
335.06090315893
 10
1559.190372511934
 20
336.6385503211807
 10
1559.190372511934
 20
336.6385503211807
 10
1586.967590552859
 20
335.3764347966617
450
        0
451
        0
460
0.0
461
0.0
452
        0
462
0.0
453
        0
470

  0
POLYLINE
  5
885
330
1F
100
AcDbEntity
  8
4
100
AcDb2dPolyline
 66
     1
 10
0.0
 20
0.0
 30
0.0
  0
VERTEX
  5
886
330
885
100
AcDbEntity
  8
4
100
AcDbVertex
100
AcDb2dVertex
 10
1527.628966434661
 20
332.578534361473
 30
0.0
  0
VERTEX
  5
887
330
885
100
AcDbEntity
  8
4
100
AcDbVertex
100
AcDb2dVertex
 10
1527.628966434661
 20
324.6642478643669
 30
0.0
  0
VERTEX
  5
888
330
885
100
AcDbEntity
  8
4
100
AcDbVertex
100
AcDb2dVertex
 10
1527.0636602563
 20
324.3412157624439
 30
0.0
  0
VERTEX
  5
889
330
885
100
AcDbEntity
  8
4
100
AcDbVertex
100
AcDb2dVertex
 10
1525.286983695723
 20
323.5336355076368
 30
0.0
  0
VERTEX
  5
88A
330
885
100
AcDbEntity
  8
4
100
AcDbVertex
100
AcDb2dVertex
 10
1523.994855288032
 20
323.129845380234
 30
0.0
  0
VERTEX
  5
88B
330
885
100
AcDbEntity
  8
4
100
AcDbVertex
100
AcDb2dVertex
 10
1522.541210829381
 20
322.8068132783119
 30
0.0
  0
VERTEX
  5
88C
330
885
100
AcDbEntity
  8
4
100
AcDbVertex
100
AcDb2dVertex
 10
1520.845292294286
 20
322.5645392018689
 30
0.0
  0
VERTEX
  5
88D
330
885
100
AcDbEntity
  8
4
100
AcDbVertex
100
AcDb2dVertex
 10
1518.987857708231
 20
322.4837811763889
 30
0.0
  0
VERTEX
  5
88E
330
885
100
AcDbEntity
  8
4
100
AcDbVertex
100
AcDb2dVertex
 10
1517.626508135841
 20
322.4837811763889
 30
0.0
  0
VERTEX
  5
88F
330
885
100
AcDbEntity
  8
4
100
AcDbVertex
100
AcDb2dVertex
 10
1516.253621702669
 20
322.6452972273489
 30
0.0
  0
VERTEX
  5
890
330
885
100
AcDbEntity
  8
4
100
AcDbVertex
100
AcDb2dVertex
 10
1514.961493294978
 20
322.9683293292719
 30
0.0
  0
VERTEX
  5
891
330
885
100
AcDbEntity
  8
4
100
AcDbVertex
100
AcDb2dVertex
 10
1513.588606861808
 20
323.2913614311938
 30
0.0
  0
VERTEX
  5
892
330
885
100
AcDbEntity
  8
4
100
AcDbVertex
100
AcDb2dVertex
 10
1512.377236479596
 20
323.77590958408
 30
0.0
  0
VERTEX
  5
893
330
885
100
AcDbEntity
  8
4
100
AcDbVertex
100
AcDb2dVertex
 10
1511.165866097389
 20
324.4219737879248
 30
0.0
  0
VERTEX
  5
894
330
885
100
AcDbEntity
  8
4
100
AcDbVertex
100
AcDb2dVertex
 10
1510.035253740658
 20
325.0680379917708
 30
0.0
  0
VERTEX
  5
895
330
885
100
AcDbEntity
  8
4
100
AcDbVertex
100
AcDb2dVertex
 10
1508.904641383927
 20
325.8756182465759
 30
0.0
  0
VERTEX
  5
896
330
885
100
AcDbEntity
  8
4
100
AcDbVertex
100
AcDb2dVertex
 10
1507.935545078161
 20
326.8447145523448
 30
0.0
  0
VERTEX
  5
897
330
885
100
AcDbEntity
  8
4
100
AcDbVertex
100
AcDb2dVertex
 10
1507.058743658655
 20
327.8945688835938
 30
0.0
  0
VERTEX
  5
898
330
885
100
AcDbEntity
  8
4
100
AcDbVertex
100
AcDb2dVertex
 10
1506.33192142933
 20
329.0251812403228
 30
0.0
  0
VERTEX
  5
899
330
885
100
AcDbEntity
  8
4
100
AcDbVertex
100
AcDb2dVertex
 10
1505.685857225485
 20
330.2365516225327
 30
0.0
  0
VERTEX
  5
89A
330
885
100
AcDbEntity
  8
4
100
AcDbVertex
100
AcDb2dVertex
 10
1505.120551047119
 20
331.6094380557047
 30
0.0
  0
VERTEX
  5
89B
330
885
100
AcDbEntity
  8
4
100
AcDbVertex
100
AcDb2dVertex
 10
1504.716760919716
 20
333.0630825143569
 30
0.0
  0
VERTEX
  5
89C
330
885
100
AcDbEntity
  8
4
100
AcDbVertex
100
AcDb2dVertex
 10
1504.474486843272
 20
334.585948137707
 30
0.0
  0
VERTEX
  5
89D
330
885
100
AcDbEntity
  8
4
100
AcDbVertex
100
AcDb2dVertex
 10
1504.393728817794
 20
336.2818666728008
 30
0.0
  0
VERTEX
  5
89E
330
885
100
AcDbEntity
  8
4
100
AcDbVertex
100
AcDb2dVertex
 10
1504.636002894236
 20
338.5430913862599
 30
0.0
  0
VERTEX
  5
89F
330
885
100
AcDbEntity
  8
4
100
AcDbVertex
100
AcDb2dVertex
 10
1505.201309072602
 20
340.7235580742379
 30
0.0
  0
VERTEX
  5
8A0
330
885
100
AcDbEntity
  8
4
100
AcDbVertex
100
AcDb2dVertex
 10
1505.605099200003
 20
341.7734124054878
 30
0.0
  0
VERTEX
  5
8A1
330
885
100
AcDbEntity
  8
4
100
AcDbVertex
100
AcDb2dVertex
 10
1506.170405378367
 20
342.8232667367358
 30
0.0
  0
VERTEX
  5
8A2
330
885
100
AcDbEntity
  8
4
100
AcDbVertex
100
AcDb2dVertex
 10
1506.735711556735
 20
343.7923630425037
 30
0.0
  0
VERTEX
  5
8A3
330
885
100
AcDbEntity
  8
4
100
AcDbVertex
100
AcDb2dVertex
 10
1507.450996925278
 20
344.6691644620087
 30
0.0
  0
VERTEX
  5
8A4
330
885
100
AcDbEntity
  8
4
100
AcDbVertex
100
AcDb2dVertex
 10
1508.339335205565
 20
345.4767447168149
 30
0.0
  0
VERTEX
  5
8A5
330
885
100
AcDbEntity
  8
4
100
AcDbVertex
100
AcDb2dVertex
 10
1509.227673485852
 20
346.2843249716229
 30
0.0
  0
VERTEX
  5
8A6
330
885
100
AcDbEntity
  8
4
100
AcDbVertex
100
AcDb2dVertex
 10
1510.196769791618
 20
346.9303891754669
 30
0.0
  0
VERTEX
  5
8A7
330
885
100
AcDbEntity
  8
4
100
AcDbVertex
100
AcDb2dVertex
 10
1511.327382148349
 20
347.4956953538328
 30
0.0
  0
VERTEX
  5
8A8
330
885
100
AcDbEntity
  8
4
100
AcDbVertex
100
AcDb2dVertex
 10
1512.538752530558
 20
347.9802435067167
 30
0.0
  0
VERTEX
  5
8A9
330
885
100
AcDbEntity
  8
4
100
AcDbVertex
100
AcDb2dVertex
 10
1513.830880938249
 20
348.3032756086398
 30
0.0
  0
VERTEX
  5
8AA
330
885
100
AcDbEntity
  8
4
100
AcDbVertex
100
AcDb2dVertex
 10
1515.203767371419
 20
348.5455496850807
 30
0.0
  0
VERTEX
  5
8AB
330
885
100
AcDbEntity
  8
4
100
AcDbVertex
100
AcDb2dVertex
 10
1516.738169855554
 20
348.6263077105609
 30
0.0
  0
VERTEX
  5
8AC
330
885
100
AcDbEntity
  8
4
100
AcDbVertex
100
AcDb2dVertex
 10
1518.837878518051
 20
348.4647916596009
 30
0.0
  0
VERTEX
  5
8AD
330
885
100
AcDbEntity
  8
4
100
AcDbVertex
100
AcDb2dVertex
 10
1520.845292294286
 20
347.8994854812358
 30
0.0
  0
VERTEX
  5
8AE
330
885
100
AcDbEntity
  8
4
100
AcDbVertex
100
AcDb2dVertex
 10
1522.702726880341
 20
347.0919052264287
 30
0.0
  0
VERTEX
  5
8AF
330
885
100
AcDbEntity
  8
4
100
AcDbVertex
100
AcDb2dVertex
 10
1524.398645415435
 20
346.0420508951799
 30
0.0
  0
VERTEX
  5
8B0
330
885
100
AcDbEntity
  8
4
100
AcDbVertex
100
AcDb2dVertex
 10
1525.933047899569
 20
344.7499224874889
 30
0.0
  0
VERTEX
  5
8B1
330
885
100
AcDbEntity
  8
4
100
AcDbVertex
100
AcDb2dVertex
 10
1527.144418281779
 20
343.3885729151009
 30
0.0
  0
VERTEX
  5
8B2
330
885
100
AcDbEntity
  8
4
100
AcDbVertex
100
AcDb2dVertex
 10
1528.194272613029
 20
341.7734124054878
 30
0.0
  0
VERTEX
  5
8B3
330
885
100
AcDbEntity
  8
4
100
AcDbVertex
100
AcDb2dVertex
 10
1528.921094842353
 20
340.1582518958737
 30
0.0
  0
VERTEX
  5
8B4
330
885
100
AcDbEntity
  8
4
100
AcDbVertex
100
AcDb2dVertex
 10
1516.899685906514
 20
329.6712454441679
 30
0.0
  0
VERTEX
  5
8B5
330
885
100
AcDbEntity
  8
4
100
AcDbVertex
100
AcDb2dVertex
 10
1517.3842340594
 20
329.5904874186879
 30
0.0
  0
VERTEX
  5
8B6
330
885
100
AcDbEntity
  8
4
100
AcDbVertex
100
AcDb2dVertex
 10
1518.514846416131
 20
329.3482133422458
 30
0.0
  0
VERTEX
  5
8B7
330
885
100
AcDbEntity
  8
4
100
AcDbVertex
100
AcDb2dVertex
 10
1520.118470064963
 20
329.3482133422458
 30
0.0
  0
VERTEX
  5
8B8
330
885
100
AcDbEntity
  8
4
100
AcDbVertex
100
AcDb2dVertex
 10
1521.087566370727
 20
329.4289713677269
 30
0.0
  0
VERTEX
  5
8B9
330
885
100
AcDbEntity
  8
4
100
AcDbVertex
100
AcDb2dVertex
 10
1522.056662676495
 20
329.6712454441679
 30
0.0
  0
VERTEX
  5
8BA
330
885
100
AcDbEntity
  8
4
100
AcDbVertex
100
AcDb2dVertex
 10
1524.075613313514
 20
330.3980676734948
 30
0.0
  0
VERTEX
  5
8BB
330
885
100
AcDbEntity
  8
4
100
AcDbVertex
100
AcDb2dVertex
 10
1525.852289874087
 20
331.3671639792638
 30
0.0
  0
VERTEX
  5
8BC
330
885
100
AcDbEntity
  8
4
100
AcDbVertex
100
AcDb2dVertex
 10
1527.628966434661
 20
332.578534361473
 30
0.0
  0
VERTEX
  5
8BD
330
885
100
AcDbEntity
  8
4
100
AcDbVertex
100
AcDb2dVertex
 10
1527.628966434661
 20
332.578534361473
 30
0.0
  0
SEQEND
  5
8BE
330
885
100
AcDbEntity
  8
4
  0
LWPOLYLINE
  5
8BF
330
1F
100
AcDbEntity
  8
4
100
AcDbPolyline
 90
        9
 70
     1
 43
2.258860799999999
 10
1477.800319623318
 20
317.4903320137787
 10
1477.800319623318
 20
360.2565874853588
 42
-0.414213562373076
 10
1482.181958874252
 20
364.6382267362917
 10
1613.38268950132
 20
364.6382267362917
 42
-0.4142135623731189
 10
1617.764328752254
 20
360.2565874853588
 10
1617.764328752254
 20
317.4903320135459
 42
-0.3882805062036363
 10
1613.830703063423
 20
313.1885639147818
 10
1482.181971716605
 20
313.1708143217738
 42
-0.3805717795643351
 10
1477.818712583995
 20
317.0532985395648
 42
-0.0371590147695308
  0
LWPOLYLINE
  5
8C0
330
1F
100
AcDbEntity
  8
4
100
AcDbPolyline
 90
        9
 70
     0
 43
0.0
 10
1476.670889223317
 20
317.4903320135347
 10
1476.670889223317
 20
360.2565874851148
 42
-0.4142135623730935
 10
1482.181958874249
 20
365.7676571360478
 10
1613.38268950132
 20
365.7676571360478
 42
-0.4142135623730935
 10
1618.893759152252
 20
360.2565874851148
 10
1618.893759152252
 20
317.4903320135347
 42
-0.3910991924838771
 10
1613.878337745056
 20
312.0591399266388
 10
1482.182123992509
 20
312.0413839317948
 42
-0.3805717795643467
 10
1476.696917634965
 20
316.9221912520209
 42
-0.3805717795643467
  0
LWPOLYLINE
  5
8C1
330
1F
100
AcDbEntity
  8
4
100
AcDbPolyline
 90
        9
 70
     0
 43
0.0
 10
1477.895571367965
 20
317.4903320135347
 10
1477.895571367965
 20
360.2565874851148
 42
-0.4142135623730959
 10
1482.181958874249
 20
364.5429749913978
 10
1613.38268950132
 20
364.5429749913978
 42
-0.4142135623730952
 10
1617.669077007601
 20
360.2565874851148
 10
1617.669077007601
 20
317.4903320135347
 42
-0.3879925607753563
 10
1613.826414916048
 20
313.2838150819039
 10
1482.181958874249
 20
313.2660660653148
 42
-0.3805717795643615
 10
1477.913320384555
 20
317.0643556153948
 42
-0.0582381889744711
  0
HATCH
  5
8C2
330
1F
100
AcDbEntity
  8
4
100
AcDbHatch
 10
0.0
 20
0.0
 30
0.0
210
0.0
220
0.0
230
1.0
  2
SOLID
 70
     1
 71
     0
 91
        3
 92
        7
 72
     0
 73
     1
 93
        4
 10
1613.38268950132
 20
365.7676571360489
 10
1482.181958874249
 20
365.7676571360489
 10
1482.181958874249
 20
365.1553160637227
 10
1613.38268950132
 20
365.1553160637227
 97
        0
 92
        7
 72
     0
 73
     1
 93
        4
 10
1477.283230295641
 20
360.2565874851148
 10
1476.670889223314
 20
360.2565874851148
 10
1476.670889223314
 20
317.4903320135347
 10
1477.283230295638
 20
317.4903320135347
 97
        0
 92
        7
 72
     0
 73
     1
 93
       42
 10
1478.41916735734
 20
362.2799753762747
 10
1478.525661456881
 20
362.4574655421709
 10
1478.632155556414
 20
362.6349557080628
 10
1478.756398672553
 20
362.8035713656789
 10
1478.880641788668
 20
362.9633125149699
 10
1479.022633921372
 20
363.1230536642588
 10
1479.16462605409
 20
363.2739203052727
 10
1479.3154926951
 20
363.4159124379819
 10
1479.475233844402
 20
363.5490300624037
 10
1479.634974993704
 20
363.6821476868238
 10
1479.803590651298
 20
363.8063908029469
 10
1479.981080817194
 20
363.9128849024828
 10
1480.158570983082
 20
364.0193790020178
 10
1480.344935657272
 20
364.1169985932579
 10
1480.531300331456
 20
364.2057436762038
 10
1480.726539513937
 20
364.2767397425598
 10
1480.921778696419
 20
364.3477358089169
 10
1481.125892387194
 20
364.4098573669789
 10
1481.330006077969
 20
364.454229908449
 10
1481.542994277038
 20
364.4986024499249
 10
1481.755982476114
 20
364.5252259748088
 10
1481.968970675178
 20
364.5429749913978
 10
1482.181958874249
 20
364.5429749913978
 10
1482.181958874247
 20
365.1553160637238
 10
1481.196888453551
 20
365.0310729475998
 10
1480.327186640682
 20
364.7825867153508
 10
1479.457484827812
 20
364.2856142508547
 10
1478.774147689129
 20
363.7265202282929
 10
1478.152932108508
 20
362.9810615315518
 10
1477.718081202076
 20
362.1734812767459
 10
1477.407473411766
 20
361.241657905812
 10
1477.283230295638
 20
360.2565874851148
 10
1477.895571367965
 20
360.2565874851148
 10
1477.895571367965
 20
360.4695756841888
 10
1477.913320384558
 20
360.6825638832579
 10
1477.939943909439
 20
360.8955520823229
 10
1477.984316450903
 20
361.1085402814179
 10
1478.028688992385
 20
361.3126539721709
 10
1478.090810550461
 20
361.5078931546718
 10
1478.152932108511
 20
361.7120068454269
 10
1478.232802683167
 20
361.9072460279067
 10
1478.321547766113
 20
362.0936107020868
 97
        0
 75
     0
 76
     1
 47
0.0056314001768925
 98
        3
 10
1488.95331253445
 20
365.3704499608039
 10
1476.895978509311
 20
359.2009806501569
 10
1477.914010827536
 20
362.0949033474519
450
        0
451
        0
460
0.0
461
0.0
452
        0
462
0.0
453
        0
470

  0
HATCH
  5
8C3
330
1F
100
AcDbEntity
  8
4
100
AcDbHatch
 10
0.0
 20
0.0
 30
0.0
210
0.0
220
0.0
230
1.0
  2
SOLID
 70
     1
 71
     0
 91
       13
 92
        7
 72
     0
 73
     1
 93
        4
 10
1477.895571367965
 20
360.2565874851148
 10
1477.283230295638
 20
360.2565874851148
 10
1477.283230295638
 20
317.4903320135347
 10
1477.895571367965
 20
317.4903320135347
 97
        0
 92
        7
 72
     0
 73
     1
 93
        4
 10
1613.38268950132
 20
313.2660660653148
 10
1482.181958874249
 20
313.2660660653148
 10
1482.181958874249
 20
312.6537249929877
 10
1613.38268950132
 20
312.6537249929877
 97
        0
 92
        7
 72
     0
 73
     1
 93
        4
 10
1613.38268950132
 20
365.1553160637227
 10
1482.181958874249
 20
365.1553160637227
 10
1482.181958874249
 20
364.5429749913978
 10
1613.38268950132
 20
364.5429749913978
 97
        0
 92
        7
 72
     0
 73
     1
 93
        4
 10
1618.893759152254
 20
360.2565874851148
 10
1618.281418079928
 20
360.2565874851148
 10
1618.281418079928
 20
317.4903320135347
 10
1618.893759152254
 20
317.4903320135347
 97
        0
 92
        7
 72
     0
 73
     1
 93
       42
 10
1480.327186640682
 20
364.7825867153517
 10
1481.196888453551
 20
365.0310729475998
 10
1482.181958874249
 20
365.1553160637227
 10
1482.181958874247
 20
365.7676571360489
 10
1481.906849117119
 20
365.7587826277547
 10
1481.631739359992
 20
365.7321591028717
 10
1481.356629602851
 20
365.6966610696927
 10
1481.081519845721
 20
365.6522885282188
 10
1480.81528459688
 20
365.590166970158
 10
1480.557923856337
 20
365.5102963955078
 10
1480.300563115792
 20
365.4215513125589
 10
1480.052076883546
 20
365.3239317213208
 10
1479.812465159596
 20
365.2174376217838
 10
1479.572853435644
 20
365.0931945056639
 10
1479.342116219983
 20
364.9600768812438
 10
1479.120253512651
 20
364.8092102402338
 10
1478.907265313547
 20
364.6583435992288
 10
1478.694277114487
 20
364.4897279416268
 10
1478.490163423705
 20
364.3211122840337
 10
1478.303798749512
 20
364.1347476098447
 10
1478.117434075328
 20
363.9395084273599
 10
1477.94881841774
 20
363.7442692448908
 10
1477.780202760137
 20
363.5312810458206
 10
1477.62933611913
 20
363.3182928467368
 10
1477.47846947812
 20
363.0964301393767
 10
1477.3453518537
 20
362.8656929237138
 10
1477.221108737577
 20
362.6260811997688
 10
1477.114614638047
 20
362.3864694758258
 10
1477.016995046803
 20
362.1379832435748
 10
1476.928249963854
 20
361.8806225030139
 10
1476.848379389203
 20
361.6232617624748
 10
1476.786257831145
 20
361.3570265136459
 10
1476.741885289671
 20
361.0819167565066
 10
1476.706387256494
 20
360.8068069993717
 10
1476.679763731609
 20
360.53169724225
 10
1476.670889223314
 20
360.2565874851148
 10
1477.283230295638
 20
360.2565874851148
 10
1477.407473411766
 20
361.241657905812
 10
1477.718081202073
 20
362.1734812767429
 10
1478.152932108513
 20
362.9810615315537
 10
1478.774147689132
 20
363.7265202282959
 10
1479.457484827812
 20
364.2856142508558
 97
        0
 92
        7
 72
     0
 73
     1
 93
       42
 10
1480.531300331459
 20
364.2057436762048
 10
1480.726539513937
 20
364.2767397425598
 10
1480.921778696419
 20
364.3477358089169
 10
1481.125892387194
 20
364.4098573669789
 10
1481.330006077969
 20
364.454229908449
 10
1481.542994277038
 20
364.4986024499249
 10
1481.755982476114
 20
364.5252259748088
 10
1481.968970675178
 20
364.5429749913978
 10
1482.181958874249
 20
364.5429749913978
 10
1482.181958874247
 20
365.1553160637238
 10
1481.196888453551
 20
365.0310729475998
 10
1480.327186640682
 20
364.7825867153508
 10
1479.457484827812
 20
364.2856142508547
 10
1478.774147689129
 20
363.7265202282929
 10
1478.152932108508
 20
362.9810615315518
 10
1477.718081202076
 20
362.1734812767459
 10
1477.407473411766
 20
361.241657905812
 10
1477.283230295638
 20
360.2565874851148
 10
1477.895571367965
 20
360.2565874851148
 10
1477.895571367965
 20
360.4695756841888
 10
1477.913320384558
 20
360.6825638832579
 10
1477.939943909439
 20
360.8955520823229
 10
1477.984316450903
 20
361.1085402814179
 10
1478.028688992385
 20
361.3126539721709
 10
1478.090810550461
 20
361.5078931546718
 10
1478.152932108511
 20
361.7120068454269
 10
1478.232802683167
 20
361.9072460279067
 10
1478.321547766113
 20
362.0936107020868
 10
1478.419167357343
 20
362.2799753762779
 10
1478.525661456881
 20
362.4574655421709
 10
1478.632155556414
 20
362.6349557080628
 10
1478.756398672553
 20
362.8035713656789
 10
1478.880641788668
 20
362.9633125149699
 10
1479.022633921372
 20
363.1230536642588
 10
1479.16462605409
 20
363.2739203052727
 10
1479.3154926951
 20
363.4159124379819
 10
1479.475233844402
 20
363.5490300624037
 10
1479.634974993704
 20
363.6821476868238
 10
1479.803590651298
 20
363.8063908029469
 10
1479.981080817194
 20
363.9128849024828
 10
1480.158570983082
 20
364.0193790020178
 10
1480.344935657272
 20
364.1169985932579
 97
        0
 92
        7
 72
     0
 73
     1
 93
        4
 10
1613.38268950132
 20
312.6537249929877
 10
1482.181958874249
 20
312.6537249929877
 10
1482.181958874249
 20
312.0413839206619
 10
1613.38268950132
 20
312.0413839206619
 97
        0
 92
       22
 72
     0
 73
     1
 93
       42
 10
1617.473837825118
 20
314.7658579670967
 10
1617.908688731554
 20
315.6355597799668
 10
1618.219296521866
 20
316.5052615928357
 10
1618.281418079928
 20
317.4903320135347
 10
1617.669077007601
 20
317.4903320135347
 10
1617.669077007601
 20
317.2773438144609
 10
1617.651327991011
 20
317.0643556153877
 10
1617.624704466129
 20
316.8513674163207
 10
1617.58920643295
 20
316.6383792172537
 10
1617.535959383171
 20
316.4342655264318
 10
1617.482712333416
 20
316.239026344
 10
1617.411716267058
 20
316.0437871615179
 10
1617.340720200705
 20
315.8485479790418
 10
1617.251975117756
 20
315.662183304851
 10
1617.16323003481
 20
315.4758186306628
 10
1617.05673593528
 20
315.3072029730588
 10
1616.950241835741
 20
315.1297128071758
 10
1616.825998719619
 20
314.9699716578639
 10
1616.701755603491
 20
314.8013560002739
 10
1616.568637979076
 20
314.6504893592758
 10
1616.426645846352
 20
314.5084972265529
 10
1616.275779205359
 20
314.3665050938428
 10
1616.124912564343
 20
314.2333874694218
 10
1615.95629690675
 20
314.1091443532998
 10
1615.787681249145
 20
313.9849012371719
 10
1615.619065591538
 20
313.8784071376358
 10
1615.441575425663
 20
313.7719130381049
 10
1615.255210751479
 20
313.6831679551549
 10
1615.059971568997
 20
313.594422872214
 10
1614.864732386516
 20
313.5234268058578
 10
1614.669493204034
 20
313.4524307395009
 10
1614.465379513252
 20
313.3991836897308
 10
1614.252391314189
 20
313.3548111482607
 10
1614.039403115117
 20
313.3104386067866
 10
1613.826414916048
 20
313.2838150819039
 10
1613.604552208683
 20
313.2660660653148
 10
1613.38268950132
 20
313.2660660653148
 10
1613.38268950132
 20
312.6537249929877
 10
1614.367759922017
 20
312.7158465510497
 10
1615.299583292951
 20
313.0264543413618
 10
1616.107163547754
 20
313.4613052477948
 10
1616.8526222445
 20
314.0825208284177
 97
        0
 92
        7
 72
     0
 73
     1
 93
       42
 10
1617.633578974423
 20
314.0292737786487
 10
1617.802194632026
 20
314.2333874694257
 10
1617.953061273031
 20
314.4463756684888
 10
1618.095053405743
 20
314.6682383758589
 10
1618.228171030154
 20
314.8989755915047
 10
1618.352414146284
 20
315.1297128071808
 10
1618.458908245819
 20
315.3693245311249
 10
1618.556527837063
 20
315.6178107633768
 10
1618.645272920009
 20
315.875171503928
 10
1618.716268986363
 20
316.1325322444509
 10
1618.778390544427
 20
316.3987674933069
 10
1618.831637594194
 20
316.6650027421367
 10
1618.858261119075
 20
316.9401124992707
 10
1618.884884643957
 20
317.215222256408
 10
1618.893759152254
 20
317.4903320135347
 10
1618.281418079928
 20
317.4903320135347
 10
1618.219296521866
 20
316.5052615928378
 10
1617.908688731554
 20
315.6355597799648
 10
1617.473837825118
 20
314.7658579670988
 10
1616.8526222445
 20
314.0825208284129
 10
1616.107163547754
 20
313.4613052477939
 10
1615.299583292945
 20
313.0264543413586
 10
1614.367759922017
 20
312.7158465510497
 10
1613.38268950132
 20
312.6537249929877
 10
1613.38268950132
 20
312.0413839206619
 10
1613.657799258452
 20
312.0502584289568
 10
1613.941783523877
 20
312.076881953841
 10
1614.225767789305
 20
312.1035054787248
 10
1614.492003038143
 20
312.1567525284918
 10
1614.758238286978
 20
312.2099995782587
 10
1615.024473535818
 20
312.2898701529109
 10
1615.281834276328
 20
312.3786152358557
 10
1615.530320508606
 20
312.4673603188019
 10
1615.778806740846
 20
312.5827289266269
 10
1616.009543956524
 20
312.6980975344659
 10
1616.24028117217
 20
312.8312151588798
 10
1616.471018387835
 20
312.9732072915917
 10
1616.684006586898
 20
313.1240739325988
 10
1616.896994785969
 20
313.2838150819039
 10
1617.092233968455
 20
313.4613052477948
 10
1617.287473150934
 20
313.6387954136887
 10
1617.464963316833
 20
313.8251600878757
 97
        0
 92
        7
 72
     0
 73
     1
 93
       42
 10
1616.8526222445
 20
363.7265202282959
 10
1616.107163547756
 20
364.2856142508529
 10
1615.299583292945
 20
364.7825867153517
 10
1614.367759922017
 20
365.0310729475998
 10
1613.38268950132
 20
365.1553160637238
 10
1613.38268950132
 20
364.5429749913978
 10
1613.604552208683
 20
364.5429749913978
 10
1613.826414916048
 20
364.5252259748088
 10
1614.039403115117
 20
364.4897279416298
 10
1614.252391314189
 20
364.4542299084517
 10
1614.456505004963
 20
364.4098573669789
 10
1614.660618695743
 20
364.3477358089158
 10
1614.864732386516
 20
364.2767397425598
 10
1615.059971568993
 20
364.2057436762048
 10
1615.246336243181
 20
364.1169985932579
 10
1615.432700917366
 20
364.0193790020178
 10
1615.610191083257
 20
363.9128849024828
 10
1615.787681249156
 20
363.8063908029469
 10
1615.956296906741
 20
363.6821476868238
 10
1616.116038056051
 20
363.5579045706968
 10
1616.275779205348
 20
363.4159124379857
 10
1616.426645846363
 20
363.2739203052708
 10
1616.559763470776
 20
363.1230536642688
 10
1616.701755603491
 20
362.9721870232568
 10
1616.825998719619
 20
362.8035713656609
 10
1616.941367327444
 20
362.6349557080628
 10
1617.056735935274
 20
362.4663400504658
 10
1617.154355526515
 20
362.2799753762788
 10
1617.251975117756
 20
362.1024852103837
 10
1617.340720200705
 20
361.9072460279028
 10
1617.411716267058
 20
361.7120068454269
 10
1617.482712333416
 20
361.5167676629387
 10
1617.535959383181
 20
361.3126539721709
 10
1617.58920643295
 20
361.1085402813928
 10
1617.624704466125
 20
360.8955520823388
 10
1617.651327991011
 20
360.6914383915607
 10
1617.669077007601
 20
360.4695756841859
 10
1617.669077007601
 20
360.2565874851148
 10
1618.281418079928
 20
360.2565874851148
 10
1618.219296521866
 20
361.2416579058167
 10
1617.908688731554
 20
362.1734812767429
 10
1617.473837825118
 20
362.9810615315518
 97
        0
 92
        7
 72
     0
 73
     1
 93
       42
 10
1617.101108476743
 20
364.3122377757418
 10
1616.896994785975
 20
364.4897279416268
 10
1616.692881095193
 20
364.6583435992288
 10
1616.471018387835
 20
364.8092102402348
 10
1616.249155680468
 20
364.9600768812438
 10
1616.018418464805
 20
365.0931945056627
 10
1615.778806740857
 20
365.2174376217838
 10
1615.539195016904
 20
365.3239317213199
 10
1615.281834276361
 20
365.4215513125607
 10
1615.024473535818
 20
365.5102963955069
 10
1614.767112795275
 20
365.590166970158
 10
1614.492003038138
 20
365.65228852822
 10
1614.225767789302
 20
365.6966610696927
 10
1613.941783523877
 20
365.7321591028717
 10
1613.666673766744
 20
365.7587826277547
 10
1613.38268950132
 20
365.7676571360489
 10
1613.38268950132
 20
365.1553160637227
 10
1614.36775992202
 20
365.0310729475989
 10
1615.299583292945
 20
364.7825867153517
 10
1616.107163547754
 20
364.2856142508547
 10
1616.8526222445
 20
363.7265202282959
 10
1617.473837825118
 20
362.9810615315518
 10
1617.908688731558
 20
362.1734812767429
 10
1618.219296521866
 20
361.241657905812
 10
1618.281418079928
 20
360.2565874851148
 10
1618.893759152254
 20
360.2565874851148
 10
1618.884884643957
 20
360.5316972422447
 10
1618.858261119075
 20
360.8068069993787
 10
1618.831637594194
 20
361.0819167565098
 10
1618.778390544421
 20
361.3481520053729
 10
1618.716268986363
 20
361.6143872541897
 10
1618.645272920004
 20
361.8717479947288
 10
1618.556527837061
 20
362.1291087352659
 10
1618.458908245819
 20
362.3775949675169
 10
1618.352414146287
 20
362.6260811997688
 10
1618.228171030158
 20
362.8568184154278
 10
1618.103927914037
 20
363.0875556310857
 10
1617.953061273031
 20
363.3182928467447
 10
1617.802194632016
 20
363.5312810458108
 10
1617.642453482719
 20
363.7442692448837
 10
1617.464963316826
 20
363.9395084273669
 10
1617.287473150935
 20
364.1347476098458
 97
        0
 92
       23
 72
     0
 73
     1
 93
       42
 10
1479.16462605409
 20
314.5084972265558
 10
1479.013759413085
 20
314.6593638675629
 10
1478.880641788671
 20
314.8102305085668
 10
1478.756398672548
 20
314.9699716578748
 10
1478.632155556421
 20
315.1385873154688
 10
1478.516786948585
 20
315.3072029730718
 10
1478.410292849051
 20
315.4846931389597
 10
1478.321547766113
 20
315.6710578131349
 10
1478.232802683159
 20
315.8485479790338
 10
1478.152932108502
 20
316.0437871615279
 10
1478.081936042155
 20
316.2390263439968
 10
1478.028688992382
 20
316.4431400347808
 10
1477.984316450915
 20
316.6472537255499
 10
1477.939943909442
 20
316.8513674163207
 10
1477.913320384555
 20
317.0643556153919
 10
1477.895571367965
 20
317.2773438144679
 10
1477.895571367965
 20
317.4903320135347
 10
1477.283230295638
 20
317.4903320135347
 10
1477.407473411766
 20
316.5052615928339
 10
1477.718081202073
 20
315.6355597799709
 10
1478.152932108508
 20
314.7658579670988
 10
1478.774147689128
 20
314.0825208284168
 10
1479.457484827812
 20
313.4613052477948
 10
1480.327186640682
 20
313.0264543413618
 10
1481.196888453551
 20
312.7158465510497
 10
1482.181958874247
 20
312.6537249929877
 10
1482.181958874249
 20
313.2660660653148
 10
1481.96897067518
 20
313.2660660653148
 10
1481.747107967817
 20
313.2838150819039
 10
1481.534119768744
 20
313.3104386067866
 10
1481.330006077966
 20
313.3459366399648
 10
1481.125892387194
 20
313.3991836897328
 10
1480.921778696419
 20
313.4524307394988
 10
1480.726539513937
 20
313.5234268058578
 10
1480.531300331456
 20
313.594422872214
 10
1480.33606114898
 20
313.6831679551587
 10
1480.158570983082
 20
313.7719130381079
 10
1479.972206308898
 20
313.8784071376388
 10
1479.803590651302
 20
313.9937757454709
 10
1479.626100485412
 20
314.1091443532998
 10
1479.466359336107
 20
314.2333874694218
 10
1479.306618186802
 20
314.3665050938419
 97
        0
 92
        7
 72
     0
 73
     1
 93
       42
 10
1478.774147689128
 20
314.0825208284177
 10
1478.152932108508
 20
314.7658579670988
 10
1477.718081202073
 20
315.6355597799709
 10
1477.407473411766
 20
316.5052615928348
 10
1477.283230295641
 20
317.4903320135347
 10
1476.670889223314
 20
317.4903320135347
 10
1476.679763731609
 20
317.2152222564048
 10
1476.706387256494
 20
316.9401124992639
 10
1476.741885289671
 20
316.6650027421367
 10
1476.786257831143
 20
316.3987674932987
 10
1476.848379389209
 20
316.1325322444568
 10
1476.92824996386
 20
315.8751715039189
 10
1477.016995046803
 20
315.6178107633848
 10
1477.114614638044
 20
315.3693245311347
 10
1477.22998324588
 20
315.1297128071619
 10
1477.354226361998
 20
314.8901010832269
 10
1477.487343986423
 20
314.6682383758468
 10
1477.62933611913
 20
314.4463756684888
 10
1477.780202760134
 20
314.2333874694257
 10
1477.948818417734
 20
314.0292737786528
 10
1478.126308583621
 20
313.8251600878739
 10
1478.303798749518
 20
313.6387954136887
 10
1478.499037931999
 20
313.4613052478008
 10
1478.703151622777
 20
313.2838150819009
 10
1478.907265313553
 20
313.1240739326029
 10
1479.120253512615
 20
312.9732072915958
 10
1479.350990728266
 20
312.8312151588827
 10
1479.572853435644
 20
312.698097534463
 10
1479.812465159596
 20
312.5827289266319
 10
1480.060951391841
 20
312.4673603188028
 10
1480.309437624076
 20
312.3786152358627
 10
1480.566798364636
 20
312.2898701529098
 10
1480.824159105178
 20
312.2099995782587
 10
1481.090394354013
 20
312.1567525284918
 10
1481.356629602854
 20
312.1035054787248
 10
1481.631739359986
 20
312.076881953841
 10
1481.906849117116
 20
312.0502584289568
 10
1482.181958874249
 20
312.0413839206619
 10
1482.181958874247
 20
312.6537249929877
 10
1481.196888453551
 20
312.7158465510497
 10
1480.327186640682
 20
313.026454341361
 10
1479.457484827812
 20
313.4613052477948
 97
        0
 75
     0
 76
     1
 47
0.0249798791011511
 98
       13
 10
1477.516560750347
 20
344.1054998700597
 10
1504.953845773326
 20
312.7952563057568
 10
1536.761689671877
 20
364.7362789351839
 10
1618.587948238574
 20
346.2899327060347
 10
1478.454584334801
 20
364.2591493783648
 10
1479.442409638155
 20
364.1180877165977
 10
1566.371797754316
 20
312.3471601244578
 10
1616.75132842189
 20
314.6042060857058
 10
1617.456928121891
 20
313.8988808131619
 10
1616.75132842189
 20
363.5538241058218
 10
1617.033565922448
 20
364.2591493783648
 10
1478.877934637035
 20
314.3220742803169
 10
1478.736821835359
 20
313.6167490077748
450
        0
451
        0
460
0.0
461
0.0
452
        0
462
0.0
453
        0
470

  0
POLYLINE
  5
8C4
330
1F
100
AcDbEntity
  8
4
100
AcDb2dPolyline
 66
     1
 10
0.0
 20
0.0
 30
0.0
  0
VERTEX
  5
8C5
330
8C4
100
AcDbEntity
  8
4
100
AcDbVertex
100
AcDb2dVertex
 10
1482.181958874249
 20
365.1553160637227
 30
0.0
  0
VERTEX
  5
8C6
330
8C4
100
AcDbEntity
  8
4
100
AcDbVertex
100
AcDb2dVertex
 10
1613.38268950132
 20
365.1553160637227
 30
0.0
  0
VERTEX
  5
8C7
330
8C4
100
AcDbEntity
  8
4
100
AcDbVertex
100
AcDb2dVertex
 10
1614.367759922017
 20
365.0310729475998
 30
0.0
  0
VERTEX
  5
8C8
330
8C4
100
AcDbEntity
  8
4
100
AcDbVertex
100
AcDb2dVertex
 10
1615.299583292949
 20
364.7825867153508
 30
0.0
  0
VERTEX
  5
8C9
330
8C4
100
AcDbEntity
  8
4
100
AcDbVertex
100
AcDb2dVertex
 10
1616.107163547754
 20
364.2856142508547
 30
0.0
  0
VERTEX
  5
8CA
330
8C4
100
AcDbEntity
  8
4
100
AcDbVertex
100
AcDb2dVertex
 10
1616.8526222445
 20
363.7265202282959
 30
0.0
  0
VERTEX
  5
8CB
330
8C4
100
AcDbEntity
  8
4
100
AcDbVertex
100
AcDb2dVertex
 10
1617.473837825118
 20
362.9810615315518
 30
0.0
  0
VERTEX
  5
8CC
330
8C4
100
AcDbEntity
  8
4
100
AcDbVertex
100
AcDb2dVertex
 10
1617.908688731554
 20
362.1734812767447
 30
0.0
  0
VERTEX
  5
8CD
330
8C4
100
AcDbEntity
  8
4
100
AcDbVertex
100
AcDb2dVertex
 10
1618.219296521866
 20
361.2416579058138
 30
0.0
  0
VERTEX
  5
8CE
330
8C4
100
AcDbEntity
  8
4
100
AcDbVertex
100
AcDb2dVertex
 10
1618.281418079928
 20
360.2565874851148
 30
0.0
  0
VERTEX
  5
8CF
330
8C4
100
AcDbEntity
  8
4
100
AcDbVertex
100
AcDb2dVertex
 10
1618.281418079928
 20
317.4903320135347
 30
0.0
  0
VERTEX
  5
8D0
330
8C4
100
AcDbEntity
  8
4
100
AcDbVertex
100
AcDb2dVertex
 10
1618.219296521866
 20
316.5052615928357
 30
0.0
  0
VERTEX
  5
8D1
330
8C4
100
AcDbEntity
  8
4
100
AcDbVertex
100
AcDb2dVertex
 10
1617.908688731554
 20
315.6355597799677
 30
0.0
  0
VERTEX
  5
8D2
330
8C4
100
AcDbEntity
  8
4
100
AcDbVertex
100
AcDb2dVertex
 10
1617.473837825118
 20
314.7658579670988
 30
0.0
  0
VERTEX
  5
8D3
330
8C4
100
AcDbEntity
  8
4
100
AcDbVertex
100
AcDb2dVertex
 10
1616.8526222445
 20
314.0825208284157
 30
0.0
  0
VERTEX
  5
8D4
330
8C4
100
AcDbEntity
  8
4
100
AcDbVertex
100
AcDb2dVertex
 10
1616.107163547754
 20
313.4613052477948
 30
0.0
  0
VERTEX
  5
8D5
330
8C4
100
AcDbEntity
  8
4
100
AcDbVertex
100
AcDb2dVertex
 10
1615.299583292949
 20
313.026454341361
 30
0.0
  0
VERTEX
  5
8D6
330
8C4
100
AcDbEntity
  8
4
100
AcDbVertex
100
AcDb2dVertex
 10
1614.367759922017
 20
312.7158465510497
 30
0.0
  0
VERTEX
  5
8D7
330
8C4
100
AcDbEntity
  8
4
100
AcDbVertex
100
AcDb2dVertex
 10
1613.38268950132
 20
312.6537249929877
 30
0.0
  0
VERTEX
  5
8D8
330
8C4
100
AcDbEntity
  8
4
100
AcDbVertex
100
AcDb2dVertex
 10
1482.181958874249
 20
312.6537249929877
 30
0.0
  0
VERTEX
  5
8D9
330
8C4
100
AcDbEntity
  8
4
100
AcDbVertex
100
AcDb2dVertex
 10
1481.196888453551
 20
312.7158465510497
 30
0.0
  0
VERTEX
  5
8DA
330
8C4
100
AcDbEntity
  8
4
100
AcDbVertex
100
AcDb2dVertex
 10
1480.327186640682
 20
313.026454341361
 30
0.0
  0
VERTEX
  5
8DB
330
8C4
100
AcDbEntity
  8
4
100
AcDbVertex
100
AcDb2dVertex
 10
1479.457484827812
 20
313.4613052477948
 30
0.0
  0
VERTEX
  5
8DC
330
8C4
100
AcDbEntity
  8
4
100
AcDbVertex
100
AcDb2dVertex
 10
1478.774147689132
 20
314.0825208284157
 30
0.0
  0
VERTEX
  5
8DD
330
8C4
100
AcDbEntity
  8
4
100
AcDbVertex
100
AcDb2dVertex
 10
1478.152932108508
 20
314.7658579670988
 30
0.0
  0
VERTEX
  5
8DE
330
8C4
100
AcDbEntity
  8
4
100
AcDbVertex
100
AcDb2dVertex
 10
1477.718081202073
 20
315.6355597799677
 30
0.0
  0
VERTEX
  5
8DF
330
8C4
100
AcDbEntity
  8
4
100
AcDbVertex
100
AcDb2dVertex
 10
1477.407473411766
 20
316.5052615928357
 30
0.0
  0
VERTEX
  5
8E0
330
8C4
100
AcDbEntity
  8
4
100
AcDbVertex
100
AcDb2dVertex
 10
1477.283230295638
 20
317.4903320135347
 30
0.0
  0
VERTEX
  5
8E1
330
8C4
100
AcDbEntity
  8
4
100
AcDbVertex
100
AcDb2dVertex
 10
1477.283230295638
 20
360.2565874851148
 30
0.0
  0
VERTEX
  5
8E2
330
8C4
100
AcDbEntity
  8
4
100
AcDbVertex
100
AcDb2dVertex
 10
1477.407473411766
 20
361.2416579058138
 30
0.0
  0
VERTEX
  5
8E3
330
8C4
100
AcDbEntity
  8
4
100
AcDbVertex
100
AcDb2dVertex
 10
1477.718081202073
 20
362.1734812767447
 30
0.0
  0
VERTEX
  5
8E4
330
8C4
100
AcDbEntity
  8
4
100
AcDbVertex
100
AcDb2dVertex
 10
1478.152932108508
 20
362.9810615315518
 30
0.0
  0
VERTEX
  5
8E5
330
8C4
100
AcDbEntity
  8
4
100
AcDbVertex
100
AcDb2dVertex
 10
1478.774147689132
 20
363.7265202282959
 30
0.0
  0
VERTEX
  5
8E6
330
8C4
100
AcDbEntity
  8
4
100
AcDbVertex
100
AcDb2dVertex
 10
1479.457484827812
 20
364.2856142508547
 30
0.0
  0
VERTEX
  5
8E7
330
8C4
100
AcDbEntity
  8
4
100
AcDbVertex
100
AcDb2dVertex
 10
1480.327186640682
 20
364.7825867153508
 30
0.0
  0
VERTEX
  5
8E8
330
8C4
100
AcDbEntity
  8
4
100
AcDbVertex
100
AcDb2dVertex
 10
1481.196888453551
 20
365.0310729475998
 30
0.0
  0
VERTEX
  5
8E9
330
8C4
100
AcDbEntity
  8
4
100
AcDbVertex
100
AcDb2dVertex
 10
1482.181958874249
 20
365.1553160637227
 30
0.0
  0
VERTEX
  5
8EA
330
8C4
100
AcDbEntity
  8
4
100
AcDbVertex
100
AcDb2dVertex
 10
1482.181958874249
 20
365.1553160637227
 30
0.0
  0
SEQEND
  5
8EB
330
8C4
100
AcDbEntity
  8
4
  0
POLYLINE
  5
8EC
330
1F
100
AcDbEntity
  8
4
100
AcDb2dPolyline
 66
     1
 10
0.0
 20
0.0
 30
0.0
  0
VERTEX
  5
8ED
330
8EC
100
AcDbEntity
  8
4
100
AcDbVertex
100
AcDb2dVertex
 10
1613.38268950132
 20
365.7676571360489
 30
0.0
  0
VERTEX
  5
8EE
330
8EC
100
AcDbEntity
  8
4
100
AcDbVertex
100
AcDb2dVertex
 10
1482.181958874249
 20
365.7676571360489
 30
0.0
  0
VERTEX
  5
8EF
330
8EC
100
AcDbEntity
  8
4
100
AcDbVertex
100
AcDb2dVertex
 10
1482.181958874249
 20
364.5429749913978
 30
0.0
  0
VERTEX
  5
8F0
330
8EC
100
AcDbEntity
  8
4
100
AcDbVertex
100
AcDb2dVertex
 10
1613.38268950132
 20
364.5429749913978
 30
0.0
  0
VERTEX
  5
8F1
330
8EC
100
AcDbEntity
  8
4
100
AcDbVertex
100
AcDb2dVertex
 10
1613.38268950132
 20
365.7676571360489
 30
0.0
  0
VERTEX
  5
8F2
330
8EC
100
AcDbEntity
  8
4
100
AcDbVertex
100
AcDb2dVertex
 10
1613.38268950132
 20
365.7676571360489
 30
0.0
  0
SEQEND
  5
8F3
330
8EC
100
AcDbEntity
  8
4
  0
POLYLINE
  5
8F4
330
1F
100
AcDbEntity
  8
4
100
AcDb2dPolyline
 66
     1
 10
0.0
 20
0.0
 30
0.0
  0
VERTEX
  5
8F5
330
8F4
100
AcDbEntity
  8
4
100
AcDbVertex
100
AcDb2dVertex
 10
1482.181958874249
 20
312.0413839206619
 30
0.0
  0
VERTEX
  5
8F6
330
8F4
100
AcDbEntity
  8
4
100
AcDbVertex
100
AcDb2dVertex
 10
1613.38268950132
 20
312.0413839206619
 30
0.0
  0
VERTEX
  5
8F7
330
8F4
100
AcDbEntity
  8
4
100
AcDbVertex
100
AcDb2dVertex
 10
1613.38268950132
 20
313.2660660653148
 30
0.0
  0
VERTEX
  5
8F8
330
8F4
100
AcDbEntity
  8
4
100
AcDbVertex
100
AcDb2dVertex
 10
1482.181958874249
 20
313.2660660653148
 30
0.0
  0
VERTEX
  5
8F9
330
8F4
100
AcDbEntity
  8
4
100
AcDbVertex
100
AcDb2dVertex
 10
1482.181958874249
 20
312.0413839206619
 30
0.0
  0
VERTEX
  5
8FA
330
8F4
100
AcDbEntity
  8
4
100
AcDbVertex
100
AcDb2dVertex
 10
1482.181958874249
 20
312.0413839206619
 30
0.0
  0
SEQEND
  5
8FB
330
8F4
100
AcDbEntity
  8
4
  0
TEXT
  5
8FC
330
1F
100
AcDbEntity
  8
6
100
AcDbText
 10
1460.955798689645
 20
259.473391275288
 30
0.0
 40
18.0
  1
D- 59227 Ahlen
 72
     1
 11
1544.113440844463
 21
259.473391275288
 31
0.0
100
AcDbText
  0
TEXT
  5
8FD
330
1F
100
AcDbEntity
  8
6
100
AcDbText
 10
1383.037301358229
 20
284.7267584961859
 30
0.0
 40
18.0
  1
Reflex Winkelmann GmbH+Co.KG
 41
0.95
 72
     1
 11
1543.820051358229
 21
284.7267584961859
 31
0.0
100
AcDbText
  0
TEXT
  5
8FE
330
1F
100
AcDbEntity
  8
DN50-0
100
AcDbText
 10
1428.551433350235
 20
71.56187915696341
 30
0.0
 40
30.0
  1
6 bar - 120°C
100
AcDbText
  0
TEXT
  5
8FF
330
1F
100
AcDbEntity
  8
0
100
AcDbText
 10
1326.369777242163
 20
185.5618791569634
 30
0.0
 40
30.0
  1
Druckausdehnungsgefäß
100
AcDbText
  0
TEXT
  5
900
330
1F
100
AcDbEntity
  8
0
100
AcDbText
 10
1439.87480365296
 20
128.5618791569634
 30
0.0
 40
30.0
  1
reflex N 250
100
AcDbText
  0
POLYLINE
  5
901
330
1F
100
AcDbEntity
  8
4
100
AcDb2dPolyline
 66
     1
 10
0.0
 20
0.0
 30
0.0
  0
VERTEX
  5
902
330
901
100
AcDbEntity
  8
4
100
AcDbVertex
100
AcDb2dVertex
 10
1482.181958874249
 20
365.7676571360489
 30
0.0
  0
VERTEX
  5
903
330
901
100
AcDbEntity
  8
4
100
AcDbVertex
100
AcDb2dVertex
 10
1481.906849117116
 20
365.7587826277547
 30
0.0
  0
VERTEX
  5
904
330
901
100
AcDbEntity
  8
4
100
AcDbVertex
100
AcDb2dVertex
 10
1481.631739359986
 20
365.7321591028717
 30
0.0
  0
VERTEX
  5
905
330
901
100
AcDbEntity
  8
4
100
AcDbVertex
100
AcDb2dVertex
 10
1481.356629602854
 20
365.6966610696927
 30
0.0
  0
VERTEX
  5
906
330
901
100
AcDbEntity
  8
4
100
AcDbVertex
100
AcDb2dVertex
 10
1481.081519845721
 20
365.65228852822
 30
0.0
  0
VERTEX
  5
907
330
901
100
AcDbEntity
  8
4
100
AcDbVertex
100
AcDb2dVertex
 10
1480.815284596884
 20
365.590166970158
 30
0.0
  0
VERTEX
  5
908
330
901
100
AcDbEntity
  8
4
100
AcDbVertex
100
AcDb2dVertex
 10
1480.55792385634
 20
365.5102963955069
 30
0.0
  0
VERTEX
  5
909
330
901
100
AcDbEntity
  8
4
100
AcDbVertex
100
AcDb2dVertex
 10
1480.300563115797
 20
365.4215513125607
 30
0.0
  0
VERTEX
  5
90A
330
901
100
AcDbEntity
  8
4
100
AcDbVertex
100
AcDb2dVertex
 10
1480.052076883549
 20
365.3239317213199
 30
0.0
  0
VERTEX
  5
90B
330
901
100
AcDbEntity
  8
4
100
AcDbVertex
100
AcDb2dVertex
 10
1479.812465159596
 20
365.2174376217847
 30
0.0
  0
VERTEX
  5
90C
330
901
100
AcDbEntity
  8
4
100
AcDbVertex
100
AcDb2dVertex
 10
1479.572853435644
 20
365.0931945056618
 30
0.0
  0
VERTEX
  5
90D
330
901
100
AcDbEntity
  8
4
100
AcDbVertex
100
AcDb2dVertex
 10
1479.342116219983
 20
364.9600768812427
 30
0.0
  0
VERTEX
  5
90E
330
901
100
AcDbEntity
  8
4
100
AcDbVertex
100
AcDb2dVertex
 10
1479.120253512618
 20
364.8092102402348
 30
0.0
  0
VERTEX
  5
90F
330
901
100
AcDbEntity
  8
4
100
AcDbVertex
100
AcDb2dVertex
 10
1478.907265313547
 20
364.6583435992268
 30
0.0
  0
VERTEX
  5
910
330
901
100
AcDbEntity
  8
4
100
AcDbVertex
100
AcDb2dVertex
 10
1478.694277114478
 20
364.4897279416298
 30
0.0
  0
VERTEX
  5
911
330
901
100
AcDbEntity
  8
4
100
AcDbVertex
100
AcDb2dVertex
 10
1478.490163423702
 20
364.3211122840328
 30
0.0
  0
VERTEX
  5
912
330
901
100
AcDbEntity
  8
4
100
AcDbVertex
100
AcDb2dVertex
 10
1478.303798749518
 20
364.1347476098467
 30
0.0
  0
VERTEX
  5
913
330
901
100
AcDbEntity
  8
4
100
AcDbVertex
100
AcDb2dVertex
 10
1478.117434075331
 20
363.9395084273658
 30
0.0
  0
VERTEX
  5
914
330
901
100
AcDbEntity
  8
4
100
AcDbVertex
100
AcDb2dVertex
 10
1477.948818417734
 20
363.7442692448847
 30
0.0
  0
VERTEX
  5
915
330
901
100
AcDbEntity
  8
4
100
AcDbVertex
100
AcDb2dVertex
 10
1477.780202760137
 20
363.5312810458158
 30
0.0
  0
VERTEX
  5
916
330
901
100
AcDbEntity
  8
4
100
AcDbVertex
100
AcDb2dVertex
 10
1477.62933611913
 20
363.3182928467447
 30
0.0
  0
VERTEX
  5
917
330
901
100
AcDbEntity
  8
4
100
AcDbVertex
100
AcDb2dVertex
 10
1477.47846947812
 20
363.0964301393808
 30
0.0
  0
VERTEX
  5
918
330
901
100
AcDbEntity
  8
4
100
AcDbVertex
100
AcDb2dVertex
 10
1477.345351853702
 20
362.8656929237227
 30
0.0
  0
VERTEX
  5
919
330
901
100
AcDbEntity
  8
4
100
AcDbVertex
100
AcDb2dVertex
 10
1477.221108737577
 20
362.6260811997679
 30
0.0
  0
VERTEX
  5
91A
330
901
100
AcDbEntity
  8
4
100
AcDbVertex
100
AcDb2dVertex
 10
1477.114614638044
 20
362.3864694758147
 30
0.0
  0
VERTEX
  5
91B
330
901
100
AcDbEntity
  8
4
100
AcDbVertex
100
AcDb2dVertex
 10
1477.016995046803
 20
362.1379832435668
 30
0.0
  0
VERTEX
  5
91C
330
901
100
AcDbEntity
  8
4
100
AcDbVertex
100
AcDb2dVertex
 10
1476.928249963857
 20
361.8806225030237
 30
0.0
  0
VERTEX
  5
91D
330
901
100
AcDbEntity
  8
4
100
AcDbVertex
100
AcDb2dVertex
 10
1476.848379389207
 20
361.6232617624807
 30
0.0
  0
VERTEX
  5
91E
330
901
100
AcDbEntity
  8
4
100
AcDbVertex
100
AcDb2dVertex
 10
1476.786257831143
 20
361.3570265136427
 30
0.0
  0
VERTEX
  5
91F
330
901
100
AcDbEntity
  8
4
100
AcDbVertex
100
AcDb2dVertex
 10
1476.741885289671
 20
361.0819167565119
 30
0.0
  0
VERTEX
  5
920
330
901
100
AcDbEntity
  8
4
100
AcDbVertex
100
AcDb2dVertex
 10
1476.706387256491
 20
360.8068069993799
 30
0.0
  0
VERTEX
  5
921
330
901
100
AcDbEntity
  8
4
100
AcDbVertex
100
AcDb2dVertex
 10
1476.679763731609
 20
360.5316972422479
 30
0.0
  0
VERTEX
  5
922
330
901
100
AcDbEntity
  8
4
100
AcDbVertex
100
AcDb2dVertex
 10
1476.670889223314
 20
360.2565874851148
 30
0.0
  0
VERTEX
  5
923
330
901
100
AcDbEntity
  8
4
100
AcDbVertex
100
AcDb2dVertex
 10
1477.895571367965
 20
360.2565874851148
 30
0.0
  0
VERTEX
  5
924
330
901
100
AcDbEntity
  8
4
100
AcDbVertex
100
AcDb2dVertex
 10
1477.895571367965
 20
360.4695756841847
 30
0.0
  0
VERTEX
  5
925
330
901
100
AcDbEntity
  8
4
100
AcDbVertex
100
AcDb2dVertex
 10
1477.913320384555
 20
360.6825638832547
 30
0.0
  0
VERTEX
  5
926
330
901
100
AcDbEntity
  8
4
100
AcDbVertex
100
AcDb2dVertex
 10
1477.939943909439
 20
360.8955520823247
 30
0.0
  0
VERTEX
  5
927
330
901
100
AcDbEntity
  8
4
100
AcDbVertex
100
AcDb2dVertex
 10
1477.984316450915
 20
361.1085402813947
 30
0.0
  0
VERTEX
  5
928
330
901
100
AcDbEntity
  8
4
100
AcDbVertex
100
AcDb2dVertex
 10
1478.028688992385
 20
361.3126539721709
 30
0.0
  0
VERTEX
  5
929
330
901
100
AcDbEntity
  8
4
100
AcDbVertex
100
AcDb2dVertex
 10
1478.090810550447
 20
361.5078931546509
 30
0.0
  0
VERTEX
  5
92A
330
901
100
AcDbEntity
  8
4
100
AcDbVertex
100
AcDb2dVertex
 10
1478.152932108508
 20
361.7120068454269
 30
0.0
  0
VERTEX
  5
92B
330
901
100
AcDbEntity
  8
4
100
AcDbVertex
100
AcDb2dVertex
 10
1478.232802683159
 20
361.9072460279067
 30
0.0
  0
VERTEX
  5
92C
330
901
100
AcDbEntity
  8
4
100
AcDbVertex
100
AcDb2dVertex
 10
1478.321547766108
 20
362.0936107020936
 30
0.0
  0
VERTEX
  5
92D
330
901
100
AcDbEntity
  8
4
100
AcDbVertex
100
AcDb2dVertex
 10
1478.419167357348
 20
362.2799753762788
 30
0.0
  0
VERTEX
  5
92E
330
901
100
AcDbEntity
  8
4
100
AcDbVertex
100
AcDb2dVertex
 10
1478.525661456881
 20
362.4574655421709
 30
0.0
  0
VERTEX
  5
92F
330
901
100
AcDbEntity
  8
4
100
AcDbVertex
100
AcDb2dVertex
 10
1478.632155556417
 20
362.6349557080628
 30
0.0
  0
VERTEX
  5
930
330
901
100
AcDbEntity
  8
4
100
AcDbVertex
100
AcDb2dVertex
 10
1478.756398672542
 20
362.80357136566
 30
0.0
  0
VERTEX
  5
931
330
901
100
AcDbEntity
  8
4
100
AcDbVertex
100
AcDb2dVertex
 10
1478.880641788665
 20
362.9633125149619
 30
0.0
  0
VERTEX
  5
932
330
901
100
AcDbEntity
  8
4
100
AcDbVertex
100
AcDb2dVertex
 10
1479.022633921377
 20
363.1230536642638
 30
0.0
  0
VERTEX
  5
933
330
901
100
AcDbEntity
  8
4
100
AcDbVertex
100
AcDb2dVertex
 10
1479.16462605409
 20
363.2739203052727
 30
0.0
  0
VERTEX
  5
934
330
901
100
AcDbEntity
  8
4
100
AcDbVertex
100
AcDb2dVertex
 10
1479.3154926951
 20
363.4159124379857
 30
0.0
  0
VERTEX
  5
935
330
901
100
AcDbEntity
  8
4
100
AcDbVertex
100
AcDb2dVertex
 10
1479.475233844402
 20
363.5490300624037
 30
0.0
  0
VERTEX
  5
936
330
901
100
AcDbEntity
  8
4
100
AcDbVertex
100
AcDb2dVertex
 10
1479.634974993704
 20
363.6821476868238
 30
0.0
  0
VERTEX
  5
937
330
901
100
AcDbEntity
  8
4
100
AcDbVertex
100
AcDb2dVertex
 10
1479.803590651302
 20
363.8063908029469
 30
0.0
  0
VERTEX
  5
938
330
901
100
AcDbEntity
  8
4
100
AcDbVertex
100
AcDb2dVertex
 10
1479.981080817194
 20
363.9128849024828
 30
0.0
  0
VERTEX
  5
939
330
901
100
AcDbEntity
  8
4
100
AcDbVertex
100
AcDb2dVertex
 10
1480.158570983082
 20
364.0193790020178
 30
0.0
  0
VERTEX
  5
93A
330
901
100
AcDbEntity
  8
4
100
AcDbVertex
100
AcDb2dVertex
 10
1480.344935657272
 20
364.1169985932579
 30
0.0
  0
VERTEX
  5
93B
330
901
100
AcDbEntity
  8
4
100
AcDbVertex
100
AcDb2dVertex
 10
1480.531300331456
 20
364.2057436762038
 30
0.0
  0
VERTEX
  5
93C
330
901
100
AcDbEntity
  8
4
100
AcDbVertex
100
AcDb2dVertex
 10
1480.726539513937
 20
364.2767397425598
 30
0.0
  0
VERTEX
  5
93D
330
901
100
AcDbEntity
  8
4
100
AcDbVertex
100
AcDb2dVertex
 10
1480.921778696419
 20
364.3477358089169
 30
0.0
  0
VERTEX
  5
93E
330
901
100
AcDbEntity
  8
4
100
AcDbVertex
100
AcDb2dVertex
 10
1481.125892387194
 20
364.4098573669789
 30
0.0
  0
VERTEX
  5
93F
330
901
100
AcDbEntity
  8
4
100
AcDbVertex
100
AcDb2dVertex
 10
1481.330006077969
 20
364.4542299084517
 30
0.0
  0
VERTEX
  5
940
330
901
100
AcDbEntity
  8
4
100
AcDbVertex
100
AcDb2dVertex
 10
1481.542994277038
 20
364.4986024499249
 30
0.0
  0
VERTEX
  5
941
330
901
100
AcDbEntity
  8
4
100
AcDbVertex
100
AcDb2dVertex
 10
1481.755982476109
 20
364.5252259748088
 30
0.0
  0
VERTEX
  5
942
330
901
100
AcDbEntity
  8
4
100
AcDbVertex
100
AcDb2dVertex
 10
1481.96897067518
 20
364.5429749913978
 30
0.0
  0
VERTEX
  5
943
330
901
100
AcDbEntity
  8
4
100
AcDbVertex
100
AcDb2dVertex
 10
1482.181958874249
 20
364.5429749913978
 30
0.0
  0
VERTEX
  5
944
330
901
100
AcDbEntity
  8
4
100
AcDbVertex
100
AcDb2dVertex
 10
1482.181958874249
 20
365.7676571360489
 30
0.0
  0
VERTEX
  5
945
330
901
100
AcDbEntity
  8
4
100
AcDbVertex
100
AcDb2dVertex
 10
1482.181958874249
 20
365.7676571360489
 30
0.0
  0
SEQEND
  5
946
330
901
100
AcDbEntity
  8
4
  0
POLYLINE
  5
947
330
1F
100
AcDbEntity
  8
4
100
AcDb2dPolyline
 66
     1
 10
0.0
 20
0.0
 30
0.0
  0
VERTEX
  5
948
330
947
100
AcDbEntity
  8
4
100
AcDbVertex
100
AcDb2dVertex
 10
1500.194311492798
 20
338.8661234881827
 30
0.0
  0
VERTEX
  5
949
330
947
100
AcDbEntity
  8
4
100
AcDbVertex
100
AcDb2dVertex
 10
1500.355827543758
 20
339.7544617684698
 30
0.0
  0
VERTEX
  5
94A
330
947
100
AcDbEntity
  8
4
100
AcDbVertex
100
AcDb2dVertex
 10
1500.678859645683
 20
340.4005259723149
 30
0.0
  0
VERTEX
  5
94B
330
947
100
AcDbEntity
  8
4
100
AcDbVertex
100
AcDb2dVertex
 10
1501.163407798566
 20
340.8850741252008
 30
0.0
  0
VERTEX
  5
94C
330
947
100
AcDbEntity
  8
4
100
AcDbVertex
100
AcDb2dVertex
 10
1501.647955951449
 20
341.2888642526027
 30
0.0
  0
VERTEX
  5
94D
330
947
100
AcDbEntity
  8
4
100
AcDbVertex
100
AcDb2dVertex
 10
1502.61705225722
 20
341.5311383290459
 30
0.0
  0
VERTEX
  5
94E
330
947
100
AcDbEntity
  8
4
100
AcDbVertex
100
AcDb2dVertex
 10
1503.101600410103
 20
341.6118963545259
 30
0.0
  0
VERTEX
  5
94F
330
947
100
AcDbEntity
  8
4
100
AcDbVertex
100
AcDb2dVertex
 10
1503.98993869039
 20
341.6118963545259
 30
0.0
  0
VERTEX
  5
950
330
947
100
AcDbEntity
  8
4
100
AcDbVertex
100
AcDb2dVertex
 10
1503.98993869039
 20
348.3032756086398
 30
0.0
  0
VERTEX
  5
951
330
947
100
AcDbEntity
  8
4
100
AcDbVertex
100
AcDb2dVertex
 10
1501.082649773088
 20
348.3032756086398
 30
0.0
  0
VERTEX
  5
952
330
947
100
AcDbEntity
  8
4
100
AcDbVertex
100
AcDb2dVertex
 10
1499.467489263471
 20
348.2225175831577
 30
0.0
  0
VERTEX
  5
953
330
947
100
AcDbEntity
  8
4
100
AcDbVertex
100
AcDb2dVertex
 10
1498.094602830301
 20
348.0610015321968
 30
0.0
  0
VERTEX
  5
954
330
947
100
AcDbEntity
  8
4
100
AcDbVertex
100
AcDb2dVertex
 10
1496.96399047357
 20
347.6572114047938
 30
0.0
  0
VERTEX
  5
955
330
947
100
AcDbEntity
  8
4
100
AcDbVertex
100
AcDb2dVertex
 10
1495.914136142324
 20
347.2534212773898
 30
0.0
  0
VERTEX
  5
956
330
947
100
AcDbEntity
  8
4
100
AcDbVertex
100
AcDb2dVertex
 10
1495.118092748298
 20
346.6881150990259
 30
0.0
  0
VERTEX
  5
957
330
947
100
AcDbEntity
  8
4
100
AcDbVertex
100
AcDb2dVertex
 10
1494.391270518971
 20
346.12280892066
 30
0.0
  0
VERTEX
  5
958
330
947
100
AcDbEntity
  8
4
100
AcDbVertex
100
AcDb2dVertex
 10
1493.825964340607
 20
345.4767447168149
 30
0.0
  0
VERTEX
  5
959
330
947
100
AcDbEntity
  8
4
100
AcDbVertex
100
AcDb2dVertex
 10
1493.341416187722
 20
344.8306805129689
 30
0.0
  0
VERTEX
  5
95A
330
947
100
AcDbEntity
  8
4
100
AcDbVertex
100
AcDb2dVertex
 10
1492.77611000936
 20
343.4693309405807
 30
0.0
  0
VERTEX
  5
95B
330
947
100
AcDbEntity
  8
4
100
AcDbVertex
100
AcDb2dVertex
 10
1492.453077907436
 20
342.3387185838519
 30
0.0
  0
VERTEX
  5
95C
330
947
100
AcDbEntity
  8
4
100
AcDbVertex
100
AcDb2dVertex
 10
1492.372319881956
 20
341.2888642526027
 30
0.0
  0
VERTEX
  5
95D
330
947
100
AcDbEntity
  8
4
100
AcDbVertex
100
AcDb2dVertex
 10
1492.372319881956
 20
322.8068132783119
 30
0.0
  0
VERTEX
  5
95E
330
947
100
AcDbEntity
  8
4
100
AcDbVertex
100
AcDb2dVertex
 10
1500.194311492798
 20
322.8068132783119
 30
0.0
  0
VERTEX
  5
95F
330
947
100
AcDbEntity
  8
4
100
AcDbVertex
100
AcDb2dVertex
 10
1500.194311492798
 20
338.8661234881827
 30
0.0
  0
VERTEX
  5
960
330
947
100
AcDbEntity
  8
4
100
AcDbVertex
100
AcDb2dVertex
 10
1500.194311492798
 20
338.8661234881827
 30
0.0
  0
SEQEND
  5
961
330
947
100
AcDbEntity
  8
4
  0
POLYLINE
  5
962
330
1F
100
AcDbEntity
  8
4
100
AcDb2dPolyline
 66
     1
 10
0.0
 20
0.0
 30
0.0
  0
VERTEX
  5
963
330
962
100
AcDbEntity
  8
4
100
AcDbVertex
100
AcDb2dVertex
 10
1476.670889223314
 20
317.4903320135347
 30
0.0
  0
VERTEX
  5
964
330
962
100
AcDbEntity
  8
4
100
AcDbVertex
100
AcDb2dVertex
 10
1476.679763731609
 20
317.2152222564027
 30
0.0
  0
VERTEX
  5
965
330
962
100
AcDbEntity
  8
4
100
AcDbVertex
100
AcDb2dVertex
 10
1476.706387256491
 20
316.9401124992698
 30
0.0
  0
VERTEX
  5
966
330
962
100
AcDbEntity
  8
4
100
AcDbVertex
100
AcDb2dVertex
 10
1476.741885289671
 20
316.6650027421379
 30
0.0
  0
VERTEX
  5
967
330
962
100
AcDbEntity
  8
4
100
AcDbVertex
100
AcDb2dVertex
 10
1476.786257831143
 20
316.3987674933019
 30
0.0
  0
VERTEX
  5
968
330
962
100
AcDbEntity
  8
4
100
AcDbVertex
100
AcDb2dVertex
 10
1476.848379389207
 20
316.1325322444639
 30
0.0
  0
VERTEX
  5
969
330
962
100
AcDbEntity
  8
4
100
AcDbVertex
100
AcDb2dVertex
 10
1476.928249963857
 20
315.8751715039209
 30
0.0
  0
VERTEX
  5
96A
330
962
100
AcDbEntity
  8
4
100
AcDbVertex
100
AcDb2dVertex
 10
1477.016995046803
 20
315.6178107633778
 30
0.0
  0
VERTEX
  5
96B
330
962
100
AcDbEntity
  8
4
100
AcDbVertex
100
AcDb2dVertex
 10
1477.114614638044
 20
315.3693245311299
 30
0.0
  0
VERTEX
  5
96C
330
962
100
AcDbEntity
  8
4
100
AcDbVertex
100
AcDb2dVertex
 10
1477.229983245875
 20
315.1297128071758
 30
0.0
  0
VERTEX
  5
96D
330
962
100
AcDbEntity
  8
4
100
AcDbVertex
100
AcDb2dVertex
 10
1477.354226361998
 20
314.8901010832228
 30
0.0
  0
VERTEX
  5
96E
330
962
100
AcDbEntity
  8
4
100
AcDbVertex
100
AcDb2dVertex
 10
1477.487343986417
 20
314.6682383758578
 30
0.0
  0
VERTEX
  5
96F
330
962
100
AcDbEntity
  8
4
100
AcDbVertex
100
AcDb2dVertex
 10
1477.62933611913
 20
314.4463756684938
 30
0.0
  0
VERTEX
  5
970
330
962
100
AcDbEntity
  8
4
100
AcDbVertex
100
AcDb2dVertex
 10
1477.780202760137
 20
314.233387469423
 30
0.0
  0
VERTEX
  5
971
330
962
100
AcDbEntity
  8
4
100
AcDbVertex
100
AcDb2dVertex
 10
1477.948818417734
 20
314.0292737786487
 30
0.0
  0
VERTEX
  5
972
330
962
100
AcDbEntity
  8
4
100
AcDbVertex
100
AcDb2dVertex
 10
1478.126308583626
 20
313.825160087873
 30
0.0
  0
VERTEX
  5
973
330
962
100
AcDbEntity
  8
4
100
AcDbVertex
100
AcDb2dVertex
 10
1478.303798749518
 20
313.6387954136867
 30
0.0
  0
VERTEX
  5
974
330
962
100
AcDbEntity
  8
4
100
AcDbVertex
100
AcDb2dVertex
 10
1478.499037931999
 20
313.4613052477948
 30
0.0
  0
VERTEX
  5
975
330
962
100
AcDbEntity
  8
4
100
AcDbVertex
100
AcDb2dVertex
 10
1478.703151622773
 20
313.2838150819039
 30
0.0
  0
VERTEX
  5
976
330
962
100
AcDbEntity
  8
4
100
AcDbVertex
100
AcDb2dVertex
 10
1478.907265313547
 20
313.1240739326008
 30
0.0
  0
VERTEX
  5
977
330
962
100
AcDbEntity
  8
4
100
AcDbVertex
100
AcDb2dVertex
 10
1479.120253512618
 20
312.9732072915929
 30
0.0
  0
VERTEX
  5
978
330
962
100
AcDbEntity
  8
4
100
AcDbVertex
100
AcDb2dVertex
 10
1479.350990728279
 20
312.8312151588798
 30
0.0
  0
VERTEX
  5
979
330
962
100
AcDbEntity
  8
4
100
AcDbVertex
100
AcDb2dVertex
 10
1479.572853435644
 20
312.6980975344609
 30
0.0
  0
VERTEX
  5
97A
330
962
100
AcDbEntity
  8
4
100
AcDbVertex
100
AcDb2dVertex
 10
1479.812465159596
 20
312.5827289266319
 30
0.0
  0
VERTEX
  5
97B
330
962
100
AcDbEntity
  8
4
100
AcDbVertex
100
AcDb2dVertex
 10
1480.060951391845
 20
312.4673603188019
 30
0.0
  0
VERTEX
  5
97C
330
962
100
AcDbEntity
  8
4
100
AcDbVertex
100
AcDb2dVertex
 10
1480.309437624092
 20
312.3786152358557
 30
0.0
  0
VERTEX
  5
97D
330
962
100
AcDbEntity
  8
4
100
AcDbVertex
100
AcDb2dVertex
 10
1480.566798364636
 20
312.2898701529098
 30
0.0
  0
VERTEX
  5
97E
330
962
100
AcDbEntity
  8
4
100
AcDbVertex
100
AcDb2dVertex
 10
1480.824159105178
 20
312.2099995782587
 30
0.0
  0
VERTEX
  5
97F
330
962
100
AcDbEntity
  8
4
100
AcDbVertex
100
AcDb2dVertex
 10
1481.090394354013
 20
312.1567525284918
 30
0.0
  0
VERTEX
  5
980
330
962
100
AcDbEntity
  8
4
100
AcDbVertex
100
AcDb2dVertex
 10
1481.356629602854
 20
312.1035054787248
 30
0.0
  0
VERTEX
  5
981
330
962
100
AcDbEntity
  8
4
100
AcDbVertex
100
AcDb2dVertex
 10
1481.631739359986
 20
312.076881953841
 30
0.0
  0
VERTEX
  5
982
330
962
100
AcDbEntity
  8
4
100
AcDbVertex
100
AcDb2dVertex
 10
1481.906849117116
 20
312.0502584289568
 30
0.0
  0
VERTEX
  5
983
330
962
100
AcDbEntity
  8
4
100
AcDbVertex
100
AcDb2dVertex
 10
1482.181958874249
 20
312.0413839206619
 30
0.0
  0
VERTEX
  5
984
330
962
100
AcDbEntity
  8
4
100
AcDbVertex
100
AcDb2dVertex
 10
1482.181958874249
 20
313.2660660653148
 30
0.0
  0
VERTEX
  5
985
330
962
100
AcDbEntity
  8
4
100
AcDbVertex
100
AcDb2dVertex
 10
1481.96897067518
 20
313.2660660653148
 30
0.0
  0
VERTEX
  5
986
330
962
100
AcDbEntity
  8
4
100
AcDbVertex
100
AcDb2dVertex
 10
1481.747107967814
 20
313.2838150819039
 30
0.0
  0
VERTEX
  5
987
330
962
100
AcDbEntity
  8
4
100
AcDbVertex
100
AcDb2dVertex
 10
1481.534119768745
 20
313.3104386067866
 30
0.0
  0
VERTEX
  5
988
330
962
100
AcDbEntity
  8
4
100
AcDbVertex
100
AcDb2dVertex
 10
1481.330006077969
 20
313.3459366399648
 30
0.0
  0
VERTEX
  5
989
330
962
100
AcDbEntity
  8
4
100
AcDbVertex
100
AcDb2dVertex
 10
1481.125892387194
 20
313.3991836897328
 30
0.0
  0
VERTEX
  5
98A
330
962
100
AcDbEntity
  8
4
100
AcDbVertex
100
AcDb2dVertex
 10
1480.921778696419
 20
313.4524307395009
 30
0.0
  0
VERTEX
  5
98B
330
962
100
AcDbEntity
  8
4
100
AcDbVertex
100
AcDb2dVertex
 10
1480.726539513937
 20
313.5234268058578
 30
0.0
  0
VERTEX
  5
98C
330
962
100
AcDbEntity
  8
4
100
AcDbVertex
100
AcDb2dVertex
 10
1480.531300331456
 20
313.594422872214
 30
0.0
  0
VERTEX
  5
98D
330
962
100
AcDbEntity
  8
4
100
AcDbVertex
100
AcDb2dVertex
 10
1480.336061148975
 20
313.6831679551599
 30
0.0
  0
VERTEX
  5
98E
330
962
100
AcDbEntity
  8
4
100
AcDbVertex
100
AcDb2dVertex
 10
1480.158570983082
 20
313.7719130381058
 30
0.0
  0
VERTEX
  5
98F
330
962
100
AcDbEntity
  8
4
100
AcDbVertex
100
AcDb2dVertex
 10
1479.972206308898
 20
313.878407137641
 30
0.0
  0
VERTEX
  5
990
330
962
100
AcDbEntity
  8
4
100
AcDbVertex
100
AcDb2dVertex
 10
1479.803590651302
 20
313.9937757454697
 30
0.0
  0
VERTEX
  5
991
330
962
100
AcDbEntity
  8
4
100
AcDbVertex
100
AcDb2dVertex
 10
1479.626100485409
 20
314.1091443532998
 30
0.0
  0
VERTEX
  5
992
330
962
100
AcDbEntity
  8
4
100
AcDbVertex
100
AcDb2dVertex
 10
1479.466359336107
 20
314.233387469423
 30
0.0
  0
VERTEX
  5
993
330
962
100
AcDbEntity
  8
4
100
AcDbVertex
100
AcDb2dVertex
 10
1479.306618186802
 20
314.3665050938428
 30
0.0
  0
VERTEX
  5
994
330
962
100
AcDbEntity
  8
4
100
AcDbVertex
100
AcDb2dVertex
 10
1479.16462605409
 20
314.5084972265558
 30
0.0
  0
VERTEX
  5
995
330
962
100
AcDbEntity
  8
4
100
AcDbVertex
100
AcDb2dVertex
 10
1479.013759413085
 20
314.6593638675629
 30
0.0
  0
VERTEX
  5
996
330
962
100
AcDbEntity
  8
4
100
AcDbVertex
100
AcDb2dVertex
 10
1478.880641788665
 20
314.8102305085708
 30
0.0
  0
VERTEX
  5
997
330
962
100
AcDbEntity
  8
4
100
AcDbVertex
100
AcDb2dVertex
 10
1478.756398672542
 20
314.9699716578739
 30
0.0
  0
VERTEX
  5
998
330
962
100
AcDbEntity
  8
4
100
AcDbVertex
100
AcDb2dVertex
 10
1478.632155556417
 20
315.1385873154709
 30
0.0
  0
VERTEX
  5
999
330
962
100
AcDbEntity
  8
4
100
AcDbVertex
100
AcDb2dVertex
 10
1478.516786948589
 20
315.3072029730679
 30
0.0
  0
VERTEX
  5
99A
330
962
100
AcDbEntity
  8
4
100
AcDbVertex
100
AcDb2dVertex
 10
1478.410292849051
 20
315.4846931389597
 30
0.0
  0
VERTEX
  5
99B
330
962
100
AcDbEntity
  8
4
100
AcDbVertex
100
AcDb2dVertex
 10
1478.321547766108
 20
315.6710578131447
 30
0.0
  0
VERTEX
  5
99C
330
962
100
AcDbEntity
  8
4
100
AcDbVertex
100
AcDb2dVertex
 10
1478.232802683159
 20
315.8485479790368
 30
0.0
  0
VERTEX
  5
99D
330
962
100
AcDbEntity
  8
4
100
AcDbVertex
100
AcDb2dVertex
 10
1478.152932108508
 20
316.0437871615179
 30
0.0
  0
VERTEX
  5
99E
330
962
100
AcDbEntity
  8
4
100
AcDbVertex
100
AcDb2dVertex
 10
1478.081936042155
 20
316.2390263439988
 30
0.0
  0
VERTEX
  5
99F
330
962
100
AcDbEntity
  8
4
100
AcDbVertex
100
AcDb2dVertex
 10
1478.028688992385
 20
316.4431400347737
 30
0.0
  0
VERTEX
  5
9A0
330
962
100
AcDbEntity
  8
4
100
AcDbVertex
100
AcDb2dVertex
 10
1477.984316450915
 20
316.6472537255499
 30
0.0
  0
VERTEX
  5
9A1
330
962
100
AcDbEntity
  8
4
100
AcDbVertex
100
AcDb2dVertex
 10
1477.939943909439
 20
316.8513674163248
 30
0.0
  0
VERTEX
  5
9A2
330
962
100
AcDbEntity
  8
4
100
AcDbVertex
100
AcDb2dVertex
 10
1477.913320384555
 20
317.0643556153948
 30
0.0
  0
VERTEX
  5
9A3
330
962
100
AcDbEntity
  8
4
100
AcDbVertex
100
AcDb2dVertex
 10
1477.895571367965
 20
317.2773438144639
 30
0.0
  0
VERTEX
  5
9A4
330
962
100
AcDbEntity
  8
4
100
AcDbVertex
100
AcDb2dVertex
 10
1477.895571367965
 20
317.4903320135347
 30
0.0
  0
VERTEX
  5
9A5
330
962
100
AcDbEntity
  8
4
100
AcDbVertex
100
AcDb2dVertex
 10
1476.670889223314
 20
317.4903320135347
 30
0.0
  0
VERTEX
  5
9A6
330
962
100
AcDbEntity
  8
4
100
AcDbVertex
100
AcDb2dVertex
 10
1476.670889223314
 20
317.4903320135347
 30
0.0
  0
SEQEND
  5
9A7
330
962
100
AcDbEntity
  8
4
  0
POLYLINE
  5
9A8
330
1F
100
AcDbEntity
  8
4
100
AcDb2dPolyline
 66
     1
 10
0.0
 20
0.0
 30
0.0
  0
VERTEX
  5
9A9
330
9A8
100
AcDbEntity
  8
4
100
AcDbVertex
100
AcDb2dVertex
 10
1476.670889223314
 20
360.2565874851148
 30
0.0
  0
VERTEX
  5
9AA
330
9A8
100
AcDbEntity
  8
4
100
AcDbVertex
100
AcDb2dVertex
 10
1476.670889223314
 20
317.4903320135347
 30
0.0
  0
VERTEX
  5
9AB
330
9A8
100
AcDbEntity
  8
4
100
AcDbVertex
100
AcDb2dVertex
 10
1477.895571367965
 20
317.4903320135347
 30
0.0
  0
VERTEX
  5
9AC
330
9A8
100
AcDbEntity
  8
4
100
AcDbVertex
100
AcDb2dVertex
 10
1477.895571367965
 20
360.2565874851148
 30
0.0
  0
VERTEX
  5
9AD
330
9A8
100
AcDbEntity
  8
4
100
AcDbVertex
100
AcDb2dVertex
 10
1476.670889223314
 20
360.2565874851148
 30
0.0
  0
VERTEX
  5
9AE
330
9A8
100
AcDbEntity
  8
4
100
AcDbVertex
100
AcDb2dVertex
 10
1476.670889223314
 20
360.2565874851148
 30
0.0
  0
SEQEND
  5
9AF
330
9A8
100
AcDbEntity
  8
4
  0
POLYLINE
  5
9B0
330
1F
100
AcDbEntity
  8
4
100
AcDb2dPolyline
 66
     1
 10
0.0
 20
0.0
 30
0.0
  0
VERTEX
  5
9B1
330
9B0
100
AcDbEntity
  8
4
100
AcDbVertex
100
AcDb2dVertex
 10
1581.2753690754
 20
348.0610015321968
 30
0.0
  0
VERTEX
  5
9B2
330
9B0
100
AcDbEntity
  8
4
100
AcDbVertex
100
AcDb2dVertex
 10
1589.016602660761
 20
348.0610015321968
 30
0.0
  0
VERTEX
  5
9B3
330
9B0
100
AcDbEntity
  8
4
100
AcDbVertex
100
AcDb2dVertex
 10
1589.016602660761
 20
343.3885729151009
 30
0.0
  0
VERTEX
  5
9B4
330
9B0
100
AcDbEntity
  8
4
100
AcDbVertex
100
AcDb2dVertex
 10
1589.016602660761
 20
342.9040247622168
 30
0.0
  0
VERTEX
  5
9B5
330
9B0
100
AcDbEntity
  8
4
100
AcDbVertex
100
AcDb2dVertex
 10
1589.258876737202
 20
341.7734124054878
 30
0.0
  0
VERTEX
  5
9B6
330
9B0
100
AcDbEntity
  8
4
100
AcDbVertex
100
AcDb2dVertex
 10
1589.581908839125
 20
341.1273482016418
 30
0.0
  0
VERTEX
  5
9B7
330
9B0
100
AcDbEntity
  8
4
100
AcDbVertex
100
AcDb2dVertex
 10
1590.066456992011
 20
340.6428000487579
 30
0.0
  0
VERTEX
  5
9B8
330
9B0
100
AcDbEntity
  8
4
100
AcDbVertex
100
AcDb2dVertex
 10
1590.874037246816
 20
340.2390099213548
 30
0.0
  0
VERTEX
  5
9B9
330
9B0
100
AcDbEntity
  8
4
100
AcDbVertex
100
AcDb2dVertex
 10
1591.843133552584
 20
340.1582518958737
 30
0.0
  0
VERTEX
  5
9BA
330
9B0
100
AcDbEntity
  8
4
100
AcDbVertex
100
AcDb2dVertex
 10
1592.812229858354
 20
340.2390099213548
 30
0.0
  0
VERTEX
  5
9BB
330
9B0
100
AcDbEntity
  8
4
100
AcDbVertex
100
AcDb2dVertex
 10
1593.619810113158
 20
340.6428000487579
 30
0.0
  0
VERTEX
  5
9BC
330
9B0
100
AcDbEntity
  8
4
100
AcDbVertex
100
AcDb2dVertex
 10
1594.185116291525
 20
341.2081062271227
 30
0.0
  0
VERTEX
  5
9BD
330
9B0
100
AcDbEntity
  8
4
100
AcDbVertex
100
AcDb2dVertex
 10
1594.508148393445
 20
341.7734124054878
 30
0.0
  0
VERTEX
  5
9BE
330
9B0
100
AcDbEntity
  8
4
100
AcDbVertex
100
AcDb2dVertex
 10
1594.831180495371
 20
342.9040247622168
 30
0.0
  0
VERTEX
  5
9BF
330
9B0
100
AcDbEntity
  8
4
100
AcDbVertex
100
AcDb2dVertex
 10
1594.911938520849
 20
343.4693309405807
 30
0.0
  0
VERTEX
  5
9C0
330
9B0
100
AcDbEntity
  8
4
100
AcDbVertex
100
AcDb2dVertex
 10
1594.911938520849
 20
348.0610015321968
 30
0.0
  0
VERTEX
  5
9C1
330
9B0
100
AcDbEntity
  8
4
100
AcDbVertex
100
AcDb2dVertex
 10
1602.491656055254
 20
348.0610015321968
 30
0.0
  0
VERTEX
  5
9C2
330
9B0
100
AcDbEntity
  8
4
100
AcDbVertex
100
AcDb2dVertex
 10
1602.491656055254
 20
342.6617506857738
 30
0.0
  0
VERTEX
  5
9C3
330
9B0
100
AcDbEntity
  8
4
100
AcDbVertex
100
AcDb2dVertex
 10
1602.491656055254
 20
341.8541704309689
 30
0.0
  0
VERTEX
  5
9C4
330
9B0
100
AcDbEntity
  8
4
100
AcDbVertex
100
AcDb2dVertex
 10
1602.168623953327
 20
340.0774938703919
 30
0.0
  0
VERTEX
  5
9C5
330
9B0
100
AcDbEntity
  8
4
100
AcDbVertex
100
AcDb2dVertex
 10
1601.764833825923
 20
339.0276395391438
 30
0.0
  0
VERTEX
  5
9C6
330
9B0
100
AcDbEntity
  8
4
100
AcDbVertex
100
AcDb2dVertex
 10
1601.118769622078
 20
337.9777852078957
 30
0.0
  0
VERTEX
  5
9C7
330
9B0
100
AcDbEntity
  8
4
100
AcDbVertex
100
AcDb2dVertex
 10
1600.311189367274
 20
337.0086889021268
 30
0.0
  0
VERTEX
  5
9C8
330
9B0
100
AcDbEntity
  8
4
100
AcDbVertex
100
AcDb2dVertex
 10
1599.192113871327
 20
336.2818666728008
 30
0.0
  0
VERTEX
  5
9C9
330
9B0
100
AcDbEntity
  8
4
100
AcDbVertex
100
AcDb2dVertex
 10
1599.745883188908
 20
335.9588345708778
 30
0.0
  0
VERTEX
  5
9CA
330
9B0
100
AcDbEntity
  8
4
100
AcDbVertex
100
AcDb2dVertex
 10
1600.391947392754
 20
335.5550444434748
 30
0.0
  0
VERTEX
  5
9CB
330
9B0
100
AcDbEntity
  8
4
100
AcDbVertex
100
AcDb2dVertex
 10
1601.038011596599
 20
334.9089802396288
 30
0.0
  0
VERTEX
  5
9CC
330
9B0
100
AcDbEntity
  8
4
100
AcDbVertex
100
AcDb2dVertex
 10
1601.764833825923
 20
334.0206419593419
 30
0.0
  0
VERTEX
  5
9CD
330
9B0
100
AcDbEntity
  8
4
100
AcDbVertex
100
AcDb2dVertex
 10
1602.33014000429
 20
332.9015664633957
 30
0.0
  0
VERTEX
  5
9CE
330
9B0
100
AcDbEntity
  8
4
100
AcDbVertex
100
AcDb2dVertex
 10
1602.814688157173
 20
331.4479220047429
 30
0.0
  0
VERTEX
  5
9CF
330
9B0
100
AcDbEntity
  8
4
100
AcDbVertex
100
AcDb2dVertex
 10
1602.976204208137
 20
329.6712454441679
 30
0.0
  0
VERTEX
  5
9D0
330
9B0
100
AcDbEntity
  8
4
100
AcDbVertex
100
AcDb2dVertex
 10
1602.976204208137
 20
322.8875713037917
 30
0.0
  0
VERTEX
  5
9D1
330
9B0
100
AcDbEntity
  8
4
100
AcDbVertex
100
AcDb2dVertex
 10
1594.992696546331
 20
322.8875713037917
 30
0.0
  0
VERTEX
  5
9D2
330
9B0
100
AcDbEntity
  8
4
100
AcDbVertex
100
AcDb2dVertex
 10
1594.992696546331
 20
329.0251812403228
 30
0.0
  0
VERTEX
  5
9D3
330
9B0
100
AcDbEntity
  8
4
100
AcDbVertex
100
AcDb2dVertex
 10
1594.992696546331
 20
329.5904874186879
 30
0.0
  0
VERTEX
  5
9D4
330
9B0
100
AcDbEntity
  8
4
100
AcDbVertex
100
AcDb2dVertex
 10
1594.911938520849
 20
330.2365516225327
 30
0.0
  0
VERTEX
  5
9D5
330
9B0
100
AcDbEntity
  8
4
100
AcDbVertex
100
AcDb2dVertex
 10
1594.750422469887
 20
330.8826158263778
 30
0.0
  0
VERTEX
  5
9D6
330
9B0
100
AcDbEntity
  8
4
100
AcDbVertex
100
AcDb2dVertex
 10
1594.427390367967
 20
331.6094380557047
 30
0.0
  0
VERTEX
  5
9D7
330
9B0
100
AcDbEntity
  8
4
100
AcDbVertex
100
AcDb2dVertex
 10
1593.942842215084
 20
332.2555022595498
 30
0.0
  0
VERTEX
  5
9D8
330
9B0
100
AcDbEntity
  8
4
100
AcDbVertex
100
AcDb2dVertex
 10
1593.135261960276
 20
332.6592923869548
 30
0.0
  0
VERTEX
  5
9D9
330
9B0
100
AcDbEntity
  8
4
100
AcDbVertex
100
AcDb2dVertex
 10
1592.085407629026
 20
332.8208084379148
 30
0.0
  0
VERTEX
  5
9DA
330
9B0
100
AcDbEntity
  8
4
100
AcDbVertex
100
AcDb2dVertex
 10
1590.954795272299
 20
332.6592923869548
 30
0.0
  0
VERTEX
  5
9DB
330
9B0
100
AcDbEntity
  8
4
100
AcDbVertex
100
AcDb2dVertex
 10
1590.147215017489
 20
332.2555022595498
 30
0.0
  0
VERTEX
  5
9DC
330
9B0
100
AcDbEntity
  8
4
100
AcDbVertex
100
AcDb2dVertex
 10
1589.581908839125
 20
331.6094380557047
 30
0.0
  0
VERTEX
  5
9DD
330
9B0
100
AcDbEntity
  8
4
100
AcDbVertex
100
AcDb2dVertex
 10
1589.178118711725
 20
330.9633738518587
 30
0.0
  0
VERTEX
  5
9DE
330
9B0
100
AcDbEntity
  8
4
100
AcDbVertex
100
AcDb2dVertex
 10
1589.016602660761
 20
330.2365516225327
 30
0.0
  0
VERTEX
  5
9DF
330
9B0
100
AcDbEntity
  8
4
100
AcDbVertex
100
AcDb2dVertex
 10
1588.935844635283
 20
329.6712454441679
 30
0.0
  0
VERTEX
  5
9E0
330
9B0
100
AcDbEntity
  8
4
100
AcDbVertex
100
AcDb2dVertex
 10
1588.855086609799
 20
329.0251812403228
 30
0.0
  0
VERTEX
  5
9E1
330
9B0
100
AcDbEntity
  8
4
100
AcDbVertex
100
AcDb2dVertex
 10
1588.855086609799
 20
322.8875713037917
 30
0.0
  0
VERTEX
  5
9E2
330
9B0
100
AcDbEntity
  8
4
100
AcDbVertex
100
AcDb2dVertex
 10
1580.790820922515
 20
322.8875713037917
 30
0.0
  0
VERTEX
  5
9E3
330
9B0
100
AcDbEntity
  8
4
100
AcDbVertex
100
AcDb2dVertex
 10
1580.790820922515
 20
329.5904874186879
 30
0.0
  0
VERTEX
  5
9E4
330
9B0
100
AcDbEntity
  8
4
100
AcDbVertex
100
AcDb2dVertex
 10
1580.871578947997
 20
330.3980676734948
 30
0.0
  0
VERTEX
  5
9E5
330
9B0
100
AcDbEntity
  8
4
100
AcDbVertex
100
AcDb2dVertex
 10
1581.033094998956
 20
331.2864059537819
 30
0.0
  0
VERTEX
  5
9E6
330
9B0
100
AcDbEntity
  8
4
100
AcDbVertex
100
AcDb2dVertex
 10
1581.35612710088
 20
332.3362602850318
 30
0.0
  0
VERTEX
  5
9E7
330
9B0
100
AcDbEntity
  8
4
100
AcDbVertex
100
AcDb2dVertex
 10
1581.759917228283
 20
333.4553357809769
 30
0.0
  0
VERTEX
  5
9E8
330
9B0
100
AcDbEntity
  8
4
100
AcDbVertex
100
AcDb2dVertex
 10
1582.486739457608
 20
334.585948137707
 30
0.0
  0
VERTEX
  5
9E9
330
9B0
100
AcDbEntity
  8
4
100
AcDbVertex
100
AcDb2dVertex
 10
1583.375077737894
 20
335.5550444434748
 30
0.0
  0
VERTEX
  5
9EA
330
9B0
100
AcDbEntity
  8
4
100
AcDbVertex
100
AcDb2dVertex
 10
1583.940383916262
 20
335.9588345708778
 30
0.0
  0
VERTEX
  5
9EB
330
9B0
100
AcDbEntity
  8
4
100
AcDbVertex
100
AcDb2dVertex
 10
1584.667206145585
 20
336.2818666728008
 30
0.0
  0
VERTEX
  5
9EC
330
9B0
100
AcDbEntity
  8
4
100
AcDbVertex
100
AcDb2dVertex
 10
1584.101899967224
 20
336.6048987747229
 30
0.0
  0
VERTEX
  5
9ED
330
9B0
100
AcDbEntity
  8
4
100
AcDbVertex
100
AcDb2dVertex
 10
1583.617351814339
 20
337.0086889021268
 30
0.0
  0
VERTEX
  5
9EE
330
9B0
100
AcDbEntity
  8
4
100
AcDbVertex
100
AcDb2dVertex
 10
1582.971287610493
 20
337.6547531059728
 30
0.0
  0
VERTEX
  5
9EF
330
9B0
100
AcDbEntity
  8
4
100
AcDbVertex
100
AcDb2dVertex
 10
1582.325223406648
 20
338.4623333607799
 30
0.0
  0
VERTEX
  5
9F0
330
9B0
100
AcDbEntity
  8
4
100
AcDbVertex
100
AcDb2dVertex
 10
1581.840675253762
 20
339.5929457175089
 30
0.0
  0
VERTEX
  5
9F1
330
9B0
100
AcDbEntity
  8
4
100
AcDbVertex
100
AcDb2dVertex
 10
1581.436885126358
 20
340.8850741252008
 30
0.0
  0
VERTEX
  5
9F2
330
9B0
100
AcDbEntity
  8
4
100
AcDbVertex
100
AcDb2dVertex
 10
1581.2753690754
 20
342.5809926602938
 30
0.0
  0
VERTEX
  5
9F3
330
9B0
100
AcDbEntity
  8
4
100
AcDbVertex
100
AcDb2dVertex
 10
1581.2753690754
 20
348.0610015321968
 30
0.0
  0
VERTEX
  5
9F4
330
9B0
100
AcDbEntity
  8
4
100
AcDbVertex
100
AcDb2dVertex
 10
1581.2753690754
 20
348.0610015321968
 30
0.0
  0
SEQEND
  5
9F5
330
9B0
100
AcDbEntity
  8
4
  0
POLYLINE
  5
9F6
330
1F
100
AcDbEntity
  8
4
100
AcDb2dPolyline
 66
     1
 10
0.0
 20
0.0
 30
0.0
  0
VERTEX
  5
9F7
330
9F6
100
AcDbEntity
  8
4
100
AcDbVertex
100
AcDb2dVertex
 10
1512.054204377677
 20
334.3436740612647
 30
0.0
  0
VERTEX
  5
9F8
330
9F6
100
AcDbEntity
  8
4
100
AcDbVertex
100
AcDb2dVertex
 10
1519.876195988518
 20
340.8850741252008
 30
0.0
  0
VERTEX
  5
9F9
330
9F6
100
AcDbEntity
  8
4
100
AcDbVertex
100
AcDb2dVertex
 10
1519.310889810153
 20
341.2081062271227
 30
0.0
  0
VERTEX
  5
9FA
330
9F6
100
AcDbEntity
  8
4
100
AcDbVertex
100
AcDb2dVertex
 10
1518.676362467088
 20
341.5311383290459
 30
0.0
  0
VERTEX
  5
9FB
330
9F6
100
AcDbEntity
  8
4
100
AcDbVertex
100
AcDb2dVertex
 10
1517.788024186801
 20
341.7734124054878
 30
0.0
  0
VERTEX
  5
9FC
330
9F6
100
AcDbEntity
  8
4
100
AcDbVertex
100
AcDb2dVertex
 10
1516.818927881036
 20
341.9349284564487
 30
0.0
  0
VERTEX
  5
9FD
330
9F6
100
AcDbEntity
  8
4
100
AcDbVertex
100
AcDb2dVertex
 10
1515.688315524304
 20
341.8541704309689
 30
0.0
  0
VERTEX
  5
9FE
330
9F6
100
AcDbEntity
  8
4
100
AcDbVertex
100
AcDb2dVertex
 10
1514.476945142095
 20
341.4503803035648
 30
0.0
  0
VERTEX
  5
9FF
330
9F6
100
AcDbEntity
  8
4
100
AcDbVertex
100
AcDb2dVertex
 10
1513.346332785367
 20
340.6428000487579
 30
0.0
  0
VERTEX
  5
A00
330
9F6
100
AcDbEntity
  8
4
100
AcDbVertex
100
AcDb2dVertex
 10
1512.377236479596
 20
339.5121876920277
 30
0.0
  0
VERTEX
  5
A01
330
9F6
100
AcDbEntity
  8
4
100
AcDbVertex
100
AcDb2dVertex
 10
1511.811930301234
 20
338.3815753352978
 30
0.0
  0
VERTEX
  5
A02
330
9F6
100
AcDbEntity
  8
4
100
AcDbVertex
100
AcDb2dVertex
 10
1511.56965622479
 20
337.3317210040498
 30
0.0
  0
VERTEX
  5
A03
330
9F6
100
AcDbEntity
  8
4
100
AcDbVertex
100
AcDb2dVertex
 10
1511.488898199309
 20
336.3626246982817
 30
0.0
  0
VERTEX
  5
A04
330
9F6
100
AcDbEntity
  8
4
100
AcDbVertex
100
AcDb2dVertex
 10
1511.650414250272
 20
335.5550444434748
 30
0.0
  0
VERTEX
  5
A05
330
9F6
100
AcDbEntity
  8
4
100
AcDbVertex
100
AcDb2dVertex
 10
1511.811930301234
 20
334.9089802396288
 30
0.0
  0
VERTEX
  5
A06
330
9F6
100
AcDbEntity
  8
4
100
AcDbVertex
100
AcDb2dVertex
 10
1512.054204377677
 20
334.3436740612647
 30
0.0
  0
VERTEX
  5
A07
330
9F6
100
AcDbEntity
  8
4
100
AcDbVertex
100
AcDb2dVertex
 10
1512.054204377677
 20
334.3436740612647
 30
0.0
  0
SEQEND
  5
A08
330
9F6
100
AcDbEntity
  8
4
  0
POLYLINE
  5
A09
330
1F
100
AcDbEntity
  8
4
100
AcDb2dPolyline
 66
     1
 10
0.0
 20
0.0
 30
0.0
  0
VERTEX
  5
A0A
330
A09
100
AcDbEntity
  8
4
100
AcDbVertex
100
AcDb2dVertex
 10
1530.605476516665
 20
322.8875713037917
 30
0.0
  0
VERTEX
  5
A0B
330
A09
100
AcDbEntity
  8
4
100
AcDbVertex
100
AcDb2dVertex
 10
1530.605476516665
 20
350.7260163730598
 30
0.0
  0
VERTEX
  5
A0C
330
A09
100
AcDbEntity
  8
4
100
AcDbVertex
100
AcDb2dVertex
 10
1530.686234542147
 20
351.7758707043088
 30
0.0
  0
VERTEX
  5
A0D
330
A09
100
AcDbEntity
  8
4
100
AcDbVertex
100
AcDb2dVertex
 10
1531.009266644069
 20
352.987241086518
 30
0.0
  0
VERTEX
  5
A0E
330
A09
100
AcDbEntity
  8
4
100
AcDbVertex
100
AcDb2dVertex
 10
1531.655330847914
 20
354.2793694942088
 30
0.0
  0
VERTEX
  5
A0F
330
A09
100
AcDbEntity
  8
4
100
AcDbVertex
100
AcDb2dVertex
 10
1532.059120975316
 20
354.9254336980548
 30
0.0
  0
VERTEX
  5
A10
330
A09
100
AcDbEntity
  8
4
100
AcDbVertex
100
AcDb2dVertex
 10
1532.624427153682
 20
355.5714979019008
 30
0.0
  0
VERTEX
  5
A11
330
A09
100
AcDbEntity
  8
4
100
AcDbVertex
100
AcDb2dVertex
 10
1533.351249383007
 20
356.1252672194817
 30
0.0
  0
VERTEX
  5
A12
330
A09
100
AcDbEntity
  8
4
100
AcDbVertex
100
AcDb2dVertex
 10
1534.158829637815
 20
356.6905733978467
 30
0.0
  0
VERTEX
  5
A13
330
A09
100
AcDbEntity
  8
4
100
AcDbVertex
100
AcDb2dVertex
 10
1535.208683969065
 20
357.09436352525
 30
0.0
  0
VERTEX
  5
A14
330
A09
100
AcDbEntity
  8
4
100
AcDbVertex
100
AcDb2dVertex
 10
1536.420054351271
 20
357.498153652653
 30
0.0
  0
VERTEX
  5
A15
330
A09
100
AcDbEntity
  8
4
100
AcDbVertex
100
AcDb2dVertex
 10
1537.792940784446
 20
357.7404277290948
 30
0.0
  0
VERTEX
  5
A16
330
A09
100
AcDbEntity
  8
4
100
AcDbVertex
100
AcDb2dVertex
 10
1539.327343268579
 20
357.8211857545757
 30
0.0
  0
VERTEX
  5
A17
330
A09
100
AcDbEntity
  8
4
100
AcDbVertex
100
AcDb2dVertex
 10
1542.223095325101
 20
357.8211857545757
 30
0.0
  0
VERTEX
  5
A18
330
A09
100
AcDbEntity
  8
4
100
AcDbVertex
100
AcDb2dVertex
 10
1542.223095325101
 20
351.6143546533467
 30
0.0
  0
VERTEX
  5
A19
330
A09
100
AcDbEntity
  8
4
100
AcDbVertex
100
AcDb2dVertex
 10
1541.346293905594
 20
351.6143546533467
 30
0.0
  0
VERTEX
  5
A1A
330
A09
100
AcDbEntity
  8
4
100
AcDbVertex
100
AcDb2dVertex
 10
1540.94250377819
 20
351.5335966278658
 30
0.0
  0
VERTEX
  5
A1B
330
A09
100
AcDbEntity
  8
4
100
AcDbVertex
100
AcDb2dVertex
 10
1539.892649446943
 20
351.2913225514249
 30
0.0
  0
VERTEX
  5
A1C
330
A09
100
AcDbEntity
  8
4
100
AcDbVertex
100
AcDb2dVertex
 10
1539.408101294058
 20
350.8875324240198
 30
0.0
  0
VERTEX
  5
A1D
330
A09
100
AcDbEntity
  8
4
100
AcDbVertex
100
AcDb2dVertex
 10
1538.923553141176
 20
350.4029842711377
 30
0.0
  0
VERTEX
  5
A1E
330
A09
100
AcDbEntity
  8
4
100
AcDbVertex
100
AcDb2dVertex
 10
1538.600521039252
 20
349.7569200672917
 30
0.0
  0
VERTEX
  5
A1F
330
A09
100
AcDbEntity
  8
4
100
AcDbVertex
100
AcDb2dVertex
 10
1538.439004988293
 20
348.8685817870039
 30
0.0
  0
VERTEX
  5
A20
330
A09
100
AcDbEntity
  8
4
100
AcDbVertex
100
AcDb2dVertex
 10
1538.439004988293
 20
346.2035669461418
 30
0.0
  0
VERTEX
  5
A21
330
A09
100
AcDbEntity
  8
4
100
AcDbVertex
100
AcDb2dVertex
 10
1541.911600083961
 20
346.2035669461418
 30
0.0
  0
VERTEX
  5
A22
330
A09
100
AcDbEntity
  8
4
100
AcDbVertex
100
AcDb2dVertex
 10
1541.911600083961
 20
340.1582518958737
 30
0.0
  0
VERTEX
  5
A23
330
A09
100
AcDbEntity
  8
4
100
AcDbVertex
100
AcDb2dVertex
 10
1538.439004988293
 20
340.1582518958737
 30
0.0
  0
VERTEX
  5
A24
330
A09
100
AcDbEntity
  8
4
100
AcDbVertex
100
AcDb2dVertex
 10
1538.439004988293
 20
322.8875713037917
 30
0.0
  0
VERTEX
  5
A25
330
A09
100
AcDbEntity
  8
4
100
AcDbVertex
100
AcDb2dVertex
 10
1530.605476516665
 20
322.8875713037917
 30
0.0
  0
VERTEX
  5
A26
330
A09
100
AcDbEntity
  8
4
100
AcDbVertex
100
AcDb2dVertex
 10
1530.605476516665
 20
322.8875713037917
 30
0.0
  0
SEQEND
  5
A27
330
A09
100
AcDbEntity
  8
4
  0
POLYLINE
  5
A28
330
1F
100
AcDbEntity
  8
4
100
AcDb2dPolyline
 66
     1
 10
0.0
 20
0.0
 30
0.0
  0
VERTEX
  5
A29
330
A28
100
AcDbEntity
  8
4
100
AcDbVertex
100
AcDb2dVertex
 10
1562.804854961888
 20
334.3436740612647
 30
0.0
  0
VERTEX
  5
A2A
330
A28
100
AcDbEntity
  8
4
100
AcDbVertex
100
AcDb2dVertex
 10
1570.626846572732
 20
340.8850741252008
 30
0.0
  0
VERTEX
  5
A2B
330
A28
100
AcDbEntity
  8
4
100
AcDbVertex
100
AcDb2dVertex
 10
1570.061540394366
 20
341.2081062271227
 30
0.0
  0
VERTEX
  5
A2C
330
A28
100
AcDbEntity
  8
4
100
AcDbVertex
100
AcDb2dVertex
 10
1569.41547619052
 20
341.5311383290459
 30
0.0
  0
VERTEX
  5
A2D
330
A28
100
AcDbEntity
  8
4
100
AcDbVertex
100
AcDb2dVertex
 10
1568.527137910233
 20
341.7734124054878
 30
0.0
  0
VERTEX
  5
A2E
330
A28
100
AcDbEntity
  8
4
100
AcDbVertex
100
AcDb2dVertex
 10
1567.558041604468
 20
341.9349284564487
 30
0.0
  0
VERTEX
  5
A2F
330
A28
100
AcDbEntity
  8
4
100
AcDbVertex
100
AcDb2dVertex
 10
1566.427429247736
 20
341.8541704309689
 30
0.0
  0
VERTEX
  5
A30
330
A28
100
AcDbEntity
  8
4
100
AcDbVertex
100
AcDb2dVertex
 10
1565.216058865527
 20
341.4503803035648
 30
0.0
  0
VERTEX
  5
A31
330
A28
100
AcDbEntity
  8
4
100
AcDbVertex
100
AcDb2dVertex
 10
1564.096983369579
 20
340.6428000487579
 30
0.0
  0
VERTEX
  5
A32
330
A28
100
AcDbEntity
  8
4
100
AcDbVertex
100
AcDb2dVertex
 10
1563.127887063813
 20
339.5121876920277
 30
0.0
  0
VERTEX
  5
A33
330
A28
100
AcDbEntity
  8
4
100
AcDbVertex
100
AcDb2dVertex
 10
1562.562580885446
 20
338.3815753352978
 30
0.0
  0
VERTEX
  5
A34
330
A28
100
AcDbEntity
  8
4
100
AcDbVertex
100
AcDb2dVertex
 10
1562.320306809005
 20
337.3317210040498
 30
0.0
  0
VERTEX
  5
A35
330
A28
100
AcDbEntity
  8
4
100
AcDbVertex
100
AcDb2dVertex
 10
1562.239548783526
 20
336.3626246982817
 30
0.0
  0
VERTEX
  5
A36
330
A28
100
AcDbEntity
  8
4
100
AcDbVertex
100
AcDb2dVertex
 10
1562.401064834485
 20
335.5550444434748
 30
0.0
  0
VERTEX
  5
A37
330
A28
100
AcDbEntity
  8
4
100
AcDbVertex
100
AcDb2dVertex
 10
1562.562580885446
 20
334.9089802396288
 30
0.0
  0
VERTEX
  5
A38
330
A28
100
AcDbEntity
  8
4
100
AcDbVertex
100
AcDb2dVertex
 10
1562.804854961888
 20
334.3436740612647
 30
0.0
  0
VERTEX
  5
A39
330
A28
100
AcDbEntity
  8
4
100
AcDbVertex
100
AcDb2dVertex
 10
1562.804854961888
 20
334.3436740612647
 30
0.0
  0
SEQEND
  5
A3A
330
A28
100
AcDbEntity
  8
4
  0
POLYLINE
  5
A3B
330
1F
100
AcDbEntity
  8
4
100
AcDb2dPolyline
 66
     1
 10
0.0
 20
0.0
 30
0.0
  0
VERTEX
  5
A3C
330
A3B
100
AcDbEntity
  8
4
100
AcDbVertex
100
AcDb2dVertex
 10
1578.368080158093
 20
332.578534361473
 30
0.0
  0
VERTEX
  5
A3D
330
A3B
100
AcDbEntity
  8
4
100
AcDbVertex
100
AcDb2dVertex
 10
1578.368080158093
 20
324.6642478643669
 30
0.0
  0
VERTEX
  5
A3E
330
A3B
100
AcDbEntity
  8
4
100
AcDbVertex
100
AcDb2dVertex
 10
1577.80277397973
 20
324.3412157624439
 30
0.0
  0
VERTEX
  5
A3F
330
A3B
100
AcDbEntity
  8
4
100
AcDbVertex
100
AcDb2dVertex
 10
1576.037634279938
 20
323.5336355076368
 30
0.0
  0
VERTEX
  5
A40
330
A3B
100
AcDbEntity
  8
4
100
AcDbVertex
100
AcDb2dVertex
 10
1574.826263897726
 20
323.129845380234
 30
0.0
  0
VERTEX
  5
A41
330
A3B
100
AcDbEntity
  8
4
100
AcDbVertex
100
AcDb2dVertex
 10
1573.291861413593
 20
322.8068132783119
 30
0.0
  0
VERTEX
  5
A42
330
A3B
100
AcDbEntity
  8
4
100
AcDbVertex
100
AcDb2dVertex
 10
1571.595942878501
 20
322.5645392018689
 30
0.0
  0
VERTEX
  5
A43
330
A3B
100
AcDbEntity
  8
4
100
AcDbVertex
100
AcDb2dVertex
 10
1569.738508292445
 20
322.4837811763889
 30
0.0
  0
VERTEX
  5
A44
330
A3B
100
AcDbEntity
  8
4
100
AcDbVertex
100
AcDb2dVertex
 10
1568.365621859273
 20
322.4837811763889
 30
0.0
  0
VERTEX
  5
A45
330
A3B
100
AcDbEntity
  8
4
100
AcDbVertex
100
AcDb2dVertex
 10
1566.992735426101
 20
322.6452972273489
 30
0.0
  0
VERTEX
  5
A46
330
A3B
100
AcDbEntity
  8
4
100
AcDbVertex
100
AcDb2dVertex
 10
1565.70060701841
 20
322.9683293292719
 30
0.0
  0
VERTEX
  5
A47
330
A3B
100
AcDbEntity
  8
4
100
AcDbVertex
100
AcDb2dVertex
 10
1564.33925744602
 20
323.2913614311938
 30
0.0
  0
VERTEX
  5
A48
330
A3B
100
AcDbEntity
  8
4
100
AcDbVertex
100
AcDb2dVertex
 10
1563.127887063813
 20
323.77590958408
 30
0.0
  0
VERTEX
  5
A49
330
A3B
100
AcDbEntity
  8
4
100
AcDbVertex
100
AcDb2dVertex
 10
1561.916516681602
 20
324.4219737879248
 30
0.0
  0
VERTEX
  5
A4A
330
A3B
100
AcDbEntity
  8
4
100
AcDbVertex
100
AcDb2dVertex
 10
1560.785904324873
 20
325.0680379917708
 30
0.0
  0
VERTEX
  5
A4B
330
A3B
100
AcDbEntity
  8
4
100
AcDbVertex
100
AcDb2dVertex
 10
1559.736049993623
 20
325.8756182465759
 30
0.0
  0
VERTEX
  5
A4C
330
A3B
100
AcDbEntity
  8
4
100
AcDbVertex
100
AcDb2dVertex
 10
1558.686195662373
 20
326.8447145523448
 30
0.0
  0
VERTEX
  5
A4D
330
A3B
100
AcDbEntity
  8
4
100
AcDbVertex
100
AcDb2dVertex
 10
1557.797857382086
 20
327.8945688835938
 30
0.0
  0
VERTEX
  5
A4E
330
A3B
100
AcDbEntity
  8
4
100
AcDbVertex
100
AcDb2dVertex
 10
1557.071035152762
 20
329.0251812403228
 30
0.0
  0
VERTEX
  5
A4F
330
A3B
100
AcDbEntity
  8
4
100
AcDbVertex
100
AcDb2dVertex
 10
1556.424970948917
 20
330.2365516225327
 30
0.0
  0
VERTEX
  5
A50
330
A3B
100
AcDbEntity
  8
4
100
AcDbVertex
100
AcDb2dVertex
 10
1555.85966477055
 20
331.6094380557047
 30
0.0
  0
VERTEX
  5
A51
330
A3B
100
AcDbEntity
  8
4
100
AcDbVertex
100
AcDb2dVertex
 10
1555.455874643146
 20
333.0630825143569
 30
0.0
  0
VERTEX
  5
A52
330
A3B
100
AcDbEntity
  8
4
100
AcDbVertex
100
AcDb2dVertex
 10
1555.213600566704
 20
334.585948137707
 30
0.0
  0
VERTEX
  5
A53
330
A3B
100
AcDbEntity
  8
4
100
AcDbVertex
100
AcDb2dVertex
 10
1555.132842541226
 20
336.2818666728008
 30
0.0
  0
VERTEX
  5
A54
330
A3B
100
AcDbEntity
  8
4
100
AcDbVertex
100
AcDb2dVertex
 10
1555.375116617667
 20
338.5430913862599
 30
0.0
  0
VERTEX
  5
A55
330
A3B
100
AcDbEntity
  8
4
100
AcDbVertex
100
AcDb2dVertex
 10
1555.940422796031
 20
340.7235580742379
 30
0.0
  0
VERTEX
  5
A56
330
A3B
100
AcDbEntity
  8
4
100
AcDbVertex
100
AcDb2dVertex
 10
1556.344212923435
 20
341.7734124054878
 30
0.0
  0
VERTEX
  5
A57
330
A3B
100
AcDbEntity
  8
4
100
AcDbVertex
100
AcDb2dVertex
 10
1556.909519101799
 20
342.8232667367358
 30
0.0
  0
VERTEX
  5
A58
330
A3B
100
AcDbEntity
  8
4
100
AcDbVertex
100
AcDb2dVertex
 10
1557.555583305645
 20
343.7923630425037
 30
0.0
  0
VERTEX
  5
A59
330
A3B
100
AcDbEntity
  8
4
100
AcDbVertex
100
AcDb2dVertex
 10
1558.20164750949
 20
344.6691644620087
 30
0.0
  0
VERTEX
  5
A5A
330
A3B
100
AcDbEntity
  8
4
100
AcDbVertex
100
AcDb2dVertex
 10
1559.089985789777
 20
345.4767447168149
 30
0.0
  0
VERTEX
  5
A5B
330
A3B
100
AcDbEntity
  8
4
100
AcDbVertex
100
AcDb2dVertex
 10
1559.978324070064
 20
346.2843249716229
 30
0.0
  0
VERTEX
  5
A5C
330
A3B
100
AcDbEntity
  8
4
100
AcDbVertex
100
AcDb2dVertex
 10
1560.947420375836
 20
346.9303891754669
 30
0.0
  0
VERTEX
  5
A5D
330
A3B
100
AcDbEntity
  8
4
100
AcDbVertex
100
AcDb2dVertex
 10
1562.078032732564
 20
347.4956953538328
 30
0.0
  0
VERTEX
  5
A5E
330
A3B
100
AcDbEntity
  8
4
100
AcDbVertex
100
AcDb2dVertex
 10
1563.289403114773
 20
347.9802435067167
 30
0.0
  0
VERTEX
  5
A5F
330
A3B
100
AcDbEntity
  8
4
100
AcDbVertex
100
AcDb2dVertex
 10
1564.581531522465
 20
348.3032756086398
 30
0.0
  0
VERTEX
  5
A60
330
A3B
100
AcDbEntity
  8
4
100
AcDbVertex
100
AcDb2dVertex
 10
1565.942881094851
 20
348.5455496850807
 30
0.0
  0
VERTEX
  5
A61
330
A3B
100
AcDbEntity
  8
4
100
AcDbVertex
100
AcDb2dVertex
 10
1567.477283578986
 20
348.6263077105609
 30
0.0
  0
VERTEX
  5
A62
330
A3B
100
AcDbEntity
  8
4
100
AcDbVertex
100
AcDb2dVertex
 10
1569.576992241483
 20
348.4647916596009
 30
0.0
  0
VERTEX
  5
A63
330
A3B
100
AcDbEntity
  8
4
100
AcDbVertex
100
AcDb2dVertex
 10
1571.595942878501
 20
347.8994854812358
 30
0.0
  0
VERTEX
  5
A64
330
A3B
100
AcDbEntity
  8
4
100
AcDbVertex
100
AcDb2dVertex
 10
1573.453377464557
 20
347.0919052264287
 30
0.0
  0
VERTEX
  5
A65
330
A3B
100
AcDbEntity
  8
4
100
AcDbVertex
100
AcDb2dVertex
 10
1575.149295999651
 20
346.0420508951799
 30
0.0
  0
VERTEX
  5
A66
330
A3B
100
AcDbEntity
  8
4
100
AcDbVertex
100
AcDb2dVertex
 10
1576.672161622998
 20
344.7499224874889
 30
0.0
  0
VERTEX
  5
A67
330
A3B
100
AcDbEntity
  8
4
100
AcDbVertex
100
AcDb2dVertex
 10
1577.88353200521
 20
343.3885729151009
 30
0.0
  0
VERTEX
  5
A68
330
A3B
100
AcDbEntity
  8
4
100
AcDbVertex
100
AcDb2dVertex
 10
1578.93338633646
 20
341.7734124054878
 30
0.0
  0
VERTEX
  5
A69
330
A3B
100
AcDbEntity
  8
4
100
AcDbVertex
100
AcDb2dVertex
 10
1579.660208565784
 20
340.1582518958737
 30
0.0
  0
VERTEX
  5
A6A
330
A3B
100
AcDbEntity
  8
4
100
AcDbVertex
100
AcDb2dVertex
 10
1567.638799629947
 20
329.6712454441679
 30
0.0
  0
VERTEX
  5
A6B
330
A3B
100
AcDbEntity
  8
4
100
AcDbVertex
100
AcDb2dVertex
 10
1568.123347782829
 20
329.5904874186879
 30
0.0
  0
VERTEX
  5
A6C
330
A3B
100
AcDbEntity
  8
4
100
AcDbVertex
100
AcDb2dVertex
 10
1569.253960139563
 20
329.3482133422458
 30
0.0
  0
VERTEX
  5
A6D
330
A3B
100
AcDbEntity
  8
4
100
AcDbVertex
100
AcDb2dVertex
 10
1570.869120649174
 20
329.3482133422458
 30
0.0
  0
VERTEX
  5
A6E
330
A3B
100
AcDbEntity
  8
4
100
AcDbVertex
100
AcDb2dVertex
 10
1571.838216954942
 20
329.4289713677269
 30
0.0
  0
VERTEX
  5
A6F
330
A3B
100
AcDbEntity
  8
4
100
AcDbVertex
100
AcDb2dVertex
 10
1572.80731326071
 20
329.6712454441679
 30
0.0
  0
VERTEX
  5
A70
330
A3B
100
AcDbEntity
  8
4
100
AcDbVertex
100
AcDb2dVertex
 10
1574.826263897726
 20
330.3980676734948
 30
0.0
  0
VERTEX
  5
A71
330
A3B
100
AcDbEntity
  8
4
100
AcDbVertex
100
AcDb2dVertex
 10
1576.591403597519
 20
331.3671639792638
 30
0.0
  0
VERTEX
  5
A72
330
A3B
100
AcDbEntity
  8
4
100
AcDbVertex
100
AcDb2dVertex
 10
1578.368080158093
 20
332.578534361473
 30
0.0
  0
VERTEX
  5
A73
330
A3B
100
AcDbEntity
  8
4
100
AcDbVertex
100
AcDb2dVertex
 10
1578.368080158093
 20
332.578534361473
 30
0.0
  0
SEQEND
  5
A74
330
A3B
100
AcDbEntity
  8
4
  0
POLYLINE
  5
A75
330
1F
100
AcDbEntity
  8
4
100
AcDb2dPolyline
 66
     1
 10
0.0
 20
0.0
 30
0.0
  0
VERTEX
  5
A76
330
A75
100
AcDbEntity
  8
4
100
AcDbVertex
100
AcDb2dVertex
 10
1544.807352140483
 20
357.8211857545757
 30
0.0
  0
VERTEX
  5
A77
330
A75
100
AcDbEntity
  8
4
100
AcDbVertex
100
AcDb2dVertex
 10
1544.807352140483
 20
322.8875713037917
 30
0.0
  0
VERTEX
  5
A78
330
A75
100
AcDbEntity
  8
4
100
AcDbVertex
100
AcDb2dVertex
 10
1552.963912714028
 20
322.8875713037917
 30
0.0
  0
VERTEX
  5
A79
330
A75
100
AcDbEntity
  8
4
100
AcDbVertex
100
AcDb2dVertex
 10
1552.963912714028
 20
357.8211857545757
 30
0.0
  0
VERTEX
  5
A7A
330
A75
100
AcDbEntity
  8
4
100
AcDbVertex
100
AcDb2dVertex
 10
1544.807352140483
 20
357.8211857545757
 30
0.0
  0
VERTEX
  5
A7B
330
A75
100
AcDbEntity
  8
4
100
AcDbVertex
100
AcDb2dVertex
 10
1544.807352140483
 20
357.8211857545757
 30
0.0
  0
SEQEND
  5
A7C
330
A75
100
AcDbEntity
  8
4
  0
POLYLINE
  5
A7D
330
1F
100
AcDbEntity
  8
4
100
AcDb2dPolyline
 66
     1
 10
0.0
 20
0.0
 30
0.0
  0
VERTEX
  5
A7E
330
A7D
100
AcDbEntity
  8
4
100
AcDbVertex
100
AcDb2dVertex
 10
1618.893759152254
 20
360.2565874851148
 30
0.0
  0
VERTEX
  5
A7F
330
A7D
100
AcDbEntity
  8
4
100
AcDbVertex
100
AcDb2dVertex
 10
1618.884884643957
 20
360.5316972422479
 30
0.0
  0
VERTEX
  5
A80
330
A7D
100
AcDbEntity
  8
4
100
AcDbVertex
100
AcDb2dVertex
 10
1618.858261119075
 20
360.8068069993799
 30
0.0
  0
VERTEX
  5
A81
330
A7D
100
AcDbEntity
  8
4
100
AcDbVertex
100
AcDb2dVertex
 10
1618.831637594194
 20
361.0819167565119
 30
0.0
  0
VERTEX
  5
A82
330
A7D
100
AcDbEntity
  8
4
100
AcDbVertex
100
AcDb2dVertex
 10
1618.778390544423
 20
361.3481520053479
 30
0.0
  0
VERTEX
  5
A83
330
A7D
100
AcDbEntity
  8
4
100
AcDbVertex
100
AcDb2dVertex
 10
1618.716268986363
 20
361.6143872541859
 30
0.0
  0
VERTEX
  5
A84
330
A7D
100
AcDbEntity
  8
4
100
AcDbVertex
100
AcDb2dVertex
 10
1618.645272920004
 20
361.8717479947288
 30
0.0
  0
VERTEX
  5
A85
330
A7D
100
AcDbEntity
  8
4
100
AcDbVertex
100
AcDb2dVertex
 10
1618.556527837061
 20
362.1291087352718
 30
0.0
  0
VERTEX
  5
A86
330
A7D
100
AcDbEntity
  8
4
100
AcDbVertex
100
AcDb2dVertex
 10
1618.458908245819
 20
362.3775949675198
 30
0.0
  0
VERTEX
  5
A87
330
A7D
100
AcDbEntity
  8
4
100
AcDbVertex
100
AcDb2dVertex
 10
1618.352414146284
 20
362.6260811997679
 30
0.0
  0
VERTEX
  5
A88
330
A7D
100
AcDbEntity
  8
4
100
AcDbVertex
100
AcDb2dVertex
 10
1618.228171030158
 20
362.8568184154278
 30
0.0
  0
VERTEX
  5
A89
330
A7D
100
AcDbEntity
  8
4
100
AcDbVertex
100
AcDb2dVertex
 10
1618.103927914037
 20
363.0875556310869
 30
0.0
  0
VERTEX
  5
A8A
330
A7D
100
AcDbEntity
  8
4
100
AcDbVertex
100
AcDb2dVertex
 10
1617.953061273026
 20
363.3182928467447
 30
0.0
  0
VERTEX
  5
A8B
330
A7D
100
AcDbEntity
  8
4
100
AcDbVertex
100
AcDb2dVertex
 10
1617.802194632022
 20
363.5312810458158
 30
0.0
  0
VERTEX
  5
A8C
330
A7D
100
AcDbEntity
  8
4
100
AcDbVertex
100
AcDb2dVertex
 10
1617.642453482719
 20
363.7442692448847
 30
0.0
  0
VERTEX
  5
A8D
330
A7D
100
AcDbEntity
  8
4
100
AcDbVertex
100
AcDb2dVertex
 10
1617.464963316826
 20
363.9395084273658
 30
0.0
  0
VERTEX
  5
A8E
330
A7D
100
AcDbEntity
  8
4
100
AcDbVertex
100
AcDb2dVertex
 10
1617.287473150935
 20
364.1347476098467
 30
0.0
  0
VERTEX
  5
A8F
330
A7D
100
AcDbEntity
  8
4
100
AcDbVertex
100
AcDb2dVertex
 10
1617.101108476746
 20
364.3122377757379
 30
0.0
  0
VERTEX
  5
A90
330
A7D
100
AcDbEntity
  8
4
100
AcDbVertex
100
AcDb2dVertex
 10
1616.896994785973
 20
364.4897279416298
 30
0.0
  0
VERTEX
  5
A91
330
A7D
100
AcDbEntity
  8
4
100
AcDbVertex
100
AcDb2dVertex
 10
1616.692881095198
 20
364.6583435992268
 30
0.0
  0
VERTEX
  5
A92
330
A7D
100
AcDbEntity
  8
4
100
AcDbVertex
100
AcDb2dVertex
 10
1616.471018387835
 20
364.8092102402348
 30
0.0
  0
VERTEX
  5
A93
330
A7D
100
AcDbEntity
  8
4
100
AcDbVertex
100
AcDb2dVertex
 10
1616.249155680468
 20
364.9600768812427
 30
0.0
  0
VERTEX
  5
A94
330
A7D
100
AcDbEntity
  8
4
100
AcDbVertex
100
AcDb2dVertex
 10
1616.01841846481
 20
365.0931945056618
 30
0.0
  0
VERTEX
  5
A95
330
A7D
100
AcDbEntity
  8
4
100
AcDbVertex
100
AcDb2dVertex
 10
1615.778806740857
 20
365.2174376217847
 30
0.0
  0
VERTEX
  5
A96
330
A7D
100
AcDbEntity
  8
4
100
AcDbVertex
100
AcDb2dVertex
 10
1615.539195016902
 20
365.3239317213199
 30
0.0
  0
VERTEX
  5
A97
330
A7D
100
AcDbEntity
  8
4
100
AcDbVertex
100
AcDb2dVertex
 10
1615.281834276358
 20
365.4215513125607
 30
0.0
  0
VERTEX
  5
A98
330
A7D
100
AcDbEntity
  8
4
100
AcDbVertex
100
AcDb2dVertex
 10
1615.024473535818
 20
365.5102963955069
 30
0.0
  0
VERTEX
  5
A99
330
A7D
100
AcDbEntity
  8
4
100
AcDbVertex
100
AcDb2dVertex
 10
1614.767112795275
 20
365.590166970158
 30
0.0
  0
VERTEX
  5
A9A
330
A7D
100
AcDbEntity
  8
4
100
AcDbVertex
100
AcDb2dVertex
 10
1614.492003038143
 20
365.65228852822
 30
0.0
  0
VERTEX
  5
A9B
330
A7D
100
AcDbEntity
  8
4
100
AcDbVertex
100
AcDb2dVertex
 10
1614.225767789302
 20
365.6966610696927
 30
0.0
  0
VERTEX
  5
A9C
330
A7D
100
AcDbEntity
  8
4
100
AcDbVertex
100
AcDb2dVertex
 10
1613.941783523877
 20
365.7321591028717
 30
0.0
  0
VERTEX
  5
A9D
330
A7D
100
AcDbEntity
  8
4
100
AcDbVertex
100
AcDb2dVertex
 10
1613.666673766744
 20
365.7587826277547
 30
0.0
  0
VERTEX
  5
A9E
330
A7D
100
AcDbEntity
  8
4
100
AcDbVertex
100
AcDb2dVertex
 10
1613.38268950132
 20
365.7676571360489
 30
0.0
  0
VERTEX
  5
A9F
330
A7D
100
AcDbEntity
  8
4
100
AcDbVertex
100
AcDb2dVertex
 10
1613.38268950132
 20
364.5429749913978
 30
0.0
  0
VERTEX
  5
AA0
330
A7D
100
AcDbEntity
  8
4
100
AcDbVertex
100
AcDb2dVertex
 10
1613.604552208683
 20
364.5429749913978
 30
0.0
  0
VERTEX
  5
AA1
330
A7D
100
AcDbEntity
  8
4
100
AcDbVertex
100
AcDb2dVertex
 10
1613.826414916048
 20
364.5252259748088
 30
0.0
  0
VERTEX
  5
AA2
330
A7D
100
AcDbEntity
  8
4
100
AcDbVertex
100
AcDb2dVertex
 10
1614.039403115117
 20
364.4897279416298
 30
0.0
  0
VERTEX
  5
AA3
330
A7D
100
AcDbEntity
  8
4
100
AcDbVertex
100
AcDb2dVertex
 10
1614.252391314189
 20
364.4542299084517
 30
0.0
  0
VERTEX
  5
AA4
330
A7D
100
AcDbEntity
  8
4
100
AcDbVertex
100
AcDb2dVertex
 10
1614.456505004963
 20
364.4098573669789
 30
0.0
  0
VERTEX
  5
AA5
330
A7D
100
AcDbEntity
  8
4
100
AcDbVertex
100
AcDb2dVertex
 10
1614.660618695737
 20
364.3477358089169
 30
0.0
  0
VERTEX
  5
AA6
330
A7D
100
AcDbEntity
  8
4
100
AcDbVertex
100
AcDb2dVertex
 10
1614.864732386516
 20
364.2767397425598
 30
0.0
  0
VERTEX
  5
AA7
330
A7D
100
AcDbEntity
  8
4
100
AcDbVertex
100
AcDb2dVertex
 10
1615.059971568993
 20
364.2057436762038
 30
0.0
  0
VERTEX
  5
AA8
330
A7D
100
AcDbEntity
  8
4
100
AcDbVertex
100
AcDb2dVertex
 10
1615.246336243181
 20
364.1169985932579
 30
0.0
  0
VERTEX
  5
AA9
330
A7D
100
AcDbEntity
  8
4
100
AcDbVertex
100
AcDb2dVertex
 10
1615.432700917366
 20
364.0193790020178
 30
0.0
  0
VERTEX
  5
AAA
330
A7D
100
AcDbEntity
  8
4
100
AcDbVertex
100
AcDb2dVertex
 10
1615.610191083257
 20
363.9128849024828
 30
0.0
  0
VERTEX
  5
AAB
330
A7D
100
AcDbEntity
  8
4
100
AcDbVertex
100
AcDb2dVertex
 10
1615.787681249149
 20
363.8063908029469
 30
0.0
  0
VERTEX
  5
AAC
330
A7D
100
AcDbEntity
  8
4
100
AcDbVertex
100
AcDb2dVertex
 10
1615.95629690675
 20
363.6821476868238
 30
0.0
  0
VERTEX
  5
AAD
330
A7D
100
AcDbEntity
  8
4
100
AcDbVertex
100
AcDb2dVertex
 10
1616.116038056051
 20
363.5579045706988
 30
0.0
  0
VERTEX
  5
AAE
330
A7D
100
AcDbEntity
  8
4
100
AcDbVertex
100
AcDb2dVertex
 10
1616.275779205353
 20
363.4159124379857
 30
0.0
  0
VERTEX
  5
AAF
330
A7D
100
AcDbEntity
  8
4
100
AcDbVertex
100
AcDb2dVertex
 10
1616.426645846358
 20
363.2739203052727
 30
0.0
  0
VERTEX
  5
AB0
330
A7D
100
AcDbEntity
  8
4
100
AcDbVertex
100
AcDb2dVertex
 10
1616.559763470778
 20
363.1230536642638
 30
0.0
  0
VERTEX
  5
AB1
330
A7D
100
AcDbEntity
  8
4
100
AcDbVertex
100
AcDb2dVertex
 10
1616.701755603491
 20
362.9721870232568
 30
0.0
  0
VERTEX
  5
AB2
330
A7D
100
AcDbEntity
  8
4
100
AcDbVertex
100
AcDb2dVertex
 10
1616.825998719616
 20
362.80357136566
 30
0.0
  0
VERTEX
  5
AB3
330
A7D
100
AcDbEntity
  8
4
100
AcDbVertex
100
AcDb2dVertex
 10
1616.941367327444
 20
362.6349557080628
 30
0.0
  0
VERTEX
  5
AB4
330
A7D
100
AcDbEntity
  8
4
100
AcDbVertex
100
AcDb2dVertex
 10
1617.056735935274
 20
362.4663400504658
 30
0.0
  0
VERTEX
  5
AB5
330
A7D
100
AcDbEntity
  8
4
100
AcDbVertex
100
AcDb2dVertex
 10
1617.154355526515
 20
362.2799753762788
 30
0.0
  0
VERTEX
  5
AB6
330
A7D
100
AcDbEntity
  8
4
100
AcDbVertex
100
AcDb2dVertex
 10
1617.251975117756
 20
362.1024852103878
 30
0.0
  0
VERTEX
  5
AB7
330
A7D
100
AcDbEntity
  8
4
100
AcDbVertex
100
AcDb2dVertex
 10
1617.340720200703
 20
361.9072460279067
 30
0.0
  0
VERTEX
  5
AB8
330
A7D
100
AcDbEntity
  8
4
100
AcDbVertex
100
AcDb2dVertex
 10
1617.411716267058
 20
361.7120068454269
 30
0.0
  0
VERTEX
  5
AB9
330
A7D
100
AcDbEntity
  8
4
100
AcDbVertex
100
AcDb2dVertex
 10
1617.482712333415
 20
361.5167676629448
 30
0.0
  0
VERTEX
  5
ABA
330
A7D
100
AcDbEntity
  8
4
100
AcDbVertex
100
AcDb2dVertex
 10
1617.535959383181
 20
361.3126539721709
 30
0.0
  0
VERTEX
  5
ABB
330
A7D
100
AcDbEntity
  8
4
100
AcDbVertex
100
AcDb2dVertex
 10
1617.58920643295
 20
361.1085402813947
 30
0.0
  0
VERTEX
  5
ABC
330
A7D
100
AcDbEntity
  8
4
100
AcDbVertex
100
AcDb2dVertex
 10
1617.624704466129
 20
360.8955520823247
 30
0.0
  0
VERTEX
  5
ABD
330
A7D
100
AcDbEntity
  8
4
100
AcDbVertex
100
AcDb2dVertex
 10
1617.651327991011
 20
360.6914383915498
 30
0.0
  0
VERTEX
  5
ABE
330
A7D
100
AcDbEntity
  8
4
100
AcDbVertex
100
AcDb2dVertex
 10
1617.669077007601
 20
360.4695756841847
 30
0.0
  0
VERTEX
  5
ABF
330
A7D
100
AcDbEntity
  8
4
100
AcDbVertex
100
AcDb2dVertex
 10
1617.669077007601
 20
360.2565874851148
 30
0.0
  0
VERTEX
  5
AC0
330
A7D
100
AcDbEntity
  8
4
100
AcDbVertex
100
AcDb2dVertex
 10
1618.893759152254
 20
360.2565874851148
 30
0.0
  0
VERTEX
  5
AC1
330
A7D
100
AcDbEntity
  8
4
100
AcDbVertex
100
AcDb2dVertex
 10
1618.893759152254
 20
360.2565874851148
 30
0.0
  0
SEQEND
  5
AC2
330
A7D
100
AcDbEntity
  8
4
  0
POLYLINE
  5
AC3
330
1F
100
AcDbEntity
  8
4
100
AcDb2dPolyline
 66
     1
 10
0.0
 20
0.0
 30
0.0
  0
VERTEX
  5
AC4
330
AC3
100
AcDbEntity
  8
4
100
AcDbVertex
100
AcDb2dVertex
 10
1613.38268950132
 20
312.0413839206619
 30
0.0
  0
VERTEX
  5
AC5
330
AC3
100
AcDbEntity
  8
4
100
AcDbVertex
100
AcDb2dVertex
 10
1613.657799258452
 20
312.0502584289568
 30
0.0
  0
VERTEX
  5
AC6
330
AC3
100
AcDbEntity
  8
4
100
AcDbVertex
100
AcDb2dVertex
 10
1613.941783523877
 20
312.076881953841
 30
0.0
  0
VERTEX
  5
AC7
330
AC3
100
AcDbEntity
  8
4
100
AcDbVertex
100
AcDb2dVertex
 10
1614.225767789302
 20
312.1035054787248
 30
0.0
  0
VERTEX
  5
AC8
330
AC3
100
AcDbEntity
  8
4
100
AcDbVertex
100
AcDb2dVertex
 10
1614.492003038143
 20
312.1567525284918
 30
0.0
  0
VERTEX
  5
AC9
330
AC3
100
AcDbEntity
  8
4
100
AcDbVertex
100
AcDb2dVertex
 10
1614.758238286978
 20
312.2099995782587
 30
0.0
  0
VERTEX
  5
ACA
330
AC3
100
AcDbEntity
  8
4
100
AcDbVertex
100
AcDb2dVertex
 10
1615.024473535818
 20
312.2898701529098
 30
0.0
  0
VERTEX
  5
ACB
330
AC3
100
AcDbEntity
  8
4
100
AcDbVertex
100
AcDb2dVertex
 10
1615.281834276358
 20
312.3786152358557
 30
0.0
  0
VERTEX
  5
ACC
330
AC3
100
AcDbEntity
  8
4
100
AcDbVertex
100
AcDb2dVertex
 10
1615.530320508606
 20
312.4673603188019
 30
0.0
  0
VERTEX
  5
ACD
330
AC3
100
AcDbEntity
  8
4
100
AcDbVertex
100
AcDb2dVertex
 10
1615.778806740857
 20
312.5827289266319
 30
0.0
  0
VERTEX
  5
ACE
330
AC3
100
AcDbEntity
  8
4
100
AcDbVertex
100
AcDb2dVertex
 10
1616.009543956513
 20
312.6980975344609
 30
0.0
  0
VERTEX
  5
ACF
330
AC3
100
AcDbEntity
  8
4
100
AcDbVertex
100
AcDb2dVertex
 10
1616.240281172174
 20
312.8312151588798
 30
0.0
  0
VERTEX
  5
AD0
330
AC3
100
AcDbEntity
  8
4
100
AcDbVertex
100
AcDb2dVertex
 10
1616.471018387835
 20
312.9732072915929
 30
0.0
  0
VERTEX
  5
AD1
330
AC3
100
AcDbEntity
  8
4
100
AcDbVertex
100
AcDb2dVertex
 10
1616.684006586901
 20
313.1240739326008
 30
0.0
  0
VERTEX
  5
AD2
330
AC3
100
AcDbEntity
  8
4
100
AcDbVertex
100
AcDb2dVertex
 10
1616.896994785973
 20
313.2838150819039
 30
0.0
  0
VERTEX
  5
AD3
330
AC3
100
AcDbEntity
  8
4
100
AcDbVertex
100
AcDb2dVertex
 10
1617.092233968455
 20
313.4613052477948
 30
0.0
  0
VERTEX
  5
AD4
330
AC3
100
AcDbEntity
  8
4
100
AcDbVertex
100
AcDb2dVertex
 10
1617.287473150935
 20
313.6387954136867
 30
0.0
  0
VERTEX
  5
AD5
330
AC3
100
AcDbEntity
  8
4
100
AcDbVertex
100
AcDb2dVertex
 10
1617.464963316826
 20
313.825160087873
 30
0.0
  0
VERTEX
  5
AD6
330
AC3
100
AcDbEntity
  8
4
100
AcDbVertex
100
AcDb2dVertex
 10
1617.633578974423
 20
314.0292737786487
 30
0.0
  0
VERTEX
  5
AD7
330
AC3
100
AcDbEntity
  8
4
100
AcDbVertex
100
AcDb2dVertex
 10
1617.802194632022
 20
314.233387469423
 30
0.0
  0
VERTEX
  5
AD8
330
AC3
100
AcDbEntity
  8
4
100
AcDbVertex
100
AcDb2dVertex
 10
1617.953061273026
 20
314.4463756684938
 30
0.0
  0
VERTEX
  5
AD9
330
AC3
100
AcDbEntity
  8
4
100
AcDbVertex
100
AcDb2dVertex
 10
1618.095053405742
 20
314.6682383758578
 30
0.0
  0
VERTEX
  5
ADA
330
AC3
100
AcDbEntity
  8
4
100
AcDbVertex
100
AcDb2dVertex
 10
1618.228171030158
 20
314.8989755915168
 30
0.0
  0
VERTEX
  5
ADB
330
AC3
100
AcDbEntity
  8
4
100
AcDbVertex
100
AcDb2dVertex
 10
1618.352414146284
 20
315.1297128071758
 30
0.0
  0
VERTEX
  5
ADC
330
AC3
100
AcDbEntity
  8
4
100
AcDbVertex
100
AcDb2dVertex
 10
1618.458908245819
 20
315.3693245311299
 30
0.0
  0
VERTEX
  5
ADD
330
AC3
100
AcDbEntity
  8
4
100
AcDbVertex
100
AcDb2dVertex
 10
1618.556527837061
 20
315.6178107633778
 30
0.0
  0
VERTEX
  5
ADE
330
AC3
100
AcDbEntity
  8
4
100
AcDbVertex
100
AcDb2dVertex
 10
1618.645272920004
 20
315.8751715039209
 30
0.0
  0
VERTEX
  5
ADF
330
AC3
100
AcDbEntity
  8
4
100
AcDbVertex
100
AcDb2dVertex
 10
1618.716268986363
 20
316.1325322444639
 30
0.0
  0
VERTEX
  5
AE0
330
AC3
100
AcDbEntity
  8
4
100
AcDbVertex
100
AcDb2dVertex
 10
1618.778390544423
 20
316.3987674933019
 30
0.0
  0
VERTEX
  5
AE1
330
AC3
100
AcDbEntity
  8
4
100
AcDbVertex
100
AcDb2dVertex
 10
1618.831637594194
 20
316.6650027421379
 30
0.0
  0
VERTEX
  5
AE2
330
AC3
100
AcDbEntity
  8
4
100
AcDbVertex
100
AcDb2dVertex
 10
1618.858261119075
 20
316.9401124992698
 30
0.0
  0
VERTEX
  5
AE3
330
AC3
100
AcDbEntity
  8
4
100
AcDbVertex
100
AcDb2dVertex
 10
1618.884884643957
 20
317.2152222564027
 30
0.0
  0
VERTEX
  5
AE4
330
AC3
100
AcDbEntity
  8
4
100
AcDbVertex
100
AcDb2dVertex
 10
1618.893759152254
 20
317.4903320135347
 30
0.0
  0
VERTEX
  5
AE5
330
AC3
100
AcDbEntity
  8
4
100
AcDbVertex
100
AcDb2dVertex
 10
1617.669077007601
 20
317.4903320135347
 30
0.0
  0
VERTEX
  5
AE6
330
AC3
100
AcDbEntity
  8
4
100
AcDbVertex
100
AcDb2dVertex
 10
1617.669077007601
 20
317.2773438144639
 30
0.0
  0
VERTEX
  5
AE7
330
AC3
100
AcDbEntity
  8
4
100
AcDbVertex
100
AcDb2dVertex
 10
1617.651327991011
 20
317.0643556153948
 30
0.0
  0
VERTEX
  5
AE8
330
AC3
100
AcDbEntity
  8
4
100
AcDbVertex
100
AcDb2dVertex
 10
1617.624704466129
 20
316.8513674163248
 30
0.0
  0
VERTEX
  5
AE9
330
AC3
100
AcDbEntity
  8
4
100
AcDbVertex
100
AcDb2dVertex
 10
1617.58920643295
 20
316.6383792172549
 30
0.0
  0
VERTEX
  5
AEA
330
AC3
100
AcDbEntity
  8
4
100
AcDbVertex
100
AcDb2dVertex
 10
1617.535959383181
 20
316.4342655264789
 30
0.0
  0
VERTEX
  5
AEB
330
AC3
100
AcDbEntity
  8
4
100
AcDbVertex
100
AcDb2dVertex
 10
1617.482712333415
 20
316.2390263439988
 30
0.0
  0
VERTEX
  5
AEC
330
AC3
100
AcDbEntity
  8
4
100
AcDbVertex
100
AcDb2dVertex
 10
1617.411716267058
 20
316.0437871615179
 30
0.0
  0
VERTEX
  5
AED
330
AC3
100
AcDbEntity
  8
4
100
AcDbVertex
100
AcDb2dVertex
 10
1617.340720200703
 20
315.8485479790368
 30
0.0
  0
VERTEX
  5
AEE
330
AC3
100
AcDbEntity
  8
4
100
AcDbVertex
100
AcDb2dVertex
 10
1617.251975117756
 20
315.662183304851
 30
0.0
  0
VERTEX
  5
AEF
330
AC3
100
AcDbEntity
  8
4
100
AcDbVertex
100
AcDb2dVertex
 10
1617.16323003481
 20
315.4758186306647
 30
0.0
  0
VERTEX
  5
AF0
330
AC3
100
AcDbEntity
  8
4
100
AcDbVertex
100
AcDb2dVertex
 10
1617.056735935274
 20
315.3072029730679
 30
0.0
  0
VERTEX
  5
AF1
330
AC3
100
AcDbEntity
  8
4
100
AcDbVertex
100
AcDb2dVertex
 10
1616.950241835741
 20
315.1297128071758
 30
0.0
  0
VERTEX
  5
AF2
330
AC3
100
AcDbEntity
  8
4
100
AcDbVertex
100
AcDb2dVertex
 10
1616.825998719616
 20
314.9699716578739
 30
0.0
  0
VERTEX
  5
AF3
330
AC3
100
AcDbEntity
  8
4
100
AcDbVertex
100
AcDb2dVertex
 10
1616.701755603491
 20
314.8013560002766
 30
0.0
  0
VERTEX
  5
AF4
330
AC3
100
AcDbEntity
  8
4
100
AcDbVertex
100
AcDb2dVertex
 10
1616.568637979074
 20
314.6504893592687
 30
0.0
  0
VERTEX
  5
AF5
330
AC3
100
AcDbEntity
  8
4
100
AcDbVertex
100
AcDb2dVertex
 10
1616.426645846358
 20
314.5084972265558
 30
0.0
  0
VERTEX
  5
AF6
330
AC3
100
AcDbEntity
  8
4
100
AcDbVertex
100
AcDb2dVertex
 10
1616.275779205353
 20
314.3665050938428
 30
0.0
  0
VERTEX
  5
AF7
330
AC3
100
AcDbEntity
  8
4
100
AcDbVertex
100
AcDb2dVertex
 10
1616.124912564343
 20
314.233387469423
 30
0.0
  0
VERTEX
  5
AF8
330
AC3
100
AcDbEntity
  8
4
100
AcDbVertex
100
AcDb2dVertex
 10
1615.95629690675
 20
314.1091443532998
 30
0.0
  0
VERTEX
  5
AF9
330
AC3
100
AcDbEntity
  8
4
100
AcDbVertex
100
AcDb2dVertex
 10
1615.787681249149
 20
313.9849012371749
 30
0.0
  0
VERTEX
  5
AFA
330
AC3
100
AcDbEntity
  8
4
100
AcDbVertex
100
AcDb2dVertex
 10
1615.619065591555
 20
313.878407137641
 30
0.0
  0
VERTEX
  5
AFB
330
AC3
100
AcDbEntity
  8
4
100
AcDbVertex
100
AcDb2dVertex
 10
1615.441575425663
 20
313.7719130381058
 30
0.0
  0
VERTEX
  5
AFC
330
AC3
100
AcDbEntity
  8
4
100
AcDbVertex
100
AcDb2dVertex
 10
1615.255210751474
 20
313.6831679551599
 30
0.0
  0
VERTEX
  5
AFD
330
AC3
100
AcDbEntity
  8
4
100
AcDbVertex
100
AcDb2dVertex
 10
1615.059971568993
 20
313.594422872214
 30
0.0
  0
VERTEX
  5
AFE
330
AC3
100
AcDbEntity
  8
4
100
AcDbVertex
100
AcDb2dVertex
 10
1614.864732386516
 20
313.5234268058578
 30
0.0
  0
VERTEX
  5
AFF
330
AC3
100
AcDbEntity
  8
4
100
AcDbVertex
100
AcDb2dVertex
 10
1614.669493204034
 20
313.4524307395009
 30
0.0
  0
VERTEX
  5
B00
330
AC3
100
AcDbEntity
  8
4
100
AcDbVertex
100
AcDb2dVertex
 10
1614.465379513258
 20
313.3991836897328
 30
0.0
  0
VERTEX
  5
B01
330
AC3
100
AcDbEntity
  8
4
100
AcDbVertex
100
AcDb2dVertex
 10
1614.252391314189
 20
313.3548111482607
 30
0.0
  0
VERTEX
  5
B02
330
AC3
100
AcDbEntity
  8
4
100
AcDbVertex
100
AcDb2dVertex
 10
1614.039403115117
 20
313.3104386067866
 30
0.0
  0
VERTEX
  5
B03
330
AC3
100
AcDbEntity
  8
4
100
AcDbVertex
100
AcDb2dVertex
 10
1613.826414916048
 20
313.2838150819039
 30
0.0
  0
VERTEX
  5
B04
330
AC3
100
AcDbEntity
  8
4
100
AcDbVertex
100
AcDb2dVertex
 10
1613.604552208683
 20
313.2660660653148
 30
0.0
  0
VERTEX
  5
B05
330
AC3
100
AcDbEntity
  8
4
100
AcDbVertex
100
AcDb2dVertex
 10
1613.38268950132
 20
313.2660660653148
 30
0.0
  0
VERTEX
  5
B06
330
AC3
100
AcDbEntity
  8
4
100
AcDbVertex
100
AcDb2dVertex
 10
1613.38268950132
 20
312.0413839206619
 30
0.0
  0
VERTEX
  5
B07
330
AC3
100
AcDbEntity
  8
4
100
AcDbVertex
100
AcDb2dVertex
 10
1613.38268950132
 20
312.0413839206619
 30
0.0
  0
SEQEND
  5
B08
330
AC3
100
AcDbEntity
  8
4
  0
POLYLINE
  5
B09
330
1F
100
AcDbEntity
  8
4
100
AcDb2dPolyline
 66
     1
 10
0.0
 20
0.0
 30
0.0
  0
VERTEX
  5
B0A
330
B09
100
AcDbEntity
  8
4
100
AcDbVertex
100
AcDb2dVertex
 10
1618.893759152254
 20
317.4903320135347
 30
0.0
  0
VERTEX
  5
B0B
330
B09
100
AcDbEntity
  8
4
100
AcDbVertex
100
AcDb2dVertex
 10
1618.893759152254
 20
360.2565874851148
 30
0.0
  0
VERTEX
  5
B0C
330
B09
100
AcDbEntity
  8
4
100
AcDbVertex
100
AcDb2dVertex
 10
1617.669077007601
 20
360.2565874851148
 30
0.0
  0
VERTEX
  5
B0D
330
B09
100
AcDbEntity
  8
4
100
AcDbVertex
100
AcDb2dVertex
 10
1617.669077007601
 20
317.4903320135347
 30
0.0
  0
VERTEX
  5
B0E
330
B09
100
AcDbEntity
  8
4
100
AcDbVertex
100
AcDb2dVertex
 10
1618.893759152254
 20
317.4903320135347
 30
0.0
  0
VERTEX
  5
B0F
330
B09
100
AcDbEntity
  8
4
100
AcDbVertex
100
AcDb2dVertex
 10
1618.893759152254
 20
317.4903320135347
 30
0.0
  0
SEQEND
  5
B10
330
B09
100
AcDbEntity
  8
4
  0
HATCH
  5
B11
330
1F
100
AcDbEntity
  8
4
100
AcDbHatch
 10
0.0
 20
0.0
 30
0.0
210
0.0
220
0.0
230
1.0
  2
SOLID
 70
     1
 71
     0
 91
        2
 92
        7
 72
     0
 73
     1
 93
        4
 10
1618.281418079928
 20
360.2565874851148
 10
1617.669077007601
 20
360.2565874851148
 10
1617.669077007601
 20
317.4903320135347
 10
1618.281418079928
 20
317.4903320135347
 97
        0
 92
        7
 72
     0
 73
     1
 93
       42
 10
1617.908688731558
 20
315.6355597799677
 10
1618.219296521866
 20
316.5052615928348
 10
1618.281418079928
 20
317.4903320135347
 10
1617.669077007601
 20
317.4903320135347
 10
1617.669077007601
 20
317.2773438144639
 10
1617.651327991011
 20
317.0643556153898
 10
1617.624704466129
 20
316.8513674163457
 10
1617.58920643295
 20
316.6383792172528
 10
1617.535959383175
 20
316.4342655264459
 10
1617.482712333416
 20
316.2390263440038
 10
1617.411716267058
 20
316.0437871615179
 10
1617.340720200705
 20
315.8485479790418
 10
1617.251975117756
 20
315.662183304851
 10
1617.16323003481
 20
315.4758186306628
 10
1617.05673593528
 20
315.3072029730588
 10
1616.950241835741
 20
315.1297128071758
 10
1616.825998719619
 20
314.9699716578639
 10
1616.701755603491
 20
314.8013560002739
 10
1616.568637979076
 20
314.6504893592758
 10
1616.426645846352
 20
314.5084972265529
 10
1616.275779205359
 20
314.3665050938428
 10
1616.124912564343
 20
314.2333874694218
 10
1615.95629690675
 20
314.1091443532998
 10
1615.787681249145
 20
313.9849012371719
 10
1615.619065591538
 20
313.8784071376358
 10
1615.441575425663
 20
313.7719130381049
 10
1615.255210751479
 20
313.6831679551549
 10
1615.059971568997
 20
313.594422872214
 10
1614.864732386516
 20
313.5234268058578
 10
1614.669493204034
 20
313.4524307395009
 10
1614.465379513252
 20
313.3991836897308
 10
1614.252391314189
 20
313.3548111482607
 10
1614.039403115117
 20
313.3104386067866
 10
1613.826414916048
 20
313.2838150819039
 10
1613.604552208683
 20
313.2660660653148
 10
1613.38268950132
 20
313.2660660653148
 10
1613.38268950132
 20
312.6537249929877
 10
1614.367759922017
 20
312.7158465510497
 10
1615.299583292951
 20
313.0264543413618
 10
1616.107163547754
 20
313.4613052477948
 10
1616.8526222445
 20
314.0825208284177
 10
1617.473837825118
 20
314.7658579670988
 97
        0
 75
     0
 76
     1
 47
0.0138128488116407
 98
        2
 10
1618.094380605975
 20
349.8731160503319
 10
1617.392088330211
 20
315.3956730356517
450
        0
451
        0
460
0.0
461
0.0
452
        0
462
0.0
453
        0
470

  0
DIMENSION
  5
B12
330
1F
100
AcDbEntity
  8
AM_5
100
AcDbDimension
  2
*D13
 10
1021.27004473778
 20
443.6798208432269
 30
0.0
 11
1009.39834335332
 21
531.8674145681422
 31
0.0
 70
    32
  1
R1-DIN 2999
 71
     5
 42
30.94422703768919
  3
GEN-ISO
100
AcDbAlignedDimension
 13
989.4727311362755
 23
412.7355938055377
 33
0.0
 14
990.4712840664583
 24
443.6798208432269
 34
0.0
 50
90.0
100
AcDbRotatedDimension
1001
ACAD
1000
DSTYLE
1002
{
1070
    47
1040
3.0
1070
    48
1040
3.0
1070
    79
1070
     2
1070
   171
1070
     0
1070
   271
1070
     0
1070
   272
1070
     0
1002
}
  0
POINT
  5
B13
330
1F
100
AcDbEntity
  8
0
 60
     1
100
AcDbPoint
 10
9965.13309010049
 20
-632.8886330298636
 30
0.0
1001
GENIUS_GENOBJ-N-CRC_13
1002
{
1000
OWNER
1000
GEN
1002
}
1001
GENIUS_GENOENT_13
1002
{
1000
MYREF
1005
B13
1002
}
1002
{
1000
GRP
1005
0
1002
}
1001
GENIUS_GENOLIS_13
1002
{
1000
ENT
1005
0
1005
733
1002
}
1001
GENIUS_GENCRC_14
1070
     0
1011
10975.21236370984
1021
323.5097409356967
1031
0.0
1000
351
1000
10|20|30
1040
30.0
1070
     3
1040
0.5235987755982988
1001
GENIUS_GENODEF_13
1002
{
1000
HIER
1070
   250
1002
}
1002
{
1000
MANEDIT
1070
     1
1002
}
1002
{
1000
NOSEL
1070
     0
1002
}
1002
{
1000
BEHIND
1070
     0
1002
}
1002
{
1000
REACTOR
1002
}
  0
VIEWPORT
  5
6F
330
55
100
AcDbEntity
 67
     1
  8
0
100
AcDbViewport
 10
141.0
 20
85.0
 30
0.0
 40
384.7606204379562
 41
222.18
 68
     1
 69
     1
 12
141.0
 22
85.0
 13
0.0
 23
0.0
 14
10.0
 24
10.0
 15
10.0
 25
10.0
 16
0.0
 26
0.0
 36
1.0
 17
0.0
 27
0.0
 37
0.0
 42
50.0
 43
0.0
 44
0.0
 45
222.18
 50
0.0
 51
0.0
 72
   100
 90
    32800
  1

281
     0
 71
     1
 74
     0
110
0.0
120
0.0
130
0.0
111
1.0
121
0.0
131
0.0
112
0.0
122
1.0
132
0.0
 79
     0
146
0.0
170
     0
1001
GENIUS_GENSCREG_15
1000
PF
1040
1.0
1000
DF
1040
1.0
1000
MIN
1011
-51.38031021897808
1021
-26.09
1031
0.0
1000
MAX
1011
333.3803102189782
1021
196.09
1031
0.0
1000
FLAGS
1070
     4
1001
GENIUS_GENOBJ-N-SDF_13
1002
{
1000
OWNER
1000
GEN
1002
}
1001
GENIUS_GENODEF_13
1002
{
1000
HIER
1070
     0
1002
}
1002
{
1000
MANEDIT
1070
     0
1002
}
1002
{
1000
NOSEL
1070
     0
1002
}
1002
{
1000
BEHIND
1070
     0
1002
}
1002
{
1000
OTHER
1070
     0
1002
}
1002
{
1000
REACTOR
1002
}
  0
VIEWPORT
  5
71
330
55
100
AcDbEntity
 67
     1
  8
0
100
AcDbViewport
 10
141.0
 20
85.0
 30
0.0
 40
225.6
 41
136.0
 68
     2
 69
     2
 12
210.0
 22
148.5
 13
0.0
 23
0.0
 14
10.0
 24
10.0
 15
10.0
 25
10.0
 16
0.0
 26
0.0
 36
1.0
 17
0.0
 27
0.0
 37
0.0
 42
50.0
 43
0.0
 44
0.0
 45
302.3194029850746
 50
0.0
 51
0.0
 72
   100
 90
    32864
  1

281
     0
 71
     1
 74
     0
110
0.0
120
0.0
130
0.0
111
1.0
121
0.0
131
0.0
112
0.0
122
1.0
132
0.0
 79
     0
146
0.0
170
     0
1001
GENIUS_GENSCREG_15
1000
PF
1040
0.0
1000
DF
1040
0.0
1000
MIN
1011
28.19999999999999
1021
17.0
1031
0.0
1000
MAX
1011
253.8
1021
153.0
1031
0.0
1000
FLAGS
1070
     4
1001
GENIUS_GENODEF_13
1002
{
1000
HIER
1070
     0
1002
}
1002
{
1000
MANEDIT
1070
     0
1002
}
1002
{
1000
NOSEL
1070
     0
1002
}
1002
{
1000
BEHIND
1070
     0
1002
}
1002
{
1000
OTHER
1070
     0
1002
}
1002
{
1000
REACTOR
1002
}
1001
GENIUS_GENOBJ-N-SDF_13
1002
{
1000
OWNER
1000
GEN
1002
}
  0
ENDSEC
  0
SECTION
  2
OBJECTS
  0
DICTIONARY
  5
C
330
0
100
AcDbDictionary
281
     1
  3
ACAD_COLOR
350
F6
  3
ACAD_GROUP
350
D
  3
ACAD_LAYOUT
350
1A
  3
ACAD_MATERIAL
350
F5
  3
ACAD_MLINESTYLE
350
17
  3
ACAD_PLOTSETTINGS
350
19
  3
ACAD_PLOTSTYLENAME
350
E
  3
ACAD_TABLESTYLE
350
16F
  3
ACAD_VISUALSTYLE
350
1EE
  3
AcDbVariableDictionary
350
DA
  3
AcmDictionary
350
97
  3
AMG
350
7D
  3
AMGSNAPSETTINGS
350
726
  0
DICTIONARY
  5
D5
330
1F
100
AcDbDictionary
280
     1
281
     1
  0
DICTIONARY
  5
F6
102
{ACAD_REACTORS
330
C
102
}
330
C
100
AcDbDictionary
281
     1
  0
DICTIONARY
  5
D
102
{ACAD_REACTORS
330
C
102
}
330
C
100
AcDbDictionary
281
     1
  0
DICTIONARY
  5
1A
102
{ACAD_REACTORS
330
C
102
}
330
C
100
AcDbDictionary
281
     1
  3
Layout1
350
51
  3
Layout2
350
56
  3
Model
350
22
  0
DICTIONARY
  5
F5
102
{ACAD_REACTORS
330
C
102
}
330
C
100
AcDbDictionary
281
     1
  3
ByBlock
350
1EC
  3
ByLayer
350
1EB
  3
Global
350
1ED
  0
DICTIONARY
  5
17
102
{ACAD_REACTORS
330
C
102
}
330
C
100
AcDbDictionary
281
     1
  3
Standard
350
18
  0
DICTIONARY
  5
19
102
{ACAD_REACTORS
330
C
102
}
330
C
100
AcDbDictionary
281
     1
  0
ACDBDICTIONARYWDFLT
  5
E
102
{ACAD_REACTORS
330
C
102
}
330
C
100
AcDbDictionary
281
     1
  3
Normal
350
F
100
AcDbDictionaryWithDefault
340
F
  0
DICTIONARY
  5
16F
102
{ACAD_REACTORS
330
C
102
}
330
C
100
AcDbDictionary
281
     1
  3
Standard
350
170
  0
DICTIONARY
  5
1EE
102
{ACAD_REACTORS
330
C
102
}
330
C
100
AcDbDictionary
281
     1
  3
2dWireframe
350
1F4
  3
3D Hidden
350
1F6
  3
3dWireframe
350
1F5
  3
Basic
350
1F3
  3
Brighten
350
1FA
  3
ColorChange
350
1FE
  3
Conceptual
350
1F7
  3
Dim
350
1F9
  3
EdgeColorOff
350
C1A
  3
Facepattern
350
1FD
  3
Flat
350
1EF
  3
FlatWithEdges
350
1F0
  3
Gouraud
350
1F1
  3
GouraudWithEdges
350
1F2
  3
JitterOff
350
C1D
  3
Linepattern
350
1FC
  3
OverhangOff
350
C20
  3
Realistic
350
1F8
  3
Thicken
350
1FB
  0
DICTIONARY
  5
DA
102
{ACAD_REACTORS
330
C
102
}
330
C
100
AcDbDictionary
281
     1
  3
CTABLESTYLE
350
18F
  3
DIMASSOC
350
DC
  3
INDEXCTL
350
DB
  0
DICTIONARY
  5
97
102
{ACAD_REACTORS
330
C
102
}
330
C
100
AcDbDictionary
281
     1
  3
AcmStdDictionary
350
9D
  3
AMDTSECTSYM_ARROWCOLOR
350
186
  0
DICTIONARY
  5
7D
102
{ACAD_REACTORS
330
C
102
}
330
C
100
AcDbDictionary
281
     1
  0
DICTIONARY
  5
726
102
{ACAD_REACTORS
330
C
102
}
330
C
100
AcDbDictionary
281
     1
  0
LAYOUT
  5
51
102
{ACAD_REACTORS
330
1A
102
}
330
1A
100
AcDbPlotSettings
  1

  2
none_device
  4
ISO_A4_(210.00_x_297.00_MM)
  6

 40
7.5
 41
20.0
 42
7.5
 43
20.0
 44
210.0
 45
297.0
 46
0.0
 47
0.0
 48
0.0
 49
0.0
140
0.0
141
0.0
142
1.0
143
1.0
 70
   688
 72
     1
 73
     1
 74
     5
  7
ganz_fein_1.ctb
 75
    16
147
1.0
 76
     0
 77
     2
 78
   300
148
0.0
149
0.0
100
AcDbLayout
  1
Layout1
 70
     1
 71
     1
 10
-20.0
 20
-7.5
 11
277.0
 21
202.5
 12
0.0
 22
0.0
 32
0.0
 14
25.69999999999999
 24
19.5
 34
0.0
 15
231.3
 25
175.5
 35
0.0
146
0.0
 13
0.0
 23
0.0
 33
0.0
 16
1.0
 26
0.0
 36
0.0
 17
0.0
 27
1.0
 37
0.0
 76
     0
330
50
331
69
  0
LAYOUT
  5
56
102
{ACAD_REACTORS
330
1A
102
}
330
1A
100
AcDbPlotSettings
  1

  2
none_device
  4
ISO_A4_(297.00_x_210.00_MM)
  6

 40
7.5
 41
20.0
 42
7.5
 43
20.0
 44
297.0
 45
210.0
 46
0.0
 47
0.0
 48
0.0
 49
0.0
140
0.0
141
0.0
142
1.0
143
1.0
 70
   688
 72
     1
 73
     0
 74
     5
  7
ganz_fein_1.ctb
 75
    16
147
1.0
 76
     0
 77
     2
 78
   300
148
0.0
149
0.0
100
AcDbLayout
  1
Layout2
 70
     1
 71
     2
 10
-7.5
 20
-20.0
 11
289.5
 21
190.0
 12
0.0
 22
0.0
 32
0.0
 14
28.19999999999999
 24
17.0
 34
0.0
 15
253.8
 25
153.0
 35
0.0
146
0.0
 13
0.0
 23
0.0
 33
0.0
 16
1.0
 26
0.0
 36
0.0
 17
0.0
 27
1.0
 37
0.0
 76
     0
330
55
331
6F
  0
LAYOUT
  5
22
102
{ACAD_REACTORS
330
1A
102
}
330
1A
100
AcDbPlotSettings
  1

  2
FreePDF XP
  4
A4
  6

 40
3.174999952316284
 41
3.174999952316284
 42
3.175003051757812
 43
3.17498779296875
 44
209.8886566162109
 45
297.0530090332031
 46
3.107529924517373
 47
-0.000000000000003
 48
180.7459062967995
 49
42.83332972482218
140
1922.0673495057
141
1224.808678823171
142
1.0
143
5.990035588533703
 70
 11956
 72
     1
 73
     1
 74
     4
  7
ganz_fein_1.ctb
 75
     0
147
0.1669439163123218
 76
     0
 77
     2
 78
   300
148
-180.7459062967995
149
-42.83332972482218
100
AcDbLayout
  1
Model
 70
     1
 71
     0
 10
0.0
 20
0.0
 11
12.0
 21
9.0
 12
0.0
 22
0.0
 32
0.0
 14
0.0
 24
0.0
 34
0.0
 15
0.0
 25
0.0
 35
0.0
146
0.0
 13
0.0
 23
0.0
 33
0.0
 16
1.0
 26
0.0
 36
0.0
 17
0.0
 27
1.0
 37
0.0
 76
     0
330
1F
331
1E9
1001
ACAD_PSEXT
1000
FreePDF XP
1000
Apple Color LW 12/660 PS
1000
FreePDFXP1:
1000

1070
     0
  0
MATERIAL
  5
1EC
102
{ACAD_XDICTIONARY
360
C31
102
}
102
{ACAD_REACTORS
330
F5
102
}
330
F5
100
AcDbMaterial
  1
ByBlock
  0
MATERIAL
  5
1EB
102
{ACAD_XDICTIONARY
360
C2F
102
}
102
{ACAD_REACTORS
330
F5
102
}
330
F5
100
AcDbMaterial
  1
ByLayer
  0
MATERIAL
  5
1ED
102
{ACAD_XDICTIONARY
360
C33
102
}
102
{ACAD_REACTORS
330
F5
102
}
330
F5
100
AcDbMaterial
  1
Global
  0
MLINESTYLE
  5
18
102
{ACAD_REACTORS
330
17
102
}
330
17
100
AcDbMlineStyle
  2
STANDARD
 70
     0
  3

 62
   256
 51
90.0
 52
90.0
 71
     2
 49
0.5
 62
   256
  6
BYLAYER
 49
-0.5
 62
   256
  6
BYLAYER
  0
ACDBPLACEHOLDER
  5
F
102
{ACAD_REACTORS
330
E
102
}
330
E
  0
TABLESTYLE
  5
170
102
{ACAD_XDICTIONARY
360
C2D
102
}
102
{ACAD_REACTORS
330
16F
102
}
330
16F
100
AcDbTableStyle
  3
Standard
 70
     0
 71
     0
 40
1.5
 41
1.5
280
     0
281
     0
  7
STANDARD
140
4.5
170
     2
 62
     0
 63
     7
283
     0
274
    -2
284
     1
 64
     0
275
    -2
285
     1
 65
     0
276
    -2
286
     1
 66
     0
277
    -2
287
     1
 67
     0
278
    -2
288
     1
 68
     0
279
    -2
289
     1
 69
     0
  7
STANDARD
140
6.0
170
     5
 62
     0
 63
     7
283
     0
274
    -2
284
     1
 64
     0
275
    -2
285
     1
 65
     0
276
    -2
286
     1
 66
     0
277
    -2
287
     1
 67
     0
278
    -2
288
     1
 68
     0
279
    -2
289
     1
 69
     0
  7
STANDARD
140
4.5
170
     5
 62
     0
 63
     7
283
     0
274
    -2
284
     1
 64
     0
275
    -2
285
     1
 65
     0
276
    -2
286
     1
 66
     0
277
    -2
287
     1
 67
     0
278
    -2
288
     1
 68
     0
279
    -2
289
     1
 69
     0
  0
VISUALSTYLE
  5
1F4
102
{ACAD_REACTORS
330
1EE
102
}
330
1EE
100
AcDbVisualStyle
  2
2dWireframe
 70
     4
 71
     0
 72
     2
 73
     0
 90
        0
 40
-0.6
 41
-30.0
 62
     5
 63
     7
421
 16777215
 74
     1
 91
        4
 64
     7
 65
   257
 75
     1
175
     1
 42
1.0
 92
        0
 66
   257
 43
1.0
 76
     1
 77
     6
 78
     2
 67
     7
 79
     5
170
     0
171
     0
290
     0
174
     0
 93
        1
 44
0.0
173
     0
291
     0
 45
0.0
1001
ACAD
1000
AcDbSavedByObjectVersion
1070
     0
  0
VISUALSTYLE
  5
1F6
102
{ACAD_REACTORS
330
1EE
102
}
330
1EE
100
AcDbVisualStyle
  2
3D Hidden
 70
     6
 71
     1
 72
     2
 73
     2
 90
        0
 40
-0.6
 41
-30.0
 62
     5
 63
     7
421
 16777215
 74
     2
 91
        2
 64
     7
 65
   257
 75
     2
175
     1
 42
40.0
 92
        0
 66
   257
 43
1.0
 76
     1
 77
     6
 78
     2
 67
     7
 79
     3
170
     0
171
     0
290
     0
174
     0
 93
        1
 44
0.0
173
     0
291
     0
 45
0.0
1001
ACAD
1000
AcDbSavedByObjectVersion
1070
     0
  0
VISUALSTYLE
  5
1F5
102
{ACAD_REACTORS
330
1EE
102
}
330
1EE
100
AcDbVisualStyle
  2
3dWireframe
 70
     5
 71
     0
 72
     2
 73
     0
 90
        0
 40
-0.6
 41
-30.0
 62
     5
 63
     7
421
 16777215
 74
     1
 91
        4
 64
     7
 65
   257
 75
     1
175
     1
 42
1.0
 92
        0
 66
   257
 43
1.0
 76
     1
 77
     6
 78
     2
 67
     7
 79
     5
170
     0
171
     0
290
     0
174
     0
 93
        1
 44
0.0
173
     0
291
     0
 45
0.0
1001
ACAD
1000
AcDbSavedByObjectVersion
1070
     0
  0
VISUALSTYLE
  5
1F3
102
{ACAD_REACTORS
330
1EE
102
}
330
1EE
100
AcDbVisualStyle
  2
Basic
 70
     7
 71
     1
 72
     0
 73
     1
 90
        0
 40
-0.6
 41
-30.0
 62
     5
 63
     7
421
 16777215
 74
     0
 91
        4
 64
     7
 65
   257
 75
     1
175
     1
 42
1.0
 92
        8
 66
     7
 43
1.0
 76
     1
 77
     6
 78
     2
 67
     7
 79
     5
170
     0
171
     0
290
     0
174
     0
 93
        1
 44
0.0
173
     0
291
     1
 45
0.0
1001
ACAD
1000
AcDbSavedByObjectVersion
1070
     0
  0
VISUALSTYLE
  5
1FA
102
{ACAD_REACTORS
330
1EE
102
}
330
1EE
100
AcDbVisualStyle
  2
Brighten
 70
    12
 71
     2
 72
     2
 73
     0
 90
        0
 40
-0.6
 41
-30.0
 62
     5
 63
     7
421
 16777215
 74
     1
 91
        4
 64
     7
 65
   257
 75
     1
175
     1
 42
1.0
 92
        8
 66
     7
 43
1.0
 76
     1
 77
     6
 78
     2
 67
     7
 79
     5
170
     0
171
     0
290
     0
174
     0
 93
        1
 44
50.0
173
     0
291
     1
 45
0.0
1001
ACAD
1000
AcDbSavedByObjectVersion
1070
     0
  0
VISUALSTYLE
  5
1FE
102
{ACAD_REACTORS
330
1EE
102
}
330
1EE
100
AcDbVisualStyle
  2
ColorChange
 70
    16
 71
     2
 72
     2
 73
     3
 90
        0
 40
-0.6
 41
-30.0
 62
     5
 63
     8
421
  8421504
 74
     1
 91
        4
 64
     7
 65
   257
 75
     1
175
     1
 42
1.0
 92
        8
 66
     8
424
  8421504
 43
1.0
 76
     1
 77
     6
 78
     2
 67
     7
 79
     5
170
     0
171
     0
290
     0
174
     0
 93
        1
 44
0.0
173
     0
291
     1
 45
0.0
1001
ACAD
1000
AcDbSavedByObjectVersion
1070
     0
  0
VISUALSTYLE
  5
1F7
102
{ACAD_REACTORS
330
1EE
102
}
330
1EE
100
AcDbVisualStyle
  2
Conceptual
 70
     9
 71
     3
 72
     2
 73
     0
 90
        0
 40
-0.6
 41
-30.0
 62
     5
 63
     7
421
 16777215
 74
     2
 91
        2
 64
     7
 65
   257
 75
     1
175
     1
 42
40.0
 92
        8
 66
     7
 43
1.0
 76
     1
 77
     6
 78
     2
 67
     7
 79
     3
170
     0
171
     0
290
     0
174
     0
 93
        1
 44
0.0
173
     0
291
     0
 45
0.0
1001
ACAD
1000
AcDbSavedByObjectVersion
1070
     0
  0
VISUALSTYLE
  5
1F9
102
{ACAD_REACTORS
330
1EE
102
}
330
1EE
100
AcDbVisualStyle
  2
Dim
 70
    11
 71
     2
 72
     2
 73
     0
 90
        0
 40
-0.6
 41
-30.0
 62
     5
 63
     7
421
 16777215
 74
     1
 91
        4
 64
     7
 65
   257
 75
     1
175
     1
 42
1.0
 92
        8
 66
     7
 43
1.0
 76
     1
 77
     6
 78
     2
 67
     7
 79
     5
170
     0
171
     0
290
     0
174
     0
 93
        1
 44
-50.0
173
     0
291
     1
 45
0.0
1001
ACAD
1000
AcDbSavedByObjectVersion
1070
     0
  0
VISUALSTYLE
  5
C1A
102
{ACAD_XDICTIONARY
360
C1B
102
}
102
{ACAD_REACTORS
330
1EE
102
}
330
1EE
100
AcDbVisualStyle
  2
EdgeColorOff
 70
    22
 71
     2
 72
     2
 73
     0
 90
        0
 40
-0.6
 41
-30.0
 62
     5
 63
     7
 74
     1
 91
        4
 64
     7
 65
   257
 75
     1
175
     1
 42
1.0
 92
        8
 66
     7
 43
1.0
 76
     1
 77
     6
 78
     2
 67
     7
 79
     5
170
     0
171
     0
290
     0
174
     0
 93
        1
 44
0.0
173
     0
291
     1
 45
0.0
1001
ACAD
1000
AcDbSavedByObjectVersion
1070
     0
  0
VISUALSTYLE
  5
1FD
102
{ACAD_REACTORS
330
1EE
102
}
330
1EE
100
AcDbVisualStyle
  2
Facepattern
 70
    15
 71
     2
 72
     2
 73
     0
 90
        0
 40
-0.6
 41
-30.0
 62
     5
 63
     7
421
 16777215
 74
     1
 91
        4
 64
     7
 65
   257
 75
     1
175
     1
 42
1.0
 92
        8
 66
     7
 43
1.0
 76
     1
 77
     6
 78
     2
 67
     7
 79
     5
170
     0
171
     0
290
     0
174
     0
 93
        1
 44
0.0
173
     0
291
     1
 45
0.0
1001
ACAD
1000
AcDbSavedByObjectVersion
1070
     0
  0
VISUALSTYLE
  5
1EF
102
{ACAD_REACTORS
330
1EE
102
}
330
1EE
100
AcDbVisualStyle
  2
Flat
 70
     0
 71
     2
 72
     1
 73
     1
 90
        2
 40
-0.6
 41
30.0
 62
     5
 63
     7
421
 16777215
 74
     0
 91
        4
 64
     7
 65
   257
 75
     1
175
     1
 42
1.0
 92
        8
 66
     7
 43
1.0
 76
     1
 77
     6
 78
     2
 67
     7
 79
     5
170
     0
171
     0
290
     0
174
     0
 93
       13
 44
0.0
173
     0
291
     1
 45
0.0
1001
ACAD
1000
AcDbSavedByObjectVersion
1070
     0
  0
VISUALSTYLE
  5
1F0
102
{ACAD_REACTORS
330
1EE
102
}
330
1EE
100
AcDbVisualStyle
  2
FlatWithEdges
 70
     1
 71
     2
 72
     1
 73
     1
 90
        2
 40
-0.6
 41
30.0
 62
     5
 63
     7
421
 16777215
 74
     1
 91
        4
 64
     7
 65
   257
 75
     1
175
     1
 42
1.0
 92
        0
 66
   257
 43
1.0
 76
     1
 77
     6
 78
     2
 67
     7
 79
     5
170
     0
171
     0
290
     0
174
     0
 93
       13
 44
0.0
173
     0
291
     1
 45
0.0
1001
ACAD
1000
AcDbSavedByObjectVersion
1070
     0
  0
VISUALSTYLE
  5
1F1
102
{ACAD_REACTORS
330
1EE
102
}
330
1EE
100
AcDbVisualStyle
  2
Gouraud
 70
     2
 71
     2
 72
     2
 73
     1
 90
        2
 40
-0.6
 41
30.0
 62
     5
 63
     7
421
 16777215
 74
     0
 91
        4
 64
     7
 65
   257
 75
     1
175
     1
 42
1.0
 92
        0
 66
     7
 43
1.0
 76
     1
 77
     6
 78
     2
 67
     7
 79
     5
170
     0
171
     0
290
     0
174
     0
 93
       13
 44
0.0
173
     0
291
     1
 45
0.0
1001
ACAD
1000
AcDbSavedByObjectVersion
1070
     0
  0
VISUALSTYLE
  5
1F2
102
{ACAD_REACTORS
330
1EE
102
}
330
1EE
100
AcDbVisualStyle
  2
GouraudWithEdges
 70
     3
 71
     2
 72
     2
 73
     1
 90
        2
 40
-0.6
 41
30.0
 62
     5
 63
     7
421
 16777215
 74
     1
 91
        4
 64
     7
 65
   257
 75
     1
175
     1
 42
1.0
 92
        0
 66
   257
 43
1.0
 76
     1
 77
     6
 78
     2
 67
     7
 79
     5
170
     0
171
     0
290
     0
174
     0
 93
       13
 44
0.0
173
     0
291
     1
 45
0.0
1001
ACAD
1000
AcDbSavedByObjectVersion
1070
     0
  0
VISUALSTYLE
  5
C1D
102
{ACAD_XDICTIONARY
360
C1E
102
}
102
{ACAD_REACTORS
330
1EE
102
}
330
1EE
100
AcDbVisualStyle
  2
JitterOff
 70
    20
 71
     2
 72
     2
 73
     0
 90
        0
 40
-0.6
 41
-30.0
 62
     5
 63
     7
 74
     1
 91
        4
 64
     7
 65
   257
 75
     1
175
     1
 42
1.0
 92
       10
 66
     7
 43
1.0
 76
     1
 77
     6
 78
     2
 67
     7
 79
     5
170
     0
171
     0
290
     0
174
     0
 93
        1
 44
0.0
173
     0
291
     1
 45
0.0
1001
ACAD
1000
AcDbSavedByObjectVersion
1070
     0
  0
VISUALSTYLE
  5
1FC
102
{ACAD_REACTORS
330
1EE
102
}
330
1EE
100
AcDbVisualStyle
  2
Linepattern
 70
    14
 71
     2
 72
     2
 73
     0
 90
        0
 40
-0.6
 41
-30.0
 62
     5
 63
     7
421
 16777215
 74
     1
 91
        4
 64
     7
 65
   257
 75
     7
175
     7
 42
1.0
 92
        8
 66
     7
 43
1.0
 76
     1
 77
     6
 78
     2
 67
     7
 79
     5
170
     0
171
     0
290
     0
174
     0
 93
        1
 44
0.0
173
     0
291
     1
 45
0.0
1001
ACAD
1000
AcDbSavedByObjectVersion
1070
     0
  0
VISUALSTYLE
  5
C20
102
{ACAD_XDICTIONARY
360
C21
102
}
102
{ACAD_REACTORS
330
1EE
102
}
330
1EE
100
AcDbVisualStyle
  2
OverhangOff
 70
    21
 71
     2
 72
     2
 73
     0
 90
        0
 40
-0.6
 41
-30.0
 62
     5
 63
     7
 74
     1
 91
        4
 64
     7
 65
   257
 75
     1
175
     1
 42
1.0
 92
        9
 66
     7
 43
1.0
 76
     1
 77
     6
 78
     2
 67
     7
 79
     5
170
     0
171
     0
290
     0
174
     0
 93
        1
 44
0.0
173
     0
291
     1
 45
0.0
1001
ACAD
1000
AcDbSavedByObjectVersion
1070
     0
  0
VISUALSTYLE
  5
1F8
102
{ACAD_REACTORS
330
1EE
102
}
330
1EE
100
AcDbVisualStyle
  2
Realistic
 70
     8
 71
     2
 72
     2
 73
     0
 90
        0
 40
-0.6
 41
-30.0
 62
     5
 63
     7
421
 16777215
 74
     1
 91
        0
 64
     7
 65
   257
 75
     1
175
     1
 42
1.0
 92
        8
 66
     8
424
  7895160
 43
1.0
 76
     1
 77
     6
 78
     2
 67
     7
 79
     5
170
     0
171
     0
290
     0
174
     0
 93
       13
 44
0.0
173
     0
291
     0
 45
0.0
1001
ACAD
1000
AcDbSavedByObjectVersion
1070
     0
  0
VISUALSTYLE
  5
1FB
102
{ACAD_REACTORS
330
1EE
102
}
330
1EE
100
AcDbVisualStyle
  2
Thicken
 70
    13
 71
     2
 72
     2
 73
     0
 90
        0
 40
-0.6
 41
-30.0
 62
     5
 63
     7
421
 16777215
 74
     1
 91
        4
 64
     7
 65
   257
 75
     1
175
     1
 42
1.0
 92
       12
 66
     7
 43
1.0
 76
     1
 77
     6
 78
     2
 67
     7
 79
     5
170
     0
171
     0
290
     0
174
     0
 93
        1
 44
0.0
173
     0
291
     1
 45
0.0
1001
ACAD
1000
AcDbSavedByObjectVersion
1070
     0
  0
DICTIONARYVAR
  5
18F
102
{ACAD_REACTORS
330
DA
102
}
330
DA
100
DictionaryVariables
280
     0
  1
STANDARD
  0
DICTIONARYVAR
  5
DC
102
{ACAD_REACTORS
330
DA
102
}
330
DA
100
DictionaryVariables
280
     0
  1
1
  0
DICTIONARYVAR
  5
DB
102
{ACAD_REACTORS
330
DA
102
}
330
DA
100
DictionaryVariables
280
     0
  1
1
  0
DICTIONARY
  5
9D
102
{ACAD_REACTORS
330
97
102
}
330
97
100
AcDbDictionary
281
     1
  0
XRECORD
  5
186
102
{ACAD_REACTORS
330
97
102
}
330
97
100
AcDbXrecord
280
     1
 90
-1023410169
  0
DICTIONARY
  5
C31
330
1EC
100
AcDbDictionary
280
     1
281
     1
  3
ACAD_XREC_ROUNDTRIP
360
C32
  0
DICTIONARY
  5
C2F
330
1EB
100
AcDbDictionary
280
     1
281
     1
  3
ACAD_XREC_ROUNDTRIP
360
C30
  0
DICTIONARY
  5
C33
330
1ED
100
AcDbDictionary
280
     1
281
     1
  3
ACAD_XREC_ROUNDTRIP
360
C34
  0
DICTIONARY
  5
C2D
330
170
100
AcDbDictionary
280
     1
281
     1
  3
ACAD_XREC_ROUNDTRIP
360
C2E
  0
DICTIONARY
  5
C1B
330
C1A
100
AcDbDictionary
280
     1
281
     1
  3
ACAD_XREC_ROUNDTRIP
360
C1C
  0
DICTIONARY
  5
C1E
330
C1D
100
AcDbDictionary
280
     1
281
     1
  3
ACAD_XREC_ROUNDTRIP
360
C1F
  0
DICTIONARY
  5
C21
330
C20
100
AcDbDictionary
280
     1
281
     1
  3
ACAD_XREC_ROUNDTRIP
360
C22
  0
XRECORD
  5
C32
102
{ACAD_REACTORS
330
C31
102
}
330
C31
100
AcDbXrecord
280
     1
102
MATERIAL
148
0.0
149
0.0
149
0.0
 93
        0
 94
       63
282
     0
 72
     1
 77
     1
171
     1
175
     1
179
     1
273
     0
  0
XRECORD
  5
C30
102
{ACAD_REACTORS
330
C2F
102
}
330
C2F
100
AcDbXrecord
280
     1
102
MATERIAL
148
0.0
149
0.0
149
0.0
 93
        0
 94
       63
282
     0
 72
     1
 77
     1
171
     1
175
     1
179
     1
273
     0
  0
XRECORD
  5
C34
102
{ACAD_REACTORS
330
C33
102
}
330
C33
100
AcDbXrecord
280
     1
102
MATERIAL
148
0.0
149
0.0
149
0.0
 93
        0
 94
       63
282
     0
 72
     1
 77
     1
171
     1
175
     1
179
     1
273
     0
  0
XRECORD
  5
C2E
102
{ACAD_REACTORS
330
C2D
102
}
330
C2D
100
AcDbXrecord
280
     1
102
ACAD_ROUNDTRIP_PRE2007_TABLESTYLE
 90
        4
 91
        0
  1

 92
        4
 93
        0
  2

 94
        4
 95
        0
  3

  0
XRECORD
  5
C1C
102
{ACAD_REACTORS
330
C1B
102
}
330
C1B
100
AcDbXrecord
280
     1
102
RTVSPropertyOp0
 70
     0
102
RTVSPropertyOp1
 70
     0
102
RTVSPropertyOp2
 70
     0
102
RTVSPropertyOp3
 70
     0
102
RTVSPropertyOp4
 70
     0
102
RTVSPropertyOp5
 70
     0
102
RTVSPropertyOp6
 70
     0
102
RTVSPropertyOp7
 70
     0
102
RTVSPropertyOp8
 70
     0
102
RTVSPropertyOp9
 70
     0
102
RTVSPropertyOp10
 70
     0
102
RTVSPropertyOp11
 70
     0
102
RTVSPropertyOp12
 70
     0
102
RTVSPropertyOp13
 70
     0
102
RTVSPropertyOp14
 70
     2
102
RTVSPropertyOp15
 70
     0
102
RTVSPropertyOp16
 70
     0
102
RTVSPropertyOp17
 70
     0
102
RTVSPropertyOp18
 70
     0
102
RTVSPropertyOp19
 70
     0
102
RTVSPropertyOp20
 70
     0
102
RTVSPropertyOp21
 70
     0
102
RTVSPropertyOp22
 70
     0
102
RTVSPropertyOp23
 70
     0
102
RTVSPropertyOp24
 70
     0
102
RTVSPropertyOp25
 70
     0
102
RTVSPropertyOp26
 70
     0
102
RTVSPropertyOp27
 70
     0
  0
XRECORD
  5
C1F
102
{ACAD_REACTORS
330
C1E
102
}
330
C1E
100
AcDbXrecord
280
     1
102
RTVSPropertyOp0
 70
     0
102
RTVSPropertyOp1
 70
     0
102
RTVSPropertyOp2
 70
     0
102
RTVSPropertyOp3
 70
     0
102
RTVSPropertyOp4
 70
     0
102
RTVSPropertyOp5
 70
     0
102
RTVSPropertyOp6
 70
     0
102
RTVSPropertyOp7
 70
     0
102
RTVSPropertyOp8
 70
     0
102
RTVSPropertyOp9
 70
     0
102
RTVSPropertyOp10
 70
     0
102
RTVSPropertyOp11
 70
     0
102
RTVSPropertyOp12
 70
     0
102
RTVSPropertyOp13
 70
     0
102
RTVSPropertyOp14
 70
     2
102
RTVSPropertyOp15
 70
     0
102
RTVSPropertyOp16
 70
     0
102
RTVSPropertyOp17
 70
     0
102
RTVSPropertyOp18
 70
     0
102
RTVSPropertyOp19
 70
     0
102
RTVSPropertyOp20
 70
     0
102
RTVSPropertyOp21
 70
     0
102
RTVSPropertyOp22
 70
     0
102
RTVSPropertyOp23
 70
     0
102
RTVSPropertyOp24
 70
     0
102
RTVSPropertyOp25
 70
     0
102
RTVSPropertyOp26
 70
     0
102
RTVSPropertyOp27
 70
     0
  0
XRECORD
  5
C22
102
{ACAD_REACTORS
330
C21
102
}
330
C21
100
AcDbXrecord
280
     1
102
RTVSPropertyOp0
 70
     0
102
RTVSPropertyOp1
 70
     0
102
RTVSPropertyOp2
 70
     0
102
RTVSPropertyOp3
 70
     0
102
RTVSPropertyOp4
 70
     0
102
RTVSPropertyOp5
 70
     0
102
RTVSPropertyOp6
 70
     0
102
RTVSPropertyOp7
 70
     0
102
RTVSPropertyOp8
 70
     0
102
RTVSPropertyOp9
 70
     0
102
RTVSPropertyOp10
 70
     0
102
RTVSPropertyOp11
 70
     0
102
RTVSPropertyOp12
 70
     0
102
RTVSPropertyOp13
 70
     0
102
RTVSPropertyOp14
 70
     2
102
RTVSPropertyOp15
 70
     0
102
RTVSPropertyOp16
 70
     0
102
RTVSPropertyOp17
 70
     0
102
RTVSPropertyOp18
 70
     0
102
RTVSPropertyOp19
 70
     0
102
RTVSPropertyOp20
 70
     0
102
RTVSPropertyOp21
 70
     0
102
RTVSPropertyOp22
 70
     0
102
RTVSPropertyOp23
 70
     0
102
RTVSPropertyOp24
 70
     0
102
RTVSPropertyOp25
 70
     0
102
RTVSPropertyOp26
 70
     0
102
RTVSPropertyOp27
 70
     0
  0
ENDSEC
  0
EOF
