  0
SECTION
  2
HEADER
  9
$ACADVER
  1
AC1018
  9
$ACADMAINTVER
 70
   104
  9
$DWGCODEPAGE
  3
ANSI_1252
  9
$LASTSAVEDBY
  1
Oberdoer
  9
$CUSTOMPROPERTYTAG
  1
AmdtFileType
  9
$CUSTOMPROPERTY
  1
84
  9
$INSBASE
 10
0.0
 20
0.0
 30
0.0
  9
$EXTMIN
 10
325.1642874888075
 20
360.6030204079361
 30
-0.0000000349181977
  9
$EXTMAX
 10
2018.433111409458
 20
1433.792426149839
 30
0.0000000814935718
  9
$LIMMIN
 10
0.0
 20
0.0
  9
$LIMMAX
 10
420.0
 20
297.0
  9
$ORTHOMODE
 70
     0
  9
$REGENMODE
 70
     1
  9
$FILLMODE
 70
     1
  9
$QTEXTMODE
 70
     0
  9
$MIRRTEXT
 70
     1
  9
$LTSCALE
 40
1.0
  9
$ATTMODE
 70
     1
  9
$TEXTSIZE
 40
2.5
  9
$TRACEWID
 40
1.0
  9
$TEXTSTYLE
  7
STANDARD
  9
$CLAYER
  8
0
  9
$CELTYPE
  6
ByLayer
  9
$CECOLOR
 62
   256
  9
$CELTSCALE
 40
1.0
  9
$DISPSILH
 70
     0
  9
$DIMSCALE
 40
1.0
  9
$DIMASZ
 40
2.5
  9
$DIMEXO
 40
0.0
  9
$DIMDLI
 40
10.0
  9
$DIMRND
 40
0.0
  9
$DIMDLE
 40
0.0
  9
$DIMEXE
 40
2.0
  9
$DIMTP
 40
0.1
  9
$DIMTM
 40
0.1
  9
$DIMTXT
 40
3.5
  9
$DIMCEN
 40
0.0
  9
$DIMTSZ
 40
0.0
  9
$DIMTOL
 70
     0
  9
$DIMLIM
 70
     0
  9
$DIMTIH
 70
     0
  9
$DIMTOH
 70
     0
  9
$DIMSE1
 70
     0
  9
$DIMSE2
 70
     0
  9
$DIMTAD
 70
     1
  9
$DIMZIN
 70
     8
  9
$DIMBLK
  1

  9
$DIMASO
 70
     1
  9
$DIMSHO
 70
     1
  9
$DIMPOST
  1

  9
$DIMAPOST
  1
"
  9
$DIMALT
 70
     0
  9
$DIMALTD
 70
     2
  9
$DIMALTF
 40
0.0393701
  9
$DIMLFAC
 40
1.0
  9
$DIMTOFL
 70
     1
  9
$DIMTVP
 40
0.0
  9
$DIMTIX
 70
     0
  9
$DIMSOXD
 70
     0
  9
$DIMSAH
 70
     0
  9
$DIMBLK1
  1

  9
$DIMBLK2
  1

  9
$DIMSTYLE
  2
AM_DIN
  9
$DIMCLRD
 70
   256
  9
$DIMCLRE
 70
   256
  9
$DIMCLRT
 70
     2
  9
$DIMTFAC
 40
0.71
  9
$DIMGAP
 40
1.5
  9
$DIMJUST
 70
     0
  9
$DIMSD1
 70
     0
  9
$DIMSD2
 70
     0
  9
$DIMTOLJ
 70
     0
  9
$DIMTZIN
 70
     8
  9
$DIMALTZ
 70
     0
  9
$DIMALTTZ
 70
     0
  9
$DIMUPT
 70
     0
  9
$DIMDEC
 70
     2
  9
$DIMTDEC
 70
     2
  9
$DIMALTU
 70
     2
  9
$DIMALTTD
 70
     2
  9
$DIMTXSTY
  7
STANDARD
  9
$DIMAUNIT
 70
     0
  9
$DIMADEC
 70
     0
  9
$DIMALTRND
 40
0.0
  9
$DIMAZIN
 70
     2
  9
$DIMDSEP
 70
    46
  9
$DIMATFIT
 70
     3
  9
$DIMFRAC
 70
     0
  9
$DIMLDRBLK
  1

  9
$DIMLUNIT
 70
     2
  9
$DIMLWD
 70
    -1
  9
$DIMLWE
 70
    -1
  9
$DIMTMOVE
 70
     0
  9
$LUNITS
 70
     2
  9
$LUPREC
 70
     2
  9
$SKETCHINC
 40
1.0
  9
$FILLETRAD
 40
2.5
  9
$AUNITS
 70
     0
  9
$AUPREC
 70
     0
  9
$MENU
  1
.
  9
$ELEVATION
 40
0.0
  9
$PELEVATION
 40
0.0
  9
$THICKNESS
 40
0.0
  9
$LIMCHECK
 70
     0
  9
$CHAMFERA
 40
2.5
  9
$CHAMFERB
 40
2.5
  9
$CHAMFERC
 40
20.0
  9
$CHAMFERD
 40
0.0
  9
$SKPOLY
 70
     0
  9
$TDCREATE
 40
2455481.452768368
  9
$TDUCREATE
 40
2455481.411101701
  9
$TDUPDATE
 40
2456365.651716262
  9
$TDUUPDATE
 40
2456365.610049595
  9
$TDINDWG
 40
0.0092208796
  9
$TDUSRTIMER
 40
0.0092206944
  9
$USRTIMER
 70
     1
  9
$ANGBASE
 50
0.0
  9
$ANGDIR
 70
     0
  9
$PDMODE
 70
     0
  9
$PDSIZE
 40
0.0
  9
$PLINEWID
 40
0.0
  9
$SPLFRAME
 70
     0
  9
$SPLINETYPE
 70
     6
  9
$SPLINESEGS
 70
     8
  9
$HANDSEED
  5
DA3
  9
$SURFTAB1
 70
     6
  9
$SURFTAB2
 70
     6
  9
$SURFTYPE
 70
     6
  9
$SURFU
 70
     6
  9
$SURFV
 70
     6
  9
$UCSBASE
  2

  9
$UCSNAME
  2

  9
$UCSORG
 10
0.0
 20
0.0
 30
0.0
  9
$UCSXDIR
 10
1.0
 20
0.0
 30
0.0
  9
$UCSYDIR
 10
0.0
 20
1.0
 30
0.0
  9
$UCSORTHOREF
  2

  9
$UCSORTHOVIEW
 70
     0
  9
$UCSORGTOP
 10
0.0
 20
0.0
 30
0.0
  9
$UCSORGBOTTOM
 10
0.0
 20
0.0
 30
0.0
  9
$UCSORGLEFT
 10
0.0
 20
0.0
 30
0.0
  9
$UCSORGRIGHT
 10
0.0
 20
0.0
 30
0.0
  9
$UCSORGFRONT
 10
0.0
 20
0.0
 30
0.0
  9
$UCSORGBACK
 10
0.0
 20
0.0
 30
0.0
  9
$PUCSBASE
  2

  9
$PUCSNAME
  2

  9
$PUCSORG
 10
0.0
 20
0.0
 30
0.0
  9
$PUCSXDIR
 10
1.0
 20
0.0
 30
0.0
  9
$PUCSYDIR
 10
0.0
 20
1.0
 30
0.0
  9
$PUCSORTHOREF
  2

  9
$PUCSORTHOVIEW
 70
     0
  9
$PUCSORGTOP
 10
0.0
 20
0.0
 30
0.0
  9
$PUCSORGBOTTOM
 10
0.0
 20
0.0
 30
0.0
  9
$PUCSORGLEFT
 10
0.0
 20
0.0
 30
0.0
  9
$PUCSORGRIGHT
 10
0.0
 20
0.0
 30
0.0
  9
$PUCSORGFRONT
 10
0.0
 20
0.0
 30
0.0
  9
$PUCSORGBACK
 10
0.0
 20
0.0
 30
0.0
  9
$USERI1
 70
     0
  9
$USERI2
 70
     0
  9
$USERI3
 70
     0
  9
$USERI4
 70
     0
  9
$USERI5
 70
     0
  9
$USERR1
 40
0.0
  9
$USERR2
 40
0.0
  9
$USERR3
 40
0.0
  9
$USERR4
 40
0.0
  9
$USERR5
 40
0.0
  9
$WORLDVIEW
 70
     1
  9
$SHADEDGE
 70
     3
  9
$SHADEDIF
 70
    70
  9
$TILEMODE
 70
     1
  9
$MAXACTVP
 70
    64
  9
$PINSBASE
 10
0.0
 20
0.0
 30
0.0
  9
$PLIMCHECK
 70
     0
  9
$PEXTMIN
 10
28.19999999999999
 20
17.0
 30
0.0
  9
$PEXTMAX
 10
253.8
 20
153.0
 30
0.0
  9
$PLIMMIN
 10
-7.5
 20
-20.0
  9
$PLIMMAX
 10
289.5
 20
190.0
  9
$UNITMODE
 70
     0
  9
$VISRETAIN
 70
     1
  9
$PLINEGEN
 70
     0
  9
$PSLTSCALE
 70
     1
  9
$TREEDEPTH
 70
  3020
  9
$CMLSTYLE
  2
Standard
  9
$CMLJUST
 70
     0
  9
$CMLSCALE
 40
20.0
  9
$PROXYGRAPHICS
 70
     1
  9
$MEASUREMENT
 70
     1
  9
$CELWEIGHT
370
    -1
  9
$ENDCAPS
280
     0
  9
$JOINSTYLE
280
     0
  9
$LWDISPLAY
290
     0
  9
$INSUNITS
 70
     4
  9
$HYPERLINKBASE
  1

  9
$STYLESHEET
  1
ganz_fein_1.ctb
  9
$XEDIT
290
     1
  9
$CEPSNTYPE
380
     0
  9
$PSTYLEMODE
290
     1
  9
$FINGERPRINTGUID
  2
{55BC674E-5ECD-4DB0-AA48-42CDCC49D738}
  9
$VERSIONGUID
  2
{CBF1C5CC-FEA0-40AF-8A01-58B7B383D97B}
  9
$EXTNAMES
290
     1
  9
$PSVPSCALE
 40
0.0
  9
$OLESTARTUP
290
     0
  9
$SORTENTS
280
   127
  9
$INDEXCTL
280
     0
  9
$HIDETEXT
280
     0
  9
$XCLIPFRAME
290
     0
  9
$HALOGAP
280
     0
  9
$OBSCOLOR
 70
   257
  9
$OBSLTYPE
280
     0
  9
$INTERSECTIONDISPLAY
280
     0
  9
$INTERSECTIONCOLOR
 70
   257
  9
$DIMASSOC
280
     1
  9
$PROJECTNAME
  1

  0
ENDSEC
  0
SECTION
  2
CLASSES
  0
CLASS
  1
ACDBDICTIONARYWDFLT
  2
AcDbDictionaryWithDefault
  3
ObjectDBX Classes
 90
        0
 91
        1
280
     0
281
     0
  0
CLASS
  1
ACME_DOCUMENT
  2
AcMeDbDoc
  3
AcMeServices
 90
        0
 91
        1
280
     0
281
     0
  0
CLASS
  1
AMGSETTINGSOBJ
  2
AmgSettingsObj
  3
"AcadM|Product Description: AutoCAD Mechanical|Company: Autodesk"
 90
        0
 91
        2
280
     0
281
     0
  0
CLASS
  1
ACMESCOPE
  2
AcMeScope
  3
AcMeServices
 90
        0
 91
        1
280
     0
281
     0
  0
CLASS
  1
ACMECOMMANDHISTORY
  2
AcMeCommandHistory
  3
AcMeServices
 90
        0
 91
        1
280
     0
281
     0
  0
CLASS
  1
ACIMSYSVARMAN
  2
AcImSysVarManager
  3
AcMeServices
 90
        0
 91
        5
280
     0
281
     0
  0
CLASS
  1
ACIMREALSYSVAR
  2
AcImRealSysVar
  3
AcMeServices
 90
        0
 91
        1
280
     0
281
     0
  0
CLASS
  1
ACIMINTSYSVAR
  2
AcImIntSysVar
  3
AcMeServices
 90
        0
 91
       27
280
     0
281
     0
  0
CLASS
  1
ACMEDRAWINGMAN
  2
AcMeDrawingMan
  3
AcMeServices
 90
        0
 91
        1
280
     0
281
     0
  0
CLASS
  1
ACMEVIEW
  2
AcMeView
  3
AcMeServices
 90
        0
 91
        1
280
     0
281
     0
  0
CLASS
  1
ACDBENTITYCACHE
  2
AcMeEntityCache
  3
AcMeServices
 90
        0
 91
        1
280
     0
281
     0
  0
CLASS
  1
GSMANAGER
  2
AcMeGSManager
  3
AcMeServices
 90
        0
 91
        1
280
     0
281
     0
  0
CLASS
  1
AMDTINTERNALREACTOR
  2
AmdtInternalReactor
  3
AcMeServices
 90
        0
 91
        2
280
     0
281
     0
  0
CLASS
  1
ACMESTATEMGR
  2
AcMeStateMgr
  3
AcMeServices
 90
        0
 91
        1
280
     0
281
     0
  0
CLASS
  1
ACGREFMASTER
  2
AcGrefMaster
  3
AcAttribServices
 90
        0
 91
        1
280
     0
281
     0
  0
CLASS
  1
ACME_DATABASE
  2
AcMeDbDatabase
  3
AcMeServices
 90
        0
 91
        1
280
     0
281
     0
  0
CLASS
  1
ACRFINSADJUSTERMGR
  2
AcRfInsAdjusterMgr
  3
AcMeServices
 90
        0
 91
        1
280
     0
281
     0
  0
CLASS
  1
ACGREFACADMASTER
  2
AcGrefacadMaster
  3
AcGrefServices
 90
        0
 91
        1
280
     0
281
     0
  0
CLASS
  1
AMIMASTER
  2
AmiMaster
  3
AmiServices
 90
        0
 91
        1
280
     0
281
     0
  0
CLASS
  1
ACMDATADICTIONARY
  2
AcmDataDictionary
  3
"AcmSymBB|Product Description: AutoCAD Mechanical|Company: Autodesk"
 90
        0
 91
        1
280
     0
281
     0
  0
CLASS
  1
ACMDATAENTRYBLOCK
  2
AcmDataEntryBlock
  3
"AcmSymBB|Product Description: AutoCAD Mechanical|Company: Autodesk"
 90
        0
 91
        0
280
     0
281
     0
  0
CLASS
  1
ACIMSTRSYSVAR
  2
AcImStrSysVar
  3
AcMeServices
 90
        0
 91
        5
280
     0
281
     0
  0
CLASS
  1
ACMSTANDARDDIN
  2
AcmStandardDIN
  3
"Amdt_StdImp|Product Description: AutoCAD Mechanical|Company: Autodesk"
 90
        0
 91
        1
280
     0
281
     0
  0
CLASS
  1
AMGOBJPROPCFG
  2
AmgObjPropCfg
  3
"AmgLay|Product Description: AutoCAD Mechanical|Company: Autodesk"
 90
        1
 91
        2
280
     0
281
     0
  0
CLASS
  1
AMDTEDGESTANDARDDIN
  2
AmdtEdgeStdDIN
  3
"Amdt_StdImp|Product Description: AutoCAD Mechanical|Company: Autodesk"
 90
        0
 91
        0
280
     0
281
     0
  0
CLASS
  1
ACMSURFSTANDARDDIN
  2
AcmSurfTextStdDIN
  3
"Amdt_StdImp|Product Description: AutoCAD Mechanical|Company: Autodesk"
 90
        0
 91
        1
280
     0
281
     0
  0
CLASS
  1
ACMFCFSTANDARDDIN
  2
AcmFCFStdDIN
  3
"Amdt_StdImp|Product Description: AutoCAD Mechanical|Company: Autodesk"
 90
        0
 91
        1
280
     0
281
     0
  0
CLASS
  1
ACMWELDSTANDARDDIN
  2
AcmWeldingStdDIN
  3
"Amdt_StdImp|Product Description: AutoCAD Mechanical|Company: Autodesk"
 90
        0
 91
        1
280
     0
281
     0
  0
CLASS
  1
ACMIDSTANDARDDIN
  2
AcmIdStdDIN
  3
"Amdt_StdImp|Product Description: AutoCAD Mechanical|Company: Autodesk"
 90
        0
 91
        1
280
     0
281
     0
  0
CLASS
  1
ACMDATUMSTANDARDDIN
  2
AcmDatumStdDIN
  3
"Amdt_StdImp|Product Description: AutoCAD Mechanical|Company: Autodesk"
 90
        0
 91
        1
280
     0
281
     0
  0
CLASS
  1
ACMBOMSTANDARDDIN
  2
AcmBOMStdDIN
  3
"Amdt_StdImp|Product Description: AutoCAD Mechanical|Company: Autodesk"
 90
        0
 91
        1
280
     0
281
     0
  0
CLASS
  1
ACMDETAILSTANDARDDIN
  2
AmdtDetailSymStdDIN
  3
"Amdt_StdImp|Product Description: AutoCAD Mechanical|Company: Autodesk"
 90
        0
 91
        1
280
     0
281
     0
  0
CLASS
  1
ACMSECTIONSTANDARDDIN
  2
AmdtSectionSymStdDIN
  3
"Amdt_StdImp|Product Description: AutoCAD Mechanical|Company: Autodesk"
 90
        0
 91
        1
280
     0
281
     0
  0
CLASS
  1
ACMCENTERLINESTANDARDDIN
  2
AmdtCenterLineStdDIN
  3
"Amdt_StdImp|Product Description: AutoCAD Mechanical|Company: Autodesk"
 90
        0
 91
        1
280
     0
281
     0
  0
CLASS
  1
ACMNOTESTANDARDDIN
  2
AmdtNoteStdDIN
  3
"Amdt_StdImp|Product Description: AutoCAD Mechanical|Company: Autodesk"
 90
        0
 91
        1
280
     0
281
     0
  0
CLASS
  1
ACAMGLAYSTD
  2
AcAmgLayStd
  3
"AmgLay|Product Description: AutoCAD Mechanical|Company: Autodesk"
 90
        0
 91
        2
280
     0
281
     0
  0
CLASS
  1
ACAMGDIMSTD
  2
AcAmgDimStd
  3
"AmgDim|Product Description: AutoCAD Mechanical|Company: Autodesk"
 90
        0
 91
        2
280
     0
281
     0
  0
CLASS
  1
ACAMGHOLECHARTSTDDIN
  2
AcAmgHoleChartStdDIN
  3
ACMSYMBB_MODULE_NAME
 90
        0
 91
        1
280
     0
281
     0
  0
CLASS
  1
ACAMGTITLESTD
  2
AcAmgTitleStd
  3
"AmgTitle|Product Description: AutoCAD Mechanical|Company: Autodesk"
 90
        0
 91
        2
280
     0
281
     0
  0
CLASS
  1
LAYER_INDEX
  2
AcDbLayerIndex
  3
ObjectDBX Classes
 90
        0
 91
        0
280
     0
281
     0
  0
CLASS
  1
IDBUFFER
  2
AcDbIdBuffer
  3
ObjectDBX Classes
 90
        0
 91
        0
280
     0
281
     0
  0
CLASS
  1
DICTIONARYVAR
  2
AcDbDictionaryVar
  3
ObjectDBX Classes
 90
        0
 91
        3
280
     0
281
     0
  0
CLASS
  1
AM_DRAWING_MGR
  2
AcDmDwgMgr
  3
AcMechDwgViewMgmt
 90
        0
 91
        1
280
     0
281
     0
  0
CLASS
  1
AM_DWG_DOCUMENT
  2
AcDmDwgDocument
  3
AcMechDwgViewMgmt
 90
        0
 91
        1
280
     0
281
     0
  0
CLASS
  1
AM_DWG_SHEET
  2
AcDmSheet
  3
AcMechDwgViewMgmt
 90
        0
 91
        2
280
     0
281
     0
  0
CLASS
  1
AM_VIEWDIMPARMAP
  2
AcDmViewDimParMap
  3
AcMechDwgViewMgmt
 90
        0
 91
        2
280
     0
281
     0
  0
CLASS
  1
AM_DWGMGR_NAME
  2
AcDmDwgMgrName
  3
AcMechDwgViewMgmt
 90
        0
 91
        1
280
     0
281
     0
  0
CLASS
  1
AMDTMENUSTATEMGR
  2
AmdtMenuStateMgr
  3
McadcomServices
 90
        0
 91
        1
280
     0
281
     0
  0
CLASS
  1
AMDTMCOMMENUSTATE
  2
AmdtMcomMenuState
  3
McadcomServices
 90
        0
 91
        1
280
     0
281
     0
  0
CLASS
  1
MAPIAMMOUDLE
  2
MApiAmModule
  3
MApiAmServices
 90
        0
 91
        1
280
     0
281
     0
  0
CLASS
  1
AMDTADMENUSTATE
  2
AmdtAdMenuState
  3
DesignerServices
 90
        0
 91
        1
280
     0
281
     0
  0
CLASS
  1
ADAPPL
  2
AcAdAppl
  3
DesignerServices
 90
        0
 91
        1
280
     0
281
     0
  0
CLASS
  1
DEPMGR
  2
AcAdDepMgr
  3
DesignerServices
 90
        0
 91
        1
280
     0
281
     0
  0
CLASS
  1
PARAMMGR
  2
AcAdParamMgr
  3
DesignerServices
 90
        0
 91
        1
280
     0
281
     0
  0
CLASS
  1
PARAMSCOPE
  2
AcAdParamScope
  3
DesignerServices
 90
        0
 91
        1
280
     0
281
     0
  0
CLASS
  1
NAMEDAPPL
  2
AcAdNamedAppl
  3
DesignerServices
 90
        0
 91
        1
280
     0
281
     0
  0
CLASS
  1
AMDTDMMENUSTATE
  2
AmdtDmMenuState
  3
AcMechDwgViewMgmt
 90
        0
 91
        1
280
     0
281
     0
  0
CLASS
  1
AMDTAMMENUSTATE
  2
AmdtAmMenuState
  3
DesignerAssemblies
 90
        0
 91
        1
280
     0
281
     0
  0
CLASS
  1
ACAMPROJECT
  2
AcAmProject
  3
DesignerAssemblies
 90
        0
 91
        1
280
     0
281
     0
  0
CLASS
  1
ACAMGRCOMPDEF
  2
AcAmGrCompDef
  3
DesignerAssemblies
 90
        0
 91
        1
280
     0
281
     0
  0
CLASS
  1
ACCMCONTEXT
  2
AcCmContext
  3
DesignerAssemblies
 90
        0
 91
        1
280
     0
281
     0
  0
CLASS
  1
ACAMCOMPDEF
  2
AcAmCompDef
  3
DesignerAssemblies
 90
        0
 91
        1
280
     0
281
     0
  0
CLASS
  1
ACAMCOMPDEFMGR
  2
AcAmCompDefMgr
  3
DesignerAssemblies
 90
        0
 91
        1
280
     0
281
     0
  0
CLASS
  1
AMCONTEXTMGR
  2
AcAmContextMgr
  3
DesignerAssemblies
 90
        0
 91
        1
280
     0
281
     0
  0
CLASS
  1
ACAMCONTEXTMODELER
  2
AcAmContextModeler
  3
DesignerAssemblies
 90
        0
 91
        1
280
     0
281
     0
  0
CLASS
  1
ACMTHREADLINESTANDARDDIN
  2
AmdtThreadLineStdDIN
  3
"Amdt_StdImp|Product Description: AutoCAD Mechanical|Company: Autodesk"
 90
        0
 91
        1
280
     0
281
     0
  0
CLASS
  1
CATALOGSTATE
  2
AcAmCatalogState
  3
DesignerAssemblies
 90
        0
 91
        1
280
     0
281
     0
  0
CLASS
  1
ACAMGRCOMPDEFSET
  2
AcAmGrCompDefSet
  3
DesignerAssemblies
 90
        0
 91
        1
280
     0
281
     0
  0
CLASS
  1
AMDTBROWSERDBTAB
  2
AmdtBrowserDbTab
  3
McadcomServices
 90
        0
 91
        1
280
     0
281
     0
  0
CLASS
  1
CBROWSERAPPOBJECT
  2
CBrowserAppObject
  3
McadcomServices
 90
        0
 91
        3
280
     0
281
     0
  0
CLASS
  1
DM_PLACEHOLDER
  2
AcDmSelsetPlaceholder
  3
AcMechDwgViewMgmt
 90
        0
 91
        1
280
     0
281
     0
  0
CLASS
  1
TABLESTYLE
  2
AcDbTableStyle
  3
ObjectDBX Classes
 90
     4095
 91
        1
280
     0
281
     0
  0
CLASS
  1
MATERIAL
  2
AcDbMaterial
  3
ObjectDBX Classes
 90
     1024
 91
        3
280
     0
281
     0
  0
CLASS
  1
VISUALSTYLE
  2
AcDbVisualStyle
  3
ObjectDBX Classes
 90
     4095
 91
       19
280
     0
281
     0
  0
CLASS
  1
ACRFATTGENMGR
  2
AcRfAttGeneralMgr
  3
AcAttribServices
 90
        0
 91
        0
280
     0
281
     0
  0
CLASS
  1
ACRFOBJATTMGR
  2
AcRfObjAttGroupMgr
  3
AcAttribServices
 90
        0
 91
        0
280
     0
281
     0
  0
CLASS
  1
ACRFMCADAPIATTHOLDER
  2
AcRfMCADAPIAttHolder
  3
AcAttribServices
 90
        0
 91
        0
280
     0
281
     0
  0
CLASS
  1
AMDTSYSATTR
  2
AmdtSystemAttribute
  3
AcAttribServices
 90
        0
 91
        0
280
     0
281
     0
  0
CLASS
  1
ACMTAPERSTANDARDDIN
  2
AcmTaperStdDIN
  3
"Amdt_StdImp|Product Description: AutoCAD Mechanical|Company: Autodesk"
 90
        0
 91
        1
280
     0
281
     0
  0
CLASS
  1
CAMSSTRUCTBTNSTATE
  2
StructBtnState
  3
L"DesignerAssemblies"
 90
        0
 91
        0
280
     0
281
     0
  0
CLASS
  1
SORTENTSTABLE
  2
AcDbSortentsTable
  3
ObjectDBX Classes
 90
        0
 91
        0
280
     0
281
     0
  0
CLASS
  1
ACAMGFILTERDAT
  2
AcAmgFilterDat
  3
"AcadM|Product Description: AutoCAD Mechanical|Company: Autodesk"
 90
        0
 91
        0
280
     0
281
     0
  0
CLASS
  1
AMDTEDGESTANDARDDIN13715
  2
AmdtEdgeStdDIN13715
  3
"Amdt_StdImp|Product Description: AutoCAD Mechanical|Company: Autodesk"
 90
        0
 91
        1
280
     0
281
     0
  0
CLASS
  1
AMDTNOTETEMPLATEDB
  2
AmdtNoteTemplateDB
  3
AMDT_STDIMP_MODULE_NAME
 90
        0
 91
        9
280
     0
281
     0
  0
CLASS
  1
ACMSTANDARDISO
  2
AcmStandardISO
  3
"Amdt_StdImp|Product Description: AutoCAD Mechanical|Company: Autodesk"
 90
        0
 91
        1
280
     0
281
     0
  0
CLASS
  1
AMDTEDGESTANDARDISO
  2
AmdtEdgeStdISO
  3
"Amdt_StdImp|Product Description: AutoCAD Mechanical|Company: Autodesk"
 90
        0
 91
        1
280
     0
281
     0
  0
CLASS
  1
ACMSURFSTANDARDISO
  2
AcmSurfTextStdISO
  3
"Amdt_StdImp|Product Description: AutoCAD Mechanical|Company: Autodesk"
 90
        0
 91
        1
280
     0
281
     0
  0
CLASS
  1
ACMFCFSTANDARDISO
  2
AcmFCFStdISO
  3
"Amdt_StdImp|Product Description: AutoCAD Mechanical|Company: Autodesk"
 90
        0
 91
        1
280
     0
281
     0
  0
CLASS
  1
ACMWELDSTANDARDISO
  2
AcmWeldingStdISO
  3
"Amdt_StdImp|Product Description: AutoCAD Mechanical|Company: Autodesk"
 90
        0
 91
        1
280
     0
281
     0
  0
CLASS
  1
ACMIDSTANDARDISO
  2
AcmIdStdISO
  3
"Amdt_StdImp|Product Description: AutoCAD Mechanical|Company: Autodesk"
 90
        0
 91
        1
280
     0
281
     0
  0
CLASS
  1
ACMDATUMSTANDARDISO
  2
AcmDatumStdISO
  3
"Amdt_StdImp|Product Description: AutoCAD Mechanical|Company: Autodesk"
 90
        0
 91
        1
280
     0
281
     0
  0
CLASS
  1
ACMBOMSTANDARDISO
  2
AcmBOMStdISO
  3
"Amdt_StdImp|Product Description: AutoCAD Mechanical|Company: Autodesk"
 90
        0
 91
        1
280
     0
281
     0
  0
CLASS
  1
ACMDETAILSTANDARDISO
  2
AmdtDetailSymStdISO
  3
"Amdt_StdImp|Product Description: AutoCAD Mechanical|Company: Autodesk"
 90
        0
 91
        1
280
     0
281
     0
  0
CLASS
  1
ACMSECTIONSTANDARDISO
  2
AmdtSectionSymStdISO
  3
"Amdt_StdImp|Product Description: AutoCAD Mechanical|Company: Autodesk"
 90
        0
 91
        1
280
     0
281
     0
  0
CLASS
  1
ACMCENTERLINESTANDARDISO
  2
AmdtCenterLineStdISO
  3
"Amdt_StdImp|Product Description: AutoCAD Mechanical|Company: Autodesk"
 90
        0
 91
        1
280
     0
281
     0
  0
CLASS
  1
ACMNOTESTANDARDISO
  2
AmdtNoteStdISO
  3
"Amdt_StdImp|Product Description: AutoCAD Mechanical|Company: Autodesk"
 90
        0
 91
        1
280
     0
281
     0
  0
CLASS
  1
ACAMGHOLECHARTSTDISO
  2
AcAmgHoleChartStdISO
  3
ACMSYMBB_MODULE_NAME
 90
        0
 91
        1
280
     0
281
     0
  0
CLASS
  1
ACMTHREADLINESTANDARDISO
  2
AmdtThreadLineStdISO
  3
"Amdt_StdImp|Product Description: AutoCAD Mechanical|Company: Autodesk"
 90
        0
 91
        1
280
     0
281
     0
  0
CLASS
  1
ACMTAPERSTANDARDISO
  2
AcmTaperStdISO
  3
"Amdt_StdImp|Product Description: AutoCAD Mechanical|Company: Autodesk"
 90
        0
 91
        1
280
     0
281
     0
  0
ENDSEC
  0
SECTION
  2
TABLES
  0
TABLE
  2
VPORT
  5
8
330
0
100
AcDbSymbolTable
 70
     1
  0
VPORT
  5
1E9
330
8
100
AcDbSymbolTableRecord
100
AcDbViewportTableRecord
  2
*Active
 70
     0
 10
0.0
 20
0.0
 11
1.0
 21
1.0
 12
1222.973827740829
 22
887.5463649827445
 13
0.0
 23
0.0
 14
2.5
 24
2.5
 15
10.0
 25
10.0
 16
0.0
 26
0.0
 36
1.0
 17
0.0
 27
0.0
 37
0.0
 40
1230.52826668025
 41
1.89917695473251
 42
50.0
 43
0.0
 44
0.0
 50
0.0
 51
0.0
 71
     0
 72
   100
 73
     1
 74
     3
 75
     0
 76
     0
 77
     0
 78
     0
281
     0
 65
     1
110
0.0
120
0.0
130
0.0
111
1.0
121
0.0
131
0.0
112
0.0
122
1.0
132
0.0
 79
     0
146
0.0
  0
ENDTAB
  0
TABLE
  2
LTYPE
  5
5
330
0
100
AcDbSymbolTable
 70
    63
  0
LTYPE
  5
14
330
5
100
AcDbSymbolTableRecord
100
AcDbLinetypeTableRecord
  2
ByBlock
 70
     0
  3

 72
    65
 73
     0
 40
0.0
  0
LTYPE
  5
15
330
5
100
AcDbSymbolTableRecord
100
AcDbLinetypeTableRecord
  2
ByLayer
 70
     0
  3

 72
    65
 73
     0
 40
0.0
  0
LTYPE
  5
16
330
5
100
AcDbSymbolTableRecord
100
AcDbLinetypeTableRecord
  2
Continuous
 70
     0
  3
Solid line
 72
    65
 73
     0
 40
0.0
  0
LTYPE
  5
A0
330
5
100
AcDbSymbolTableRecord
100
AcDbLinetypeTableRecord
  2
AM_ISO02W050
 70
     0
  3
__ __ __ __ __ __ __ __ __ __ __ __ __ __ __
 72
    65
 73
     2
 40
7.5
 49
6.0
 74
     0
 49
-1.5
 74
     0
  0
LTYPE
  5
A1
330
5
100
AcDbSymbolTableRecord
100
AcDbLinetypeTableRecord
  2
AM_ISO08W050
 70
     0
  3
____ . ____ . ____ . ____ . ____ . ____ . ____
 72
    65
 73
     4
 40
18.0
 49
12.0
 74
     0
 49
-1.5
 74
     0
 49
3.0
 74
     0
 49
-1.5
 74
     0
  0
LTYPE
  5
A2
330
5
100
AcDbSymbolTableRecord
100
AcDbLinetypeTableRecord
  2
AM_ISO09W050
 70
     0
  3
_____ . . _____ . . _____ . . ____ .. ____
 72
    65
 73
     6
 40
22.5
 49
12.0
 74
     0
 49
-1.5
 74
     0
 49
3.0
 74
     0
 49
-1.5
 74
     0
 49
3.0
 74
     0
 49
-1.5
 74
     0
  0
LTYPE
  5
A3
330
5
100
AcDbSymbolTableRecord
100
AcDbLinetypeTableRecord
  2
Amconstr
 70
     0
  3
_______________________
 72
    65
 73
     2
 40
9999.0
 49
9999.0
 74
     0
 49
0.0
 74
     0
  0
LTYPE
  5
A4
330
5
100
AcDbSymbolTableRecord
100
AcDbLinetypeTableRecord
  2
AM_ISO08W050x2
 70
     0
  3
__ . __ . __ . __ . __ . __
 72
    65
 73
     4
 40
9.0
 49
6.0
 74
     0
 49
-0.75
 74
     0
 49
1.5
 74
     0
 49
-0.75
 74
     0
  0
LTYPE
  5
A5
330
5
100
AcDbSymbolTableRecord
100
AcDbLinetypeTableRecord
  2
AM_ISO02W050x2
 70
     0
  3
 _ _ _ _ _ _ _ _ _ _ _ _
 72
    65
 73
     2
 40
3.75
 49
3.0
 74
     0
 49
-0.75
 74
     0
  0
LTYPE
  5
A8
330
5
100
AcDbSymbolTableRecord
100
AcDbLinetypeTableRecord
  2
Amzigzag
 70
     0
  3
/\/-/\/-/\/-/\/-/\/-/\/
 72
    65
 73
     2
 40
11.0001
 49
0.0001
 74
     4
 75
   135
340
A7
 46
0.04
 50
0.0
 44
0.0
 45
0.0
 49
-11.0
 74
     0
  0
LTYPE
  5
A9
330
5
100
AcDbSymbolTableRecord
100
AcDbLinetypeTableRecord
  2
AM_DIN_F_W050
 70
     0
  3
__ __ __ __ __ __ __ __ __ __ __ __ __ __ __
 72
    65
 73
     2
 40
6.25
 49
4.75
 74
     0
 49
-1.5
 74
     0
  0
LTYPE
  5
AA
330
5
100
AcDbSymbolTableRecord
100
AcDbLinetypeTableRecord
  2
AM_DIN_G_W050
 70
     0
  3
____ . ____ . ____ . ____ . ____ . ____ . ____
 72
    65
 73
     4
 40
13.75
 49
9.75
 74
     0
 49
-1.5
 74
     0
 49
1.0
 74
     0
 49
-1.5
 74
     0
  0
LTYPE
  5
AB
330
5
100
AcDbSymbolTableRecord
100
AcDbLinetypeTableRecord
  2
AM_DIN_K_W050
 70
     0
  3
_____ . . _____ . . _____ . . ____ .. ____
 72
    65
 73
     6
 40
16.25
 49
9.75
 74
     0
 49
-1.5
 74
     0
 49
1.0
 74
     0
 49
-1.5
 74
     0
 49
1.0
 74
     0
 49
-1.5
 74
     0
  0
LTYPE
  5
AC
330
5
100
AcDbSymbolTableRecord
100
AcDbLinetypeTableRecord
  2
AM_DIN_G_W050x2
 70
     0
  3
__ . __ . __ . __ . __ . __
 72
    65
 73
     4
 40
6.875
 49
4.75
 74
     0
 49
-0.875
 74
     0
 49
0.375
 74
     0
 49
-0.875
 74
     0
  0
LTYPE
  5
AD
330
5
100
AcDbSymbolTableRecord
100
AcDbLinetypeTableRecord
  2
AM_DIN_F_W050x2
 70
     0
  3
 _ _ _ _ _ _ _ _ _ _ _ _
 72
    65
 73
     2
 40
3.125
 49
2.25
 74
     0
 49
-0.875
 74
     0
  0
LTYPE
  5
BB
330
5
100
AcDbSymbolTableRecord
100
AcDbLinetypeTableRecord
  2
ACDINWELD
 70
     0
  3
_ _ _ _ _
 72
    65
 73
     2
 40
2.0
 49
2.0
 74
     0
 49
-1.0
 74
     0
  0
LTYPE
  5
BC
330
5
100
AcDbSymbolTableRecord
100
AcDbLinetypeTableRecord
  2
ACDINTGB
 70
     0
  3
__ . . __ . .
 72
    65
 73
     6
 40
9.0
 49
4.0
 74
     0
 49
-1.0
 74
     0
 49
1.0
 74
     0
 49
-1.0
 74
     0
 49
1.0
 74
     0
 49
-1.0
 74
     0
  0
LTYPE
  5
BD
330
5
100
AcDbSymbolTableRecord
100
AcDbLinetypeTableRecord
  2
ACDINTGL
 70
     0
  3
_ _ _ _ _
 72
    65
 73
     2
 40
3.0
 49
2.0
 74
     0
 49
-1.0
 74
     0
  0
LTYPE
  5
BF
330
5
100
AcDbSymbolTableRecord
100
AcDbLinetypeTableRecord
  2
CENTER
 70
     0
  3
__ . __
 72
    65
 73
     4
 40
7.0
 49
4.0
 74
     0
 49
-1.0
 74
     0
 49
1.0
 74
     0
 49
-1.0
 74
     0
  0
LTYPE
  5
10F
330
5
100
AcDbSymbolTableRecord
100
AcDbLinetypeTableRecord
  2
HIDDEN
 70
     0
  3
Verdeckt
 72
    65
 73
     2
 40
9.525
 49
6.349999999999997
 74
     0
 49
-3.174999999999998
 74
     0
  0
LTYPE
  5
110
330
5
100
AcDbSymbolTableRecord
100
AcDbLinetypeTableRecord
  2
PHANTOM2
 70
     0
  3
Phantom (.5x) ___ _ _ ___ _ _ ___ _ _ ___ _ _
 72
    65
 73
     6
 40
31.75
 49
15.875
 74
     0
 49
-3.174999999999998
 74
     0
 49
3.174999999999998
 74
     0
 49
-3.174999999999998
 74
     0
 49
3.174999999999998
 74
     0
 49
-3.174999999999998
 74
     0
  0
LTYPE
  5
31A
330
5
100
AcDbSymbolTableRecord
100
AcDbLinetypeTableRecord
  2
GEN7
 70
     0
  3
____ . ____ . ____ . ____ . ____ . ____ . ____
 72
    65
 73
     4
 40
13.75
 49
9.75
 74
     0
 49
-1.5
 74
     0
 49
1.0
 74
     0
 49
-1.5
 74
     0
  0
LTYPE
  5
BEB
330
5
100
AcDbSymbolTableRecord
100
AcDbLinetypeTableRecord
  2
BORDER
 70
     0
  3
Border __ __ . __ __ . __ __ . __ __ . __ __ .
 72
    65
 73
     6
 40
1.75
 49
0.5
 74
     0
 49
-0.25
 74
     0
 49
0.5
 74
     0
 49
-0.25
 74
     0
 49
0.0
 74
     0
 49
-0.25
 74
     0
  0
LTYPE
  5
BEC
330
5
100
AcDbSymbolTableRecord
100
AcDbLinetypeTableRecord
  2
BORDER2
 70
     0
  3
Border (.5x) __.__.__.__.__.__.__.__.__.__.__.
 72
    65
 73
     6
 40
0.875
 49
0.25
 74
     0
 49
-0.125
 74
     0
 49
0.25
 74
     0
 49
-0.125
 74
     0
 49
0.0
 74
     0
 49
-0.125
 74
     0
  0
LTYPE
  5
BED
330
5
100
AcDbSymbolTableRecord
100
AcDbLinetypeTableRecord
  2
BORDERX2
 70
     0
  3
Border (2x) ____  ____  .  ____  ____  .  ___
 72
    65
 73
     6
 40
3.5
 49
1.0
 74
     0
 49
-0.5
 74
     0
 49
1.0
 74
     0
 49
-0.5
 74
     0
 49
0.0
 74
     0
 49
-0.5
 74
     0
  0
LTYPE
  5
BEE
330
5
100
AcDbSymbolTableRecord
100
AcDbLinetypeTableRecord
  2
CENTER2
 70
     0
  3
Center (.5x) ___ _ ___ _ ___ _ ___ _ ___ _ ___
 72
    65
 73
     4
 40
1.125
 49
0.75
 74
     0
 49
-0.125
 74
     0
 49
0.125
 74
     0
 49
-0.125
 74
     0
  0
LTYPE
  5
BEF
330
5
100
AcDbSymbolTableRecord
100
AcDbLinetypeTableRecord
  2
CENTERX2
 70
     0
  3
Center (2x) ________  __  ________  __  _____
 72
    65
 73
     4
 40
4.0
 49
2.5
 74
     0
 49
-0.5
 74
     0
 49
0.5
 74
     0
 49
-0.5
 74
     0
  0
LTYPE
  5
BF0
330
5
100
AcDbSymbolTableRecord
100
AcDbLinetypeTableRecord
  2
DASHDOT
 70
     0
  3
Dash dot __ . __ . __ . __ . __ . __ . __ . __
 72
    65
 73
     4
 40
1.0
 49
0.5
 74
     0
 49
-0.25
 74
     0
 49
0.0
 74
     0
 49
-0.25
 74
     0
  0
LTYPE
  5
BF1
330
5
100
AcDbSymbolTableRecord
100
AcDbLinetypeTableRecord
  2
DASHDOT2
 70
     0
  3
Dash dot (.5x) _._._._._._._._._._._._._._._.
 72
    65
 73
     4
 40
0.5
 49
0.25
 74
     0
 49
-0.125
 74
     0
 49
0.0
 74
     0
 49
-0.125
 74
     0
  0
LTYPE
  5
BF2
330
5
100
AcDbSymbolTableRecord
100
AcDbLinetypeTableRecord
  2
DASHDOTX2
 70
     0
  3
Dash dot (2x) ____  .  ____  .  ____  .  ___
 72
    65
 73
     4
 40
2.0
 49
1.0
 74
     0
 49
-0.5
 74
     0
 49
0.0
 74
     0
 49
-0.5
 74
     0
  0
LTYPE
  5
BF3
330
5
100
AcDbSymbolTableRecord
100
AcDbLinetypeTableRecord
  2
DASHED
 70
     0
  3
Dashed __ __ __ __ __ __ __ __ __ __ __ __ __ _
 72
    65
 73
     2
 40
0.75
 49
0.5
 74
     0
 49
-0.25
 74
     0
  0
LTYPE
  5
BF4
330
5
100
AcDbSymbolTableRecord
100
AcDbLinetypeTableRecord
  2
DASHED2
 70
     0
  3
Dashed (.5x) _ _ _ _ _ _ _ _ _ _ _ _ _ _ _ _ _
 72
    65
 73
     2
 40
0.375
 49
0.25
 74
     0
 49
-0.125
 74
     0
  0
LTYPE
  5
BF5
330
5
100
AcDbSymbolTableRecord
100
AcDbLinetypeTableRecord
  2
DASHEDX2
 70
     0
  3
Dashed (2x) ____  ____  ____  ____  ____  ___
 72
    65
 73
     2
 40
1.5
 49
1.0
 74
     0
 49
-0.5
 74
     0
  0
LTYPE
  5
BF6
330
5
100
AcDbSymbolTableRecord
100
AcDbLinetypeTableRecord
  2
DIVIDE
 70
     0
  3
Divide ____ . . ____ . . ____ . . ____ . . ____
 72
    65
 73
     6
 40
1.25
 49
0.5
 74
     0
 49
-0.25
 74
     0
 49
0.0
 74
     0
 49
-0.25
 74
     0
 49
0.0
 74
     0
 49
-0.25
 74
     0
  0
LTYPE
  5
BF7
330
5
100
AcDbSymbolTableRecord
100
AcDbLinetypeTableRecord
  2
DIVIDE2
 70
     0
  3
Divide (.5x) __..__..__..__..__..__..__..__.._
 72
    65
 73
     6
 40
0.625
 49
0.25
 74
     0
 49
-0.125
 74
     0
 49
0.0
 74
     0
 49
-0.125
 74
     0
 49
0.0
 74
     0
 49
-0.125
 74
     0
  0
LTYPE
  5
BF8
330
5
100
AcDbSymbolTableRecord
100
AcDbLinetypeTableRecord
  2
DIVIDEX2
 70
     0
  3
Divide (2x) ________  .  .  ________  .  .  _
 72
    65
 73
     6
 40
2.5
 49
1.0
 74
     0
 49
-0.5
 74
     0
 49
0.0
 74
     0
 49
-0.5
 74
     0
 49
0.0
 74
     0
 49
-0.5
 74
     0
  0
LTYPE
  5
BF9
330
5
100
AcDbSymbolTableRecord
100
AcDbLinetypeTableRecord
  2
DOT
 70
     0
  3
Dot . . . . . . . . . . . . . . . . . . . . . .
 72
    65
 73
     2
 40
0.25
 49
0.0
 74
     0
 49
-0.25
 74
     0
  0
LTYPE
  5
BFA
330
5
100
AcDbSymbolTableRecord
100
AcDbLinetypeTableRecord
  2
DOT2
 70
     0
  3
Dot (.5x) .....................................
 72
    65
 73
     2
 40
0.125
 49
0.0
 74
     0
 49
-0.125
 74
     0
  0
LTYPE
  5
BFB
330
5
100
AcDbSymbolTableRecord
100
AcDbLinetypeTableRecord
  2
DOTX2
 70
     0
  3
Dot (2x) .  .  .  .  .  .  .  .  .  .  .  .  . 
 72
    65
 73
     2
 40
0.5
 49
0.0
 74
     0
 49
-0.5
 74
     0
  0
LTYPE
  5
BFC
330
5
100
AcDbSymbolTableRecord
100
AcDbLinetypeTableRecord
  2
GAS_LINE
 70
     0
  3
Gas line ----GAS----GAS----GAS----GAS----GAS---
 72
    65
 73
     3
 40
0.95
 49
0.5
 74
     0
 49
-0.2
 74
     2
 75
     0
340
11
 46
0.1
 50
0.0
 44
-0.1
 45
-0.05
  9
GAS
 49
-0.25
 74
     0
  0
LTYPE
  5
BFD
330
5
100
AcDbSymbolTableRecord
100
AcDbLinetypeTableRecord
  2
HIDDEN2
 70
     0
  3
Hidden (.5x) _ _ _ _ _ _ _ _ _ _ _ _ _ _ _ _ _
 72
    65
 73
     2
 40
0.1875
 49
0.125
 74
     0
 49
-0.0625
 74
     0
  0
LTYPE
  5
BFE
330
5
100
AcDbSymbolTableRecord
100
AcDbLinetypeTableRecord
  2
HIDDENX2
 70
     0
  3
Hidden (2x) ____ ____ ____ ____ ____ ____ ____
 72
    65
 73
     2
 40
0.75
 49
0.5
 74
     0
 49
-0.25
 74
     0
  0
LTYPE
  5
BFF
330
5
100
AcDbSymbolTableRecord
100
AcDbLinetypeTableRecord
  2
PHANTOM
 70
     0
  3
Phantom ______  __  __  ______  __  __  ______
 72
    65
 73
     6
 40
2.5
 49
1.25
 74
     0
 49
-0.25
 74
     0
 49
0.25
 74
     0
 49
-0.25
 74
     0
 49
0.25
 74
     0
 49
-0.25
 74
     0
  0
LTYPE
  5
C00
330
5
100
AcDbSymbolTableRecord
100
AcDbLinetypeTableRecord
  2
PHANTOMX2
 70
     0
  3
Phantom (2x) ____________    ____    ____   _
 72
    65
 73
     6
 40
5.0
 49
2.5
 74
     0
 49
-0.5
 74
     0
 49
0.5
 74
     0
 49
-0.5
 74
     0
 49
0.5
 74
     0
 49
-0.5
 74
     0
  0
LTYPE
  5
C01
330
5
100
AcDbSymbolTableRecord
100
AcDbLinetypeTableRecord
  2
ZIGZAG
 70
     0
  3
Zig zag /\/\/\/\/\/\/\/\/\/\/\/\/\/\/\/\/\/\/\/
 72
    65
 73
     4
 40
0.8001000000000001
 49
0.0001
 74
     0
 49
-0.2
 74
     4
 75
   131
340
C15
 46
0.2
 50
0.0
 44
-0.2
 45
0.0
 49
-0.4
 74
     4
 75
   131
340
C15
 46
0.2
 50
180.0
 44
0.2
 45
0.0
 49
-0.2
 74
     0
  0
LTYPE
  5
C02
330
5
100
AcDbSymbolTableRecord
100
AcDbLinetypeTableRecord
  2
CPFLEX
 70
     0
  3
CP flex /\/\/\/\/\/\/\/\/\/\/\/\/\/\/\/\/\/\/\/
 72
    65
 73
     4
 40
0.8001000000000001
 49
0.0001
 74
     0
 49
-0.2
 74
     4
 75
   131
340
C15
 46
0.2
 50
0.0
 44
-0.2
 45
0.0
 49
-0.4
 74
     4
 75
   131
340
C15
 46
0.2
 50
180.0
 44
0.2
 45
0.0
 49
-0.2
 74
     0
  0
LTYPE
  5
C03
330
5
100
AcDbSymbolTableRecord
100
AcDbLinetypeTableRecord
  2
CIRC
 70
     0
  3
 ----- ~ ----- ~ ---- ~ -----
 72
    65
 73
     3
 40
9.0
 49
7.0
 74
     0
 49
-1.0
 74
     2
 75
     0
340
11
 46
1.0
 50
0.0
 44
-0.3
 45
-0.6
  9
~
 49
-1.0
 74
     0
  0
LTYPE
  5
C04
330
5
100
AcDbSymbolTableRecord
100
AcDbLinetypeTableRecord
  2
DN 010
 70
     0
  3
 DN10  ---- 10 ---- 10 ---- 10 ----
 72
    65
 73
     3
 40
9.0
 49
5.0
 74
     0
 49
-2.0
 74
     2
 75
     0
340
11
 46
1.0
 50
0.0
 44
-0.5
 45
-0.5
  9
10
 49
-2.0
 74
     0
  0
LTYPE
  5
C05
330
5
100
AcDbSymbolTableRecord
100
AcDbLinetypeTableRecord
  2
DN 015
 70
     0
  3
 DN15  ---- 15 ---- 15 ---- 15 ----
 72
    65
 73
     3
 40
9.0
 49
5.0
 74
     0
 49
-2.0
 74
     2
 75
     0
340
11
 46
1.0
 50
0.0
 44
-0.5
 45
-0.5
  9
15
 49
-2.0
 74
     0
  0
LTYPE
  5
C06
330
5
100
AcDbSymbolTableRecord
100
AcDbLinetypeTableRecord
  2
DN 020
 70
     0
  3
 DN20  ---- 20 ---- 20 ---- 20 ----
 72
    65
 73
     3
 40
9.0
 49
5.0
 74
     0
 49
-2.0
 74
     2
 75
     0
340
11
 46
1.0
 50
0.0
 44
-0.5
 45
-0.5
  9
20
 49
-2.0
 74
     0
  0
LTYPE
  5
C07
330
5
100
AcDbSymbolTableRecord
100
AcDbLinetypeTableRecord
  2
DN 025
 70
     0
  3
 DN25  ---- 25 ---- 25 ---- 25 ----
 72
    65
 73
     3
 40
9.0
 49
5.0
 74
     0
 49
-2.0
 74
     2
 75
     0
340
11
 46
1.0
 50
0.0
 44
-0.5
 45
-0.5
  9
25
 49
-2.0
 74
     0
  0
LTYPE
  5
C08
330
5
100
AcDbSymbolTableRecord
100
AcDbLinetypeTableRecord
  2
DN 032
 70
     0
  3
 DN32  ---- 32 ---- 32 ---- 32 ----
 72
    65
 73
     3
 40
9.0
 49
5.0
 74
     0
 49
-2.0
 74
     2
 75
     0
340
11
 46
1.0
 50
0.0
 44
-0.5
 45
-0.5
  9
32
 49
-2.0
 74
     0
  0
LTYPE
  5
C09
330
5
100
AcDbSymbolTableRecord
100
AcDbLinetypeTableRecord
  2
DN 040
 70
     0
  3
 DN40  ---- 40 ---- 40 ---- 40 ----
 72
    65
 73
     3
 40
9.0
 49
5.0
 74
     0
 49
-2.0
 74
     2
 75
     0
340
11
 46
1.0
 50
0.0
 44
-0.5
 45
-0.5
  9
40
 49
-2.0
 74
     0
  0
LTYPE
  5
C0A
330
5
100
AcDbSymbolTableRecord
100
AcDbLinetypeTableRecord
  2
DN 050
 70
     0
  3
 DN50  ---- 50 ---- 50 ---- 50 ----
 72
    65
 73
     3
 40
9.0
 49
5.0
 74
     0
 49
-2.0
 74
     2
 75
     0
340
11
 46
1.0
 50
0.0
 44
-0.5
 45
-0.5
  9
50
 49
-2.0
 74
     0
  0
LTYPE
  5
C0B
330
5
100
AcDbSymbolTableRecord
100
AcDbLinetypeTableRecord
  2
DN 065
 70
     0
  3
 DN65  ---- 65 ---- 65 ---- 65 ----
 72
    65
 73
     3
 40
9.0
 49
5.0
 74
     0
 49
-2.0
 74
     2
 75
     0
340
11
 46
1.0
 50
0.0
 44
-0.5
 45
-0.5
  9
65
 49
-2.0
 74
     0
  0
LTYPE
  5
C0C
330
5
100
AcDbSymbolTableRecord
100
AcDbLinetypeTableRecord
  2
DN 080
 70
     0
  3
 DN80  ---- 80 ---- 80 ---- 80 ----
 72
    65
 73
     3
 40
9.0
 49
5.0
 74
     0
 49
-2.0
 74
     2
 75
     0
340
11
 46
1.0
 50
0.0
 44
-0.5
 45
-0.5
  9
80
 49
-2.0
 74
     0
  0
LTYPE
  5
C0D
330
5
100
AcDbSymbolTableRecord
100
AcDbLinetypeTableRecord
  2
DN 100
 70
     0
  3
 DN100 ---- 100 --- 100 --- 100 ---
 72
    65
 73
     3
 40
9.0
 49
5.0
 74
     0
 49
-2.0
 74
     2
 75
     0
340
11
 46
1.0
 50
0.0
 44
-1.0
 45
-0.5
  9
100
 49
-2.0
 74
     0
  0
LTYPE
  5
C0E
330
5
100
AcDbSymbolTableRecord
100
AcDbLinetypeTableRecord
  2
DN 125
 70
     0
  3
 DN125 ---- 125 --- 125 --- 125 ---
 72
    65
 73
     3
 40
9.0
 49
5.0
 74
     0
 49
-2.0
 74
     2
 75
     0
340
11
 46
1.0
 50
0.0
 44
-1.0
 45
-0.5
  9
125
 49
-2.0
 74
     0
  0
LTYPE
  5
C0F
330
5
100
AcDbSymbolTableRecord
100
AcDbLinetypeTableRecord
  2
DN 150
 70
     0
  3
 DN150 ---- 150 --- 150 --- 150 ---
 72
    65
 73
     3
 40
9.0
 49
5.0
 74
     0
 49
-2.0
 74
     2
 75
     0
340
11
 46
1.0
 50
0.0
 44
-1.0
 45
-0.5
  9
150
 49
-2.0
 74
     0
  0
LTYPE
  5
C10
330
5
100
AcDbSymbolTableRecord
100
AcDbLinetypeTableRecord
  2
DN 200
 70
     0
  3
 DN200 ---- 200 --- 200 --- 200 ---
 72
    65
 73
     3
 40
9.0
 49
5.0
 74
     0
 49
-2.0
 74
     2
 75
     0
340
11
 46
1.0
 50
0.0
 44
-1.0
 45
-0.5
  9
200
 49
-2.0
 74
     0
  0
LTYPE
  5
C11
330
5
100
AcDbSymbolTableRecord
100
AcDbLinetypeTableRecord
  2
DN 250
 70
     0
  3
 DN250 ---- 250 --- 250 --- 250 ---
 72
    65
 73
     3
 40
9.0
 49
5.0
 74
     0
 49
-2.0
 74
     2
 75
     0
340
11
 46
1.0
 50
0.0
 44
-1.0
 45
-0.5
  9
250
 49
-2.0
 74
     0
  0
LTYPE
  5
C12
330
5
100
AcDbSymbolTableRecord
100
AcDbLinetypeTableRecord
  2
DN 300
 70
     0
  3
 DN300 ---- 300 --- 300 --- 300 ---
 72
    65
 73
     3
 40
9.0
 49
5.0
 74
     0
 49
-2.0
 74
     2
 75
     0
340
11
 46
1.0
 50
0.0
 44
-1.0
 45
-0.5
  9
300
 49
-2.0
 74
     0
  0
LTYPE
  5
D56
330
5
100
AcDbSymbolTableRecord
100
AcDbLinetypeTableRecord
  2
ACISOWELD
 70
     0
  3
_ _ _ _ _
 72
    65
 73
     2
 40
2.0
 49
2.0
 74
     0
 49
-1.0
 74
     0
  0
LTYPE
  5
D59
330
5
100
AcDbSymbolTableRecord
100
AcDbLinetypeTableRecord
  2
ACISOTGB
 70
     0
  3
__ . . __ . .
 72
    65
 73
     6
 40
9.0
 49
4.0
 74
     0
 49
-1.0
 74
     0
 49
1.0
 74
     0
 49
-1.0
 74
     0
 49
1.0
 74
     0
 49
-1.0
 74
     0
  0
LTYPE
  5
D5A
330
5
100
AcDbSymbolTableRecord
100
AcDbLinetypeTableRecord
  2
ACISOTGL
 70
     0
  3
_ _ _ _ _
 72
    65
 73
     2
 40
3.0
 49
2.0
 74
     0
 49
-1.0
 74
     0
  0
ENDTAB
  0
TABLE
  2
LAYER
  5
2
330
0
100
AcDbSymbolTable
 70
    15
  0
LAYER
  5
10
330
2
100
AcDbSymbolTableRecord
100
AcDbLayerTableRecord
  2
0
 70
     0
 62
     7
  6
Continuous
370
    -3
390
F
  0
LAYER
  5
F0
330
2
100
AcDbSymbolTableRecord
100
AcDbLayerTableRecord
  2
AM_5
 70
     0
 62
     3
  6
Continuous
370
    25
390
F
  0
LAYER
  5
31B
330
2
100
AcDbSymbolTableRecord
100
AcDbLayerTableRecord
  2
REFLEX-LOGO
 70
     0
 62
     3
  6
Continuous
370
    -3
390
F
  0
LAYER
  5
31C
330
2
100
AcDbSymbolTableRecord
100
AcDbLayerTableRecord
  2
REFLEX-PLOTLOGO
 70
     0
 62
     3
  6
Continuous
370
    -3
390
F
  0
LAYER
  5
31D
330
2
100
AcDbSymbolTableRecord
100
AcDbLayerTableRecord
  2
6
 70
     0
 62
     2
  6
Continuous
370
    -3
390
F
  0
LAYER
  5
31E
330
2
100
AcDbSymbolTableRecord
100
AcDbLayerTableRecord
  2
7
 70
     0
 62
     4
  6
GEN7
370
    -3
390
F
  0
LAYER
  5
31F
330
2
100
AcDbSymbolTableRecord
100
AcDbLayerTableRecord
  2
VENTILUKAPPE
 70
     0
 62
     1
  6
Continuous
370
    -3
390
F
  0
LAYER
  5
320
330
2
100
AcDbSymbolTableRecord
100
AcDbLayerTableRecord
  2
DEFPOINTS
 70
     0
 62
     7
  6
Continuous
290
     0
370
    -3
390
F
  0
LAYER
  5
321
330
2
100
AcDbSymbolTableRecord
100
AcDbLayerTableRecord
  2
RAHMENPOLY
 70
     0
 62
     2
  6
Continuous
370
    -3
390
F
  0
LAYER
  5
322
330
2
100
AcDbSymbolTableRecord
100
AcDbLayerTableRecord
  2
AM_0
 70
     0
 62
     7
  6
Continuous
370
    50
390
F
  0
LAYER
  5
323
330
2
100
AcDbSymbolTableRecord
100
AcDbLayerTableRecord
  2
AM_7
 70
     0
 62
     4
  6
AM_DIN_G_W050
370
    25
390
F
  0
LAYER
  5
324
330
2
100
AcDbSymbolTableRecord
100
AcDbLayerTableRecord
  2
AM_3
 70
     0
 62
     6
  6
AM_DIN_F_W050
370
    25
390
F
1001
AcAecLayerStandard
1000

1000

  0
LAYER
  5
325
330
2
100
AcDbSymbolTableRecord
100
AcDbLayerTableRecord
  2
AM_8
 70
     0
 62
     1
  6
Continuous
370
    25
390
F
1001
AcAecLayerStandard
1000

1000

  0
LAYER
  5
326
330
2
100
AcDbSymbolTableRecord
100
AcDbLayerTableRecord
  2
4
 70
     0
 62
     3
  6
Continuous
370
    -3
390
F
  0
LAYER
  5
327
330
2
100
AcDbSymbolTableRecord
100
AcDbLayerTableRecord
  2
DN50-0
 70
     0
 62
     7
  6
Continuous
370
    -3
390
F
  0
ENDTAB
  0
TABLE
  2
STYLE
  5
3
330
0
100
AcDbSymbolTable
 70
    17
  0
STYLE
  5
11
330
3
100
AcDbSymbolTableRecord
100
AcDbTextStyleTableRecord
  2
STANDARD
 70
     0
 40
0.0
 41
1.0
 50
0.0
 71
     0
 42
2.5
  3
ISOCP.SHX
  4

  0
STYLE
  5
A7
330
3
100
AcDbSymbolTableRecord
100
AcDbTextStyleTableRecord
  2

 70
     1
 40
0.0
 41
1.0
 50
0.0
 71
     0
 42
2.5
  3
ltypeshp.shx
  4

  0
STYLE
  5
AE
330
3
100
AcDbSymbolTableRecord
100
AcDbTextStyleTableRecord
  2
ACDINTS
 70
     0
 40
1.0
 41
1.0
 50
0.0
 71
     0
 42
2.5
  3
isocp.shx
  4

  0
STYLE
  5
BA
330
3
100
AcDbSymbolTableRecord
100
AcDbTextStyleTableRecord
  2
ACDINGDT
 70
     0
 40
0.0
 41
1.0
 50
0.0
 71
     0
 42
2.5
  3
amgdt.shx
  4

  0
STYLE
  5
23D
330
3
100
AcDbSymbolTableRecord
100
AcDbTextStyleTableRecord
  2
USER1
 70
     0
 40
0.0
 41
1.0
 50
0.0
 71
     0
 42
2.5
  3
TXT.SHX
  4

  0
STYLE
  5
23E
330
3
100
AcDbSymbolTableRecord
100
AcDbTextStyleTableRecord
  2
USER2
 70
     0
 40
0.0
 41
1.0
 50
0.0
 71
     0
 42
2.5
  3
SIMPLEX.SHX
  4

  0
STYLE
  5
23F
330
3
100
AcDbSymbolTableRecord
100
AcDbTextStyleTableRecord
  2
USER3
 70
     0
 40
0.0
 41
1.0
 50
0.0
 71
     0
 42
2.5
  3
ITALIC.SHX
  4

  0
STYLE
  5
C13
330
3
100
AcDbSymbolTableRecord
100
AcDbTextStyleTableRecord
  2
Annotative
 70
     0
 40
0.0
 41
1.0
 50
0.0
 71
     0
 42
2.5
  3
ARIAL.TTF
  4

1001
AcadAnnotative
1000
AnnotativeData
1002
{
1070
     1
1070
     1
1002
}
1001
ACAD
1000
Arial
1071
       34
  0
STYLE
  5
C14
330
3
100
AcDbSymbolTableRecord
100
AcDbTextStyleTableRecord
  2
CP_TXT
 70
     0
 40
0.0
 41
1.0
 50
0.0
 71
     0
 42
2.5
  3
ROMANS.SHX
  4

  0
STYLE
  5
C15
330
3
100
AcDbSymbolTableRecord
100
AcDbTextStyleTableRecord
  2

 70
     1
 40
0.0
 41
1.0
 50
0.0
 71
     0
 42
2.5
  3
LTYPESHP.SHX
  4

  0
STYLE
  5
C16
330
3
100
AcDbSymbolTableRecord
100
AcDbTextStyleTableRecord
  2
CP_ATTR
 70
     0
 40
0.0
 41
1.0
 50
0.0
 71
     0
 42
0.2
  3
ROMANS.SHX
  4

  0
STYLE
  5
C17
330
3
100
AcDbSymbolTableRecord
100
AcDbTextStyleTableRecord
  2
CP_TXT_IT
 70
     0
 40
0.0
 41
1.0
 50
15.0
 71
     0
 42
2.5
  3
ROMANS.SHX
  4

  0
STYLE
  5
C18
330
3
100
AcDbSymbolTableRecord
100
AcDbTextStyleTableRecord
  2
CP_TXTCON
 70
     0
 40
0.0
 41
0.8
 50
0.0
 71
     0
 42
2.5
  3
ROMANS.SHX
  4

  0
STYLE
  5
C19
330
3
100
AcDbSymbolTableRecord
100
AcDbTextStyleTableRecord
  2
CP_TXTCON_IT
 70
     0
 40
0.0
 41
0.8
 50
15.0
 71
     0
 42
2.5
  3
ROMANS.SHX
  4

  0
STYLE
  5
D50
330
3
100
AcDbSymbolTableRecord
100
AcDbTextStyleTableRecord
  2
ACISOTS
 70
     0
 40
1.0
 41
1.0
 50
0.0
 71
     0
 42
2.5
  3
isocp.shx
  4
bigfont.shx
  0
STYLE
  5
D54
330
3
100
AcDbSymbolTableRecord
100
AcDbTextStyleTableRecord
  2
ACISOGDT
 70
     0
 40
0.0
 41
1.0
 50
0.0
 71
     0
 42
2.5
  3
amgdt.shx
  4
bigfont.shx
  0
ENDTAB
  0
TABLE
  2
VIEW
  5
6
330
0
100
AcDbSymbolTable
 70
     0
  0
ENDTAB
  0
TABLE
  2
UCS
  5
7
330
0
100
AcDbSymbolTable
 70
     0
  0
ENDTAB
  0
TABLE
  2
APPID
  5
9
330
0
100
AcDbSymbolTable
 70
    36
  0
APPID
  5
12
330
9
100
AcDbSymbolTableRecord
100
AcDbRegAppTableRecord
  2
ACAD
 70
     0
  0
APPID
  5
82
330
9
100
AcDbSymbolTableRecord
100
AcDbRegAppTableRecord
  2
MCAD_NO_VIS
 70
     0
  0
APPID
  5
83
330
9
100
AcDbSymbolTableRecord
100
AcDbRegAppTableRecord
  2
ACAD_TEMP_GRAPHIC
 70
     0
  0
APPID
  5
94
330
9
100
AcDbSymbolTableRecord
100
AcDbRegAppTableRecord
  2
ACATTRIBSERVICES
 70
     0
  0
APPID
  5
CF
330
9
100
AcDbSymbolTableRecord
100
AcDbRegAppTableRecord
  2
GENIUS_GENSCREG_15
 70
     0
  0
APPID
  5
D0
330
9
100
AcDbSymbolTableRecord
100
AcDbRegAppTableRecord
  2
GENIUS_GENOBJ-N-SDF_13
 70
     0
  0
APPID
  5
D1
330
9
100
AcDbSymbolTableRecord
100
AcDbRegAppTableRecord
  2
GENIUS_GENODEF_13
 70
     0
  0
APPID
  5
125
330
9
100
AcDbSymbolTableRecord
100
AcDbRegAppTableRecord
  2
AD_DRAW
 70
     0
  0
APPID
  5
143
330
9
100
AcDbSymbolTableRecord
100
AcDbRegAppTableRecord
  2
DESIGNERASSEMBLIES
 70
     0
  0
APPID
  5
148
330
9
100
AcDbSymbolTableRecord
100
AcDbRegAppTableRecord
  2
ACADM_DIM_EDIT
 70
     0
  0
APPID
  5
149
330
9
100
AcDbSymbolTableRecord
100
AcDbRegAppTableRecord
  2
AMDT_DM_ADJ
 70
     0
  0
APPID
  5
329
330
9
100
AcDbSymbolTableRecord
100
AcDbRegAppTableRecord
  2
GENIUS_GENDTOL_13
 70
     0
  0
APPID
  5
32A
330
9
100
AcDbSymbolTableRecord
100
AcDbRegAppTableRecord
  2
GENIUS_GENOENT_13
 70
     0
  0
APPID
  5
32B
330
9
100
AcDbSymbolTableRecord
100
AcDbRegAppTableRecord
  2
GENIUS_GENOBJ-N-HTC_13
 70
     0
  0
APPID
  5
32C
330
9
100
AcDbSymbolTableRecord
100
AcDbRegAppTableRecord
  2
GENIUS_GENHATCH_13
 70
     0
  0
APPID
  5
32D
330
9
100
AcDbSymbolTableRecord
100
AcDbRegAppTableRecord
  2
GENIUS_GENOLIS_13
 70
     0
  0
APPID
  5
32E
330
9
100
AcDbSymbolTableRecord
100
AcDbRegAppTableRecord
  2
GENIUS_GENOREF_13
 70
     0
  0
APPID
  5
32F
330
9
100
AcDbSymbolTableRecord
100
AcDbRegAppTableRecord
  2
GENIUS_GENREC_14
 70
     0
  0
APPID
  5
330
330
9
100
AcDbSymbolTableRecord
100
AcDbRegAppTableRecord
  2
GENIUS_GENOBJ-N-REC_13
 70
     0
  0
APPID
  5
331
330
9
100
AcDbSymbolTableRecord
100
AcDbRegAppTableRecord
  2
GENIUS_GENOBJ-N-FIL_13
 70
     0
  0
APPID
  5
332
330
9
100
AcDbSymbolTableRecord
100
AcDbRegAppTableRecord
  2
GENIUS_GENOBJ-N-CEN_13
 70
     0
  0
APPID
  5
333
330
9
100
AcDbSymbolTableRecord
100
AcDbRegAppTableRecord
  2
GENIUS_GENOBJ-N-DIMBR_13
 70
     0
  0
APPID
  5
334
330
9
100
AcDbSymbolTableRecord
100
AcDbRegAppTableRecord
  2
GENIUS_DIMBR_14
 70
     0
  0
APPID
  5
335
330
9
100
AcDbSymbolTableRecord
100
AcDbRegAppTableRecord
  2
GENIUS_GENFIL_13
 70
     0
  0
APPID
  5
336
330
9
100
AcDbSymbolTableRecord
100
AcDbRegAppTableRecord
  2
GENIUS_GENOBJ-N-CHA_13
 70
     0
  0
APPID
  5
337
330
9
100
AcDbSymbolTableRecord
100
AcDbRegAppTableRecord
  2
GENIUS_GENOBJ-N-CRC_13
 70
     0
  0
APPID
  5
338
330
9
100
AcDbSymbolTableRecord
100
AcDbRegAppTableRecord
  2
GENIUS_GENCRC_14
 70
     0
  0
APPID
  5
339
330
9
100
AcDbSymbolTableRecord
100
AcDbRegAppTableRecord
  2
EDBMODELINFO
 70
     0
  0
APPID
  5
33A
330
9
100
AcDbSymbolTableRecord
100
AcDbRegAppTableRecord
  2
AcAecLayerStandard
 70
     0
  0
APPID
  5
C1C
330
9
100
AcDbSymbolTableRecord
100
AcDbRegAppTableRecord
  2
ACAD_PSEXT
 70
     0
  0
APPID
  5
C1D
330
9
100
AcDbSymbolTableRecord
100
AcDbRegAppTableRecord
  2
AcadAnnoPO
 70
     0
  0
APPID
  5
C1E
330
9
100
AcDbSymbolTableRecord
100
AcDbRegAppTableRecord
  2
AcadAnnotative
 70
     0
  0
APPID
  5
C1F
330
9
100
AcDbSymbolTableRecord
100
AcDbRegAppTableRecord
  2
ACAD_DSTYLE_DIMJAG
 70
     0
  0
APPID
  5
C20
330
9
100
AcDbSymbolTableRecord
100
AcDbRegAppTableRecord
  2
ACAD_DSTYLE_DIMTALN
 70
     0
  0
APPID
  5
C21
330
9
100
AcDbSymbolTableRecord
100
AcDbRegAppTableRecord
  2
ACAD_MLEADERVER
 70
     0
  0
APPID
  5
C22
330
9
100
AcDbSymbolTableRecord
100
AcDbRegAppTableRecord
  2
DCO15
 70
     0
  0
ENDTAB
  0
TABLE
  2
DIMSTYLE
  5
A
330
0
100
AcDbSymbolTable
 70
    19
100
AcDbDimStyleTable
 71
     2
340
C2
340
27
  0
DIMSTYLE
105
27
330
A
100
AcDbSymbolTableRecord
100
AcDbDimStyleTableRecord
  2
ISO-25
 70
     0
 41
2.5
 42
0.625
 43
3.75
 44
1.25
 73
     0
 74
     0
 77
     1
 78
     8
140
2.5
141
2.5
143
0.03937007874016
147
0.625
171
     3
172
     1
271
     2
272
     2
274
     3
278
    44
283
     0
284
     8
340
11
  0
DIMSTYLE
105
C2
330
A
100
AcDbSymbolTableRecord
100
AcDbDimStyleTableRecord
  2
AM_DIN
 70
     0
  4
"
 41
2.5
 42
1.0
 43
10.0
 44
1.0
 47
0.1
 48
0.1
 73
     0
 74
     0
 77
     1
 78
     8
 79
     2
140
3.5
141
0.0
143
0.0393701
146
0.71
147
1.5
172
     1
176
   256
177
   256
178
     2
271
     2
272
     3
274
     4
283
     0
284
     8
340
11
371
    -1
372
    -1
  0
DIMSTYLE
105
C3
330
A
100
AcDbSymbolTableRecord
100
AcDbDimStyleTableRecord
  2
AM_DIN$3
 70
     0
  4
"
 41
2.5
 42
1.0
 43
10.0
 44
1.0
 47
0.1
 48
0.1
 73
     0
 77
     1
 78
     8
 79
     2
140
3.5
141
0.0
143
0.0393701
146
0.71
147
1.5
176
   256
177
   256
178
     2
271
     2
272
     3
274
     4
283
     0
284
     8
288
     1
289
     0
340
11
371
    -1
372
    -1
  0
DIMSTYLE
105
C4
330
A
100
AcDbSymbolTableRecord
100
AcDbDimStyleTableRecord
  2
AM_DIN$4
 70
     0
  4
"
 41
2.5
 42
1.0
 43
10.0
 44
1.0
 47
0.1
 48
0.1
 73
     0
 77
     1
 78
     8
 79
     2
140
3.5
141
0.0
143
0.0393701
146
0.71
147
1.5
176
   256
177
   256
178
     2
271
     2
272
     3
274
     4
283
     0
284
     8
288
     1
289
     0
340
11
371
    -1
372
    -1
  0
DIMSTYLE
105
C5
330
A
100
AcDbSymbolTableRecord
100
AcDbDimStyleTableRecord
  2
AM_DIN$6
 70
     0
  4
"
 41
2.5
 42
1.0
 43
10.0
 44
1.0
 47
0.1
 48
0.1
 73
     0
 74
     0
 78
     8
 79
     2
140
3.5
141
0.0
143
0.0393701
146
0.71
147
1.5
172
     1
176
   256
177
   256
178
     2
271
     2
272
     3
274
     4
283
     0
284
     8
340
11
371
    -1
372
    -1
  0
DIMSTYLE
105
C6
330
A
100
AcDbSymbolTableRecord
100
AcDbDimStyleTableRecord
  2
AM_DIN$7
 70
     0
  4
"
 41
2.5
 42
1.0
 43
10.0
 44
1.0
 47
0.1
 48
0.1
 73
     0
 74
     0
 77
     1
 78
     8
 79
     2
140
5.0
141
0.0
143
0.0393701
146
0.71
147
1.5
172
     1
176
   256
177
   256
178
     2
271
     2
272
     3
274
     4
283
     0
284
     8
340
11
371
    -1
372
    -1
  0
DIMSTYLE
105
C7
330
A
100
AcDbSymbolTableRecord
100
AcDbDimStyleTableRecord
  2
AM_DIN$SF
 70
     0
  4
"
 41
2.5
 42
1.0
 43
10.0
 44
1.0
 47
0.1
 48
0.1
 73
     0
 74
     0
 75
     1
 76
     1
 77
     1
 78
     8
 79
     2
140
3.5
141
0.0
143
0.0393701
146
0.71
147
1.5
172
     1
176
   256
177
   256
178
     2
271
     2
272
     3
274
     4
283
     0
284
     8
340
11
371
    -1
372
    -1
  0
DIMSTYLE
105
CC
330
A
100
AcDbSymbolTableRecord
100
AcDbDimStyleTableRecord
  2
AM_DIN$SH
 70
     0
  4
"
 41
2.5
 42
1.0
 43
10.0
 44
1.0
 47
0.1
 48
0.1
 73
     0
 74
     0
 75
     1
 76
     1
 77
     1
 78
     8
 79
     2
140
3.5
141
0.0
143
0.0393701
144
2.0
146
0.71
147
1.5
172
     1
173
     1
176
   256
177
   256
178
     2
271
     2
272
     3
274
     4
283
     0
284
     8
340
11
343
C8
371
    -1
372
    -1
  0
DIMSTYLE
105
328
102
{ACAD_REACTORS
330
B12
330
72F
330
730
330
734
330
738
330
739
330
73B
330
748
102
}
330
A
100
AcDbSymbolTableRecord
100
AcDbDimStyleTableRecord
  2
GEN-ISO
 70
     0
  4
"
 40
5.0
 41
2.5
 42
1.0
 43
7.0
 44
1.0
 47
0.1
 48
0.1
 73
     0
 74
     0
 77
     1
 78
     8
140
3.5
141
0.0
143
0.0393701
146
0.71
147
0.6
172
     1
176
   256
177
   256
178
     2
271
     2
272
     3
274
     4
283
     0
340
11
  0
DIMSTYLE
105
C1A
330
A
100
AcDbSymbolTableRecord
100
AcDbDimStyleTableRecord
  2
Standard
 70
     0
340
11
  0
DIMSTYLE
105
C1B
330
A
100
AcDbSymbolTableRecord
100
AcDbDimStyleTableRecord
  2
Opisowy
 70
     0
 40
0.0
 41
2.5
 42
0.625
 43
3.75
 44
1.25
 73
     0
 74
     0
 77
     1
 78
     8
140
2.5
141
2.5
143
0.03937007874016
147
0.625
171
     3
172
     1
271
     2
272
     2
274
     3
278
    44
283
     0
284
     8
340
11
1001
AcadAnnotative
1000
AnnotativeData
1002
{
1070
     1
1070
     1
1002
}
1001
ACAD_DSTYLE_DIMJAG
1070
   388
1040
1.5
1001
ACAD_DSTYLE_DIMTALN
1070
   392
1070
     0
  0
DIMSTYLE
105
D6B
330
A
100
AcDbSymbolTableRecord
100
AcDbDimStyleTableRecord
  2
AM_ISO
 70
     0
  4
"
 41
2.5
 42
1.0
 43
10.0
 44
1.0
 47
0.1
 48
0.1
 73
     0
 74
     0
 77
     1
 78
     8
 79
     2
140
3.5
141
0.0
143
0.0393701
146
0.71
147
1.5
172
     1
176
   256
177
   256
178
     2
271
     2
272
     3
274
     4
283
     0
284
     8
340
11
371
    -1
372
    -1
  0
DIMSTYLE
105
D6C
330
A
100
AcDbSymbolTableRecord
100
AcDbDimStyleTableRecord
  2
AM_ISO$3
 70
     0
  4
"
 41
2.5
 42
1.0
 43
10.0
 44
1.0
 47
0.1
 48
0.1
 73
     0
 77
     1
 78
     8
 79
     2
140
3.5
141
0.0
143
0.0393701
146
0.71
147
1.5
176
   256
177
   256
178
     2
271
     2
272
     3
274
     4
283
     0
284
     8
288
     1
289
     0
340
11
371
    -1
372
    -1
  0
DIMSTYLE
105
D6D
330
A
100
AcDbSymbolTableRecord
100
AcDbDimStyleTableRecord
  2
AM_ISO$4
 70
     0
  4
"
 41
2.5
 42
1.0
 43
10.0
 44
1.0
 47
0.1
 48
0.1
 73
     0
 77
     1
 78
     8
 79
     2
140
3.5
141
0.0
143
0.0393701
146
0.71
147
1.5
176
   256
177
   256
178
     2
271
     2
272
     3
274
     4
283
     0
284
     8
288
     1
289
     0
340
11
371
    -1
372
    -1
  0
DIMSTYLE
105
D6E
330
A
100
AcDbSymbolTableRecord
100
AcDbDimStyleTableRecord
  2
AM_ISO$6
 70
     0
  4
"
 41
2.5
 42
1.0
 43
10.0
 44
1.0
 47
0.1
 48
0.1
 73
     0
 74
     0
 78
     8
 79
     2
140
3.5
141
0.0
143
0.0393701
146
0.71
147
1.5
172
     1
176
   256
177
   256
178
     2
271
     2
272
     3
274
     4
283
     0
284
     8
340
11
371
    -1
372
    -1
  0
DIMSTYLE
105
D6F
330
A
100
AcDbSymbolTableRecord
100
AcDbDimStyleTableRecord
  2
AM_ISO$7
 70
     0
  4
"
 41
2.5
 42
1.0
 43
10.0
 44
1.0
 47
0.1
 48
0.1
 73
     0
 74
     0
 77
     1
 78
     8
 79
     2
140
5.0
141
0.0
143
0.0393701
146
0.71
147
1.5
172
     1
176
   256
177
   256
178
     2
271
     2
272
     3
274
     4
283
     0
284
     8
340
11
371
    -1
372
    -1
  0
DIMSTYLE
105
D70
330
A
100
AcDbSymbolTableRecord
100
AcDbDimStyleTableRecord
  2
AM_ISO$SF
 70
     0
  4
"
 41
2.5
 42
1.0
 43
10.0
 44
1.0
 47
0.1
 48
0.1
 73
     0
 74
     0
 75
     1
 76
     1
 77
     1
 78
     8
 79
     2
140
3.5
141
0.0
143
0.0393701
146
0.71
147
1.5
172
     1
176
   256
177
   256
178
     2
271
     2
272
     3
274
     4
283
     0
284
     8
340
11
371
    -1
372
    -1
  0
DIMSTYLE
105
D71
330
A
100
AcDbSymbolTableRecord
100
AcDbDimStyleTableRecord
  2
AM_ISO$SH
 70
     0
  4
"
 41
2.5
 42
1.0
 43
10.0
 44
1.0
 47
0.1
 48
0.1
 73
     0
 74
     0
 75
     1
 76
     1
 77
     1
 78
     8
 79
     2
140
3.5
141
0.0
143
0.0393701
144
2.0
146
0.71
147
1.5
172
     1
173
     1
176
   256
177
   256
178
     2
271
     2
272
     3
274
     4
283
     0
284
     8
340
11
343
C8
371
    -1
372
    -1
  0
ENDTAB
  0
TABLE
  2
BLOCK_RECORD
  5
1
330
0
100
AcDbSymbolTable
 70
    14
  0
BLOCK_RECORD
  5
1F
102
{ACAD_XDICTIONARY
360
D5
102
}
330
1
100
AcDbSymbolTableRecord
100
AcDbBlockTableRecord
  2
*Model_Space
340
22
  0
BLOCK_RECORD
  5
55
330
1
100
AcDbSymbolTableRecord
100
AcDbBlockTableRecord
  2
*Paper_Space
340
56
  0
BLOCK_RECORD
  5
50
330
1
100
AcDbSymbolTableRecord
100
AcDbBlockTableRecord
  2
*Paper_Space0
340
51
  0
BLOCK_RECORD
  5
C8
330
1
100
AcDbSymbolTableRecord
100
AcDbBlockTableRecord
  2
GENAXEH
340
0
  0
BLOCK_RECORD
  5
29B
330
1
100
AcDbSymbolTableRecord
100
AcDbBlockTableRecord
  2
REFLEX-LOGO
340
0
102
{BLKREFS
331
2B4
102
}
  0
BLOCK_RECORD
  5
2B2
330
1
100
AcDbSymbolTableRecord
100
AcDbBlockTableRecord
  2
LOGO
340
0
102
{BLKREFS
331
770
102
}
  0
BLOCK_RECORD
  5
B14
330
1
100
AcDbSymbolTableRecord
100
AcDbBlockTableRecord
  2
*D4
340
0
  0
BLOCK_RECORD
  5
B22
330
1
100
AcDbSymbolTableRecord
100
AcDbBlockTableRecord
  2
*D5
340
0
  0
BLOCK_RECORD
  5
B30
330
1
100
AcDbSymbolTableRecord
100
AcDbBlockTableRecord
  2
*D6
340
0
  0
BLOCK_RECORD
  5
B3C
330
1
100
AcDbSymbolTableRecord
100
AcDbBlockTableRecord
  2
*D7
340
0
  0
BLOCK_RECORD
  5
B48
330
1
100
AcDbSymbolTableRecord
100
AcDbBlockTableRecord
  2
*D8
340
0
  0
BLOCK_RECORD
  5
B54
330
1
100
AcDbSymbolTableRecord
100
AcDbBlockTableRecord
  2
*D9
340
0
  0
BLOCK_RECORD
  5
B60
330
1
100
AcDbSymbolTableRecord
100
AcDbBlockTableRecord
  2
*D10
340
0
  0
BLOCK_RECORD
  5
B6C
330
1
100
AcDbSymbolTableRecord
100
AcDbBlockTableRecord
  2
*D11
340
0
  0
ENDTAB
  0
ENDSEC
  0
SECTION
  2
BLOCKS
  0
BLOCK
  5
20
330
1F
100
AcDbEntity
  8
0
100
AcDbBlockBegin
  2
*Model_Space
 70
     0
 10
0.0
 20
0.0
 30
0.0
  3
*Model_Space
  1

  0
ENDBLK
  5
21
330
1F
100
AcDbEntity
  8
0
100
AcDbBlockEnd
  0
BLOCK
  5
57
330
55
100
AcDbEntity
 67
     1
  8
0
100
AcDbBlockBegin
  2
*Paper_Space
 70
     0
 10
0.0
 20
0.0
 30
0.0
  3
*Paper_Space
  1

  0
ENDBLK
  5
58
330
55
100
AcDbEntity
 67
     1
  8
0
100
AcDbBlockEnd
  0
BLOCK
  5
52
330
50
100
AcDbEntity
 67
     1
  8
0
100
AcDbBlockBegin
  2
*Paper_Space0
 70
     0
 10
0.0
 20
0.0
 30
0.0
  3
*Paper_Space0
  1

  0
VIEWPORT
  5
69
330
50
100
AcDbEntity
 67
     1
  8
0
100
AcDbViewport
 10
128.5
 20
97.5
 30
0.0
 40
384.7606204379562
 41
222.18
 68
     0
 69
     0
 12
128.5
 22
97.5
 13
0.0
 23
0.0
 14
10.0
 24
10.0
 15
10.0
 25
10.0
 16
0.0
 26
0.0
 36
1.0
 17
0.0
 27
0.0
 37
0.0
 42
50.0
 43
0.0
 44
0.0
 45
222.18
 50
0.0
 51
0.0
 72
   100
 90
    32800
  1

281
     0
 71
     1
 74
     0
110
0.0
120
0.0
130
0.0
111
1.0
121
0.0
131
0.0
112
0.0
122
1.0
132
0.0
 79
     0
146
0.0
170
     0
1001
GENIUS_GENOBJ-N-SDF_13
1002
{
1000
OWNER
1000
GEN
1002
}
1001
GENIUS_GENODEF_13
1002
{
1000
HIER
1070
     0
1002
}
1002
{
1000
MANEDIT
1070
     0
1002
}
1002
{
1000
NOSEL
1070
     0
1002
}
1002
{
1000
BEHIND
1070
     0
1002
}
1002
{
1000
OTHER
1070
     0
1002
}
1002
{
1000
REACTOR
1002
}
1001
GENIUS_GENSCREG_15
1000
PF
1040
1.0
1000
DF
1040
1.0
1000
MIN
1011
-63.88031021897808
1021
-13.59
1031
0.0
1000
MAX
1011
320.8803102189781
1021
208.59
1031
0.0
1000
FLAGS
1070
     2
  0
VIEWPORT
  5
6B
330
50
100
AcDbEntity
 67
     1
  8
0
100
AcDbViewport
 10
128.5
 20
97.5
 30
0.0
 40
205.6
 41
156.0
 68
     0
 69
     0
 12
210.0
 22
148.5
 13
0.0
 23
0.0
 14
10.0
 24
10.0
 15
10.0
 25
10.0
 16
0.0
 26
0.0
 36
1.0
 17
0.0
 27
0.0
 37
0.0
 42
50.0
 43
0.0
 44
0.0
 45
322.4558219652112
 50
0.0
 51
0.0
 72
   100
 90
    32864
  1

281
     0
 71
     1
 74
     0
110
0.0
120
0.0
130
0.0
111
1.0
121
0.0
131
0.0
112
0.0
122
1.0
132
0.0
 79
     0
146
0.0
170
     0
1001
GENIUS_GENOBJ-N-SDF_13
1002
{
1000
OWNER
1000
GEN
1002
}
1001
GENIUS_GENODEF_13
1002
{
1000
HIER
1070
     0
1002
}
1002
{
1000
MANEDIT
1070
     0
1002
}
1002
{
1000
NOSEL
1070
     0
1002
}
1002
{
1000
BEHIND
1070
     0
1002
}
1002
{
1000
OTHER
1070
     0
1002
}
1002
{
1000
REACTOR
1002
}
1001
GENIUS_GENSCREG_15
1000
PF
1040
0.0
1000
DF
1040
0.0
1000
MIN
1011
25.70000000000002
1021
19.5
1031
0.0
1000
MAX
1011
231.3
1021
175.5
1031
0.0
1000
FLAGS
1070
     2
  0
ENDBLK
  5
53
330
50
100
AcDbEntity
 67
     1
  8
0
100
AcDbBlockEnd
  0
BLOCK
  5
D49
330
C8
100
AcDbEntity
  8
0
100
AcDbBlockBegin
  2
GENAXEH
 70
     0
 10
0.0
 20
0.0
 30
0.0
  3
GENAXEH
  1

  0
LINE
  5
D4A
330
C8
100
AcDbEntity
  8
0
100
AcDbLine
 10
-1.0
 20
0.0
 30
0.0
 11
1.0
 21
0.0
 31
0.0
  0
ENDBLK
  5
D4B
330
C8
100
AcDbEntity
  8
0
100
AcDbBlockEnd
  0
BLOCK
  5
29C
330
29B
100
AcDbEntity
  8
0
100
AcDbBlockBegin
  2
REFLEX-LOGO
 70
     0
 10
0.0
 20
0.0
 30
0.0
  3
REFLEX-LOGO
  1

  0
LWPOLYLINE
  5
29D
330
29B
100
AcDbEntity
  8
REFLEX-PLOTLOGO
100
AcDbPolyline
 90
        4
 70
     1
 43
0.0
 10
7.16889266058251
 20
2.770000148494323
 10
8.050201288629978
 20
1.751758672336855
 42
-2.569163999999998
 10
8.456599988157789
 20
5.004874880845259
 10
6.110138560493052
 20
2.57088252848068
 42
0.268569
  0
LWPOLYLINE
  5
29E
330
29B
100
AcDbEntity
  8
REFLEX-LOGO
100
AcDbPolyline
 90
        2
 70
     0
 43
1.344148106570167
 10
7.675506562442476
 20
4.839334080533808
 42
2.261413
 10
7.610669338275212
 20
2.260218537596534
 42
0.9802239999999999
  0
LWPOLYLINE
  5
29F
330
29B
100
AcDbEntity
  8
REFLEX-PLOTLOGO
100
AcDbPolyline
 90
        7
 70
     0
 43
0.0
 10
3.098261093164296
 20
4.704713167167128
 42
0.412244
 10
2.574401771097086
 20
4.210062183455616
 10
2.574401771097086
 20
1.142232310944137
 10
1.222421761559302
 20
1.142232310944137
 10
1.222421761559302
 20
4.253388557424051
 42
-0.412244
 10
3.132487584451379
 20
6.056957525832537
 10
3.132487584451379
 20
4.70428303977309
  0
LWPOLYLINE
  5
2A0
330
29B
100
AcDbEntity
  8
REFLEX-LOGO
100
AcDbPolyline
 90
        2
 70
     0
 43
0.6720740532850843
 10
8.213784113199606
 20
5.242072216718078
 10
5.791651627628534
 20
2.724738201252328
  0
LWPOLYLINE
  5
2A1
330
29B
100
AcDbEntity
  8
REFLEX-LOGO
100
AcDbPolyline
 90
        3
 70
     0
 43
1.344148106570167
 10
1.892757383293085
 20
1.13836116439716
 10
1.892757383293085
 20
4.189317497677578
 42
-0.4225800000000002
 10
3.116308521741871
 20
5.378512210522306
 42
-0.5840260000000001
  0
LWPOLYLINE
  5
2A2
330
29B
100
AcDbEntity
  8
REFLEX-PLOTLOGO
100
AcDbPolyline
 90
        2
 70
     1
 43
0.0
 10
7.030078005123297
 20
4.486212931456773
 10
5.577363055985528
 20
2.986869484502058
 42
-0.802942
  0
LWPOLYLINE
  5
2A3
330
29B
100
AcDbEntity
  8
REFLEX-PLOTLOGO
100
AcDbPolyline
 90
        4
 70
     1
 43
0.0
 10
12.61697584415799
 20
7.850046619503499
 10
12.61697584415799
 20
1.13136263325574
 10
13.96896033418943
 20
1.13136263325574
 10
13.96896033418943
 20
7.850046619503499
  0
LWPOLYLINE
  5
2A4
330
29B
100
AcDbEntity
  8
REFLEX-PLOTLOGO
100
AcDbPolyline
 90
       10
 70
     0
 43
0.0
 10
11.53981587599583
 20
6.502412688843596
 10
11.53981587599583
 20
7.85508717490314
 42
0.412244
 10
9.62975453359752
 20
6.051518206494556
 10
9.62975453359752
 20
1.141882832436426
 10
10.9817345431353
 20
1.141882832436426
 10
10.9817345431353
 20
4.656960065434351
 10
11.54785388167306
 20
4.656960065434351
 10
11.54785388167306
 20
6.008196313019928
 10
10.9817345431353
 20
6.008196313019928
 42
-0.412244
 10
11.50559386520251
 20
6.502842816237752
  0
LWPOLYLINE
  5
2A5
330
29B
100
AcDbEntity
  8
REFLEX-LOGO
100
AcDbPolyline
 90
        2
 70
     0
 43
1.344148106570167
 10
13.29213247710083
 20
7.847205986504872
 10
13.29213247710083
 20
1.133598399606277
  0
LWPOLYLINE
  5
2A6
330
29B
100
AcDbEntity
  8
REFLEX-LOGO
100
AcDbPolyline
 90
        3
 70
     0
 43
1.344148106570167
 10
10.30394337990355
 20
1.13836116439716
 10
10.30394337990355
 20
5.981488090142311
 42
-0.4225800000000002
 10
11.52749003785857
 20
7.170678322493341
 42
-0.5840260000000001
  0
LWPOLYLINE
  5
2A7
330
29B
100
AcDbEntity
  8
REFLEX-PLOTLOGO
100
AcDbPolyline
 90
       20
 70
     1
 43
0.0
 10
23.69623758589217
 20
5.229777742036587
 10
23.69623758589217
 20
5.996381251163063
 10
25.04057835369088
 20
5.996381251163063
 10
25.04057835369088
 20
5.22789593468746
 42
-0.200193
 10
24.36593249702855
 20
3.612713803908484
 42
-0.200193
 10
25.04057835369088
 20
1.997531673129541
 10
25.04057835369088
 20
1.087476197576084
 10
23.69623758589217
 20
1.087476197576084
 10
23.69623758589217
 20
1.995649865780268
 42
0.431175
 10
22.72309675920372
 20
2.938300932918008
 42
0.431175
 10
21.74996041300915
 20
1.995649865780268
 10
21.74996041300915
 20
1.087476197576084
 10
20.40561964521032
 20
1.087476197576084
 10
20.40561964521032
 20
1.997531673129541
 42
-0.200193
 10
21.08026550187265
 20
3.612713803908484
 42
-0.200193
 10
20.40561964521032
 20
5.22789593468746
 10
20.40561964521032
 20
5.996381251163063
 10
21.74996041300915
 20
5.996381251163063
 10
21.74996041300915
 20
5.229777742036587
 42
0.431175
 10
22.72309675920372
 20
4.287126674899004
 42
0.431175
  0
LWPOLYLINE
  5
2A8
330
29B
100
AcDbEntity
  8
REFLEX-PLOTLOGO
100
AcDbPolyline
 90
        4
 70
     1
 43
0.0
 10
18.24867862007818
 20
2.771756502020279
 10
19.12998724812576
 20
1.753515025862801
 42
-2.569163999999998
 10
19.53638594765357
 20
5.006631234371217
 10
17.18992451998872
 20
2.572638882006625
 42
0.268569
  0
LWPOLYLINE
  5
2A9
330
29B
100
AcDbEntity
  8
REFLEX-LOGO
100
AcDbPolyline
 90
        3
 70
     0
 43
1.344148106570167
 10
24.36839676855732
 20
5.996381251163063
 10
24.36839676855732
 20
5.229777742036587
 42
-0.4192720000000003
 10
22.72309675920372
 20
3.61260179156631
 42
-1.628846999999999
  0
LWPOLYLINE
  5
2AA
330
29B
100
AcDbEntity
  8
REFLEX-LOGO
100
AcDbPolyline
 90
        3
 70
     0
 43
1.344148106570167
 10
24.36839676855732
 20
1.087538924487837
 10
24.36839676855732
 20
1.995425841095894
 42
0.4192720000000003
 10
22.72309675920372
 20
3.61260179156631
 42
1.628846999999999
  0
LWPOLYLINE
  5
2AB
330
29B
100
AcDbEntity
  8
REFLEX-LOGO
100
AcDbPolyline
 90
        2
 70
     0
 43
0.6720740532850843
 10
19.2903620392143
 20
5.242072216718078
 10
16.86822955364334
 20
2.724738201252328
  0
LWPOLYLINE
  5
2AC
330
29B
100
AcDbEntity
  8
REFLEX-LOGO
100
AcDbPolyline
 90
        2
 70
     0
 43
1.344148106570167
 10
18.75208448845728
 20
4.839334080533808
 42
2.261413
 10
18.68724726429002
 20
2.260218537596534
 42
0.9802239999999999
  0
LWPOLYLINE
  5
2AD
330
29B
100
AcDbEntity
  8
REFLEX-LOGO
100
AcDbPolyline
 90
        3
 70
     0
 43
1.344148106570167
 10
21.07779674985033
 20
5.996381251163063
 10
21.07779674985033
 20
5.229777742036587
 42
0.4192720000000003
 10
22.72309675920372
 20
3.61260179156631
 42
1.628846999999999
  0
LWPOLYLINE
  5
2AE
330
29B
100
AcDbEntity
  8
REFLEX-LOGO
100
AcDbPolyline
 90
        3
 70
     0
 43
1.344148106570167
 10
21.07779674985033
 20
1.087538924487837
 10
21.07779674985033
 20
1.995425841095894
 42
-0.4192720000000003
 10
22.72309675920372
 20
3.61260179156631
 42
-1.628846999999999
  0
LWPOLYLINE
  5
2AF
330
29B
100
AcDbEntity
  8
REFLEX-PLOTLOGO
100
AcDbPolyline
 90
        2
 70
     1
 43
0.0
 10
18.10986396461908
 20
4.487969284982693
 10
16.65714901548119
 20
2.988625838027898
 42
-0.802942
  0
LWPOLYLINE
  5
2B0
330
29B
100
AcDbEntity
  8
REFLEX-LOGO
100
AcDbPolyline
 90
        2
 70
     0
 43
1.344148106570167
 10
10.95095803198853
 20
5.331924037148652
 10
11.54826608709243
 20
5.331924037148652
  0
ENDBLK
  5
2B1
330
29B
100
AcDbEntity
  8
0
100
AcDbBlockEnd
  0
BLOCK
  5
2B3
330
2B2
100
AcDbEntity
  8
0
100
AcDbBlockBegin
  2
LOGO
 70
     0
 10
0.0
 20
0.0
 30
0.0
  3
LOGO
  1

  0
INSERT
  5
2B4
330
2B2
100
AcDbEntity
  8
6
100
AcDbBlockReference
  2
REFLEX-LOGO
 10
0.184902540976509
 20
0.7393083952857751
 30
0.0
  0
ENDBLK
  5
2B5
330
2B2
100
AcDbEntity
  8
0
100
AcDbBlockEnd
  0
BLOCK
  5
B20
330
B14
100
AcDbEntity
  8
0
100
AcDbBlockBegin
  2
*D4
 70
     1
 10
0.0
 20
0.0
 30
0.0
  3
*D4
  1

  0
LINE
  5
B78
330
B14
100
AcDbEntity
  8
AM_5
370
    -2
100
AcDbLine
 10
1108.567708192415
 20
722.8187932464257
 30
0.0
 11
1140.365021793919
 21
722.8187932464257
 31
0.0
  0
LINE
  5
B79
330
B14
100
AcDbEntity
  8
AM_5
370
    -2
100
AcDbLine
 10
1109.566261122597
 20
753.7630202841149
 30
0.0
 11
1140.365021793919
 21
753.7630202841149
 31
0.0
  0
LINE
  5
B7A
330
B14
100
AcDbEntity
  8
AM_5
370
    -2
100
AcDbLine
 10
1135.365021793919
 20
710.3187932464257
 30
0.0
 11
1135.365021793919
 21
697.8187932464257
 31
0.0
  0
LINE
  5
B7B
330
B14
100
AcDbEntity
  8
AM_5
370
    -2
100
AcDbLine
 10
1135.365021793919
 20
766.2630202841149
 30
0.0
 11
1135.365021793919
 21
905.1382077339454
 31
0.0
  0
LINE
  5
B7C
330
B14
100
AcDbEntity
  8
AM_5
370
    -2
100
AcDbLine
 10
1135.365021793919
 20
722.8187932464257
 30
0.0
 11
1135.365021793919
 21
753.7630202841149
 31
0.0
  0
SOLID
  5
B7D
330
B14
100
AcDbEntity
  8
AM_5
100
AcDbTrace
 10
1133.281688460586
 20
710.3187932464257
 30
0.0
 11
1137.448355127253
 21
710.3187932464257
 31
0.0
 12
1135.365021793919
 22
722.8187932464257
 32
0.0
 13
1135.365021793919
 23
722.8187932464257
 33
0.0
  0
SOLID
  5
B7E
330
B14
100
AcDbEntity
  8
AM_5
100
AcDbTrace
 10
1133.281688460586
 20
766.2630202841149
 30
0.0
 11
1137.448355127253
 21
766.2630202841149
 31
0.0
 12
1135.365021793919
 22
753.7630202841149
 32
0.0
 13
1135.365021793919
 23
753.7630202841149
 33
0.0
  0
MTEXT
  5
B7F
330
B14
100
AcDbEntity
  8
AM_5
 62
     2
100
AcDbMText
 10
1123.493320409459
 20
841.9506140090303
 30
0.0
 40
17.5
 41
0.0
 71
     5
 72
     1
  1
R1-DIN 2999
 11
0.0000000000000001
 21
1.0
 31
0.0
 73
     1
 44
1.0
  0
POINT
  5
B80
330
B14
100
AcDbEntity
  8
DEFPOINTS
 62
     0
100
AcDbPoint
 10
1103.567708192415
 20
722.8187932464257
 30
0.0
  0
POINT
  5
B81
330
B14
100
AcDbEntity
  8
DEFPOINTS
 62
     0
100
AcDbPoint
 10
1104.566261122597
 20
753.7630202841149
 30
0.0
  0
POINT
  5
B82
330
B14
100
AcDbEntity
  8
DEFPOINTS
 62
     0
100
AcDbPoint
 10
1135.365021793919
 20
753.7630202841149
 30
0.0
  0
ENDBLK
  5
B21
330
B14
100
AcDbEntity
  8
0
100
AcDbBlockEnd
  0
BLOCK
  5
B2E
330
B22
100
AcDbEntity
  8
0
100
AcDbBlockBegin
  2
*D5
 70
     1
 10
0.0
 20
0.0
 30
0.0
  3
*D5
  1

  0
LINE
  5
B83
330
B22
100
AcDbEntity
  8
AM_5
370
    -2
100
AcDbLine
 10
1688.309912269996
 20
1338.42203936315
 30
0.0
 11
1688.309912269996
 21
1433.704911734778
 31
0.0
  0
LINE
  5
B84
330
B22
100
AcDbEntity
  8
AM_5
370
    -2
100
AcDbLine
 10
1473.968624833336
 20
939.1720393631526
 30
0.0
 11
1367.202525508006
 21
877.5306031773489
 31
0.0
  0
ARC
  5
B85
330
B22
100
AcDbEntity
  8
AM_5
370
    -2
100
AcDbCircle
 10
1688.309912269996
 20
1062.922039363156
 30
0.0
 40
365.7828723716221
100
AcDbArc
 50
91.95807992102043
 51
208.0419200789789
  0
SOLID
  5
B86
330
B22
100
AcDbEntity
  8
AM_5
100
AcDbTrace
 10
1675.776139945768
 20
1430.57435793678
 30
0.0
 11
1675.847334276158
 21
1426.408299550435
 31
0.0
 12
1688.309912269996
 22
1428.704911734778
 32
0.0
 13
1688.309912269996
 23
1428.704911734778
 33
0.0
  0
SOLID
  5
B87
330
B22
100
AcDbEntity
  8
AM_5
100
AcDbTrace
 10
1367.290288024291
 20
891.9718184088292
 30
0.0
 11
1363.646778462872
 21
889.9504453143801
 31
0.0
 12
1371.532652526928
 22
880.0306031773489
 32
0.0
 13
1371.532652526928
 23
880.0306031773489
 33
0.0
  0
MTEXT
  5
B88
330
B22
100
AcDbEntity
  8
AM_5
 62
     2
100
AcDbMText
 10
1361.35536235485
 20
1251.689336769442
 30
0.0
 40
17.5
 41
0.0
 71
     5
 72
     1
  1
3x120°
 11
0.5000000000000047
 21
0.866025403784436
 31
0.0
 73
     1
 44
1.0
  0
POINT
  5
B89
330
B22
100
AcDbEntity
  8
DEFPOINTS
 62
     0
100
AcDbPoint
 10
1453.189214073966
 20
1343.127976131536
 30
0.0
  0
POINT
  5
B8A
330
B22
100
AcDbEntity
  8
DEFPOINTS
 62
     0
100
AcDbPoint
 10
1688.309912269996
 20
1277.422039363149
 30
0.0
  0
POINT
  5
B8B
330
B22
100
AcDbEntity
  8
DEFPOINTS
 62
     0
100
AcDbPoint
 10
1688.309912269985
 20
1062.922039363149
 30
0.0
  0
POINT
  5
B8C
330
B22
100
AcDbEntity
  8
DEFPOINTS
 62
     0
100
AcDbPoint
 10
1478.298751852258
 20
941.6720393631527
 30
0.0
  0
POINT
  5
B8D
330
B22
100
AcDbEntity
  8
DEFPOINTS
 62
     0
100
AcDbPoint
 10
1688.309912269996
 20
1333.422039363149
 30
0.0
  0
ENDBLK
  5
B2F
330
B22
100
AcDbEntity
  8
0
100
AcDbBlockEnd
  0
BLOCK
  5
B3A
330
B30
100
AcDbEntity
  8
0
100
AcDbBlockBegin
  2
*D6
 70
     1
 10
0.0
 20
0.0
 30
0.0
  3
*D6
  1

  0
LINE
  5
B8E
330
B30
100
AcDbEntity
  8
AM_5
370
    -2
100
AcDbLine
 10
1473.968624833331
 20
944.1720393631602
 30
0.0
 11
1361.46191941625
 21
1009.127816021357
 31
0.0
  0
LINE
  5
B8F
330
B30
100
AcDbEntity
  8
AM_5
370
    -2
100
AcDbLine
 10
1683.979785251075
 20
1307.92203936315
 30
0.0
 11
1571.473079833993
 21
1372.877816021347
 31
0.0
  0
LINE
  5
B90
330
B30
100
AcDbEntity
  8
AM_5
370
    -2
100
AcDbLine
 10
1372.042046435173
 20
1017.453133568662
 30
0.0
 11
1569.553206852915
 21
1359.552498474041
 31
0.0
  0
SOLID
  5
B91
330
B30
100
AcDbEntity
  8
AM_5
100
AcDbTrace
 10
1370.237826843955
 20
1018.494800235329
 30
0.0
 11
1373.84626602639
 21
1016.411466901995
 31
0.0
 12
1365.792046435172
 22
1006.627816021357
 32
0.0
 13
1365.792046435172
 23
1006.627816021357
 33
0.0
  0
SOLID
  5
B92
330
B30
100
AcDbEntity
  8
AM_5
100
AcDbTrace
 10
1567.748987261697
 20
1360.594165140708
 30
0.0
 11
1571.357426444133
 21
1358.510831807375
 31
0.0
 12
1575.803206852915
 22
1370.377816021347
 32
0.0
 13
1575.803206852915
 23
1370.377816021347
 33
0.0
  0
MTEXT
  5
B93
330
B30
100
AcDbEntity
  8
AM_5
 62
     2
100
AcDbMText
 10
1459.864055921266
 20
1194.815316021352
 30
0.0
 40
17.5
 41
0.0
 71
     5
 72
     1
  1
(420)
 11
0.5000000000000408
 21
0.8660254037844151
 31
0.0
 73
     1
 44
1.0
  0
POINT
  5
B94
330
B30
100
AcDbEntity
  8
DEFPOINTS
 62
     0
100
AcDbPoint
 10
1478.298751852254
 20
941.6720393631599
 30
0.0
  0
POINT
  5
B95
330
B30
100
AcDbEntity
  8
DEFPOINTS
 62
     0
100
AcDbPoint
 10
1688.309912269996
 20
1305.42203936315
 30
0.0
  0
POINT
  5
B96
330
B30
100
AcDbEntity
  8
DEFPOINTS
 62
     0
100
AcDbPoint
 10
1575.803206852915
 20
1370.377816021347
 30
0.0
  0
ENDBLK
  5
B3B
330
B30
100
AcDbEntity
  8
0
100
AcDbBlockEnd
  0
BLOCK
  5
B46
330
B3C
100
AcDbEntity
  8
0
100
AcDbBlockBegin
  2
*D7
 70
     1
 10
0.0
 20
0.0
 30
0.0
  3
*D7
  1

  0
LINE
  5
B97
330
B3C
100
AcDbEntity
  8
AM_5
370
    -2
100
AcDbLine
 10
757.5662611225977
 20
1291.583361142649
 30
0.0
 11
339.9245681381594
 21
1291.583361142649
 31
0.0
  0
LINE
  5
B98
330
B3C
100
AcDbEntity
  8
AM_5
370
    -2
100
AcDbLine
 10
509.0662611225978
 20
533.8291862166316
 30
0.0
 11
339.9245681381593
 21
533.8291862166316
 31
0.0
  0
LINE
  5
B99
330
B3C
100
AcDbEntity
  8
AM_5
370
    -2
100
AcDbLine
 10
344.9245681381594
 20
1279.083361142649
 30
0.0
 11
344.9245681381593
 21
546.3291862166316
 31
0.0
  0
SOLID
  5
B9A
330
B3C
100
AcDbEntity
  8
AM_5
100
AcDbTrace
 10
342.8412348048261
 20
1279.083361142649
 30
0.0
 11
347.0079014714928
 21
1279.083361142649
 31
0.0
 12
344.9245681381594
 22
1291.583361142649
 32
0.0
 13
344.9245681381594
 23
1291.583361142649
 33
0.0
  0
SOLID
  5
B9B
330
B3C
100
AcDbEntity
  8
AM_5
100
AcDbTrace
 10
342.841234804826
 20
546.3291862166316
 30
0.0
 11
347.0079014714926
 21
546.3291862166316
 31
0.0
 12
344.9245681381593
 22
533.8291862166316
 32
0.0
 13
344.9245681381593
 23
533.8291862166316
 33
0.0
  0
MTEXT
  5
B9C
330
B3C
100
AcDbEntity
  8
AM_5
 62
     2
100
AcDbMText
 10
333.1745681381593
 20
912.7062736796403
 30
0.0
 40
17.5
 41
0.0
 71
     5
 72
     1
  1
758 {}{\C2;%%p8}
 11
0.0000000000000001
 21
1.0
 31
0.0
 73
     1
 44
1.0
  0
POINT
  5
B9D
330
B3C
100
AcDbEntity
  8
DEFPOINTS
 62
     0
100
AcDbPoint
 10
762.5662611225977
 20
1291.583361142649
 30
0.0
  0
POINT
  5
B9E
330
B3C
100
AcDbEntity
  8
DEFPOINTS
 62
     0
100
AcDbPoint
 10
514.0662611225978
 20
533.8291862166316
 30
0.0
  0
POINT
  5
B9F
330
B3C
100
AcDbEntity
  8
DEFPOINTS
 62
     0
100
AcDbPoint
 10
344.9245681381593
 20
533.8291862166316
 30
0.0
  0
ENDBLK
  5
B47
330
B3C
100
AcDbEntity
  8
0
100
AcDbBlockEnd
  0
BLOCK
  5
B52
330
B48
100
AcDbEntity
  8
0
100
AcDbBlockBegin
  2
*D8
 70
     1
 10
0.0
 20
0.0
 30
0.0
  3
*D8
  1

  0
LINE
  5
BA0
330
B48
100
AcDbEntity
  8
AM_5
370
    -2
100
AcDbLine
 10
445.5662611225982
 20
1113.785424987631
 30
0.0
 11
445.5662611225982
 21
1089.937186401012
 31
0.0
  0
LINE
  5
BA1
330
B48
100
AcDbEntity
  8
AM_5
370
    -2
100
AcDbLine
 10
1079.566261122598
 20
1113.785424987632
 30
0.0
 11
1079.566261122598
 21
1089.937186401012
 31
0.0
  0
LINE
  5
BA2
330
B48
100
AcDbEntity
  8
AM_5
370
    -2
100
AcDbLine
 10
458.0662611225982
 20
1094.937186401012
 30
0.0
 11
1067.066261122598
 21
1094.937186401012
 31
0.0
  0
SOLID
  5
BA3
330
B48
100
AcDbEntity
  8
AM_5
100
AcDbTrace
 10
458.0662611225982
 20
1097.020519734345
 30
0.0
 11
458.0662611225982
 21
1092.853853067678
 31
0.0
 12
445.5662611225982
 22
1094.937186401012
 32
0.0
 13
445.5662611225982
 23
1094.937186401012
 33
0.0
  0
SOLID
  5
BA4
330
B48
100
AcDbEntity
  8
AM_5
100
AcDbTrace
 10
1067.066261122598
 20
1097.020519734345
 30
0.0
 11
1067.066261122598
 21
1092.853853067678
 31
0.0
 12
1079.566261122598
 22
1094.937186401012
 32
0.0
 13
1079.566261122598
 23
1094.937186401012
 33
0.0
  0
MTEXT
  5
BA5
330
B48
100
AcDbEntity
  8
AM_5
 62
     2
100
AcDbMText
 10
619.4090391816135
 20
1106.687186401012
 30
0.0
 40
17.5
 41
0.0
 71
     5
 72
     1
  1
%%c634
 73
     1
 44
1.0
  0
POINT
  5
BA6
330
B48
100
AcDbEntity
  8
DEFPOINTS
 62
     0
100
AcDbPoint
 10
445.5662611225982
 20
1118.785424987631
 30
0.0
  0
POINT
  5
BA7
330
B48
100
AcDbEntity
  8
DEFPOINTS
 62
     0
100
AcDbPoint
 10
1079.566261122598
 20
1118.785424987632
 30
0.0
  0
POINT
  5
BA8
330
B48
100
AcDbEntity
  8
DEFPOINTS
 62
     0
100
AcDbPoint
 10
1079.566261122598
 20
1094.937186401012
 30
0.0
  0
ENDBLK
  5
B53
330
B48
100
AcDbEntity
  8
0
100
AcDbBlockEnd
  0
BLOCK
  5
B5E
330
B54
100
AcDbEntity
  8
0
100
AcDbBlockBegin
  2
*D9
 70
     1
 10
0.0
 20
0.0
 30
0.0
  3
*D9
  1

  0
LINE
  5
BC4
330
B54
100
AcDbEntity
  8
AM_5
370
    -2
100
AcDbLine
 10
757.5662611225977
 20
1281.191890378724
 30
0.0
 11
370.563785177295
 21
1281.191890378724
 31
0.0
  0
LINE
  5
BC5
330
B54
100
AcDbEntity
  8
AM_5
370
    -2
100
AcDbLine
 10
757.5662611225982
 20
541.2445072986518
 30
0.0
 11
370.5637851772948
 21
541.2445072986518
 31
0.0
  0
LINE
  5
BC6
330
B54
100
AcDbEntity
  8
AM_5
370
    -2
100
AcDbLine
 10
375.563785177295
 20
1268.691890378724
 30
0.0
 11
375.5637851772949
 21
553.7445072986518
 31
0.0
  0
SOLID
  5
BC7
330
B54
100
AcDbEntity
  8
AM_5
100
AcDbTrace
 10
373.4804518439617
 20
1268.691890378724
 30
0.0
 11
377.6471185106283
 21
1268.691890378724
 31
0.0
 12
375.563785177295
 22
1281.191890378724
 32
0.0
 13
375.563785177295
 23
1281.191890378724
 33
0.0
  0
SOLID
  5
BC8
330
B54
100
AcDbEntity
  8
AM_5
100
AcDbTrace
 10
373.4804518439617
 20
553.7445072986518
 30
0.0
 11
377.6471185106282
 21
553.7445072986518
 31
0.0
 12
375.5637851772949
 22
541.2445072986518
 32
0.0
 13
375.5637851772949
 23
541.2445072986518
 33
0.0
  0
MTEXT
  5
BC9
330
B54
100
AcDbEntity
  8
AM_5
 62
     2
100
AcDbMText
 10
363.8137851772949
 20
911.2181988386881
 30
0.0
 40
17.5
 41
0.0
 71
     5
 72
     1
  1
740 {}{\C2;%%p5}
 11
0.0000000000000001
 21
1.0
 31
0.0
 73
     1
 44
1.0
  0
POINT
  5
BCA
330
B54
100
AcDbEntity
  8
DEFPOINTS
 62
     0
100
AcDbPoint
 10
762.5662611225977
 20
1281.191890378724
 30
0.0
  0
POINT
  5
BCB
330
B54
100
AcDbEntity
  8
DEFPOINTS
 62
     0
100
AcDbPoint
 10
762.5662611225982
 20
541.2445072986518
 30
0.0
  0
POINT
  5
BCC
330
B54
100
AcDbEntity
  8
DEFPOINTS
 62
     0
100
AcDbPoint
 10
375.5637851772949
 20
541.2445072986518
 30
0.0
  0
ENDBLK
  5
B5F
330
B54
100
AcDbEntity
  8
0
100
AcDbBlockEnd
  0
BLOCK
  5
B6A
330
B60
100
AcDbEntity
  8
0
100
AcDbBlockBegin
  2
*D10
 70
     1
 10
0.0
 20
0.0
 30
0.0
  3
*D10
  1

  0
LINE
  5
BB2
330
B60
100
AcDbEntity
  8
AM_5
370
    -2
100
AcDbLine
 10
520.0662611225973
 20
534.2577925890409
 30
0.0
 11
520.0662611225973
 21
462.7202486748315
 31
0.0
  0
LINE
  5
BB3
330
B60
100
AcDbEntity
  8
AM_5
370
    -2
100
AcDbLine
 10
1005.066261122599
 20
534.2577925890409
 30
0.0
 11
1005.066261122599
 21
462.7202486748315
 31
0.0
  0
LINE
  5
BB4
330
B60
100
AcDbEntity
  8
AM_5
370
    -2
100
AcDbLine
 10
532.5662611225973
 20
467.7202486748316
 30
0.0
 11
992.5662611225986
 21
467.7202486748316
 31
0.0
  0
SOLID
  5
BB5
330
B60
100
AcDbEntity
  8
AM_5
100
AcDbTrace
 10
532.5662611225973
 20
469.8035820081648
 30
0.0
 11
532.5662611225973
 21
465.6369153414983
 31
0.0
 12
520.0662611225973
 22
467.7202486748316
 32
0.0
 13
520.0662611225973
 23
467.7202486748316
 33
0.0
  0
SOLID
  5
BB6
330
B60
100
AcDbEntity
  8
AM_5
100
AcDbTrace
 10
992.5662611225986
 20
469.8035820081648
 30
0.0
 11
992.5662611225986
 21
465.6369153414983
 31
0.0
 12
1005.066261122599
 22
467.7202486748316
 32
0.0
 13
1005.066261122599
 23
467.7202486748316
 33
0.0
  0
MTEXT
  5
BB7
330
B60
100
AcDbEntity
  8
AM_5
 62
     2
100
AcDbMText
 10
762.5662611225981
 20
479.4702486748316
 30
0.0
 40
17.5
 41
0.0
 71
     5
 72
     1
  1
%%c485{}{\C2;%%p1.5}
 73
     1
 44
1.0
  0
POINT
  5
BB8
330
B60
100
AcDbEntity
  8
DEFPOINTS
 62
     0
100
AcDbPoint
 10
520.0662611225973
 20
539.2577925890409
 30
0.0
  0
POINT
  5
BB9
330
B60
100
AcDbEntity
  8
DEFPOINTS
 62
     0
100
AcDbPoint
 10
1005.066261122599
 20
539.2577925890409
 30
0.0
  0
POINT
  5
BBA
330
B60
100
AcDbEntity
  8
DEFPOINTS
 62
     0
100
AcDbPoint
 10
1005.066261122599
 20
467.7202486748316
 30
0.0
  0
ENDBLK
  5
B6B
330
B60
100
AcDbEntity
  8
0
100
AcDbBlockEnd
  0
BLOCK
  5
B76
330
B6C
100
AcDbEntity
  8
0
100
AcDbBlockBegin
  2
*D11
 70
     1
 10
0.0
 20
0.0
 30
0.0
  3
*D11
  1

  0
LINE
  5
BBB
330
B6C
100
AcDbEntity
  8
AM_5
370
    -2
100
AcDbLine
 10
1109.566261122597
 20
738.8177956366818
 30
0.0
 11
1185.66239923694
 21
738.8177956366818
 31
0.0
  0
LINE
  5
BBC
330
B6C
100
AcDbEntity
  8
AM_5
370
    -2
100
AcDbLine
 10
1016.066261122598
 20
533.8291862166316
 30
0.0
 11
1185.662399236939
 21
533.8291862166316
 31
0.0
  0
LINE
  5
BBD
330
B6C
100
AcDbEntity
  8
AM_5
370
    -2
100
AcDbLine
 10
1180.66239923694
 20
726.3177956366818
 30
0.0
 11
1180.662399236939
 21
546.3291862166316
 31
0.0
  0
SOLID
  5
BBE
330
B6C
100
AcDbEntity
  8
AM_5
100
AcDbTrace
 10
1178.579065903606
 20
726.3177956366818
 30
0.0
 11
1182.745732570273
 21
726.3177956366818
 31
0.0
 12
1180.66239923694
 22
738.8177956366818
 32
0.0
 13
1180.66239923694
 23
738.8177956366818
 33
0.0
  0
SOLID
  5
BBF
330
B6C
100
AcDbEntity
  8
AM_5
100
AcDbTrace
 10
1178.579065903606
 20
546.3291862166316
 30
0.0
 11
1182.745732570273
 21
546.3291862166316
 31
0.0
 12
1180.662399236939
 22
533.8291862166316
 32
0.0
 13
1180.662399236939
 23
533.8291862166316
 33
0.0
  0
MTEXT
  5
BC0
330
B6C
100
AcDbEntity
  8
AM_5
 62
     2
100
AcDbMText
 10
1168.910676795995
 20
636.3234909266567
 30
0.0
 40
17.5
 41
0.0
 71
     5
 72
     1
  1
205 {}{\C2;%%p3}
 11
0.0000000000000001
 21
1.0
 31
0.0
 73
     1
 44
1.0
  0
POINT
  5
BC1
330
B6C
100
AcDbEntity
  8
DEFPOINTS
 62
     0
100
AcDbPoint
 10
1104.566261122597
 20
738.8177956366818
 30
0.0
  0
POINT
  5
BC2
330
B6C
100
AcDbEntity
  8
DEFPOINTS
 62
     0
100
AcDbPoint
 10
1011.066261122598
 20
533.8291862166316
 30
0.0
  0
POINT
  5
BC3
330
B6C
100
AcDbEntity
  8
DEFPOINTS
 62
     0
100
AcDbPoint
 10
1180.662399236939
 20
533.8291862166316
 30
0.0
  0
ENDBLK
  5
B77
330
B6C
100
AcDbEntity
  8
0
100
AcDbBlockEnd
  0
ENDSEC
  0
SECTION
  2
ENTITIES
  0
LWPOLYLINE
  5
72E
330
1F
100
AcDbEntity
  8
AM_0
 62
     7
100
AcDbPolyline
 90
        8
 70
     1
 43
0.0
 10
1483.147831887845
 20
1095.254628797984
 10
1482.974009277582
 20
1033.254872462171
 42
0.4142135623730951
 10
1483.971201757026
 20
1032.25207280175
 10
1521.97105241446
 20
1032.145536363202
 42
0.4142135623730951
 10
1522.97385207488
 20
1033.142728842646
 10
1523.147674685144
 20
1095.142485178459
 42
0.4142135623730951
 10
1522.150482205699
 20
1096.14528483888
 10
1484.150631548265
 20
1096.251821277428
 42
0.4142135623730951
1001
GENIUS_GENREC_14
1002
{
1000
PYDIR
1011
1523.150478275631
1021
1096.142481248391
1031
0.0
1002
}
1002
{
1000
PXDIR
1011
1482.971205687094
1021
1032.254876392238
1031
0.0
1002
}
1002
{
1000
PORI
1011
1483.150635478333
1021
1096.254624867916
1031
0.0
1002
}
1002
{
1000
PINS
1011
1483.150635478333
1021
1096.254624867916
1031
0.0
1002
}
1002
{
1000
HVAL
1000
40
1002
}
1002
{
1000
H
1070
     2
1002
}
1002
{
1000
WVAL
1000
64
1002
}
1002
{
1000
W
1070
     2
1002
}
1002
{
1000
C
1070
     1
1002
}
1001
GENIUS_GENODEF_13
1002
{
1000
HIER
1070
     0
1002
}
1002
{
1000
MANEDIT
1070
     0
1002
}
1002
{
1000
NOSEL
1070
     0
1002
}
1002
{
1000
BEHIND
1070
     0
1002
}
1002
{
1000
REACTOR
1002
}
1001
GENIUS_GENOBJ-N-REC_13
1002
{
1000
OWNER
1000
GEN
1002
}
  0
DIMENSION
  5
72F
330
1F
100
AcDbEntity
  8
AM_5
100
AcDbDimension
  2
*D5
 10
1688.309912269996
 20
1333.42203936315
 30
0.0
 11
1361.35536235485
 21
1251.689336769442
 31
0.0
 70
    34
  1
3x<>
 71
     5
 42
2.094395102393181
  3
GEN-ISO
100
AcDb2LineAngularDimension
 13
1688.309912269986
 23
1062.92203936315
 33
0.0
 14
1478.298751852259
 24
941.6720393631527
 34
0.0
 15
1688.309912269996
 25
1277.42203936315
 35
0.0
 16
1453.189214073966
 26
1343.127976131536
 36
0.0
1001
GENIUS_GENDTOL_13
1000

1000
h7
1000

1040
0.0
1000
3x<>
1001
ACAD
1000
DSTYLE
1002
{
1070
    47
1040
1.0
1070
    48
1040
1.0
1070
    79
1070
     2
1070
   171
1070
     0
1070
   271
1070
     0
1070
   272
1070
     0
1002
}
  0
DIMENSION
  5
730
330
1F
100
AcDbEntity
  8
AM_5
100
AcDbDimension
  2
*D6
 10
1575.803206852915
 20
1370.377816021347
 30
0.0
 11
1459.864055921266
 21
1194.815316021352
 31
0.0
 70
    33
  1
(<>)
 71
     5
 42
420.0223208354523
  3
GEN-ISO
100
AcDbAlignedDimension
 13
1478.298751852253
 23
941.6720393631599
 33
0.0
 14
1688.309912269996
 24
1305.42203936315
 34
0.0
1001
GENIUS_GENDTOL_13
1000

1000
h7
1000

1040
0.0
1000
(<>)
1001
ACAD
1000
DSTYLE
1002
{
1070
    47
1040
1.0
1070
    48
1040
1.0
1070
    79
1070
     2
1070
   171
1070
     0
1070
   271
1070
     0
1070
   272
1070
     0
1002
}
  0
LINE
  5
731
330
1F
100
AcDbEntity
  8
7
 48
2.0
100
AcDbLine
 10
1688.309912269986
 20
1062.92203936315
 30
0.0
 11
1358.309912269985
 21
1062.92203936315
 31
0.0
1001
GENIUS_GENOREF_13
1005
0
  0
CIRCLE
  5
732
330
1F
100
AcDbEntity
  8
AM_0
 62
     7
100
AcDbCircle
 10
1688.309912269986
 20
1062.92203936315
 30
0.0
 40
317.0
  0
CIRCLE
  5
733
330
1F
100
AcDbEntity
  8
AM_7
 48
2.0
100
AcDbCircle
 10
1688.309912269986
 20
1062.92203936315
 30
0.0
 40
242.5
1001
GENIUS_GENOREF_13
1005
B13
  0
DIMENSION
  5
734
330
1F
100
AcDbEntity
  8
AM_5
100
AcDbDimension
  2
*D7
 10
344.9245681381593
 20
533.8291862166316
 30
0.0
 11
333.1745681381593
 21
912.7062736796403
 31
0.0
 70
    32
  1
<> {}{\C2;%%p8}
 71
     5
 42
757.7541749260168
  3
GEN-ISO
100
AcDbAlignedDimension
 13
762.566261122598
 23
1291.583361142649
 33
0.0
 14
514.0662611225978
 24
533.8291862166316
 34
0.0
 50
90.0
100
AcDbRotatedDimension
1001
GENIUS_GENDTOL_13
1000
TolPm
1000
h7
1000
{$3%%p$P}
1040
758.0
1001
ACAD
1000
DSTYLE
1002
{
1070
    47
1040
1.0
1070
    48
1040
1.0
1070
    79
1070
     2
1070
   171
1070
     0
1070
   271
1070
     0
1070
   272
1070
     0
1002
}
  0
LINE
  5
735
330
1F
100
AcDbEntity
  8
AM_7
 48
2.0
100
AcDbLine
 10
431.8162611225985
 20
876.3204212569556
 30
0.0
 11
1093.148076123034
 21
876.3204212569556
 31
0.0
1001
GENIUS_GENODEF_13
1002
{
1000
HIER
1070
     0
1002
}
1002
{
1000
MANEDIT
1070
     0
1002
}
1002
{
1000
NOSEL
1070
     0
1002
}
1002
{
1000
BEHIND
1070
     0
1002
}
1002
{
1000
REACTOR
1002
}
1001
GENIUS_GENOBJ-N-CEN_13
1002
{
1000
OWNER
1000
GEN
1002
}
  0
LINE
  5
736
330
1F
100
AcDbEntity
  8
0
 62
     2
100
AcDbLine
 10
448.6820804849816
 20
920.0100011305368
 30
0.0
 11
1071.742049392491
 21
920.0100011305368
 31
0.0
  0
ARC
  5
737
330
1F
100
AcDbEntity
  8
AM_0
 62
     7
100
AcDbCircle
 10
762.5662611225982
 20
1050.494507298652
 30
0.0
 40
509.25
100
AcDbArc
 50
237.9978490718722
 51
270.0
  0
DIMENSION
  5
738
330
1F
100
AcDbEntity
  8
AM_5
100
AcDbDimension
  2
*D8
 10
1079.566261122598
 20
1094.937186401012
 30
0.0
 11
619.4090391816135
 21
1094.937186401012
 31
0.0
 70
   161
  1
%%c<>
 71
     5
 42
634.0000000000001
  3
GEN-ISO
100
AcDbAlignedDimension
 13
445.5662611225982
 23
1118.785424987631
 33
0.0
 14
1079.566261122598
 24
1118.785424987632
 34
0.0
1001
GENIUS_GENDTOL_13
1000

1000
h7
1000

1040
0.0
1000
%%c<>
1001
ACAD
1000
DSTYLE
1002
{
1070
    47
1040
1.0
1070
    48
1040
1.0
1070
    79
1070
     2
1070
   171
1070
     0
1070
   271
1070
     0
1070
   272
1070
     0
1002
}
  0
DIMENSION
  5
739
330
1F
100
AcDbEntity
  8
AM_5
100
AcDbDimension
  2
*D9
 10
375.5637851772949
 20
541.2445072986518
 30
0.0
 11
363.8137851772949
 21
911.2181988386881
 31
0.0
 70
    32
  1
<> {}{\C2;%%p5}
 71
     5
 42
739.9473830800721
  3
GEN-ISO
100
AcDbAlignedDimension
 13
762.566261122598
 23
1281.191890378724
 33
0.0
 14
762.5662611225982
 24
541.2445072986518
 34
0.0
 50
90.0
100
AcDbRotatedDimension
1001
GENIUS_GENODEF_13
1002
{
1000
HIER
1070
     0
1002
}
1002
{
1000
MANEDIT
1070
     0
1002
}
1002
{
1000
NOSEL
1070
     0
1002
}
1002
{
1000
BEHIND
1070
     0
1002
}
1002
{
1000
REACTOR
1002
}
1001
GENIUS_GENOBJ-N-DIMBR_13
1002
{
1000
OWNER
1000
GEN
1002
}
1001
GENIUS_DIMBR_14
1000
3A3C7
1001
GENIUS_GENDTOL_13
1000
TolPm
1000
h7
1000
{$3%%p$P}
1040
740.0
1001
ACAD
1000
DSTYLE
1002
{
1070
    47
1040
1.0
1070
    48
1040
1.0
1070
    79
1070
     2
1070
   171
1070
     0
1070
   271
1070
     0
1070
   272
1070
     0
1002
}
  0
ARC
  5
73A
330
1F
100
AcDbEntity
  8
AM_0
 62
     7
100
AcDbCircle
 10
760.9540218172079
 20
775.5454764213957
 30
0.0
 40
505.3399406101918
100
AcDbArc
 50
91.50184168696915
 51
122.0636599505177
  0
DIMENSION
  5
73B
330
1F
100
AcDbEntity
  8
AM_5
100
AcDbDimension
  2
*D10
 10
1005.066261122599
 20
467.7202486748316
 30
0.0
 11
762.5662611225981
 21
479.4702486748316
 31
0.0
 70
    33
  1
%%c<>{}{\C2;%%p1.5}
 71
     5
 42
485.0000000000012
  3
GEN-ISO
100
AcDbAlignedDimension
 13
520.0662611225973
 23
539.2577925890409
 33
0.0
 14
1005.066261122599
 24
539.2577925890409
 34
0.0
1001
GENIUS_GENDTOL_13
1000
TolPm
1000
h7
1000
{$3%%p$P}
1040
485.0
1001
ACAD
1000
DSTYLE
1002
{
1070
    47
1040
1.0
1070
    48
1040
1.0
1070
    79
1070
     2
1070
   171
1070
     0
1070
   271
1070
     0
1070
   272
1070
     0
1002
}
  0
LINE
  5
73C
330
1F
100
AcDbEntity
  8
AM_0
 62
     7
100
AcDbLine
 10
445.5662611225982
 20
1118.785424987631
 30
0.0
 11
445.5662611225985
 21
920.0794437891907
 31
0.0
1001
GENIUS_GENODEF_13
1002
{
1000
HIER
1070
     0
1002
}
1002
{
1000
MANEDIT
1070
     0
1002
}
1002
{
1000
NOSEL
1070
     0
1002
}
1002
{
1000
BEHIND
1070
     0
1002
}
1002
{
1000
REACTOR
1002
}
1001
GENIUS_GENOBJ-N-CEN_13
1002
{
1000
OWNER
1000
GEN
1002
}
  0
ARC
  5
73D
330
1F
100
AcDbEntity
  8
AM_0
 62
     7
100
AcDbCircle
 10
545.8162611225977
 20
703.6509726897459
 30
0.0
 40
100.25
100
AcDbArc
 50
180.0
 51
237.9978490718722
1001
GENIUS_GENODEF_13
1002
{
1000
HIER
1070
     0
1002
}
1002
{
1000
MANEDIT
1070
     0
1002
}
1002
{
1000
NOSEL
1070
     0
1002
}
1002
{
1000
BEHIND
1070
     0
1002
}
1002
{
1000
REACTOR
1002
}
1001
GENIUS_GENOBJ-N-FIL_13
1002
{
1000
OWNER
1000
GEN
1002
}
  0
LINE
  5
73E
330
1F
100
AcDbEntity
  8
AM_0
 62
     7
100
AcDbLine
 10
445.5662611225993
 20
872.1073463703749
 30
0.0
 11
445.5662611225976
 21
703.6509726897459
 31
0.0
1001
GENIUS_GENODEF_13
1002
{
1000
HIER
1070
     0
1002
}
1002
{
1000
MANEDIT
1070
     0
1002
}
1002
{
1000
NOSEL
1070
     0
1002
}
1002
{
1000
BEHIND
1070
     0
1002
}
1002
{
1000
REACTOR
1002
}
1001
GENIUS_GENOBJ-N-CEN_13
1002
{
1000
OWNER
1000
GEN
1002
}
  0
LINE
  5
73F
330
1F
100
AcDbEntity
  8
AM_0
 62
     7
100
AcDbLine
 10
445.5662611225985
 20
916.3204212569548
 30
0.0
 11
445.5662611225985
 21
880.5334961435358
 31
0.0
1001
GENIUS_GENODEF_13
1002
{
1000
HIER
1070
     0
1002
}
1002
{
1000
MANEDIT
1070
     0
1002
}
1002
{
1000
NOSEL
1070
     0
1002
}
1002
{
1000
BEHIND
1070
     0
1002
}
1002
{
1000
REACTOR
1002
}
1001
GENIUS_GENOBJ-N-CEN_13
1002
{
1000
OWNER
1000
GEN
1002
}
  0
ARC
  5
740
330
1F
100
AcDbEntity
  8
AM_0
 62
     7
100
AcDbCircle
 10
445.0662611225985
 20
880.5334961435358
 30
0.0
 40
0.5
100
AcDbArc
 50
314.8865851757216
 51
0.0
1001
GENIUS_GENODEF_13
1002
{
1000
HIER
1070
     0
1002
}
1002
{
1000
MANEDIT
1070
     0
1002
}
1002
{
1000
NOSEL
1070
     0
1002
}
1002
{
1000
BEHIND
1070
     0
1002
}
1002
{
1000
REACTOR
1002
}
1001
GENIUS_GENOBJ-N-FIL_13
1002
{
1000
OWNER
1000
GEN
1002
}
  0
ARC
  5
741
330
1F
100
AcDbEntity
  8
AM_0
 62
     7
100
AcDbCircle
 10
445.0662611225985
 20
872.1073463703749
 30
0.0
 40
0.5
100
AcDbArc
 50
0.0
 51
45.1134148242784
1001
GENIUS_GENODEF_13
1002
{
1000
HIER
1070
     0
1002
}
1002
{
1000
MANEDIT
1070
     0
1002
}
1002
{
1000
NOSEL
1070
     0
1002
}
1002
{
1000
BEHIND
1070
     0
1002
}
1002
{
1000
REACTOR
1002
}
1001
GENIUS_GENOBJ-N-FIL_13
1002
{
1000
OWNER
1000
GEN
1002
}
  0
ARC
  5
742
330
1F
100
AcDbEntity
  8
AM_0
 62
     7
100
AcDbCircle
 10
449.262689694026
 20
876.3204212569556
 30
0.0
 40
5.446428571428461
100
AcDbArc
 50
134.8865851757216
 51
225.1134148242784
  0
ARC
  5
743
330
1F
100
AcDbEntity
  8
AM_0
 62
     7
100
AcDbCircle
 10
446.8162611225984
 20
916.2445072986516
 30
0.0
 40
0.5
100
AcDbArc
 50
0.0
 51
30.00000000001226
1001
GENIUS_GENOBJ-N-CEN_13
1002
{
1000
OWNER
1000
GEN
1002
}
1001
GENIUS_GENODEF_13
1002
{
1000
HIER
1070
     0
1002
}
1002
{
1000
MANEDIT
1070
     0
1002
}
1002
{
1000
NOSEL
1070
     0
1002
}
1002
{
1000
BEHIND
1070
     0
1002
}
1002
{
1000
REACTOR
1002
}
1001
GENIUS_GENOBJ-N-FIL_13
1002
{
1000
OWNER
1000
GEN
1002
}
  0
LINE
  5
744
330
1F
100
AcDbEntity
  8
AM_0
 62
     7
100
AcDbLine
 10
445.9011976131375
 20
918.829443789191
 30
0.0
 11
447.2492738244914
 21
916.4945072986515
 31
0.0
  0
ARC
  5
745
330
1F
100
AcDbEntity
  8
AM_0
 62
     7
100
AcDbCircle
 10
448.0662611225985
 20
920.0794437891907
 30
0.0
 40
2.5
100
AcDbArc
 50
180.0
 51
210.0000000000123
1001
GENIUS_GENODEF_13
1002
{
1000
HIER
1070
     0
1002
}
1002
{
1000
MANEDIT
1070
     0
1002
}
1002
{
1000
NOSEL
1070
     0
1002
}
1002
{
1000
BEHIND
1070
     0
1002
}
1002
{
1000
REACTOR
1002
}
1001
GENIUS_GENOBJ-N-FIL_13
1002
{
1000
OWNER
1000
GEN
1002
}
  0
LINE
  5
746
330
1F
100
AcDbEntity
  8
AM_0
 62
     7
100
AcDbLine
 10
445.5662611225985
 20
916.3204212569556
 30
0.0
 11
447.3104645937878
 21
916.3204212569556
 31
0.0
  0
ARC
  5
747
330
1F
100
AcDbEntity
  8
AM_0
 62
     7
100
AcDbCircle
 10
545.8162611225978
 20
1118.785424987631
 30
0.0
 40
100.25
100
AcDbArc
 50
122.0021509281278
 51
180.0
1001
GENIUS_GENODEF_13
1002
{
1000
HIER
1070
     0
1002
}
1002
{
1000
MANEDIT
1070
     0
1002
}
1002
{
1000
NOSEL
1070
     0
1002
}
1002
{
1000
BEHIND
1070
     0
1002
}
1002
{
1000
REACTOR
1002
}
1001
GENIUS_GENOBJ-N-FIL_13
1002
{
1000
OWNER
1000
GEN
1002
}
  0
DIMENSION
  5
748
330
1F
100
AcDbEntity
  8
AM_5
100
AcDbDimension
  2
*D11
 10
1180.662399236939
 20
533.8291862166316
 30
0.0
 11
1168.910676795995
 21
636.3234909266567
 31
0.0
 70
    32
  1
205 {}{\C2;%%p3}
 71
     5
 42
204.9886094200501
  3
GEN-ISO
100
AcDbAlignedDimension
 13
1104.566261122597
 23
738.8177956366818
 33
0.0
 14
1011.066261122598
 24
533.8291862166316
 34
0.0
 50
90.0
100
AcDbRotatedDimension
1001
GENIUS_GENDTOL_13
1000
TolPm
1000
h7
1000
{$3%%p$P}
1040
205.0
1001
ACAD
1000
DSTYLE
1002
{
1070
   286
1070
     0
1070
   284
1070
     0
1070
   274
1070
     4
1070
    47
1040
3.0
1070
    48
1040
3.0
1070
    79
1070
     2
1070
   171
1070
     0
1070
   271
1070
     0
1070
   272
1070
     0
1002
}
  0
ARC
  5
749
330
1F
100
AcDbEntity
  8
AM_0
 62
     7
100
AcDbCircle
 10
979.316261122598
 20
1118.785424987632
 30
0.0
 40
100.25
100
AcDbArc
 50
0.0
 51
57.99784907187214
1001
GENIUS_GENODEF_13
1002
{
1000
HIER
1070
     0
1002
}
1002
{
1000
MANEDIT
1070
     0
1002
}
1002
{
1000
NOSEL
1070
     0
1002
}
1002
{
1000
BEHIND
1070
     0
1002
}
1002
{
1000
REACTOR
1002
}
1001
GENIUS_GENOBJ-N-FIL_13
1002
{
1000
OWNER
1000
GEN
1002
}
  0
ARC
  5
74A
330
1F
100
AcDbEntity
  8
AM_0
 62
     7
100
AcDbCircle
 10
979.3162611225984
 20
703.6509726897445
 30
0.0
 40
100.25
100
AcDbArc
 50
302.0021509281278
 51
0.0
1001
GENIUS_GENODEF_13
1002
{
1000
HIER
1070
     0
1002
}
1002
{
1000
MANEDIT
1070
     0
1002
}
1002
{
1000
NOSEL
1070
     0
1002
}
1002
{
1000
BEHIND
1070
     0
1002
}
1002
{
1000
REACTOR
1002
}
1001
GENIUS_GENOBJ-N-FIL_13
1002
{
1000
OWNER
1000
GEN
1002
}
  0
LINE
  5
74B
330
1F
100
AcDbEntity
  8
AM_7
 48
2.0
100
AcDbLine
 10
762.566261122598
 20
1314.060830244156
 30
0.0
 11
762.5662611225975
 21
522.6185197709188
 31
0.0
1001
GENIUS_GENODEF_13
1002
{
1000
HIER
1070
     0
1002
}
1002
{
1000
MANEDIT
1070
     0
1002
}
1002
{
1000
NOSEL
1070
     0
1002
}
1002
{
1000
BEHIND
1070
     0
1002
}
1002
{
1000
REACTOR
1002
}
1001
GENIUS_GENOBJ-N-CEN_13
1002
{
1000
OWNER
1000
GEN
1002
}
  0
ARC
  5
74C
330
1F
100
AcDbEntity
  8
AM_0
 62
     7
100
AcDbCircle
 10
762.5662611225982
 20
1050.494507298652
 30
0.0
 40
509.25
100
AcDbArc
 50
270.0
 51
302.0021509281278
  0
LINE
  5
74D
330
1F
100
AcDbEntity
  8
AM_0
 62
     7
100
AcDbLine
 10
1005.066261122599
 20
536.7445495626927
 30
0.0
 11
1005.066261122599
 21
536.7445495626927
 31
0.0
1001
GENIUS_GENODEF_13
1002
{
1000
HIER
1070
     0
1002
}
1002
{
1000
MANEDIT
1070
     0
1002
}
1002
{
1000
NOSEL
1070
     0
1002
}
1002
{
1000
BEHIND
1070
     0
1002
}
1002
{
1000
REACTOR
1002
}
1001
GENIUS_GENOBJ-N-CEN_13
1002
{
1000
OWNER
1000
GEN
1002
}
  0
ARC
  5
74E
330
1F
100
AcDbEntity
  8
AM_0
 62
     7
100
AcDbCircle
 10
764.1044733798953
 20
775.3780104553418
 30
0.0
 40
505.521159879044
100
AcDbArc
 50
57.93930573944511
 51
88.44007487830605
  0
LINE
  5
74F
330
1F
100
AcDbEntity
  8
AM_0
 62
     7
100
AcDbLine
 10
1079.566261122598
 20
920.0794437891907
 30
0.0
 11
1079.566261122598
 21
1118.785424987632
 31
0.0
1001
GENIUS_GENODEF_13
1002
{
1000
HIER
1070
     0
1002
}
1002
{
1000
MANEDIT
1070
     0
1002
}
1002
{
1000
NOSEL
1070
     0
1002
}
1002
{
1000
BEHIND
1070
     0
1002
}
1002
{
1000
REACTOR
1002
}
1001
GENIUS_GENOBJ-N-CEN_13
1002
{
1000
OWNER
1000
GEN
1002
}
  0
LINE
  5
750
330
1F
100
AcDbEntity
  8
AM_0
 62
     7
100
AcDbLine
 10
1079.566261122598
 20
872.1073463703749
 30
0.0
 11
1079.566261122597
 21
703.6509726897445
 31
0.0
1001
GENIUS_GENODEF_13
1002
{
1000
HIER
1070
     0
1002
}
1002
{
1000
MANEDIT
1070
     0
1002
}
1002
{
1000
NOSEL
1070
     0
1002
}
1002
{
1000
BEHIND
1070
     0
1002
}
1002
{
1000
REACTOR
1002
}
1001
GENIUS_GENOBJ-N-CEN_13
1002
{
1000
OWNER
1000
GEN
1002
}
  0
LINE
  5
751
330
1F
100
AcDbEntity
  8
AM_0
 62
     7
100
AcDbLine
 10
1087.766261122598
 20
721.9677956366829
 30
0.0
 11
1103.567708192415
 21
722.8187932464257
 31
0.0
  0
LINE
  5
752
330
1F
100
AcDbEntity
  8
AM_8
 62
     1
100
AcDbLine
 10
1104.376955298819
 20
723.6727956366836
 30
0.0
 11
1084.058903461276
 21
722.9388771643226
 31
0.0
  0
LINE
  5
753
330
1F
100
AcDbEntity
  8
AM_8
 62
     1
100
AcDbLine
 10
1104.376955298819
 20
753.9627956366838
 30
0.0
 11
1084.058903461276
 21
754.6967141090427
 31
0.0
  0
LINE
  5
754
330
1F
100
AcDbEntity
  8
AM_0
 62
     7
100
AcDbLine
 10
1087.766261122598
 20
755.6677956366837
 30
0.0
 11
1103.567708192415
 21
754.8167980269409
 31
0.0
  0
LINE
  5
755
330
1F
100
AcDbEntity
  8
AM_7
 48
2.0
100
AcDbLine
 10
1107.566261122597
 20
738.8177956366818
 30
0.0
 11
1076.566261122597
 21
738.8177956366818
 31
0.0
1001
GENIUS_GENODEF_13
1002
{
1000
HIER
1070
     0
1002
}
1002
{
1000
MANEDIT
1070
     0
1002
}
1002
{
1000
NOSEL
1070
     0
1002
}
1002
{
1000
BEHIND
1070
     0
1002
}
1002
{
1000
REACTOR
1002
}
1001
GENIUS_GENOBJ-N-CEN_13
1002
{
1000
OWNER
1000
GEN
1002
}
  0
LINE
  5
756
330
1F
100
AcDbEntity
  8
AM_0
 62
     7
100
AcDbLine
 10
1087.766261122598
 20
721.9677956366829
 30
0.0
 11
1079.566261122597
 21
721.9677956366829
 31
0.0
  0
LINE
  5
757
330
1F
100
AcDbEntity
  8
AM_0
 62
     7
100
AcDbLine
 10
1087.766261122598
 20
755.6677956366837
 30
0.0
 11
1079.566261122597
 21
755.6677956366837
 31
0.0
  0
LINE
  5
758
330
1F
100
AcDbEntity
  8
AM_0
 62
     7
100
AcDbLine
 10
1084.058903461276
 20
755.6677956366837
 30
0.0
 11
1084.058903461276
 21
721.9677956366829
 31
0.0
  0
LINE
  5
759
330
1F
100
AcDbEntity
  8
AM_0
 62
     7
100
AcDbLine
 10
1079.566261122597
 20
755.6677956366837
 30
0.0
 11
1079.566261122597
 21
721.7354934653418
 31
0.0
  0
LINE
  5
75A
330
1F
100
AcDbEntity
  8
AM_0
 62
     7
100
AcDbLine
 10
1103.567708192415
 20
722.8187932464257
 30
0.0
 11
1104.566261122597
 21
723.8725709892518
 31
0.0
1001
GENIUS_GENFIL_13
1070
     0
1040
1.0
1040
1.0
1040
20.0
1040
0.0
1002
{
1002
}
1001
GENIUS_GENODEF_13
1002
{
1000
HIER
1070
     0
1002
}
1002
{
1000
MANEDIT
1070
     0
1002
}
1002
{
1000
NOSEL
1070
     0
1002
}
1002
{
1000
BEHIND
1070
     0
1002
}
1002
{
1000
REACTOR
1002
}
1001
GENIUS_GENOBJ-N-CHA_13
1002
{
1000
OWNER
1000
GEN
1002
}
  0
LINE
  5
75B
330
1F
100
AcDbEntity
  8
AM_0
 62
     7
100
AcDbLine
 10
1103.567708192415
 20
754.8167980269409
 30
0.0
 11
1104.566261122597
 21
753.7630202841149
 31
0.0
1001
GENIUS_GENFIL_13
1070
     0
1040
1.0
1040
1.0
1040
20.0
1040
0.0
1002
{
1002
}
1001
GENIUS_GENODEF_13
1002
{
1000
HIER
1070
     0
1002
}
1002
{
1000
MANEDIT
1070
     0
1002
}
1002
{
1000
NOSEL
1070
     0
1002
}
1002
{
1000
BEHIND
1070
     0
1002
}
1002
{
1000
REACTOR
1002
}
1001
GENIUS_GENOBJ-N-CHA_13
1002
{
1000
OWNER
1000
GEN
1002
}
  0
LINE
  5
75C
330
1F
100
AcDbEntity
  8
AM_0
 62
     7
100
AcDbLine
 10
1104.566261122597
 20
753.7630202841149
 30
0.0
 11
1104.566261122597
 21
723.8725709892518
 31
0.0
  0
LINE
  5
75D
330
1F
100
AcDbEntity
  8
AM_0
 62
     7
100
AcDbLine
 10
1079.566261122598
 20
916.3204212569548
 30
0.0
 11
1079.566261122598
 21
880.5334961435358
 31
0.0
1001
GENIUS_GENODEF_13
1002
{
1000
HIER
1070
     0
1002
}
1002
{
1000
MANEDIT
1070
     0
1002
}
1002
{
1000
NOSEL
1070
     0
1002
}
1002
{
1000
BEHIND
1070
     0
1002
}
1002
{
1000
REACTOR
1002
}
1001
GENIUS_GENOBJ-N-CEN_13
1002
{
1000
OWNER
1000
GEN
1002
}
  0
ARC
  5
75E
330
1F
100
AcDbEntity
  8
AM_0
 62
     7
100
AcDbCircle
 10
1075.869832551171
 20
876.3204212569556
 30
0.0
 40
5.446428571428461
100
AcDbArc
 50
314.8865851757216
 51
45.1134148242784
  0
LINE
  5
75F
330
1F
100
AcDbEntity
  8
AM_0
 62
     7
100
AcDbLine
 10
1079.566261122598
 20
916.3204212569556
 30
0.0
 11
1077.822057651411
 21
916.3204212569556
 31
0.0
  0
LINE
  5
760
330
1F
100
AcDbEntity
  8
AM_0
 62
     7
100
AcDbLine
 10
1079.231324632059
 20
918.829443789191
 30
0.0
 11
1077.883248420707
 21
916.4945072986515
 31
0.0
  0
ARC
  5
761
330
1F
100
AcDbEntity
  8
AM_0
 62
     7
100
AcDbCircle
 10
1077.066261122598
 20
920.0794437891907
 30
0.0
 40
2.5
100
AcDbArc
 50
329.9999999999877
 51
0.0
1001
GENIUS_GENODEF_13
1002
{
1000
HIER
1070
     0
1002
}
1002
{
1000
MANEDIT
1070
     0
1002
}
1002
{
1000
NOSEL
1070
     0
1002
}
1002
{
1000
BEHIND
1070
     0
1002
}
1002
{
1000
REACTOR
1002
}
1001
GENIUS_GENOBJ-N-FIL_13
1002
{
1000
OWNER
1000
GEN
1002
}
  0
LINE
  5
762
330
1F
100
AcDbEntity
  8
AM_7
 48
2.0
100
AcDbLine
 10
1688.309912269986
 20
1062.92203936315
 30
0.0
 11
2018.309912269985
 21
1062.92203936315
 31
0.0
1001
GENIUS_GENOREF_13
1005
0
  0
LINE
  5
763
330
1F
100
AcDbEntity
  8
AM_7
 48
2.0
100
AcDbLine
 10
1688.309912269986
 20
725.4146817018278
 30
0.0
 11
1688.309912269986
 21
1392.922039363149
 31
0.0
1001
GENIUS_GENOREF_13
1005
0
  0
LINE
  5
764
330
1F
100
AcDbEntity
  8
AM_0
 62
     7
 48
0.3
100
AcDbLine
 10
1671.459912269986
 20
745.9220393631499
 30
0.0
 11
1704.188830742346
 21
745.9220393631499
 31
0.0
  0
LINE
  5
765
330
1F
100
AcDbEntity
  8
AM_0
 62
     7
100
AcDbLine
 10
1703.255136917418
 20
725.4146817018278
 30
0.0
 11
1673.364687622554
 21
725.4146817018278
 31
0.0
  0
LINE
  5
766
330
1F
100
AcDbEntity
  8
AM_8
 62
     1
100
AcDbLine
 10
1673.164912269986
 20
725.6039875256058
 30
0.0
 11
1672.430993797627
 21
745.9220393631499
 31
0.0
  0
LINE
  5
767
330
1F
100
AcDbEntity
  8
AM_0
 62
     7
100
AcDbLine
 10
1672.310909879729
 20
726.4132346320108
 30
0.0
 11
1673.364687622554
 21
725.4146817018278
 31
0.0
1001
GENIUS_GENFIL_13
1070
     0
1040
1.0
1040
1.0
1040
20.0
1040
0.0
1002
{
1002
}
1001
GENIUS_GENODEF_13
1002
{
1000
HIER
1070
     0
1002
}
1002
{
1000
MANEDIT
1070
     0
1002
}
1002
{
1000
NOSEL
1070
     0
1002
}
1002
{
1000
BEHIND
1070
     0
1002
}
1002
{
1000
REACTOR
1002
}
1001
GENIUS_GENOBJ-N-CHA_13
1002
{
1000
OWNER
1000
GEN
1002
}
  0
LINE
  5
768
330
1F
100
AcDbEntity
  8
AM_0
 62
     7
 48
0.3
100
AcDbLine
 10
1671.459912269986
 20
742.2146817018279
 30
0.0
 11
1672.310909879729
 21
726.4132346320108
 31
0.0
  0
LINE
  5
769
330
1F
100
AcDbEntity
  8
AM_0
 62
     7
 48
0.3
100
AcDbLine
 10
1671.459912269986
 20
742.2146817018279
 30
0.0
 11
1671.459912269986
 21
746.3701834216627
 31
0.0
  0
LINE
  5
76A
330
1F
100
AcDbEntity
  8
AM_8
 62
     1
100
AcDbLine
 10
1703.454912269987
 20
725.6039875256058
 30
0.0
 11
1704.188830742346
 21
745.9220393631499
 31
0.0
  0
LINE
  5
76B
330
1F
100
AcDbEntity
  8
AM_0
 62
     7
100
AcDbLine
 10
1705.159912269987
 20
745.9220393631499
 30
0.0
 11
1704.188830742346
 21
745.9220393631499
 31
0.0
  0
LINE
  5
76C
330
1F
100
AcDbEntity
  8
AM_0
 62
     7
100
AcDbLine
 10
1704.308914660244
 20
726.4132346320108
 30
0.0
 11
1703.255136917418
 21
725.4146817018278
 31
0.0
1001
GENIUS_GENFIL_13
1070
     0
1040
1.0
1040
1.0
1040
20.0
1040
0.0
1002
{
1002
}
1001
GENIUS_GENODEF_13
1002
{
1000
HIER
1070
     0
1002
}
1002
{
1000
MANEDIT
1070
     0
1002
}
1002
{
1000
NOSEL
1070
     0
1002
}
1002
{
1000
BEHIND
1070
     0
1002
}
1002
{
1000
REACTOR
1002
}
1001
GENIUS_GENOBJ-N-CHA_13
1002
{
1000
OWNER
1000
GEN
1002
}
  0
LINE
  5
76D
330
1F
100
AcDbEntity
  8
AM_0
 62
     7
 48
0.3
100
AcDbLine
 10
1705.159912269987
 20
742.2146817018279
 30
0.0
 11
1704.308914660244
 21
726.4132346320108
 31
0.0
  0
LINE
  5
76E
330
1F
100
AcDbEntity
  8
AM_0
 62
     7
 48
0.3
100
AcDbLine
 10
1705.159912269987
 20
742.2146817018279
 30
0.0
 11
1705.159912269987
 21
746.3701834216627
 31
0.0
  0
CIRCLE
  5
76F
330
1F
100
AcDbEntity
  8
VENTILUKAPPE
 62
     7
100
AcDbCircle
 10
1688.309912269986
 20
1062.92203936315
 30
0.0
 40
7.929719931403193
  0
INSERT
  5
770
330
1F
100
AcDbEntity
  8
REFLEX-LOGO
100
AcDbBlockReference
  2
LOGO
 10
689.9673371689446
 20
965.9958243258447
 30
0.0
 41
5.184000000000195
 42
5.183999999999739
 43
5.184000000000001
  0
LWPOLYLINE
  5
771
330
1F
100
AcDbEntity
  8
RAHMENPOLY
100
AcDbPolyline
 90
        8
 70
     1
 43
2.0
 10
684.2404653776941
 20
1023.835575647803
 10
834.2404653776942
 20
1023.835575647803
 42
-0.4142135623730951
 10
839.2404653776941
 20
1018.835575647803
 10
839.2404653776941
 20
963.8355756478027
 42
-0.4142135623730951
 10
834.2404653776942
 20
958.8355756478028
 10
684.2404653776941
 20
958.8355756478028
 42
-0.4142135623730951
 10
679.2404653776944
 20
963.8355756478027
 10
679.2404653776944
 20
1018.835575647803
 42
-0.4142135623730951
  0
LINE
  5
772
330
1F
100
AcDbEntity
  8
AM_0
 62
     7
100
AcDbLine
 10
507.5662611225976
 20
536.8177956366828
 30
0.0
 11
507.5662611225976
 21
533.7005128933508
 31
0.0
  0
LINE
  5
773
330
1F
100
AcDbEntity
  8
AM_0
 62
     7
100
AcDbLine
 10
507.5662611225976
 20
536.8177956366828
 30
0.0
 11
532.8214382890235
 21
536.8177956366828
 31
0.0
  0
CIRCLE
  5
774
330
1F
100
AcDbEntity
  8
AM_3
100
AcDbCircle
 10
1688.309912269986
 20
1305.42203936315
 30
0.0
 40
6.0
  0
ARC
  5
775
330
1F
100
AcDbEntity
  8
AM_3
100
AcDbCircle
 10
1688.309912269986
 20
1302.92203936315
 30
0.0
 40
15.0
100
AcDbArc
 50
0.0
 51
180.0
  0
LINE
  5
776
330
1F
100
AcDbEntity
  8
AM_0
 62
     7
100
AcDbLine
 10
514.0662611225978
 20
536.8177956366828
 30
0.0
 11
514.0662611225978
 21
533.8291862166316
 31
0.0
  0
LINE
  5
777
330
1F
100
AcDbEntity
  8
AM_0
 62
     7
100
AcDbLine
 10
526.0662611225975
 20
536.8177956366828
 30
0.0
 11
526.0662611225975
 21
533.8502149796148
 31
0.0
  0
LINE
  5
778
330
1F
100
AcDbEntity
  8
AM_3
100
AcDbLine
 10
1703.309912269985
 20
1302.92203936315
 30
0.0
 11
1703.309912269985
 21
1292.666862196725
 31
0.0
  0
LINE
  5
779
330
1F
100
AcDbEntity
  8
AM_3
100
AcDbLine
 10
1673.309912269987
 20
1302.92203936315
 30
0.0
 11
1673.309912269987
 21
1292.666862196725
 31
0.0
  0
LINE
  5
77A
330
1F
100
AcDbEntity
  8
AM_3
100
AcDbLine
 10
1698.394801767869
 20
1305.42203936315
 30
0.0
 11
1678.61290288544
 21
1305.42203936315
 31
0.0
  0
LINE
  5
77B
330
1F
100
AcDbEntity
  8
AM_7
 48
2.0
100
AcDbLine
 10
520.0662611225973
 20
542.4896357479557
 30
0.0
 11
520.0662611225973
 21
530.0774641142456
 31
0.0
  0
ARC
  5
77C
330
1F
100
AcDbEntity
  8
AM_0
 62
     7
100
AcDbCircle
 10
532.8214382890235
 20
541.8177956366836
 30
0.0
 40
5.0
100
AcDbArc
 50
270.0
 51
356.9999999999946
1001
GENIUS_GENODEF_13
1002
{
1000
HIER
1070
     0
1002
}
1002
{
1000
MANEDIT
1070
     0
1002
}
1002
{
1000
NOSEL
1070
     0
1002
}
1002
{
1000
BEHIND
1070
     0
1002
}
1002
{
1000
REACTOR
1002
}
1001
GENIUS_GENOBJ-N-FIL_13
1002
{
1000
OWNER
1000
GEN
1002
}
  0
ARC
  5
77D
330
1F
100
AcDbEntity
  8
AM_0
 62
     7
100
AcDbCircle
 10
548.7497170665663
 20
578.2449436610577
 30
0.0
 40
9.0
100
AcDbArc
 50
64.31280354125025
 51
176.9999999999946
1001
GENIUS_GENODEF_13
1002
{
1000
HIER
1070
     0
1002
}
1002
{
1000
MANEDIT
1070
     0
1002
}
1002
{
1000
NOSEL
1070
     0
1002
}
1002
{
1000
BEHIND
1070
     0
1002
}
1002
{
1000
REACTOR
1002
}
1001
GENIUS_GENOBJ-N-FIL_13
1002
{
1000
OWNER
1000
GEN
1002
}
  0
LINE
  5
77E
330
1F
100
AcDbEntity
  8
AM_0
 62
     7
100
AcDbLine
 10
591.755777848571
 20
569.4814435749217
 30
0.0
 11
592.0662611225973
 21
570.4177956366827
 31
0.0
  0
LINE
  5
77F
330
1F
100
AcDbEntity
  8
AM_3
100
AcDbLine
 10
1677.309912269986
 20
1287.92203936315
 30
0.0
 11
1699.309912269987
 21
1287.92203936315
 31
0.0
  0
LINE
  5
780
330
1F
100
AcDbEntity
  8
AM_3
100
AcDbLine
 10
1677.309912269986
 20
1233.422039363151
 30
0.0
 11
1699.309912269987
 21
1233.422039363151
 31
0.0
  0
LINE
  5
781
330
1F
100
AcDbEntity
  8
AM_3
100
AcDbLine
 10
1701.309912269985
 20
1285.92203936315
 30
0.0
 11
1701.309912269985
 21
1235.422039363151
 31
0.0
1001
GENIUS_GENODEF_13
1002
{
1000
HIER
1070
     0
1002
}
1002
{
1000
MANEDIT
1070
     0
1002
}
1002
{
1000
NOSEL
1070
     0
1002
}
1002
{
1000
BEHIND
1070
     0
1002
}
1002
{
1000
REACTOR
1002
}
1001
GENIUS_GENOBJ-N-CEN_13
1002
{
1000
OWNER
1000
GEN
1002
}
  0
LINE
  5
782
330
1F
100
AcDbEntity
  8
AM_3
100
AcDbLine
 10
1675.309912269987
 20
1285.92203936315
 30
0.0
 11
1675.309912269987
 21
1235.422039363151
 31
0.0
1001
GENIUS_GENODEF_13
1002
{
1000
HIER
1070
     0
1002
}
1002
{
1000
MANEDIT
1070
     0
1002
}
1002
{
1000
NOSEL
1070
     0
1002
}
1002
{
1000
BEHIND
1070
     0
1002
}
1002
{
1000
REACTOR
1002
}
1001
GENIUS_GENOBJ-N-CEN_13
1002
{
1000
OWNER
1000
GEN
1002
}
  0
ARC
  5
783
330
1F
100
AcDbEntity
  8
AM_0
 62
     7
100
AcDbCircle
 10
539.8720565111357
 20
561.7076700099986
 30
0.0
 40
1.0
100
AcDbArc
 50
266.9999999999944
 51
356.9999999999946
1001
GENIUS_GENODEF_13
1002
{
1000
HIER
1070
     0
1002
}
1002
{
1000
MANEDIT
1070
     0
1002
}
1002
{
1000
NOSEL
1070
     0
1002
}
1002
{
1000
BEHIND
1070
     0
1002
}
1002
{
1000
REACTOR
1002
}
1001
GENIUS_GENOBJ-N-FIL_13
1002
{
1000
OWNER
1000
GEN
1002
}
  0
ARC
  5
784
330
1F
100
AcDbEntity
  8
AM_0
 62
     7
100
AcDbCircle
 10
539.7673845986496
 20
559.7104109404908
 30
0.0
 40
1.0
100
AcDbArc
 50
86.99999999999441
 51
176.9999999999946
1001
GENIUS_GENODEF_13
1002
{
1000
HIER
1070
     0
1002
}
1002
{
1000
MANEDIT
1070
     0
1002
}
1002
{
1000
NOSEL
1070
     0
1002
}
1002
{
1000
BEHIND
1070
     0
1002
}
1002
{
1000
REACTOR
1002
}
1001
GENIUS_GENOBJ-N-FIL_13
1002
{
1000
OWNER
1000
GEN
1002
}
  0
LINE
  5
785
330
1F
100
AcDbEntity
  8
AM_0
 62
     7
100
AcDbLine
 10
540.8706860458892
 20
561.6553340537567
 30
0.0
 11
541.7727427452826
 21
578.8676012349369
 31
0.0
  0
ARC
  5
786
330
1F
100
AcDbEntity
  8
AM_0
 62
     7
100
AcDbCircle
 10
549.1326075757711
 20
586.2367952422378
 30
0.0
 40
1.0
100
AcDbArc
 50
84.51410034306084
 51
176.0170048390383
1001
GENIUS_GENODEF_13
1002
{
1000
HIER
1070
     0
1002
}
1002
{
1000
MANEDIT
1070
     0
1002
}
1002
{
1000
NOSEL
1070
     0
1002
}
1002
{
1000
BEHIND
1070
     0
1002
}
1002
{
1000
REACTOR
1002
}
1001
GENIUS_GENOBJ-N-FIL_13
1002
{
1000
OWNER
1000
GEN
1002
}
  0
ARC
  5
787
330
1F
100
AcDbEntity
  8
AM_0
 62
     7
100
AcDbCircle
 10
532.8214382890235
 20
541.8177956366836
 30
0.0
 40
3.0
100
AcDbArc
 50
270.0
 51
356.9999999999946
1001
GENIUS_GENODEF_13
1002
{
1000
HIER
1070
     0
1002
}
1002
{
1000
MANEDIT
1070
     0
1002
}
1002
{
1000
NOSEL
1070
     0
1002
}
1002
{
1000
BEHIND
1070
     0
1002
}
1002
{
1000
REACTOR
1002
}
1001
GENIUS_GENOBJ-N-FIL_13
1002
{
1000
OWNER
1000
GEN
1002
}
  0
LINE
  5
788
330
1F
100
AcDbEntity
  8
AM_0
 62
     7
100
AcDbLine
 10
530.5662611225978
 20
538.8177956366836
 30
0.0
 11
532.8214382890235
 21
538.8177956366836
 31
0.0
  0
LINE
  5
789
330
1F
100
AcDbEntity
  8
AM_0
 62
     7
100
AcDbLine
 10
535.8173268932874
 20
541.6607877679548
 30
0.0
 11
535.8258001715761
 21
541.8224675491686
 31
0.0
  0
ARC
  5
78A
330
1F
100
AcDbEntity
  8
AM_0
 62
     7
100
AcDbCircle
 10
530.5662611225978
 20
536.8177956366828
 30
0.0
 40
2.0
100
AcDbArc
 50
90.0
 51
180.0
1001
GENIUS_GENODEF_13
1002
{
1000
HIER
1070
     0
1002
}
1002
{
1000
MANEDIT
1070
     0
1002
}
1002
{
1000
NOSEL
1070
     0
1002
}
1002
{
1000
BEHIND
1070
     0
1002
}
1002
{
1000
REACTOR
1002
}
1001
GENIUS_GENOBJ-N-FIL_13
1002
{
1000
OWNER
1000
GEN
1002
}
  0
LINE
  5
78B
330
1F
100
AcDbEntity
  8
AM_0
 62
     7
100
AcDbLine
 10
537.9278747996518
 20
545.7177956366829
 30
0.0
 11
538.032690358217
 21
545.7177956366829
 31
0.0
  0
LINE
  5
78C
330
1F
100
AcDbEntity
  8
AM_0
 62
     7
100
AcDbLine
 10
535.8173268932874
 20
541.6607877679548
 30
0.0
 11
535.9306157301412
 21
543.8224675491688
 31
0.0
  0
ARC
  5
78D
330
1F
100
AcDbEntity
  8
AM_0
 62
     7
100
AcDbCircle
 10
537.9278747996518
 20
543.7177956366829
 30
0.0
 40
2.0
100
AcDbArc
 50
90.0
 51
176.9999999999946
1001
GENIUS_GENODEF_13
1002
{
1000
HIER
1070
     0
1002
}
1002
{
1000
MANEDIT
1070
     0
1002
}
1002
{
1000
NOSEL
1070
     0
1002
}
1002
{
1000
BEHIND
1070
     0
1002
}
1002
{
1000
REACTOR
1002
}
1001
GENIUS_GENOBJ-N-FIL_13
1002
{
1000
OWNER
1000
GEN
1002
}
  0
LINE
  5
78E
330
1F
100
AcDbEntity
  8
AM_3
100
AcDbLine
 10
1693.309912269986
 20
1298.785405150498
 30
0.0
 11
1693.309912269986
 21
1296.178904006663
 31
0.0
1001
GENIUS_GENODEF_13
1002
{
1000
HIER
1070
     0
1002
}
1002
{
1000
MANEDIT
1070
     0
1002
}
1002
{
1000
NOSEL
1070
     0
1002
}
1002
{
1000
BEHIND
1070
     0
1002
}
1002
{
1000
REACTOR
1002
}
1001
GENIUS_GENOBJ-N-CEN_13
1002
{
1000
OWNER
1000
GEN
1002
}
  0
LINE
  5
78F
330
1F
100
AcDbEntity
  8
AM_3
100
AcDbLine
 10
1683.309912269987
 20
1298.785405150498
 30
0.0
 11
1683.309912269987
 21
1283.324074307531
 31
0.0
1001
GENIUS_GENODEF_13
1002
{
1000
HIER
1070
     0
1002
}
1002
{
1000
MANEDIT
1070
     0
1002
}
1002
{
1000
NOSEL
1070
     0
1002
}
1002
{
1000
BEHIND
1070
     0
1002
}
1002
{
1000
REACTOR
1002
}
1001
GENIUS_GENOBJ-N-CEN_13
1002
{
1000
OWNER
1000
GEN
1002
}
  0
LINE
  5
790
330
1F
100
AcDbEntity
  8
AM_3
100
AcDbLine
 10
1696.809912269986
 20
1293.42203936315
 30
0.0
 11
1696.809912269986
 21
1287.92203936315
 31
0.0
1001
GENIUS_GENODEF_13
1002
{
1000
HIER
1070
     0
1002
}
1002
{
1000
MANEDIT
1070
     0
1002
}
1002
{
1000
NOSEL
1070
     0
1002
}
1002
{
1000
BEHIND
1070
     0
1002
}
1002
{
1000
REACTOR
1002
}
1001
GENIUS_GENOBJ-N-CEN_13
1002
{
1000
OWNER
1000
GEN
1002
}
  0
LINE
  5
791
330
1F
100
AcDbEntity
  8
AM_3
100
AcDbLine
 10
1689.809912269987
 20
1293.42203936315
 30
0.0
 11
1689.809912269987
 21
1287.92203936315
 31
0.0
1001
GENIUS_GENODEF_13
1002
{
1000
HIER
1070
     0
1002
}
1002
{
1000
MANEDIT
1070
     0
1002
}
1002
{
1000
NOSEL
1070
     0
1002
}
1002
{
1000
BEHIND
1070
     0
1002
}
1002
{
1000
REACTOR
1002
}
1001
GENIUS_GENOBJ-N-CEN_13
1002
{
1000
OWNER
1000
GEN
1002
}
  0
LINE
  5
792
330
1F
100
AcDbEntity
  8
AM_3
100
AcDbLine
 10
1679.809912269987
 20
1293.42203936315
 30
0.0
 11
1679.809912269987
 21
1287.92203936315
 31
0.0
1001
GENIUS_GENODEF_13
1002
{
1000
HIER
1070
     0
1002
}
1002
{
1000
MANEDIT
1070
     0
1002
}
1002
{
1000
NOSEL
1070
     0
1002
}
1002
{
1000
BEHIND
1070
     0
1002
}
1002
{
1000
REACTOR
1002
}
1001
GENIUS_GENOBJ-N-CEN_13
1002
{
1000
OWNER
1000
GEN
1002
}
  0
LINE
  5
793
330
1F
100
AcDbEntity
  8
AM_3
100
AcDbLine
 10
1686.809912269986
 20
1293.42203936315
 30
0.0
 11
1686.809912269986
 21
1287.92203936315
 31
0.0
1001
GENIUS_GENODEF_13
1002
{
1000
HIER
1070
     0
1002
}
1002
{
1000
MANEDIT
1070
     0
1002
}
1002
{
1000
NOSEL
1070
     0
1002
}
1002
{
1000
BEHIND
1070
     0
1002
}
1002
{
1000
REACTOR
1002
}
1001
GENIUS_GENOBJ-N-CEN_13
1002
{
1000
OWNER
1000
GEN
1002
}
  0
ARC
  5
794
330
1F
100
AcDbEntity
  8
AM_3
100
AcDbCircle
 10
1693.309912269986
 20
1293.42203936315
 30
0.0
 40
3.5
100
AcDbArc
 50
0.0
 51
180.0
  0
ARC
  5
795
330
1F
100
AcDbEntity
  8
AM_3
100
AcDbCircle
 10
1683.309912269987
 20
1293.42203936315
 30
0.0
 40
3.5
100
AcDbArc
 50
0.0
 51
180.0
  0
ARC
  5
796
330
1F
100
AcDbEntity
  8
AM_3
100
AcDbCircle
 10
1693.018626243853
 20
1291.70623511218
 30
0.0
 40
10.33602304889329
100
AcDbArc
 50
323.3381812573037
 51
5.332749755142256
  0
ARC
  5
797
330
1F
100
AcDbEntity
  8
AM_3
100
AcDbCircle
 10
1694.809912269986
 20
1287.92203936315
 30
0.0
 40
2.0
100
AcDbArc
 50
0.0
 51
90.0
  0
LINE
  5
798
330
1F
100
AcDbEntity
  8
AM_3
100
AcDbLine
 10
1681.809912269987
 20
1289.92203936315
 30
0.0
 11
1684.809912269985
 21
1289.92203936315
 31
0.0
  0
ARC
  5
799
330
1F
100
AcDbEntity
  8
AM_3
100
AcDbCircle
 10
1691.809912269986
 20
1287.92203936315
 30
0.0
 40
2.0
100
AcDbArc
 50
90.0
 51
180.0
  0
ARC
  5
79A
330
1F
100
AcDbEntity
  8
AM_3
100
AcDbCircle
 10
1681.809912269987
 20
1287.92203936315
 30
0.0
 40
2.0
100
AcDbArc
 50
90.0
 51
180.0
  0
ARC
  5
79B
330
1F
100
AcDbEntity
  8
AM_3
100
AcDbCircle
 10
1684.809912269985
 20
1287.92203936315
 30
0.0
 40
2.0
100
AcDbArc
 50
0.0
 51
90.0
  0
LINE
  5
79C
330
1F
100
AcDbEntity
  8
AM_3
100
AcDbLine
 10
1691.809912269986
 20
1289.92203936315
 30
0.0
 11
1694.809912269986
 21
1289.92203936315
 31
0.0
  0
LINE
  5
79D
330
1F
100
AcDbEntity
  8
AM_3
100
AcDbLine
 10
1691.309912269987
 20
1286.719545421853
 30
0.0
 11
1691.309912269987
 21
1279.675757057759
 31
0.0
1001
GENIUS_GENODEF_13
1002
{
1000
HIER
1070
     0
1002
}
1002
{
1000
MANEDIT
1070
     0
1002
}
1002
{
1000
NOSEL
1070
     0
1002
}
1002
{
1000
BEHIND
1070
     0
1002
}
1002
{
1000
REACTOR
1002
}
1001
GENIUS_GENOBJ-N-CEN_13
1002
{
1000
OWNER
1000
GEN
1002
}
  0
LINE
  5
79E
330
1F
100
AcDbEntity
  8
AM_3
100
AcDbLine
 10
1685.309912269986
 20
1286.719545421853
 30
0.0
 11
1685.309912269986
 21
1279.675757057758
 31
0.0
1001
GENIUS_GENODEF_13
1002
{
1000
HIER
1070
     0
1002
}
1002
{
1000
MANEDIT
1070
     0
1002
}
1002
{
1000
NOSEL
1070
     0
1002
}
1002
{
1000
BEHIND
1070
     0
1002
}
1002
{
1000
REACTOR
1002
}
1001
GENIUS_GENOBJ-N-CEN_13
1002
{
1000
OWNER
1000
GEN
1002
}
  0
ELLIPSE
  5
79F
330
1F
100
AcDbEntity
  8
AM_3
100
AcDbEllipse
 10
1688.309912269986
 20
1279.675757057759
 30
0.0
 11
2.999999999999982
 21
-0.0000000000000006
 31
0.0
210
0.0
220
0.0
230
1.0
 40
0.7741598128011863
 41
3.14159265358979
 42
6.283185307179581
  0
LINE
  5
7A0
330
1F
100
AcDbEntity
  8
AM_3
100
AcDbLine
 10
1689.309912269987
 20
1284.617614439858
 30
0.0
 11
1689.309912269987
 21
1279.675757057759
 31
0.0
1001
GENIUS_GENODEF_13
1002
{
1000
HIER
1070
     0
1002
}
1002
{
1000
MANEDIT
1070
     0
1002
}
1002
{
1000
NOSEL
1070
     0
1002
}
1002
{
1000
BEHIND
1070
     0
1002
}
1002
{
1000
REACTOR
1002
}
1001
GENIUS_GENOBJ-N-CEN_13
1002
{
1000
OWNER
1000
GEN
1002
}
  0
SPLINE
  5
7A1
330
1F
100
AcDbEntity
  8
AM_3
100
AcDbSpline
210
0.0
220
0.0
230
1.0
 70
     8
 71
     3
 72
    18
 73
    14
 74
     0
 42
0.0000000001
 43
0.0000000001
 40
3.628703069452225
 40
3.628703069452225
 40
3.628703069452225
 40
3.628703069452225
 40
3.912493910190088
 40
3.912493910190088
 40
4.196284750927953
 40
4.196284750927953
 40
4.622228449873871
 40
4.622228449873871
 40
5.048172148819785
 40
5.048172148819785
 40
5.474115847765705
 40
5.474115847765705
 40
5.796074891333201
 40
5.796074891333201
 40
5.796074891333201
 40
5.796074891333201
 10
1687.30946561897
 20
1279.718022937314
 30
0.0
 10
1687.321932002128
 20
1279.699802628201
 30
0.0
 10
1687.351075986901
 20
1279.664166621611
 30
0.0
 10
1687.457984980125
 20
1279.578966840185
 30
0.0
 10
1687.535538466948
 20
1279.530061610278
 30
0.0
 10
1687.781194602727
 20
1279.422155041642
 30
0.0
 10
1687.975229118054
 20
1279.372122247846
 30
0.0
 10
1688.383635321168
 20
1279.343538548816
 30
0.0
 10
1688.596499788709
 20
1279.365043786962
 30
0.0
 10
1688.957060906187
 20
1279.462460671513
 30
0.0
 10
1689.102790981306
 20
1279.537851965715
 30
0.0
 10
1689.260235920891
 20
1279.654101445565
 30
0.0
 10
1689.296215882465
 20
1279.697352103545
 30
0.0
 10
1689.310358921005
 20
1279.718022937317
 30
0.0
  0
LINE
  5
7A2
330
1F
100
AcDbEntity
  8
AM_3
100
AcDbLine
 10
1687.309912269986
 20
1284.617614439858
 30
0.0
 11
1687.309912269986
 21
1279.675757057758
 31
0.0
1001
GENIUS_GENODEF_13
1002
{
1000
HIER
1070
     0
1002
}
1002
{
1000
MANEDIT
1070
     0
1002
}
1002
{
1000
NOSEL
1070
     0
1002
}
1002
{
1000
BEHIND
1070
     0
1002
}
1002
{
1000
REACTOR
1002
}
1001
GENIUS_GENOBJ-N-CEN_13
1002
{
1000
OWNER
1000
GEN
1002
}
  0
ARC
  5
7A3
330
1F
100
AcDbEntity
  8
AM_3
100
AcDbCircle
 10
1683.60119829612
 20
1291.70623511218
 30
0.0
 40
10.33602304889329
100
AcDbArc
 50
174.6672502448577
 51
216.6618187426963
  0
ARC
  5
7A4
330
1F
100
AcDbEntity
  8
AM_3
100
AcDbCircle
 10
1699.309912269987
 20
1285.92203936315
 30
0.0
 40
2.0
100
AcDbArc
 50
0.0
 51
90.0
1001
GENIUS_GENOBJ-N-CEN_13
1002
{
1000
OWNER
1000
GEN
1002
}
1001
GENIUS_GENODEF_13
1002
{
1000
HIER
1070
     0
1002
}
1002
{
1000
MANEDIT
1070
     0
1002
}
1002
{
1000
NOSEL
1070
     0
1002
}
1002
{
1000
BEHIND
1070
     0
1002
}
1002
{
1000
REACTOR
1002
}
1001
GENIUS_GENOBJ-N-FIL_13
1002
{
1000
OWNER
1000
GEN
1002
}
  0
ARC
  5
7A5
330
1F
100
AcDbEntity
  8
AM_3
100
AcDbCircle
 10
1677.309912269986
 20
1285.92203936315
 30
0.0
 40
2.0
100
AcDbArc
 50
90.0
 51
180.0
1001
GENIUS_GENOBJ-N-CEN_13
1002
{
1000
OWNER
1000
GEN
1002
}
1001
GENIUS_GENODEF_13
1002
{
1000
HIER
1070
     0
1002
}
1002
{
1000
MANEDIT
1070
     0
1002
}
1002
{
1000
NOSEL
1070
     0
1002
}
1002
{
1000
BEHIND
1070
     0
1002
}
1002
{
1000
REACTOR
1002
}
1001
GENIUS_GENOBJ-N-FIL_13
1002
{
1000
OWNER
1000
GEN
1002
}
  0
ARC
  5
7A6
330
1F
100
AcDbEntity
  8
AM_3
100
AcDbCircle
 10
1699.309912269987
 20
1235.422039363151
 30
0.0
 40
2.0
100
AcDbArc
 50
270.0
 51
0.0
1001
GENIUS_GENODEF_13
1002
{
1000
HIER
1070
     0
1002
}
1002
{
1000
MANEDIT
1070
     0
1002
}
1002
{
1000
NOSEL
1070
     0
1002
}
1002
{
1000
BEHIND
1070
     0
1002
}
1002
{
1000
REACTOR
1002
}
1001
GENIUS_GENOBJ-N-FIL_13
1002
{
1000
OWNER
1000
GEN
1002
}
  0
ARC
  5
7A7
330
1F
100
AcDbEntity
  8
AM_3
100
AcDbCircle
 10
1677.309912269986
 20
1235.422039363151
 30
0.0
 40
2.0
100
AcDbArc
 50
180.0
 51
270.0
1001
GENIUS_GENOBJ-N-CEN_13
1002
{
1000
OWNER
1000
GEN
1002
}
1001
GENIUS_GENODEF_13
1002
{
1000
HIER
1070
     0
1002
}
1002
{
1000
MANEDIT
1070
     0
1002
}
1002
{
1000
NOSEL
1070
     0
1002
}
1002
{
1000
BEHIND
1070
     0
1002
}
1002
{
1000
REACTOR
1002
}
1001
GENIUS_GENOBJ-N-FIL_13
1002
{
1000
OWNER
1000
GEN
1002
}
  0
LINE
  5
7A8
330
1F
100
AcDbEntity
  8
AM_3
100
AcDbLine
 10
1687.309912269986
 20
1284.617614439858
 30
0.0
 11
1689.309912269987
 21
1284.617614439858
 31
0.0
  0
LINE
  5
7A9
330
1F
100
AcDbEntity
  8
AM_3
100
AcDbLine
 10
1677.309912269986
 20
1286.719545421853
 30
0.0
 11
1685.309912269986
 21
1286.719545421853
 31
0.0
  0
ARC
  5
7AA
330
1F
100
AcDbEntity
  8
AM_3
100
AcDbCircle
 10
1699.309912269987
 20
1284.719545421854
 30
0.0
 40
2.0
100
AcDbArc
 50
0.0
 51
90.0
1001
GENIUS_GENOBJ-N-CEN_13
1002
{
1000
OWNER
1000
GEN
1002
}
1001
GENIUS_GENODEF_13
1002
{
1000
HIER
1070
     0
1002
}
1002
{
1000
MANEDIT
1070
     0
1002
}
1002
{
1000
NOSEL
1070
     0
1002
}
1002
{
1000
BEHIND
1070
     0
1002
}
1002
{
1000
REACTOR
1002
}
1001
GENIUS_GENOBJ-N-FIL_13
1002
{
1000
OWNER
1000
GEN
1002
}
  0
ARC
  5
7AB
330
1F
100
AcDbEntity
  8
AM_3
100
AcDbCircle
 10
1677.309912269986
 20
1284.719545421854
 30
0.0
 40
2.0
100
AcDbArc
 50
90.0
 51
180.0
1001
GENIUS_GENOBJ-N-CEN_13
1002
{
1000
OWNER
1000
GEN
1002
}
1001
GENIUS_GENODEF_13
1002
{
1000
HIER
1070
     0
1002
}
1002
{
1000
MANEDIT
1070
     0
1002
}
1002
{
1000
NOSEL
1070
     0
1002
}
1002
{
1000
BEHIND
1070
     0
1002
}
1002
{
1000
REACTOR
1002
}
1001
GENIUS_GENOBJ-N-FIL_13
1002
{
1000
OWNER
1000
GEN
1002
}
  0
ARC
  5
7AC
330
1F
100
AcDbEntity
  8
AM_3
100
AcDbCircle
 10
1684.58611335091
 20
1284.028374868139
 30
0.0
 40
2.786805307953311
100
AcDbArc
 50
12.20669979365999
 51
74.9463418185573
  0
ARC
  5
7AD
330
1F
100
AcDbEntity
  8
AM_3
100
AcDbCircle
 10
1692.033711189061
 20
1284.028374868139
 30
0.0
 40
2.786805307953311
100
AcDbArc
 50
105.0536581814427
 51
167.79330020634
  0
LINE
  5
7AE
330
1F
100
AcDbEntity
  8
AM_3
100
AcDbLine
 10
1686.795979063814
 20
1285.726249231973
 30
0.0
 11
1689.823845476157
 21
1285.726249231973
 31
0.0
  0
ARC
  5
7AF
330
1F
100
AcDbEntity
  8
AM_3
100
AcDbCircle
 10
1691.904171260025
 20
1283.525678516124
 30
0.0
 40
2.77539230657983
100
AcDbArc
 50
102.3637354700706
 51
159.1855291363004
  0
ARC
  5
7B0
330
1F
100
AcDbEntity
  8
AM_3
100
AcDbCircle
 10
1684.715653279946
 20
1283.525678516124
 30
0.0
 40
2.77539230657983
100
AcDbArc
 50
20.8144708636996
 51
77.63626452992935
  0
LINE
  5
7B1
330
1F
100
AcDbEntity
  8
AM_3
100
AcDbLine
 10
1691.309912269987
 20
1286.719545421853
 30
0.0
 11
1699.309912269987
 21
1286.719545421853
 31
0.0
  0
LINE
  5
7B2
330
1F
100
AcDbEntity
  8
AM_3
100
AcDbLine
 10
1693.309912269986
 20
1289.530458618918
 30
0.0
 11
1693.309912269986
 21
1283.001963569106
 31
0.0
1001
GENIUS_GENODEF_13
1002
{
1000
HIER
1070
     0
1002
}
1002
{
1000
MANEDIT
1070
     0
1002
}
1002
{
1000
NOSEL
1070
     0
1002
}
1002
{
1000
BEHIND
1070
     0
1002
}
1002
{
1000
REACTOR
1002
}
1001
GENIUS_GENOBJ-N-CEN_13
1002
{
1000
OWNER
1000
GEN
1002
}
  0
LINE
  5
7B3
330
1F
100
AcDbEntity
  8
AM_3
100
AcDbLine
 10
1692.865716552883
 20
1269.232982874886
 30
0.0
 11
1683.908457264534
 21
1269.232982874886
 31
0.0
  0
LINE
  5
7B4
330
1F
100
AcDbEntity
  8
AM_3
100
AcDbLine
 10
1692.777899883586
 20
1239.10004833644
 30
0.0
 11
1684.084089495562
 21
1239.10004833644
 31
0.0
  0
ELLIPSE
  5
7B5
330
1F
100
AcDbEntity
  8
AM_3
100
AcDbEllipse
 10
1688.309912269986
 20
1239.10004833644
 30
0.0
 11
3.0
 21
-0.0000000000000006
 31
0.0
210
0.0
220
0.0
230
1.0
 40
0.9449126231368628
 41
3.14159265358979
 42
6.283185307179581
  0
ELLIPSE
  5
7B6
330
1F
100
AcDbEntity
  8
AM_3
100
AcDbEllipse
 10
1688.309912269986
 20
1269.232982874886
 30
0.0
 11
3.0
 21
-0.0000000000000006
 31
0.0
210
0.0
220
0.0
230
1.0
 40
0.9201419238112578
 41
6.283185307179581
 42
9.424777960769381
  0
ARC
  5
7B7
330
1F
100
AcDbEntity
  8
AM_0
 62
     7
100
AcDbCircle
 10
548.7631494885643
 20
578.5012495412367
 30
0.0
 40
7.0
100
AcDbArc
 50
101.739834704569
 51
176.9999999999946
1001
GENIUS_GENODEF_13
1002
{
1000
HIER
1070
     0
1002
}
1002
{
1000
MANEDIT
1070
     0
1002
}
1002
{
1000
NOSEL
1070
     0
1002
}
1002
{
1000
BEHIND
1070
     0
1002
}
1002
{
1000
REACTOR
1002
}
1001
GENIUS_GENOBJ-N-FIL_13
1002
{
1000
OWNER
1000
GEN
1002
}
  0
ARC
  5
7B8
330
1F
100
AcDbEntity
  8
AM_0
 62
     7
100
AcDbCircle
 10
547.1354051064134
 20
586.3339022353358
 30
0.0
 40
1.0
100
AcDbArc
 50
281.739834704569
 51
358.4157652238414
1001
GENIUS_GENODEF_13
1002
{
1000
HIER
1070
     0
1002
}
1002
{
1000
MANEDIT
1070
     0
1002
}
1002
{
1000
NOSEL
1070
     0
1002
}
1002
{
1000
BEHIND
1070
     0
1002
}
1002
{
1000
REACTOR
1002
}
1001
GENIUS_GENOBJ-N-FIL_13
1002
{
1000
OWNER
1000
GEN
1002
}
  0
LINE
  5
7B9
330
1F
100
AcDbEntity
  8
AM_0
 62
     7
100
AcDbLine
 10
592.0662611225973
 20
570.4177956366827
 30
0.0
 11
591.1047580978005
 21
567.5723426813338
 31
0.0
  0
ARC
  5
7BA
330
1F
100
AcDbEntity
  8
AM_0
 62
     7
100
AcDbCircle
 10
696.5587980622664
 20
885.5452456055997
 30
0.0
 40
335.0
100
AcDbArc
 50
244.3203439848365
 51
251.6550892792488
  0
HATCH
  5
7BB
330
1F
100
AcDbEntity
  8
AM_0
 62
     7
100
AcDbHatch
 10
0.0
 20
0.0
 30
0.0
210
0.0
220
0.0
230
1.0
  2
_U
 70
     0
 71
     0
 91
        1
 92
        1
 93
        4
 72
     1
 10
590.6435590306714
 20
570.8931168333947
 11
589.699339808622
 21
568.0455508313569
 72
     2
 10
696.558798062276
 20
885.545245605631
 40
335.0000000000328
 50
251.3985401555314
 51
251.6521730466661
 73
     1
 72
     1
 10
591.1058673414243
 20
567.5756253548827
 11
592.0662611225981
 21
570.4177956366827
 72
     2
 10
696.5587980622719
 20
885.5452456055997
 40
332.0000000000017
 50
108.344910720729
 51
108.6037780751466
 73
     0
 97
        0
 75
     0
 76
     0
 52
45.0
 41
1.5
 77
     0
 78
     1
 53
45.0
 43
453.7859783583203
 44
409.8784320721343
 45
-1.060660171779817
 46
1.060660171779817
 79
     0
 98
        1
 10
453.7859783583203
 20
409.8784320721343
1001
GENIUS_GENODEF_13
1002
{
1000
HIER
1070
     0
1002
}
1002
{
1000
MANEDIT
1070
     0
1002
}
1002
{
1000
NOSEL
1070
     0
1002
}
1002
{
1000
BEHIND
1070
     0
1002
}
1002
{
1000
REACTOR
1002
}
1001
GENIUS_GENOBJ-N-HTC_13
1002
{
1000
OWNER
1000
GEN
1002
}
1001
GENIUS_GENHATCH_13
1002
{
1000
DATA
1040
45.0
1042
2.5
1000
_U
1070
     0
1011
589.5005149121705
1021
654.0330831943466
1031
0.0
1002
}
1002
{
1000
UCS
1010
0.0
1020
0.0
1030
0.0
1010
1.0
1020
0.0
1030
0.0
1010
0.0
1020
1.0
1030
0.0
1002
}
  0
ARC
  5
7BC
330
1F
100
AcDbEntity
  8
AM_0
 62
     7
100
AcDbCircle
 10
548.35910754882
 20
584.2322155109608
 30
0.0
 40
2.0
100
AcDbArc
 50
273.7326859624157
 51
329.9874957708109
1001
GENIUS_GENODEF_13
1002
{
1000
HIER
1070
     0
1002
}
1002
{
1000
MANEDIT
1070
     0
1002
}
1002
{
1000
NOSEL
1070
     0
1002
}
1002
{
1000
BEHIND
1070
     0
1002
}
1002
{
1000
REACTOR
1002
}
1001
GENIUS_GENOBJ-N-FIL_13
1002
{
1000
OWNER
1000
GEN
1002
}
  0
ARC
  5
7BD
330
1F
100
AcDbEntity
  8
AM_0
 62
     7
100
AcDbCircle
 10
548.7497170665663
 20
578.2449436610577
 30
0.0
 40
4.0
100
AcDbArc
 50
93.73268596241562
 51
176.9999999999946
1001
GENIUS_GENODEF_13
1002
{
1000
HIER
1070
     0
1002
}
1002
{
1000
MANEDIT
1070
     0
1002
}
1002
{
1000
NOSEL
1070
     0
1002
}
1002
{
1000
BEHIND
1070
     0
1002
}
1002
{
1000
REACTOR
1002
}
1001
GENIUS_GENOBJ-N-FIL_13
1002
{
1000
OWNER
1000
GEN
1002
}
  0
LINE
  5
7BE
330
1F
100
AcDbEntity
  8
AM_0
 62
     7
100
AcDbLine
 10
543.7619027376674
 20
559.5010671155188
 30
0.0
 11
544.7551989275487
 21
578.4542874860298
 31
0.0
  0
ARC
  5
7BF
330
1F
100
AcDbEntity
  8
AM_0
 62
     7
100
AcDbCircle
 10
550.9568563383488
 20
582.7316485426128
 30
0.0
 40
1.0
100
AcDbArc
 50
64.32034398483651
 51
149.9874957708108
1001
GENIUS_GENODEF_13
1002
{
1000
HIER
1070
     0
1002
}
1002
{
1000
MANEDIT
1070
     0
1002
}
1002
{
1000
NOSEL
1070
     0
1002
}
1002
{
1000
BEHIND
1070
     0
1002
}
1002
{
1000
REACTOR
1002
}
1001
GENIUS_GENOBJ-N-FIL_13
1002
{
1000
OWNER
1000
GEN
1002
}
  0
ARC
  5
7C0
330
1F
100
AcDbEntity
  8
AM_0
 62
     7
100
AcDbCircle
 10
541.7646436681584
 20
559.6057390280048
 30
0.0
 40
2.0
100
AcDbArc
 50
286.4712206344908
 51
356.9999999999946
1001
GENIUS_GENODEF_13
1002
{
1000
HIER
1070
     0
1002
}
1002
{
1000
MANEDIT
1070
     0
1002
}
1002
{
1000
NOSEL
1070
     0
1002
}
1002
{
1000
BEHIND
1070
     0
1002
}
1002
{
1000
REACTOR
1002
}
1001
GENIUS_GENOBJ-N-FIL_13
1002
{
1000
OWNER
1000
GEN
1002
}
  0
LINE
  5
7C1
330
1F
100
AcDbEntity
  8
AM_0
 62
     7
100
AcDbLine
 10
540.8104745670603
 20
541.3991079867399
 30
0.0
 11
541.6166152299206
 21
556.7811881643316
 31
0.0
  0
ARC
  5
7C2
330
1F
100
AcDbEntity
  8
AM_0
 62
     7
100
AcDbCircle
 10
542.6152447646759
 20
556.7288522080889
 30
0.0
 40
1.0
100
AcDbArc
 50
106.4712206344908
 51
176.9999999999946
1001
GENIUS_GENODEF_13
1002
{
1000
HIER
1070
     0
1002
}
1002
{
1000
MANEDIT
1070
     0
1002
}
1002
{
1000
NOSEL
1070
     0
1002
}
1002
{
1000
BEHIND
1070
     0
1002
}
1002
{
1000
REACTOR
1002
}
1001
GENIUS_GENOBJ-N-FIL_13
1002
{
1000
OWNER
1000
GEN
1002
}
  0
ARC
  5
7C3
330
1F
100
AcDbEntity
  8
AM_0
 62
     7
100
AcDbCircle
 10
532.8214382890235
 20
541.8177956366828
 30
0.0
 40
8.0
100
AcDbArc
 50
276.1307821741098
 51
356.9999999999946
1001
GENIUS_GENODEF_13
1002
{
1000
HIER
1070
     0
1002
}
1002
{
1000
MANEDIT
1070
     0
1002
}
1002
{
1000
NOSEL
1070
     0
1002
}
1002
{
1000
BEHIND
1070
     0
1002
}
1002
{
1000
REACTOR
1002
}
1001
GENIUS_GENOBJ-N-FIL_13
1002
{
1000
OWNER
1000
GEN
1002
}
  0
LINE
  5
7C4
330
1F
100
AcDbEntity
  8
AM_0
 62
     7
100
AcDbLine
 10
507.5662611225976
 20
533.8177956366828
 30
0.0
 11
533.6758244036039
 21
533.8635499548346
 31
0.0
  0
HATCH
  5
7C5
330
1F
100
AcDbEntity
  8
AM_0
 62
     7
100
AcDbHatch
 10
0.0
 20
0.0
 30
0.0
210
0.0
220
0.0
230
1.0
  2
_U
 70
     0
 71
     0
 91
        1
 92
        1
 93
        4
 72
     1
 10
507.5662611225976
 20
533.8177956366828
 11
514.0662611225978
 21
533.8291862166316
 72
     1
 10
514.0662611225978
 20
533.8291862166316
 11
514.0662611225978
 21
536.8177956366828
 72
     1
 10
514.0662611225978
 20
536.8177956366828
 11
507.5662611225976
 21
536.8177956366828
 72
     1
 10
507.5662611225976
 20
536.8177956366828
 11
507.5662611225976
 21
533.8177956366828
 97
        0
 75
     0
 76
     0
 52
45.0
 41
1.5
 77
     0
 78
     1
 53
45.0
 43
453.7859783583203
 44
409.8784320721343
 45
-1.060660171779817
 46
1.060660171779817
 79
     0
 98
        1
 10
453.7859783583203
 20
409.8784320721343
1001
GENIUS_GENODEF_13
1002
{
1000
HIER
1070
     0
1002
}
1002
{
1000
MANEDIT
1070
     0
1002
}
1002
{
1000
NOSEL
1070
     0
1002
}
1002
{
1000
BEHIND
1070
     0
1002
}
1002
{
1000
REACTOR
1002
}
1001
GENIUS_GENOBJ-N-HTC_13
1002
{
1000
OWNER
1000
GEN
1002
}
1001
GENIUS_GENHATCH_13
1002
{
1000
DATA
1040
45.0
1042
2.5
1000
_U
1070
     0
1011
510.5344698958893
1021
620.7912612694636
1031
0.0
1002
}
1002
{
1000
UCS
1010
0.0
1020
0.0
1030
0.0
1010
1.0
1020
0.0
1030
0.0
1010
0.0
1020
1.0
1030
0.0
1002
}
  0
HATCH
  5
7C6
330
1F
100
AcDbEntity
  8
AM_0
 62
     7
100
AcDbHatch
 10
0.0
 20
0.0
 30
0.0
210
0.0
220
0.0
230
1.0
  2
_U
 70
     0
 71
     0
 91
        1
 92
        1
 93
       23
 72
     1
 10
552.5432855729826
 20
583.0811449879409
 11
553.4948918394284
 21
585.9509887576697
 72
     2
 10
696.5587980622807
 20
885.545245605631
 40
332.0000000000344
 50
115.5256665021862
 51
115.6871964587129
 73
     0
 72
     2
 10
548.7497170665663
 20
578.2449436610577
 40
8.999999999999914
 50
64.31280354129654
 51
87.56170740711004
 73
     1
 72
     2
 10
549.1326075757711
 20
586.2367952422378
 40
0.9999999999999998
 50
89.99999999993894
 51
176.0170048390352
 73
     1
 72
     2
 10
547.1354051064134
 20
586.3339022353358
 40
0.9999999999999575
 50
1.584234776147196
 51
78.26016529544455
 73
     0
 72
     2
 10
548.7631494885643
 20
578.5012495412367
 40
6.999999999999927
 50
101.7398347045586
 51
177.0000000000002
 73
     1
 72
     1
 10
541.7727427452826
 20
578.8676012349369
 11
540.8706860458903
 21
561.6553340537567
 72
     2
 10
539.8720565111357
 20
561.7076700099986
 40
0.9999999999999326
 50
2.999999999995996
 51
93.00000000000332
 73
     0
 72
     2
 10
539.7673845986496
 20
559.7104109404908
 40
0.9999999999999971
 50
87.00000000000089
 51
176.9999999999976
 73
     1
 72
     1
 10
538.7687550638943
 20
559.7627468967337
 11
537.8145859627958
 21
541.5561158554687
 72
     2
 10
532.8214382890235
 20
541.8177956366828
 40
4.999999999999943
 50
2.999999999999709
 51
90.00000000000046
 73
     0
 72
     1
 10
532.8214382890235
 20
536.8177956366828
 11
526.0662611225975
 21
536.8177956366828
 72
     1
 10
526.0662611225975
 20
536.8177956366828
 11
526.0662611225975
 21
533.8502149796148
 72
     1
 10
526.0662611225975
 20
533.8502149796148
 11
533.6758244036039
 21
533.8635499548346
 72
     2
 10
532.8214382890235
 20
541.8177956366828
 40
8.000000000000026
 50
276.1307821741113
 51
357.0000000000002
 73
     1
 72
     1
 10
540.8104745670603
 20
541.3991079867399
 11
541.6166152299215
 21
556.7811881643316
 72
     2
 10
542.6152447646759
 20
556.7288522080889
 40
1.000000000000017
 50
183.0000000000006
 51
253.5287793655104
 73
     0
 72
     2
 10
541.7646436681584
 20
559.6057390280048
 40
2.000000000000043
 50
286.4712206344913
 51
356.9999999999994
 73
     1
 72
     1
 10
543.7619027376674
 20
559.5010671155188
 11
544.7551989275478
 21
578.4542874860298
 72
     2
 10
548.7497170665663
 20
578.2449436610577
 40
4.000000000000006
 50
182.9999999999998
 51
266.267314037591
 73
     0
 72
     2
 10
548.35910754882
 20
584.2322155109608
 40
2.000000000000025
 50
273.7326859624086
 51
329.9874957708012
 73
     1
 72
     2
 10
550.9568563383488
 20
582.7316485426128
 40
0.9999999999999291
 50
210.0125042291952
 51
295.6796560151707
 73
     0
 72
     2
 10
696.5587980622481
 20
885.5452456055658
 40
334.9999999999615
 50
244.3203439848419
 51
244.5389730046084
 73
     1
 97
        0
 75
     0
 76
     0
 52
45.0
 41
1.5
 77
     0
 78
     1
 53
45.0
 43
453.7859783583203
 44
409.8784320721343
 45
-1.060660171779817
 46
1.060660171779817
 79
     0
 98
        1
 10
453.7859783583203
 20
409.8784320721343
1001
GENIUS_GENODEF_13
1002
{
1000
HIER
1070
     0
1002
}
1002
{
1000
MANEDIT
1070
     0
1002
}
1002
{
1000
NOSEL
1070
     0
1002
}
1002
{
1000
BEHIND
1070
     0
1002
}
1002
{
1000
REACTOR
1002
}
1001
GENIUS_GENOBJ-N-HTC_13
1002
{
1000
OWNER
1000
GEN
1002
}
1001
GENIUS_GENHATCH_13
1002
{
1000
DATA
1040
45.0
1042
2.5
1000
_U
1070
     0
1011
542.268300361337
1021
652.2366655563419
1031
0.0
1002
}
1002
{
1000
UCS
1010
0.0
1020
0.0
1030
0.0
1010
1.0
1020
0.0
1030
0.0
1010
0.0
1020
1.0
1030
0.0
1002
}
  0
ELLIPSE
  5
7C7
330
1F
100
AcDbEntity
  8
AM_3
100
AcDbEllipse
 10
1688.309912269986
 20
1239.10004833644
 30
0.0
 11
3.0
 21
-0.0000000000000006
 31
0.0
210
0.0
220
0.0
230
1.0
 40
0.6301633309658806
 41
3.14159265358979
 42
6.283185307179581
  0
ARC
  5
7C8
330
1F
100
AcDbEntity
  8
AM_0
 62
     7
100
AcDbCircle
 10
696.5587980622664
 20
885.5452456055997
 30
0.0
 40
340.0
100
AcDbArc
 50
244.3128035412502
 51
251.1450310927047
  0
LINE
  5
7C9
330
1F
100
AcDbEntity
  8
AM_0
 62
     7
100
AcDbLine
 10
545.8606160558677
 20
544.5965993855487
 30
0.0
 11
547.7507101429924
 21
578.2903112443769
 31
0.0
  0
ARC
  5
7CA
330
1F
100
AcDbEntity
  8
AM_0
 62
     7
100
AcDbCircle
 10
548.7497170665663
 20
578.2449436610577
 30
0.0
 40
1.0
100
AcDbArc
 50
64.31280354125025
 51
176.9999999999946
1001
GENIUS_GENODEF_13
1002
{
1000
HIER
1070
     0
1002
}
1002
{
1000
MANEDIT
1070
     0
1002
}
1002
{
1000
NOSEL
1070
     0
1002
}
1002
{
1000
BEHIND
1070
     0
1002
}
1002
{
1000
REACTOR
1002
}
1001
GENIUS_GENOBJ-N-FIL_13
1002
{
1000
OWNER
1000
GEN
1002
}
  0
ARC
  5
7CB
330
1F
100
AcDbEntity
  8
AM_0
 62
     7
100
AcDbCircle
 10
587.6492439357839
 20
566.6287847259978
 30
0.0
 40
3.0
100
AcDbArc
 50
251.1450310927047
 51
341.6550892792684
1001
GENIUS_GENODEF_13
1002
{
1000
HIER
1070
     0
1002
}
1002
{
1000
MANEDIT
1070
     0
1002
}
1002
{
1000
NOSEL
1070
     0
1002
}
1002
{
1000
BEHIND
1070
     0
1002
}
1002
{
1000
REACTOR
1002
}
1001
GENIUS_GENOBJ-N-FIL_13
1002
{
1000
OWNER
1000
GEN
1002
}
  0
ARC
  5
7CC
330
1F
100
AcDbEntity
  8
AM_0
 62
     7
100
AcDbCircle
 10
534.0890191107076
 20
545.6774392177408
 30
0.0
 40
11.82111286563938
100
AcDbArc
 50
267.9968775737723
 51
354.7539480148087
  0
POINT
  5
7CD
330
1F
100
AcDbEntity
  8
AM_0
  6
ByBlock
 62
     7
380
     1
100
AcDbPoint
 10
567.4173291615765
 20
579.6915534418917
 30
0.0
  0
ARC
  5
7CE
330
1F
100
AcDbEntity
  8
AM_0
 62
     7
100
AcDbCircle
 10
696.5587980622664
 20
885.5452456055997
 30
0.0
 40
332.0
100
AcDbArc
 50
244.3128035412502
 51
251.6550892792488
  0
LINE
  5
7CF
330
1F
100
AcDbEntity
  8
AM_0
 62
     7
100
AcDbLine
 10
553.4948918394291
 20
585.9509887576697
 30
0.0
 11
552.5432855729826
 21
583.0811449879409
 31
0.0
  0
LINE
  5
7D0
330
1F
100
AcDbEntity
  8
AM_0
 62
     7
100
AcDbLine
 10
590.6435590306714
 20
570.8931168333947
 30
0.0
 11
589.6993398086212
 21
568.0455508313569
 31
0.0
  0
LINE
  5
7D1
330
1F
100
AcDbEntity
  8
AM_0
 62
     7
100
AcDbLine
 10
590.4967811342974
 20
565.6845750548567
 30
0.0
 11
591.1047580978005
 21
567.5723426813338
 31
0.0
  0
LINE
  5
7D2
330
1F
100
AcDbEntity
  8
AM_3
100
AcDbLine
 10
1691.309912269987
 20
1269.232982874885
 30
0.0
 11
1691.309912269987
 21
1239.10004833644
 31
0.0
  0
LINE
  5
7D3
330
1F
100
AcDbEntity
  8
AM_3
100
AcDbLine
 10
1685.309912269986
 20
1269.232982874885
 30
0.0
 11
1685.309912269986
 21
1239.10004833644
 31
0.0
  0
LINE
  5
7D4
330
1F
100
AcDbEntity
  8
AM_0
 62
     7
100
AcDbLine
 10
539.7620512537754
 20
578.7159672672437
 30
0.0
 11
537.8145859627964
 21
541.5561158554687
 31
0.0
  0
LINE
  5
7D5
330
1F
100
AcDbEntity
  8
AM_0
 62
     7
100
AcDbLine
 10
757.6639209969954
 20
1290.07331853731
 30
0.0
 11
767.5224701433647
 21
1290.07331853731
 31
0.0
  0
LINE
  5
7D6
330
1F
100
AcDbEntity
  8
AM_0
 62
     7
100
AcDbLine
 10
757.6639209969954
 20
1281.244507298652
 30
0.0
 11
757.6639209969954
 21
1290.07331853731
 31
0.0
  0
ARC
  5
7D7
330
1F
100
AcDbEntity
  8
AM_0
 62
     7
100
AcDbCircle
 10
752.7877662176962
 20
1281.207250313728
 30
0.0
 40
3.000000009374998
100
AcDbArc
 50
215.5555928020188
 51
270.0
  0
LINE
  5
7D8
330
1F
100
AcDbEntity
  8
AM_0
 62
     7
100
AcDbLine
 10
752.7877662176962
 20
1278.207250304353
 30
0.0
 11
772.7877662801946
 21
1278.207250304353
 31
0.0
  0
ARC
  5
7D9
330
1F
100
AcDbEntity
  8
AM_0
 62
     7
100
AcDbCircle
 10
747.9064560489387
 20
1277.718294701888
 30
0.0
 40
3.000000009374998
100
AcDbArc
 50
35.55559280201883
 51
93.76378383210479
1001
GENIUS_GENODEF_13
1002
{
1000
HIER
1070
     0
1002
}
1002
{
1000
MANEDIT
1070
     0
1002
}
1002
{
1000
NOSEL
1070
     0
1002
}
1002
{
1000
BEHIND
1070
     0
1002
}
1002
{
1000
REACTOR
1002
}
1001
GENIUS_GENOBJ-N-FIL_13
1002
{
1000
OWNER
1000
GEN
1002
}
  0
LINE
  5
7DA
330
1F
100
AcDbEntity
  8
AM_0
 62
     7
100
AcDbLine
 10
755.5297941452748
 20
1280.171417221102
 30
0.0
 11
755.5297941452748
 21
1278.171417214853
 31
0.0
  0
LINE
  5
7DB
330
1F
100
AcDbEntity
  8
AM_0
 62
     7
100
AcDbLine
 10
755.5297941452748
 20
1278.171417214853
 30
0.0
 11
759.5297941577746
 21
1278.171417214853
 31
0.0
  0
LINE
  5
7DC
330
1F
100
AcDbEntity
  8
AM_0
 62
     7
100
AcDbLine
 10
755.5297941452748
 20
1280.171417221102
 30
0.0
 11
769.5297941890247
 21
1280.171417221102
 31
0.0
  0
LINE
  5
7DD
330
1F
100
AcDbEntity
  8
AM_0
 62
     7
100
AcDbLine
 10
757.6639209969954
 20
1281.244507298652
 30
0.0
 11
767.5224701433647
 21
1281.244507298652
 31
0.0
  0
ARC
  5
7DE
330
1F
100
AcDbEntity
  8
AM_0
 62
     7
100
AcDbCircle
 10
762.5159612397866
 20
1290.058156609151
 30
0.0
 40
1.539277951260048
100
AcDbArc
 50
0.5643740561916069
 51
179.4356259438084
  0
LINE
  5
7DF
330
1F
100
AcDbEntity
  8
AM_0
 62
     7
100
AcDbLine
 10
767.5224701433647
 20
1290.07331853731
 30
0.0
 11
767.5224701433647
 21
1281.244507298652
 31
0.0
  0
ARC
  5
7E0
330
1F
100
AcDbEntity
  8
AM_0
 62
     7
100
AcDbCircle
 10
772.7877662801946
 20
1281.207250313728
 30
0.0
 40
3.000000009374998
100
AcDbArc
 50
270.0
 51
324.4444071979811
  0
ARC
  5
7E1
330
1F
100
AcDbEntity
  8
AM_0
 62
     7
100
AcDbCircle
 10
777.6690764489521
 20
1277.718294701888
 30
0.0
 40
3.000000009374998
100
AcDbArc
 50
86.23621616789518
 51
144.4444071979811
1001
GENIUS_GENODEF_13
1002
{
1000
HIER
1070
     0
1002
}
1002
{
1000
MANEDIT
1070
     0
1002
}
1002
{
1000
NOSEL
1070
     0
1002
}
1002
{
1000
BEHIND
1070
     0
1002
}
1002
{
1000
REACTOR
1002
}
1001
GENIUS_GENOBJ-N-FIL_13
1002
{
1000
OWNER
1000
GEN
1002
}
  0
LINE
  5
7E2
330
1F
100
AcDbEntity
  8
AM_0
 62
     7
100
AcDbLine
 10
769.5297941890247
 20
1280.171417221102
 30
0.0
 11
769.5297941890247
 21
1278.171417214853
 31
0.0
  0
LINE
  5
7E3
330
1F
100
AcDbEntity
  8
AM_0
 62
     7
100
AcDbLine
 10
769.5297941890247
 20
1278.171417214853
 30
0.0
 11
765.5297941765248
 21
1278.171417214853
 31
0.0
  0
CIRCLE
  5
7E4
330
1F
100
AcDbEntity
  8
AM_3
100
AcDbCircle
 10
1478.298751852261
 20
941.6720393631496
 30
0.0
 40
5.999999999999999
  0
ARC
  5
7E5
330
1F
100
AcDbEntity
  8
AM_3
100
AcDbCircle
 10
1480.463815361722
 20
942.9220393631499
 30
0.0
 40
15.0
100
AcDbArc
 50
120.0000000000005
 51
300.0000000000005
  0
LINE
  5
7E6
330
1F
100
AcDbEntity
  8
AM_3
100
AcDbLine
 10
1472.963815361722
 20
955.9124204199166
 30
0.0
 11
1481.845059308157
 21
961.0400090031298
 31
0.0
  0
LINE
  5
7E7
330
1F
100
AcDbEntity
  8
AM_3
100
AcDbLine
 10
1487.963815361722
 20
929.931658306384
 30
0.0
 11
1496.845059308157
 21
935.0592468895959
 31
0.0
  0
LINE
  5
7E8
330
1F
100
AcDbEntity
  8
AM_3
100
AcDbLine
 10
1473.256307103319
 20
950.4058098626758
 30
0.0
 11
1483.147256544532
 21
933.2741828953967
 31
0.0
  0
LINE
  5
7E9
330
1F
100
AcDbEntity
  8
AM_3
100
AcDbLine
 10
1498.954196418488
 20
940.8957599215208
 30
0.0
 11
1487.954196418489
 21
959.9483188047788
 31
0.0
  0
LINE
  5
7EA
330
1F
100
AcDbEntity
  8
AM_3
100
AcDbLine
 10
1546.15258092474
 20
968.1457599215207
 30
0.0
 11
1535.15258092474
 21
987.1983188047787
 31
0.0
  0
LINE
  5
7EB
330
1F
100
AcDbEntity
  8
AM_3
100
AcDbLine
 10
1488.686247226057
 20
962.6803696123481
 30
0.0
 11
1532.42053011717
 21
987.930369612348
 31
0.0
1001
GENIUS_GENODEF_13
1002
{
1000
HIER
1070
     0
1002
}
1002
{
1000
MANEDIT
1070
     0
1002
}
1002
{
1000
NOSEL
1070
     0
1002
}
1002
{
1000
BEHIND
1070
     0
1002
}
1002
{
1000
REACTOR
1002
}
1001
GENIUS_GENOBJ-N-CEN_13
1002
{
1000
OWNER
1000
GEN
1002
}
  0
LINE
  5
7EC
330
1F
100
AcDbEntity
  8
AM_3
100
AcDbLine
 10
1501.686247226057
 20
940.1637091139528
 30
0.0
 11
1545.42053011717
 21
965.4137091139519
 31
0.0
1001
GENIUS_GENODEF_13
1002
{
1000
HIER
1070
     0
1002
}
1002
{
1000
MANEDIT
1070
     0
1002
}
1002
{
1000
NOSEL
1070
     0
1002
}
1002
{
1000
BEHIND
1070
     0
1002
}
1002
{
1000
REACTOR
1002
}
1001
GENIUS_GENOBJ-N-CEN_13
1002
{
1000
OWNER
1000
GEN
1002
}
  0
LINE
  5
7ED
330
1F
100
AcDbEntity
  8
AM_3
100
AcDbLine
 10
1481.546245676041
 20
949.3204834883988
 30
0.0
 11
1483.803541881597
 21
950.6237340603147
 31
0.0
1001
GENIUS_GENODEF_13
1002
{
1000
HIER
1070
     0
1002
}
1002
{
1000
MANEDIT
1070
     0
1002
}
1002
{
1000
NOSEL
1070
     0
1002
}
1002
{
1000
BEHIND
1070
     0
1002
}
1002
{
1000
REACTOR
1002
}
1001
GENIUS_GENOBJ-N-CEN_13
1002
{
1000
OWNER
1000
GEN
1002
}
  0
LINE
  5
7EE
330
1F
100
AcDbEntity
  8
AM_3
100
AcDbLine
 10
1486.546245676042
 20
940.6602294505535
 30
0.0
 11
1499.936150962367
 21
948.3908948720367
 31
0.0
1001
GENIUS_GENODEF_13
1002
{
1000
HIER
1070
     0
1002
}
1002
{
1000
MANEDIT
1070
     0
1002
}
1002
{
1000
NOSEL
1070
     0
1002
}
1002
{
1000
BEHIND
1070
     0
1002
}
1002
{
1000
REACTOR
1002
}
1001
GENIUS_GENOBJ-N-CEN_13
1002
{
1000
OWNER
1000
GEN
1002
}
  0
LINE
  5
7EF
330
1F
100
AcDbEntity
  8
AM_3
100
AcDbLine
 10
1484.441056697674
 20
955.0332552953177
 30
0.0
 11
1489.204196418489
 21
957.7832552953177
 31
0.0
1001
GENIUS_GENODEF_13
1002
{
1000
HIER
1070
     0
1002
}
1002
{
1000
MANEDIT
1070
     0
1002
}
1002
{
1000
NOSEL
1070
     0
1002
}
1002
{
1000
BEHIND
1070
     0
1002
}
1002
{
1000
REACTOR
1002
}
1001
GENIUS_GENOBJ-N-CEN_13
1002
{
1000
OWNER
1000
GEN
1002
}
  0
LINE
  5
7F0
330
1F
100
AcDbEntity
  8
AM_3
100
AcDbLine
 10
1487.941056697674
 20
948.9710774688267
 30
0.0
 11
1492.704196418489
 21
951.7210774688267
 31
0.0
1001
GENIUS_GENODEF_13
1002
{
1000
HIER
1070
     0
1002
}
1002
{
1000
MANEDIT
1070
     0
1002
}
1002
{
1000
NOSEL
1070
     0
1002
}
1002
{
1000
BEHIND
1070
     0
1002
}
1002
{
1000
REACTOR
1002
}
1001
GENIUS_GENOBJ-N-CEN_13
1002
{
1000
OWNER
1000
GEN
1002
}
  0
LINE
  5
7F1
330
1F
100
AcDbEntity
  8
AM_3
100
AcDbLine
 10
1492.941056697673
 20
940.3108234309828
 30
0.0
 11
1497.704196418488
 21
943.0608234309827
 31
0.0
1001
GENIUS_GENODEF_13
1002
{
1000
HIER
1070
     0
1002
}
1002
{
1000
MANEDIT
1070
     0
1002
}
1002
{
1000
NOSEL
1070
     0
1002
}
1002
{
1000
BEHIND
1070
     0
1002
}
1002
{
1000
REACTOR
1002
}
1001
GENIUS_GENOBJ-N-CEN_13
1002
{
1000
OWNER
1000
GEN
1002
}
  0
LINE
  5
7F2
330
1F
100
AcDbEntity
  8
AM_3
100
AcDbLine
 10
1489.441056697674
 20
946.3730012574727
 30
0.0
 11
1494.204196418488
 21
949.1230012574735
 31
0.0
1001
GENIUS_GENODEF_13
1002
{
1000
HIER
1070
     0
1002
}
1002
{
1000
MANEDIT
1070
     0
1002
}
1002
{
1000
NOSEL
1070
     0
1002
}
1002
{
1000
BEHIND
1070
     0
1002
}
1002
{
1000
REACTOR
1002
}
1001
GENIUS_GENOBJ-N-CEN_13
1002
{
1000
OWNER
1000
GEN
1002
}
  0
ARC
  5
7F3
330
1F
100
AcDbEntity
  8
AM_3
100
AcDbCircle
 10
1486.191056697673
 20
952.0021663820708
 30
0.0
 40
3.499999999999996
100
AcDbArc
 50
120.0000000000005
 51
300.0000000000005
  0
ARC
  5
7F4
330
1F
100
AcDbEntity
  8
AM_3
100
AcDbCircle
 10
1491.191056697674
 20
943.3419123442266
 30
0.0
 40
3.499999999999996
100
AcDbArc
 50
120.0000000000005
 51
300.0000000000005
  0
ARC
  5
7F5
330
1F
100
AcDbEntity
  8
AM_3
100
AcDbCircle
 10
1487.822629780001
 20
952.607807409158
 30
0.0
 40
10.33602304889328
100
AcDbArc
 50
83.33818125729768
 51
125.3327497551277
  0
ARC
  5
7F6
330
1F
100
AcDbEntity
  8
AM_3
100
AcDbCircle
 10
1490.204196418488
 20
956.0512044877487
 30
0.0
 40
1.999999999999998
100
AcDbArc
 50
120.0000000000005
 51
210.0000000000123
  0
LINE
  5
7F7
330
1F
100
AcDbEntity
  8
AM_3
100
AcDbLine
 10
1494.972145610919
 20
943.7928742385517
 30
0.0
 11
1493.472145610919
 21
946.3909504499047
 31
0.0
  0
ARC
  5
7F8
330
1F
100
AcDbEntity
  8
AM_3
100
AcDbCircle
 10
1491.704196418488
 20
953.4531282763955
 30
0.0
 40
1.999999999999998
100
AcDbArc
 50
210.0000000000123
 51
300.0000000000005
  0
ARC
  5
7F9
330
1F
100
AcDbEntity
  8
AM_3
100
AcDbCircle
 10
1496.704196418489
 20
944.7928742385517
 30
0.0
 40
1.999999999999998
100
AcDbArc
 50
210.0000000000123
 51
300.0000000000005
  0
ARC
  5
7FA
330
1F
100
AcDbEntity
  8
AM_3
100
AcDbCircle
 10
1495.204196418489
 20
947.3909504499047
 30
0.0
 40
1.999999999999998
100
AcDbArc
 50
120.0000000000005
 51
210.0000000000123
  0
LINE
  5
7FB
330
1F
100
AcDbEntity
  8
AM_3
100
AcDbLine
 10
1489.972145610918
 20
952.4531282763955
 30
0.0
 11
1488.472145610919
 21
955.0512044877487
 31
0.0
  0
LINE
  5
7FC
330
1F
100
AcDbEntity
  8
AM_3
100
AcDbLine
 10
1492.995586719547
 20
953.6213625451519
 30
0.0
 11
1499.095686381733
 21
957.1432567271989
 31
0.0
1001
GENIUS_GENODEF_13
1002
{
1000
HIER
1070
     0
1002
}
1002
{
1000
MANEDIT
1070
     0
1002
}
1002
{
1000
NOSEL
1070
     0
1002
}
1002
{
1000
BEHIND
1070
     0
1002
}
1002
{
1000
REACTOR
1002
}
1001
GENIUS_GENOBJ-N-CEN_13
1002
{
1000
OWNER
1000
GEN
1002
}
  0
LINE
  5
7FD
330
1F
100
AcDbEntity
  8
AM_3
100
AcDbLine
 10
1495.995586719548
 20
948.4252101224448
 30
0.0
 11
1502.095686381734
 21
951.9471043044928
 31
0.0
1001
GENIUS_GENODEF_13
1002
{
1000
HIER
1070
     0
1002
}
1002
{
1000
MANEDIT
1070
     0
1002
}
1002
{
1000
NOSEL
1070
     0
1002
}
1002
{
1000
BEHIND
1070
     0
1002
}
1002
{
1000
REACTOR
1002
}
1001
GENIUS_GENOBJ-N-CEN_13
1002
{
1000
OWNER
1000
GEN
1002
}
  0
ELLIPSE
  5
7FE
330
1F
100
AcDbEntity
  8
AM_3
100
AcDbEllipse
 10
1500.595686381734
 20
954.5451805158458
 30
0.0
 11
-1.499999999999989
 21
2.598076211353304
 31
0.0
210
0.0
220
0.0
230
1.0
 40
0.7741598128011863
 41
3.14159265358979
 42
6.283185307179581
  0
LINE
  5
7FF
330
1F
100
AcDbEntity
  8
AM_3
100
AcDbLine
 10
1495.815912346958
 20
952.9402772285807
 30
0.0
 11
1500.095686381734
 21
955.4112059196297
 31
0.0
1001
GENIUS_GENODEF_13
1002
{
1000
HIER
1070
     0
1002
}
1002
{
1000
MANEDIT
1070
     0
1002
}
1002
{
1000
NOSEL
1070
     0
1002
}
1002
{
1000
BEHIND
1070
     0
1002
}
1002
{
1000
REACTOR
1002
}
1001
GENIUS_GENOBJ-N-CEN_13
1002
{
1000
OWNER
1000
GEN
1002
}
  0
SPLINE
  5
800
330
1F
100
AcDbEntity
  8
AM_3
100
AcDbSpline
210
0.0
220
0.0
230
1.0
 70
     8
 71
     3
 72
    18
 73
    14
 74
     0
 42
0.0000000001
 43
0.0000000001
 40
3.628703069452225
 40
3.628703069452225
 40
3.628703069452225
 40
3.628703069452225
 40
3.912493910190088
 40
3.912493910190088
 40
4.196284750927953
 40
4.196284750927953
 40
4.622228449873871
 40
4.622228449873871
 40
5.048172148819785
 40
5.048172148819785
 40
5.474115847765705
 40
5.474115847765705
 40
5.796074891333201
 40
5.796074891333201
 40
5.796074891333201
 40
5.796074891333201
 10
1501.059306381835
 20
953.6576353611566
 30
0.0
 10
1501.068852440813
 20
953.6775417202207
 30
0.0
 10
1501.085142135422
 20
953.7205991546978
 30
0.0
 10
1501.105472813921
 20
953.8557849494347
 30
0.0
 10
1501.109049241988
 20
953.9474008541299
 30
0.0
 10
1501.079671003771
 20
954.2140985926288
 30
0.0
 10
1501.02598341656
 20
954.4071538090108
 30
0.0
 10
1500.846534524495
 20
954.7751358054856
 30
0.0
 10
1500.721478208176
 20
954.9487292228668
 30
0.0
 10
1500.456832152659
 20
955.2122758679438
 30
0.0
 10
1500.318676339094
 20
955.3007861679907
 30
0.0
 10
1500.139278866577
 20
955.3790127454428
 30
0.0
 10
1500.083832717248
 20
955.3885469772048
 30
0.0
 10
1500.058859730815
 20
955.3904597909788
 30
0.0
  0
LINE
  5
801
330
1F
100
AcDbEntity
  8
AM_3
100
AcDbLine
 10
1496.815912346955
 20
951.2082264210119
 30
0.0
 11
1501.095686381733
 21
953.6791551120616
 31
0.0
1001
GENIUS_GENODEF_13
1002
{
1000
HIER
1070
     0
1002
}
1002
{
1000
MANEDIT
1070
     0
1002
}
1002
{
1000
NOSEL
1070
     0
1002
}
1002
{
1000
BEHIND
1070
     0
1002
}
1002
{
1000
REACTOR
1002
}
1001
GENIUS_GENOBJ-N-CEN_13
1002
{
1000
OWNER
1000
GEN
1002
}
  0
ARC
  5
802
330
1F
100
AcDbEntity
  8
AM_3
100
AcDbCircle
 10
1492.531343753868
 20
944.452075568112
 30
0.0
 40
10.33602304889328
100
AcDbArc
 50
294.6672502448756
 51
336.6618187426926
  0
ARC
  5
803
330
1F
100
AcDbEntity
  8
AM_3
100
AcDbCircle
 10
1489.686247226057
 20
960.9483188047788
 30
0.0
 40
1.999999999999998
100
AcDbArc
 50
120.0000000000005
 51
210.0000000000123
1001
GENIUS_GENOBJ-N-CEN_13
1002
{
1000
OWNER
1000
GEN
1002
}
1001
GENIUS_GENODEF_13
1002
{
1000
HIER
1070
     0
1002
}
1002
{
1000
MANEDIT
1070
     0
1002
}
1002
{
1000
NOSEL
1070
     0
1002
}
1002
{
1000
BEHIND
1070
     0
1002
}
1002
{
1000
REACTOR
1002
}
1001
GENIUS_GENOBJ-N-FIL_13
1002
{
1000
OWNER
1000
GEN
1002
}
  0
ARC
  5
804
330
1F
100
AcDbEntity
  8
AM_3
100
AcDbCircle
 10
1500.686247226057
 20
941.8957599215207
 30
0.0
 40
1.999999999999998
100
AcDbArc
 50
210.0000000000123
 51
300.0000000000005
1001
GENIUS_GENOBJ-N-CEN_13
1002
{
1000
OWNER
1000
GEN
1002
}
1001
GENIUS_GENODEF_13
1002
{
1000
HIER
1070
     0
1002
}
1002
{
1000
MANEDIT
1070
     0
1002
}
1002
{
1000
NOSEL
1070
     0
1002
}
1002
{
1000
BEHIND
1070
     0
1002
}
1002
{
1000
REACTOR
1002
}
1001
GENIUS_GENOBJ-N-FIL_13
1002
{
1000
OWNER
1000
GEN
1002
}
  0
ARC
  5
805
330
1F
100
AcDbEntity
  8
AM_3
100
AcDbCircle
 10
1533.42053011717
 20
986.1983188047787
 30
0.0
 40
1.999999999999998
100
AcDbArc
 50
30.00000000001226
 51
120.0000000000005
1001
GENIUS_GENODEF_13
1002
{
1000
HIER
1070
     0
1002
}
1002
{
1000
MANEDIT
1070
     0
1002
}
1002
{
1000
NOSEL
1070
     0
1002
}
1002
{
1000
BEHIND
1070
     0
1002
}
1002
{
1000
REACTOR
1002
}
1001
GENIUS_GENOBJ-N-FIL_13
1002
{
1000
OWNER
1000
GEN
1002
}
  0
ARC
  5
806
330
1F
100
AcDbEntity
  8
AM_3
100
AcDbCircle
 10
1544.42053011717
 20
967.1457599215207
 30
0.0
 40
1.999999999999998
100
AcDbArc
 50
300.0000000000005
 51
30.00000000001226
1001
GENIUS_GENOBJ-N-CEN_13
1002
{
1000
OWNER
1000
GEN
1002
}
1001
GENIUS_GENODEF_13
1002
{
1000
HIER
1070
     0
1002
}
1002
{
1000
MANEDIT
1070
     0
1002
}
1002
{
1000
NOSEL
1070
     0
1002
}
1002
{
1000
BEHIND
1070
     0
1002
}
1002
{
1000
REACTOR
1002
}
1001
GENIUS_GENOBJ-N-FIL_13
1002
{
1000
OWNER
1000
GEN
1002
}
  0
LINE
  5
807
330
1F
100
AcDbEntity
  8
AM_3
100
AcDbLine
 10
1496.815912346955
 20
951.2082264210119
 30
0.0
 11
1495.815912346956
 21
952.9402772285807
 31
0.0
  0
LINE
  5
808
330
1F
100
AcDbEntity
  8
AM_3
100
AcDbLine
 10
1499.995586719548
 20
941.4970068921698
 30
0.0
 11
1495.995586719548
 21
948.4252101224448
 31
0.0
  0
ARC
  5
809
330
1F
100
AcDbEntity
  8
AM_3
100
AcDbCircle
 10
1490.727637527116
 20
961.5495657754268
 30
0.0
 40
1.999999999999998
100
AcDbArc
 50
120.0000000000005
 51
210.0000000000123
1001
GENIUS_GENOBJ-N-CEN_13
1002
{
1000
OWNER
1000
GEN
1002
}
1001
GENIUS_GENODEF_13
1002
{
1000
HIER
1070
     0
1002
}
1002
{
1000
MANEDIT
1070
     0
1002
}
1002
{
1000
NOSEL
1070
     0
1002
}
1002
{
1000
BEHIND
1070
     0
1002
}
1002
{
1000
REACTOR
1002
}
1001
GENIUS_GENOBJ-N-FIL_13
1002
{
1000
OWNER
1000
GEN
1002
}
  0
ARC
  5
80A
330
1F
100
AcDbEntity
  8
AM_3
100
AcDbCircle
 10
1501.727637527116
 20
942.4970068921698
 30
0.0
 40
1.999999999999998
100
AcDbArc
 50
210.0000000000123
 51
300.0000000000005
1001
GENIUS_GENOBJ-N-CEN_13
1002
{
1000
OWNER
1000
GEN
1002
}
1001
GENIUS_GENODEF_13
1002
{
1000
HIER
1070
     0
1002
}
1002
{
1000
MANEDIT
1070
     0
1002
}
1002
{
1000
NOSEL
1070
     0
1002
}
1002
{
1000
BEHIND
1070
     0
1002
}
1002
{
1000
REACTOR
1002
}
1001
GENIUS_GENOBJ-N-FIL_13
1002
{
1000
OWNER
1000
GEN
1002
}
  0
ARC
  5
80B
330
1F
100
AcDbEntity
  8
AM_3
100
AcDbCircle
 10
1498.688108244518
 20
949.143967148152
 30
0.0
 40
2.786805307953311
100
AcDbArc
 50
132.2066997937028
 51
194.9463418185699
  0
ARC
  5
80C
330
1F
100
AcDbEntity
  8
AM_3
100
AcDbCircle
 10
1494.964309325444
 20
955.5937760731598
 30
0.0
 40
2.786805307953311
100
AcDbArc
 50
225.0536581814519
 51
287.7933002063439
  0
LINE
  5
80D
330
1F
100
AcDbEntity
  8
AM_3
100
AcDbLine
 10
1496.112773056551
 20
950.2088298125618
 30
0.0
 11
1494.598839850382
 21
952.8310390449147
 31
0.0
  0
ARC
  5
80E
330
1F
100
AcDbEntity
  8
AM_3
100
AcDbCircle
 10
1495.464427101195
 20
955.7329393798188
 30
0.0
 40
2.77539230657983
100
AcDbArc
 50
222.3637354700761
 51
279.1855291363101
  0
ARC
  5
80F
330
1F
100
AcDbEntity
  8
AM_3
100
AcDbCircle
 10
1499.058686091236
 20
949.5075001935079
 30
0.0
 40
2.775392306579826
100
AcDbArc
 50
140.8144708636852
 51
197.6362645299352
  0
LINE
  5
810
330
1F
100
AcDbEntity
  8
AM_3
100
AcDbLine
 10
1492.995586719547
 20
953.6213625451519
 30
0.0
 11
1488.995586719547
 21
960.5495657754268
 31
0.0
  0
LINE
  5
811
330
1F
100
AcDbEntity
  8
AM_3
100
AcDbLine
 10
1489.561264483056
 20
953.9479567541887
 30
0.0
 11
1495.215107044675
 21
957.2122042790947
 31
0.0
1001
GENIUS_GENODEF_13
1002
{
1000
HIER
1070
     0
1002
}
1002
{
1000
MANEDIT
1070
     0
1002
}
1002
{
1000
NOSEL
1070
     0
1002
}
1002
{
1000
BEHIND
1070
     0
1002
}
1002
{
1000
REACTOR
1002
}
1001
GENIUS_GENOBJ-N-CEN_13
1002
{
1000
OWNER
1000
GEN
1002
}
  0
LINE
  5
812
330
1F
100
AcDbEntity
  8
AM_3
100
AcDbLine
 10
1507.361491968639
 20
963.7120098509416
 30
0.0
 11
1511.840121612814
 21
955.9547957589467
 31
0.0
  0
LINE
  5
813
330
1F
100
AcDbEntity
  8
AM_3
100
AcDbLine
 10
1533.501287104155
 20
978.7024256536779
 30
0.0
 11
1537.848192298167
 21
971.1733650019638
 31
0.0
  0
ELLIPSE
  5
814
330
1F
100
AcDbEntity
  8
AM_3
100
AcDbEllipse
 10
1535.735280910955
 20
974.8330348765056
 30
0.0
 11
-1.499999999999998
 21
2.598076211353316
 31
0.0
210
0.0
220
0.0
230
0.9999999999999998
 40
0.9449126231368628
 41
3.14159265358979
 42
6.283185307179581
  0
ELLIPSE
  5
815
330
1F
100
AcDbEntity
  8
AM_3
100
AcDbEllipse
 10
1509.639394110086
 20
959.7665676072827
 30
0.0
 11
-1.499999999999998
 21
2.598076211353316
 31
0.0
210
0.0
220
0.0
230
0.9999999999999998
 40
0.9201419238112578
 41
6.283185307179581
 42
9.424777960769381
  0
ELLIPSE
  5
816
330
1F
100
AcDbEntity
  8
AM_3
100
AcDbEllipse
 10
1535.735280910955
 20
974.8330348765056
 30
0.0
 11
-1.499999999999998
 21
2.598076211353316
 31
0.0
210
0.0
220
0.0
230
0.9999999999999998
 40
0.6301633309658806
 41
3.14159265358979
 42
6.283185307179581
  0
LINE
  5
817
330
1F
100
AcDbEntity
  8
AM_3
100
AcDbLine
 10
1508.139394110086
 20
962.364643818636
 30
0.0
 11
1534.235280910955
 21
977.4311110878587
 31
0.0
  0
LINE
  5
818
330
1F
100
AcDbEntity
  8
AM_3
100
AcDbLine
 10
1511.139394110087
 20
957.1684913959296
 30
0.0
 11
1537.235280910955
 21
972.2349586651519
 31
0.0
  0
CIRCLE
  5
819
330
1F
100
AcDbEntity
  8
AM_3
100
AcDbCircle
 10
1898.321072687711
 20
941.6720393631507
 30
0.0
 40
6.0
  0
ARC
  5
81A
330
1F
100
AcDbEntity
  8
AM_3
100
AcDbCircle
 10
1896.156009178251
 20
942.9220393631508
 30
0.0
 40
15.0
100
AcDbArc
 50
239.9999999999995
 51
59.99999999999944
  0
LINE
  5
81B
330
1F
100
AcDbEntity
  8
AM_3
100
AcDbLine
 10
1888.656009178251
 20
929.931658306384
 30
0.0
 11
1879.774765231816
 21
935.0592468895966
 31
0.0
  0
LINE
  5
81C
330
1F
100
AcDbEntity
  8
AM_3
100
AcDbLine
 10
1903.656009178251
 20
955.9124204199166
 30
0.0
 11
1894.774765231816
 21
961.0400090031298
 31
0.0
  0
LINE
  5
81D
330
1F
100
AcDbEntity
  8
AM_3
100
AcDbLine
 10
1893.278627938771
 20
932.9382688636247
 30
0.0
 11
1903.169577379985
 21
950.0698958309037
 31
0.0
  0
LINE
  5
81E
330
1F
100
AcDbEntity
  8
AM_3
100
AcDbLine
 10
1888.665628121483
 20
959.9483188047788
 30
0.0
 11
1877.665628121484
 21
940.8957599215217
 31
0.0
  0
LINE
  5
81F
330
1F
100
AcDbEntity
  8
AM_3
100
AcDbLine
 10
1841.467243615232
 20
987.1983188047787
 30
0.0
 11
1830.467243615233
 21
968.1457599215221
 31
0.0
  0
LINE
  5
820
330
1F
100
AcDbEntity
  8
AM_3
100
AcDbLine
 10
1874.933577313916
 20
940.1637091139528
 30
0.0
 11
1831.199294422803
 21
965.4137091139528
 31
0.0
1001
GENIUS_GENODEF_13
1002
{
1000
HIER
1070
     0
1002
}
1002
{
1000
MANEDIT
1070
     0
1002
}
1002
{
1000
NOSEL
1070
     0
1002
}
1002
{
1000
BEHIND
1070
     0
1002
}
1002
{
1000
REACTOR
1002
}
1001
GENIUS_GENOBJ-N-CEN_13
1002
{
1000
OWNER
1000
GEN
1002
}
  0
LINE
  5
821
330
1F
100
AcDbEntity
  8
AM_3
100
AcDbLine
 10
1887.933577313916
 20
962.6803696123481
 30
0.0
 11
1844.199294422803
 21
987.930369612348
 31
0.0
1001
GENIUS_GENODEF_13
1002
{
1000
HIER
1070
     0
1002
}
1002
{
1000
MANEDIT
1070
     0
1002
}
1002
{
1000
NOSEL
1070
     0
1002
}
1002
{
1000
BEHIND
1070
     0
1002
}
1002
{
1000
REACTOR
1002
}
1001
GENIUS_GENOBJ-N-CEN_13
1002
{
1000
OWNER
1000
GEN
1002
}
  0
LINE
  5
822
330
1F
100
AcDbEntity
  8
AM_3
100
AcDbLine
 10
1890.073578863931
 20
940.6602294505535
 30
0.0
 11
1887.816282658375
 21
941.9634800224718
 31
0.0
1001
GENIUS_GENODEF_13
1002
{
1000
HIER
1070
     0
1002
}
1002
{
1000
MANEDIT
1070
     0
1002
}
1002
{
1000
NOSEL
1070
     0
1002
}
1002
{
1000
BEHIND
1070
     0
1002
}
1002
{
1000
REACTOR
1002
}
1001
GENIUS_GENOBJ-N-CEN_13
1002
{
1000
OWNER
1000
GEN
1002
}
  0
LINE
  5
823
330
1F
100
AcDbEntity
  8
AM_3
100
AcDbLine
 10
1895.073578863931
 20
949.3204834883988
 30
0.0
 11
1881.683673577605
 21
957.0511489098819
 31
0.0
1001
GENIUS_GENODEF_13
1002
{
1000
HIER
1070
     0
1002
}
1002
{
1000
MANEDIT
1070
     0
1002
}
1002
{
1000
NOSEL
1070
     0
1002
}
1002
{
1000
BEHIND
1070
     0
1002
}
1002
{
1000
REACTOR
1002
}
1001
GENIUS_GENOBJ-N-CEN_13
1002
{
1000
OWNER
1000
GEN
1002
}
  0
LINE
  5
824
330
1F
100
AcDbEntity
  8
AM_3
100
AcDbLine
 10
1883.678767842299
 20
940.3108234309828
 30
0.0
 11
1878.915628121484
 21
943.0608234309827
 31
0.0
1001
GENIUS_GENODEF_13
1002
{
1000
HIER
1070
     0
1002
}
1002
{
1000
MANEDIT
1070
     0
1002
}
1002
{
1000
NOSEL
1070
     0
1002
}
1002
{
1000
BEHIND
1070
     0
1002
}
1002
{
1000
REACTOR
1002
}
1001
GENIUS_GENOBJ-N-CEN_13
1002
{
1000
OWNER
1000
GEN
1002
}
  0
LINE
  5
825
330
1F
100
AcDbEntity
  8
AM_3
100
AcDbLine
 10
1887.1787678423
 20
946.3730012574735
 30
0.0
 11
1882.415628121484
 21
949.1230012574735
 31
0.0
1001
GENIUS_GENODEF_13
1002
{
1000
HIER
1070
     0
1002
}
1002
{
1000
MANEDIT
1070
     0
1002
}
1002
{
1000
NOSEL
1070
     0
1002
}
1002
{
1000
BEHIND
1070
     0
1002
}
1002
{
1000
REACTOR
1002
}
1001
GENIUS_GENOBJ-N-CEN_13
1002
{
1000
OWNER
1000
GEN
1002
}
  0
LINE
  5
826
330
1F
100
AcDbEntity
  8
AM_3
100
AcDbLine
 10
1892.178767842299
 20
955.0332552953188
 30
0.0
 11
1887.415628121484
 21
957.7832552953188
 31
0.0
1001
GENIUS_GENODEF_13
1002
{
1000
HIER
1070
     0
1002
}
1002
{
1000
MANEDIT
1070
     0
1002
}
1002
{
1000
NOSEL
1070
     0
1002
}
1002
{
1000
BEHIND
1070
     0
1002
}
1002
{
1000
REACTOR
1002
}
1001
GENIUS_GENOBJ-N-CEN_13
1002
{
1000
OWNER
1000
GEN
1002
}
  0
LINE
  5
827
330
1F
100
AcDbEntity
  8
AM_3
100
AcDbLine
 10
1888.678767842298
 20
948.9710774688267
 30
0.0
 11
1883.915628121483
 21
951.7210774688267
 31
0.0
1001
GENIUS_GENODEF_13
1002
{
1000
HIER
1070
     0
1002
}
1002
{
1000
MANEDIT
1070
     0
1002
}
1002
{
1000
NOSEL
1070
     0
1002
}
1002
{
1000
BEHIND
1070
     0
1002
}
1002
{
1000
REACTOR
1002
}
1001
GENIUS_GENOBJ-N-CEN_13
1002
{
1000
OWNER
1000
GEN
1002
}
  0
ARC
  5
828
330
1F
100
AcDbEntity
  8
AM_3
100
AcDbCircle
 10
1885.428767842299
 20
943.3419123442266
 30
0.0
 40
3.5
100
AcDbArc
 50
239.9999999999995
 51
59.99999999999944
  0
ARC
  5
829
330
1F
100
AcDbEntity
  8
AM_3
100
AcDbCircle
 10
1890.428767842299
 20
952.0021663820728
 30
0.0
 40
3.5
100
AcDbArc
 50
239.9999999999995
 51
59.99999999999944
  0
ARC
  5
82A
330
1F
100
AcDbEntity
  8
AM_3
100
AcDbCircle
 10
1884.088480786104
 20
944.452075568112
 30
0.0
 40
10.33602304889329
100
AcDbArc
 50
203.3381812573073
 51
245.3327497551244
  0
ARC
  5
82B
330
1F
100
AcDbEntity
  8
AM_3
100
AcDbCircle
 10
1879.915628121483
 20
944.7928742385517
 30
0.0
 40
2.0
100
AcDbArc
 50
239.9999999999995
 51
329.9999999999877
  0
LINE
  5
82C
330
1F
100
AcDbEntity
  8
AM_3
100
AcDbLine
 10
1888.147678929054
 20
955.0512044877487
 30
0.0
 11
1886.647678929054
 21
952.4531282763955
 31
0.0
  0
ARC
  5
82D
330
1F
100
AcDbEntity
  8
AM_3
100
AcDbCircle
 10
1881.415628121483
 20
947.3909504499047
 30
0.0
 40
2.0
100
AcDbArc
 50
329.9999999999877
 51
59.99999999999944
  0
ARC
  5
82E
330
1F
100
AcDbEntity
  8
AM_3
100
AcDbCircle
 10
1886.415628121484
 20
956.0512044877487
 30
0.0
 40
2.0
100
AcDbArc
 50
329.9999999999877
 51
59.99999999999944
  0
ARC
  5
82F
330
1F
100
AcDbEntity
  8
AM_3
100
AcDbCircle
 10
1884.915628121484
 20
953.4531282763955
 30
0.0
 40
2.0
100
AcDbArc
 50
239.9999999999995
 51
329.9999999999877
  0
LINE
  5
830
330
1F
100
AcDbEntity
  8
AM_3
100
AcDbLine
 10
1883.147678929053
 20
946.3909504499047
 30
0.0
 11
1881.647678929053
 21
943.7928742385517
 31
0.0
  0
LINE
  5
831
330
1F
100
AcDbEntity
  8
AM_3
100
AcDbLine
 10
1880.624237820424
 20
948.4252101224457
 30
0.0
 11
1874.524138158238
 21
951.9471043044928
 31
0.0
1001
GENIUS_GENODEF_13
1002
{
1000
HIER
1070
     0
1002
}
1002
{
1000
MANEDIT
1070
     0
1002
}
1002
{
1000
NOSEL
1070
     0
1002
}
1002
{
1000
BEHIND
1070
     0
1002
}
1002
{
1000
REACTOR
1002
}
1001
GENIUS_GENOBJ-N-CEN_13
1002
{
1000
OWNER
1000
GEN
1002
}
  0
LINE
  5
832
330
1F
100
AcDbEntity
  8
AM_3
100
AcDbLine
 10
1883.624237820425
 20
953.6213625451519
 30
0.0
 11
1877.524138158239
 21
957.1432567271996
 31
0.0
1001
GENIUS_GENODEF_13
1002
{
1000
HIER
1070
     0
1002
}
1002
{
1000
MANEDIT
1070
     0
1002
}
1002
{
1000
NOSEL
1070
     0
1002
}
1002
{
1000
BEHIND
1070
     0
1002
}
1002
{
1000
REACTOR
1002
}
1001
GENIUS_GENOBJ-N-CEN_13
1002
{
1000
OWNER
1000
GEN
1002
}
  0
ELLIPSE
  5
833
330
1F
100
AcDbEntity
  8
AM_3
100
AcDbEllipse
 10
1876.024138158238
 20
954.5451805158458
 30
0.0
 11
-1.499999999999992
 21
-2.5980762113533
 31
0.0
210
0.0
220
0.0
230
1.0
 40
0.7741598128011864
 41
3.14159265358979
 42
6.283185307179581
  0
LINE
  5
834
330
1F
100
AcDbEntity
  8
AM_3
100
AcDbLine
 10
1879.803912193017
 20
951.2082264210119
 30
0.0
 11
1875.524138158239
 21
953.6791551120616
 31
0.0
1001
GENIUS_GENODEF_13
1002
{
1000
HIER
1070
     0
1002
}
1002
{
1000
MANEDIT
1070
     0
1002
}
1002
{
1000
NOSEL
1070
     0
1002
}
1002
{
1000
BEHIND
1070
     0
1002
}
1002
{
1000
REACTOR
1002
}
1001
GENIUS_GENOBJ-N-CEN_13
1002
{
1000
OWNER
1000
GEN
1002
}
  0
SPLINE
  5
835
330
1F
100
AcDbEntity
  8
AM_3
100
AcDbSpline
210
0.0
220
0.0
230
1.0
 70
     8
 71
     3
 72
    18
 73
    14
 74
     0
 42
0.0000000001
 43
0.0000000001
 40
3.628703069452225
 40
3.628703069452225
 40
3.628703069452225
 40
3.628703069452225
 40
3.912493910190088
 40
3.912493910190088
 40
4.196284750927953
 40
4.196284750927953
 40
4.622228449873871
 40
4.622228449873871
 40
5.048172148819785
 40
5.048172148819785
 40
5.474115847765705
 40
5.474115847765705
 40
5.796074891333201
 40
5.796074891333201
 40
5.796074891333201
 40
5.796074891333201
 10
1876.560964809155
 20
955.3904597909788
 30
0.0
 10
1876.538952367019
 20
955.3887737410288
 30
0.0
 10
1876.493518687636
 20
955.3813523131426
 30
0.0
 10
1876.366279015913
 20
955.33136629983
 30
0.0
 10
1876.285149101023
 20
955.288655625042
 30
0.0
 10
1876.068871203458
 20
955.1298644551796
 30
0.0
 10
1875.928524275344
 20
954.9868420325937
 30
0.0
 10
1875.699566964295
 20
954.647443735149
 30
0.0
 10
1875.611758813073
 20
954.4523450796209
 30
0.0
 10
1875.515843751113
 20
954.0913815499948
 30
0.0
 10
1875.508269489558
 20
953.927479955745
 30
0.0
 10
1875.530222022492
 20
953.7330038984427
 30
0.0
 10
1875.549688210244
 20
953.6802190087007
 30
0.0
 10
1875.56051815814
 20
953.6576353611536
 30
0.0
  0
LINE
  5
836
330
1F
100
AcDbEntity
  8
AM_3
100
AcDbLine
 10
1880.803912193017
 20
952.9402772285807
 30
0.0
 11
1876.524138158238
 21
955.411205919631
 31
0.0
1001
GENIUS_GENODEF_13
1002
{
1000
HIER
1070
     0
1002
}
1002
{
1000
MANEDIT
1070
     0
1002
}
1002
{
1000
NOSEL
1070
     0
1002
}
1002
{
1000
BEHIND
1070
     0
1002
}
1002
{
1000
REACTOR
1002
}
1001
GENIUS_GENOBJ-N-CEN_13
1002
{
1000
OWNER
1000
GEN
1002
}
  0
ARC
  5
837
330
1F
100
AcDbEntity
  8
AM_3
100
AcDbCircle
 10
1888.797194759971
 20
952.6078074091588
 30
0.0
 40
10.33602304889329
100
AcDbArc
 50
54.66725024487224
 51
96.66181874270231
  0
ARC
  5
838
330
1F
100
AcDbEntity
  8
AM_3
100
AcDbCircle
 10
1875.933577313916
 20
941.8957599215216
 30
0.0
 40
2.0
100
AcDbArc
 50
239.9999999999995
 51
329.9999999999877
1001
GENIUS_GENOBJ-N-CEN_13
1002
{
1000
OWNER
1000
GEN
1002
}
1001
GENIUS_GENODEF_13
1002
{
1000
HIER
1070
     0
1002
}
1002
{
1000
MANEDIT
1070
     0
1002
}
1002
{
1000
NOSEL
1070
     0
1002
}
1002
{
1000
BEHIND
1070
     0
1002
}
1002
{
1000
REACTOR
1002
}
1001
GENIUS_GENOBJ-N-FIL_13
1002
{
1000
OWNER
1000
GEN
1002
}
  0
ARC
  5
839
330
1F
100
AcDbEntity
  8
AM_3
100
AcDbCircle
 10
1886.933577313916
 20
960.9483188047788
 30
0.0
 40
2.0
100
AcDbArc
 50
329.9999999999877
 51
59.99999999999944
1001
GENIUS_GENOBJ-N-CEN_13
1002
{
1000
OWNER
1000
GEN
1002
}
1001
GENIUS_GENODEF_13
1002
{
1000
HIER
1070
     0
1002
}
1002
{
1000
MANEDIT
1070
     0
1002
}
1002
{
1000
NOSEL
1070
     0
1002
}
1002
{
1000
BEHIND
1070
     0
1002
}
1002
{
1000
REACTOR
1002
}
1001
GENIUS_GENOBJ-N-FIL_13
1002
{
1000
OWNER
1000
GEN
1002
}
  0
ARC
  5
83A
330
1F
100
AcDbEntity
  8
AM_3
100
AcDbCircle
 10
1832.199294422803
 20
967.1457599215218
 30
0.0
 40
2.0
100
AcDbArc
 50
149.9999999999876
 51
239.9999999999995
1001
GENIUS_GENODEF_13
1002
{
1000
HIER
1070
     0
1002
}
1002
{
1000
MANEDIT
1070
     0
1002
}
1002
{
1000
NOSEL
1070
     0
1002
}
1002
{
1000
BEHIND
1070
     0
1002
}
1002
{
1000
REACTOR
1002
}
1001
GENIUS_GENOBJ-N-FIL_13
1002
{
1000
OWNER
1000
GEN
1002
}
  0
ARC
  5
83B
330
1F
100
AcDbEntity
  8
AM_3
100
AcDbCircle
 10
1843.199294422803
 20
986.1983188047787
 30
0.0
 40
2.0
100
AcDbArc
 50
59.99999999999944
 51
149.9999999999876
1001
GENIUS_GENOBJ-N-CEN_13
1002
{
1000
OWNER
1000
GEN
1002
}
1001
GENIUS_GENODEF_13
1002
{
1000
HIER
1070
     0
1002
}
1002
{
1000
MANEDIT
1070
     0
1002
}
1002
{
1000
NOSEL
1070
     0
1002
}
1002
{
1000
BEHIND
1070
     0
1002
}
1002
{
1000
REACTOR
1002
}
1001
GENIUS_GENOBJ-N-FIL_13
1002
{
1000
OWNER
1000
GEN
1002
}
  0
LINE
  5
83C
330
1F
100
AcDbEntity
  8
AM_3
100
AcDbLine
 10
1880.803912193017
 20
952.9402772285807
 30
0.0
 11
1879.803912193017
 21
951.2082264210119
 31
0.0
  0
LINE
  5
83D
330
1F
100
AcDbEntity
  8
AM_3
100
AcDbLine
 10
1887.624237820425
 20
960.5495657754277
 30
0.0
 11
1883.624237820425
 21
953.6213625451519
 31
0.0
  0
ARC
  5
83E
330
1F
100
AcDbEntity
  8
AM_3
100
AcDbCircle
 10
1874.892187012857
 20
942.4970068921698
 30
0.0
 40
2.0
100
AcDbArc
 50
239.9999999999995
 51
329.9999999999877
1001
GENIUS_GENOBJ-N-CEN_13
1002
{
1000
OWNER
1000
GEN
1002
}
1001
GENIUS_GENODEF_13
1002
{
1000
HIER
1070
     0
1002
}
1002
{
1000
MANEDIT
1070
     0
1002
}
1002
{
1000
NOSEL
1070
     0
1002
}
1002
{
1000
BEHIND
1070
     0
1002
}
1002
{
1000
REACTOR
1002
}
1001
GENIUS_GENOBJ-N-FIL_13
1002
{
1000
OWNER
1000
GEN
1002
}
  0
ARC
  5
83F
330
1F
100
AcDbEntity
  8
AM_3
100
AcDbCircle
 10
1885.892187012857
 20
961.5495657754276
 30
0.0
 40
2.0
100
AcDbArc
 50
329.9999999999877
 51
59.99999999999944
1001
GENIUS_GENOBJ-N-CEN_13
1002
{
1000
OWNER
1000
GEN
1002
}
1001
GENIUS_GENODEF_13
1002
{
1000
HIER
1070
     0
1002
}
1002
{
1000
MANEDIT
1070
     0
1002
}
1002
{
1000
NOSEL
1070
     0
1002
}
1002
{
1000
BEHIND
1070
     0
1002
}
1002
{
1000
REACTOR
1002
}
1001
GENIUS_GENOBJ-N-FIL_13
1002
{
1000
OWNER
1000
GEN
1002
}
  0
ARC
  5
840
330
1F
100
AcDbEntity
  8
AM_3
100
AcDbCircle
 10
1881.655515214529
 20
955.5937760731607
 30
0.0
 40
2.786805307953311
100
AcDbArc
 50
252.2066997936561
 51
314.9463418185482
  0
ARC
  5
841
330
1F
100
AcDbEntity
  8
AM_3
100
AcDbCircle
 10
1877.931716295455
 20
949.143967148152
 30
0.0
 40
2.786805307953311
100
AcDbArc
 50
345.0536581814301
 51
47.7933002062972
  0
LINE
  5
842
330
1F
100
AcDbEntity
  8
AM_3
100
AcDbLine
 10
1882.020984689593
 20
952.8310390449158
 30
0.0
 11
1880.507051483421
 21
950.2088298125618
 31
0.0
  0
ARC
  5
843
330
1F
100
AcDbEntity
  8
AM_3
100
AcDbCircle
 10
1877.561138448737
 20
949.5075001935088
 30
0.0
 40
2.77539230657983
100
AcDbArc
 50
342.3637354700648
 51
39.18552913631482
  0
ARC
  5
844
330
1F
100
AcDbEntity
  8
AM_3
100
AcDbCircle
 10
1881.155397438778
 20
955.7329393798188
 30
0.0
 40
2.77539230657983
100
AcDbArc
 50
260.8144708636899
 51
317.6362645299239
  0
LINE
  5
845
330
1F
100
AcDbEntity
  8
AM_3
100
AcDbLine
 10
1880.624237820424
 20
948.4252101224457
 30
0.0
 11
1876.624237820424
 21
941.4970068921707
 31
0.0
  0
LINE
  5
846
330
1F
100
AcDbEntity
  8
AM_3
100
AcDbLine
 10
1882.058560056915
 20
945.2877027163436
 30
0.0
 11
1876.404717495297
 21
948.5519502412499
 31
0.0
1001
GENIUS_GENODEF_13
1002
{
1000
HIER
1070
     0
1002
}
1002
{
1000
MANEDIT
1070
     0
1002
}
1002
{
1000
NOSEL
1070
     0
1002
}
1002
{
1000
BEHIND
1070
     0
1002
}
1002
{
1000
REACTOR
1002
}
1001
GENIUS_GENOBJ-N-CEN_13
1002
{
1000
OWNER
1000
GEN
1002
}
  0
LINE
  5
847
330
1F
100
AcDbEntity
  8
AM_3
100
AcDbLine
 10
1864.702528288438
 20
955.821125363624
 30
0.0
 11
1869.181157932612
 21
963.5783394556179
 31
0.0
  0
LINE
  5
848
330
1F
100
AcDbEntity
  8
AM_3
100
AcDbLine
 10
1838.650549822218
 20
970.9636440993337
 30
0.0
 11
1842.99745501623
 21
978.4927047510477
 31
0.0
  0
ELLIPSE
  5
849
330
1F
100
AcDbEntity
  8
AM_3
100
AcDbEllipse
 10
1840.884543629018
 20
974.8330348765056
 30
0.0
 11
-1.499999999999999
 21
-2.598076211353311
 31
0.0
210
0.0
220
0.0
230
0.9999999999999998
 40
0.9449126231368627
 41
3.14159265358979
 42
6.283185307179581
  0
ELLIPSE
  5
84A
330
1F
100
AcDbEntity
  8
AM_3
100
AcDbEllipse
 10
1866.980430429886
 20
959.7665676072827
 30
0.0
 11
-1.499999999999999
 21
-2.598076211353311
 31
0.0
210
0.0
220
0.0
230
0.9999999999999998
 40
0.9201419238112576
 41
6.283185307179581
 42
9.424777960769381
  0
ELLIPSE
  5
84B
330
1F
100
AcDbEntity
  8
AM_3
100
AcDbEllipse
 10
1840.884543629018
 20
974.8330348765056
 30
0.0
 11
-1.499999999999999
 21
-2.598076211353311
 31
0.0
210
0.0
220
0.0
230
0.9999999999999998
 40
0.630163330965881
 41
3.14159265358979
 42
6.283185307179581
  0
LINE
  5
84C
330
1F
100
AcDbEntity
  8
AM_3
100
AcDbLine
 10
1865.480430429885
 20
957.1684913959296
 30
0.0
 11
1839.384543629018
 21
972.2349586651519
 31
0.0
  0
LINE
  5
84D
330
1F
100
AcDbEntity
  8
AM_3
100
AcDbLine
 10
1868.480430429886
 20
962.364643818636
 30
0.0
 11
1842.384543629018
 21
977.4311110878587
 31
0.0
  0
LINE
  5
84E
330
1F
100
AcDbEntity
  8
AM_0
 62
     7
100
AcDbLine
 10
1017.566261122599
 20
536.8177956366828
 30
0.0
 11
1017.566261122599
 21
533.8177956366828
 31
0.0
  0
LINE
  5
84F
330
1F
100
AcDbEntity
  8
AM_0
 62
     7
100
AcDbLine
 10
1017.566261122599
 20
536.8177956366828
 30
0.0
 11
992.3110839561726
 21
536.8177956366828
 31
0.0
  0
LINE
  5
850
330
1F
100
AcDbEntity
  8
AM_0
 62
     7
100
AcDbLine
 10
1011.066261122598
 20
536.8177956366828
 30
0.0
 11
1011.066261122598
 21
533.8291862166316
 31
0.0
  0
LINE
  5
851
330
1F
100
AcDbEntity
  8
AM_0
 62
     7
100
AcDbLine
 10
999.0662611225983
 20
536.8177956366828
 30
0.0
 11
999.0662611225983
 21
533.8502149796148
 31
0.0
  0
LINE
  5
852
330
1F
100
AcDbEntity
  8
AM_7
 48
2.0
100
AcDbLine
 10
1005.066261122599
 20
542.4896357479557
 30
0.0
 11
1005.066261122599
 21
530.0774641142456
 31
0.0
  0
ARC
  5
853
330
1F
100
AcDbEntity
  8
AM_0
 62
     7
100
AcDbCircle
 10
992.3110839561726
 20
541.8177956366836
 30
0.0
 40
5.0
100
AcDbArc
 50
183.0000000000054
 51
270.0
1001
GENIUS_GENODEF_13
1002
{
1000
HIER
1070
     0
1002
}
1002
{
1000
MANEDIT
1070
     0
1002
}
1002
{
1000
NOSEL
1070
     0
1002
}
1002
{
1000
BEHIND
1070
     0
1002
}
1002
{
1000
REACTOR
1002
}
1001
GENIUS_GENOBJ-N-FIL_13
1002
{
1000
OWNER
1000
GEN
1002
}
  0
ARC
  5
854
330
1F
100
AcDbEntity
  8
AM_0
 62
     7
100
AcDbCircle
 10
976.3828051786287
 20
578.2449436610577
 30
0.0
 40
9.0
100
AcDbArc
 50
3.000000000005424
 51
115.6871964587497
1001
GENIUS_GENODEF_13
1002
{
1000
HIER
1070
     0
1002
}
1002
{
1000
MANEDIT
1070
     0
1002
}
1002
{
1000
NOSEL
1070
     0
1002
}
1002
{
1000
BEHIND
1070
     0
1002
}
1002
{
1000
REACTOR
1002
}
1001
GENIUS_GENOBJ-N-FIL_13
1002
{
1000
OWNER
1000
GEN
1002
}
  0
LINE
  5
855
330
1F
100
AcDbEntity
  8
AM_0
 62
     7
100
AcDbLine
 10
933.3767443966261
 20
569.4814435749217
 30
0.0
 11
933.0662611225985
 21
570.4177956366827
 31
0.0
  0
ARC
  5
856
330
1F
100
AcDbEntity
  8
AM_0
 62
     7
100
AcDbCircle
 10
985.2604657340613
 20
561.7076700099986
 30
0.0
 40
1.0
100
AcDbArc
 50
183.0000000000054
 51
273.0000000000056
1001
GENIUS_GENODEF_13
1002
{
1000
HIER
1070
     0
1002
}
1002
{
1000
MANEDIT
1070
     0
1002
}
1002
{
1000
NOSEL
1070
     0
1002
}
1002
{
1000
BEHIND
1070
     0
1002
}
1002
{
1000
REACTOR
1002
}
1001
GENIUS_GENOBJ-N-FIL_13
1002
{
1000
OWNER
1000
GEN
1002
}
  0
ARC
  5
857
330
1F
100
AcDbEntity
  8
AM_0
 62
     7
100
AcDbCircle
 10
985.3651376465473
 20
559.7104109404908
 30
0.0
 40
1.0
100
AcDbArc
 50
3.000000000005424
 51
93.00000000000556
1001
GENIUS_GENODEF_13
1002
{
1000
HIER
1070
     0
1002
}
1002
{
1000
MANEDIT
1070
     0
1002
}
1002
{
1000
NOSEL
1070
     0
1002
}
1002
{
1000
BEHIND
1070
     0
1002
}
1002
{
1000
REACTOR
1002
}
1001
GENIUS_GENOBJ-N-FIL_13
1002
{
1000
OWNER
1000
GEN
1002
}
  0
LINE
  5
858
330
1F
100
AcDbEntity
  8
AM_0
 62
     7
100
AcDbLine
 10
984.2618361993059
 20
561.6553340537567
 30
0.0
 11
983.3597794999144
 21
578.8676012349369
 31
0.0
  0
ARC
  5
859
330
1F
100
AcDbEntity
  8
AM_0
 62
     7
100
AcDbCircle
 10
975.999914669425
 20
586.2367952422378
 30
0.0
 40
1.0
100
AcDbArc
 50
3.98299516096171
 51
95.48589965693917
1001
GENIUS_GENODEF_13
1002
{
1000
HIER
1070
     0
1002
}
1002
{
1000
MANEDIT
1070
     0
1002
}
1002
{
1000
NOSEL
1070
     0
1002
}
1002
{
1000
BEHIND
1070
     0
1002
}
1002
{
1000
REACTOR
1002
}
1001
GENIUS_GENOBJ-N-FIL_13
1002
{
1000
OWNER
1000
GEN
1002
}
  0
ARC
  5
85A
330
1F
100
AcDbEntity
  8
AM_0
 62
     7
100
AcDbCircle
 10
992.3110839561726
 20
541.8177956366836
 30
0.0
 40
3.0
100
AcDbArc
 50
183.0000000000054
 51
270.0
1001
GENIUS_GENODEF_13
1002
{
1000
HIER
1070
     0
1002
}
1002
{
1000
MANEDIT
1070
     0
1002
}
1002
{
1000
NOSEL
1070
     0
1002
}
1002
{
1000
BEHIND
1070
     0
1002
}
1002
{
1000
REACTOR
1002
}
1001
GENIUS_GENOBJ-N-FIL_13
1002
{
1000
OWNER
1000
GEN
1002
}
  0
LINE
  5
85B
330
1F
100
AcDbEntity
  8
AM_0
 62
     7
100
AcDbLine
 10
994.5662611225984
 20
538.8177956366836
 30
0.0
 11
992.3110839561726
 21
538.8177956366836
 31
0.0
  0
LINE
  5
85C
330
1F
100
AcDbEntity
  8
AM_0
 62
     7
100
AcDbLine
 10
989.315195351909
 20
541.6607877679548
 30
0.0
 11
989.3067220736208
 21
541.8224675491686
 31
0.0
  0
ARC
  5
85D
330
1F
100
AcDbEntity
  8
AM_0
 62
     7
100
AcDbCircle
 10
994.5662611225984
 20
536.8177956366828
 30
0.0
 40
2.0
100
AcDbArc
 50
0.0
 51
90.0
1001
GENIUS_GENODEF_13
1002
{
1000
HIER
1070
     0
1002
}
1002
{
1000
MANEDIT
1070
     0
1002
}
1002
{
1000
NOSEL
1070
     0
1002
}
1002
{
1000
BEHIND
1070
     0
1002
}
1002
{
1000
REACTOR
1002
}
1001
GENIUS_GENOBJ-N-FIL_13
1002
{
1000
OWNER
1000
GEN
1002
}
  0
LINE
  5
85E
330
1F
100
AcDbEntity
  8
AM_0
 62
     7
100
AcDbLine
 10
987.2046474455451
 20
545.7177956366829
 30
0.0
 11
987.0998318869792
 21
545.7177956366829
 31
0.0
  0
LINE
  5
85F
330
1F
100
AcDbEntity
  8
AM_0
 62
     7
100
AcDbLine
 10
989.315195351909
 20
541.6607877679548
 30
0.0
 11
989.2019065150536
 21
543.8224675491688
 31
0.0
  0
ARC
  5
860
330
1F
100
AcDbEntity
  8
AM_0
 62
     7
100
AcDbCircle
 10
987.2046474455451
 20
543.7177956366829
 30
0.0
 40
2.0
100
AcDbArc
 50
3.000000000005424
 51
90.0
1001
GENIUS_GENODEF_13
1002
{
1000
HIER
1070
     0
1002
}
1002
{
1000
MANEDIT
1070
     0
1002
}
1002
{
1000
NOSEL
1070
     0
1002
}
1002
{
1000
BEHIND
1070
     0
1002
}
1002
{
1000
REACTOR
1002
}
1001
GENIUS_GENOBJ-N-FIL_13
1002
{
1000
OWNER
1000
GEN
1002
}
  0
ARC
  5
861
330
1F
100
AcDbEntity
  8
AM_0
 62
     7
100
AcDbCircle
 10
976.3693727566327
 20
578.5012495412367
 30
0.0
 40
7.0
100
AcDbArc
 50
3.000000000005424
 51
78.26016529543101
1001
GENIUS_GENODEF_13
1002
{
1000
HIER
1070
     0
1002
}
1002
{
1000
MANEDIT
1070
     0
1002
}
1002
{
1000
NOSEL
1070
     0
1002
}
1002
{
1000
BEHIND
1070
     0
1002
}
1002
{
1000
REACTOR
1002
}
1001
GENIUS_GENOBJ-N-FIL_13
1002
{
1000
OWNER
1000
GEN
1002
}
  0
ARC
  5
862
330
1F
100
AcDbEntity
  8
AM_0
 62
     7
100
AcDbCircle
 10
977.9971171387838
 20
586.3339022353358
 30
0.0
 40
1.0
100
AcDbArc
 50
181.5842347761325
 51
258.260165295431
1001
GENIUS_GENODEF_13
1002
{
1000
HIER
1070
     0
1002
}
1002
{
1000
MANEDIT
1070
     0
1002
}
1002
{
1000
NOSEL
1070
     0
1002
}
1002
{
1000
BEHIND
1070
     0
1002
}
1002
{
1000
REACTOR
1002
}
1001
GENIUS_GENOBJ-N-FIL_13
1002
{
1000
OWNER
1000
GEN
1002
}
  0
LINE
  5
863
330
1F
100
AcDbEntity
  8
AM_0
 62
     7
100
AcDbLine
 10
933.0662611225985
 20
570.4177956366827
 30
0.0
 11
934.0277641473957
 21
567.5723426813338
 31
0.0
  0
ARC
  5
864
330
1F
100
AcDbEntity
  8
AM_0
 62
     7
100
AcDbCircle
 10
828.5737241829306
 20
885.5452456055997
 30
0.0
 40
335.0
100
AcDbArc
 50
288.3449107207511
 51
295.6796560151635
  0
HATCH
  5
865
330
1F
100
AcDbEntity
  8
AM_0
 62
     7
100
AcDbHatch
 10
0.0
 20
0.0
 30
0.0
210
0.0
220
0.0
230
1.0
  2
_U
 70
     0
 71
     0
 91
        1
 92
        1
 93
        4
 72
     1
 10
934.4889632145255
 20
570.8931168333947
 11
935.4331824365747
 21
568.0455508313569
 72
     2
 10
828.5737241829206
 20
885.545245605631
 40
335.0000000000328
 50
71.39854015553144
 51
71.65217304666615
 73
     0
 72
     1
 10
934.0266549037727
 20
567.5756253548827
 11
933.0662611225987
 21
570.4177956366827
 72
     2
 10
828.5737241829242
 20
885.5452456055997
 40
332.0000000000017
 50
288.344910720729
 51
288.6037780751467
 73
     1
 97
        0
 75
     0
 76
     0
 52
45.0
 41
1.5
 77
     0
 78
     1
 53
135.0
 43
1071.346543886875
 44
409.8784320721343
 45
1.060660171779817
 46
1.060660171779817
 79
     0
 98
        1
 10
1071.346543886875
 20
409.8784320721343
1001
GENIUS_GENODEF_13
1002
{
1000
HIER
1070
     0
1002
}
1002
{
1000
MANEDIT
1070
     0
1002
}
1002
{
1000
NOSEL
1070
     0
1002
}
1002
{
1000
BEHIND
1070
     0
1002
}
1002
{
1000
REACTOR
1002
}
1001
GENIUS_GENOBJ-N-HTC_13
1002
{
1000
OWNER
1000
GEN
1002
}
1001
GENIUS_GENHATCH_13
1002
{
1000
DATA
1040
45.0
1042
-2.5
1000
_U
1070
     0
1011
935.632007333025
1021
654.0330831943466
1031
0.0
1002
}
1002
{
1000
UCS
1010
0.0
1020
0.0
1030
0.0
1010
1.0
1020
0.0
1030
0.0
1010
0.0
1020
1.0
1030
0.0
1002
}
  0
ARC
  5
866
330
1F
100
AcDbEntity
  8
AM_0
 62
     7
100
AcDbCircle
 10
976.7734146963768
 20
584.2322155109608
 30
0.0
 40
2.0
100
AcDbArc
 50
210.0125042291891
 51
266.2673140375844
1001
GENIUS_GENODEF_13
1002
{
1000
HIER
1070
     0
1002
}
1002
{
1000
MANEDIT
1070
     0
1002
}
1002
{
1000
NOSEL
1070
     0
1002
}
1002
{
1000
BEHIND
1070
     0
1002
}
1002
{
1000
REACTOR
1002
}
1001
GENIUS_GENOBJ-N-FIL_13
1002
{
1000
OWNER
1000
GEN
1002
}
  0
ARC
  5
867
330
1F
100
AcDbEntity
  8
AM_0
 62
     7
100
AcDbCircle
 10
976.3828051786298
 20
578.2449436610577
 30
0.0
 40
4.0
100
AcDbArc
 50
3.000000000005424
 51
86.26731403758439
1001
GENIUS_GENODEF_13
1002
{
1000
HIER
1070
     0
1002
}
1002
{
1000
MANEDIT
1070
     0
1002
}
1002
{
1000
NOSEL
1070
     0
1002
}
1002
{
1000
BEHIND
1070
     0
1002
}
1002
{
1000
REACTOR
1002
}
1001
GENIUS_GENOBJ-N-FIL_13
1002
{
1000
OWNER
1000
GEN
1002
}
  0
LINE
  5
868
330
1F
100
AcDbEntity
  8
AM_0
 62
     7
100
AcDbLine
 10
981.3706195075287
 20
559.5010671155188
 30
0.0
 11
980.3773233176487
 21
578.4542874860298
 31
0.0
  0
ARC
  5
869
330
1F
100
AcDbEntity
  8
AM_0
 62
     7
100
AcDbCircle
 10
974.1756659068473
 20
582.7316485426128
 30
0.0
 40
1.0
100
AcDbArc
 50
30.01250422918911
 51
115.6796560151635
1001
GENIUS_GENODEF_13
1002
{
1000
HIER
1070
     0
1002
}
1002
{
1000
MANEDIT
1070
     0
1002
}
1002
{
1000
NOSEL
1070
     0
1002
}
1002
{
1000
BEHIND
1070
     0
1002
}
1002
{
1000
REACTOR
1002
}
1001
GENIUS_GENOBJ-N-FIL_13
1002
{
1000
OWNER
1000
GEN
1002
}
  0
ARC
  5
86A
330
1F
100
AcDbEntity
  8
AM_0
 62
     7
100
AcDbCircle
 10
983.3678785770374
 20
559.6057390280048
 30
0.0
 40
2.0
100
AcDbArc
 50
183.0000000000054
 51
253.5287793655092
1001
GENIUS_GENODEF_13
1002
{
1000
HIER
1070
     0
1002
}
1002
{
1000
MANEDIT
1070
     0
1002
}
1002
{
1000
NOSEL
1070
     0
1002
}
1002
{
1000
BEHIND
1070
     0
1002
}
1002
{
1000
REACTOR
1002
}
1001
GENIUS_GENOBJ-N-FIL_13
1002
{
1000
OWNER
1000
GEN
1002
}
  0
LINE
  5
86B
330
1F
100
AcDbEntity
  8
AM_0
 62
     7
100
AcDbLine
 10
984.3220476781358
 20
541.3991079867399
 30
0.0
 11
983.5159070152743
 21
556.7811881643316
 31
0.0
  0
ARC
  5
86C
330
1F
100
AcDbEntity
  8
AM_0
 62
     7
100
AcDbCircle
 10
982.5172774805203
 20
556.7288522080889
 30
0.0
 40
1.0
100
AcDbArc
 50
3.000000000005424
 51
73.52877936550918
1001
GENIUS_GENODEF_13
1002
{
1000
HIER
1070
     0
1002
}
1002
{
1000
MANEDIT
1070
     0
1002
}
1002
{
1000
NOSEL
1070
     0
1002
}
1002
{
1000
BEHIND
1070
     0
1002
}
1002
{
1000
REACTOR
1002
}
1001
GENIUS_GENOBJ-N-FIL_13
1002
{
1000
OWNER
1000
GEN
1002
}
  0
ARC
  5
86D
330
1F
100
AcDbEntity
  8
AM_0
 62
     7
100
AcDbCircle
 10
992.3110839561726
 20
541.8177956366828
 30
0.0
 40
8.0
100
AcDbArc
 50
183.0000000000054
 51
263.8692178258902
1001
GENIUS_GENODEF_13
1002
{
1000
HIER
1070
     0
1002
}
1002
{
1000
MANEDIT
1070
     0
1002
}
1002
{
1000
NOSEL
1070
     0
1002
}
1002
{
1000
BEHIND
1070
     0
1002
}
1002
{
1000
REACTOR
1002
}
1001
GENIUS_GENOBJ-N-FIL_13
1002
{
1000
OWNER
1000
GEN
1002
}
  0
LINE
  5
86E
330
1F
100
AcDbEntity
  8
AM_0
 62
     7
100
AcDbLine
 10
1017.566261122599
 20
533.8177956366828
 30
0.0
 11
991.4566978415919
 21
533.8635499548346
 31
0.0
  0
HATCH
  5
86F
330
1F
100
AcDbEntity
  8
AM_0
 62
     7
100
AcDbHatch
 10
0.0
 20
0.0
 30
0.0
210
0.0
220
0.0
230
1.0
  2
_U
 70
     0
 71
     0
 91
        1
 92
        1
 93
        4
 72
     1
 10
1017.566261122599
 20
533.8177956366828
 11
1011.066261122598
 21
533.8291862166316
 72
     1
 10
1011.066261122598
 20
533.8291862166316
 11
1011.066261122598
 21
536.8177956366828
 72
     1
 10
1011.066261122598
 20
536.8177956366828
 11
1017.566261122599
 21
536.8177956366828
 72
     1
 10
1017.566261122599
 20
536.8177956366828
 11
1017.566261122599
 21
533.8177956366828
 97
        0
 75
     0
 76
     0
 52
45.0
 41
1.5
 77
     0
 78
     1
 53
135.0
 43
1071.346543886875
 44
409.8784320721343
 45
1.060660171779817
 46
1.060660171779817
 79
     0
 98
        1
 10
1071.346543886875
 20
409.8784320721343
1001
GENIUS_GENODEF_13
1002
{
1000
HIER
1070
     0
1002
}
1002
{
1000
MANEDIT
1070
     0
1002
}
1002
{
1000
NOSEL
1070
     0
1002
}
1002
{
1000
BEHIND
1070
     0
1002
}
1002
{
1000
REACTOR
1002
}
1001
GENIUS_GENOBJ-N-HTC_13
1002
{
1000
OWNER
1000
GEN
1002
}
1001
GENIUS_GENHATCH_13
1002
{
1000
DATA
1040
45.0
1042
-2.5
1000
_U
1070
     0
1011
1014.598052349305
1021
620.7912612694636
1031
0.0
1002
}
1002
{
1000
UCS
1010
0.0
1020
0.0
1030
0.0
1010
1.0
1020
0.0
1030
0.0
1010
0.0
1020
1.0
1030
0.0
1002
}
  0
HATCH
  5
870
330
1F
100
AcDbEntity
  8
AM_0
 62
     7
100
AcDbHatch
 10
0.0
 20
0.0
 30
0.0
210
0.0
220
0.0
230
1.0
  2
_U
 70
     0
 71
     0
 91
        1
 92
        1
 93
       23
 72
     1
 10
972.5892366722122
 20
583.0811449879409
 11
971.6376304057668
 21
585.9509887576697
 72
     2
 10
828.5737241829163
 20
885.545245605631
 40
332.0000000000344
 50
295.5256665021863
 51
295.6871964587129
 73
     1
 72
     2
 10
976.3828051786298
 20
578.2449436610577
 40
8.999999999999914
 50
-115.6871964587034
 51
-92.43829259288995
 73
     0
 72
     2
 10
975.999914669425
 20
586.2367952422378
 40
0.9999999999999998
 50
-90.00000000006105
 51
-3.982995160964783
 73
     0
 72
     2
 10
977.9971171387838
 20
586.3339022353358
 40
0.9999999999999575
 50
181.5842347761472
 51
258.2601652954445
 73
     1
 72
     2
 10
976.3693727566327
 20
578.5012495412367
 40
6.999999999999927
 50
-78.26016529544141
 51
-2.999999999999813
 73
     0
 72
     1
 10
983.3597794999144
 20
578.8676012349369
 11
984.2618361993068
 21
561.6553340537567
 72
     2
 10
985.2604657340613
 20
561.7076700099986
 40
0.9999999999999326
 50
182.999999999996
 51
273.0000000000033
 73
     1
 72
     2
 10
985.3651376465473
 20
559.7104109404908
 40
0.9999999999999971
 50
-92.9999999999991
 51
-3.000000000002355
 73
     0
 72
     1
 10
986.3637671813016
 20
559.7627468967337
 11
987.3179362824
 21
541.5561158554687
 72
     2
 10
992.3110839561726
 20
541.8177956366828
 40
4.999999999999943
 50
182.9999999999997
 51
270.0000000000005
 73
     1
 72
     1
 10
992.3110839561726
 20
536.8177956366828
 11
999.0662611225983
 21
536.8177956366828
 72
     1
 10
999.0662611225983
 20
536.8177956366828
 11
999.0662611225983
 21
533.8502149796148
 72
     1
 10
999.0662611225983
 20
533.8502149796148
 11
991.4566978415919
 21
533.8635499548346
 72
     2
 10
992.3110839561726
 20
541.8177956366828
 40
8.000000000000026
 50
96.13078217411135
 51
177.0000000000001
 73
     0
 72
     1
 10
984.3220476781358
 20
541.3991079867399
 11
983.5159070152743
 21
556.7811881643316
 72
     2
 10
982.5172774805203
 20
556.7288522080889
 40
1.000000000000017
 50
363.0000000000006
 51
433.5287793655104
 73
     1
 72
     2
 10
983.3678785770374
 20
559.6057390280048
 40
2.000000000000043
 50
106.4712206344913
 51
176.9999999999994
 73
     0
 72
     1
 10
981.3706195075287
 20
559.5010671155188
 11
980.3773233176483
 21
578.4542874860298
 72
     2
 10
976.3828051786298
 20
578.2449436610577
 40
4.000000000000006
 50
362.9999999999999
 51
446.267314037591
 73
     1
 72
     2
 10
976.7734146963768
 20
584.2322155109608
 40
2.000000000000025
 50
93.73268596240869
 51
149.9874957708012
 73
     0
 72
     2
 10
974.1756659068473
 20
582.7316485426128
 40
0.9999999999999291
 50
390.0125042291952
 51
475.6796560151705
 73
     1
 72
     2
 10
828.5737241829489
 20
885.5452456055658
 40
334.9999999999615
 50
64.32034398484194
 51
64.53897300460837
 73
     0
 97
        0
 75
     0
 76
     0
 52
45.0
 41
1.5
 77
     0
 78
     1
 53
135.0
 43
1071.346543886875
 44
409.8784320721343
 45
1.060660171779817
 46
1.060660171779817
 79
     0
 98
        1
 10
1071.346543886875
 20
409.8784320721343
1001
GENIUS_GENODEF_13
1002
{
1000
HIER
1070
     0
1002
}
1002
{
1000
MANEDIT
1070
     0
1002
}
1002
{
1000
NOSEL
1070
     0
1002
}
1002
{
1000
BEHIND
1070
     0
1002
}
1002
{
1000
REACTOR
1002
}
1001
GENIUS_GENOBJ-N-HTC_13
1002
{
1000
OWNER
1000
GEN
1002
}
1001
GENIUS_GENHATCH_13
1002
{
1000
DATA
1040
45.0
1042
-2.5
1000
_U
1070
     0
1011
982.8642218838576
1021
652.2366655563419
1031
0.0
1002
}
1002
{
1000
UCS
1010
0.0
1020
0.0
1030
0.0
1010
1.0
1020
0.0
1030
0.0
1010
0.0
1020
1.0
1030
0.0
1002
}
  0
ARC
  5
871
330
1F
100
AcDbEntity
  8
AM_0
 62
     7
100
AcDbCircle
 10
828.5737241829306
 20
885.5452456055997
 30
0.0
 40
340.0
100
AcDbArc
 50
288.8549689072953
 51
295.6871964587498
  0
LINE
  5
872
330
1F
100
AcDbEntity
  8
AM_0
 62
     7
100
AcDbLine
 10
979.2719061893272
 20
544.5965993855487
 30
0.0
 11
977.3818121022037
 21
578.2903112443769
 31
0.0
  0
ARC
  5
873
330
1F
100
AcDbEntity
  8
AM_0
 62
     7
100
AcDbCircle
 10
976.3828051786298
 20
578.2449436610577
 30
0.0
 40
1.0
100
AcDbArc
 50
3.000000000005424
 51
115.6871964587497
1001
GENIUS_GENODEF_13
1002
{
1000
HIER
1070
     0
1002
}
1002
{
1000
MANEDIT
1070
     0
1002
}
1002
{
1000
NOSEL
1070
     0
1002
}
1002
{
1000
BEHIND
1070
     0
1002
}
1002
{
1000
REACTOR
1002
}
1001
GENIUS_GENOBJ-N-FIL_13
1002
{
1000
OWNER
1000
GEN
1002
}
  0
ARC
  5
874
330
1F
100
AcDbEntity
  8
AM_0
 62
     7
100
AcDbCircle
 10
937.4832783094133
 20
566.6287847259978
 30
0.0
 40
3.0
100
AcDbArc
 50
198.3449107207315
 51
288.8549689072953
1001
GENIUS_GENODEF_13
1002
{
1000
HIER
1070
     0
1002
}
1002
{
1000
MANEDIT
1070
     0
1002
}
1002
{
1000
NOSEL
1070
     0
1002
}
1002
{
1000
BEHIND
1070
     0
1002
}
1002
{
1000
REACTOR
1002
}
1001
GENIUS_GENOBJ-N-FIL_13
1002
{
1000
OWNER
1000
GEN
1002
}
  0
ARC
  5
875
330
1F
100
AcDbEntity
  8
AM_0
 62
     7
100
AcDbCircle
 10
991.043503134489
 20
545.6774392177408
 30
0.0
 40
11.82111286563938
100
AcDbArc
 50
185.2460519851589
 51
272.0031224262276
  0
POINT
  5
876
330
1F
100
AcDbEntity
  8
AM_0
  6
ByBlock
 62
     7
380
     1
100
AcDbPoint
 10
957.7151930836194
 20
579.6915534418917
 30
0.0
 50
180.0
  0
ARC
  5
877
330
1F
100
AcDbEntity
  8
AM_0
 62
     7
100
AcDbCircle
 10
828.5737241829306
 20
885.5452456055997
 30
0.0
 40
332.0
100
AcDbArc
 50
288.3449107207511
 51
295.6871964587498
  0
LINE
  5
878
330
1F
100
AcDbEntity
  8
AM_0
 62
     7
100
AcDbLine
 10
971.6376304057673
 20
585.9509887576697
 30
0.0
 11
972.5892366722122
 21
583.0811449879409
 31
0.0
  0
LINE
  5
879
330
1F
100
AcDbEntity
  8
AM_0
 62
     7
100
AcDbLine
 10
934.4889632145255
 20
570.8931168333947
 30
0.0
 11
935.4331824365747
 21
568.0455508313569
 31
0.0
  0
LINE
  5
87A
330
1F
100
AcDbEntity
  8
AM_0
 62
     7
100
AcDbLine
 10
934.6357411108979
 20
565.6845750548567
 30
0.0
 11
934.0277641473957
 21
567.5723426813338
 31
0.0
  0
LINE
  5
87B
330
1F
100
AcDbEntity
  8
AM_0
 62
     7
100
AcDbLine
 10
985.3704709914206
 20
578.7159672672437
 30
0.0
 11
987.3179362823996
 21
541.5561158554687
 31
0.0
  0
LINE
  5
87C
330
1F
100
AcDbEntity
  8
AM_7
 48
2.0
100
AcDbLine
 10
1688.309912269986
 20
1062.92203936315
 30
0.0
 11
1478.201781823926
 21
941.839996379036
 31
0.0
  0
LINE
  5
87D
330
1F
100
AcDbEntity
  8
AM_7
 48
2.0
100
AcDbLine
 10
1688.309912269986
 20
1062.92203936315
 30
0.0
 11
1898.321072687713
 21
941.6720393631507
 31
0.0
  0
LINE
  5
87E
330
1F
100
AcDbEntity
  8
AM_0
 62
     7
100
AcDbLine
 10
766.3797941791807
 20
1281.244507298652
 30
0.0
 11
766.3797941791807
 21
1280.171417221102
 31
0.0
  0
LINE
  5
87F
330
1F
100
AcDbEntity
  8
AM_0
 62
     7
100
AcDbLine
 10
758.752735935336
 20
1281.244507298652
 30
0.0
 11
758.752735935336
 21
1280.171417221102
 31
0.0
  0
LINE
  5
880
330
1F
100
AcDbEntity
  8
0
100
AcDbLine
 10
447.3162611225985
 20
916.2445072986516
 30
0.0
 11
1079.566261122598
 21
916.2445072986516
 31
0.0
  0
LINE
  5
881
330
1F
100
AcDbEntity
  8
0
 62
     2
100
AcDbLine
 10
450.8944303999318
 20
880.2030563096858
 30
0.0
 11
1073.954399307441
 21
880.2030563096858
 31
0.0
  0
LINE
  5
882
330
1F
100
AcDbEntity
  8
0
 62
     2
100
AcDbLine
 10
450.8944303999318
 20
870.2513176597518
 30
0.0
 11
1073.954399307441
 21
870.2513176597518
 31
0.0
  0
LINE
  5
883
330
1F
100
AcDbEntity
  8
AM_0
 62
     7
100
AcDbLine
 10
1103.567708192415
 20
754.8167980269409
 30
0.0
 11
1103.567708192415
 21
722.8187932464257
 31
0.0
  0
HATCH
  5
884
330
1F
100
AcDbEntity
  8
4
100
AcDbHatch
 10
0.0
 20
0.0
 30
0.0
210
0.0
220
0.0
230
1.0
  2
SOLID
 70
     1
 71
     0
 91
        8
 92
        7
 72
     0
 73
     1
 93
       23
 10
1630.486150514546
 20
627.9711983433728
 10
1630.64766656551
 20
628.8595366236587
 10
1630.970698667435
 20
629.5056008275039
 10
1631.455246820314
 20
629.9901489803857
 10
1631.939794973201
 20
630.3939391077918
 10
1632.908891278967
 20
630.6362131842337
 10
1633.393439431855
 20
630.7169712097137
 10
1634.281777712142
 20
630.7169712097147
 10
1634.281777712142
 20
637.4083504638266
 10
1631.374488794834
 20
637.4083504638266
 10
1629.759328285228
 20
637.3275924383488
 10
1628.386441852053
 20
637.1660763873858
 10
1627.255829495314
 20
636.7622862599849
 10
1626.205975164075
 20
636.3584961325789
 10
1625.409931770042
 20
635.7931899542195
 10
1624.683109540727
 20
635.2278837758537
 10
1624.117803362362
 20
634.5818195720047
 10
1623.633255209474
 20
633.9357553681577
 10
1623.067949031112
 20
632.5744057957686
 10
1622.744916929186
 20
631.4437934390427
 10
1622.664158903708
 20
630.3939391077967
 10
1622.664158903708
 20
611.9118881335009
 10
1630.48615051455
 20
611.9118881335009
 97
        0
 92
        7
 72
     0
 73
     1
 93
       54
 10
1659.212933864103
 20
629.2633267510628
 10
1658.486111634779
 20
630.8784872606767
 10
1657.43625730353
 20
632.4936477702918
 10
1656.224886921322
 20
633.8549973426768
 10
1654.690484437191
 20
635.1471257503686
 10
1652.994565902096
 20
636.1969800816178
 10
1651.137131316038
 20
637.0045603364249
 10
1649.129717539802
 20
637.5698665147897
 10
1647.030008877304
 20
637.7313825657509
 10
1645.495606393176
 20
637.6506245402697
 10
1644.122719959999
 20
637.4083504638298
 10
1642.83059155231
 20
637.0853183619057
 10
1641.619221170103
 20
636.6007702090207
 10
1640.488608813374
 20
636.0354640306548
 10
1639.519512507602
 20
635.3893998268127
 10
1638.631174227316
 20
634.5818195720038
 10
1637.742835947028
 20
633.7742393172018
 10
1637.027550578486
 20
632.8974378976968
 10
1636.462244400124
 20
631.9283415919247
 10
1635.896938221754
 20
630.8784872606729
 10
1635.493148094353
 20
629.8286329294308
 10
1634.927841915987
 20
627.6481662414487
 10
1634.685567839545
 20
625.3869415279938
 10
1634.766325865027
 20
623.6910229929008
 10
1635.008599941468
 20
622.1681573695446
 10
1635.41239006887
 20
620.7145129108969
 10
1635.977696247236
 20
619.3416264777186
 10
1636.623760451085
 20
618.1302560955097
 10
1637.350582680406
 20
616.9996437387858
 10
1638.227384099908
 20
615.9497894075367
 10
1639.196480405678
 20
614.9806931017649
 10
1640.327092762406
 20
614.1731128469597
 10
1641.45770511913
 20
613.5270486431187
 10
1642.669075501351
 20
612.8809844392677
 10
1643.88044588356
 20
612.3964362863826
 10
1645.253332316739
 20
612.0734041844578
 10
1646.545460724421
 20
611.7503720825377
 10
1647.918347157588
 20
611.5888560315777
 10
1649.279696729988
 20
611.5888560315777
 10
1651.137131316038
 20
611.6696140570589
 10
1652.833049851132
 20
611.9118881335009
 10
1654.286694309787
 20
612.2349202354227
 10
1655.578822717478
 20
612.6387103628277
 10
1657.355499278046
 20
613.4462906176329
 10
1657.920805456413
 20
613.7693227195559
 10
1657.920805456413
 20
621.6836092166618
 10
1656.144128895836
 20
620.4722388344527
 10
1654.367452335265
 20
619.5031425286837
 10
1652.348501698242
 20
618.7763202993558
 10
1651.379405392479
 20
618.5340462229158
 10
1650.410309086714
 20
618.4532881974347
 10
1648.806685437883
 20
618.4532881974347
 10
1647.676073081155
 20
618.6955622738756
 10
1647.191524928266
 20
618.7763202993568
 97
        0
 92
       22
 72
     0
 73
     1
 93
       15
 10
1642.346043399428
 20
623.4487489164527
 10
1642.103769322986
 20
624.0140550948177
 10
1641.942253272028
 20
624.6601192986457
 10
1641.780737221059
 20
625.4676995534707
 10
1641.861495246545
 20
626.4367958592387
 10
1642.103769322986
 20
627.4866501904889
 10
1642.669075501351
 20
628.6172625472187
 10
1643.638171807118
 20
629.7478749039468
 10
1644.768784163846
 20
630.5554551587515
 10
1645.980154546055
 20
630.9592452861567
 10
1647.110766902788
 20
631.0400033116377
 10
1648.079863208556
 20
630.8784872606767
 10
1648.968201488843
 20
630.6362131842347
 10
1649.602728831905
 20
630.3131810823116
 10
1650.168035010269
 20
629.9901489803898
 97
        0
 92
        7
 72
     0
 73
     1
 93
       27
 10
1668.730844010044
 20
629.2633267510628
 10
1672.203439105713
 20
629.2633267510628
 10
1672.203439105713
 20
635.3086418013307
 10
1668.730844010044
 20
635.3086418013307
 10
1668.730844010044
 20
637.9736566421918
 10
1668.892360061001
 20
638.8619949224797
 10
1669.215392162927
 20
639.5080591263266
 10
1669.699940315815
 20
639.9926072792087
 10
1670.184488468694
 20
640.3963974066138
 10
1671.234342799942
 20
640.6386714830547
 10
1671.638132927346
 20
640.7194295085356
 10
1672.514934346852
 20
640.7194295085356
 10
1672.514934346852
 20
646.9262606097648
 10
1669.619182290331
 20
646.9262606097657
 10
1668.084779806195
 20
646.8455025842837
 10
1666.711893373029
 20
646.6032285078417
 10
1665.500522990826
 20
646.1994383804428
 10
1664.450668659567
 20
645.7956482530358
 10
1663.643088404757
 20
645.2303420746717
 10
1662.916266175434
 20
644.6765727570919
 10
1662.350959997066
 20
644.0305085532437
 10
1661.947169869669
 20
643.3844443494027
 10
1661.301105665821
 20
642.0923159417098
 10
1660.978073563898
 20
640.8809455594957
 10
1660.897315538416
 20
639.8310912282409
 10
1660.897315538416
 20
611.9926461589807
 10
1668.730844010044
 20
611.9926461589807
 97
        0
 92
        7
 72
     0
 73
     1
 93
        4
 10
1683.255751735779
 20
646.9262606097648
 10
1675.099191162235
 20
646.9262606097657
 10
1675.099191162235
 20
611.9926461589807
 10
1683.255751735779
 20
611.9926461589807
 97
        0
 92
        7
 72
     0
 73
     1
 93
       54
 10
1709.952047587536
 20
629.2633267510628
 10
1709.225225358212
 20
630.8784872606767
 10
1708.175371026962
 20
632.4936477702898
 10
1706.964000644755
 20
633.8549973426777
 10
1705.4411350214
 20
635.1471257503707
 10
1703.745216486308
 20
636.1969800816178
 10
1701.88778190025
 20
637.0045603364249
 10
1699.868831263233
 20
637.5698665147897
 10
1697.769122600735
 20
637.7313825657497
 10
1696.234720116608
 20
637.6506245402715
 10
1694.873370544214
 20
637.4083504638287
 10
1693.581242136528
 20
637.0853183619049
 10
1692.36987175431
 20
636.6007702090207
 10
1691.239259397582
 20
636.0354640306548
 10
1690.270163091811
 20
635.3893998268087
 10
1689.381824811529
 20
634.5818195720038
 10
1688.493486531242
 20
633.7742393171978
 10
1687.847422327401
 20
632.8974378976937
 10
1687.201358123556
 20
631.9283415919268
 10
1686.636051945183
 20
630.8784872606779
 10
1686.232261817782
 20
629.8286329294299
 10
1685.666955639419
 20
627.6481662414506
 10
1685.424681562978
 20
625.3869415279897
 10
1685.505439588455
 20
623.6910229928977
 10
1685.747713664897
 20
622.1681573695478
 10
1686.151503792302
 20
620.7145129108969
 10
1686.716809970669
 20
619.3416264777217
 10
1687.36287417452
 20
618.130256095501
 10
1688.08969640384
 20
616.9996437387817
 10
1688.978034684125
 20
615.9497894075347
 10
1690.027889015375
 20
614.9806931017667
 10
1691.077743346625
 20
614.1731128469587
 10
1692.208355703353
 20
613.5270486431139
 10
1693.419726085565
 20
612.8809844392677
 10
1694.631096467771
 20
612.3964362863826
 10
1695.992446040172
 20
612.0734041844578
 10
1697.284574447853
 20
611.7503720825387
 10
1698.657460881026
 20
611.5888560315777
 10
1700.030347314192
 20
611.5888560315777
 10
1701.88778190025
 20
611.6696140570577
 10
1703.583700435351
 20
611.9118881335009
 10
1705.118102919477
 20
612.2349202354219
 10
1706.329473301693
 20
612.6387103628258
 10
1708.094613001478
 20
613.4462906176329
 10
1708.659919179845
 20
613.7693227195559
 10
1708.659919179845
 20
621.6836092166609
 10
1706.883242619271
 20
620.4722388344538
 10
1705.118102919477
 20
619.5031425286828
 10
1703.099152282462
 20
618.7763202993568
 10
1702.130055976693
 20
618.5340462229158
 10
1701.160959670926
 20
618.4532881974347
 10
1699.545799161312
 20
618.4532881974347
 10
1698.415186804581
 20
618.6955622738769
 10
1697.930638651698
 20
618.7763202993568
 97
        0
 92
       22
 72
     0
 73
     1
 93
       15
 10
1692.531387805278
 20
625.4676995534707
 10
1692.612145830756
 20
626.4367958592379
 10
1692.854419907198
 20
627.4866501904869
 10
1693.419726085561
 20
628.6172625472137
 10
1694.388822391331
 20
629.7478749039457
 10
1695.507897887279
 20
630.5554551587537
 10
1696.719268269491
 20
630.9592452861577
 10
1697.849880626218
 20
631.0400033116377
 10
1698.818976931985
 20
630.8784872606767
 10
1699.707315212272
 20
630.6362131842347
 10
1700.353379416123
 20
630.3131810823087
 10
1700.918685594484
 20
629.9901489803898
 10
1693.09669398364
 20
623.4487489164538
 10
1692.854419907198
 20
624.0140550948157
 10
1692.692903856241
 20
624.6601192986489
 97
        0
 92
        7
 72
     0
 73
     1
 93
       66
 10
1730.683786414505
 20
624.6601192986637
 10
1730.037722210654
 20
625.0639094260689
 10
1729.483952893079
 20
625.3869415279897
 10
1730.603028389023
 20
626.1137637573157
 10
1731.410608643829
 20
627.0828600630789
 10
1732.056672847678
 20
628.1327143943336
 10
1732.460462975079
 20
629.1825687255826
 10
1732.783495077005
 20
630.9592452861546
 10
1732.783495077005
 20
631.7668255409627
 10
1732.783495077005
 20
637.1660763873858
 10
1725.203777542601
 20
637.1660763873858
 10
1725.203777542601
 20
632.5744057957747
 10
1725.123019517122
 20
632.0090996174077
 10
1724.7999874152
 20
630.8784872606787
 10
1724.476955313277
 20
630.3131810823116
 10
1723.91164913491
 20
629.7478749039457
 10
1723.104068880101
 20
629.3440847765428
 10
1722.134972574336
 20
629.2633267510628
 10
1721.165876268567
 20
629.3440847765439
 10
1720.358296013762
 20
629.7478749039468
 10
1719.873747860877
 20
630.2324230568307
 10
1719.550715758954
 20
630.8784872606767
 10
1719.308441682512
 20
632.0090996174077
 10
1719.308441682512
 20
632.4936477702898
 10
1719.308441682512
 20
637.1660763873858
 10
1711.56720809715
 20
637.1660763873858
 10
1711.567208097152
 20
631.6860675154806
 10
1711.72872414811
 20
629.9901489803906
 10
1712.132514275514
 20
628.6980205727009
 10
1712.6170624284
 20
627.5674082159667
 10
1713.263126632242
 20
626.7598279611657
 10
1713.909190836092
 20
626.1137637573149
 10
1714.393738988976
 20
625.7099736299119
 10
1714.959045167335
 20
625.3869415279897
 10
1714.232222938013
 20
625.0639094260689
 10
1713.666916759652
 20
624.6601192986648
 10
1712.778578479358
 20
623.6910229928999
 10
1712.051756250035
 20
622.5604106361657
 10
1711.647966122631
 20
621.4413351402209
 10
1711.32493402071
 20
620.3914808089738
 10
1711.163417969748
 20
619.5031425286807
 10
1711.082659944267
 20
618.6955622738727
 10
1711.082659944267
 20
611.9926461589807
 10
1719.14692563155
 20
611.9926461589807
 10
1719.14692563155
 20
618.1302560955137
 10
1719.227683657027
 20
618.7763202993648
 10
1719.308441682515
 20
619.3416264777217
 10
1719.469957733475
 20
620.0684487070478
 10
1719.873747860874
 20
620.7145129108927
 10
1720.439054039241
 20
621.3605771147387
 10
1721.24663429405
 20
621.7643672421437
 10
1722.377246650778
 20
621.9258832931037
 10
1723.427100982027
 20
621.7643672421417
 10
1724.234681236835
 20
621.3605771147387
 10
1724.719229389719
 20
620.7145129108937
 10
1725.042261491639
 20
619.9876906815709
 10
1725.203777542601
 20
619.3416264777168
 10
1725.284535568085
 20
618.6955622738769
 10
1725.284535568085
 20
618.1302560955117
 10
1725.284535568085
 20
611.9926461589807
 10
1733.268043229888
 20
611.9926461589807
 10
1733.268043229888
 20
618.7763202993607
 10
1733.106527178925
 20
620.5529968599338
 10
1732.621979026041
 20
622.0066413185817
 10
1732.056672847674
 20
623.1257168145328
 10
1731.329850618351
 20
624.0140550948199
 97
        0
 75
     0
 76
     1
 47
0.0429800832770381
 98
        8
 10
1626.983467075004
 20
626.6902200895628
 10
1643.08162524574
 20
619.4330365273677
 10
1643.08162524574
 20
619.4330365273677
 10
1665.177147681168
 20
622.5883308518697
 10
1679.697055354113
 20
624.1659780141186
 10
1689.482211533686
 20
625.7436251763697
 10
1689.482211533686
 20
625.7436251763697
 10
1717.259429574611
 20
624.4815096518508
450
        0
451
        0
460
0.0
461
0.0
452
        0
462
0.0
453
        0
470

  0
POLYLINE
  5
885
330
1F
100
AcDbEntity
  8
4
100
AcDb2dPolyline
 66
     1
 10
0.0
 20
0.0
 30
0.0
  0
VERTEX
  5
886
330
885
100
AcDbEntity
  8
4
100
AcDbVertex
100
AcDb2dVertex
 10
1657.920805456413
 20
621.6836092166618
 30
0.0
  0
VERTEX
  5
887
330
885
100
AcDbEntity
  8
4
100
AcDbVertex
100
AcDb2dVertex
 10
1657.920805456413
 20
613.7693227195559
 30
0.0
  0
VERTEX
  5
888
330
885
100
AcDbEntity
  8
4
100
AcDbVertex
100
AcDb2dVertex
 10
1657.355499278051
 20
613.4462906176329
 30
0.0
  0
VERTEX
  5
889
330
885
100
AcDbEntity
  8
4
100
AcDbVertex
100
AcDb2dVertex
 10
1655.578822717475
 20
612.6387103628258
 30
0.0
  0
VERTEX
  5
88A
330
885
100
AcDbEntity
  8
4
100
AcDbVertex
100
AcDb2dVertex
 10
1654.286694309784
 20
612.2349202354227
 30
0.0
  0
VERTEX
  5
88B
330
885
100
AcDbEntity
  8
4
100
AcDbVertex
100
AcDb2dVertex
 10
1652.833049851132
 20
611.9118881335009
 30
0.0
  0
VERTEX
  5
88C
330
885
100
AcDbEntity
  8
4
100
AcDbVertex
100
AcDb2dVertex
 10
1651.137131316038
 20
611.6696140570577
 30
0.0
  0
VERTEX
  5
88D
330
885
100
AcDbEntity
  8
4
100
AcDbVertex
100
AcDb2dVertex
 10
1649.279696729983
 20
611.5888560315777
 30
0.0
  0
VERTEX
  5
88E
330
885
100
AcDbEntity
  8
4
100
AcDbVertex
100
AcDb2dVertex
 10
1647.918347157593
 20
611.5888560315777
 30
0.0
  0
VERTEX
  5
88F
330
885
100
AcDbEntity
  8
4
100
AcDbVertex
100
AcDb2dVertex
 10
1646.545460724421
 20
611.7503720825377
 30
0.0
  0
VERTEX
  5
890
330
885
100
AcDbEntity
  8
4
100
AcDbVertex
100
AcDb2dVertex
 10
1645.253332316729
 20
612.0734041844607
 30
0.0
  0
VERTEX
  5
891
330
885
100
AcDbEntity
  8
4
100
AcDbVertex
100
AcDb2dVertex
 10
1643.88044588356
 20
612.3964362863826
 30
0.0
  0
VERTEX
  5
892
330
885
100
AcDbEntity
  8
4
100
AcDbVertex
100
AcDb2dVertex
 10
1642.669075501348
 20
612.8809844392686
 30
0.0
  0
VERTEX
  5
893
330
885
100
AcDbEntity
  8
4
100
AcDbVertex
100
AcDb2dVertex
 10
1641.45770511914
 20
613.5270486431139
 30
0.0
  0
VERTEX
  5
894
330
885
100
AcDbEntity
  8
4
100
AcDbVertex
100
AcDb2dVertex
 10
1640.32709276241
 20
614.1731128469597
 30
0.0
  0
VERTEX
  5
895
330
885
100
AcDbEntity
  8
4
100
AcDbVertex
100
AcDb2dVertex
 10
1639.196480405678
 20
614.9806931017649
 30
0.0
  0
VERTEX
  5
896
330
885
100
AcDbEntity
  8
4
100
AcDbVertex
100
AcDb2dVertex
 10
1638.227384099911
 20
615.9497894075339
 30
0.0
  0
VERTEX
  5
897
330
885
100
AcDbEntity
  8
4
100
AcDbVertex
100
AcDb2dVertex
 10
1637.350582680406
 20
616.9996437387829
 30
0.0
  0
VERTEX
  5
898
330
885
100
AcDbEntity
  8
4
100
AcDbVertex
100
AcDb2dVertex
 10
1636.623760451081
 20
618.1302560955117
 30
0.0
  0
VERTEX
  5
899
330
885
100
AcDbEntity
  8
4
100
AcDbVertex
100
AcDb2dVertex
 10
1635.977696247236
 20
619.3416264777217
 30
0.0
  0
VERTEX
  5
89A
330
885
100
AcDbEntity
  8
4
100
AcDbVertex
100
AcDb2dVertex
 10
1635.41239006887
 20
620.7145129108937
 30
0.0
  0
VERTEX
  5
89B
330
885
100
AcDbEntity
  8
4
100
AcDbVertex
100
AcDb2dVertex
 10
1635.008599941468
 20
622.1681573695459
 30
0.0
  0
VERTEX
  5
89C
330
885
100
AcDbEntity
  8
4
100
AcDbVertex
100
AcDb2dVertex
 10
1634.766325865023
 20
623.6910229928956
 30
0.0
  0
VERTEX
  5
89D
330
885
100
AcDbEntity
  8
4
100
AcDbVertex
100
AcDb2dVertex
 10
1634.685567839545
 20
625.3869415279897
 30
0.0
  0
VERTEX
  5
89E
330
885
100
AcDbEntity
  8
4
100
AcDbVertex
100
AcDb2dVertex
 10
1634.927841915987
 20
627.6481662414487
 30
0.0
  0
VERTEX
  5
89F
330
885
100
AcDbEntity
  8
4
100
AcDbVertex
100
AcDb2dVertex
 10
1635.493148094353
 20
629.8286329294269
 30
0.0
  0
VERTEX
  5
8A0
330
885
100
AcDbEntity
  8
4
100
AcDbVertex
100
AcDb2dVertex
 10
1635.896938221754
 20
630.8784872606767
 30
0.0
  0
VERTEX
  5
8A1
330
885
100
AcDbEntity
  8
4
100
AcDbVertex
100
AcDb2dVertex
 10
1636.462244400119
 20
631.9283415919247
 30
0.0
  0
VERTEX
  5
8A2
330
885
100
AcDbEntity
  8
4
100
AcDbVertex
100
AcDb2dVertex
 10
1637.027550578486
 20
632.8974378976928
 30
0.0
  0
VERTEX
  5
8A3
330
885
100
AcDbEntity
  8
4
100
AcDbVertex
100
AcDb2dVertex
 10
1637.742835947028
 20
633.7742393171978
 30
0.0
  0
VERTEX
  5
8A4
330
885
100
AcDbEntity
  8
4
100
AcDbVertex
100
AcDb2dVertex
 10
1638.631174227316
 20
634.5818195720038
 30
0.0
  0
VERTEX
  5
8A5
330
885
100
AcDbEntity
  8
4
100
AcDbVertex
100
AcDb2dVertex
 10
1639.519512507602
 20
635.3893998268118
 30
0.0
  0
VERTEX
  5
8A6
330
885
100
AcDbEntity
  8
4
100
AcDbVertex
100
AcDb2dVertex
 10
1640.488608813368
 20
636.0354640306559
 30
0.0
  0
VERTEX
  5
8A7
330
885
100
AcDbEntity
  8
4
100
AcDbVertex
100
AcDb2dVertex
 10
1641.619221170101
 20
636.6007702090219
 30
0.0
  0
VERTEX
  5
8A8
330
885
100
AcDbEntity
  8
4
100
AcDbVertex
100
AcDb2dVertex
 10
1642.83059155231
 20
637.0853183619057
 30
0.0
  0
VERTEX
  5
8A9
330
885
100
AcDbEntity
  8
4
100
AcDbVertex
100
AcDb2dVertex
 10
1644.122719960001
 20
637.4083504638287
 30
0.0
  0
VERTEX
  5
8AA
330
885
100
AcDbEntity
  8
4
100
AcDbVertex
100
AcDb2dVertex
 10
1645.49560639317
 20
637.6506245402697
 30
0.0
  0
VERTEX
  5
8AB
330
885
100
AcDbEntity
  8
4
100
AcDbVertex
100
AcDb2dVertex
 10
1647.030008877306
 20
637.7313825657497
 30
0.0
  0
VERTEX
  5
8AC
330
885
100
AcDbEntity
  8
4
100
AcDbVertex
100
AcDb2dVertex
 10
1649.129717539802
 20
637.5698665147897
 30
0.0
  0
VERTEX
  5
8AD
330
885
100
AcDbEntity
  8
4
100
AcDbVertex
100
AcDb2dVertex
 10
1651.137131316038
 20
637.0045603364249
 30
0.0
  0
VERTEX
  5
8AE
330
885
100
AcDbEntity
  8
4
100
AcDbVertex
100
AcDb2dVertex
 10
1652.994565902093
 20
636.1969800816178
 30
0.0
  0
VERTEX
  5
8AF
330
885
100
AcDbEntity
  8
4
100
AcDbVertex
100
AcDb2dVertex
 10
1654.690484437185
 20
635.1471257503686
 30
0.0
  0
VERTEX
  5
8B0
330
885
100
AcDbEntity
  8
4
100
AcDbVertex
100
AcDb2dVertex
 10
1656.224886921321
 20
633.8549973426777
 30
0.0
  0
VERTEX
  5
8B1
330
885
100
AcDbEntity
  8
4
100
AcDbVertex
100
AcDb2dVertex
 10
1657.43625730353
 20
632.4936477702898
 30
0.0
  0
VERTEX
  5
8B2
330
885
100
AcDbEntity
  8
4
100
AcDbVertex
100
AcDb2dVertex
 10
1658.486111634779
 20
630.8784872606767
 30
0.0
  0
VERTEX
  5
8B3
330
885
100
AcDbEntity
  8
4
100
AcDbVertex
100
AcDb2dVertex
 10
1659.212933864103
 20
629.2633267510628
 30
0.0
  0
VERTEX
  5
8B4
330
885
100
AcDbEntity
  8
4
100
AcDbVertex
100
AcDb2dVertex
 10
1647.191524928266
 20
618.7763202993568
 30
0.0
  0
VERTEX
  5
8B5
330
885
100
AcDbEntity
  8
4
100
AcDbVertex
100
AcDb2dVertex
 10
1647.676073081152
 20
618.6955622738769
 30
0.0
  0
VERTEX
  5
8B6
330
885
100
AcDbEntity
  8
4
100
AcDbVertex
100
AcDb2dVertex
 10
1648.806685437883
 20
618.4532881974347
 30
0.0
  0
VERTEX
  5
8B7
330
885
100
AcDbEntity
  8
4
100
AcDbVertex
100
AcDb2dVertex
 10
1650.410309086714
 20
618.4532881974347
 30
0.0
  0
VERTEX
  5
8B8
330
885
100
AcDbEntity
  8
4
100
AcDbVertex
100
AcDb2dVertex
 10
1651.379405392479
 20
618.5340462229158
 30
0.0
  0
VERTEX
  5
8B9
330
885
100
AcDbEntity
  8
4
100
AcDbVertex
100
AcDb2dVertex
 10
1652.348501698247
 20
618.7763202993568
 30
0.0
  0
VERTEX
  5
8BA
330
885
100
AcDbEntity
  8
4
100
AcDbVertex
100
AcDb2dVertex
 10
1654.367452335265
 20
619.5031425286837
 30
0.0
  0
VERTEX
  5
8BB
330
885
100
AcDbEntity
  8
4
100
AcDbVertex
100
AcDb2dVertex
 10
1656.144128895839
 20
620.4722388344527
 30
0.0
  0
VERTEX
  5
8BC
330
885
100
AcDbEntity
  8
4
100
AcDbVertex
100
AcDb2dVertex
 10
1657.920805456413
 20
621.6836092166618
 30
0.0
  0
VERTEX
  5
8BD
330
885
100
AcDbEntity
  8
4
100
AcDbVertex
100
AcDb2dVertex
 10
1657.920805456413
 20
621.6836092166618
 30
0.0
  0
SEQEND
  5
8BE
330
885
100
AcDbEntity
  8
4
  0
LWPOLYLINE
  5
8BF
330
1F
100
AcDbEntity
  8
4
100
AcDbPolyline
 90
        9
 70
     1
 43
2.258860799999999
 10
1608.092158645069
 20
606.5954068689676
 10
1608.092158645069
 20
649.3616623405476
 42
-0.414213562373076
 10
1612.473797896004
 20
653.7433015914806
 10
1743.674528523071
 20
653.7433015914806
 42
-0.4142135623731189
 10
1748.056167774005
 20
649.3616623405476
 10
1748.056167774005
 20
606.5954068687349
 42
-0.3882805062036363
 10
1744.122542085174
 20
602.2936387699708
 10
1612.473810738356
 20
602.2758891769629
 42
-0.3805717795643351
 10
1608.110551605746
 20
606.1583733947538
 42
-0.0371590147695308
  0
LWPOLYLINE
  5
8C0
330
1F
100
AcDbEntity
  8
4
100
AcDbPolyline
 90
        9
 70
     0
 43
0.0
 10
1606.962728245068
 20
606.5954068687235
 10
1606.962728245068
 20
649.3616623403037
 42
-0.4142135623730935
 10
1612.473797896001
 20
654.8727319912367
 10
1743.674528523071
 20
654.8727319912367
 42
-0.4142135623730935
 10
1749.185598174002
 20
649.3616623403037
 10
1749.185598174002
 20
606.5954068687235
 42
-0.3910991924838771
 10
1744.170176766808
 20
601.1642147818278
 10
1612.473963014259
 20
601.1464587869839
 42
-0.3805717795643467
 10
1606.988756656717
 20
606.0272661072097
 42
-0.3805717795643467
  0
LWPOLYLINE
  5
8C1
330
1F
100
AcDbEntity
  8
4
100
AcDbPolyline
 90
        9
 70
     0
 43
0.0
 10
1608.187410389716
 20
606.5954068687235
 10
1608.187410389716
 20
649.3616623403037
 42
-0.4142135623730959
 10
1612.473797896001
 20
653.6480498465867
 10
1743.674528523071
 20
653.6480498465867
 42
-0.4142135623730952
 10
1747.960916029353
 20
649.3616623403037
 10
1747.960916029353
 20
606.5954068687235
 42
-0.3879925607753563
 10
1744.118253937799
 20
602.3888899370929
 10
1612.473797896001
 20
602.3711409205039
 42
-0.3805717795643615
 10
1608.205159406306
 20
606.1694304705837
 42
-0.0582381889744711
  0
HATCH
  5
8C2
330
1F
100
AcDbEntity
  8
4
100
AcDbHatch
 10
0.0
 20
0.0
 30
0.0
210
0.0
220
0.0
230
1.0
  2
SOLID
 70
     1
 71
     0
 91
        3
 92
        7
 72
     0
 73
     1
 93
        4
 10
1743.674528523071
 20
654.8727319912377
 10
1612.473797896001
 20
654.8727319912377
 10
1612.473797896001
 20
654.2603909189117
 10
1743.674528523071
 20
654.2603909189117
 97
        0
 92
        7
 72
     0
 73
     1
 93
        4
 10
1607.575069317393
 20
649.3616623403037
 10
1606.962728245066
 20
649.3616623403037
 10
1606.962728245066
 20
606.5954068687235
 10
1607.57506931739
 20
606.5954068687235
 97
        0
 92
        7
 72
     0
 73
     1
 93
       42
 10
1608.711006379092
 20
651.3850502314636
 10
1608.817500478632
 20
651.5625403973598
 10
1608.923994578166
 20
651.7400305632516
 10
1609.048237694305
 20
651.9086462208678
 10
1609.172480810419
 20
652.0683873701588
 10
1609.314472943124
 20
652.2281285194479
 10
1609.456465075842
 20
652.3789951604618
 10
1609.607331716851
 20
652.5209872931708
 10
1609.767072866154
 20
652.6541049175928
 10
1609.926814015455
 20
652.7872225420128
 10
1610.09542967305
 20
652.9114656581357
 10
1610.272919838945
 20
653.0179597576719
 10
1610.450410004833
 20
653.1244538572067
 10
1610.636774679023
 20
653.2220734484467
 10
1610.823139353207
 20
653.3108185313929
 10
1611.018378535689
 20
653.3818145977488
 10
1611.213617718171
 20
653.4528106641057
 10
1611.417731408945
 20
653.5149322221675
 10
1611.621845099721
 20
653.5593047636377
 10
1611.834833298789
 20
653.6036773051139
 10
1612.047821497865
 20
653.6303008299977
 10
1612.260809696929
 20
653.6480498465867
 10
1612.473797896001
 20
653.6480498465867
 10
1612.473797895997
 20
654.2603909189129
 10
1611.488727475302
 20
654.1361478027887
 10
1610.619025662433
 20
653.8876615705397
 10
1609.749323849563
 20
653.3906891060437
 10
1609.06598671088
 20
652.8315950834819
 10
1608.44477113026
 20
652.0861363867409
 10
1608.009920223828
 20
651.2785561319349
 10
1607.699312433517
 20
650.3467327610008
 10
1607.57506931739
 20
649.3616623403037
 10
1608.187410389716
 20
649.3616623403037
 10
1608.187410389716
 20
649.5746505393777
 10
1608.205159406308
 20
649.787638738447
 10
1608.23178293119
 20
650.0006269375119
 10
1608.276155472655
 20
650.2136151366069
 10
1608.320528014137
 20
650.4177288273598
 10
1608.382649572211
 20
650.6129680098609
 10
1608.444771130263
 20
650.8170817006157
 10
1608.524641704918
 20
651.0123208830957
 10
1608.613386787864
 20
651.1986855572757
 97
        0
 75
     0
 76
     1
 47
0.0056314001768925
 98
        3
 10
1619.245151556202
 20
654.4755248159929
 10
1607.187817531063
 20
648.3060555053457
 10
1608.205849849287
 20
651.1999782026407
450
        0
451
        0
460
0.0
461
0.0
452
        0
462
0.0
453
        0
470

  0
HATCH
  5
8C3
330
1F
100
AcDbEntity
  8
4
100
AcDbHatch
 10
0.0
 20
0.0
 30
0.0
210
0.0
220
0.0
230
1.0
  2
SOLID
 70
     1
 71
     0
 91
       13
 92
        7
 72
     0
 73
     1
 93
        4
 10
1608.187410389716
 20
649.3616623403037
 10
1607.57506931739
 20
649.3616623403037
 10
1607.57506931739
 20
606.5954068687235
 10
1608.187410389716
 20
606.5954068687235
 97
        0
 92
        7
 72
     0
 73
     1
 93
        4
 10
1743.674528523071
 20
602.3711409205039
 10
1612.473797896001
 20
602.3711409205039
 10
1612.473797896001
 20
601.7587998481767
 10
1743.674528523071
 20
601.7587998481767
 97
        0
 92
        7
 72
     0
 73
     1
 93
        4
 10
1743.674528523071
 20
654.2603909189117
 10
1612.473797896001
 20
654.2603909189117
 10
1612.473797896001
 20
653.6480498465867
 10
1743.674528523071
 20
653.6480498465867
 97
        0
 92
        7
 72
     0
 73
     1
 93
        4
 10
1749.185598174005
 20
649.3616623403037
 10
1748.57325710168
 20
649.3616623403037
 10
1748.57325710168
 20
606.5954068687235
 10
1749.185598174005
 20
606.5954068687235
 97
        0
 92
        7
 72
     0
 73
     1
 93
       42
 10
1610.619025662433
 20
653.8876615705406
 10
1611.488727475302
 20
654.1361478027887
 10
1612.473797896001
 20
654.2603909189117
 10
1612.473797895997
 20
654.8727319912377
 10
1612.198688138871
 20
654.8638574829436
 10
1611.923578381744
 20
654.8372339580605
 10
1611.648468624603
 20
654.8017359248818
 10
1611.373358867473
 20
654.7573633834079
 10
1611.107123618632
 20
654.6952418253468
 10
1610.849762878088
 20
654.6153712506967
 10
1610.592402137544
 20
654.5266261677477
 10
1610.343915905298
 20
654.4290065765099
 10
1610.104304181348
 20
654.3225124769727
 10
1609.864692457395
 20
654.1982693608529
 10
1609.633955241734
 20
654.0651517364327
 10
1609.412092534403
 20
653.9142850954227
 10
1609.199104335299
 20
653.7634184544177
 10
1608.986116136239
 20
653.5948027968157
 10
1608.782002445457
 20
653.4261871392227
 10
1608.595637771264
 20
653.2398224650337
 10
1608.40927309708
 20
653.0445832825489
 10
1608.240657439491
 20
652.8493441000797
 10
1608.072041781889
 20
652.6363559010099
 10
1607.921175140882
 20
652.4233677019257
 10
1607.770308499872
 20
652.2015049945657
 10
1607.637190875452
 20
651.9707677789027
 10
1607.512947759329
 20
651.7311560549577
 10
1607.406453659798
 20
651.4915443310147
 10
1607.308834068555
 20
651.2430580987637
 10
1607.220088985604
 20
650.9856973582027
 10
1607.140218410955
 20
650.7283366176639
 10
1607.078096852895
 20
650.4621013688347
 10
1607.033724311422
 20
650.1869916116958
 10
1606.998226278246
 20
649.9118818545606
 10
1606.97160275336
 20
649.6367720974387
 10
1606.962728245066
 20
649.3616623403037
 10
1607.57506931739
 20
649.3616623403037
 10
1607.699312433517
 20
650.3467327610008
 10
1608.009920223825
 20
651.2785561319317
 10
1608.444771130264
 20
652.0861363867427
 10
1609.065986710882
 20
652.8315950834849
 10
1609.749323849563
 20
653.3906891060447
 97
        0
 92
        7
 72
     0
 73
     1
 93
       42
 10
1610.823139353209
 20
653.3108185313936
 10
1611.018378535689
 20
653.3818145977488
 10
1611.213617718171
 20
653.4528106641057
 10
1611.417731408945
 20
653.5149322221675
 10
1611.621845099721
 20
653.5593047636377
 10
1611.834833298789
 20
653.6036773051139
 10
1612.047821497865
 20
653.6303008299977
 10
1612.260809696929
 20
653.6480498465867
 10
1612.473797896001
 20
653.6480498465867
 10
1612.473797895997
 20
654.2603909189129
 10
1611.488727475302
 20
654.1361478027887
 10
1610.619025662433
 20
653.8876615705397
 10
1609.749323849563
 20
653.3906891060437
 10
1609.06598671088
 20
652.8315950834819
 10
1608.44477113026
 20
652.0861363867409
 10
1608.009920223828
 20
651.2785561319349
 10
1607.699312433517
 20
650.3467327610008
 10
1607.57506931739
 20
649.3616623403037
 10
1608.187410389716
 20
649.3616623403037
 10
1608.187410389716
 20
649.5746505393777
 10
1608.205159406308
 20
649.787638738447
 10
1608.23178293119
 20
650.0006269375119
 10
1608.276155472655
 20
650.2136151366069
 10
1608.320528014137
 20
650.4177288273598
 10
1608.382649572211
 20
650.6129680098609
 10
1608.444771130263
 20
650.8170817006157
 10
1608.524641704918
 20
651.0123208830957
 10
1608.613386787864
 20
651.1986855572757
 10
1608.711006379095
 20
651.3850502314669
 10
1608.817500478632
 20
651.5625403973598
 10
1608.923994578166
 20
651.7400305632516
 10
1609.048237694305
 20
651.9086462208678
 10
1609.172480810419
 20
652.0683873701588
 10
1609.314472943124
 20
652.2281285194479
 10
1609.456465075842
 20
652.3789951604618
 10
1609.607331716851
 20
652.5209872931708
 10
1609.767072866154
 20
652.6541049175928
 10
1609.926814015455
 20
652.7872225420128
 10
1610.09542967305
 20
652.9114656581357
 10
1610.272919838945
 20
653.0179597576719
 10
1610.450410004833
 20
653.1244538572067
 10
1610.636774679023
 20
653.2220734484467
 97
        0
 92
        7
 72
     0
 73
     1
 93
        4
 10
1743.674528523071
 20
601.7587998481767
 10
1612.473797896001
 20
601.7587998481767
 10
1612.473797896001
 20
601.1464587758506
 10
1743.674528523071
 20
601.1464587758506
 97
        0
 92
       22
 72
     0
 73
     1
 93
       42
 10
1747.76567684687
 20
603.8709328222855
 10
1748.200527753306
 20
604.7406346351557
 10
1748.511135543617
 20
605.6103364480247
 10
1748.57325710168
 20
606.5954068687235
 10
1747.960916029353
 20
606.5954068687235
 10
1747.960916029353
 20
606.3824186696498
 10
1747.943167012762
 20
606.1694304705768
 10
1747.916543487881
 20
605.9564422715098
 10
1747.881045454701
 20
605.7434540724426
 10
1747.827798404921
 20
605.5393403816207
 10
1747.774551355167
 20
605.3441011991886
 10
1747.70355528881
 20
605.1488620167067
 10
1747.632559222457
 20
604.9536228342307
 10
1747.543814139508
 20
604.7672581600395
 10
1747.455069056561
 20
604.5808934858519
 10
1747.348574957032
 20
604.4122778282477
 10
1747.242080857493
 20
604.2347876623647
 10
1747.11783774137
 20
604.0750465130529
 10
1746.993594625242
 20
603.9064308554626
 10
1746.860477000828
 20
603.7555642144647
 10
1746.718484868104
 20
603.6135720817418
 10
1746.567618227111
 20
603.4715799490316
 10
1746.416751586095
 20
603.3384623246107
 10
1746.248135928501
 20
603.2142192084887
 10
1746.079520270896
 20
603.0899760923606
 10
1745.91090461329
 20
602.9834819928247
 10
1745.733414447415
 20
602.8769878932937
 10
1745.547049773231
 20
602.7882428103438
 10
1745.351810590749
 20
602.6994977274027
 10
1745.156571408267
 20
602.6285016610467
 10
1744.961332225786
 20
602.5575055946898
 10
1744.757218535004
 20
602.5042585449197
 10
1744.54423033594
 20
602.4598860034497
 10
1744.331242136869
 20
602.4155134619758
 10
1744.118253937799
 20
602.3888899370929
 10
1743.896391230435
 20
602.3711409205039
 10
1743.674528523071
 20
602.3711409205039
 10
1743.674528523071
 20
601.7587998481767
 10
1744.659598943769
 20
601.8209214062387
 10
1745.591422314701
 20
602.1315291965509
 10
1746.399002569505
 20
602.5663801029837
 10
1747.144461266252
 20
603.1875956836066
 97
        0
 92
        7
 72
     0
 73
     1
 93
       42
 10
1747.925417996174
 20
603.1343486338377
 10
1748.094033653778
 20
603.3384623246147
 10
1748.244900294783
 20
603.5514505236777
 10
1748.386892427495
 20
603.7733132310479
 10
1748.520010051905
 20
604.0040504466936
 10
1748.644253168035
 20
604.2347876623697
 10
1748.75074726757
 20
604.4743993863137
 10
1748.848366858815
 20
604.7228856185657
 10
1748.937111941761
 20
604.9802463591166
 10
1749.008108008114
 20
605.2376070996399
 10
1749.070229566177
 20
605.5038423484958
 10
1749.123476615944
 20
605.7700775973255
 10
1749.150100140826
 20
606.0451873544598
 10
1749.176723665709
 20
606.3202971115968
 10
1749.185598174005
 20
606.5954068687235
 10
1748.57325710168
 20
606.5954068687235
 10
1748.511135543617
 20
605.6103364480267
 10
1748.200527753306
 20
604.7406346351537
 10
1747.76567684687
 20
603.8709328222877
 10
1747.144461266252
 20
603.1875956836016
 10
1746.399002569505
 20
602.5663801029828
 10
1745.591422314697
 20
602.1315291965478
 10
1744.659598943769
 20
601.8209214062387
 10
1743.674528523071
 20
601.7587998481767
 10
1743.674528523071
 20
601.1464587758506
 10
1743.949638280203
 20
601.1553332841457
 10
1744.233622545629
 20
601.1819568090296
 10
1744.517606811055
 20
601.2085803339139
 10
1744.783842059895
 20
601.2618273836807
 10
1745.050077308729
 20
601.3150744334478
 10
1745.31631255757
 20
601.3949450080997
 10
1745.573673298079
 20
601.4836900910446
 10
1745.822159530358
 20
601.5724351739907
 10
1746.070645762598
 20
601.6878037818156
 10
1746.301382978274
 20
601.8031723896548
 10
1746.532120193921
 20
601.9362900140687
 10
1746.762857409587
 20
602.0782821467808
 10
1746.97584560865
 20
602.2291487877878
 10
1747.188833807721
 20
602.3888899370929
 10
1747.384072990206
 20
602.5663801029837
 10
1747.579312172685
 20
602.7438702688776
 10
1747.756802338585
 20
602.9302349430646
 97
        0
 92
        7
 72
     0
 73
     1
 93
       42
 10
1747.144461266252
 20
652.8315950834849
 10
1746.399002569507
 20
653.3906891060419
 10
1745.591422314697
 20
653.8876615705406
 10
1744.659598943769
 20
654.1361478027887
 10
1743.674528523071
 20
654.2603909189129
 10
1743.674528523071
 20
653.6480498465867
 10
1743.896391230435
 20
653.6480498465867
 10
1744.118253937799
 20
653.6303008299977
 10
1744.331242136869
 20
653.5948027968187
 10
1744.54423033594
 20
653.5593047636407
 10
1744.748344026714
 20
653.5149322221675
 10
1744.952457717493
 20
653.4528106641047
 10
1745.156571408267
 20
653.3818145977488
 10
1745.351810590744
 20
653.3108185313936
 10
1745.538175264933
 20
653.2220734484467
 10
1745.724539939118
 20
653.1244538572067
 10
1745.902030105008
 20
653.0179597576719
 10
1746.079520270906
 20
652.9114656581357
 10
1746.248135928493
 20
652.7872225420128
 10
1746.407877077801
 20
652.6629794258857
 10
1746.5676182271
 20
652.5209872931746
 10
1746.718484868114
 20
652.3789951604599
 10
1746.851602492527
 20
652.2281285194577
 10
1746.993594625242
 20
652.0772618784457
 10
1747.11783774137
 20
651.9086462208497
 10
1747.233206349196
 20
651.7400305632516
 10
1747.348574957026
 20
651.5714149056547
 10
1747.446194548266
 20
651.3850502314677
 10
1747.543814139508
 20
651.2075600655727
 10
1747.632559222457
 20
651.0123208830917
 10
1747.70355528881
 20
650.8170817006157
 10
1747.774551355167
 20
650.6218425181278
 10
1747.827798404933
 20
650.4177288273598
 10
1747.881045454701
 20
650.2136151365817
 10
1747.916543487876
 20
650.0006269375277
 10
1747.943167012762
 20
649.7965132467497
 10
1747.960916029353
 20
649.5746505393748
 10
1747.960916029353
 20
649.3616623403037
 10
1748.57325710168
 20
649.3616623403037
 10
1748.511135543617
 20
650.3467327610056
 10
1748.200527753306
 20
651.2785561319317
 10
1747.76567684687
 20
652.0861363867409
 97
        0
 92
        7
 72
     0
 73
     1
 93
       42
 10
1747.392947498495
 20
653.4173126309308
 10
1747.188833807727
 20
653.5948027968157
 10
1746.984720116945
 20
653.7634184544177
 10
1746.762857409587
 20
653.9142850954236
 10
1746.54099470222
 20
654.0651517364327
 10
1746.310257486557
 20
654.1982693608518
 10
1746.070645762609
 20
654.3225124769727
 10
1745.831034038656
 20
654.4290065765087
 10
1745.573673298112
 20
654.5266261677498
 10
1745.31631255757
 20
654.6153712506958
 10
1745.058951817027
 20
654.6952418253468
 10
1744.783842059889
 20
654.7573633834087
 10
1744.517606811053
 20
654.8017359248818
 10
1744.233622545629
 20
654.8372339580605
 10
1743.958512788496
 20
654.8638574829436
 10
1743.674528523071
 20
654.8727319912377
 10
1743.674528523071
 20
654.2603909189117
 10
1744.659598943772
 20
654.1361478027878
 10
1745.591422314697
 20
653.8876615705406
 10
1746.399002569505
 20
653.3906891060437
 10
1747.144461266252
 20
652.8315950834849
 10
1747.76567684687
 20
652.0861363867409
 10
1748.200527753309
 20
651.2785561319317
 10
1748.511135543617
 20
650.3467327610008
 10
1748.57325710168
 20
649.3616623403037
 10
1749.185598174005
 20
649.3616623403037
 10
1749.176723665709
 20
649.6367720974338
 10
1749.150100140826
 20
649.9118818545676
 10
1749.123476615944
 20
650.1869916116987
 10
1749.070229566172
 20
650.4532268605619
 10
1749.008108008114
 20
650.7194621093787
 10
1748.937111941756
 20
650.9768228499178
 10
1748.848366858811
 20
651.2341835904549
 10
1748.75074726757
 20
651.4826698227058
 10
1748.644253168039
 20
651.7311560549577
 10
1748.52001005191
 20
651.9618932706167
 10
1748.395766935788
 20
652.1926304862748
 10
1748.244900294783
 20
652.4233677019338
 10
1748.094033653768
 20
652.6363559009999
 10
1747.93429250447
 20
652.8493441000728
 10
1747.756802338578
 20
653.0445832825558
 10
1747.579312172686
 20
653.2398224650347
 97
        0
 92
       23
 72
     0
 73
     1
 93
       42
 10
1609.456465075842
 20
603.6135720817448
 10
1609.305598434836
 20
603.7644387227518
 10
1609.172480810423
 20
603.9153053637557
 10
1609.0482376943
 20
604.0750465130637
 10
1608.923994578171
 20
604.2436621706579
 10
1608.808625970336
 20
604.4122778282607
 10
1608.702131870803
 20
604.5897679941487
 10
1608.613386787864
 20
604.7761326683239
 10
1608.524641704911
 20
604.9536228342227
 10
1608.444771130254
 20
605.1488620167167
 10
1608.373775063906
 20
605.3441011991857
 10
1608.320528014134
 20
605.5482148899698
 10
1608.276155472666
 20
605.7523285807388
 10
1608.231782931194
 20
605.9564422715098
 10
1608.205159406306
 20
606.1694304705809
 10
1608.187410389716
 20
606.3824186696565
 10
1608.187410389716
 20
606.5954068687235
 10
1607.57506931739
 20
606.5954068687235
 10
1607.699312433517
 20
605.6103364480227
 10
1608.009920223825
 20
604.7406346351599
 10
1608.44477113026
 20
603.8709328222877
 10
1609.065986710879
 20
603.1875956836057
 10
1609.749323849563
 20
602.5663801029837
 10
1610.619025662433
 20
602.1315291965509
 10
1611.488727475302
 20
601.8209214062387
 10
1612.473797895997
 20
601.7587998481767
 10
1612.473797896001
 20
602.3711409205039
 10
1612.260809696931
 20
602.3711409205039
 10
1612.038946989569
 20
602.3888899370929
 10
1611.825958790495
 20
602.4155134619758
 10
1611.621845099718
 20
602.4510114951537
 10
1611.417731408945
 20
602.5042585449218
 10
1611.213617718171
 20
602.5575055946879
 10
1611.018378535689
 20
602.6285016610467
 10
1610.823139353207
 20
602.6994977274027
 10
1610.627900170731
 20
602.7882428103477
 10
1610.450410004833
 20
602.8769878932969
 10
1610.26404533065
 20
602.9834819928277
 10
1610.095429673052
 20
603.0988506006598
 10
1609.917939507164
 20
603.2142192084887
 10
1609.758198357859
 20
603.3384623246107
 10
1609.598457208552
 20
603.4715799490308
 97
        0
 92
        7
 72
     0
 73
     1
 93
       42
 10
1609.065986710879
 20
603.1875956836066
 10
1608.44477113026
 20
603.8709328222877
 10
1608.009920223825
 20
604.7406346351599
 10
1607.699312433517
 20
605.6103364480239
 10
1607.575069317393
 20
606.5954068687235
 10
1606.962728245066
 20
606.5954068687235
 10
1606.97160275336
 20
606.3202971115937
 10
1606.998226278246
 20
606.0451873544525
 10
1607.033724311422
 20
605.7700775973255
 10
1607.078096852894
 20
605.5038423484877
 10
1607.14021841096
 20
605.2376070996459
 10
1607.220088985612
 20
604.9802463591077
 10
1607.308834068555
 20
604.7228856185737
 10
1607.406453659796
 20
604.4743993863237
 10
1607.521822267631
 20
604.2347876623507
 10
1607.646065383748
 20
603.9951759384157
 10
1607.779183008174
 20
603.7733132310359
 10
1607.921175140882
 20
603.5514505236777
 10
1608.072041781886
 20
603.3384623246147
 10
1608.240657439484
 20
603.1343486338418
 10
1608.418147605373
 20
602.9302349430629
 10
1608.595637771269
 20
602.7438702688776
 10
1608.790876953751
 20
602.5663801029897
 10
1608.994990644528
 20
602.3888899370897
 10
1609.199104335303
 20
602.2291487877919
 10
1609.412092534366
 20
602.0782821467848
 10
1609.642829750018
 20
601.9362900140716
 10
1609.864692457395
 20
601.8031723896516
 10
1610.104304181348
 20
601.6878037818208
 10
1610.352790413593
 20
601.5724351739917
 10
1610.601276645827
 20
601.4836900910516
 10
1610.858637386387
 20
601.3949450080986
 10
1611.11599812693
 20
601.3150744334478
 10
1611.382233375764
 20
601.2618273836807
 10
1611.648468624606
 20
601.2085803339139
 10
1611.923578381738
 20
601.1819568090296
 10
1612.198688138867
 20
601.1553332841457
 10
1612.473797896001
 20
601.1464587758506
 10
1612.473797895997
 20
601.7587998481767
 10
1611.488727475302
 20
601.8209214062387
 10
1610.619025662433
 20
602.1315291965496
 10
1609.749323849563
 20
602.5663801029837
 97
        0
 75
     0
 76
     1
 47
0.0249798791011511
 98
       13
 10
1607.808399772099
 20
633.2105747252486
 10
1635.245684795078
 20
601.9003311609457
 10
1667.053528693629
 20
653.8413537903728
 10
1748.879787260326
 20
635.3950075612238
 10
1608.746423356552
 20
653.3642242335537
 10
1609.734248659905
 20
653.2231625717867
 10
1696.663636776068
 20
601.4522349796467
 10
1747.043167443642
 20
603.7092809408948
 10
1747.748767143643
 20
603.0039556683509
 10
1747.043167443642
 20
652.6588989610107
 10
1747.325404944199
 20
653.3642242335537
 10
1609.169773658787
 20
603.4271491355059
 10
1609.028660857111
 20
602.7218238629639
450
        0
451
        0
460
0.0
461
0.0
452
        0
462
0.0
453
        0
470

  0
POLYLINE
  5
8C4
330
1F
100
AcDbEntity
  8
4
100
AcDb2dPolyline
 66
     1
 10
0.0
 20
0.0
 30
0.0
  0
VERTEX
  5
8C5
330
8C4
100
AcDbEntity
  8
4
100
AcDbVertex
100
AcDb2dVertex
 10
1612.473797896001
 20
654.2603909189117
 30
0.0
  0
VERTEX
  5
8C6
330
8C4
100
AcDbEntity
  8
4
100
AcDbVertex
100
AcDb2dVertex
 10
1743.674528523071
 20
654.2603909189117
 30
0.0
  0
VERTEX
  5
8C7
330
8C4
100
AcDbEntity
  8
4
100
AcDbVertex
100
AcDb2dVertex
 10
1744.659598943769
 20
654.1361478027887
 30
0.0
  0
VERTEX
  5
8C8
330
8C4
100
AcDbEntity
  8
4
100
AcDbVertex
100
AcDb2dVertex
 10
1745.591422314699
 20
653.8876615705397
 30
0.0
  0
VERTEX
  5
8C9
330
8C4
100
AcDbEntity
  8
4
100
AcDbVertex
100
AcDb2dVertex
 10
1746.399002569505
 20
653.3906891060437
 30
0.0
  0
VERTEX
  5
8CA
330
8C4
100
AcDbEntity
  8
4
100
AcDbVertex
100
AcDb2dVertex
 10
1747.144461266252
 20
652.8315950834849
 30
0.0
  0
VERTEX
  5
8CB
330
8C4
100
AcDbEntity
  8
4
100
AcDbVertex
100
AcDb2dVertex
 10
1747.76567684687
 20
652.0861363867409
 30
0.0
  0
VERTEX
  5
8CC
330
8C4
100
AcDbEntity
  8
4
100
AcDbVertex
100
AcDb2dVertex
 10
1748.200527753306
 20
651.2785561319335
 30
0.0
  0
VERTEX
  5
8CD
330
8C4
100
AcDbEntity
  8
4
100
AcDbVertex
100
AcDb2dVertex
 10
1748.511135543617
 20
650.3467327610027
 30
0.0
  0
VERTEX
  5
8CE
330
8C4
100
AcDbEntity
  8
4
100
AcDbVertex
100
AcDb2dVertex
 10
1748.57325710168
 20
649.3616623403037
 30
0.0
  0
VERTEX
  5
8CF
330
8C4
100
AcDbEntity
  8
4
100
AcDbVertex
100
AcDb2dVertex
 10
1748.57325710168
 20
606.5954068687235
 30
0.0
  0
VERTEX
  5
8D0
330
8C4
100
AcDbEntity
  8
4
100
AcDbVertex
100
AcDb2dVertex
 10
1748.511135543617
 20
605.6103364480247
 30
0.0
  0
VERTEX
  5
8D1
330
8C4
100
AcDbEntity
  8
4
100
AcDbVertex
100
AcDb2dVertex
 10
1748.200527753306
 20
604.7406346351566
 30
0.0
  0
VERTEX
  5
8D2
330
8C4
100
AcDbEntity
  8
4
100
AcDbVertex
100
AcDb2dVertex
 10
1747.76567684687
 20
603.8709328222877
 30
0.0
  0
VERTEX
  5
8D3
330
8C4
100
AcDbEntity
  8
4
100
AcDbVertex
100
AcDb2dVertex
 10
1747.144461266252
 20
603.1875956836047
 30
0.0
  0
VERTEX
  5
8D4
330
8C4
100
AcDbEntity
  8
4
100
AcDbVertex
100
AcDb2dVertex
 10
1746.399002569505
 20
602.5663801029837
 30
0.0
  0
VERTEX
  5
8D5
330
8C4
100
AcDbEntity
  8
4
100
AcDbVertex
100
AcDb2dVertex
 10
1745.591422314699
 20
602.1315291965496
 30
0.0
  0
VERTEX
  5
8D6
330
8C4
100
AcDbEntity
  8
4
100
AcDbVertex
100
AcDb2dVertex
 10
1744.659598943769
 20
601.8209214062387
 30
0.0
  0
VERTEX
  5
8D7
330
8C4
100
AcDbEntity
  8
4
100
AcDbVertex
100
AcDb2dVertex
 10
1743.674528523071
 20
601.7587998481767
 30
0.0
  0
VERTEX
  5
8D8
330
8C4
100
AcDbEntity
  8
4
100
AcDbVertex
100
AcDb2dVertex
 10
1612.473797896001
 20
601.7587998481767
 30
0.0
  0
VERTEX
  5
8D9
330
8C4
100
AcDbEntity
  8
4
100
AcDbVertex
100
AcDb2dVertex
 10
1611.488727475302
 20
601.8209214062387
 30
0.0
  0
VERTEX
  5
8DA
330
8C4
100
AcDbEntity
  8
4
100
AcDbVertex
100
AcDb2dVertex
 10
1610.619025662433
 20
602.1315291965496
 30
0.0
  0
VERTEX
  5
8DB
330
8C4
100
AcDbEntity
  8
4
100
AcDbVertex
100
AcDb2dVertex
 10
1609.749323849563
 20
602.5663801029837
 30
0.0
  0
VERTEX
  5
8DC
330
8C4
100
AcDbEntity
  8
4
100
AcDbVertex
100
AcDb2dVertex
 10
1609.065986710882
 20
603.1875956836047
 30
0.0
  0
VERTEX
  5
8DD
330
8C4
100
AcDbEntity
  8
4
100
AcDbVertex
100
AcDb2dVertex
 10
1608.44477113026
 20
603.8709328222877
 30
0.0
  0
VERTEX
  5
8DE
330
8C4
100
AcDbEntity
  8
4
100
AcDbVertex
100
AcDb2dVertex
 10
1608.009920223825
 20
604.7406346351566
 30
0.0
  0
VERTEX
  5
8DF
330
8C4
100
AcDbEntity
  8
4
100
AcDbVertex
100
AcDb2dVertex
 10
1607.699312433517
 20
605.6103364480247
 30
0.0
  0
VERTEX
  5
8E0
330
8C4
100
AcDbEntity
  8
4
100
AcDbVertex
100
AcDb2dVertex
 10
1607.57506931739
 20
606.5954068687235
 30
0.0
  0
VERTEX
  5
8E1
330
8C4
100
AcDbEntity
  8
4
100
AcDbVertex
100
AcDb2dVertex
 10
1607.57506931739
 20
649.3616623403037
 30
0.0
  0
VERTEX
  5
8E2
330
8C4
100
AcDbEntity
  8
4
100
AcDbVertex
100
AcDb2dVertex
 10
1607.699312433517
 20
650.3467327610027
 30
0.0
  0
VERTEX
  5
8E3
330
8C4
100
AcDbEntity
  8
4
100
AcDbVertex
100
AcDb2dVertex
 10
1608.009920223825
 20
651.2785561319335
 30
0.0
  0
VERTEX
  5
8E4
330
8C4
100
AcDbEntity
  8
4
100
AcDbVertex
100
AcDb2dVertex
 10
1608.44477113026
 20
652.0861363867409
 30
0.0
  0
VERTEX
  5
8E5
330
8C4
100
AcDbEntity
  8
4
100
AcDbVertex
100
AcDb2dVertex
 10
1609.065986710882
 20
652.8315950834849
 30
0.0
  0
VERTEX
  5
8E6
330
8C4
100
AcDbEntity
  8
4
100
AcDbVertex
100
AcDb2dVertex
 10
1609.749323849563
 20
653.3906891060437
 30
0.0
  0
VERTEX
  5
8E7
330
8C4
100
AcDbEntity
  8
4
100
AcDbVertex
100
AcDb2dVertex
 10
1610.619025662433
 20
653.8876615705397
 30
0.0
  0
VERTEX
  5
8E8
330
8C4
100
AcDbEntity
  8
4
100
AcDbVertex
100
AcDb2dVertex
 10
1611.488727475302
 20
654.1361478027887
 30
0.0
  0
VERTEX
  5
8E9
330
8C4
100
AcDbEntity
  8
4
100
AcDbVertex
100
AcDb2dVertex
 10
1612.473797896001
 20
654.2603909189117
 30
0.0
  0
VERTEX
  5
8EA
330
8C4
100
AcDbEntity
  8
4
100
AcDbVertex
100
AcDb2dVertex
 10
1612.473797896001
 20
654.2603909189117
 30
0.0
  0
SEQEND
  5
8EB
330
8C4
100
AcDbEntity
  8
4
  0
POLYLINE
  5
8EC
330
1F
100
AcDbEntity
  8
4
100
AcDb2dPolyline
 66
     1
 10
0.0
 20
0.0
 30
0.0
  0
VERTEX
  5
8ED
330
8EC
100
AcDbEntity
  8
4
100
AcDbVertex
100
AcDb2dVertex
 10
1743.674528523071
 20
654.8727319912377
 30
0.0
  0
VERTEX
  5
8EE
330
8EC
100
AcDbEntity
  8
4
100
AcDbVertex
100
AcDb2dVertex
 10
1612.473797896001
 20
654.8727319912377
 30
0.0
  0
VERTEX
  5
8EF
330
8EC
100
AcDbEntity
  8
4
100
AcDbVertex
100
AcDb2dVertex
 10
1612.473797896001
 20
653.6480498465867
 30
0.0
  0
VERTEX
  5
8F0
330
8EC
100
AcDbEntity
  8
4
100
AcDbVertex
100
AcDb2dVertex
 10
1743.674528523071
 20
653.6480498465867
 30
0.0
  0
VERTEX
  5
8F1
330
8EC
100
AcDbEntity
  8
4
100
AcDbVertex
100
AcDb2dVertex
 10
1743.674528523071
 20
654.8727319912377
 30
0.0
  0
VERTEX
  5
8F2
330
8EC
100
AcDbEntity
  8
4
100
AcDbVertex
100
AcDb2dVertex
 10
1743.674528523071
 20
654.8727319912377
 30
0.0
  0
SEQEND
  5
8F3
330
8EC
100
AcDbEntity
  8
4
  0
POLYLINE
  5
8F4
330
1F
100
AcDbEntity
  8
4
100
AcDb2dPolyline
 66
     1
 10
0.0
 20
0.0
 30
0.0
  0
VERTEX
  5
8F5
330
8F4
100
AcDbEntity
  8
4
100
AcDbVertex
100
AcDb2dVertex
 10
1612.473797896001
 20
601.1464587758506
 30
0.0
  0
VERTEX
  5
8F6
330
8F4
100
AcDbEntity
  8
4
100
AcDbVertex
100
AcDb2dVertex
 10
1743.674528523071
 20
601.1464587758506
 30
0.0
  0
VERTEX
  5
8F7
330
8F4
100
AcDbEntity
  8
4
100
AcDbVertex
100
AcDb2dVertex
 10
1743.674528523071
 20
602.3711409205039
 30
0.0
  0
VERTEX
  5
8F8
330
8F4
100
AcDbEntity
  8
4
100
AcDbVertex
100
AcDb2dVertex
 10
1612.473797896001
 20
602.3711409205039
 30
0.0
  0
VERTEX
  5
8F9
330
8F4
100
AcDbEntity
  8
4
100
AcDbVertex
100
AcDb2dVertex
 10
1612.473797896001
 20
601.1464587758506
 30
0.0
  0
VERTEX
  5
8FA
330
8F4
100
AcDbEntity
  8
4
100
AcDbVertex
100
AcDb2dVertex
 10
1612.473797896001
 20
601.1464587758506
 30
0.0
  0
SEQEND
  5
8FB
330
8F4
100
AcDbEntity
  8
4
  0
TEXT
  5
8FC
330
1F
100
AcDbEntity
  8
6
100
AcDbText
 10
1608.347637711396
 20
548.5784661304768
 30
0.0
 40
18.0
  1
59227 Ahlen
 72
     1
 11
1674.405279866214
 21
548.5784661304768
 31
0.0
100
AcDbText
  0
TEXT
  5
8FD
330
1F
100
AcDbEntity
  8
6
100
AcDbText
 10
1547.57189037998
 20
573.8318333513746
 30
0.0
 40
18.0
  1
Reflex Winkelmann GmbH
 41
0.95
 72
     1
 11
1674.11189037998
 21
573.8318333513746
 31
0.0
100
AcDbText
  0
TEXT
  5
8FE
330
1F
100
AcDbEntity
  8
DN50-0
100
AcDbText
 10
1558.843272371987
 20
360.6669540121527
 30
0.0
 40
30.0
  1
6 bar - 120°C
100
AcDbText
  0
TEXT
  5
8FF
330
1F
100
AcDbEntity
  8
0
100
AcDbText
 10
1456.661616263914
 20
474.6669540121525
 30
0.0
 40
30.0
  1
Druckausdehnungsgefäß
100
AcDbText
  0
TEXT
  5
900
330
1F
100
AcDbEntity
  8
0
100
AcDbText
 10
1570.166642674712
 20
417.6669540121527
 30
0.0
 40
30.0
  1
reflex N 200
100
AcDbText
  0
POLYLINE
  5
901
330
1F
100
AcDbEntity
  8
4
100
AcDb2dPolyline
 66
     1
 10
0.0
 20
0.0
 30
0.0
  0
VERTEX
  5
902
330
901
100
AcDbEntity
  8
4
100
AcDbVertex
100
AcDb2dVertex
 10
1612.473797896001
 20
654.8727319912377
 30
0.0
  0
VERTEX
  5
903
330
901
100
AcDbEntity
  8
4
100
AcDbVertex
100
AcDb2dVertex
 10
1612.198688138867
 20
654.8638574829436
 30
0.0
  0
VERTEX
  5
904
330
901
100
AcDbEntity
  8
4
100
AcDbVertex
100
AcDb2dVertex
 10
1611.923578381738
 20
654.8372339580605
 30
0.0
  0
VERTEX
  5
905
330
901
100
AcDbEntity
  8
4
100
AcDbVertex
100
AcDb2dVertex
 10
1611.648468624606
 20
654.8017359248818
 30
0.0
  0
VERTEX
  5
906
330
901
100
AcDbEntity
  8
4
100
AcDbVertex
100
AcDb2dVertex
 10
1611.373358867473
 20
654.7573633834087
 30
0.0
  0
VERTEX
  5
907
330
901
100
AcDbEntity
  8
4
100
AcDbVertex
100
AcDb2dVertex
 10
1611.107123618634
 20
654.6952418253468
 30
0.0
  0
VERTEX
  5
908
330
901
100
AcDbEntity
  8
4
100
AcDbVertex
100
AcDb2dVertex
 10
1610.849762878092
 20
654.6153712506958
 30
0.0
  0
VERTEX
  5
909
330
901
100
AcDbEntity
  8
4
100
AcDbVertex
100
AcDb2dVertex
 10
1610.592402137549
 20
654.5266261677498
 30
0.0
  0
VERTEX
  5
90A
330
901
100
AcDbEntity
  8
4
100
AcDbVertex
100
AcDb2dVertex
 10
1610.343915905301
 20
654.4290065765087
 30
0.0
  0
VERTEX
  5
90B
330
901
100
AcDbEntity
  8
4
100
AcDbVertex
100
AcDb2dVertex
 10
1610.104304181348
 20
654.3225124769738
 30
0.0
  0
VERTEX
  5
90C
330
901
100
AcDbEntity
  8
4
100
AcDbVertex
100
AcDb2dVertex
 10
1609.864692457395
 20
654.1982693608509
 30
0.0
  0
VERTEX
  5
90D
330
901
100
AcDbEntity
  8
4
100
AcDbVertex
100
AcDb2dVertex
 10
1609.633955241734
 20
654.0651517364317
 30
0.0
  0
VERTEX
  5
90E
330
901
100
AcDbEntity
  8
4
100
AcDbVertex
100
AcDb2dVertex
 10
1609.41209253437
 20
653.9142850954236
 30
0.0
  0
VERTEX
  5
90F
330
901
100
AcDbEntity
  8
4
100
AcDbVertex
100
AcDb2dVertex
 10
1609.199104335299
 20
653.7634184544157
 30
0.0
  0
VERTEX
  5
910
330
901
100
AcDbEntity
  8
4
100
AcDbVertex
100
AcDb2dVertex
 10
1608.98611613623
 20
653.5948027968187
 30
0.0
  0
VERTEX
  5
911
330
901
100
AcDbEntity
  8
4
100
AcDbVertex
100
AcDb2dVertex
 10
1608.782002445454
 20
653.4261871392217
 30
0.0
  0
VERTEX
  5
912
330
901
100
AcDbEntity
  8
4
100
AcDbVertex
100
AcDb2dVertex
 10
1608.595637771269
 20
653.2398224650356
 30
0.0
  0
VERTEX
  5
913
330
901
100
AcDbEntity
  8
4
100
AcDbVertex
100
AcDb2dVertex
 10
1608.409273097082
 20
653.0445832825549
 30
0.0
  0
VERTEX
  5
914
330
901
100
AcDbEntity
  8
4
100
AcDbVertex
100
AcDb2dVertex
 10
1608.240657439484
 20
652.849344100074
 30
0.0
  0
VERTEX
  5
915
330
901
100
AcDbEntity
  8
4
100
AcDbVertex
100
AcDb2dVertex
 10
1608.072041781889
 20
652.6363559010047
 30
0.0
  0
VERTEX
  5
916
330
901
100
AcDbEntity
  8
4
100
AcDbVertex
100
AcDb2dVertex
 10
1607.921175140882
 20
652.4233677019338
 30
0.0
  0
VERTEX
  5
917
330
901
100
AcDbEntity
  8
4
100
AcDbVertex
100
AcDb2dVertex
 10
1607.770308499872
 20
652.2015049945697
 30
0.0
  0
VERTEX
  5
918
330
901
100
AcDbEntity
  8
4
100
AcDbVertex
100
AcDb2dVertex
 10
1607.637190875452
 20
651.9707677789117
 30
0.0
  0
VERTEX
  5
919
330
901
100
AcDbEntity
  8
4
100
AcDbVertex
100
AcDb2dVertex
 10
1607.512947759329
 20
651.7311560549568
 30
0.0
  0
VERTEX
  5
91A
330
901
100
AcDbEntity
  8
4
100
AcDbVertex
100
AcDb2dVertex
 10
1607.406453659796
 20
651.4915443310037
 30
0.0
  0
VERTEX
  5
91B
330
901
100
AcDbEntity
  8
4
100
AcDbVertex
100
AcDb2dVertex
 10
1607.308834068555
 20
651.2430580987559
 30
0.0
  0
VERTEX
  5
91C
330
901
100
AcDbEntity
  8
4
100
AcDbVertex
100
AcDb2dVertex
 10
1607.220088985608
 20
650.9856973582127
 30
0.0
  0
VERTEX
  5
91D
330
901
100
AcDbEntity
  8
4
100
AcDbVertex
100
AcDb2dVertex
 10
1607.140218410957
 20
650.7283366176697
 30
0.0
  0
VERTEX
  5
91E
330
901
100
AcDbEntity
  8
4
100
AcDbVertex
100
AcDb2dVertex
 10
1607.078096852894
 20
650.4621013688318
 30
0.0
  0
VERTEX
  5
91F
330
901
100
AcDbEntity
  8
4
100
AcDbVertex
100
AcDb2dVertex
 10
1607.033724311422
 20
650.1869916117009
 30
0.0
  0
VERTEX
  5
920
330
901
100
AcDbEntity
  8
4
100
AcDbVertex
100
AcDb2dVertex
 10
1606.998226278243
 20
649.9118818545688
 30
0.0
  0
VERTEX
  5
921
330
901
100
AcDbEntity
  8
4
100
AcDbVertex
100
AcDb2dVertex
 10
1606.97160275336
 20
649.6367720974367
 30
0.0
  0
VERTEX
  5
922
330
901
100
AcDbEntity
  8
4
100
AcDbVertex
100
AcDb2dVertex
 10
1606.962728245066
 20
649.3616623403037
 30
0.0
  0
VERTEX
  5
923
330
901
100
AcDbEntity
  8
4
100
AcDbVertex
100
AcDb2dVertex
 10
1608.187410389716
 20
649.3616623403037
 30
0.0
  0
VERTEX
  5
924
330
901
100
AcDbEntity
  8
4
100
AcDbVertex
100
AcDb2dVertex
 10
1608.187410389716
 20
649.5746505393737
 30
0.0
  0
VERTEX
  5
925
330
901
100
AcDbEntity
  8
4
100
AcDbVertex
100
AcDb2dVertex
 10
1608.205159406306
 20
649.7876387384438
 30
0.0
  0
VERTEX
  5
926
330
901
100
AcDbEntity
  8
4
100
AcDbVertex
100
AcDb2dVertex
 10
1608.23178293119
 20
650.0006269375137
 30
0.0
  0
VERTEX
  5
927
330
901
100
AcDbEntity
  8
4
100
AcDbVertex
100
AcDb2dVertex
 10
1608.276155472666
 20
650.2136151365838
 30
0.0
  0
VERTEX
  5
928
330
901
100
AcDbEntity
  8
4
100
AcDbVertex
100
AcDb2dVertex
 10
1608.320528014137
 20
650.4177288273598
 30
0.0
  0
VERTEX
  5
929
330
901
100
AcDbEntity
  8
4
100
AcDbVertex
100
AcDb2dVertex
 10
1608.382649572199
 20
650.6129680098397
 30
0.0
  0
VERTEX
  5
92A
330
901
100
AcDbEntity
  8
4
100
AcDbVertex
100
AcDb2dVertex
 10
1608.44477113026
 20
650.8170817006157
 30
0.0
  0
VERTEX
  5
92B
330
901
100
AcDbEntity
  8
4
100
AcDbVertex
100
AcDb2dVertex
 10
1608.524641704911
 20
651.0123208830957
 30
0.0
  0
VERTEX
  5
92C
330
901
100
AcDbEntity
  8
4
100
AcDbVertex
100
AcDb2dVertex
 10
1608.613386787858
 20
651.1986855572828
 30
0.0
  0
VERTEX
  5
92D
330
901
100
AcDbEntity
  8
4
100
AcDbVertex
100
AcDb2dVertex
 10
1608.711006379099
 20
651.3850502314677
 30
0.0
  0
VERTEX
  5
92E
330
901
100
AcDbEntity
  8
4
100
AcDbVertex
100
AcDb2dVertex
 10
1608.817500478632
 20
651.5625403973598
 30
0.0
  0
VERTEX
  5
92F
330
901
100
AcDbEntity
  8
4
100
AcDbVertex
100
AcDb2dVertex
 10
1608.923994578169
 20
651.7400305632516
 30
0.0
  0
VERTEX
  5
930
330
901
100
AcDbEntity
  8
4
100
AcDbVertex
100
AcDb2dVertex
 10
1609.048237694294
 20
651.9086462208488
 30
0.0
  0
VERTEX
  5
931
330
901
100
AcDbEntity
  8
4
100
AcDbVertex
100
AcDb2dVertex
 10
1609.172480810417
 20
652.0683873701507
 30
0.0
  0
VERTEX
  5
932
330
901
100
AcDbEntity
  8
4
100
AcDbVertex
100
AcDb2dVertex
 10
1609.314472943129
 20
652.2281285194527
 30
0.0
  0
VERTEX
  5
933
330
901
100
AcDbEntity
  8
4
100
AcDbVertex
100
AcDb2dVertex
 10
1609.456465075842
 20
652.3789951604618
 30
0.0
  0
VERTEX
  5
934
330
901
100
AcDbEntity
  8
4
100
AcDbVertex
100
AcDb2dVertex
 10
1609.607331716851
 20
652.5209872931746
 30
0.0
  0
VERTEX
  5
935
330
901
100
AcDbEntity
  8
4
100
AcDbVertex
100
AcDb2dVertex
 10
1609.767072866154
 20
652.6541049175928
 30
0.0
  0
VERTEX
  5
936
330
901
100
AcDbEntity
  8
4
100
AcDbVertex
100
AcDb2dVertex
 10
1609.926814015455
 20
652.7872225420128
 30
0.0
  0
VERTEX
  5
937
330
901
100
AcDbEntity
  8
4
100
AcDbVertex
100
AcDb2dVertex
 10
1610.095429673052
 20
652.9114656581357
 30
0.0
  0
VERTEX
  5
938
330
901
100
AcDbEntity
  8
4
100
AcDbVertex
100
AcDb2dVertex
 10
1610.272919838945
 20
653.0179597576719
 30
0.0
  0
VERTEX
  5
939
330
901
100
AcDbEntity
  8
4
100
AcDbVertex
100
AcDb2dVertex
 10
1610.450410004833
 20
653.1244538572067
 30
0.0
  0
VERTEX
  5
93A
330
901
100
AcDbEntity
  8
4
100
AcDbVertex
100
AcDb2dVertex
 10
1610.636774679023
 20
653.2220734484467
 30
0.0
  0
VERTEX
  5
93B
330
901
100
AcDbEntity
  8
4
100
AcDbVertex
100
AcDb2dVertex
 10
1610.823139353207
 20
653.3108185313929
 30
0.0
  0
VERTEX
  5
93C
330
901
100
AcDbEntity
  8
4
100
AcDbVertex
100
AcDb2dVertex
 10
1611.018378535689
 20
653.3818145977488
 30
0.0
  0
VERTEX
  5
93D
330
901
100
AcDbEntity
  8
4
100
AcDbVertex
100
AcDb2dVertex
 10
1611.213617718171
 20
653.4528106641057
 30
0.0
  0
VERTEX
  5
93E
330
901
100
AcDbEntity
  8
4
100
AcDbVertex
100
AcDb2dVertex
 10
1611.417731408945
 20
653.5149322221675
 30
0.0
  0
VERTEX
  5
93F
330
901
100
AcDbEntity
  8
4
100
AcDbVertex
100
AcDb2dVertex
 10
1611.621845099721
 20
653.5593047636407
 30
0.0
  0
VERTEX
  5
940
330
901
100
AcDbEntity
  8
4
100
AcDbVertex
100
AcDb2dVertex
 10
1611.834833298789
 20
653.6036773051139
 30
0.0
  0
VERTEX
  5
941
330
901
100
AcDbEntity
  8
4
100
AcDbVertex
100
AcDb2dVertex
 10
1612.047821497861
 20
653.6303008299977
 30
0.0
  0
VERTEX
  5
942
330
901
100
AcDbEntity
  8
4
100
AcDbVertex
100
AcDb2dVertex
 10
1612.260809696931
 20
653.6480498465867
 30
0.0
  0
VERTEX
  5
943
330
901
100
AcDbEntity
  8
4
100
AcDbVertex
100
AcDb2dVertex
 10
1612.473797896001
 20
653.6480498465867
 30
0.0
  0
VERTEX
  5
944
330
901
100
AcDbEntity
  8
4
100
AcDbVertex
100
AcDb2dVertex
 10
1612.473797896001
 20
654.8727319912377
 30
0.0
  0
VERTEX
  5
945
330
901
100
AcDbEntity
  8
4
100
AcDbVertex
100
AcDb2dVertex
 10
1612.473797896001
 20
654.8727319912377
 30
0.0
  0
SEQEND
  5
946
330
901
100
AcDbEntity
  8
4
  0
POLYLINE
  5
947
330
1F
100
AcDbEntity
  8
4
100
AcDb2dPolyline
 66
     1
 10
0.0
 20
0.0
 30
0.0
  0
VERTEX
  5
948
330
947
100
AcDbEntity
  8
4
100
AcDbVertex
100
AcDb2dVertex
 10
1630.48615051455
 20
627.971198343372
 30
0.0
  0
VERTEX
  5
949
330
947
100
AcDbEntity
  8
4
100
AcDbVertex
100
AcDb2dVertex
 10
1630.64766656551
 20
628.8595366236587
 30
0.0
  0
VERTEX
  5
94A
330
947
100
AcDbEntity
  8
4
100
AcDbVertex
100
AcDb2dVertex
 10
1630.970698667435
 20
629.5056008275039
 30
0.0
  0
VERTEX
  5
94B
330
947
100
AcDbEntity
  8
4
100
AcDbVertex
100
AcDb2dVertex
 10
1631.455246820318
 20
629.9901489803898
 30
0.0
  0
VERTEX
  5
94C
330
947
100
AcDbEntity
  8
4
100
AcDbVertex
100
AcDb2dVertex
 10
1631.939794973201
 20
630.3939391077918
 30
0.0
  0
VERTEX
  5
94D
330
947
100
AcDbEntity
  8
4
100
AcDbVertex
100
AcDb2dVertex
 10
1632.908891278972
 20
630.6362131842347
 30
0.0
  0
VERTEX
  5
94E
330
947
100
AcDbEntity
  8
4
100
AcDbVertex
100
AcDb2dVertex
 10
1633.393439431855
 20
630.7169712097147
 30
0.0
  0
VERTEX
  5
94F
330
947
100
AcDbEntity
  8
4
100
AcDbVertex
100
AcDb2dVertex
 10
1634.281777712142
 20
630.7169712097147
 30
0.0
  0
VERTEX
  5
950
330
947
100
AcDbEntity
  8
4
100
AcDbVertex
100
AcDb2dVertex
 10
1634.281777712142
 20
637.4083504638287
 30
0.0
  0
VERTEX
  5
951
330
947
100
AcDbEntity
  8
4
100
AcDbVertex
100
AcDb2dVertex
 10
1631.37448879484
 20
637.4083504638287
 30
0.0
  0
VERTEX
  5
952
330
947
100
AcDbEntity
  8
4
100
AcDbVertex
100
AcDb2dVertex
 10
1629.759328285222
 20
637.3275924383468
 30
0.0
  0
VERTEX
  5
953
330
947
100
AcDbEntity
  8
4
100
AcDbVertex
100
AcDb2dVertex
 10
1628.386441852053
 20
637.1660763873858
 30
0.0
  0
VERTEX
  5
954
330
947
100
AcDbEntity
  8
4
100
AcDbVertex
100
AcDb2dVertex
 10
1627.255829495322
 20
636.7622862599827
 30
0.0
  0
VERTEX
  5
955
330
947
100
AcDbEntity
  8
4
100
AcDbVertex
100
AcDb2dVertex
 10
1626.205975164075
 20
636.3584961325789
 30
0.0
  0
VERTEX
  5
956
330
947
100
AcDbEntity
  8
4
100
AcDbVertex
100
AcDb2dVertex
 10
1625.409931770049
 20
635.7931899542148
 30
0.0
  0
VERTEX
  5
957
330
947
100
AcDbEntity
  8
4
100
AcDbVertex
100
AcDb2dVertex
 10
1624.683109540723
 20
635.2278837758488
 30
0.0
  0
VERTEX
  5
958
330
947
100
AcDbEntity
  8
4
100
AcDbVertex
100
AcDb2dVertex
 10
1624.117803362359
 20
634.5818195720038
 30
0.0
  0
VERTEX
  5
959
330
947
100
AcDbEntity
  8
4
100
AcDbVertex
100
AcDb2dVertex
 10
1623.633255209474
 20
633.9357553681577
 30
0.0
  0
VERTEX
  5
95A
330
947
100
AcDbEntity
  8
4
100
AcDbVertex
100
AcDb2dVertex
 10
1623.067949031112
 20
632.5744057957697
 30
0.0
  0
VERTEX
  5
95B
330
947
100
AcDbEntity
  8
4
100
AcDbVertex
100
AcDb2dVertex
 10
1622.744916929186
 20
631.4437934390407
 30
0.0
  0
VERTEX
  5
95C
330
947
100
AcDbEntity
  8
4
100
AcDbVertex
100
AcDb2dVertex
 10
1622.664158903708
 20
630.3939391077918
 30
0.0
  0
VERTEX
  5
95D
330
947
100
AcDbEntity
  8
4
100
AcDbVertex
100
AcDb2dVertex
 10
1622.664158903708
 20
611.9118881335009
 30
0.0
  0
VERTEX
  5
95E
330
947
100
AcDbEntity
  8
4
100
AcDbVertex
100
AcDb2dVertex
 10
1630.48615051455
 20
611.9118881335009
 30
0.0
  0
VERTEX
  5
95F
330
947
100
AcDbEntity
  8
4
100
AcDbVertex
100
AcDb2dVertex
 10
1630.48615051455
 20
627.971198343372
 30
0.0
  0
VERTEX
  5
960
330
947
100
AcDbEntity
  8
4
100
AcDbVertex
100
AcDb2dVertex
 10
1630.48615051455
 20
627.971198343372
 30
0.0
  0
SEQEND
  5
961
330
947
100
AcDbEntity
  8
4
  0
POLYLINE
  5
962
330
1F
100
AcDbEntity
  8
4
100
AcDb2dPolyline
 66
     1
 10
0.0
 20
0.0
 30
0.0
  0
VERTEX
  5
963
330
962
100
AcDbEntity
  8
4
100
AcDbVertex
100
AcDb2dVertex
 10
1606.962728245066
 20
606.5954068687235
 30
0.0
  0
VERTEX
  5
964
330
962
100
AcDbEntity
  8
4
100
AcDbVertex
100
AcDb2dVertex
 10
1606.97160275336
 20
606.3202971115916
 30
0.0
  0
VERTEX
  5
965
330
962
100
AcDbEntity
  8
4
100
AcDbVertex
100
AcDb2dVertex
 10
1606.998226278243
 20
606.0451873544589
 30
0.0
  0
VERTEX
  5
966
330
962
100
AcDbEntity
  8
4
100
AcDbVertex
100
AcDb2dVertex
 10
1607.033724311422
 20
605.7700775973269
 30
0.0
  0
VERTEX
  5
967
330
962
100
AcDbEntity
  8
4
100
AcDbVertex
100
AcDb2dVertex
 10
1607.078096852894
 20
605.5038423484909
 30
0.0
  0
VERTEX
  5
968
330
962
100
AcDbEntity
  8
4
100
AcDbVertex
100
AcDb2dVertex
 10
1607.140218410957
 20
605.2376070996529
 30
0.0
  0
VERTEX
  5
969
330
962
100
AcDbEntity
  8
4
100
AcDbVertex
100
AcDb2dVertex
 10
1607.220088985608
 20
604.9802463591097
 30
0.0
  0
VERTEX
  5
96A
330
962
100
AcDbEntity
  8
4
100
AcDbVertex
100
AcDb2dVertex
 10
1607.308834068555
 20
604.7228856185666
 30
0.0
  0
VERTEX
  5
96B
330
962
100
AcDbEntity
  8
4
100
AcDbVertex
100
AcDb2dVertex
 10
1607.406453659796
 20
604.4743993863187
 30
0.0
  0
VERTEX
  5
96C
330
962
100
AcDbEntity
  8
4
100
AcDbVertex
100
AcDb2dVertex
 10
1607.521822267627
 20
604.2347876623647
 30
0.0
  0
VERTEX
  5
96D
330
962
100
AcDbEntity
  8
4
100
AcDbVertex
100
AcDb2dVertex
 10
1607.646065383748
 20
603.9951759384117
 30
0.0
  0
VERTEX
  5
96E
330
962
100
AcDbEntity
  8
4
100
AcDbVertex
100
AcDb2dVertex
 10
1607.779183008169
 20
603.7733132310466
 30
0.0
  0
VERTEX
  5
96F
330
962
100
AcDbEntity
  8
4
100
AcDbVertex
100
AcDb2dVertex
 10
1607.921175140882
 20
603.5514505236829
 30
0.0
  0
VERTEX
  5
970
330
962
100
AcDbEntity
  8
4
100
AcDbVertex
100
AcDb2dVertex
 10
1608.072041781889
 20
603.3384623246115
 30
0.0
  0
VERTEX
  5
971
330
962
100
AcDbEntity
  8
4
100
AcDbVertex
100
AcDb2dVertex
 10
1608.240657439484
 20
603.1343486338377
 30
0.0
  0
VERTEX
  5
972
330
962
100
AcDbEntity
  8
4
100
AcDbVertex
100
AcDb2dVertex
 10
1608.418147605378
 20
602.9302349430618
 30
0.0
  0
VERTEX
  5
973
330
962
100
AcDbEntity
  8
4
100
AcDbVertex
100
AcDb2dVertex
 10
1608.595637771269
 20
602.7438702688757
 30
0.0
  0
VERTEX
  5
974
330
962
100
AcDbEntity
  8
4
100
AcDbVertex
100
AcDb2dVertex
 10
1608.790876953751
 20
602.5663801029837
 30
0.0
  0
VERTEX
  5
975
330
962
100
AcDbEntity
  8
4
100
AcDbVertex
100
AcDb2dVertex
 10
1608.994990644524
 20
602.3888899370929
 30
0.0
  0
VERTEX
  5
976
330
962
100
AcDbEntity
  8
4
100
AcDbVertex
100
AcDb2dVertex
 10
1609.199104335299
 20
602.2291487877899
 30
0.0
  0
VERTEX
  5
977
330
962
100
AcDbEntity
  8
4
100
AcDbVertex
100
AcDb2dVertex
 10
1609.41209253437
 20
602.0782821467818
 30
0.0
  0
VERTEX
  5
978
330
962
100
AcDbEntity
  8
4
100
AcDbVertex
100
AcDb2dVertex
 10
1609.642829750031
 20
601.9362900140687
 30
0.0
  0
VERTEX
  5
979
330
962
100
AcDbEntity
  8
4
100
AcDbVertex
100
AcDb2dVertex
 10
1609.864692457395
 20
601.8031723896498
 30
0.0
  0
VERTEX
  5
97A
330
962
100
AcDbEntity
  8
4
100
AcDbVertex
100
AcDb2dVertex
 10
1610.104304181348
 20
601.6878037818208
 30
0.0
  0
VERTEX
  5
97B
330
962
100
AcDbEntity
  8
4
100
AcDbVertex
100
AcDb2dVertex
 10
1610.352790413596
 20
601.5724351739907
 30
0.0
  0
VERTEX
  5
97C
330
962
100
AcDbEntity
  8
4
100
AcDbVertex
100
AcDb2dVertex
 10
1610.601276645843
 20
601.4836900910446
 30
0.0
  0
VERTEX
  5
97D
330
962
100
AcDbEntity
  8
4
100
AcDbVertex
100
AcDb2dVertex
 10
1610.858637386387
 20
601.3949450080986
 30
0.0
  0
VERTEX
  5
97E
330
962
100
AcDbEntity
  8
4
100
AcDbVertex
100
AcDb2dVertex
 10
1611.11599812693
 20
601.3150744334478
 30
0.0
  0
VERTEX
  5
97F
330
962
100
AcDbEntity
  8
4
100
AcDbVertex
100
AcDb2dVertex
 10
1611.382233375764
 20
601.2618273836807
 30
0.0
  0
VERTEX
  5
980
330
962
100
AcDbEntity
  8
4
100
AcDbVertex
100
AcDb2dVertex
 10
1611.648468624606
 20
601.2085803339139
 30
0.0
  0
VERTEX
  5
981
330
962
100
AcDbEntity
  8
4
100
AcDbVertex
100
AcDb2dVertex
 10
1611.923578381738
 20
601.1819568090296
 30
0.0
  0
VERTEX
  5
982
330
962
100
AcDbEntity
  8
4
100
AcDbVertex
100
AcDb2dVertex
 10
1612.198688138867
 20
601.1553332841457
 30
0.0
  0
VERTEX
  5
983
330
962
100
AcDbEntity
  8
4
100
AcDbVertex
100
AcDb2dVertex
 10
1612.473797896001
 20
601.1464587758506
 30
0.0
  0
VERTEX
  5
984
330
962
100
AcDbEntity
  8
4
100
AcDbVertex
100
AcDb2dVertex
 10
1612.473797896001
 20
602.3711409205039
 30
0.0
  0
VERTEX
  5
985
330
962
100
AcDbEntity
  8
4
100
AcDbVertex
100
AcDb2dVertex
 10
1612.260809696931
 20
602.3711409205039
 30
0.0
  0
VERTEX
  5
986
330
962
100
AcDbEntity
  8
4
100
AcDbVertex
100
AcDb2dVertex
 10
1612.038946989565
 20
602.3888899370929
 30
0.0
  0
VERTEX
  5
987
330
962
100
AcDbEntity
  8
4
100
AcDbVertex
100
AcDb2dVertex
 10
1611.825958790497
 20
602.4155134619758
 30
0.0
  0
VERTEX
  5
988
330
962
100
AcDbEntity
  8
4
100
AcDbVertex
100
AcDb2dVertex
 10
1611.621845099721
 20
602.4510114951537
 30
0.0
  0
VERTEX
  5
989
330
962
100
AcDbEntity
  8
4
100
AcDbVertex
100
AcDb2dVertex
 10
1611.417731408945
 20
602.5042585449218
 30
0.0
  0
VERTEX
  5
98A
330
962
100
AcDbEntity
  8
4
100
AcDbVertex
100
AcDb2dVertex
 10
1611.213617718171
 20
602.5575055946898
 30
0.0
  0
VERTEX
  5
98B
330
962
100
AcDbEntity
  8
4
100
AcDbVertex
100
AcDb2dVertex
 10
1611.018378535689
 20
602.6285016610467
 30
0.0
  0
VERTEX
  5
98C
330
962
100
AcDbEntity
  8
4
100
AcDbVertex
100
AcDb2dVertex
 10
1610.823139353207
 20
602.6994977274027
 30
0.0
  0
VERTEX
  5
98D
330
962
100
AcDbEntity
  8
4
100
AcDbVertex
100
AcDb2dVertex
 10
1610.627900170725
 20
602.7882428103489
 30
0.0
  0
VERTEX
  5
98E
330
962
100
AcDbEntity
  8
4
100
AcDbVertex
100
AcDb2dVertex
 10
1610.450410004833
 20
602.8769878932949
 30
0.0
  0
VERTEX
  5
98F
330
962
100
AcDbEntity
  8
4
100
AcDbVertex
100
AcDb2dVertex
 10
1610.26404533065
 20
602.9834819928297
 30
0.0
  0
VERTEX
  5
990
330
962
100
AcDbEntity
  8
4
100
AcDbVertex
100
AcDb2dVertex
 10
1610.095429673052
 20
603.0988506006586
 30
0.0
  0
VERTEX
  5
991
330
962
100
AcDbEntity
  8
4
100
AcDbVertex
100
AcDb2dVertex
 10
1609.917939507161
 20
603.2142192084887
 30
0.0
  0
VERTEX
  5
992
330
962
100
AcDbEntity
  8
4
100
AcDbVertex
100
AcDb2dVertex
 10
1609.758198357859
 20
603.3384623246115
 30
0.0
  0
VERTEX
  5
993
330
962
100
AcDbEntity
  8
4
100
AcDbVertex
100
AcDb2dVertex
 10
1609.598457208552
 20
603.4715799490316
 30
0.0
  0
VERTEX
  5
994
330
962
100
AcDbEntity
  8
4
100
AcDbVertex
100
AcDb2dVertex
 10
1609.456465075842
 20
603.6135720817448
 30
0.0
  0
VERTEX
  5
995
330
962
100
AcDbEntity
  8
4
100
AcDbVertex
100
AcDb2dVertex
 10
1609.305598434836
 20
603.7644387227518
 30
0.0
  0
VERTEX
  5
996
330
962
100
AcDbEntity
  8
4
100
AcDbVertex
100
AcDb2dVertex
 10
1609.172480810417
 20
603.9153053637599
 30
0.0
  0
VERTEX
  5
997
330
962
100
AcDbEntity
  8
4
100
AcDbVertex
100
AcDb2dVertex
 10
1609.048237694294
 20
604.0750465130629
 30
0.0
  0
VERTEX
  5
998
330
962
100
AcDbEntity
  8
4
100
AcDbVertex
100
AcDb2dVertex
 10
1608.923994578169
 20
604.2436621706598
 30
0.0
  0
VERTEX
  5
999
330
962
100
AcDbEntity
  8
4
100
AcDbVertex
100
AcDb2dVertex
 10
1608.808625970341
 20
604.4122778282569
 30
0.0
  0
VERTEX
  5
99A
330
962
100
AcDbEntity
  8
4
100
AcDbVertex
100
AcDb2dVertex
 10
1608.702131870803
 20
604.5897679941487
 30
0.0
  0
VERTEX
  5
99B
330
962
100
AcDbEntity
  8
4
100
AcDbVertex
100
AcDb2dVertex
 10
1608.613386787858
 20
604.7761326683337
 30
0.0
  0
VERTEX
  5
99C
330
962
100
AcDbEntity
  8
4
100
AcDbVertex
100
AcDb2dVertex
 10
1608.524641704911
 20
604.9536228342258
 30
0.0
  0
VERTEX
  5
99D
330
962
100
AcDbEntity
  8
4
100
AcDbVertex
100
AcDb2dVertex
 10
1608.44477113026
 20
605.1488620167067
 30
0.0
  0
VERTEX
  5
99E
330
962
100
AcDbEntity
  8
4
100
AcDbVertex
100
AcDb2dVertex
 10
1608.373775063906
 20
605.3441011991878
 30
0.0
  0
VERTEX
  5
99F
330
962
100
AcDbEntity
  8
4
100
AcDbVertex
100
AcDb2dVertex
 10
1608.320528014137
 20
605.5482148899628
 30
0.0
  0
VERTEX
  5
9A0
330
962
100
AcDbEntity
  8
4
100
AcDbVertex
100
AcDb2dVertex
 10
1608.276155472666
 20
605.7523285807388
 30
0.0
  0
VERTEX
  5
9A1
330
962
100
AcDbEntity
  8
4
100
AcDbVertex
100
AcDb2dVertex
 10
1608.23178293119
 20
605.9564422715139
 30
0.0
  0
VERTEX
  5
9A2
330
962
100
AcDbEntity
  8
4
100
AcDbVertex
100
AcDb2dVertex
 10
1608.205159406306
 20
606.1694304705837
 30
0.0
  0
VERTEX
  5
9A3
330
962
100
AcDbEntity
  8
4
100
AcDbVertex
100
AcDb2dVertex
 10
1608.187410389716
 20
606.3824186696527
 30
0.0
  0
VERTEX
  5
9A4
330
962
100
AcDbEntity
  8
4
100
AcDbVertex
100
AcDb2dVertex
 10
1608.187410389716
 20
606.5954068687235
 30
0.0
  0
VERTEX
  5
9A5
330
962
100
AcDbEntity
  8
4
100
AcDbVertex
100
AcDb2dVertex
 10
1606.962728245066
 20
606.5954068687235
 30
0.0
  0
VERTEX
  5
9A6
330
962
100
AcDbEntity
  8
4
100
AcDbVertex
100
AcDb2dVertex
 10
1606.962728245066
 20
606.5954068687235
 30
0.0
  0
SEQEND
  5
9A7
330
962
100
AcDbEntity
  8
4
  0
POLYLINE
  5
9A8
330
1F
100
AcDbEntity
  8
4
100
AcDb2dPolyline
 66
     1
 10
0.0
 20
0.0
 30
0.0
  0
VERTEX
  5
9A9
330
9A8
100
AcDbEntity
  8
4
100
AcDbVertex
100
AcDb2dVertex
 10
1606.962728245066
 20
649.3616623403037
 30
0.0
  0
VERTEX
  5
9AA
330
9A8
100
AcDbEntity
  8
4
100
AcDbVertex
100
AcDb2dVertex
 10
1606.962728245066
 20
606.5954068687235
 30
0.0
  0
VERTEX
  5
9AB
330
9A8
100
AcDbEntity
  8
4
100
AcDbVertex
100
AcDb2dVertex
 10
1608.187410389716
 20
606.5954068687235
 30
0.0
  0
VERTEX
  5
9AC
330
9A8
100
AcDbEntity
  8
4
100
AcDbVertex
100
AcDb2dVertex
 10
1608.187410389716
 20
649.3616623403037
 30
0.0
  0
VERTEX
  5
9AD
330
9A8
100
AcDbEntity
  8
4
100
AcDbVertex
100
AcDb2dVertex
 10
1606.962728245066
 20
649.3616623403037
 30
0.0
  0
VERTEX
  5
9AE
330
9A8
100
AcDbEntity
  8
4
100
AcDbVertex
100
AcDb2dVertex
 10
1606.962728245066
 20
649.3616623403037
 30
0.0
  0
SEQEND
  5
9AF
330
9A8
100
AcDbEntity
  8
4
  0
POLYLINE
  5
9B0
330
1F
100
AcDbEntity
  8
4
100
AcDb2dPolyline
 66
     1
 10
0.0
 20
0.0
 30
0.0
  0
VERTEX
  5
9B1
330
9B0
100
AcDbEntity
  8
4
100
AcDbVertex
100
AcDb2dVertex
 10
1711.567208097152
 20
637.1660763873858
 30
0.0
  0
VERTEX
  5
9B2
330
9B0
100
AcDbEntity
  8
4
100
AcDbVertex
100
AcDb2dVertex
 10
1719.308441682512
 20
637.1660763873858
 30
0.0
  0
VERTEX
  5
9B3
330
9B0
100
AcDbEntity
  8
4
100
AcDbVertex
100
AcDb2dVertex
 10
1719.308441682512
 20
632.4936477702898
 30
0.0
  0
VERTEX
  5
9B4
330
9B0
100
AcDbEntity
  8
4
100
AcDbVertex
100
AcDb2dVertex
 10
1719.308441682512
 20
632.0090996174058
 30
0.0
  0
VERTEX
  5
9B5
330
9B0
100
AcDbEntity
  8
4
100
AcDbVertex
100
AcDb2dVertex
 10
1719.550715758954
 20
630.8784872606767
 30
0.0
  0
VERTEX
  5
9B6
330
9B0
100
AcDbEntity
  8
4
100
AcDbVertex
100
AcDb2dVertex
 10
1719.873747860877
 20
630.2324230568307
 30
0.0
  0
VERTEX
  5
9B7
330
9B0
100
AcDbEntity
  8
4
100
AcDbVertex
100
AcDb2dVertex
 10
1720.358296013762
 20
629.7478749039468
 30
0.0
  0
VERTEX
  5
9B8
330
9B0
100
AcDbEntity
  8
4
100
AcDbVertex
100
AcDb2dVertex
 10
1721.165876268567
 20
629.3440847765439
 30
0.0
  0
VERTEX
  5
9B9
330
9B0
100
AcDbEntity
  8
4
100
AcDbVertex
100
AcDb2dVertex
 10
1722.134972574336
 20
629.2633267510628
 30
0.0
  0
VERTEX
  5
9BA
330
9B0
100
AcDbEntity
  8
4
100
AcDbVertex
100
AcDb2dVertex
 10
1723.104068880105
 20
629.3440847765439
 30
0.0
  0
VERTEX
  5
9BB
330
9B0
100
AcDbEntity
  8
4
100
AcDbVertex
100
AcDb2dVertex
 10
1723.91164913491
 20
629.7478749039468
 30
0.0
  0
VERTEX
  5
9BC
330
9B0
100
AcDbEntity
  8
4
100
AcDbVertex
100
AcDb2dVertex
 10
1724.476955313277
 20
630.3131810823116
 30
0.0
  0
VERTEX
  5
9BD
330
9B0
100
AcDbEntity
  8
4
100
AcDbVertex
100
AcDb2dVertex
 10
1724.799987415197
 20
630.8784872606767
 30
0.0
  0
VERTEX
  5
9BE
330
9B0
100
AcDbEntity
  8
4
100
AcDbVertex
100
AcDb2dVertex
 10
1725.123019517122
 20
632.0090996174058
 30
0.0
  0
VERTEX
  5
9BF
330
9B0
100
AcDbEntity
  8
4
100
AcDbVertex
100
AcDb2dVertex
 10
1725.203777542601
 20
632.5744057957697
 30
0.0
  0
VERTEX
  5
9C0
330
9B0
100
AcDbEntity
  8
4
100
AcDbVertex
100
AcDb2dVertex
 10
1725.203777542601
 20
637.1660763873858
 30
0.0
  0
VERTEX
  5
9C1
330
9B0
100
AcDbEntity
  8
4
100
AcDbVertex
100
AcDb2dVertex
 10
1732.783495077005
 20
637.1660763873858
 30
0.0
  0
VERTEX
  5
9C2
330
9B0
100
AcDbEntity
  8
4
100
AcDbVertex
100
AcDb2dVertex
 10
1732.783495077005
 20
631.7668255409627
 30
0.0
  0
VERTEX
  5
9C3
330
9B0
100
AcDbEntity
  8
4
100
AcDbVertex
100
AcDb2dVertex
 10
1732.783495077005
 20
630.9592452861577
 30
0.0
  0
VERTEX
  5
9C4
330
9B0
100
AcDbEntity
  8
4
100
AcDbVertex
100
AcDb2dVertex
 10
1732.460462975079
 20
629.1825687255809
 30
0.0
  0
VERTEX
  5
9C5
330
9B0
100
AcDbEntity
  8
4
100
AcDbVertex
100
AcDb2dVertex
 10
1732.056672847674
 20
628.1327143943329
 30
0.0
  0
VERTEX
  5
9C6
330
9B0
100
AcDbEntity
  8
4
100
AcDbVertex
100
AcDb2dVertex
 10
1731.410608643829
 20
627.0828600630847
 30
0.0
  0
VERTEX
  5
9C7
330
9B0
100
AcDbEntity
  8
4
100
AcDbVertex
100
AcDb2dVertex
 10
1730.603028389025
 20
626.1137637573157
 30
0.0
  0
VERTEX
  5
9C8
330
9B0
100
AcDbEntity
  8
4
100
AcDbVertex
100
AcDb2dVertex
 10
1729.483952893079
 20
625.3869415279897
 30
0.0
  0
VERTEX
  5
9C9
330
9B0
100
AcDbEntity
  8
4
100
AcDbVertex
100
AcDb2dVertex
 10
1730.037722210658
 20
625.0639094260669
 30
0.0
  0
VERTEX
  5
9CA
330
9B0
100
AcDbEntity
  8
4
100
AcDbVertex
100
AcDb2dVertex
 10
1730.683786414505
 20
624.6601192986637
 30
0.0
  0
VERTEX
  5
9CB
330
9B0
100
AcDbEntity
  8
4
100
AcDbVertex
100
AcDb2dVertex
 10
1731.329850618351
 20
624.0140550948177
 30
0.0
  0
VERTEX
  5
9CC
330
9B0
100
AcDbEntity
  8
4
100
AcDbVertex
100
AcDb2dVertex
 10
1732.056672847674
 20
623.1257168145307
 30
0.0
  0
VERTEX
  5
9CD
330
9B0
100
AcDbEntity
  8
4
100
AcDbVertex
100
AcDb2dVertex
 10
1732.621979026041
 20
622.0066413185848
 30
0.0
  0
VERTEX
  5
9CE
330
9B0
100
AcDbEntity
  8
4
100
AcDbVertex
100
AcDb2dVertex
 10
1733.106527178925
 20
620.5529968599319
 30
0.0
  0
VERTEX
  5
9CF
330
9B0
100
AcDbEntity
  8
4
100
AcDbVertex
100
AcDb2dVertex
 10
1733.268043229888
 20
618.7763202993568
 30
0.0
  0
VERTEX
  5
9D0
330
9B0
100
AcDbEntity
  8
4
100
AcDbVertex
100
AcDb2dVertex
 10
1733.268043229888
 20
611.9926461589807
 30
0.0
  0
VERTEX
  5
9D1
330
9B0
100
AcDbEntity
  8
4
100
AcDbVertex
100
AcDb2dVertex
 10
1725.284535568082
 20
611.9926461589807
 30
0.0
  0
VERTEX
  5
9D2
330
9B0
100
AcDbEntity
  8
4
100
AcDbVertex
100
AcDb2dVertex
 10
1725.284535568082
 20
618.1302560955117
 30
0.0
  0
VERTEX
  5
9D3
330
9B0
100
AcDbEntity
  8
4
100
AcDbVertex
100
AcDb2dVertex
 10
1725.284535568082
 20
618.6955622738769
 30
0.0
  0
VERTEX
  5
9D4
330
9B0
100
AcDbEntity
  8
4
100
AcDbVertex
100
AcDb2dVertex
 10
1725.203777542601
 20
619.3416264777217
 30
0.0
  0
VERTEX
  5
9D5
330
9B0
100
AcDbEntity
  8
4
100
AcDbVertex
100
AcDb2dVertex
 10
1725.042261491639
 20
619.9876906815667
 30
0.0
  0
VERTEX
  5
9D6
330
9B0
100
AcDbEntity
  8
4
100
AcDbVertex
100
AcDb2dVertex
 10
1724.719229389719
 20
620.7145129108937
 30
0.0
  0
VERTEX
  5
9D7
330
9B0
100
AcDbEntity
  8
4
100
AcDbVertex
100
AcDb2dVertex
 10
1724.234681236835
 20
621.3605771147387
 30
0.0
  0
VERTEX
  5
9D8
330
9B0
100
AcDbEntity
  8
4
100
AcDbVertex
100
AcDb2dVertex
 10
1723.427100982027
 20
621.7643672421437
 30
0.0
  0
VERTEX
  5
9D9
330
9B0
100
AcDbEntity
  8
4
100
AcDbVertex
100
AcDb2dVertex
 10
1722.377246650778
 20
621.9258832931037
 30
0.0
  0
VERTEX
  5
9DA
330
9B0
100
AcDbEntity
  8
4
100
AcDbVertex
100
AcDb2dVertex
 10
1721.24663429405
 20
621.7643672421437
 30
0.0
  0
VERTEX
  5
9DB
330
9B0
100
AcDbEntity
  8
4
100
AcDbVertex
100
AcDb2dVertex
 10
1720.439054039241
 20
621.3605771147387
 30
0.0
  0
VERTEX
  5
9DC
330
9B0
100
AcDbEntity
  8
4
100
AcDbVertex
100
AcDb2dVertex
 10
1719.873747860877
 20
620.7145129108937
 30
0.0
  0
VERTEX
  5
9DD
330
9B0
100
AcDbEntity
  8
4
100
AcDbVertex
100
AcDb2dVertex
 10
1719.469957733475
 20
620.0684487070478
 30
0.0
  0
VERTEX
  5
9DE
330
9B0
100
AcDbEntity
  8
4
100
AcDbVertex
100
AcDb2dVertex
 10
1719.308441682512
 20
619.3416264777217
 30
0.0
  0
VERTEX
  5
9DF
330
9B0
100
AcDbEntity
  8
4
100
AcDbVertex
100
AcDb2dVertex
 10
1719.227683657034
 20
618.7763202993568
 30
0.0
  0
VERTEX
  5
9E0
330
9B0
100
AcDbEntity
  8
4
100
AcDbVertex
100
AcDb2dVertex
 10
1719.14692563155
 20
618.1302560955117
 30
0.0
  0
VERTEX
  5
9E1
330
9B0
100
AcDbEntity
  8
4
100
AcDbVertex
100
AcDb2dVertex
 10
1719.14692563155
 20
611.9926461589807
 30
0.0
  0
VERTEX
  5
9E2
330
9B0
100
AcDbEntity
  8
4
100
AcDbVertex
100
AcDb2dVertex
 10
1711.082659944267
 20
611.9926461589807
 30
0.0
  0
VERTEX
  5
9E3
330
9B0
100
AcDbEntity
  8
4
100
AcDbVertex
100
AcDb2dVertex
 10
1711.082659944267
 20
618.6955622738769
 30
0.0
  0
VERTEX
  5
9E4
330
9B0
100
AcDbEntity
  8
4
100
AcDbVertex
100
AcDb2dVertex
 10
1711.163417969748
 20
619.5031425286837
 30
0.0
  0
VERTEX
  5
9E5
330
9B0
100
AcDbEntity
  8
4
100
AcDbVertex
100
AcDb2dVertex
 10
1711.324934020708
 20
620.3914808089707
 30
0.0
  0
VERTEX
  5
9E6
330
9B0
100
AcDbEntity
  8
4
100
AcDbVertex
100
AcDb2dVertex
 10
1711.647966122631
 20
621.4413351402209
 30
0.0
  0
VERTEX
  5
9E7
330
9B0
100
AcDbEntity
  8
4
100
AcDbVertex
100
AcDb2dVertex
 10
1712.051756250035
 20
622.5604106361657
 30
0.0
  0
VERTEX
  5
9E8
330
9B0
100
AcDbEntity
  8
4
100
AcDbVertex
100
AcDb2dVertex
 10
1712.778578479358
 20
623.6910229928956
 30
0.0
  0
VERTEX
  5
9E9
330
9B0
100
AcDbEntity
  8
4
100
AcDbVertex
100
AcDb2dVertex
 10
1713.666916759646
 20
624.6601192986637
 30
0.0
  0
VERTEX
  5
9EA
330
9B0
100
AcDbEntity
  8
4
100
AcDbVertex
100
AcDb2dVertex
 10
1714.232222938013
 20
625.0639094260669
 30
0.0
  0
VERTEX
  5
9EB
330
9B0
100
AcDbEntity
  8
4
100
AcDbVertex
100
AcDb2dVertex
 10
1714.959045167335
 20
625.3869415279897
 30
0.0
  0
VERTEX
  5
9EC
330
9B0
100
AcDbEntity
  8
4
100
AcDbVertex
100
AcDb2dVertex
 10
1714.393738988976
 20
625.7099736299119
 30
0.0
  0
VERTEX
  5
9ED
330
9B0
100
AcDbEntity
  8
4
100
AcDbVertex
100
AcDb2dVertex
 10
1713.909190836091
 20
626.1137637573157
 30
0.0
  0
VERTEX
  5
9EE
330
9B0
100
AcDbEntity
  8
4
100
AcDbVertex
100
AcDb2dVertex
 10
1713.263126632245
 20
626.7598279611616
 30
0.0
  0
VERTEX
  5
9EF
330
9B0
100
AcDbEntity
  8
4
100
AcDbVertex
100
AcDb2dVertex
 10
1712.617062428398
 20
627.5674082159688
 30
0.0
  0
VERTEX
  5
9F0
330
9B0
100
AcDbEntity
  8
4
100
AcDbVertex
100
AcDb2dVertex
 10
1712.132514275514
 20
628.6980205726979
 30
0.0
  0
VERTEX
  5
9F1
330
9B0
100
AcDbEntity
  8
4
100
AcDbVertex
100
AcDb2dVertex
 10
1711.72872414811
 20
629.9901489803898
 30
0.0
  0
VERTEX
  5
9F2
330
9B0
100
AcDbEntity
  8
4
100
AcDbVertex
100
AcDb2dVertex
 10
1711.567208097152
 20
631.6860675154828
 30
0.0
  0
VERTEX
  5
9F3
330
9B0
100
AcDbEntity
  8
4
100
AcDbVertex
100
AcDb2dVertex
 10
1711.567208097152
 20
637.1660763873858
 30
0.0
  0
VERTEX
  5
9F4
330
9B0
100
AcDbEntity
  8
4
100
AcDbVertex
100
AcDb2dVertex
 10
1711.567208097152
 20
637.1660763873858
 30
0.0
  0
SEQEND
  5
9F5
330
9B0
100
AcDbEntity
  8
4
  0
POLYLINE
  5
9F6
330
1F
100
AcDbEntity
  8
4
100
AcDb2dPolyline
 66
     1
 10
0.0
 20
0.0
 30
0.0
  0
VERTEX
  5
9F7
330
9F6
100
AcDbEntity
  8
4
100
AcDbVertex
100
AcDb2dVertex
 10
1642.346043399428
 20
623.4487489164538
 30
0.0
  0
VERTEX
  5
9F8
330
9F6
100
AcDbEntity
  8
4
100
AcDbVertex
100
AcDb2dVertex
 10
1650.168035010269
 20
629.9901489803898
 30
0.0
  0
VERTEX
  5
9F9
330
9F6
100
AcDbEntity
  8
4
100
AcDbVertex
100
AcDb2dVertex
 10
1649.602728831905
 20
630.3131810823116
 30
0.0
  0
VERTEX
  5
9FA
330
9F6
100
AcDbEntity
  8
4
100
AcDbVertex
100
AcDb2dVertex
 10
1648.968201488839
 20
630.6362131842347
 30
0.0
  0
VERTEX
  5
9FB
330
9F6
100
AcDbEntity
  8
4
100
AcDbVertex
100
AcDb2dVertex
 10
1648.079863208552
 20
630.8784872606767
 30
0.0
  0
VERTEX
  5
9FC
330
9F6
100
AcDbEntity
  8
4
100
AcDbVertex
100
AcDb2dVertex
 10
1647.110766902788
 20
631.0400033116377
 30
0.0
  0
VERTEX
  5
9FD
330
9F6
100
AcDbEntity
  8
4
100
AcDbVertex
100
AcDb2dVertex
 10
1645.980154546055
 20
630.9592452861577
 30
0.0
  0
VERTEX
  5
9FE
330
9F6
100
AcDbEntity
  8
4
100
AcDbVertex
100
AcDb2dVertex
 10
1644.768784163846
 20
630.5554551587537
 30
0.0
  0
VERTEX
  5
9FF
330
9F6
100
AcDbEntity
  8
4
100
AcDbVertex
100
AcDb2dVertex
 10
1643.638171807118
 20
629.7478749039468
 30
0.0
  0
VERTEX
  5
A00
330
9F6
100
AcDbEntity
  8
4
100
AcDbVertex
100
AcDb2dVertex
 10
1642.669075501348
 20
628.6172625472167
 30
0.0
  0
VERTEX
  5
A01
330
9F6
100
AcDbEntity
  8
4
100
AcDbVertex
100
AcDb2dVertex
 10
1642.103769322986
 20
627.4866501904869
 30
0.0
  0
VERTEX
  5
A02
330
9F6
100
AcDbEntity
  8
4
100
AcDbVertex
100
AcDb2dVertex
 10
1641.861495246542
 20
626.4367958592387
 30
0.0
  0
VERTEX
  5
A03
330
9F6
100
AcDbEntity
  8
4
100
AcDbVertex
100
AcDb2dVertex
 10
1641.780737221059
 20
625.4676995534707
 30
0.0
  0
VERTEX
  5
A04
330
9F6
100
AcDbEntity
  8
4
100
AcDbVertex
100
AcDb2dVertex
 10
1641.942253272024
 20
624.6601192986637
 30
0.0
  0
VERTEX
  5
A05
330
9F6
100
AcDbEntity
  8
4
100
AcDbVertex
100
AcDb2dVertex
 10
1642.103769322986
 20
624.0140550948177
 30
0.0
  0
VERTEX
  5
A06
330
9F6
100
AcDbEntity
  8
4
100
AcDbVertex
100
AcDb2dVertex
 10
1642.346043399428
 20
623.4487489164538
 30
0.0
  0
VERTEX
  5
A07
330
9F6
100
AcDbEntity
  8
4
100
AcDbVertex
100
AcDb2dVertex
 10
1642.346043399428
 20
623.4487489164538
 30
0.0
  0
SEQEND
  5
A08
330
9F6
100
AcDbEntity
  8
4
  0
POLYLINE
  5
A09
330
1F
100
AcDbEntity
  8
4
100
AcDb2dPolyline
 66
     1
 10
0.0
 20
0.0
 30
0.0
  0
VERTEX
  5
A0A
330
A09
100
AcDbEntity
  8
4
100
AcDbVertex
100
AcDb2dVertex
 10
1660.897315538416
 20
611.9926461589807
 30
0.0
  0
VERTEX
  5
A0B
330
A09
100
AcDbEntity
  8
4
100
AcDbVertex
100
AcDb2dVertex
 10
1660.897315538416
 20
639.8310912282489
 30
0.0
  0
VERTEX
  5
A0C
330
A09
100
AcDbEntity
  8
4
100
AcDbVertex
100
AcDb2dVertex
 10
1660.978073563898
 20
640.8809455594977
 30
0.0
  0
VERTEX
  5
A0D
330
A09
100
AcDbEntity
  8
4
100
AcDbVertex
100
AcDb2dVertex
 10
1661.301105665821
 20
642.0923159417067
 30
0.0
  0
VERTEX
  5
A0E
330
A09
100
AcDbEntity
  8
4
100
AcDbVertex
100
AcDb2dVertex
 10
1661.947169869665
 20
643.3844443493978
 30
0.0
  0
VERTEX
  5
A0F
330
A09
100
AcDbEntity
  8
4
100
AcDbVertex
100
AcDb2dVertex
 10
1662.350959997066
 20
644.0305085532437
 30
0.0
  0
VERTEX
  5
A10
330
A09
100
AcDbEntity
  8
4
100
AcDbVertex
100
AcDb2dVertex
 10
1662.916266175434
 20
644.6765727570897
 30
0.0
  0
VERTEX
  5
A11
330
A09
100
AcDbEntity
  8
4
100
AcDbVertex
100
AcDb2dVertex
 10
1663.643088404757
 20
645.2303420746708
 30
0.0
  0
VERTEX
  5
A12
330
A09
100
AcDbEntity
  8
4
100
AcDbVertex
100
AcDb2dVertex
 10
1664.450668659567
 20
645.7956482530358
 30
0.0
  0
VERTEX
  5
A13
330
A09
100
AcDbEntity
  8
4
100
AcDbVertex
100
AcDb2dVertex
 10
1665.500522990817
 20
646.1994383804388
 30
0.0
  0
VERTEX
  5
A14
330
A09
100
AcDbEntity
  8
4
100
AcDbVertex
100
AcDb2dVertex
 10
1666.711893373022
 20
646.6032285078417
 30
0.0
  0
VERTEX
  5
A15
330
A09
100
AcDbEntity
  8
4
100
AcDbVertex
100
AcDb2dVertex
 10
1668.084779806198
 20
646.8455025842837
 30
0.0
  0
VERTEX
  5
A16
330
A09
100
AcDbEntity
  8
4
100
AcDbVertex
100
AcDb2dVertex
 10
1669.619182290331
 20
646.9262606097648
 30
0.0
  0
VERTEX
  5
A17
330
A09
100
AcDbEntity
  8
4
100
AcDbVertex
100
AcDb2dVertex
 10
1672.514934346852
 20
646.9262606097648
 30
0.0
  0
VERTEX
  5
A18
330
A09
100
AcDbEntity
  8
4
100
AcDbVertex
100
AcDb2dVertex
 10
1672.514934346852
 20
640.7194295085356
 30
0.0
  0
VERTEX
  5
A19
330
A09
100
AcDbEntity
  8
4
100
AcDbVertex
100
AcDb2dVertex
 10
1671.638132927346
 20
640.7194295085356
 30
0.0
  0
VERTEX
  5
A1A
330
A09
100
AcDbEntity
  8
4
100
AcDbVertex
100
AcDb2dVertex
 10
1671.234342799942
 20
640.6386714830547
 30
0.0
  0
VERTEX
  5
A1B
330
A09
100
AcDbEntity
  8
4
100
AcDbVertex
100
AcDb2dVertex
 10
1670.184488468694
 20
640.3963974066138
 30
0.0
  0
VERTEX
  5
A1C
330
A09
100
AcDbEntity
  8
4
100
AcDbVertex
100
AcDb2dVertex
 10
1669.699940315809
 20
639.9926072792087
 30
0.0
  0
VERTEX
  5
A1D
330
A09
100
AcDbEntity
  8
4
100
AcDbVertex
100
AcDb2dVertex
 10
1669.215392162927
 20
639.5080591263266
 30
0.0
  0
VERTEX
  5
A1E
330
A09
100
AcDbEntity
  8
4
100
AcDbVertex
100
AcDb2dVertex
 10
1668.892360061004
 20
638.8619949224808
 30
0.0
  0
VERTEX
  5
A1F
330
A09
100
AcDbEntity
  8
4
100
AcDbVertex
100
AcDb2dVertex
 10
1668.730844010044
 20
637.9736566421927
 30
0.0
  0
VERTEX
  5
A20
330
A09
100
AcDbEntity
  8
4
100
AcDbVertex
100
AcDb2dVertex
 10
1668.730844010044
 20
635.3086418013307
 30
0.0
  0
VERTEX
  5
A21
330
A09
100
AcDbEntity
  8
4
100
AcDbVertex
100
AcDb2dVertex
 10
1672.203439105713
 20
635.3086418013307
 30
0.0
  0
VERTEX
  5
A22
330
A09
100
AcDbEntity
  8
4
100
AcDbVertex
100
AcDb2dVertex
 10
1672.203439105713
 20
629.2633267510628
 30
0.0
  0
VERTEX
  5
A23
330
A09
100
AcDbEntity
  8
4
100
AcDbVertex
100
AcDb2dVertex
 10
1668.730844010044
 20
629.2633267510628
 30
0.0
  0
VERTEX
  5
A24
330
A09
100
AcDbEntity
  8
4
100
AcDbVertex
100
AcDb2dVertex
 10
1668.730844010044
 20
611.9926461589807
 30
0.0
  0
VERTEX
  5
A25
330
A09
100
AcDbEntity
  8
4
100
AcDbVertex
100
AcDb2dVertex
 10
1660.897315538416
 20
611.9926461589807
 30
0.0
  0
VERTEX
  5
A26
330
A09
100
AcDbEntity
  8
4
100
AcDbVertex
100
AcDb2dVertex
 10
1660.897315538416
 20
611.9926461589807
 30
0.0
  0
SEQEND
  5
A27
330
A09
100
AcDbEntity
  8
4
  0
POLYLINE
  5
A28
330
1F
100
AcDbEntity
  8
4
100
AcDb2dPolyline
 66
     1
 10
0.0
 20
0.0
 30
0.0
  0
VERTEX
  5
A29
330
A28
100
AcDbEntity
  8
4
100
AcDbVertex
100
AcDb2dVertex
 10
1693.09669398364
 20
623.4487489164538
 30
0.0
  0
VERTEX
  5
A2A
330
A28
100
AcDbEntity
  8
4
100
AcDbVertex
100
AcDb2dVertex
 10
1700.918685594484
 20
629.9901489803898
 30
0.0
  0
VERTEX
  5
A2B
330
A28
100
AcDbEntity
  8
4
100
AcDbVertex
100
AcDb2dVertex
 10
1700.353379416118
 20
630.3131810823116
 30
0.0
  0
VERTEX
  5
A2C
330
A28
100
AcDbEntity
  8
4
100
AcDbVertex
100
AcDb2dVertex
 10
1699.707315212272
 20
630.6362131842347
 30
0.0
  0
VERTEX
  5
A2D
330
A28
100
AcDbEntity
  8
4
100
AcDbVertex
100
AcDb2dVertex
 10
1698.818976931985
 20
630.8784872606767
 30
0.0
  0
VERTEX
  5
A2E
330
A28
100
AcDbEntity
  8
4
100
AcDbVertex
100
AcDb2dVertex
 10
1697.849880626218
 20
631.0400033116377
 30
0.0
  0
VERTEX
  5
A2F
330
A28
100
AcDbEntity
  8
4
100
AcDbVertex
100
AcDb2dVertex
 10
1696.719268269488
 20
630.9592452861577
 30
0.0
  0
VERTEX
  5
A30
330
A28
100
AcDbEntity
  8
4
100
AcDbVertex
100
AcDb2dVertex
 10
1695.507897887279
 20
630.5554551587537
 30
0.0
  0
VERTEX
  5
A31
330
A28
100
AcDbEntity
  8
4
100
AcDbVertex
100
AcDb2dVertex
 10
1694.388822391331
 20
629.7478749039468
 30
0.0
  0
VERTEX
  5
A32
330
A28
100
AcDbEntity
  8
4
100
AcDbVertex
100
AcDb2dVertex
 10
1693.419726085565
 20
628.6172625472167
 30
0.0
  0
VERTEX
  5
A33
330
A28
100
AcDbEntity
  8
4
100
AcDbVertex
100
AcDb2dVertex
 10
1692.854419907198
 20
627.4866501904869
 30
0.0
  0
VERTEX
  5
A34
330
A28
100
AcDbEntity
  8
4
100
AcDbVertex
100
AcDb2dVertex
 10
1692.612145830756
 20
626.4367958592387
 30
0.0
  0
VERTEX
  5
A35
330
A28
100
AcDbEntity
  8
4
100
AcDbVertex
100
AcDb2dVertex
 10
1692.531387805278
 20
625.4676995534707
 30
0.0
  0
VERTEX
  5
A36
330
A28
100
AcDbEntity
  8
4
100
AcDbVertex
100
AcDb2dVertex
 10
1692.692903856236
 20
624.6601192986637
 30
0.0
  0
VERTEX
  5
A37
330
A28
100
AcDbEntity
  8
4
100
AcDbVertex
100
AcDb2dVertex
 10
1692.854419907198
 20
624.0140550948177
 30
0.0
  0
VERTEX
  5
A38
330
A28
100
AcDbEntity
  8
4
100
AcDbVertex
100
AcDb2dVertex
 10
1693.09669398364
 20
623.4487489164538
 30
0.0
  0
VERTEX
  5
A39
330
A28
100
AcDbEntity
  8
4
100
AcDbVertex
100
AcDb2dVertex
 10
1693.09669398364
 20
623.4487489164538
 30
0.0
  0
SEQEND
  5
A3A
330
A28
100
AcDbEntity
  8
4
  0
POLYLINE
  5
A3B
330
1F
100
AcDbEntity
  8
4
100
AcDb2dPolyline
 66
     1
 10
0.0
 20
0.0
 30
0.0
  0
VERTEX
  5
A3C
330
A3B
100
AcDbEntity
  8
4
100
AcDbVertex
100
AcDb2dVertex
 10
1708.659919179845
 20
621.6836092166618
 30
0.0
  0
VERTEX
  5
A3D
330
A3B
100
AcDbEntity
  8
4
100
AcDbVertex
100
AcDb2dVertex
 10
1708.659919179845
 20
613.7693227195559
 30
0.0
  0
VERTEX
  5
A3E
330
A3B
100
AcDbEntity
  8
4
100
AcDbVertex
100
AcDb2dVertex
 10
1708.09461300148
 20
613.4462906176329
 30
0.0
  0
VERTEX
  5
A3F
330
A3B
100
AcDbEntity
  8
4
100
AcDbVertex
100
AcDb2dVertex
 10
1706.329473301689
 20
612.6387103628258
 30
0.0
  0
VERTEX
  5
A40
330
A3B
100
AcDbEntity
  8
4
100
AcDbVertex
100
AcDb2dVertex
 10
1705.118102919477
 20
612.2349202354227
 30
0.0
  0
VERTEX
  5
A41
330
A3B
100
AcDbEntity
  8
4
100
AcDbVertex
100
AcDb2dVertex
 10
1703.583700435344
 20
611.9118881335009
 30
0.0
  0
VERTEX
  5
A42
330
A3B
100
AcDbEntity
  8
4
100
AcDbVertex
100
AcDb2dVertex
 10
1701.887781900253
 20
611.6696140570577
 30
0.0
  0
VERTEX
  5
A43
330
A3B
100
AcDbEntity
  8
4
100
AcDbVertex
100
AcDb2dVertex
 10
1700.030347314195
 20
611.5888560315777
 30
0.0
  0
VERTEX
  5
A44
330
A3B
100
AcDbEntity
  8
4
100
AcDbVertex
100
AcDb2dVertex
 10
1698.657460881024
 20
611.5888560315777
 30
0.0
  0
VERTEX
  5
A45
330
A3B
100
AcDbEntity
  8
4
100
AcDbVertex
100
AcDb2dVertex
 10
1697.284574447853
 20
611.7503720825377
 30
0.0
  0
VERTEX
  5
A46
330
A3B
100
AcDbEntity
  8
4
100
AcDbVertex
100
AcDb2dVertex
 10
1695.992446040161
 20
612.0734041844607
 30
0.0
  0
VERTEX
  5
A47
330
A3B
100
AcDbEntity
  8
4
100
AcDbVertex
100
AcDb2dVertex
 10
1694.631096467771
 20
612.3964362863826
 30
0.0
  0
VERTEX
  5
A48
330
A3B
100
AcDbEntity
  8
4
100
AcDbVertex
100
AcDb2dVertex
 10
1693.419726085565
 20
612.8809844392686
 30
0.0
  0
VERTEX
  5
A49
330
A3B
100
AcDbEntity
  8
4
100
AcDbVertex
100
AcDb2dVertex
 10
1692.208355703353
 20
613.5270486431139
 30
0.0
  0
VERTEX
  5
A4A
330
A3B
100
AcDbEntity
  8
4
100
AcDbVertex
100
AcDb2dVertex
 10
1691.077743346625
 20
614.1731128469597
 30
0.0
  0
VERTEX
  5
A4B
330
A3B
100
AcDbEntity
  8
4
100
AcDbVertex
100
AcDb2dVertex
 10
1690.027889015375
 20
614.9806931017649
 30
0.0
  0
VERTEX
  5
A4C
330
A3B
100
AcDbEntity
  8
4
100
AcDbVertex
100
AcDb2dVertex
 10
1688.978034684125
 20
615.9497894075339
 30
0.0
  0
VERTEX
  5
A4D
330
A3B
100
AcDbEntity
  8
4
100
AcDbVertex
100
AcDb2dVertex
 10
1688.089696403838
 20
616.9996437387829
 30
0.0
  0
VERTEX
  5
A4E
330
A3B
100
AcDbEntity
  8
4
100
AcDbVertex
100
AcDb2dVertex
 10
1687.362874174513
 20
618.1302560955117
 30
0.0
  0
VERTEX
  5
A4F
330
A3B
100
AcDbEntity
  8
4
100
AcDbVertex
100
AcDb2dVertex
 10
1686.716809970669
 20
619.3416264777217
 30
0.0
  0
VERTEX
  5
A50
330
A3B
100
AcDbEntity
  8
4
100
AcDbVertex
100
AcDb2dVertex
 10
1686.151503792302
 20
620.7145129108937
 30
0.0
  0
VERTEX
  5
A51
330
A3B
100
AcDbEntity
  8
4
100
AcDbVertex
100
AcDb2dVertex
 10
1685.747713664897
 20
622.1681573695459
 30
0.0
  0
VERTEX
  5
A52
330
A3B
100
AcDbEntity
  8
4
100
AcDbVertex
100
AcDb2dVertex
 10
1685.505439588455
 20
623.6910229928956
 30
0.0
  0
VERTEX
  5
A53
330
A3B
100
AcDbEntity
  8
4
100
AcDbVertex
100
AcDb2dVertex
 10
1685.424681562978
 20
625.3869415279897
 30
0.0
  0
VERTEX
  5
A54
330
A3B
100
AcDbEntity
  8
4
100
AcDbVertex
100
AcDb2dVertex
 10
1685.666955639419
 20
627.6481662414487
 30
0.0
  0
VERTEX
  5
A55
330
A3B
100
AcDbEntity
  8
4
100
AcDbVertex
100
AcDb2dVertex
 10
1686.232261817782
 20
629.8286329294269
 30
0.0
  0
VERTEX
  5
A56
330
A3B
100
AcDbEntity
  8
4
100
AcDbVertex
100
AcDb2dVertex
 10
1686.636051945186
 20
630.8784872606767
 30
0.0
  0
VERTEX
  5
A57
330
A3B
100
AcDbEntity
  8
4
100
AcDbVertex
100
AcDb2dVertex
 10
1687.201358123551
 20
631.9283415919247
 30
0.0
  0
VERTEX
  5
A58
330
A3B
100
AcDbEntity
  8
4
100
AcDbVertex
100
AcDb2dVertex
 10
1687.847422327397
 20
632.8974378976928
 30
0.0
  0
VERTEX
  5
A59
330
A3B
100
AcDbEntity
  8
4
100
AcDbVertex
100
AcDb2dVertex
 10
1688.493486531242
 20
633.7742393171978
 30
0.0
  0
VERTEX
  5
A5A
330
A3B
100
AcDbEntity
  8
4
100
AcDbVertex
100
AcDb2dVertex
 10
1689.381824811529
 20
634.5818195720038
 30
0.0
  0
VERTEX
  5
A5B
330
A3B
100
AcDbEntity
  8
4
100
AcDbVertex
100
AcDb2dVertex
 10
1690.270163091815
 20
635.3893998268118
 30
0.0
  0
VERTEX
  5
A5C
330
A3B
100
AcDbEntity
  8
4
100
AcDbVertex
100
AcDb2dVertex
 10
1691.239259397587
 20
636.0354640306559
 30
0.0
  0
VERTEX
  5
A5D
330
A3B
100
AcDbEntity
  8
4
100
AcDbVertex
100
AcDb2dVertex
 10
1692.369871754316
 20
636.6007702090219
 30
0.0
  0
VERTEX
  5
A5E
330
A3B
100
AcDbEntity
  8
4
100
AcDbVertex
100
AcDb2dVertex
 10
1693.581242136525
 20
637.0853183619057
 30
0.0
  0
VERTEX
  5
A5F
330
A3B
100
AcDbEntity
  8
4
100
AcDbVertex
100
AcDb2dVertex
 10
1694.873370544216
 20
637.4083504638287
 30
0.0
  0
VERTEX
  5
A60
330
A3B
100
AcDbEntity
  8
4
100
AcDbVertex
100
AcDb2dVertex
 10
1696.234720116603
 20
637.6506245402697
 30
0.0
  0
VERTEX
  5
A61
330
A3B
100
AcDbEntity
  8
4
100
AcDbVertex
100
AcDb2dVertex
 10
1697.769122600738
 20
637.7313825657497
 30
0.0
  0
VERTEX
  5
A62
330
A3B
100
AcDbEntity
  8
4
100
AcDbVertex
100
AcDb2dVertex
 10
1699.868831263233
 20
637.5698665147897
 30
0.0
  0
VERTEX
  5
A63
330
A3B
100
AcDbEntity
  8
4
100
AcDbVertex
100
AcDb2dVertex
 10
1701.887781900253
 20
637.0045603364249
 30
0.0
  0
VERTEX
  5
A64
330
A3B
100
AcDbEntity
  8
4
100
AcDbVertex
100
AcDb2dVertex
 10
1703.745216486308
 20
636.1969800816178
 30
0.0
  0
VERTEX
  5
A65
330
A3B
100
AcDbEntity
  8
4
100
AcDbVertex
100
AcDb2dVertex
 10
1705.441135021403
 20
635.1471257503686
 30
0.0
  0
VERTEX
  5
A66
330
A3B
100
AcDbEntity
  8
4
100
AcDbVertex
100
AcDb2dVertex
 10
1706.96400064475
 20
633.8549973426777
 30
0.0
  0
VERTEX
  5
A67
330
A3B
100
AcDbEntity
  8
4
100
AcDbVertex
100
AcDb2dVertex
 10
1708.175371026962
 20
632.4936477702898
 30
0.0
  0
VERTEX
  5
A68
330
A3B
100
AcDbEntity
  8
4
100
AcDbVertex
100
AcDb2dVertex
 10
1709.225225358212
 20
630.8784872606767
 30
0.0
  0
VERTEX
  5
A69
330
A3B
100
AcDbEntity
  8
4
100
AcDbVertex
100
AcDb2dVertex
 10
1709.952047587536
 20
629.2633267510628
 30
0.0
  0
VERTEX
  5
A6A
330
A3B
100
AcDbEntity
  8
4
100
AcDbVertex
100
AcDb2dVertex
 10
1697.930638651698
 20
618.7763202993568
 30
0.0
  0
VERTEX
  5
A6B
330
A3B
100
AcDbEntity
  8
4
100
AcDbVertex
100
AcDb2dVertex
 10
1698.415186804581
 20
618.6955622738769
 30
0.0
  0
VERTEX
  5
A6C
330
A3B
100
AcDbEntity
  8
4
100
AcDbVertex
100
AcDb2dVertex
 10
1699.545799161315
 20
618.4532881974347
 30
0.0
  0
VERTEX
  5
A6D
330
A3B
100
AcDbEntity
  8
4
100
AcDbVertex
100
AcDb2dVertex
 10
1701.160959670926
 20
618.4532881974347
 30
0.0
  0
VERTEX
  5
A6E
330
A3B
100
AcDbEntity
  8
4
100
AcDbVertex
100
AcDb2dVertex
 10
1702.130055976693
 20
618.5340462229158
 30
0.0
  0
VERTEX
  5
A6F
330
A3B
100
AcDbEntity
  8
4
100
AcDbVertex
100
AcDb2dVertex
 10
1703.099152282462
 20
618.7763202993568
 30
0.0
  0
VERTEX
  5
A70
330
A3B
100
AcDbEntity
  8
4
100
AcDbVertex
100
AcDb2dVertex
 10
1705.118102919477
 20
619.5031425286837
 30
0.0
  0
VERTEX
  5
A71
330
A3B
100
AcDbEntity
  8
4
100
AcDbVertex
100
AcDb2dVertex
 10
1706.883242619271
 20
620.4722388344527
 30
0.0
  0
VERTEX
  5
A72
330
A3B
100
AcDbEntity
  8
4
100
AcDbVertex
100
AcDb2dVertex
 10
1708.659919179845
 20
621.6836092166618
 30
0.0
  0
VERTEX
  5
A73
330
A3B
100
AcDbEntity
  8
4
100
AcDbVertex
100
AcDb2dVertex
 10
1708.659919179845
 20
621.6836092166618
 30
0.0
  0
SEQEND
  5
A74
330
A3B
100
AcDbEntity
  8
4
  0
POLYLINE
  5
A75
330
1F
100
AcDbEntity
  8
4
100
AcDb2dPolyline
 66
     1
 10
0.0
 20
0.0
 30
0.0
  0
VERTEX
  5
A76
330
A75
100
AcDbEntity
  8
4
100
AcDbVertex
100
AcDb2dVertex
 10
1675.099191162235
 20
646.9262606097648
 30
0.0
  0
VERTEX
  5
A77
330
A75
100
AcDbEntity
  8
4
100
AcDbVertex
100
AcDb2dVertex
 10
1675.099191162235
 20
611.9926461589807
 30
0.0
  0
VERTEX
  5
A78
330
A75
100
AcDbEntity
  8
4
100
AcDbVertex
100
AcDb2dVertex
 10
1683.255751735779
 20
611.9926461589807
 30
0.0
  0
VERTEX
  5
A79
330
A75
100
AcDbEntity
  8
4
100
AcDbVertex
100
AcDb2dVertex
 10
1683.255751735779
 20
646.9262606097648
 30
0.0
  0
VERTEX
  5
A7A
330
A75
100
AcDbEntity
  8
4
100
AcDbVertex
100
AcDb2dVertex
 10
1675.099191162235
 20
646.9262606097648
 30
0.0
  0
VERTEX
  5
A7B
330
A75
100
AcDbEntity
  8
4
100
AcDbVertex
100
AcDb2dVertex
 10
1675.099191162235
 20
646.9262606097648
 30
0.0
  0
SEQEND
  5
A7C
330
A75
100
AcDbEntity
  8
4
  0
POLYLINE
  5
A7D
330
1F
100
AcDbEntity
  8
4
100
AcDb2dPolyline
 66
     1
 10
0.0
 20
0.0
 30
0.0
  0
VERTEX
  5
A7E
330
A7D
100
AcDbEntity
  8
4
100
AcDbVertex
100
AcDb2dVertex
 10
1749.185598174005
 20
649.3616623403037
 30
0.0
  0
VERTEX
  5
A7F
330
A7D
100
AcDbEntity
  8
4
100
AcDbVertex
100
AcDb2dVertex
 10
1749.176723665709
 20
649.6367720974367
 30
0.0
  0
VERTEX
  5
A80
330
A7D
100
AcDbEntity
  8
4
100
AcDbVertex
100
AcDb2dVertex
 10
1749.150100140826
 20
649.9118818545688
 30
0.0
  0
VERTEX
  5
A81
330
A7D
100
AcDbEntity
  8
4
100
AcDbVertex
100
AcDb2dVertex
 10
1749.123476615944
 20
650.1869916117009
 30
0.0
  0
VERTEX
  5
A82
330
A7D
100
AcDbEntity
  8
4
100
AcDbVertex
100
AcDb2dVertex
 10
1749.070229566175
 20
650.4532268605369
 30
0.0
  0
VERTEX
  5
A83
330
A7D
100
AcDbEntity
  8
4
100
AcDbVertex
100
AcDb2dVertex
 10
1749.008108008114
 20
650.7194621093748
 30
0.0
  0
VERTEX
  5
A84
330
A7D
100
AcDbEntity
  8
4
100
AcDbVertex
100
AcDb2dVertex
 10
1748.937111941756
 20
650.9768228499178
 30
0.0
  0
VERTEX
  5
A85
330
A7D
100
AcDbEntity
  8
4
100
AcDbVertex
100
AcDb2dVertex
 10
1748.848366858811
 20
651.2341835904607
 30
0.0
  0
VERTEX
  5
A86
330
A7D
100
AcDbEntity
  8
4
100
AcDbVertex
100
AcDb2dVertex
 10
1748.75074726757
 20
651.4826698227087
 30
0.0
  0
VERTEX
  5
A87
330
A7D
100
AcDbEntity
  8
4
100
AcDbVertex
100
AcDb2dVertex
 10
1748.644253168035
 20
651.7311560549568
 30
0.0
  0
VERTEX
  5
A88
330
A7D
100
AcDbEntity
  8
4
100
AcDbVertex
100
AcDb2dVertex
 10
1748.52001005191
 20
651.9618932706167
 30
0.0
  0
VERTEX
  5
A89
330
A7D
100
AcDbEntity
  8
4
100
AcDbVertex
100
AcDb2dVertex
 10
1748.395766935788
 20
652.1926304862759
 30
0.0
  0
VERTEX
  5
A8A
330
A7D
100
AcDbEntity
  8
4
100
AcDbVertex
100
AcDb2dVertex
 10
1748.244900294777
 20
652.4233677019338
 30
0.0
  0
VERTEX
  5
A8B
330
A7D
100
AcDbEntity
  8
4
100
AcDbVertex
100
AcDb2dVertex
 10
1748.094033653773
 20
652.6363559010047
 30
0.0
  0
VERTEX
  5
A8C
330
A7D
100
AcDbEntity
  8
4
100
AcDbVertex
100
AcDb2dVertex
 10
1747.93429250447
 20
652.849344100074
 30
0.0
  0
VERTEX
  5
A8D
330
A7D
100
AcDbEntity
  8
4
100
AcDbVertex
100
AcDb2dVertex
 10
1747.756802338578
 20
653.0445832825549
 30
0.0
  0
VERTEX
  5
A8E
330
A7D
100
AcDbEntity
  8
4
100
AcDbVertex
100
AcDb2dVertex
 10
1747.579312172686
 20
653.2398224650356
 30
0.0
  0
VERTEX
  5
A8F
330
A7D
100
AcDbEntity
  8
4
100
AcDbVertex
100
AcDb2dVertex
 10
1747.392947498497
 20
653.4173126309267
 30
0.0
  0
VERTEX
  5
A90
330
A7D
100
AcDbEntity
  8
4
100
AcDbVertex
100
AcDb2dVertex
 10
1747.188833807724
 20
653.5948027968187
 30
0.0
  0
VERTEX
  5
A91
330
A7D
100
AcDbEntity
  8
4
100
AcDbVertex
100
AcDb2dVertex
 10
1746.98472011695
 20
653.7634184544157
 30
0.0
  0
VERTEX
  5
A92
330
A7D
100
AcDbEntity
  8
4
100
AcDbVertex
100
AcDb2dVertex
 10
1746.762857409587
 20
653.9142850954236
 30
0.0
  0
VERTEX
  5
A93
330
A7D
100
AcDbEntity
  8
4
100
AcDbVertex
100
AcDb2dVertex
 10
1746.54099470222
 20
654.0651517364317
 30
0.0
  0
VERTEX
  5
A94
330
A7D
100
AcDbEntity
  8
4
100
AcDbVertex
100
AcDb2dVertex
 10
1746.310257486562
 20
654.1982693608509
 30
0.0
  0
VERTEX
  5
A95
330
A7D
100
AcDbEntity
  8
4
100
AcDbVertex
100
AcDb2dVertex
 10
1746.070645762609
 20
654.3225124769738
 30
0.0
  0
VERTEX
  5
A96
330
A7D
100
AcDbEntity
  8
4
100
AcDbVertex
100
AcDb2dVertex
 10
1745.831034038652
 20
654.4290065765087
 30
0.0
  0
VERTEX
  5
A97
330
A7D
100
AcDbEntity
  8
4
100
AcDbVertex
100
AcDb2dVertex
 10
1745.573673298109
 20
654.5266261677498
 30
0.0
  0
VERTEX
  5
A98
330
A7D
100
AcDbEntity
  8
4
100
AcDbVertex
100
AcDb2dVertex
 10
1745.31631255757
 20
654.6153712506958
 30
0.0
  0
VERTEX
  5
A99
330
A7D
100
AcDbEntity
  8
4
100
AcDbVertex
100
AcDb2dVertex
 10
1745.058951817027
 20
654.6952418253468
 30
0.0
  0
VERTEX
  5
A9A
330
A7D
100
AcDbEntity
  8
4
100
AcDbVertex
100
AcDb2dVertex
 10
1744.783842059895
 20
654.7573633834087
 30
0.0
  0
VERTEX
  5
A9B
330
A7D
100
AcDbEntity
  8
4
100
AcDbVertex
100
AcDb2dVertex
 10
1744.517606811053
 20
654.8017359248818
 30
0.0
  0
VERTEX
  5
A9C
330
A7D
100
AcDbEntity
  8
4
100
AcDbVertex
100
AcDb2dVertex
 10
1744.233622545629
 20
654.8372339580605
 30
0.0
  0
VERTEX
  5
A9D
330
A7D
100
AcDbEntity
  8
4
100
AcDbVertex
100
AcDb2dVertex
 10
1743.958512788496
 20
654.8638574829436
 30
0.0
  0
VERTEX
  5
A9E
330
A7D
100
AcDbEntity
  8
4
100
AcDbVertex
100
AcDb2dVertex
 10
1743.674528523071
 20
654.8727319912377
 30
0.0
  0
VERTEX
  5
A9F
330
A7D
100
AcDbEntity
  8
4
100
AcDbVertex
100
AcDb2dVertex
 10
1743.674528523071
 20
653.6480498465867
 30
0.0
  0
VERTEX
  5
AA0
330
A7D
100
AcDbEntity
  8
4
100
AcDbVertex
100
AcDb2dVertex
 10
1743.896391230435
 20
653.6480498465867
 30
0.0
  0
VERTEX
  5
AA1
330
A7D
100
AcDbEntity
  8
4
100
AcDbVertex
100
AcDb2dVertex
 10
1744.118253937799
 20
653.6303008299977
 30
0.0
  0
VERTEX
  5
AA2
330
A7D
100
AcDbEntity
  8
4
100
AcDbVertex
100
AcDb2dVertex
 10
1744.331242136869
 20
653.5948027968187
 30
0.0
  0
VERTEX
  5
AA3
330
A7D
100
AcDbEntity
  8
4
100
AcDbVertex
100
AcDb2dVertex
 10
1744.54423033594
 20
653.5593047636407
 30
0.0
  0
VERTEX
  5
AA4
330
A7D
100
AcDbEntity
  8
4
100
AcDbVertex
100
AcDb2dVertex
 10
1744.748344026714
 20
653.5149322221675
 30
0.0
  0
VERTEX
  5
AA5
330
A7D
100
AcDbEntity
  8
4
100
AcDbVertex
100
AcDb2dVertex
 10
1744.952457717489
 20
653.4528106641057
 30
0.0
  0
VERTEX
  5
AA6
330
A7D
100
AcDbEntity
  8
4
100
AcDbVertex
100
AcDb2dVertex
 10
1745.156571408267
 20
653.3818145977488
 30
0.0
  0
VERTEX
  5
AA7
330
A7D
100
AcDbEntity
  8
4
100
AcDbVertex
100
AcDb2dVertex
 10
1745.351810590744
 20
653.3108185313929
 30
0.0
  0
VERTEX
  5
AA8
330
A7D
100
AcDbEntity
  8
4
100
AcDbVertex
100
AcDb2dVertex
 10
1745.538175264933
 20
653.2220734484467
 30
0.0
  0
VERTEX
  5
AA9
330
A7D
100
AcDbEntity
  8
4
100
AcDbVertex
100
AcDb2dVertex
 10
1745.724539939118
 20
653.1244538572067
 30
0.0
  0
VERTEX
  5
AAA
330
A7D
100
AcDbEntity
  8
4
100
AcDbVertex
100
AcDb2dVertex
 10
1745.902030105008
 20
653.0179597576719
 30
0.0
  0
VERTEX
  5
AAB
330
A7D
100
AcDbEntity
  8
4
100
AcDbVertex
100
AcDb2dVertex
 10
1746.0795202709
 20
652.9114656581357
 30
0.0
  0
VERTEX
  5
AAC
330
A7D
100
AcDbEntity
  8
4
100
AcDbVertex
100
AcDb2dVertex
 10
1746.248135928501
 20
652.7872225420128
 30
0.0
  0
VERTEX
  5
AAD
330
A7D
100
AcDbEntity
  8
4
100
AcDbVertex
100
AcDb2dVertex
 10
1746.407877077801
 20
652.6629794258878
 30
0.0
  0
VERTEX
  5
AAE
330
A7D
100
AcDbEntity
  8
4
100
AcDbVertex
100
AcDb2dVertex
 10
1746.567618227104
 20
652.5209872931746
 30
0.0
  0
VERTEX
  5
AAF
330
A7D
100
AcDbEntity
  8
4
100
AcDbVertex
100
AcDb2dVertex
 10
1746.718484868109
 20
652.3789951604618
 30
0.0
  0
VERTEX
  5
AB0
330
A7D
100
AcDbEntity
  8
4
100
AcDbVertex
100
AcDb2dVertex
 10
1746.85160249253
 20
652.2281285194527
 30
0.0
  0
VERTEX
  5
AB1
330
A7D
100
AcDbEntity
  8
4
100
AcDbVertex
100
AcDb2dVertex
 10
1746.993594625242
 20
652.0772618784457
 30
0.0
  0
VERTEX
  5
AB2
330
A7D
100
AcDbEntity
  8
4
100
AcDbVertex
100
AcDb2dVertex
 10
1747.117837741368
 20
651.9086462208488
 30
0.0
  0
VERTEX
  5
AB3
330
A7D
100
AcDbEntity
  8
4
100
AcDbVertex
100
AcDb2dVertex
 10
1747.233206349196
 20
651.7400305632516
 30
0.0
  0
VERTEX
  5
AB4
330
A7D
100
AcDbEntity
  8
4
100
AcDbVertex
100
AcDb2dVertex
 10
1747.348574957026
 20
651.5714149056547
 30
0.0
  0
VERTEX
  5
AB5
330
A7D
100
AcDbEntity
  8
4
100
AcDbVertex
100
AcDb2dVertex
 10
1747.446194548266
 20
651.3850502314677
 30
0.0
  0
VERTEX
  5
AB6
330
A7D
100
AcDbEntity
  8
4
100
AcDbVertex
100
AcDb2dVertex
 10
1747.543814139508
 20
651.2075600655768
 30
0.0
  0
VERTEX
  5
AB7
330
A7D
100
AcDbEntity
  8
4
100
AcDbVertex
100
AcDb2dVertex
 10
1747.632559222453
 20
651.0123208830957
 30
0.0
  0
VERTEX
  5
AB8
330
A7D
100
AcDbEntity
  8
4
100
AcDbVertex
100
AcDb2dVertex
 10
1747.70355528881
 20
650.8170817006157
 30
0.0
  0
VERTEX
  5
AB9
330
A7D
100
AcDbEntity
  8
4
100
AcDbVertex
100
AcDb2dVertex
 10
1747.774551355166
 20
650.6218425181337
 30
0.0
  0
VERTEX
  5
ABA
330
A7D
100
AcDbEntity
  8
4
100
AcDbVertex
100
AcDb2dVertex
 10
1747.827798404933
 20
650.4177288273598
 30
0.0
  0
VERTEX
  5
ABB
330
A7D
100
AcDbEntity
  8
4
100
AcDbVertex
100
AcDb2dVertex
 10
1747.881045454701
 20
650.2136151365838
 30
0.0
  0
VERTEX
  5
ABC
330
A7D
100
AcDbEntity
  8
4
100
AcDbVertex
100
AcDb2dVertex
 10
1747.916543487881
 20
650.0006269375137
 30
0.0
  0
VERTEX
  5
ABD
330
A7D
100
AcDbEntity
  8
4
100
AcDbVertex
100
AcDb2dVertex
 10
1747.943167012762
 20
649.7965132467387
 30
0.0
  0
VERTEX
  5
ABE
330
A7D
100
AcDbEntity
  8
4
100
AcDbVertex
100
AcDb2dVertex
 10
1747.960916029353
 20
649.5746505393737
 30
0.0
  0
VERTEX
  5
ABF
330
A7D
100
AcDbEntity
  8
4
100
AcDbVertex
100
AcDb2dVertex
 10
1747.960916029353
 20
649.3616623403037
 30
0.0
  0
VERTEX
  5
AC0
330
A7D
100
AcDbEntity
  8
4
100
AcDbVertex
100
AcDb2dVertex
 10
1749.185598174005
 20
649.3616623403037
 30
0.0
  0
VERTEX
  5
AC1
330
A7D
100
AcDbEntity
  8
4
100
AcDbVertex
100
AcDb2dVertex
 10
1749.185598174005
 20
649.3616623403037
 30
0.0
  0
SEQEND
  5
AC2
330
A7D
100
AcDbEntity
  8
4
  0
POLYLINE
  5
AC3
330
1F
100
AcDbEntity
  8
4
100
AcDb2dPolyline
 66
     1
 10
0.0
 20
0.0
 30
0.0
  0
VERTEX
  5
AC4
330
AC3
100
AcDbEntity
  8
4
100
AcDbVertex
100
AcDb2dVertex
 10
1743.674528523071
 20
601.1464587758506
 30
0.0
  0
VERTEX
  5
AC5
330
AC3
100
AcDbEntity
  8
4
100
AcDbVertex
100
AcDb2dVertex
 10
1743.949638280203
 20
601.1553332841457
 30
0.0
  0
VERTEX
  5
AC6
330
AC3
100
AcDbEntity
  8
4
100
AcDbVertex
100
AcDb2dVertex
 10
1744.233622545629
 20
601.1819568090296
 30
0.0
  0
VERTEX
  5
AC7
330
AC3
100
AcDbEntity
  8
4
100
AcDbVertex
100
AcDb2dVertex
 10
1744.517606811053
 20
601.2085803339139
 30
0.0
  0
VERTEX
  5
AC8
330
AC3
100
AcDbEntity
  8
4
100
AcDbVertex
100
AcDb2dVertex
 10
1744.783842059895
 20
601.2618273836807
 30
0.0
  0
VERTEX
  5
AC9
330
AC3
100
AcDbEntity
  8
4
100
AcDbVertex
100
AcDb2dVertex
 10
1745.050077308729
 20
601.3150744334478
 30
0.0
  0
VERTEX
  5
ACA
330
AC3
100
AcDbEntity
  8
4
100
AcDbVertex
100
AcDb2dVertex
 10
1745.31631255757
 20
601.3949450080986
 30
0.0
  0
VERTEX
  5
ACB
330
AC3
100
AcDbEntity
  8
4
100
AcDbVertex
100
AcDb2dVertex
 10
1745.573673298109
 20
601.4836900910446
 30
0.0
  0
VERTEX
  5
ACC
330
AC3
100
AcDbEntity
  8
4
100
AcDbVertex
100
AcDb2dVertex
 10
1745.822159530358
 20
601.5724351739907
 30
0.0
  0
VERTEX
  5
ACD
330
AC3
100
AcDbEntity
  8
4
100
AcDbVertex
100
AcDb2dVertex
 10
1746.070645762609
 20
601.6878037818208
 30
0.0
  0
VERTEX
  5
ACE
330
AC3
100
AcDbEntity
  8
4
100
AcDbVertex
100
AcDb2dVertex
 10
1746.301382978264
 20
601.8031723896498
 30
0.0
  0
VERTEX
  5
ACF
330
AC3
100
AcDbEntity
  8
4
100
AcDbVertex
100
AcDb2dVertex
 10
1746.532120193926
 20
601.9362900140687
 30
0.0
  0
VERTEX
  5
AD0
330
AC3
100
AcDbEntity
  8
4
100
AcDbVertex
100
AcDb2dVertex
 10
1746.762857409587
 20
602.0782821467818
 30
0.0
  0
VERTEX
  5
AD1
330
AC3
100
AcDbEntity
  8
4
100
AcDbVertex
100
AcDb2dVertex
 10
1746.975845608653
 20
602.2291487877899
 30
0.0
  0
VERTEX
  5
AD2
330
AC3
100
AcDbEntity
  8
4
100
AcDbVertex
100
AcDb2dVertex
 10
1747.188833807724
 20
602.3888899370929
 30
0.0
  0
VERTEX
  5
AD3
330
AC3
100
AcDbEntity
  8
4
100
AcDbVertex
100
AcDb2dVertex
 10
1747.384072990206
 20
602.5663801029837
 30
0.0
  0
VERTEX
  5
AD4
330
AC3
100
AcDbEntity
  8
4
100
AcDbVertex
100
AcDb2dVertex
 10
1747.579312172686
 20
602.7438702688757
 30
0.0
  0
VERTEX
  5
AD5
330
AC3
100
AcDbEntity
  8
4
100
AcDbVertex
100
AcDb2dVertex
 10
1747.756802338578
 20
602.9302349430618
 30
0.0
  0
VERTEX
  5
AD6
330
AC3
100
AcDbEntity
  8
4
100
AcDbVertex
100
AcDb2dVertex
 10
1747.925417996174
 20
603.1343486338377
 30
0.0
  0
VERTEX
  5
AD7
330
AC3
100
AcDbEntity
  8
4
100
AcDbVertex
100
AcDb2dVertex
 10
1748.094033653773
 20
603.3384623246115
 30
0.0
  0
VERTEX
  5
AD8
330
AC3
100
AcDbEntity
  8
4
100
AcDbVertex
100
AcDb2dVertex
 10
1748.244900294777
 20
603.5514505236829
 30
0.0
  0
VERTEX
  5
AD9
330
AC3
100
AcDbEntity
  8
4
100
AcDbVertex
100
AcDb2dVertex
 10
1748.386892427493
 20
603.7733132310466
 30
0.0
  0
VERTEX
  5
ADA
330
AC3
100
AcDbEntity
  8
4
100
AcDbVertex
100
AcDb2dVertex
 10
1748.52001005191
 20
604.0040504467058
 30
0.0
  0
VERTEX
  5
ADB
330
AC3
100
AcDbEntity
  8
4
100
AcDbVertex
100
AcDb2dVertex
 10
1748.644253168035
 20
604.2347876623647
 30
0.0
  0
VERTEX
  5
ADC
330
AC3
100
AcDbEntity
  8
4
100
AcDbVertex
100
AcDb2dVertex
 10
1748.75074726757
 20
604.4743993863187
 30
0.0
  0
VERTEX
  5
ADD
330
AC3
100
AcDbEntity
  8
4
100
AcDbVertex
100
AcDb2dVertex
 10
1748.848366858811
 20
604.7228856185666
 30
0.0
  0
VERTEX
  5
ADE
330
AC3
100
AcDbEntity
  8
4
100
AcDbVertex
100
AcDb2dVertex
 10
1748.937111941756
 20
604.9802463591097
 30
0.0
  0
VERTEX
  5
ADF
330
AC3
100
AcDbEntity
  8
4
100
AcDbVertex
100
AcDb2dVertex
 10
1749.008108008114
 20
605.2376070996529
 30
0.0
  0
VERTEX
  5
AE0
330
AC3
100
AcDbEntity
  8
4
100
AcDbVertex
100
AcDb2dVertex
 10
1749.070229566175
 20
605.5038423484909
 30
0.0
  0
VERTEX
  5
AE1
330
AC3
100
AcDbEntity
  8
4
100
AcDbVertex
100
AcDb2dVertex
 10
1749.123476615944
 20
605.7700775973269
 30
0.0
  0
VERTEX
  5
AE2
330
AC3
100
AcDbEntity
  8
4
100
AcDbVertex
100
AcDb2dVertex
 10
1749.150100140826
 20
606.0451873544589
 30
0.0
  0
VERTEX
  5
AE3
330
AC3
100
AcDbEntity
  8
4
100
AcDbVertex
100
AcDb2dVertex
 10
1749.176723665709
 20
606.3202971115916
 30
0.0
  0
VERTEX
  5
AE4
330
AC3
100
AcDbEntity
  8
4
100
AcDbVertex
100
AcDb2dVertex
 10
1749.185598174005
 20
606.5954068687235
 30
0.0
  0
VERTEX
  5
AE5
330
AC3
100
AcDbEntity
  8
4
100
AcDbVertex
100
AcDb2dVertex
 10
1747.960916029353
 20
606.5954068687235
 30
0.0
  0
VERTEX
  5
AE6
330
AC3
100
AcDbEntity
  8
4
100
AcDbVertex
100
AcDb2dVertex
 10
1747.960916029353
 20
606.3824186696527
 30
0.0
  0
VERTEX
  5
AE7
330
AC3
100
AcDbEntity
  8
4
100
AcDbVertex
100
AcDb2dVertex
 10
1747.943167012762
 20
606.1694304705837
 30
0.0
  0
VERTEX
  5
AE8
330
AC3
100
AcDbEntity
  8
4
100
AcDbVertex
100
AcDb2dVertex
 10
1747.916543487881
 20
605.9564422715139
 30
0.0
  0
VERTEX
  5
AE9
330
AC3
100
AcDbEntity
  8
4
100
AcDbVertex
100
AcDb2dVertex
 10
1747.881045454701
 20
605.7434540724438
 30
0.0
  0
VERTEX
  5
AEA
330
AC3
100
AcDbEntity
  8
4
100
AcDbVertex
100
AcDb2dVertex
 10
1747.827798404933
 20
605.5393403816679
 30
0.0
  0
VERTEX
  5
AEB
330
AC3
100
AcDbEntity
  8
4
100
AcDbVertex
100
AcDb2dVertex
 10
1747.774551355166
 20
605.3441011991878
 30
0.0
  0
VERTEX
  5
AEC
330
AC3
100
AcDbEntity
  8
4
100
AcDbVertex
100
AcDb2dVertex
 10
1747.70355528881
 20
605.1488620167067
 30
0.0
  0
VERTEX
  5
AED
330
AC3
100
AcDbEntity
  8
4
100
AcDbVertex
100
AcDb2dVertex
 10
1747.632559222453
 20
604.9536228342258
 30
0.0
  0
VERTEX
  5
AEE
330
AC3
100
AcDbEntity
  8
4
100
AcDbVertex
100
AcDb2dVertex
 10
1747.543814139508
 20
604.7672581600395
 30
0.0
  0
VERTEX
  5
AEF
330
AC3
100
AcDbEntity
  8
4
100
AcDbVertex
100
AcDb2dVertex
 10
1747.455069056561
 20
604.5808934858538
 30
0.0
  0
VERTEX
  5
AF0
330
AC3
100
AcDbEntity
  8
4
100
AcDbVertex
100
AcDb2dVertex
 10
1747.348574957026
 20
604.4122778282569
 30
0.0
  0
VERTEX
  5
AF1
330
AC3
100
AcDbEntity
  8
4
100
AcDbVertex
100
AcDb2dVertex
 10
1747.242080857493
 20
604.2347876623647
 30
0.0
  0
VERTEX
  5
AF2
330
AC3
100
AcDbEntity
  8
4
100
AcDbVertex
100
AcDb2dVertex
 10
1747.117837741368
 20
604.0750465130629
 30
0.0
  0
VERTEX
  5
AF3
330
AC3
100
AcDbEntity
  8
4
100
AcDbVertex
100
AcDb2dVertex
 10
1746.993594625242
 20
603.9064308554658
 30
0.0
  0
VERTEX
  5
AF4
330
AC3
100
AcDbEntity
  8
4
100
AcDbVertex
100
AcDb2dVertex
 10
1746.860477000825
 20
603.7555642144576
 30
0.0
  0
VERTEX
  5
AF5
330
AC3
100
AcDbEntity
  8
4
100
AcDbVertex
100
AcDb2dVertex
 10
1746.718484868109
 20
603.6135720817448
 30
0.0
  0
VERTEX
  5
AF6
330
AC3
100
AcDbEntity
  8
4
100
AcDbVertex
100
AcDb2dVertex
 10
1746.567618227104
 20
603.4715799490316
 30
0.0
  0
VERTEX
  5
AF7
330
AC3
100
AcDbEntity
  8
4
100
AcDbVertex
100
AcDb2dVertex
 10
1746.416751586095
 20
603.3384623246115
 30
0.0
  0
VERTEX
  5
AF8
330
AC3
100
AcDbEntity
  8
4
100
AcDbVertex
100
AcDb2dVertex
 10
1746.248135928501
 20
603.2142192084887
 30
0.0
  0
VERTEX
  5
AF9
330
AC3
100
AcDbEntity
  8
4
100
AcDbVertex
100
AcDb2dVertex
 10
1746.0795202709
 20
603.0899760923639
 30
0.0
  0
VERTEX
  5
AFA
330
AC3
100
AcDbEntity
  8
4
100
AcDbVertex
100
AcDb2dVertex
 10
1745.910904613307
 20
602.9834819928297
 30
0.0
  0
VERTEX
  5
AFB
330
AC3
100
AcDbEntity
  8
4
100
AcDbVertex
100
AcDb2dVertex
 10
1745.733414447415
 20
602.8769878932949
 30
0.0
  0
VERTEX
  5
AFC
330
AC3
100
AcDbEntity
  8
4
100
AcDbVertex
100
AcDb2dVertex
 10
1745.547049773226
 20
602.7882428103489
 30
0.0
  0
VERTEX
  5
AFD
330
AC3
100
AcDbEntity
  8
4
100
AcDbVertex
100
AcDb2dVertex
 10
1745.351810590744
 20
602.6994977274027
 30
0.0
  0
VERTEX
  5
AFE
330
AC3
100
AcDbEntity
  8
4
100
AcDbVertex
100
AcDb2dVertex
 10
1745.156571408267
 20
602.6285016610467
 30
0.0
  0
VERTEX
  5
AFF
330
AC3
100
AcDbEntity
  8
4
100
AcDbVertex
100
AcDb2dVertex
 10
1744.961332225786
 20
602.5575055946898
 30
0.0
  0
VERTEX
  5
B00
330
AC3
100
AcDbEntity
  8
4
100
AcDbVertex
100
AcDb2dVertex
 10
1744.75721853501
 20
602.5042585449218
 30
0.0
  0
VERTEX
  5
B01
330
AC3
100
AcDbEntity
  8
4
100
AcDbVertex
100
AcDb2dVertex
 10
1744.54423033594
 20
602.4598860034497
 30
0.0
  0
VERTEX
  5
B02
330
AC3
100
AcDbEntity
  8
4
100
AcDbVertex
100
AcDb2dVertex
 10
1744.331242136869
 20
602.4155134619758
 30
0.0
  0
VERTEX
  5
B03
330
AC3
100
AcDbEntity
  8
4
100
AcDbVertex
100
AcDb2dVertex
 10
1744.118253937799
 20
602.3888899370929
 30
0.0
  0
VERTEX
  5
B04
330
AC3
100
AcDbEntity
  8
4
100
AcDbVertex
100
AcDb2dVertex
 10
1743.896391230435
 20
602.3711409205039
 30
0.0
  0
VERTEX
  5
B05
330
AC3
100
AcDbEntity
  8
4
100
AcDbVertex
100
AcDb2dVertex
 10
1743.674528523071
 20
602.3711409205039
 30
0.0
  0
VERTEX
  5
B06
330
AC3
100
AcDbEntity
  8
4
100
AcDbVertex
100
AcDb2dVertex
 10
1743.674528523071
 20
601.1464587758506
 30
0.0
  0
VERTEX
  5
B07
330
AC3
100
AcDbEntity
  8
4
100
AcDbVertex
100
AcDb2dVertex
 10
1743.674528523071
 20
601.1464587758506
 30
0.0
  0
SEQEND
  5
B08
330
AC3
100
AcDbEntity
  8
4
  0
POLYLINE
  5
B09
330
1F
100
AcDbEntity
  8
4
100
AcDb2dPolyline
 66
     1
 10
0.0
 20
0.0
 30
0.0
  0
VERTEX
  5
B0A
330
B09
100
AcDbEntity
  8
4
100
AcDbVertex
100
AcDb2dVertex
 10
1749.185598174005
 20
606.5954068687235
 30
0.0
  0
VERTEX
  5
B0B
330
B09
100
AcDbEntity
  8
4
100
AcDbVertex
100
AcDb2dVertex
 10
1749.185598174005
 20
649.3616623403037
 30
0.0
  0
VERTEX
  5
B0C
330
B09
100
AcDbEntity
  8
4
100
AcDbVertex
100
AcDb2dVertex
 10
1747.960916029353
 20
649.3616623403037
 30
0.0
  0
VERTEX
  5
B0D
330
B09
100
AcDbEntity
  8
4
100
AcDbVertex
100
AcDb2dVertex
 10
1747.960916029353
 20
606.5954068687235
 30
0.0
  0
VERTEX
  5
B0E
330
B09
100
AcDbEntity
  8
4
100
AcDbVertex
100
AcDb2dVertex
 10
1749.185598174005
 20
606.5954068687235
 30
0.0
  0
VERTEX
  5
B0F
330
B09
100
AcDbEntity
  8
4
100
AcDbVertex
100
AcDb2dVertex
 10
1749.185598174005
 20
606.5954068687235
 30
0.0
  0
SEQEND
  5
B10
330
B09
100
AcDbEntity
  8
4
  0
HATCH
  5
B11
330
1F
100
AcDbEntity
  8
4
100
AcDbHatch
 10
0.0
 20
0.0
 30
0.0
210
0.0
220
0.0
230
1.0
  2
SOLID
 70
     1
 71
     0
 91
        2
 92
        7
 72
     0
 73
     1
 93
        4
 10
1748.57325710168
 20
649.3616623403037
 10
1747.960916029353
 20
649.3616623403037
 10
1747.960916029353
 20
606.5954068687235
 10
1748.57325710168
 20
606.5954068687235
 97
        0
 92
        7
 72
     0
 73
     1
 93
       42
 10
1748.200527753309
 20
604.7406346351566
 10
1748.511135543617
 20
605.6103364480239
 10
1748.57325710168
 20
606.5954068687235
 10
1747.960916029353
 20
606.5954068687235
 10
1747.960916029353
 20
606.3824186696527
 10
1747.943167012762
 20
606.1694304705787
 10
1747.916543487881
 20
605.9564422715347
 10
1747.881045454701
 20
605.7434540724417
 10
1747.827798404927
 20
605.5393403816349
 10
1747.774551355167
 20
605.3441011991927
 10
1747.70355528881
 20
605.1488620167067
 10
1747.632559222457
 20
604.9536228342307
 10
1747.543814139508
 20
604.7672581600395
 10
1747.455069056561
 20
604.5808934858519
 10
1747.348574957032
 20
604.4122778282477
 10
1747.242080857493
 20
604.2347876623647
 10
1747.11783774137
 20
604.0750465130529
 10
1746.993594625242
 20
603.9064308554626
 10
1746.860477000828
 20
603.7555642144647
 10
1746.718484868104
 20
603.6135720817418
 10
1746.567618227111
 20
603.4715799490316
 10
1746.416751586095
 20
603.3384623246107
 10
1746.248135928501
 20
603.2142192084887
 10
1746.079520270896
 20
603.0899760923606
 10
1745.91090461329
 20
602.9834819928247
 10
1745.733414447415
 20
602.8769878932937
 10
1745.547049773231
 20
602.7882428103438
 10
1745.351810590749
 20
602.6994977274027
 10
1745.156571408267
 20
602.6285016610467
 10
1744.961332225786
 20
602.5575055946898
 10
1744.757218535004
 20
602.5042585449197
 10
1744.54423033594
 20
602.4598860034497
 10
1744.331242136869
 20
602.4155134619758
 10
1744.118253937799
 20
602.3888899370929
 10
1743.896391230435
 20
602.3711409205039
 10
1743.674528523071
 20
602.3711409205039
 10
1743.674528523071
 20
601.7587998481767
 10
1744.659598943769
 20
601.8209214062387
 10
1745.591422314701
 20
602.1315291965509
 10
1746.399002569505
 20
602.5663801029837
 10
1747.144461266252
 20
603.1875956836066
 10
1747.76567684687
 20
603.8709328222877
 97
        0
 75
     0
 76
     1
 47
0.0138128488116407
 98
        2
 10
1748.386219627726
 20
638.9781909055208
 10
1747.683927351963
 20
604.5007478908408
450
        0
451
        0
460
0.0
461
0.0
452
        0
462
0.0
453
        0
470

  0
DIMENSION
  5
B12
330
1F
100
AcDbEntity
  8
AM_5
100
AcDbDimension
  2
*D4
 10
1135.365021793919
 20
753.7630202841149
 30
0.0
 11
1123.493320409459
 21
841.9506140090303
 31
0.0
 70
    32
  1
R1-DIN 2999
 71
     5
 42
30.94422703768896
  3
GEN-ISO
100
AcDbAlignedDimension
 13
1103.567708192415
 23
722.8187932464257
 33
0.0
 14
1104.566261122597
 24
753.7630202841149
 34
0.0
 50
90.0
100
AcDbRotatedDimension
1001
ACAD
1000
DSTYLE
1002
{
1070
    47
1040
3.0
1070
    48
1040
3.0
1070
    79
1070
     2
1070
   171
1070
     0
1070
   271
1070
     0
1070
   272
1070
     0
1002
}
  0
POINT
  5
B13
330
1F
100
AcDbEntity
  8
0
 60
     1
100
AcDbPoint
 10
10079.22806715663
 20
-387.7295196306726
 30
0.0
1001
GENIUS_GENOBJ-N-CRC_13
1002
{
1000
OWNER
1000
GEN
1002
}
1001
GENIUS_GENOENT_13
1002
{
1000
MYREF
1005
B13
1002
}
1002
{
1000
GRP
1005
0
1002
}
1001
GENIUS_GENOLIS_13
1002
{
1000
ENT
1005
0
1005
733
1002
}
1001
GENIUS_GENCRC_14
1070
     0
1011
11089.30734076599
1021
568.6688543348878
1031
0.0
1000
351
1000
10|20|30
1040
30.0
1070
     3
1040
0.5235987755982988
1001
GENIUS_GENODEF_13
1002
{
1000
HIER
1070
   250
1002
}
1002
{
1000
MANEDIT
1070
     1
1002
}
1002
{
1000
NOSEL
1070
     0
1002
}
1002
{
1000
BEHIND
1070
     0
1002
}
1002
{
1000
REACTOR
1002
}
  0
VIEWPORT
  5
6F
330
55
100
AcDbEntity
 67
     1
  8
0
100
AcDbViewport
 10
141.0
 20
85.0
 30
0.0
 40
384.7606204379562
 41
222.18
 68
     1
 69
     1
 12
141.0
 22
85.0
 13
0.0
 23
0.0
 14
10.0
 24
10.0
 15
10.0
 25
10.0
 16
0.0
 26
0.0
 36
1.0
 17
0.0
 27
0.0
 37
0.0
 42
50.0
 43
0.0
 44
0.0
 45
222.18
 50
0.0
 51
0.0
 72
   100
 90
    32800
  1

281
     0
 71
     1
 74
     0
110
0.0
120
0.0
130
0.0
111
1.0
121
0.0
131
0.0
112
0.0
122
1.0
132
0.0
 79
     0
146
0.0
170
     0
1001
GENIUS_GENOBJ-N-SDF_13
1002
{
1000
OWNER
1000
GEN
1002
}
1001
GENIUS_GENODEF_13
1002
{
1000
HIER
1070
     0
1002
}
1002
{
1000
MANEDIT
1070
     0
1002
}
1002
{
1000
NOSEL
1070
     0
1002
}
1002
{
1000
BEHIND
1070
     0
1002
}
1002
{
1000
OTHER
1070
     0
1002
}
1002
{
1000
REACTOR
1002
}
1001
GENIUS_GENSCREG_15
1000
PF
1040
1.0
1000
DF
1040
1.0
1000
MIN
1011
-51.38031021897808
1021
-26.09
1031
0.0
1000
MAX
1011
333.3803102189781
1021
196.09
1031
0.0
1000
FLAGS
1070
     2
  0
VIEWPORT
  5
71
330
55
100
AcDbEntity
 67
     1
  8
0
100
AcDbViewport
 10
141.0
 20
85.0
 30
0.0
 40
225.6
 41
136.0
 68
     2
 69
     2
 12
210.0
 22
148.5
 13
0.0
 23
0.0
 14
10.0
 24
10.0
 15
10.0
 25
10.0
 16
0.0
 26
0.0
 36
1.0
 17
0.0
 27
0.0
 37
0.0
 42
50.0
 43
0.0
 44
0.0
 45
302.3194029850746
 50
0.0
 51
0.0
 72
   100
 90
    32864
  1

281
     0
 71
     1
 74
     0
110
0.0
120
0.0
130
0.0
111
1.0
121
0.0
131
0.0
112
0.0
122
1.0
132
0.0
 79
     0
146
0.0
170
     0
1001
GENIUS_GENODEF_13
1002
{
1000
HIER
1070
     0
1002
}
1002
{
1000
MANEDIT
1070
     0
1002
}
1002
{
1000
NOSEL
1070
     0
1002
}
1002
{
1000
BEHIND
1070
     0
1002
}
1002
{
1000
OTHER
1070
     0
1002
}
1002
{
1000
REACTOR
1002
}
1001
GENIUS_GENOBJ-N-SDF_13
1002
{
1000
OWNER
1000
GEN
1002
}
1001
GENIUS_GENSCREG_15
1000
PF
1040
0.0
1000
DF
1040
0.0
1000
MIN
1011
28.20000000000002
1021
17.0
1031
0.0
1000
MAX
1011
253.8
1021
153.0
1031
0.0
1000
FLAGS
1070
     2
  0
ENDSEC
  0
SECTION
  2
OBJECTS
  0
DICTIONARY
  5
C
330
0
100
AcDbDictionary
281
     1
  3
ACAD_COLOR
350
F6
  3
ACAD_GROUP
350
D
  3
ACAD_LAYOUT
350
1A
  3
ACAD_MATERIAL
350
F5
  3
ACAD_MLINESTYLE
350
17
  3
ACAD_PLOTSETTINGS
350
19
  3
ACAD_PLOTSTYLENAME
350
E
  3
ACAD_TABLESTYLE
350
16F
  3
ACAD_VISUALSTYLE
350
1EE
  3
AcDbVariableDictionary
350
DA
  3
AcmDictionary
350
97
  3
AMG
350
7D
  3
AMGSNAPSETTINGS
350
726
  0
DICTIONARY
  5
D5
330
1F
100
AcDbDictionary
280
     1
281
     1
  0
DICTIONARY
  5
F6
102
{ACAD_REACTORS
330
C
102
}
330
C
100
AcDbDictionary
281
     1
  0
DICTIONARY
  5
D
102
{ACAD_REACTORS
330
C
102
}
330
C
100
AcDbDictionary
281
     1
  0
DICTIONARY
  5
1A
102
{ACAD_REACTORS
330
C
102
}
330
C
100
AcDbDictionary
281
     1
  3
Layout1
350
51
  3
Layout2
350
56
  3
Model
350
22
  0
DICTIONARY
  5
F5
102
{ACAD_REACTORS
330
C
102
}
330
C
100
AcDbDictionary
281
     1
  3
ByBlock
350
1EC
  3
ByLayer
350
1EB
  3
Global
350
1ED
  0
DICTIONARY
  5
17
102
{ACAD_REACTORS
330
C
102
}
330
C
100
AcDbDictionary
281
     1
  3
Standard
350
18
  0
DICTIONARY
  5
19
102
{ACAD_REACTORS
330
C
102
}
330
C
100
AcDbDictionary
281
     1
  0
ACDBDICTIONARYWDFLT
  5
E
102
{ACAD_REACTORS
330
C
102
}
330
C
100
AcDbDictionary
281
     1
  3
Normal
350
F
100
AcDbDictionaryWithDefault
340
F
  0
DICTIONARY
  5
16F
102
{ACAD_REACTORS
330
C
102
}
330
C
100
AcDbDictionary
281
     1
  3
Standard
350
170
  0
DICTIONARY
  5
1EE
102
{ACAD_REACTORS
330
C
102
}
330
C
100
AcDbDictionary
281
     1
  3
2dWireframe
350
1F4
  3
3D Hidden
350
1F6
  3
3dWireframe
350
1F5
  3
Basic
350
1F3
  3
Brighten
350
1FA
  3
ColorChange
350
1FE
  3
Conceptual
350
1F7
  3
Dim
350
1F9
  3
EdgeColorOff
350
C23
  3
Facepattern
350
1FD
  3
Flat
350
1EF
  3
FlatWithEdges
350
1F0
  3
Gouraud
350
1F1
  3
GouraudWithEdges
350
1F2
  3
JitterOff
350
C26
  3
Linepattern
350
1FC
  3
OverhangOff
350
C29
  3
Realistic
350
1F8
  3
Thicken
350
1FB
  0
DICTIONARY
  5
DA
102
{ACAD_REACTORS
330
C
102
}
330
C
100
AcDbDictionary
281
     1
  3
CTABLESTYLE
350
18F
  3
DIMASSOC
350
DC
  3
INDEXCTL
350
DB
  0
DICTIONARY
  5
97
102
{ACAD_REACTORS
330
C
102
}
330
C
100
AcDbDictionary
281
     1
  3
AcmStdDictionary
350
9D
  3
AMDTSECTSYM_ARROWCOLOR
350
186
  0
DICTIONARY
  5
7D
102
{ACAD_REACTORS
330
C
102
}
330
C
100
AcDbDictionary
281
     1
  0
DICTIONARY
  5
726
102
{ACAD_REACTORS
330
C
102
}
330
C
100
AcDbDictionary
281
     1
  0
LAYOUT
  5
51
102
{ACAD_REACTORS
330
1A
102
}
330
1A
100
AcDbPlotSettings
  1

  2
none_device
  4
ISO_A4_(210.00_x_297.00_MM)
  6

 40
7.5
 41
20.0
 42
7.5
 43
20.0
 44
210.0
 45
297.0
 46
0.0
 47
0.0
 48
0.0
 49
0.0
140
0.0
141
0.0
142
1.0
143
1.0
 70
   688
 72
     1
 73
     1
 74
     5
  7
ganz_fein_1.ctb
 75
    16
147
1.0
 76
     0
 77
     2
 78
   300
148
0.0
149
0.0
100
AcDbLayout
  1
Layout1
 70
     1
 71
     1
 10
-20.0
 20
-7.5
 11
277.0
 21
202.5
 12
0.0
 22
0.0
 32
0.0
 14
25.69999999999999
 24
19.5
 34
0.0
 15
231.3
 25
175.5
 35
0.0
146
0.0
 13
0.0
 23
0.0
 33
0.0
 16
1.0
 26
0.0
 36
0.0
 17
0.0
 27
1.0
 37
0.0
 76
     0
330
50
331
69
  0
LAYOUT
  5
56
102
{ACAD_REACTORS
330
1A
102
}
330
1A
100
AcDbPlotSettings
  1

  2
none_device
  4
ISO_A4_(297.00_x_210.00_MM)
  6

 40
7.5
 41
20.0
 42
7.5
 43
20.0
 44
297.0
 45
210.0
 46
0.0
 47
0.0
 48
0.0
 49
0.0
140
0.0
141
0.0
142
1.0
143
1.0
 70
   688
 72
     1
 73
     0
 74
     5
  7
ganz_fein_1.ctb
 75
    16
147
1.0
 76
     0
 77
     2
 78
   300
148
0.0
149
0.0
100
AcDbLayout
  1
Layout2
 70
     1
 71
     2
 10
-7.5
 20
-20.0
 11
289.5
 21
190.0
 12
0.0
 22
0.0
 32
0.0
 14
28.19999999999999
 24
17.0
 34
0.0
 15
253.8
 25
153.0
 35
0.0
146
0.0
 13
0.0
 23
0.0
 33
0.0
 16
1.0
 26
0.0
 36
0.0
 17
0.0
 27
1.0
 37
0.0
 76
     0
330
55
331
6F
  0
LAYOUT
  5
22
102
{ACAD_REACTORS
330
1A
102
}
330
1A
100
AcDbPlotSettings
  1

  2
Adobe PDF
  4
A4
  6

 40
3.174999952316284
 41
3.174999952316284
 42
3.175003051757812
 43
3.17498779296875
 44
209.9733276367187
 45
297.0318298339844
 46
7.252637953708855
 47
0.0
 48
303.9824971408976
 49
329.6405265794813
140
2032.69179424874
141
1454.341425448952
142
1.0
143
5.947083879358174
 70
 11956
 72
     1
 73
     1
 74
     4
  7
ganz_fein_1.ctb
 75
     0
147
0.1681496377528683
 76
     0
 77
     2
 78
   300
148
-303.9824971408976
149
-329.6405265794813
100
AcDbLayout
  1
Model
 70
     1
 71
     0
 10
0.0
 20
0.0
 11
12.0
 21
9.0
 12
0.0
 22
0.0
 32
0.0
 14
0.0
 24
0.0
 34
0.0
 15
0.0
 25
0.0
 35
0.0
146
0.0
 13
0.0
 23
0.0
 33
0.0
 16
1.0
 26
0.0
 36
0.0
 17
0.0
 27
1.0
 37
0.0
 76
     0
330
1F
331
1E9
1001
ACAD_PSEXT
1000
Adobe PDF
1000
Adobe PDF Converter
1000
Documents\*.pdf
1000

1070
     0
  0
MATERIAL
  5
1EC
102
{ACAD_XDICTIONARY
360
C32
102
}
102
{ACAD_REACTORS
330
F5
102
}
330
F5
100
AcDbMaterial
  1
ByBlock
  0
MATERIAL
  5
1EB
102
{ACAD_XDICTIONARY
360
C30
102
}
102
{ACAD_REACTORS
330
F5
102
}
330
F5
100
AcDbMaterial
  1
ByLayer
  0
MATERIAL
  5
1ED
102
{ACAD_XDICTIONARY
360
C34
102
}
102
{ACAD_REACTORS
330
F5
102
}
330
F5
100
AcDbMaterial
  1
Global
  0
MLINESTYLE
  5
18
102
{ACAD_REACTORS
330
17
102
}
330
17
100
AcDbMlineStyle
  2
STANDARD
 70
     0
  3

 62
   256
 51
90.0
 52
90.0
 71
     2
 49
0.5
 62
   256
  6
BYLAYER
 49
-0.5
 62
   256
  6
BYLAYER
  0
ACDBPLACEHOLDER
  5
F
102
{ACAD_REACTORS
330
E
102
}
330
E
  0
TABLESTYLE
  5
170
102
{ACAD_XDICTIONARY
360
DA1
102
}
102
{ACAD_REACTORS
330
16F
102
}
330
16F
100
AcDbTableStyle
  3
Standard
 70
     0
 71
     0
 40
1.5
 41
1.5
280
     0
281
     0
  7
STANDARD
140
4.5
170
     2
 62
     0
 63
     7
283
     0
274
    -2
284
     1
 64
     0
275
    -2
285
     1
 65
     0
276
    -2
286
     1
 66
     0
277
    -2
287
     1
 67
     0
278
    -2
288
     1
 68
     0
279
    -2
289
     1
 69
     0
  7
STANDARD
140
6.0
170
     5
 62
     0
 63
     7
283
     0
274
    -2
284
     1
 64
     0
275
    -2
285
     1
 65
     0
276
    -2
286
     1
 66
     0
277
    -2
287
     1
 67
     0
278
    -2
288
     1
 68
     0
279
    -2
289
     1
 69
     0
  7
STANDARD
140
4.5
170
     5
 62
     0
 63
     7
283
     0
274
    -2
284
     1
 64
     0
275
    -2
285
     1
 65
     0
276
    -2
286
     1
 66
     0
277
    -2
287
     1
 67
     0
278
    -2
288
     1
 68
     0
279
    -2
289
     1
 69
     0
  0
VISUALSTYLE
  5
1F4
102
{ACAD_REACTORS
330
1EE
102
}
330
1EE
100
AcDbVisualStyle
  2
2dWireframe
 70
     4
 71
     0
 72
     2
 73
     0
 90
        0
 40
-0.6
 41
-30.0
 62
     5
 63
     7
421
 16777215
 74
     1
 91
        4
 64
     7
 65
   257
 75
     1
175
     1
 42
1.0
 92
        0
 66
   257
 43
1.0
 76
     1
 77
     6
 78
     2
 67
     7
 79
     5
170
     0
171
     0
290
     0
174
     0
 93
        1
 44
0.0
173
     0
291
     0
 45
0.0
1001
ACAD
1000
AcDbSavedByObjectVersion
1070
     0
1000
AcDbSavedByObjectVersion
1070
     0
1000
AcDbSavedByObjectVersion
1070
     0
  0
VISUALSTYLE
  5
1F6
102
{ACAD_REACTORS
330
1EE
102
}
330
1EE
100
AcDbVisualStyle
  2
3D Hidden
 70
     6
 71
     1
 72
     2
 73
     2
 90
        0
 40
-0.6
 41
-30.0
 62
     5
 63
     7
421
 16777215
 74
     2
 91
        2
 64
     7
 65
   257
 75
     2
175
     1
 42
40.0
 92
        0
 66
   257
 43
1.0
 76
     1
 77
     6
 78
     2
 67
     7
 79
     3
170
     0
171
     0
290
     0
174
     0
 93
        1
 44
0.0
173
     0
291
     0
 45
0.0
1001
ACAD
1000
AcDbSavedByObjectVersion
1070
     0
1000
AcDbSavedByObjectVersion
1070
     0
1000
AcDbSavedByObjectVersion
1070
     0
  0
VISUALSTYLE
  5
1F5
102
{ACAD_REACTORS
330
1EE
102
}
330
1EE
100
AcDbVisualStyle
  2
3dWireframe
 70
     5
 71
     0
 72
     2
 73
     0
 90
        0
 40
-0.6
 41
-30.0
 62
     5
 63
     7
421
 16777215
 74
     1
 91
        4
 64
     7
 65
   257
 75
     1
175
     1
 42
1.0
 92
        0
 66
   257
 43
1.0
 76
     1
 77
     6
 78
     2
 67
     7
 79
     5
170
     0
171
     0
290
     0
174
     0
 93
        1
 44
0.0
173
     0
291
     0
 45
0.0
1001
ACAD
1000
AcDbSavedByObjectVersion
1070
     0
1000
AcDbSavedByObjectVersion
1070
     0
1000
AcDbSavedByObjectVersion
1070
     0
  0
VISUALSTYLE
  5
1F3
102
{ACAD_REACTORS
330
1EE
102
}
330
1EE
100
AcDbVisualStyle
  2
Basic
 70
     7
 71
     1
 72
     0
 73
     1
 90
        0
 40
-0.6
 41
-30.0
 62
     5
 63
     7
421
 16777215
 74
     0
 91
        4
 64
     7
 65
   257
 75
     1
175
     1
 42
1.0
 92
        8
 66
     7
 43
1.0
 76
     1
 77
     6
 78
     2
 67
     7
 79
     5
170
     0
171
     0
290
     0
174
     0
 93
        1
 44
0.0
173
     0
291
     1
 45
0.0
1001
ACAD
1000
AcDbSavedByObjectVersion
1070
     0
1000
AcDbSavedByObjectVersion
1070
     0
1000
AcDbSavedByObjectVersion
1070
     0
  0
VISUALSTYLE
  5
1FA
102
{ACAD_REACTORS
330
1EE
102
}
330
1EE
100
AcDbVisualStyle
  2
Brighten
 70
    12
 71
     2
 72
     2
 73
     0
 90
        0
 40
-0.6
 41
-30.0
 62
     5
 63
     7
421
 16777215
 74
     1
 91
        4
 64
     7
 65
   257
 75
     1
175
     1
 42
1.0
 92
        8
 66
     7
 43
1.0
 76
     1
 77
     6
 78
     2
 67
     7
 79
     5
170
     0
171
     0
290
     0
174
     0
 93
        1
 44
50.0
173
     0
291
     1
 45
0.0
1001
ACAD
1000
AcDbSavedByObjectVersion
1070
     0
1000
AcDbSavedByObjectVersion
1070
     0
1000
AcDbSavedByObjectVersion
1070
     0
  0
VISUALSTYLE
  5
1FE
102
{ACAD_REACTORS
330
1EE
102
}
330
1EE
100
AcDbVisualStyle
  2
ColorChange
 70
    16
 71
     2
 72
     2
 73
     3
 90
        0
 40
-0.6
 41
-30.0
 62
     5
 63
     8
421
  8421504
 74
     1
 91
        4
 64
     7
 65
   257
 75
     1
175
     1
 42
1.0
 92
        8
 66
     8
424
  8421504
 43
1.0
 76
     1
 77
     6
 78
     2
 67
     7
 79
     5
170
     0
171
     0
290
     0
174
     0
 93
        1
 44
0.0
173
     0
291
     1
 45
0.0
1001
ACAD
1000
AcDbSavedByObjectVersion
1070
     0
1000
AcDbSavedByObjectVersion
1070
     0
1000
AcDbSavedByObjectVersion
1070
     0
  0
VISUALSTYLE
  5
1F7
102
{ACAD_REACTORS
330
1EE
102
}
330
1EE
100
AcDbVisualStyle
  2
Conceptual
 70
     9
 71
     3
 72
     2
 73
     0
 90
        0
 40
-0.6
 41
-30.0
 62
     5
 63
     7
421
 16777215
 74
     2
 91
        2
 64
     7
 65
   257
 75
     1
175
     1
 42
40.0
 92
        8
 66
     7
 43
1.0
 76
     1
 77
     6
 78
     2
 67
     7
 79
     3
170
     0
171
     0
290
     0
174
     0
 93
        1
 44
0.0
173
     0
291
     0
 45
0.0
1001
ACAD
1000
AcDbSavedByObjectVersion
1070
     0
1000
AcDbSavedByObjectVersion
1070
     0
1000
AcDbSavedByObjectVersion
1070
     0
  0
VISUALSTYLE
  5
1F9
102
{ACAD_REACTORS
330
1EE
102
}
330
1EE
100
AcDbVisualStyle
  2
Dim
 70
    11
 71
     2
 72
     2
 73
     0
 90
        0
 40
-0.6
 41
-30.0
 62
     5
 63
     7
421
 16777215
 74
     1
 91
        4
 64
     7
 65
   257
 75
     1
175
     1
 42
1.0
 92
        8
 66
     7
 43
1.0
 76
     1
 77
     6
 78
     2
 67
     7
 79
     5
170
     0
171
     0
290
     0
174
     0
 93
        1
 44
-50.0
173
     0
291
     1
 45
0.0
1001
ACAD
1000
AcDbSavedByObjectVersion
1070
     0
1000
AcDbSavedByObjectVersion
1070
     0
1000
AcDbSavedByObjectVersion
1070
     0
  0
VISUALSTYLE
  5
C23
102
{ACAD_XDICTIONARY
360
C24
102
}
102
{ACAD_REACTORS
330
1EE
102
}
330
1EE
100
AcDbVisualStyle
  2
EdgeColorOff
 70
    22
 71
     2
 72
     2
 73
     0
 90
        0
 40
-0.6
 41
-30.0
 62
     5
 63
     7
 74
     1
 91
        4
 64
     7
 65
   257
 75
     1
175
     1
 42
1.0
 92
        8
 66
     7
 43
1.0
 76
     1
 77
     6
 78
     2
 67
     7
 79
     5
170
     0
171
     0
290
     0
174
     0
 93
        1
 44
0.0
173
     0
291
     1
 45
0.0
1001
ACAD
1000
AcDbSavedByObjectVersion
1070
     0
1000
AcDbSavedByObjectVersion
1070
     0
1000
AcDbSavedByObjectVersion
1070
     0
  0
VISUALSTYLE
  5
1FD
102
{ACAD_REACTORS
330
1EE
102
}
330
1EE
100
AcDbVisualStyle
  2
Facepattern
 70
    15
 71
     2
 72
     2
 73
     0
 90
        0
 40
-0.6
 41
-30.0
 62
     5
 63
     7
421
 16777215
 74
     1
 91
        4
 64
     7
 65
   257
 75
     1
175
     1
 42
1.0
 92
        8
 66
     7
 43
1.0
 76
     1
 77
     6
 78
     2
 67
     7
 79
     5
170
     0
171
     0
290
     0
174
     0
 93
        1
 44
0.0
173
     0
291
     1
 45
0.0
1001
ACAD
1000
AcDbSavedByObjectVersion
1070
     0
1000
AcDbSavedByObjectVersion
1070
     0
1000
AcDbSavedByObjectVersion
1070
     0
  0
VISUALSTYLE
  5
1EF
102
{ACAD_REACTORS
330
1EE
102
}
330
1EE
100
AcDbVisualStyle
  2
Flat
 70
     0
 71
     2
 72
     1
 73
     1
 90
        2
 40
-0.6
 41
30.0
 62
     5
 63
     7
421
 16777215
 74
     0
 91
        4
 64
     7
 65
   257
 75
     1
175
     1
 42
1.0
 92
        8
 66
     7
 43
1.0
 76
     1
 77
     6
 78
     2
 67
     7
 79
     5
170
     0
171
     0
290
     0
174
     0
 93
       13
 44
0.0
173
     0
291
     1
 45
0.0
1001
ACAD
1000
AcDbSavedByObjectVersion
1070
     0
1000
AcDbSavedByObjectVersion
1070
     0
1000
AcDbSavedByObjectVersion
1070
     0
  0
VISUALSTYLE
  5
1F0
102
{ACAD_REACTORS
330
1EE
102
}
330
1EE
100
AcDbVisualStyle
  2
FlatWithEdges
 70
     1
 71
     2
 72
     1
 73
     1
 90
        2
 40
-0.6
 41
30.0
 62
     5
 63
     7
421
 16777215
 74
     1
 91
        4
 64
     7
 65
   257
 75
     1
175
     1
 42
1.0
 92
        0
 66
   257
 43
1.0
 76
     1
 77
     6
 78
     2
 67
     7
 79
     5
170
     0
171
     0
290
     0
174
     0
 93
       13
 44
0.0
173
     0
291
     1
 45
0.0
1001
ACAD
1000
AcDbSavedByObjectVersion
1070
     0
1000
AcDbSavedByObjectVersion
1070
     0
1000
AcDbSavedByObjectVersion
1070
     0
  0
VISUALSTYLE
  5
1F1
102
{ACAD_REACTORS
330
1EE
102
}
330
1EE
100
AcDbVisualStyle
  2
Gouraud
 70
     2
 71
     2
 72
     2
 73
     1
 90
        2
 40
-0.6
 41
30.0
 62
     5
 63
     7
421
 16777215
 74
     0
 91
        4
 64
     7
 65
   257
 75
     1
175
     1
 42
1.0
 92
        0
 66
     7
 43
1.0
 76
     1
 77
     6
 78
     2
 67
     7
 79
     5
170
     0
171
     0
290
     0
174
     0
 93
       13
 44
0.0
173
     0
291
     1
 45
0.0
1001
ACAD
1000
AcDbSavedByObjectVersion
1070
     0
1000
AcDbSavedByObjectVersion
1070
     0
1000
AcDbSavedByObjectVersion
1070
     0
  0
VISUALSTYLE
  5
1F2
102
{ACAD_REACTORS
330
1EE
102
}
330
1EE
100
AcDbVisualStyle
  2
GouraudWithEdges
 70
     3
 71
     2
 72
     2
 73
     1
 90
        2
 40
-0.6
 41
30.0
 62
     5
 63
     7
421
 16777215
 74
     1
 91
        4
 64
     7
 65
   257
 75
     1
175
     1
 42
1.0
 92
        0
 66
   257
 43
1.0
 76
     1
 77
     6
 78
     2
 67
     7
 79
     5
170
     0
171
     0
290
     0
174
     0
 93
       13
 44
0.0
173
     0
291
     1
 45
0.0
1001
ACAD
1000
AcDbSavedByObjectVersion
1070
     0
1000
AcDbSavedByObjectVersion
1070
     0
1000
AcDbSavedByObjectVersion
1070
     0
  0
VISUALSTYLE
  5
C26
102
{ACAD_XDICTIONARY
360
C27
102
}
102
{ACAD_REACTORS
330
1EE
102
}
330
1EE
100
AcDbVisualStyle
  2
JitterOff
 70
    20
 71
     2
 72
     2
 73
     0
 90
        0
 40
-0.6
 41
-30.0
 62
     5
 63
     7
 74
     1
 91
        4
 64
     7
 65
   257
 75
     1
175
     1
 42
1.0
 92
       10
 66
     7
 43
1.0
 76
     1
 77
     6
 78
     2
 67
     7
 79
     5
170
     0
171
     0
290
     0
174
     0
 93
        1
 44
0.0
173
     0
291
     1
 45
0.0
1001
ACAD
1000
AcDbSavedByObjectVersion
1070
     0
1000
AcDbSavedByObjectVersion
1070
     0
1000
AcDbSavedByObjectVersion
1070
     0
  0
VISUALSTYLE
  5
1FC
102
{ACAD_REACTORS
330
1EE
102
}
330
1EE
100
AcDbVisualStyle
  2
Linepattern
 70
    14
 71
     2
 72
     2
 73
     0
 90
        0
 40
-0.6
 41
-30.0
 62
     5
 63
     7
421
 16777215
 74
     1
 91
        4
 64
     7
 65
   257
 75
     7
175
     7
 42
1.0
 92
        8
 66
     7
 43
1.0
 76
     1
 77
     6
 78
     2
 67
     7
 79
     5
170
     0
171
     0
290
     0
174
     0
 93
        1
 44
0.0
173
     0
291
     1
 45
0.0
1001
ACAD
1000
AcDbSavedByObjectVersion
1070
     0
1000
AcDbSavedByObjectVersion
1070
     0
1000
AcDbSavedByObjectVersion
1070
     0
  0
VISUALSTYLE
  5
C29
102
{ACAD_XDICTIONARY
360
C2A
102
}
102
{ACAD_REACTORS
330
1EE
102
}
330
1EE
100
AcDbVisualStyle
  2
OverhangOff
 70
    21
 71
     2
 72
     2
 73
     0
 90
        0
 40
-0.6
 41
-30.0
 62
     5
 63
     7
 74
     1
 91
        4
 64
     7
 65
   257
 75
     1
175
     1
 42
1.0
 92
        9
 66
     7
 43
1.0
 76
     1
 77
     6
 78
     2
 67
     7
 79
     5
170
     0
171
     0
290
     0
174
     0
 93
        1
 44
0.0
173
     0
291
     1
 45
0.0
1001
ACAD
1000
AcDbSavedByObjectVersion
1070
     0
1000
AcDbSavedByObjectVersion
1070
     0
1000
AcDbSavedByObjectVersion
1070
     0
  0
VISUALSTYLE
  5
1F8
102
{ACAD_REACTORS
330
1EE
102
}
330
1EE
100
AcDbVisualStyle
  2
Realistic
 70
     8
 71
     2
 72
     2
 73
     0
 90
        0
 40
-0.6
 41
-30.0
 62
     5
 63
     7
421
 16777215
 74
     1
 91
        0
 64
     7
 65
   257
 75
     1
175
     1
 42
1.0
 92
        8
 66
     8
424
  7895160
 43
1.0
 76
     1
 77
     6
 78
     2
 67
     7
 79
     5
170
     0
171
     0
290
     0
174
     0
 93
       13
 44
0.0
173
     0
291
     0
 45
0.0
1001
ACAD
1000
AcDbSavedByObjectVersion
1070
     0
1000
AcDbSavedByObjectVersion
1070
     0
1000
AcDbSavedByObjectVersion
1070
     0
  0
VISUALSTYLE
  5
1FB
102
{ACAD_REACTORS
330
1EE
102
}
330
1EE
100
AcDbVisualStyle
  2
Thicken
 70
    13
 71
     2
 72
     2
 73
     0
 90
        0
 40
-0.6
 41
-30.0
 62
     5
 63
     7
421
 16777215
 74
     1
 91
        4
 64
     7
 65
   257
 75
     1
175
     1
 42
1.0
 92
       12
 66
     7
 43
1.0
 76
     1
 77
     6
 78
     2
 67
     7
 79
     5
170
     0
171
     0
290
     0
174
     0
 93
        1
 44
0.0
173
     0
291
     1
 45
0.0
1001
ACAD
1000
AcDbSavedByObjectVersion
1070
     0
1000
AcDbSavedByObjectVersion
1070
     0
1000
AcDbSavedByObjectVersion
1070
     0
  0
DICTIONARYVAR
  5
18F
102
{ACAD_REACTORS
330
DA
102
}
330
DA
100
DictionaryVariables
280
     0
  1
STANDARD
  0
DICTIONARYVAR
  5
DC
102
{ACAD_REACTORS
330
DA
102
}
330
DA
100
DictionaryVariables
280
     0
  1
1
  0
DICTIONARYVAR
  5
DB
102
{ACAD_REACTORS
330
DA
102
}
330
DA
100
DictionaryVariables
280
     0
  1
1
  0
DICTIONARY
  5
9D
102
{ACAD_REACTORS
330
97
102
}
330
97
100
AcDbDictionary
281
     1
  0
XRECORD
  5
186
102
{ACAD_REACTORS
330
97
102
}
330
97
100
AcDbXrecord
280
     1
 90
-1023410169
  0
DICTIONARY
  5
C32
330
1EC
100
AcDbDictionary
280
     1
281
     1
  3
ACAD_XREC_ROUNDTRIP
360
C33
  0
DICTIONARY
  5
C30
330
1EB
100
AcDbDictionary
280
     1
281
     1
  3
ACAD_XREC_ROUNDTRIP
360
C31
  0
DICTIONARY
  5
C34
330
1ED
100
AcDbDictionary
280
     1
281
     1
  3
ACAD_XREC_ROUNDTRIP
360
C35
  0
DICTIONARY
  5
DA1
330
170
100
AcDbDictionary
280
     1
281
     1
  3
ACAD_XREC_ROUNDTRIP
360
DA2
  0
DICTIONARY
  5
C24
330
C23
100
AcDbDictionary
280
     1
281
     1
  3
ACAD_XREC_ROUNDTRIP
360
C25
  0
DICTIONARY
  5
C27
330
C26
100
AcDbDictionary
280
     1
281
     1
  3
ACAD_XREC_ROUNDTRIP
360
C28
  0
DICTIONARY
  5
C2A
330
C29
100
AcDbDictionary
280
     1
281
     1
  3
ACAD_XREC_ROUNDTRIP
360
C2B
  0
XRECORD
  5
C33
102
{ACAD_REACTORS
330
C32
102
}
330
C32
100
AcDbXrecord
280
     1
102
MATERIAL
148
0.0
149
0.0
149
0.0
 93
        0
 94
       63
282
     0
 72
     1
 77
     1
171
     1
175
     1
179
     1
273
     0
  0
XRECORD
  5
C31
102
{ACAD_REACTORS
330
C30
102
}
330
C30
100
AcDbXrecord
280
     1
102
MATERIAL
148
0.0
149
0.0
149
0.0
 93
        0
 94
       63
282
     0
 72
     1
 77
     1
171
     1
175
     1
179
     1
273
     0
  0
XRECORD
  5
C35
102
{ACAD_REACTORS
330
C34
102
}
330
C34
100
AcDbXrecord
280
     1
102
MATERIAL
148
0.0
149
0.0
149
0.0
 93
        0
 94
       63
282
     0
 72
     1
 77
     1
171
     1
175
     1
179
     1
273
     0
  0
XRECORD
  5
DA2
102
{ACAD_REACTORS
330
DA1
102
}
330
DA1
100
AcDbXrecord
280
     1
102
ACAD_ROUNDTRIP_PRE2007_TABLESTYLE
 90
        4
 91
        0
  1

 92
        4
 93
        0
  2

 94
        4
 95
        0
  3

  0
XRECORD
  5
C25
102
{ACAD_REACTORS
330
C24
102
}
330
C24
100
AcDbXrecord
280
     1
102
RTVSPropertyOp0
 70
     0
102
RTVSPropertyOp1
 70
     0
102
RTVSPropertyOp2
 70
     0
102
RTVSPropertyOp3
 70
     0
102
RTVSPropertyOp4
 70
     0
102
RTVSPropertyOp5
 70
     0
102
RTVSPropertyOp6
 70
     0
102
RTVSPropertyOp7
 70
     0
102
RTVSPropertyOp8
 70
     0
102
RTVSPropertyOp9
 70
     0
102
RTVSPropertyOp10
 70
     0
102
RTVSPropertyOp11
 70
     0
102
RTVSPropertyOp12
 70
     0
102
RTVSPropertyOp13
 70
     0
102
RTVSPropertyOp14
 70
     2
102
RTVSPropertyOp15
 70
     0
102
RTVSPropertyOp16
 70
     0
102
RTVSPropertyOp17
 70
     0
102
RTVSPropertyOp18
 70
     0
102
RTVSPropertyOp19
 70
     0
102
RTVSPropertyOp20
 70
     0
102
RTVSPropertyOp21
 70
     0
102
RTVSPropertyOp22
 70
     0
102
RTVSPropertyOp23
 70
     0
102
RTVSPropertyOp24
 70
     0
102
RTVSPropertyOp25
 70
     0
102
RTVSPropertyOp26
 70
     0
102
RTVSPropertyOp27
 70
     0
  0
XRECORD
  5
C28
102
{ACAD_REACTORS
330
C27
102
}
330
C27
100
AcDbXrecord
280
     1
102
RTVSPropertyOp0
 70
     0
102
RTVSPropertyOp1
 70
     0
102
RTVSPropertyOp2
 70
     0
102
RTVSPropertyOp3
 70
     0
102
RTVSPropertyOp4
 70
     0
102
RTVSPropertyOp5
 70
     0
102
RTVSPropertyOp6
 70
     0
102
RTVSPropertyOp7
 70
     0
102
RTVSPropertyOp8
 70
     0
102
RTVSPropertyOp9
 70
     0
102
RTVSPropertyOp10
 70
     0
102
RTVSPropertyOp11
 70
     0
102
RTVSPropertyOp12
 70
     0
102
RTVSPropertyOp13
 70
     0
102
RTVSPropertyOp14
 70
     2
102
RTVSPropertyOp15
 70
     0
102
RTVSPropertyOp16
 70
     0
102
RTVSPropertyOp17
 70
     0
102
RTVSPropertyOp18
 70
     0
102
RTVSPropertyOp19
 70
     0
102
RTVSPropertyOp20
 70
     0
102
RTVSPropertyOp21
 70
     0
102
RTVSPropertyOp22
 70
     0
102
RTVSPropertyOp23
 70
     0
102
RTVSPropertyOp24
 70
     0
102
RTVSPropertyOp25
 70
     0
102
RTVSPropertyOp26
 70
     0
102
RTVSPropertyOp27
 70
     0
  0
XRECORD
  5
C2B
102
{ACAD_REACTORS
330
C2A
102
}
330
C2A
100
AcDbXrecord
280
     1
102
RTVSPropertyOp0
 70
     0
102
RTVSPropertyOp1
 70
     0
102
RTVSPropertyOp2
 70
     0
102
RTVSPropertyOp3
 70
     0
102
RTVSPropertyOp4
 70
     0
102
RTVSPropertyOp5
 70
     0
102
RTVSPropertyOp6
 70
     0
102
RTVSPropertyOp7
 70
     0
102
RTVSPropertyOp8
 70
     0
102
RTVSPropertyOp9
 70
     0
102
RTVSPropertyOp10
 70
     0
102
RTVSPropertyOp11
 70
     0
102
RTVSPropertyOp12
 70
     0
102
RTVSPropertyOp13
 70
     0
102
RTVSPropertyOp14
 70
     2
102
RTVSPropertyOp15
 70
     0
102
RTVSPropertyOp16
 70
     0
102
RTVSPropertyOp17
 70
     0
102
RTVSPropertyOp18
 70
     0
102
RTVSPropertyOp19
 70
     0
102
RTVSPropertyOp20
 70
     0
102
RTVSPropertyOp21
 70
     0
102
RTVSPropertyOp22
 70
     0
102
RTVSPropertyOp23
 70
     0
102
RTVSPropertyOp24
 70
     0
102
RTVSPropertyOp25
 70
     0
102
RTVSPropertyOp26
 70
     0
102
RTVSPropertyOp27
 70
     0
  0
ENDSEC
  0
EOF
