  0
SECTION
  2
HEADER
  9
$ACADVER
  1
AC1018
  9
$ACADMAINTVER
 70
   104
  9
$DWGCODEPAGE
  3
ANSI_1252
  9
$LASTSAVEDBY
  1
oberdoer
  9
$CUSTOMPROPERTYTAG
  1
AmdtFileType
  9
$CUSTOMPROPERTY
  1
84
  9
$INSBASE
 10
0.0
 20
0.0
 30
0.0
  9
$EXTMIN
 10
185.0908886997724
 20
123.2031232933328
 30
-0.0000000000112531
  9
$EXTMAX
 10
669.8454341215597
 20
477.8003441398441
 30
0.0000000000002922
  9
$LIMMIN
 10
0.0
 20
0.0
  9
$LIMMAX
 10
420.0
 20
297.0
  9
$ORTHOMODE
 70
     0
  9
$REGENMODE
 70
     1
  9
$FILLMODE
 70
     1
  9
$QTEXTMODE
 70
     0
  9
$MIRRTEXT
 70
     1
  9
$LTSCALE
 40
1.0
  9
$ATTMODE
 70
     1
  9
$TEXTSIZE
 40
2.5
  9
$TRACEWID
 40
1.0
  9
$TEXTSTYLE
  7
STANDARD
  9
$CLAYER
  8
0
  9
$CELTYPE
  6
ByLayer
  9
$CECOLOR
 62
   256
  9
$CELTSCALE
 40
1.0
  9
$DISPSILH
 70
     0
  9
$DIMSCALE
 40
1.0
  9
$DIMASZ
 40
2.5
  9
$DIMEXO
 40
0.0
  9
$DIMDLI
 40
10.0
  9
$DIMRND
 40
0.0
  9
$DIMDLE
 40
0.0
  9
$DIMEXE
 40
2.0
  9
$DIMTP
 40
0.1
  9
$DIMTM
 40
0.1
  9
$DIMTXT
 40
3.5
  9
$DIMCEN
 40
0.0
  9
$DIMTSZ
 40
0.0
  9
$DIMTOL
 70
     0
  9
$DIMLIM
 70
     0
  9
$DIMTIH
 70
     0
  9
$DIMTOH
 70
     0
  9
$DIMSE1
 70
     0
  9
$DIMSE2
 70
     0
  9
$DIMTAD
 70
     1
  9
$DIMZIN
 70
     8
  9
$DIMBLK
  1

  9
$DIMASO
 70
     1
  9
$DIMSHO
 70
     1
  9
$DIMPOST
  1

  9
$DIMAPOST
  1
"
  9
$DIMALT
 70
     0
  9
$DIMALTD
 70
     2
  9
$DIMALTF
 40
0.0393701
  9
$DIMLFAC
 40
1.0
  9
$DIMTOFL
 70
     1
  9
$DIMTVP
 40
0.0
  9
$DIMTIX
 70
     0
  9
$DIMSOXD
 70
     0
  9
$DIMSAH
 70
     0
  9
$DIMBLK1
  1

  9
$DIMBLK2
  1

  9
$DIMSTYLE
  2
AM_DIN
  9
$DIMCLRD
 70
   256
  9
$DIMCLRE
 70
   256
  9
$DIMCLRT
 70
     2
  9
$DIMTFAC
 40
0.71
  9
$DIMGAP
 40
1.5
  9
$DIMJUST
 70
     0
  9
$DIMSD1
 70
     0
  9
$DIMSD2
 70
     0
  9
$DIMTOLJ
 70
     0
  9
$DIMTZIN
 70
     8
  9
$DIMALTZ
 70
     0
  9
$DIMALTTZ
 70
     0
  9
$DIMUPT
 70
     0
  9
$DIMDEC
 70
     2
  9
$DIMTDEC
 70
     2
  9
$DIMALTU
 70
     2
  9
$DIMALTTD
 70
     2
  9
$DIMTXSTY
  7
STANDARD
  9
$DIMAUNIT
 70
     0
  9
$DIMADEC
 70
     0
  9
$DIMALTRND
 40
0.0
  9
$DIMAZIN
 70
     2
  9
$DIMDSEP
 70
    46
  9
$DIMATFIT
 70
     3
  9
$DIMFRAC
 70
     0
  9
$DIMLDRBLK
  1

  9
$DIMLUNIT
 70
     2
  9
$DIMLWD
 70
    -1
  9
$DIMLWE
 70
    -1
  9
$DIMTMOVE
 70
     0
  9
$LUNITS
 70
     2
  9
$LUPREC
 70
     2
  9
$SKETCHINC
 40
1.0
  9
$FILLETRAD
 40
2.5
  9
$AUNITS
 70
     0
  9
$AUPREC
 70
     0
  9
$MENU
  1
.
  9
$ELEVATION
 40
0.0
  9
$PELEVATION
 40
0.0
  9
$THICKNESS
 40
0.0
  9
$LIMCHECK
 70
     0
  9
$CHAMFERA
 40
2.5
  9
$CHAMFERB
 40
2.5
  9
$CHAMFERC
 40
20.0
  9
$CHAMFERD
 40
0.0
  9
$SKPOLY
 70
     0
  9
$TDCREATE
 40
2455484.505210683
  9
$TDUCREATE
 40
2455484.421877350
  9
$TDUPDATE
 40
2456149.623290683
  9
$TDUUPDATE
 40
2456149.539957350
  9
$TDINDWG
 40
0.0456211343
  9
$TDUSRTIMER
 40
0.0456207755
  9
$USRTIMER
 70
     1
  9
$ANGBASE
 50
0.0
  9
$ANGDIR
 70
     0
  9
$PDMODE
 70
     0
  9
$PDSIZE
 40
0.0
  9
$PLINEWID
 40
0.0
  9
$SPLFRAME
 70
     0
  9
$SPLINETYPE
 70
     6
  9
$SPLINESEGS
 70
     8
  9
$HANDSEED
  5
A3B
  9
$SURFTAB1
 70
     6
  9
$SURFTAB2
 70
     6
  9
$SURFTYPE
 70
     6
  9
$SURFU
 70
     6
  9
$SURFV
 70
     6
  9
$UCSBASE
  2

  9
$UCSNAME
  2

  9
$UCSORG
 10
0.0
 20
0.0
 30
0.0
  9
$UCSXDIR
 10
1.0
 20
0.0
 30
0.0
  9
$UCSYDIR
 10
0.0
 20
1.0
 30
0.0
  9
$UCSORTHOREF
  2

  9
$UCSORTHOVIEW
 70
     0
  9
$UCSORGTOP
 10
0.0
 20
0.0
 30
0.0
  9
$UCSORGBOTTOM
 10
0.0
 20
0.0
 30
0.0
  9
$UCSORGLEFT
 10
0.0
 20
0.0
 30
0.0
  9
$UCSORGRIGHT
 10
0.0
 20
0.0
 30
0.0
  9
$UCSORGFRONT
 10
0.0
 20
0.0
 30
0.0
  9
$UCSORGBACK
 10
0.0
 20
0.0
 30
0.0
  9
$PUCSBASE
  2

  9
$PUCSNAME
  2

  9
$PUCSORG
 10
0.0
 20
0.0
 30
0.0
  9
$PUCSXDIR
 10
1.0
 20
0.0
 30
0.0
  9
$PUCSYDIR
 10
0.0
 20
1.0
 30
0.0
  9
$PUCSORTHOREF
  2

  9
$PUCSORTHOVIEW
 70
     0
  9
$PUCSORGTOP
 10
0.0
 20
0.0
 30
0.0
  9
$PUCSORGBOTTOM
 10
0.0
 20
0.0
 30
0.0
  9
$PUCSORGLEFT
 10
0.0
 20
0.0
 30
0.0
  9
$PUCSORGRIGHT
 10
0.0
 20
0.0
 30
0.0
  9
$PUCSORGFRONT
 10
0.0
 20
0.0
 30
0.0
  9
$PUCSORGBACK
 10
0.0
 20
0.0
 30
0.0
  9
$USERI1
 70
     0
  9
$USERI2
 70
     0
  9
$USERI3
 70
     0
  9
$USERI4
 70
     0
  9
$USERI5
 70
     0
  9
$USERR1
 40
0.0
  9
$USERR2
 40
0.0
  9
$USERR3
 40
0.0
  9
$USERR4
 40
0.0
  9
$USERR5
 40
0.0
  9
$WORLDVIEW
 70
     1
  9
$SHADEDGE
 70
     3
  9
$SHADEDIF
 70
    70
  9
$TILEMODE
 70
     1
  9
$MAXACTVP
 70
    64
  9
$PINSBASE
 10
0.0
 20
0.0
 30
0.0
  9
$PLIMCHECK
 70
     0
  9
$PEXTMIN
 10
28.19999999999999
 20
17.0
 30
0.0
  9
$PEXTMAX
 10
253.8
 20
153.0
 30
0.0
  9
$PLIMMIN
 10
-7.5
 20
-20.0
  9
$PLIMMAX
 10
289.5
 20
190.0
  9
$UNITMODE
 70
     0
  9
$VISRETAIN
 70
     1
  9
$PLINEGEN
 70
     0
  9
$PSLTSCALE
 70
     1
  9
$TREEDEPTH
 70
  3020
  9
$CMLSTYLE
  2
Standard
  9
$CMLJUST
 70
     0
  9
$CMLSCALE
 40
20.0
  9
$PROXYGRAPHICS
 70
     1
  9
$MEASUREMENT
 70
     1
  9
$CELWEIGHT
370
    -1
  9
$ENDCAPS
280
     0
  9
$JOINSTYLE
280
     0
  9
$LWDISPLAY
290
     0
  9
$INSUNITS
 70
     4
  9
$HYPERLINKBASE
  1

  9
$STYLESHEET
  1
ganz_fein_1.ctb
  9
$XEDIT
290
     1
  9
$CEPSNTYPE
380
     0
  9
$PSTYLEMODE
290
     1
  9
$FINGERPRINTGUID
  2
{00EBEDDB-9407-4F4F-8050-2BF22BD4BA83}
  9
$VERSIONGUID
  2
{5EA689D0-E24D-44B2-9B5C-15240C16CF6D}
  9
$EXTNAMES
290
     1
  9
$PSVPSCALE
 40
0.0
  9
$OLESTARTUP
290
     0
  9
$SORTENTS
280
   127
  9
$INDEXCTL
280
     0
  9
$HIDETEXT
280
     0
  9
$XCLIPFRAME
290
     0
  9
$HALOGAP
280
     0
  9
$OBSCOLOR
 70
   257
  9
$OBSLTYPE
280
     0
  9
$INTERSECTIONDISPLAY
280
     0
  9
$INTERSECTIONCOLOR
 70
   257
  9
$DIMASSOC
280
     1
  9
$PROJECTNAME
  1

  0
ENDSEC
  0
SECTION
  2
CLASSES
  0
CLASS
  1
ACDBDICTIONARYWDFLT
  2
AcDbDictionaryWithDefault
  3
ObjectDBX Classes
 90
        0
 91
        1
280
     0
281
     0
  0
CLASS
  1
ACME_DOCUMENT
  2
AcMeDbDoc
  3
AcMeServices
 90
        0
 91
        1
280
     0
281
     0
  0
CLASS
  1
AMGSETTINGSOBJ
  2
AmgSettingsObj
  3
"AcadM|Product Description: AutoCAD Mechanical|Company: Autodesk"
 90
        0
 91
        2
280
     0
281
     0
  0
CLASS
  1
ACMESCOPE
  2
AcMeScope
  3
AcMeServices
 90
        0
 91
        1
280
     0
281
     0
  0
CLASS
  1
ACMECOMMANDHISTORY
  2
AcMeCommandHistory
  3
AcMeServices
 90
        0
 91
        1
280
     0
281
     0
  0
CLASS
  1
ACIMSYSVARMAN
  2
AcImSysVarManager
  3
AcMeServices
 90
        0
 91
        5
280
     0
281
     0
  0
CLASS
  1
ACIMREALSYSVAR
  2
AcImRealSysVar
  3
AcMeServices
 90
        0
 91
        1
280
     0
281
     0
  0
CLASS
  1
ACIMINTSYSVAR
  2
AcImIntSysVar
  3
AcMeServices
 90
        0
 91
       27
280
     0
281
     0
  0
CLASS
  1
ACMEDRAWINGMAN
  2
AcMeDrawingMan
  3
AcMeServices
 90
        0
 91
        1
280
     0
281
     0
  0
CLASS
  1
ACMEVIEW
  2
AcMeView
  3
AcMeServices
 90
        0
 91
        1
280
     0
281
     0
  0
CLASS
  1
ACDBENTITYCACHE
  2
AcMeEntityCache
  3
AcMeServices
 90
        0
 91
        1
280
     0
281
     0
  0
CLASS
  1
GSMANAGER
  2
AcMeGSManager
  3
AcMeServices
 90
        0
 91
        1
280
     0
281
     0
  0
CLASS
  1
AMDTINTERNALREACTOR
  2
AmdtInternalReactor
  3
AcMeServices
 90
        0
 91
        2
280
     0
281
     0
  0
CLASS
  1
ACMESTATEMGR
  2
AcMeStateMgr
  3
AcMeServices
 90
        0
 91
        1
280
     0
281
     0
  0
CLASS
  1
ACGREFMASTER
  2
AcGrefMaster
  3
AcAttribServices
 90
        0
 91
        1
280
     0
281
     0
  0
CLASS
  1
ACME_DATABASE
  2
AcMeDbDatabase
  3
AcMeServices
 90
        0
 91
        1
280
     0
281
     0
  0
CLASS
  1
ACRFINSADJUSTERMGR
  2
AcRfInsAdjusterMgr
  3
AcMeServices
 90
        0
 91
        1
280
     0
281
     0
  0
CLASS
  1
ACGREFACADMASTER
  2
AcGrefacadMaster
  3
AcGrefServices
 90
        0
 91
        1
280
     0
281
     0
  0
CLASS
  1
AMIMASTER
  2
AmiMaster
  3
AmiServices
 90
        0
 91
        1
280
     0
281
     0
  0
CLASS
  1
ACMDATADICTIONARY
  2
AcmDataDictionary
  3
"AcmSymBB|Product Description: AutoCAD Mechanical|Company: Autodesk"
 90
        0
 91
        1
280
     0
281
     0
  0
CLASS
  1
ACMDATAENTRYBLOCK
  2
AcmDataEntryBlock
  3
"AcmSymBB|Product Description: AutoCAD Mechanical|Company: Autodesk"
 90
        0
 91
        0
280
     0
281
     0
  0
CLASS
  1
ACIMSTRSYSVAR
  2
AcImStrSysVar
  3
AcMeServices
 90
        0
 91
        5
280
     0
281
     0
  0
CLASS
  1
ACMSTANDARDDIN
  2
AcmStandardDIN
  3
"Amdt_StdImp|Product Description: AutoCAD Mechanical|Company: Autodesk"
 90
        0
 91
        1
280
     0
281
     0
  0
CLASS
  1
AMGOBJPROPCFG
  2
AmgObjPropCfg
  3
"AmgLay|Product Description: AutoCAD Mechanical|Company: Autodesk"
 90
        1
 91
        2
280
     0
281
     0
  0
CLASS
  1
AMDTEDGESTANDARDDIN
  2
AmdtEdgeStdDIN
  3
"Amdt_StdImp|Product Description: AutoCAD Mechanical|Company: Autodesk"
 90
        0
 91
        0
280
     0
281
     0
  0
CLASS
  1
ACMSURFSTANDARDDIN
  2
AcmSurfTextStdDIN
  3
"Amdt_StdImp|Product Description: AutoCAD Mechanical|Company: Autodesk"
 90
        0
 91
        1
280
     0
281
     0
  0
CLASS
  1
ACMFCFSTANDARDDIN
  2
AcmFCFStdDIN
  3
"Amdt_StdImp|Product Description: AutoCAD Mechanical|Company: Autodesk"
 90
        0
 91
        1
280
     0
281
     0
  0
CLASS
  1
ACMWELDSTANDARDDIN
  2
AcmWeldingStdDIN
  3
"Amdt_StdImp|Product Description: AutoCAD Mechanical|Company: Autodesk"
 90
        0
 91
        1
280
     0
281
     0
  0
CLASS
  1
ACMIDSTANDARDDIN
  2
AcmIdStdDIN
  3
"Amdt_StdImp|Product Description: AutoCAD Mechanical|Company: Autodesk"
 90
        0
 91
        1
280
     0
281
     0
  0
CLASS
  1
ACMDATUMSTANDARDDIN
  2
AcmDatumStdDIN
  3
"Amdt_StdImp|Product Description: AutoCAD Mechanical|Company: Autodesk"
 90
        0
 91
        1
280
     0
281
     0
  0
CLASS
  1
ACMBOMSTANDARDDIN
  2
AcmBOMStdDIN
  3
"Amdt_StdImp|Product Description: AutoCAD Mechanical|Company: Autodesk"
 90
        0
 91
        1
280
     0
281
     0
  0
CLASS
  1
ACMDETAILSTANDARDDIN
  2
AmdtDetailSymStdDIN
  3
"Amdt_StdImp|Product Description: AutoCAD Mechanical|Company: Autodesk"
 90
        0
 91
        1
280
     0
281
     0
  0
CLASS
  1
ACMSECTIONSTANDARDDIN
  2
AmdtSectionSymStdDIN
  3
"Amdt_StdImp|Product Description: AutoCAD Mechanical|Company: Autodesk"
 90
        0
 91
        1
280
     0
281
     0
  0
CLASS
  1
ACMCENTERLINESTANDARDDIN
  2
AmdtCenterLineStdDIN
  3
"Amdt_StdImp|Product Description: AutoCAD Mechanical|Company: Autodesk"
 90
        0
 91
        1
280
     0
281
     0
  0
CLASS
  1
ACMNOTESTANDARDDIN
  2
AmdtNoteStdDIN
  3
"Amdt_StdImp|Product Description: AutoCAD Mechanical|Company: Autodesk"
 90
        0
 91
        1
280
     0
281
     0
  0
CLASS
  1
ACAMGLAYSTD
  2
AcAmgLayStd
  3
"AmgLay|Product Description: AutoCAD Mechanical|Company: Autodesk"
 90
        0
 91
        2
280
     0
281
     0
  0
CLASS
  1
ACAMGDIMSTD
  2
AcAmgDimStd
  3
"AmgDim|Product Description: AutoCAD Mechanical|Company: Autodesk"
 90
        0
 91
        2
280
     0
281
     0
  0
CLASS
  1
ACAMGHOLECHARTSTDDIN
  2
AcAmgHoleChartStdDIN
  3
ACMSYMBB_MODULE_NAME
 90
        0
 91
        1
280
     0
281
     0
  0
CLASS
  1
ACAMGTITLESTD
  2
AcAmgTitleStd
  3
"AmgTitle|Product Description: AutoCAD Mechanical|Company: Autodesk"
 90
        0
 91
        2
280
     0
281
     0
  0
CLASS
  1
LAYER_INDEX
  2
AcDbLayerIndex
  3
ObjectDBX Classes
 90
        0
 91
        0
280
     0
281
     0
  0
CLASS
  1
IDBUFFER
  2
AcDbIdBuffer
  3
ObjectDBX Classes
 90
        0
 91
        0
280
     0
281
     0
  0
CLASS
  1
DICTIONARYVAR
  2
AcDbDictionaryVar
  3
ObjectDBX Classes
 90
        0
 91
        3
280
     0
281
     0
  0
CLASS
  1
AM_DRAWING_MGR
  2
AcDmDwgMgr
  3
AcMechDwgViewMgmt
 90
        0
 91
        1
280
     0
281
     0
  0
CLASS
  1
AM_DWG_DOCUMENT
  2
AcDmDwgDocument
  3
AcMechDwgViewMgmt
 90
        0
 91
        1
280
     0
281
     0
  0
CLASS
  1
AM_DWG_SHEET
  2
AcDmSheet
  3
AcMechDwgViewMgmt
 90
        0
 91
        2
280
     0
281
     0
  0
CLASS
  1
AM_VIEWDIMPARMAP
  2
AcDmViewDimParMap
  3
AcMechDwgViewMgmt
 90
        0
 91
        2
280
     0
281
     0
  0
CLASS
  1
AM_DWGMGR_NAME
  2
AcDmDwgMgrName
  3
AcMechDwgViewMgmt
 90
        0
 91
        1
280
     0
281
     0
  0
CLASS
  1
AMDTMENUSTATEMGR
  2
AmdtMenuStateMgr
  3
McadcomServices
 90
        0
 91
        1
280
     0
281
     0
  0
CLASS
  1
AMDTMCOMMENUSTATE
  2
AmdtMcomMenuState
  3
McadcomServices
 90
        0
 91
        1
280
     0
281
     0
  0
CLASS
  1
MAPIAMMOUDLE
  2
MApiAmModule
  3
MApiAmServices
 90
        0
 91
        1
280
     0
281
     0
  0
CLASS
  1
AMDTADMENUSTATE
  2
AmdtAdMenuState
  3
DesignerServices
 90
        0
 91
        1
280
     0
281
     0
  0
CLASS
  1
ADAPPL
  2
AcAdAppl
  3
DesignerServices
 90
        0
 91
        1
280
     0
281
     0
  0
CLASS
  1
DEPMGR
  2
AcAdDepMgr
  3
DesignerServices
 90
        0
 91
        1
280
     0
281
     0
  0
CLASS
  1
PARAMMGR
  2
AcAdParamMgr
  3
DesignerServices
 90
        0
 91
        1
280
     0
281
     0
  0
CLASS
  1
PARAMSCOPE
  2
AcAdParamScope
  3
DesignerServices
 90
        0
 91
        1
280
     0
281
     0
  0
CLASS
  1
NAMEDAPPL
  2
AcAdNamedAppl
  3
DesignerServices
 90
        0
 91
        1
280
     0
281
     0
  0
CLASS
  1
AMDTDMMENUSTATE
  2
AmdtDmMenuState
  3
AcMechDwgViewMgmt
 90
        0
 91
        1
280
     0
281
     0
  0
CLASS
  1
AMDTAMMENUSTATE
  2
AmdtAmMenuState
  3
DesignerAssemblies
 90
        0
 91
        1
280
     0
281
     0
  0
CLASS
  1
ACAMPROJECT
  2
AcAmProject
  3
DesignerAssemblies
 90
        0
 91
        1
280
     0
281
     0
  0
CLASS
  1
ACAMGRCOMPDEF
  2
AcAmGrCompDef
  3
DesignerAssemblies
 90
        0
 91
        1
280
     0
281
     0
  0
CLASS
  1
ACCMCONTEXT
  2
AcCmContext
  3
DesignerAssemblies
 90
        0
 91
        1
280
     0
281
     0
  0
CLASS
  1
ACAMCOMPDEF
  2
AcAmCompDef
  3
DesignerAssemblies
 90
        0
 91
        1
280
     0
281
     0
  0
CLASS
  1
ACAMCOMPDEFMGR
  2
AcAmCompDefMgr
  3
DesignerAssemblies
 90
        0
 91
        1
280
     0
281
     0
  0
CLASS
  1
AMCONTEXTMGR
  2
AcAmContextMgr
  3
DesignerAssemblies
 90
        0
 91
        1
280
     0
281
     0
  0
CLASS
  1
ACAMCONTEXTMODELER
  2
AcAmContextModeler
  3
DesignerAssemblies
 90
        0
 91
        1
280
     0
281
     0
  0
CLASS
  1
ACMTHREADLINESTANDARDDIN
  2
AmdtThreadLineStdDIN
  3
"Amdt_StdImp|Product Description: AutoCAD Mechanical|Company: Autodesk"
 90
        0
 91
        1
280
     0
281
     0
  0
CLASS
  1
CATALOGSTATE
  2
AcAmCatalogState
  3
DesignerAssemblies
 90
        0
 91
        1
280
     0
281
     0
  0
CLASS
  1
ACAMGRCOMPDEFSET
  2
AcAmGrCompDefSet
  3
DesignerAssemblies
 90
        0
 91
        1
280
     0
281
     0
  0
CLASS
  1
AMDTBROWSERDBTAB
  2
AmdtBrowserDbTab
  3
McadcomServices
 90
        0
 91
        1
280
     0
281
     0
  0
CLASS
  1
CBROWSERAPPOBJECT
  2
CBrowserAppObject
  3
McadcomServices
 90
        0
 91
        3
280
     0
281
     0
  0
CLASS
  1
DM_PLACEHOLDER
  2
AcDmSelsetPlaceholder
  3
AcMechDwgViewMgmt
 90
        0
 91
        1
280
     0
281
     0
  0
CLASS
  1
TABLESTYLE
  2
AcDbTableStyle
  3
ObjectDBX Classes
 90
     4095
 91
        1
280
     0
281
     0
  0
CLASS
  1
MATERIAL
  2
AcDbMaterial
  3
ObjectDBX Classes
 90
     1024
 91
        3
280
     0
281
     0
  0
CLASS
  1
VISUALSTYLE
  2
AcDbVisualStyle
  3
ObjectDBX Classes
 90
     4095
 91
       19
280
     0
281
     0
  0
CLASS
  1
ACRFATTGENMGR
  2
AcRfAttGeneralMgr
  3
AcAttribServices
 90
        0
 91
        0
280
     0
281
     0
  0
CLASS
  1
ACRFOBJATTMGR
  2
AcRfObjAttGroupMgr
  3
AcAttribServices
 90
        0
 91
        0
280
     0
281
     0
  0
CLASS
  1
ACRFMCADAPIATTHOLDER
  2
AcRfMCADAPIAttHolder
  3
AcAttribServices
 90
        0
 91
        0
280
     0
281
     0
  0
CLASS
  1
AMDTSYSATTR
  2
AmdtSystemAttribute
  3
AcAttribServices
 90
        0
 91
        0
280
     0
281
     0
  0
CLASS
  1
ACMTAPERSTANDARDDIN
  2
AcmTaperStdDIN
  3
"Amdt_StdImp|Product Description: AutoCAD Mechanical|Company: Autodesk"
 90
        0
 91
        1
280
     0
281
     0
  0
CLASS
  1
CAMSSTRUCTBTNSTATE
  2
StructBtnState
  3
L"DesignerAssemblies"
 90
        0
 91
        0
280
     0
281
     0
  0
CLASS
  1
ACAMGFILTERDAT
  2
AcAmgFilterDat
  3
"AcadM|Product Description: AutoCAD Mechanical|Company: Autodesk"
 90
        0
 91
        0
280
     0
281
     0
  0
CLASS
  1
AMDTEDGESTANDARDDIN13715
  2
AmdtEdgeStdDIN13715
  3
"Amdt_StdImp|Product Description: AutoCAD Mechanical|Company: Autodesk"
 90
        0
 91
        1
280
     0
281
     0
  0
CLASS
  1
AMDTNOTETEMPLATEDB
  2
AmdtNoteTemplateDB
  3
AMDT_STDIMP_MODULE_NAME
 90
        0
 91
        9
280
     0
281
     0
  0
CLASS
  1
ACMSTANDARDISO
  2
AcmStandardISO
  3
"Amdt_StdImp|Product Description: AutoCAD Mechanical|Company: Autodesk"
 90
        0
 91
        1
280
     0
281
     0
  0
CLASS
  1
AMDTEDGESTANDARDISO
  2
AmdtEdgeStdISO
  3
"Amdt_StdImp|Product Description: AutoCAD Mechanical|Company: Autodesk"
 90
        0
 91
        1
280
     0
281
     0
  0
CLASS
  1
ACMSURFSTANDARDISO
  2
AcmSurfTextStdISO
  3
"Amdt_StdImp|Product Description: AutoCAD Mechanical|Company: Autodesk"
 90
        0
 91
        1
280
     0
281
     0
  0
CLASS
  1
ACMFCFSTANDARDISO
  2
AcmFCFStdISO
  3
"Amdt_StdImp|Product Description: AutoCAD Mechanical|Company: Autodesk"
 90
        0
 91
        1
280
     0
281
     0
  0
CLASS
  1
ACMWELDSTANDARDISO
  2
AcmWeldingStdISO
  3
"Amdt_StdImp|Product Description: AutoCAD Mechanical|Company: Autodesk"
 90
        0
 91
        1
280
     0
281
     0
  0
CLASS
  1
ACMIDSTANDARDISO
  2
AcmIdStdISO
  3
"Amdt_StdImp|Product Description: AutoCAD Mechanical|Company: Autodesk"
 90
        0
 91
        1
280
     0
281
     0
  0
CLASS
  1
ACMDATUMSTANDARDISO
  2
AcmDatumStdISO
  3
"Amdt_StdImp|Product Description: AutoCAD Mechanical|Company: Autodesk"
 90
        0
 91
        1
280
     0
281
     0
  0
CLASS
  1
ACMBOMSTANDARDISO
  2
AcmBOMStdISO
  3
"Amdt_StdImp|Product Description: AutoCAD Mechanical|Company: Autodesk"
 90
        0
 91
        1
280
     0
281
     0
  0
CLASS
  1
ACMDETAILSTANDARDISO
  2
AmdtDetailSymStdISO
  3
"Amdt_StdImp|Product Description: AutoCAD Mechanical|Company: Autodesk"
 90
        0
 91
        1
280
     0
281
     0
  0
CLASS
  1
ACMSECTIONSTANDARDISO
  2
AmdtSectionSymStdISO
  3
"Amdt_StdImp|Product Description: AutoCAD Mechanical|Company: Autodesk"
 90
        0
 91
        1
280
     0
281
     0
  0
CLASS
  1
ACMCENTERLINESTANDARDISO
  2
AmdtCenterLineStdISO
  3
"Amdt_StdImp|Product Description: AutoCAD Mechanical|Company: Autodesk"
 90
        0
 91
        1
280
     0
281
     0
  0
CLASS
  1
ACMNOTESTANDARDISO
  2
AmdtNoteStdISO
  3
"Amdt_StdImp|Product Description: AutoCAD Mechanical|Company: Autodesk"
 90
        0
 91
        1
280
     0
281
     0
  0
CLASS
  1
ACAMGHOLECHARTSTDISO
  2
AcAmgHoleChartStdISO
  3
ACMSYMBB_MODULE_NAME
 90
        0
 91
        1
280
     0
281
     0
  0
CLASS
  1
ACMTHREADLINESTANDARDISO
  2
AmdtThreadLineStdISO
  3
"Amdt_StdImp|Product Description: AutoCAD Mechanical|Company: Autodesk"
 90
        0
 91
        1
280
     0
281
     0
  0
CLASS
  1
ACMTAPERSTANDARDISO
  2
AcmTaperStdISO
  3
"Amdt_StdImp|Product Description: AutoCAD Mechanical|Company: Autodesk"
 90
        0
 91
        1
280
     0
281
     0
  0
ENDSEC
  0
SECTION
  2
TABLES
  0
TABLE
  2
VPORT
  5
8
330
0
100
AcDbSymbolTable
 70
     1
  0
VPORT
  5
1E9
330
8
100
AcDbSymbolTableRecord
100
AcDbViewportTableRecord
  2
*Active
 70
     0
 10
0.0
 20
0.0
 11
1.0
 21
1.0
 12
427.4806684858348
 22
308.5588406780898
 13
0.0
 23
0.0
 14
2.5
 24
2.5
 15
10.0
 25
10.0
 16
0.0
 26
0.0
 36
1.0
 17
0.0
 27
0.0
 37
0.0
 40
372.9079847907386
 41
1.845679012345678
 42
50.0
 43
0.0
 44
0.0
 50
0.0
 51
0.0
 71
     0
 72
   100
 73
     1
 74
     3
 75
     0
 76
     0
 77
     0
 78
     0
281
     0
 65
     1
110
0.0
120
0.0
130
0.0
111
1.0
121
0.0
131
0.0
112
0.0
122
1.0
132
0.0
 79
     0
146
0.0
  0
ENDTAB
  0
TABLE
  2
LTYPE
  5
5
330
0
100
AcDbSymbolTable
 70
    62
  0
LTYPE
  5
14
330
5
100
AcDbSymbolTableRecord
100
AcDbLinetypeTableRecord
  2
ByBlock
 70
     0
  3

 72
    65
 73
     0
 40
0.0
  0
LTYPE
  5
15
330
5
100
AcDbSymbolTableRecord
100
AcDbLinetypeTableRecord
  2
ByLayer
 70
     0
  3

 72
    65
 73
     0
 40
0.0
  0
LTYPE
  5
16
330
5
100
AcDbSymbolTableRecord
100
AcDbLinetypeTableRecord
  2
Continuous
 70
     0
  3
Solid line
 72
    65
 73
     0
 40
0.0
  0
LTYPE
  5
A0
330
5
100
AcDbSymbolTableRecord
100
AcDbLinetypeTableRecord
  2
AM_ISO02W050
 70
     0
  3
__ __ __ __ __ __ __ __ __ __ __ __ __ __ __
 72
    65
 73
     2
 40
7.5
 49
6.0
 74
     0
 49
-1.5
 74
     0
  0
LTYPE
  5
A1
330
5
100
AcDbSymbolTableRecord
100
AcDbLinetypeTableRecord
  2
AM_ISO08W050
 70
     0
  3
____ . ____ . ____ . ____ . ____ . ____ . ____
 72
    65
 73
     4
 40
18.0
 49
12.0
 74
     0
 49
-1.5
 74
     0
 49
3.0
 74
     0
 49
-1.5
 74
     0
  0
LTYPE
  5
A2
330
5
100
AcDbSymbolTableRecord
100
AcDbLinetypeTableRecord
  2
AM_ISO09W050
 70
     0
  3
_____ . . _____ . . _____ . . ____ .. ____
 72
    65
 73
     6
 40
22.5
 49
12.0
 74
     0
 49
-1.5
 74
     0
 49
3.0
 74
     0
 49
-1.5
 74
     0
 49
3.0
 74
     0
 49
-1.5
 74
     0
  0
LTYPE
  5
A3
330
5
100
AcDbSymbolTableRecord
100
AcDbLinetypeTableRecord
  2
Amconstr
 70
     0
  3
_______________________
 72
    65
 73
     2
 40
9999.0
 49
9999.0
 74
     0
 49
0.0
 74
     0
  0
LTYPE
  5
A4
330
5
100
AcDbSymbolTableRecord
100
AcDbLinetypeTableRecord
  2
AM_ISO08W050x2
 70
     0
  3
__ . __ . __ . __ . __ . __
 72
    65
 73
     4
 40
9.0
 49
6.0
 74
     0
 49
-0.75
 74
     0
 49
1.5
 74
     0
 49
-0.75
 74
     0
  0
LTYPE
  5
A5
330
5
100
AcDbSymbolTableRecord
100
AcDbLinetypeTableRecord
  2
AM_ISO02W050x2
 70
     0
  3
 _ _ _ _ _ _ _ _ _ _ _ _
 72
    65
 73
     2
 40
3.75
 49
3.0
 74
     0
 49
-0.75
 74
     0
  0
LTYPE
  5
A8
330
5
100
AcDbSymbolTableRecord
100
AcDbLinetypeTableRecord
  2
Amzigzag
 70
     0
  3
/\/-/\/-/\/-/\/-/\/-/\/
 72
    65
 73
     2
 40
11.0001
 49
0.0001
 74
     4
 75
   135
340
A7
 46
0.04
 50
0.0
 44
0.0
 45
0.0
 49
-11.0
 74
     0
  0
LTYPE
  5
A9
330
5
100
AcDbSymbolTableRecord
100
AcDbLinetypeTableRecord
  2
AM_DIN_F_W050
 70
     0
  3
__ __ __ __ __ __ __ __ __ __ __ __ __ __ __
 72
    65
 73
     2
 40
6.25
 49
4.75
 74
     0
 49
-1.5
 74
     0
  0
LTYPE
  5
AA
330
5
100
AcDbSymbolTableRecord
100
AcDbLinetypeTableRecord
  2
AM_DIN_G_W050
 70
     0
  3
____ . ____ . ____ . ____ . ____ . ____ . ____
 72
    65
 73
     4
 40
13.75
 49
9.75
 74
     0
 49
-1.5
 74
     0
 49
1.0
 74
     0
 49
-1.5
 74
     0
  0
LTYPE
  5
AB
330
5
100
AcDbSymbolTableRecord
100
AcDbLinetypeTableRecord
  2
AM_DIN_K_W050
 70
     0
  3
_____ . . _____ . . _____ . . ____ .. ____
 72
    65
 73
     6
 40
16.25
 49
9.75
 74
     0
 49
-1.5
 74
     0
 49
1.0
 74
     0
 49
-1.5
 74
     0
 49
1.0
 74
     0
 49
-1.5
 74
     0
  0
LTYPE
  5
AC
330
5
100
AcDbSymbolTableRecord
100
AcDbLinetypeTableRecord
  2
AM_DIN_G_W050x2
 70
     0
  3
__ . __ . __ . __ . __ . __
 72
    65
 73
     4
 40
6.875
 49
4.75
 74
     0
 49
-0.875
 74
     0
 49
0.375
 74
     0
 49
-0.875
 74
     0
  0
LTYPE
  5
AD
330
5
100
AcDbSymbolTableRecord
100
AcDbLinetypeTableRecord
  2
AM_DIN_F_W050x2
 70
     0
  3
 _ _ _ _ _ _ _ _ _ _ _ _
 72
    65
 73
     2
 40
3.125
 49
2.25
 74
     0
 49
-0.875
 74
     0
  0
LTYPE
  5
BB
330
5
100
AcDbSymbolTableRecord
100
AcDbLinetypeTableRecord
  2
ACDINWELD
 70
     0
  3
_ _ _ _ _
 72
    65
 73
     2
 40
2.0
 49
2.0
 74
     0
 49
-1.0
 74
     0
  0
LTYPE
  5
BC
330
5
100
AcDbSymbolTableRecord
100
AcDbLinetypeTableRecord
  2
ACDINTGB
 70
     0
  3
__ . . __ . .
 72
    65
 73
     6
 40
9.0
 49
4.0
 74
     0
 49
-1.0
 74
     0
 49
1.0
 74
     0
 49
-1.0
 74
     0
 49
1.0
 74
     0
 49
-1.0
 74
     0
  0
LTYPE
  5
BD
330
5
100
AcDbSymbolTableRecord
100
AcDbLinetypeTableRecord
  2
ACDINTGL
 70
     0
  3
_ _ _ _ _
 72
    65
 73
     2
 40
3.0
 49
2.0
 74
     0
 49
-1.0
 74
     0
  0
LTYPE
  5
BF
330
5
100
AcDbSymbolTableRecord
100
AcDbLinetypeTableRecord
  2
CENTER
 70
     0
  3
__ . __
 72
    65
 73
     4
 40
7.0
 49
4.0
 74
     0
 49
-1.0
 74
     0
 49
1.0
 74
     0
 49
-1.0
 74
     0
  0
LTYPE
  5
10F
330
5
100
AcDbSymbolTableRecord
100
AcDbLinetypeTableRecord
  2
HIDDEN
 70
     0
  3
Verdeckt
 72
    65
 73
     2
 40
9.525
 49
6.349999999999998
 74
     0
 49
-3.174999999999998
 74
     0
  0
LTYPE
  5
110
330
5
100
AcDbSymbolTableRecord
100
AcDbLinetypeTableRecord
  2
PHANTOM2
 70
     0
  3
Phantom (.5x) ___ _ _ ___ _ _ ___ _ _ ___ _ _
 72
    65
 73
     6
 40
31.75
 49
15.875
 74
     0
 49
-3.174999999999998
 74
     0
 49
3.174999999999998
 74
     0
 49
-3.174999999999998
 74
     0
 49
3.174999999999998
 74
     0
 49
-3.174999999999998
 74
     0
  0
LTYPE
  5
91B
330
5
100
AcDbSymbolTableRecord
100
AcDbLinetypeTableRecord
  2
BORDER
 70
     0
  3
Border __ __ . __ __ . __ __ . __ __ . __ __ .
 72
    65
 73
     6
 40
1.75
 49
0.5
 74
     0
 49
-0.25
 74
     0
 49
0.5
 74
     0
 49
-0.25
 74
     0
 49
0.0
 74
     0
 49
-0.25
 74
     0
  0
LTYPE
  5
91C
330
5
100
AcDbSymbolTableRecord
100
AcDbLinetypeTableRecord
  2
BORDER2
 70
     0
  3
Border (.5x) __.__.__.__.__.__.__.__.__.__.__.
 72
    65
 73
     6
 40
0.875
 49
0.25
 74
     0
 49
-0.125
 74
     0
 49
0.25
 74
     0
 49
-0.125
 74
     0
 49
0.0
 74
     0
 49
-0.125
 74
     0
  0
LTYPE
  5
91D
330
5
100
AcDbSymbolTableRecord
100
AcDbLinetypeTableRecord
  2
BORDERX2
 70
     0
  3
Border (2x) ____  ____  .  ____  ____  .  ___
 72
    65
 73
     6
 40
3.5
 49
1.0
 74
     0
 49
-0.5
 74
     0
 49
1.0
 74
     0
 49
-0.5
 74
     0
 49
0.0
 74
     0
 49
-0.5
 74
     0
  0
LTYPE
  5
91E
330
5
100
AcDbSymbolTableRecord
100
AcDbLinetypeTableRecord
  2
CENTER2
 70
     0
  3
Center (.5x) ___ _ ___ _ ___ _ ___ _ ___ _ ___
 72
    65
 73
     4
 40
1.125
 49
0.75
 74
     0
 49
-0.125
 74
     0
 49
0.125
 74
     0
 49
-0.125
 74
     0
  0
LTYPE
  5
91F
330
5
100
AcDbSymbolTableRecord
100
AcDbLinetypeTableRecord
  2
CENTERX2
 70
     0
  3
Center (2x) ________  __  ________  __  _____
 72
    65
 73
     4
 40
4.0
 49
2.5
 74
     0
 49
-0.5
 74
     0
 49
0.5
 74
     0
 49
-0.5
 74
     0
  0
LTYPE
  5
920
330
5
100
AcDbSymbolTableRecord
100
AcDbLinetypeTableRecord
  2
DASHDOT
 70
     0
  3
Dash dot __ . __ . __ . __ . __ . __ . __ . __
 72
    65
 73
     4
 40
1.0
 49
0.5
 74
     0
 49
-0.25
 74
     0
 49
0.0
 74
     0
 49
-0.25
 74
     0
  0
LTYPE
  5
921
330
5
100
AcDbSymbolTableRecord
100
AcDbLinetypeTableRecord
  2
DASHDOT2
 70
     0
  3
Dash dot (.5x) _._._._._._._._._._._._._._._.
 72
    65
 73
     4
 40
0.5
 49
0.25
 74
     0
 49
-0.125
 74
     0
 49
0.0
 74
     0
 49
-0.125
 74
     0
  0
LTYPE
  5
922
330
5
100
AcDbSymbolTableRecord
100
AcDbLinetypeTableRecord
  2
DASHDOTX2
 70
     0
  3
Dash dot (2x) ____  .  ____  .  ____  .  ___
 72
    65
 73
     4
 40
2.0
 49
1.0
 74
     0
 49
-0.5
 74
     0
 49
0.0
 74
     0
 49
-0.5
 74
     0
  0
LTYPE
  5
923
330
5
100
AcDbSymbolTableRecord
100
AcDbLinetypeTableRecord
  2
DASHED
 70
     0
  3
Dashed __ __ __ __ __ __ __ __ __ __ __ __ __ _
 72
    65
 73
     2
 40
0.75
 49
0.5
 74
     0
 49
-0.25
 74
     0
  0
LTYPE
  5
924
330
5
100
AcDbSymbolTableRecord
100
AcDbLinetypeTableRecord
  2
DASHED2
 70
     0
  3
Dashed (.5x) _ _ _ _ _ _ _ _ _ _ _ _ _ _ _ _ _
 72
    65
 73
     2
 40
0.375
 49
0.25
 74
     0
 49
-0.125
 74
     0
  0
LTYPE
  5
925
330
5
100
AcDbSymbolTableRecord
100
AcDbLinetypeTableRecord
  2
DASHEDX2
 70
     0
  3
Dashed (2x) ____  ____  ____  ____  ____  ___
 72
    65
 73
     2
 40
1.5
 49
1.0
 74
     0
 49
-0.5
 74
     0
  0
LTYPE
  5
926
330
5
100
AcDbSymbolTableRecord
100
AcDbLinetypeTableRecord
  2
DIVIDE
 70
     0
  3
Divide ____ . . ____ . . ____ . . ____ . . ____
 72
    65
 73
     6
 40
1.25
 49
0.5
 74
     0
 49
-0.25
 74
     0
 49
0.0
 74
     0
 49
-0.25
 74
     0
 49
0.0
 74
     0
 49
-0.25
 74
     0
  0
LTYPE
  5
927
330
5
100
AcDbSymbolTableRecord
100
AcDbLinetypeTableRecord
  2
DIVIDE2
 70
     0
  3
Divide (.5x) __..__..__..__..__..__..__..__.._
 72
    65
 73
     6
 40
0.625
 49
0.25
 74
     0
 49
-0.125
 74
     0
 49
0.0
 74
     0
 49
-0.125
 74
     0
 49
0.0
 74
     0
 49
-0.125
 74
     0
  0
LTYPE
  5
928
330
5
100
AcDbSymbolTableRecord
100
AcDbLinetypeTableRecord
  2
DIVIDEX2
 70
     0
  3
Divide (2x) ________  .  .  ________  .  .  _
 72
    65
 73
     6
 40
2.5
 49
1.0
 74
     0
 49
-0.5
 74
     0
 49
0.0
 74
     0
 49
-0.5
 74
     0
 49
0.0
 74
     0
 49
-0.5
 74
     0
  0
LTYPE
  5
929
330
5
100
AcDbSymbolTableRecord
100
AcDbLinetypeTableRecord
  2
DOT
 70
     0
  3
Dot . . . . . . . . . . . . . . . . . . . . . .
 72
    65
 73
     2
 40
0.25
 49
0.0
 74
     0
 49
-0.25
 74
     0
  0
LTYPE
  5
92A
330
5
100
AcDbSymbolTableRecord
100
AcDbLinetypeTableRecord
  2
DOT2
 70
     0
  3
Dot (.5x) .....................................
 72
    65
 73
     2
 40
0.125
 49
0.0
 74
     0
 49
-0.125
 74
     0
  0
LTYPE
  5
92B
330
5
100
AcDbSymbolTableRecord
100
AcDbLinetypeTableRecord
  2
DOTX2
 70
     0
  3
Dot (2x) .  .  .  .  .  .  .  .  .  .  .  .  . 
 72
    65
 73
     2
 40
0.5
 49
0.0
 74
     0
 49
-0.5
 74
     0
  0
LTYPE
  5
92C
330
5
100
AcDbSymbolTableRecord
100
AcDbLinetypeTableRecord
  2
GAS_LINE
 70
     0
  3
Gas line ----GAS----GAS----GAS----GAS----GAS---
 72
    65
 73
     3
 40
0.95
 49
0.5
 74
     0
 49
-0.2
 74
     2
 75
     0
340
11
 46
0.1
 50
0.0
 44
-0.1
 45
-0.05
  9
GAS
 49
-0.25
 74
     0
  0
LTYPE
  5
92D
330
5
100
AcDbSymbolTableRecord
100
AcDbLinetypeTableRecord
  2
HIDDEN2
 70
     0
  3
Hidden (.5x) _ _ _ _ _ _ _ _ _ _ _ _ _ _ _ _ _
 72
    65
 73
     2
 40
0.1875
 49
0.125
 74
     0
 49
-0.0625
 74
     0
  0
LTYPE
  5
92E
330
5
100
AcDbSymbolTableRecord
100
AcDbLinetypeTableRecord
  2
HIDDENX2
 70
     0
  3
Hidden (2x) ____ ____ ____ ____ ____ ____ ____
 72
    65
 73
     2
 40
0.75
 49
0.5
 74
     0
 49
-0.25
 74
     0
  0
LTYPE
  5
92F
330
5
100
AcDbSymbolTableRecord
100
AcDbLinetypeTableRecord
  2
PHANTOM
 70
     0
  3
Phantom ______  __  __  ______  __  __  ______
 72
    65
 73
     6
 40
2.5
 49
1.25
 74
     0
 49
-0.25
 74
     0
 49
0.25
 74
     0
 49
-0.25
 74
     0
 49
0.25
 74
     0
 49
-0.25
 74
     0
  0
LTYPE
  5
930
330
5
100
AcDbSymbolTableRecord
100
AcDbLinetypeTableRecord
  2
PHANTOMX2
 70
     0
  3
Phantom (2x) ____________    ____    ____   _
 72
    65
 73
     6
 40
5.0
 49
2.5
 74
     0
 49
-0.5
 74
     0
 49
0.5
 74
     0
 49
-0.5
 74
     0
 49
0.5
 74
     0
 49
-0.5
 74
     0
  0
LTYPE
  5
931
330
5
100
AcDbSymbolTableRecord
100
AcDbLinetypeTableRecord
  2
ZIGZAG
 70
     0
  3
Zig zag /\/\/\/\/\/\/\/\/\/\/\/\/\/\/\/\/\/\/\/
 72
    65
 73
     4
 40
0.8001000000000001
 49
0.0001
 74
     0
 49
-0.2
 74
     4
 75
   131
340
945
 46
0.2
 50
0.0
 44
-0.2
 45
0.0
 49
-0.4
 74
     4
 75
   131
340
945
 46
0.2
 50
180.0
 44
0.2
 45
0.0
 49
-0.2
 74
     0
  0
LTYPE
  5
932
330
5
100
AcDbSymbolTableRecord
100
AcDbLinetypeTableRecord
  2
CPFLEX
 70
     0
  3
CP flex /\/\/\/\/\/\/\/\/\/\/\/\/\/\/\/\/\/\/\/
 72
    65
 73
     4
 40
0.8001000000000001
 49
0.0001
 74
     0
 49
-0.2
 74
     4
 75
   131
340
945
 46
0.2
 50
0.0
 44
-0.2
 45
0.0
 49
-0.4
 74
     4
 75
   131
340
945
 46
0.2
 50
180.0
 44
0.2
 45
0.0
 49
-0.2
 74
     0
  0
LTYPE
  5
933
330
5
100
AcDbSymbolTableRecord
100
AcDbLinetypeTableRecord
  2
CIRC
 70
     0
  3
 ----- ~ ----- ~ ---- ~ -----
 72
    65
 73
     3
 40
9.0
 49
7.0
 74
     0
 49
-1.0
 74
     2
 75
     0
340
11
 46
1.0
 50
0.0
 44
-0.3
 45
-0.6
  9
~
 49
-1.0
 74
     0
  0
LTYPE
  5
934
330
5
100
AcDbSymbolTableRecord
100
AcDbLinetypeTableRecord
  2
DN 010
 70
     0
  3
 DN10  ---- 10 ---- 10 ---- 10 ----
 72
    65
 73
     3
 40
9.0
 49
5.0
 74
     0
 49
-2.0
 74
     2
 75
     0
340
11
 46
1.0
 50
0.0
 44
-0.5
 45
-0.5
  9
10
 49
-2.0
 74
     0
  0
LTYPE
  5
935
330
5
100
AcDbSymbolTableRecord
100
AcDbLinetypeTableRecord
  2
DN 015
 70
     0
  3
 DN15  ---- 15 ---- 15 ---- 15 ----
 72
    65
 73
     3
 40
9.0
 49
5.0
 74
     0
 49
-2.0
 74
     2
 75
     0
340
11
 46
1.0
 50
0.0
 44
-0.5
 45
-0.5
  9
15
 49
-2.0
 74
     0
  0
LTYPE
  5
936
330
5
100
AcDbSymbolTableRecord
100
AcDbLinetypeTableRecord
  2
DN 020
 70
     0
  3
 DN20  ---- 20 ---- 20 ---- 20 ----
 72
    65
 73
     3
 40
9.0
 49
5.0
 74
     0
 49
-2.0
 74
     2
 75
     0
340
11
 46
1.0
 50
0.0
 44
-0.5
 45
-0.5
  9
20
 49
-2.0
 74
     0
  0
LTYPE
  5
937
330
5
100
AcDbSymbolTableRecord
100
AcDbLinetypeTableRecord
  2
DN 025
 70
     0
  3
 DN25  ---- 25 ---- 25 ---- 25 ----
 72
    65
 73
     3
 40
9.0
 49
5.0
 74
     0
 49
-2.0
 74
     2
 75
     0
340
11
 46
1.0
 50
0.0
 44
-0.5
 45
-0.5
  9
25
 49
-2.0
 74
     0
  0
LTYPE
  5
938
330
5
100
AcDbSymbolTableRecord
100
AcDbLinetypeTableRecord
  2
DN 032
 70
     0
  3
 DN32  ---- 32 ---- 32 ---- 32 ----
 72
    65
 73
     3
 40
9.0
 49
5.0
 74
     0
 49
-2.0
 74
     2
 75
     0
340
11
 46
1.0
 50
0.0
 44
-0.5
 45
-0.5
  9
32
 49
-2.0
 74
     0
  0
LTYPE
  5
939
330
5
100
AcDbSymbolTableRecord
100
AcDbLinetypeTableRecord
  2
DN 040
 70
     0
  3
 DN40  ---- 40 ---- 40 ---- 40 ----
 72
    65
 73
     3
 40
9.0
 49
5.0
 74
     0
 49
-2.0
 74
     2
 75
     0
340
11
 46
1.0
 50
0.0
 44
-0.5
 45
-0.5
  9
40
 49
-2.0
 74
     0
  0
LTYPE
  5
93A
330
5
100
AcDbSymbolTableRecord
100
AcDbLinetypeTableRecord
  2
DN 050
 70
     0
  3
 DN50  ---- 50 ---- 50 ---- 50 ----
 72
    65
 73
     3
 40
9.0
 49
5.0
 74
     0
 49
-2.0
 74
     2
 75
     0
340
11
 46
1.0
 50
0.0
 44
-0.5
 45
-0.5
  9
50
 49
-2.0
 74
     0
  0
LTYPE
  5
93B
330
5
100
AcDbSymbolTableRecord
100
AcDbLinetypeTableRecord
  2
DN 065
 70
     0
  3
 DN65  ---- 65 ---- 65 ---- 65 ----
 72
    65
 73
     3
 40
9.0
 49
5.0
 74
     0
 49
-2.0
 74
     2
 75
     0
340
11
 46
1.0
 50
0.0
 44
-0.5
 45
-0.5
  9
65
 49
-2.0
 74
     0
  0
LTYPE
  5
93C
330
5
100
AcDbSymbolTableRecord
100
AcDbLinetypeTableRecord
  2
DN 080
 70
     0
  3
 DN80  ---- 80 ---- 80 ---- 80 ----
 72
    65
 73
     3
 40
9.0
 49
5.0
 74
     0
 49
-2.0
 74
     2
 75
     0
340
11
 46
1.0
 50
0.0
 44
-0.5
 45
-0.5
  9
80
 49
-2.0
 74
     0
  0
LTYPE
  5
93D
330
5
100
AcDbSymbolTableRecord
100
AcDbLinetypeTableRecord
  2
DN 100
 70
     0
  3
 DN100 ---- 100 --- 100 --- 100 ---
 72
    65
 73
     3
 40
9.0
 49
5.0
 74
     0
 49
-2.0
 74
     2
 75
     0
340
11
 46
1.0
 50
0.0
 44
-1.0
 45
-0.5
  9
100
 49
-2.0
 74
     0
  0
LTYPE
  5
93E
330
5
100
AcDbSymbolTableRecord
100
AcDbLinetypeTableRecord
  2
DN 125
 70
     0
  3
 DN125 ---- 125 --- 125 --- 125 ---
 72
    65
 73
     3
 40
9.0
 49
5.0
 74
     0
 49
-2.0
 74
     2
 75
     0
340
11
 46
1.0
 50
0.0
 44
-1.0
 45
-0.5
  9
125
 49
-2.0
 74
     0
  0
LTYPE
  5
93F
330
5
100
AcDbSymbolTableRecord
100
AcDbLinetypeTableRecord
  2
DN 150
 70
     0
  3
 DN150 ---- 150 --- 150 --- 150 ---
 72
    65
 73
     3
 40
9.0
 49
5.0
 74
     0
 49
-2.0
 74
     2
 75
     0
340
11
 46
1.0
 50
0.0
 44
-1.0
 45
-0.5
  9
150
 49
-2.0
 74
     0
  0
LTYPE
  5
940
330
5
100
AcDbSymbolTableRecord
100
AcDbLinetypeTableRecord
  2
DN 200
 70
     0
  3
 DN200 ---- 200 --- 200 --- 200 ---
 72
    65
 73
     3
 40
9.0
 49
5.0
 74
     0
 49
-2.0
 74
     2
 75
     0
340
11
 46
1.0
 50
0.0
 44
-1.0
 45
-0.5
  9
200
 49
-2.0
 74
     0
  0
LTYPE
  5
941
330
5
100
AcDbSymbolTableRecord
100
AcDbLinetypeTableRecord
  2
DN 250
 70
     0
  3
 DN250 ---- 250 --- 250 --- 250 ---
 72
    65
 73
     3
 40
9.0
 49
5.0
 74
     0
 49
-2.0
 74
     2
 75
     0
340
11
 46
1.0
 50
0.0
 44
-1.0
 45
-0.5
  9
250
 49
-2.0
 74
     0
  0
LTYPE
  5
942
330
5
100
AcDbSymbolTableRecord
100
AcDbLinetypeTableRecord
  2
DN 300
 70
     0
  3
 DN300 ---- 300 --- 300 --- 300 ---
 72
    65
 73
     3
 40
9.0
 49
5.0
 74
     0
 49
-2.0
 74
     2
 75
     0
340
11
 46
1.0
 50
0.0
 44
-1.0
 45
-0.5
  9
300
 49
-2.0
 74
     0
  0
LTYPE
  5
9EE
330
5
100
AcDbSymbolTableRecord
100
AcDbLinetypeTableRecord
  2
ACISOWELD
 70
     0
  3
_ _ _ _ _
 72
    65
 73
     2
 40
2.0
 49
2.0
 74
     0
 49
-1.0
 74
     0
  0
LTYPE
  5
9F1
330
5
100
AcDbSymbolTableRecord
100
AcDbLinetypeTableRecord
  2
ACISOTGB
 70
     0
  3
__ . . __ . .
 72
    65
 73
     6
 40
9.0
 49
4.0
 74
     0
 49
-1.0
 74
     0
 49
1.0
 74
     0
 49
-1.0
 74
     0
 49
1.0
 74
     0
 49
-1.0
 74
     0
  0
LTYPE
  5
9F2
330
5
100
AcDbSymbolTableRecord
100
AcDbLinetypeTableRecord
  2
ACISOTGL
 70
     0
  3
_ _ _ _ _
 72
    65
 73
     2
 40
3.0
 49
2.0
 74
     0
 49
-1.0
 74
     0
  0
ENDTAB
  0
TABLE
  2
LAYER
  5
2
330
0
100
AcDbSymbolTable
 70
    11
  0
LAYER
  5
10
330
2
100
AcDbSymbolTableRecord
100
AcDbLayerTableRecord
  2
0
 70
     0
 62
     7
  6
Continuous
370
    -3
390
F
  0
LAYER
  5
F0
330
2
100
AcDbSymbolTableRecord
100
AcDbLayerTableRecord
  2
AM_5
 70
     0
 62
     3
  6
Continuous
370
    25
390
F
  0
LAYER
  5
2CC
330
2
100
AcDbSymbolTableRecord
100
AcDbLayerTableRecord
  2
AM_0
 70
     0
 62
     7
  6
Continuous
370
    50
390
F
  0
LAYER
  5
2CD
330
2
100
AcDbSymbolTableRecord
100
AcDbLayerTableRecord
  2
UMRISS05
 70
     0
 62
     7
  6
Continuous
370
    -3
390
F
  0
LAYER
  5
2CE
330
2
100
AcDbSymbolTableRecord
100
AcDbLayerTableRecord
  2
6
 70
     0
 62
     2
  6
Continuous
370
    -3
390
F
  0
LAYER
  5
2CF
330
2
100
AcDbSymbolTableRecord
100
AcDbLayerTableRecord
  2
AM_7
 70
     0
 62
     4
  6
AM_DIN_G_W050
370
    25
390
F
  0
LAYER
  5
2D0
330
2
100
AcDbSymbolTableRecord
100
AcDbLayerTableRecord
  2
AM_4
 70
     0
 62
     3
  6
Continuous
370
    25
390
F
  0
LAYER
  5
2D1
330
2
100
AcDbSymbolTableRecord
100
AcDbLayerTableRecord
  2
Defpoints
 70
     0
 62
     7
  6
Continuous
290
     0
370
    -3
390
F
  0
LAYER
  5
2D2
330
2
100
AcDbSymbolTableRecord
100
AcDbLayerTableRecord
  2
OBERTEIL
 70
     0
 62
     7
  6
Continuous
370
    -3
390
F
  0
LAYER
  5
2D3
330
2
100
AcDbSymbolTableRecord
100
AcDbLayerTableRecord
  2
4
 70
     0
 62
     3
  6
Continuous
370
    -3
390
F
  0
LAYER
  5
2D4
330
2
100
AcDbSymbolTableRecord
100
AcDbLayerTableRecord
  2
DN50-0
 70
     0
 62
     7
  6
Continuous
370
    -3
390
F
  0
ENDTAB
  0
TABLE
  2
STYLE
  5
3
330
0
100
AcDbSymbolTable
 70
    17
  0
STYLE
  5
11
330
3
100
AcDbSymbolTableRecord
100
AcDbTextStyleTableRecord
  2
STANDARD
 70
     0
 40
0.0
 41
1.0
 50
0.0
 71
     0
 42
2.5
  3
ISOCP.SHX
  4

  0
STYLE
  5
A7
330
3
100
AcDbSymbolTableRecord
100
AcDbTextStyleTableRecord
  2

 70
     1
 40
0.0
 41
1.0
 50
0.0
 71
     0
 42
2.5
  3
ltypeshp.shx
  4

  0
STYLE
  5
AE
330
3
100
AcDbSymbolTableRecord
100
AcDbTextStyleTableRecord
  2
ACDINTS
 70
     0
 40
1.0
 41
1.0
 50
0.0
 71
     0
 42
2.5
  3
isocp.shx
  4

  0
STYLE
  5
BA
330
3
100
AcDbSymbolTableRecord
100
AcDbTextStyleTableRecord
  2
ACDINGDT
 70
     0
 40
0.0
 41
1.0
 50
0.0
 71
     0
 42
2.5
  3
amgdt.shx
  4

  0
STYLE
  5
23D
330
3
100
AcDbSymbolTableRecord
100
AcDbTextStyleTableRecord
  2
USER1
 70
     0
 40
0.0
 41
1.0
 50
0.0
 71
     0
 42
2.5
  3
TXT.SHX
  4

  0
STYLE
  5
23E
330
3
100
AcDbSymbolTableRecord
100
AcDbTextStyleTableRecord
  2
USER2
 70
     0
 40
0.0
 41
1.0
 50
0.0
 71
     0
 42
2.5
  3
SIMPLEX.SHX
  4

  0
STYLE
  5
23F
330
3
100
AcDbSymbolTableRecord
100
AcDbTextStyleTableRecord
  2
USER3
 70
     0
 40
0.0
 41
1.0
 50
0.0
 71
     0
 42
2.5
  3
ITALIC.SHX
  4

  0
STYLE
  5
943
330
3
100
AcDbSymbolTableRecord
100
AcDbTextStyleTableRecord
  2
Annotative
 70
     0
 40
0.0
 41
1.0
 50
0.0
 71
     0
 42
2.5
  3
ARIAL.TTF
  4

1001
AcadAnnotative
1000
AnnotativeData
1002
{
1070
     1
1070
     1
1002
}
1001
ACAD
1000
Arial
1071
       34
  0
STYLE
  5
944
330
3
100
AcDbSymbolTableRecord
100
AcDbTextStyleTableRecord
  2
CP_TXT
 70
     0
 40
0.0
 41
1.0
 50
0.0
 71
     0
 42
2.5
  3
ROMANS.SHX
  4

  0
STYLE
  5
945
330
3
100
AcDbSymbolTableRecord
100
AcDbTextStyleTableRecord
  2

 70
     1
 40
0.0
 41
1.0
 50
0.0
 71
     0
 42
2.5
  3
LTYPESHP.SHX
  4

  0
STYLE
  5
946
330
3
100
AcDbSymbolTableRecord
100
AcDbTextStyleTableRecord
  2
CP_ATTR
 70
     0
 40
0.0
 41
1.0
 50
0.0
 71
     0
 42
0.2
  3
ROMANS.SHX
  4

  0
STYLE
  5
947
330
3
100
AcDbSymbolTableRecord
100
AcDbTextStyleTableRecord
  2
CP_TXT_IT
 70
     0
 40
0.0
 41
1.0
 50
15.0
 71
     0
 42
2.5
  3
ROMANS.SHX
  4

  0
STYLE
  5
948
330
3
100
AcDbSymbolTableRecord
100
AcDbTextStyleTableRecord
  2
CP_TXTCON
 70
     0
 40
0.0
 41
0.8
 50
0.0
 71
     0
 42
2.5
  3
ROMANS.SHX
  4

  0
STYLE
  5
949
330
3
100
AcDbSymbolTableRecord
100
AcDbTextStyleTableRecord
  2
CP_TXTCON_IT
 70
     0
 40
0.0
 41
0.8
 50
15.0
 71
     0
 42
2.5
  3
ROMANS.SHX
  4

  0
STYLE
  5
9E8
330
3
100
AcDbSymbolTableRecord
100
AcDbTextStyleTableRecord
  2
ACISOTS
 70
     0
 40
1.0
 41
1.0
 50
0.0
 71
     0
 42
2.5
  3
isocp.shx
  4
bigfont.shx
  0
STYLE
  5
9EC
330
3
100
AcDbSymbolTableRecord
100
AcDbTextStyleTableRecord
  2
ACISOGDT
 70
     0
 40
0.0
 41
1.0
 50
0.0
 71
     0
 42
2.5
  3
amgdt.shx
  4
bigfont.shx
  0
ENDTAB
  0
TABLE
  2
VIEW
  5
6
330
0
100
AcDbSymbolTable
 70
     0
  0
ENDTAB
  0
TABLE
  2
UCS
  5
7
330
0
100
AcDbSymbolTable
 70
     0
  0
ENDTAB
  0
TABLE
  2
APPID
  5
9
330
0
100
AcDbSymbolTable
 70
    23
  0
APPID
  5
12
330
9
100
AcDbSymbolTableRecord
100
AcDbRegAppTableRecord
  2
ACAD
 70
     0
  0
APPID
  5
82
330
9
100
AcDbSymbolTableRecord
100
AcDbRegAppTableRecord
  2
MCAD_NO_VIS
 70
     0
  0
APPID
  5
83
330
9
100
AcDbSymbolTableRecord
100
AcDbRegAppTableRecord
  2
ACAD_TEMP_GRAPHIC
 70
     0
  0
APPID
  5
94
330
9
100
AcDbSymbolTableRecord
100
AcDbRegAppTableRecord
  2
ACATTRIBSERVICES
 70
     0
  0
APPID
  5
CF
330
9
100
AcDbSymbolTableRecord
100
AcDbRegAppTableRecord
  2
GENIUS_GENSCREG_15
 70
     0
  0
APPID
  5
D0
330
9
100
AcDbSymbolTableRecord
100
AcDbRegAppTableRecord
  2
GENIUS_GENOBJ-N-SDF_13
 70
     0
  0
APPID
  5
D1
330
9
100
AcDbSymbolTableRecord
100
AcDbRegAppTableRecord
  2
GENIUS_GENODEF_13
 70
     0
  0
APPID
  5
125
330
9
100
AcDbSymbolTableRecord
100
AcDbRegAppTableRecord
  2
AD_DRAW
 70
     0
  0
APPID
  5
143
330
9
100
AcDbSymbolTableRecord
100
AcDbRegAppTableRecord
  2
DESIGNERASSEMBLIES
 70
     0
  0
APPID
  5
148
330
9
100
AcDbSymbolTableRecord
100
AcDbRegAppTableRecord
  2
ACADM_DIM_EDIT
 70
     0
  0
APPID
  5
149
330
9
100
AcDbSymbolTableRecord
100
AcDbRegAppTableRecord
  2
AMDT_DM_ADJ
 70
     0
  0
APPID
  5
2D6
330
9
100
AcDbSymbolTableRecord
100
AcDbRegAppTableRecord
  2
GENIUS_GENDTOL_13
 70
     0
  0
APPID
  5
2D7
330
9
100
AcDbSymbolTableRecord
100
AcDbRegAppTableRecord
  2
GENIUS_GENOBJ-N-FIL_13
 70
     0
  0
APPID
  5
2D8
330
9
100
AcDbSymbolTableRecord
100
AcDbRegAppTableRecord
  2
GENIUS_GENOBJ-N-CEN_13
 70
     0
  0
APPID
  5
2D9
330
9
100
AcDbSymbolTableRecord
100
AcDbRegAppTableRecord
  2
GENIUS_GENREC_14
 70
     0
  0
APPID
  5
2DA
330
9
100
AcDbSymbolTableRecord
100
AcDbRegAppTableRecord
  2
GENIUS_GENOBJ-N-REC_13
 70
     0
  0
APPID
  5
94C
330
9
100
AcDbSymbolTableRecord
100
AcDbRegAppTableRecord
  2
ACAD_PSEXT
 70
     0
  0
APPID
  5
94D
330
9
100
AcDbSymbolTableRecord
100
AcDbRegAppTableRecord
  2
AcadAnnoPO
 70
     0
  0
APPID
  5
94E
330
9
100
AcDbSymbolTableRecord
100
AcDbRegAppTableRecord
  2
AcadAnnotative
 70
     0
  0
APPID
  5
94F
330
9
100
AcDbSymbolTableRecord
100
AcDbRegAppTableRecord
  2
ACAD_DSTYLE_DIMJAG
 70
     0
  0
APPID
  5
950
330
9
100
AcDbSymbolTableRecord
100
AcDbRegAppTableRecord
  2
ACAD_DSTYLE_DIMTALN
 70
     0
  0
APPID
  5
951
330
9
100
AcDbSymbolTableRecord
100
AcDbRegAppTableRecord
  2
ACAD_MLEADERVER
 70
     0
  0
APPID
  5
952
330
9
100
AcDbSymbolTableRecord
100
AcDbRegAppTableRecord
  2
DCO15
 70
     0
  0
ENDTAB
  0
TABLE
  2
DIMSTYLE
  5
A
330
0
100
AcDbSymbolTable
 70
    19
100
AcDbDimStyleTable
 71
     2
340
C2
340
27
  0
DIMSTYLE
105
27
330
A
100
AcDbSymbolTableRecord
100
AcDbDimStyleTableRecord
  2
ISO-25
 70
     0
 41
2.5
 42
0.625
 43
3.75
 44
1.25
 73
     0
 74
     0
 77
     1
 78
     8
140
2.5
141
2.5
143
0.03937007874016
147
0.625
171
     3
172
     1
271
     2
272
     2
274
     3
278
    44
283
     0
284
     8
340
11
  0
DIMSTYLE
105
C2
102
{ACAD_REACTORS
330
5DA
330
5DB
330
5DC
102
}
330
A
100
AcDbSymbolTableRecord
100
AcDbDimStyleTableRecord
  2
AM_DIN
 70
     0
  4
"
 41
2.5
 42
1.0
 43
10.0
 44
1.0
 47
0.1
 48
0.1
 73
     0
 74
     0
 77
     1
 78
     8
 79
     2
140
3.5
141
0.0
143
0.0393701
146
0.71
147
1.5
172
     1
176
   256
177
   256
178
     2
271
     2
272
     3
274
     4
283
     0
284
     8
340
11
371
    -1
372
    -1
  0
DIMSTYLE
105
C3
330
A
100
AcDbSymbolTableRecord
100
AcDbDimStyleTableRecord
  2
AM_DIN$3
 70
     0
  4
"
 41
2.5
 42
1.0
 43
10.0
 44
1.0
 47
0.1
 48
0.1
 73
     0
 77
     1
 78
     8
 79
     2
140
3.5
141
0.0
143
0.0393701
146
0.71
147
1.5
176
   256
177
   256
178
     2
271
     2
272
     3
274
     4
283
     0
284
     8
288
     1
289
     0
340
11
371
    -1
372
    -1
  0
DIMSTYLE
105
C4
330
A
100
AcDbSymbolTableRecord
100
AcDbDimStyleTableRecord
  2
AM_DIN$4
 70
     0
  4
"
 41
2.5
 42
1.0
 43
10.0
 44
1.0
 47
0.1
 48
0.1
 73
     0
 77
     1
 78
     8
 79
     2
140
3.5
141
0.0
143
0.0393701
146
0.71
147
1.5
176
   256
177
   256
178
     2
271
     2
272
     3
274
     4
283
     0
284
     8
288
     1
289
     0
340
11
371
    -1
372
    -1
  0
DIMSTYLE
105
C5
330
A
100
AcDbSymbolTableRecord
100
AcDbDimStyleTableRecord
  2
AM_DIN$6
 70
     0
  4
"
 41
2.5
 42
1.0
 43
10.0
 44
1.0
 47
0.1
 48
0.1
 73
     0
 74
     0
 78
     8
 79
     2
140
3.5
141
0.0
143
0.0393701
146
0.71
147
1.5
172
     1
176
   256
177
   256
178
     2
271
     2
272
     3
274
     4
283
     0
284
     8
340
11
371
    -1
372
    -1
  0
DIMSTYLE
105
C6
330
A
100
AcDbSymbolTableRecord
100
AcDbDimStyleTableRecord
  2
AM_DIN$7
 70
     0
  4
"
 41
2.5
 42
1.0
 43
10.0
 44
1.0
 47
0.1
 48
0.1
 73
     0
 74
     0
 77
     1
 78
     8
 79
     2
140
5.0
141
0.0
143
0.0393701
146
0.71
147
1.5
172
     1
176
   256
177
   256
178
     2
271
     2
272
     3
274
     4
283
     0
284
     8
340
11
371
    -1
372
    -1
  0
DIMSTYLE
105
C7
330
A
100
AcDbSymbolTableRecord
100
AcDbDimStyleTableRecord
  2
AM_DIN$SF
 70
     0
  4
"
 41
2.5
 42
1.0
 43
10.0
 44
1.0
 47
0.1
 48
0.1
 73
     0
 74
     0
 75
     1
 76
     1
 77
     1
 78
     8
 79
     2
140
3.5
141
0.0
143
0.0393701
146
0.71
147
1.5
172
     1
176
   256
177
   256
178
     2
271
     2
272
     3
274
     4
283
     0
284
     8
340
11
371
    -1
372
    -1
  0
DIMSTYLE
105
CC
330
A
100
AcDbSymbolTableRecord
100
AcDbDimStyleTableRecord
  2
AM_DIN$SH
 70
     0
  4
"
 41
2.5
 42
1.0
 43
10.0
 44
1.0
 47
0.1
 48
0.1
 73
     0
 74
     0
 75
     1
 76
     1
 77
     1
 78
     8
 79
     2
140
3.5
141
0.0
143
0.0393701
144
2.0
146
0.71
147
1.5
172
     1
173
     1
176
   256
177
   256
178
     2
271
     2
272
     3
274
     4
283
     0
284
     8
340
11
343
C8
371
    -1
372
    -1
  0
DIMSTYLE
105
2D5
102
{ACAD_REACTORS
330
5EE
102
}
330
A
100
AcDbSymbolTableRecord
100
AcDbDimStyleTableRecord
  2
AM_DIN$0
 70
     0
  4
"
 40
1.5
 41
2.5
 42
1.0
 43
10.0
 44
1.0
 47
0.1
 48
0.1
 73
     0
 74
     0
 77
     1
 78
     8
 79
     2
140
3.5
141
0.0
143
0.0393701
146
0.71
147
1.5
172
     1
176
   256
177
   256
178
     2
271
     2
272
     3
283
     0
284
     8
340
11
371
    -1
372
    -1
  0
DIMSTYLE
105
94A
330
A
100
AcDbSymbolTableRecord
100
AcDbDimStyleTableRecord
  2
Standard
 70
     0
340
11
  0
DIMSTYLE
105
94B
330
A
100
AcDbSymbolTableRecord
100
AcDbDimStyleTableRecord
  2
Opisowy
 70
     0
 40
0.0
 41
2.5
 42
0.625
 43
3.75
 44
1.25
 73
     0
 74
     0
 77
     1
 78
     8
140
2.5
141
2.5
143
0.03937007874016
147
0.625
171
     3
172
     1
271
     2
272
     2
274
     3
278
    44
283
     0
284
     8
340
11
1001
AcadAnnotative
1000
AnnotativeData
1002
{
1070
     1
1070
     1
1002
}
1001
ACAD_DSTYLE_DIMJAG
1070
   388
1040
1.5
1001
ACAD_DSTYLE_DIMTALN
1070
   392
1070
     0
  0
DIMSTYLE
105
A03
330
A
100
AcDbSymbolTableRecord
100
AcDbDimStyleTableRecord
  2
AM_ISO
 70
     0
  4
"
 41
2.5
 42
1.0
 43
10.0
 44
1.0
 47
0.1
 48
0.1
 73
     0
 74
     0
 77
     1
 78
     8
 79
     2
140
3.5
141
0.0
143
0.0393701
146
0.71
147
1.5
172
     1
176
   256
177
   256
178
     2
271
     2
272
     3
274
     4
283
     0
284
     8
340
11
371
    -1
372
    -1
  0
DIMSTYLE
105
A04
330
A
100
AcDbSymbolTableRecord
100
AcDbDimStyleTableRecord
  2
AM_ISO$3
 70
     0
  4
"
 41
2.5
 42
1.0
 43
10.0
 44
1.0
 47
0.1
 48
0.1
 73
     0
 77
     1
 78
     8
 79
     2
140
3.5
141
0.0
143
0.0393701
146
0.71
147
1.5
176
   256
177
   256
178
     2
271
     2
272
     3
274
     4
283
     0
284
     8
288
     1
289
     0
340
11
371
    -1
372
    -1
  0
DIMSTYLE
105
A05
330
A
100
AcDbSymbolTableRecord
100
AcDbDimStyleTableRecord
  2
AM_ISO$4
 70
     0
  4
"
 41
2.5
 42
1.0
 43
10.0
 44
1.0
 47
0.1
 48
0.1
 73
     0
 77
     1
 78
     8
 79
     2
140
3.5
141
0.0
143
0.0393701
146
0.71
147
1.5
176
   256
177
   256
178
     2
271
     2
272
     3
274
     4
283
     0
284
     8
288
     1
289
     0
340
11
371
    -1
372
    -1
  0
DIMSTYLE
105
A06
330
A
100
AcDbSymbolTableRecord
100
AcDbDimStyleTableRecord
  2
AM_ISO$6
 70
     0
  4
"
 41
2.5
 42
1.0
 43
10.0
 44
1.0
 47
0.1
 48
0.1
 73
     0
 74
     0
 78
     8
 79
     2
140
3.5
141
0.0
143
0.0393701
146
0.71
147
1.5
172
     1
176
   256
177
   256
178
     2
271
     2
272
     3
274
     4
283
     0
284
     8
340
11
371
    -1
372
    -1
  0
DIMSTYLE
105
A07
330
A
100
AcDbSymbolTableRecord
100
AcDbDimStyleTableRecord
  2
AM_ISO$7
 70
     0
  4
"
 41
2.5
 42
1.0
 43
10.0
 44
1.0
 47
0.1
 48
0.1
 73
     0
 74
     0
 77
     1
 78
     8
 79
     2
140
5.0
141
0.0
143
0.0393701
146
0.71
147
1.5
172
     1
176
   256
177
   256
178
     2
271
     2
272
     3
274
     4
283
     0
284
     8
340
11
371
    -1
372
    -1
  0
DIMSTYLE
105
A08
330
A
100
AcDbSymbolTableRecord
100
AcDbDimStyleTableRecord
  2
AM_ISO$SF
 70
     0
  4
"
 41
2.5
 42
1.0
 43
10.0
 44
1.0
 47
0.1
 48
0.1
 73
     0
 74
     0
 75
     1
 76
     1
 77
     1
 78
     8
 79
     2
140
3.5
141
0.0
143
0.0393701
146
0.71
147
1.5
172
     1
176
   256
177
   256
178
     2
271
     2
272
     3
274
     4
283
     0
284
     8
340
11
371
    -1
372
    -1
  0
DIMSTYLE
105
A09
330
A
100
AcDbSymbolTableRecord
100
AcDbDimStyleTableRecord
  2
AM_ISO$SH
 70
     0
  4
"
 41
2.5
 42
1.0
 43
10.0
 44
1.0
 47
0.1
 48
0.1
 73
     0
 74
     0
 75
     1
 76
     1
 77
     1
 78
     8
 79
     2
140
3.5
141
0.0
143
0.0393701
144
2.0
146
0.71
147
1.5
172
     1
173
     1
176
   256
177
   256
178
     2
271
     2
272
     3
274
     4
283
     0
284
     8
340
11
343
C8
371
    -1
372
    -1
  0
ENDTAB
  0
TABLE
  2
BLOCK_RECORD
  5
1
330
0
100
AcDbSymbolTable
 70
     8
  0
BLOCK_RECORD
  5
1F
102
{ACAD_XDICTIONARY
360
D5
102
}
330
1
100
AcDbSymbolTableRecord
100
AcDbBlockTableRecord
  2
*Model_Space
340
22
  0
BLOCK_RECORD
  5
55
330
1
100
AcDbSymbolTableRecord
100
AcDbBlockTableRecord
  2
*Paper_Space
340
56
  0
BLOCK_RECORD
  5
50
330
1
100
AcDbSymbolTableRecord
100
AcDbBlockTableRecord
  2
*Paper_Space0
340
51
  0
BLOCK_RECORD
  5
C8
330
1
100
AcDbSymbolTableRecord
100
AcDbBlockTableRecord
  2
GENAXEH
340
0
  0
BLOCK_RECORD
  5
880
330
1
100
AcDbSymbolTableRecord
100
AcDbBlockTableRecord
  2
*D2
340
0
  0
BLOCK_RECORD
  5
88C
330
1
100
AcDbSymbolTableRecord
100
AcDbBlockTableRecord
  2
*D3
340
0
  0
BLOCK_RECORD
  5
898
330
1
100
AcDbSymbolTableRecord
100
AcDbBlockTableRecord
  2
*D4
340
0
  0
BLOCK_RECORD
  5
8A4
330
1
100
AcDbSymbolTableRecord
100
AcDbBlockTableRecord
  2
*D5
340
0
  0
ENDTAB
  0
ENDSEC
  0
SECTION
  2
BLOCKS
  0
BLOCK
  5
20
330
1F
100
AcDbEntity
  8
0
100
AcDbBlockBegin
  2
*Model_Space
 70
     0
 10
0.0
 20
0.0
 30
0.0
  3
*Model_Space
  1

  0
ENDBLK
  5
21
330
1F
100
AcDbEntity
  8
0
100
AcDbBlockEnd
  0
BLOCK
  5
57
330
55
100
AcDbEntity
 67
     1
  8
0
100
AcDbBlockBegin
  2
*Paper_Space
 70
     0
 10
0.0
 20
0.0
 30
0.0
  3
*Paper_Space
  1

  0
ENDBLK
  5
58
330
55
100
AcDbEntity
 67
     1
  8
0
100
AcDbBlockEnd
  0
BLOCK
  5
52
330
50
100
AcDbEntity
 67
     1
  8
0
100
AcDbBlockBegin
  2
*Paper_Space0
 70
     0
 10
0.0
 20
0.0
 30
0.0
  3
*Paper_Space0
  1

  0
VIEWPORT
  5
69
330
50
100
AcDbEntity
 67
     1
  8
0
100
AcDbViewport
 10
128.5
 20
97.5
 30
0.0
 40
384.7606204379562
 41
222.18
 68
     0
 69
     0
 12
128.5
 22
97.5
 13
0.0
 23
0.0
 14
10.0
 24
10.0
 15
10.0
 25
10.0
 16
0.0
 26
0.0
 36
1.0
 17
0.0
 27
0.0
 37
0.0
 42
50.0
 43
0.0
 44
0.0
 45
222.18
 50
0.0
 51
0.0
 72
   100
 90
    32800
  1

281
     0
 71
     1
 74
     0
110
0.0
120
0.0
130
0.0
111
1.0
121
0.0
131
0.0
112
0.0
122
1.0
132
0.0
 79
     0
146
0.0
170
     0
1001
GENIUS_GENOBJ-N-SDF_13
1002
{
1000
OWNER
1000
GEN
1002
}
1001
GENIUS_GENODEF_13
1002
{
1000
HIER
1070
     0
1002
}
1002
{
1000
MANEDIT
1070
     0
1002
}
1002
{
1000
NOSEL
1070
     0
1002
}
1002
{
1000
BEHIND
1070
     0
1002
}
1002
{
1000
OTHER
1070
     0
1002
}
1002
{
1000
REACTOR
1002
}
1001
GENIUS_GENSCREG_15
1000
PF
1040
1.0
1000
DF
1040
1.0
1000
MIN
1011
-63.88031021897808
1021
-13.59
1031
0.0
1000
MAX
1011
320.8803102189782
1021
208.59
1031
0.0
1000
FLAGS
1070
     2
  0
VIEWPORT
  5
6B
330
50
100
AcDbEntity
 67
     1
  8
0
100
AcDbViewport
 10
128.5
 20
97.5
 30
0.0
 40
205.6
 41
156.0
 68
     0
 69
     0
 12
210.0
 22
148.5
 13
0.0
 23
0.0
 14
10.0
 24
10.0
 15
10.0
 25
10.0
 16
0.0
 26
0.0
 36
1.0
 17
0.0
 27
0.0
 37
0.0
 42
50.0
 43
0.0
 44
0.0
 45
322.4558219652112
 50
0.0
 51
0.0
 72
   100
 90
    32864
  1

281
     0
 71
     1
 74
     0
110
0.0
120
0.0
130
0.0
111
1.0
121
0.0
131
0.0
112
0.0
122
1.0
132
0.0
 79
     0
146
0.0
170
     0
1001
GENIUS_GENOBJ-N-SDF_13
1002
{
1000
OWNER
1000
GEN
1002
}
1001
GENIUS_GENODEF_13
1002
{
1000
HIER
1070
     0
1002
}
1002
{
1000
MANEDIT
1070
     0
1002
}
1002
{
1000
NOSEL
1070
     0
1002
}
1002
{
1000
BEHIND
1070
     0
1002
}
1002
{
1000
OTHER
1070
     0
1002
}
1002
{
1000
REACTOR
1002
}
1001
GENIUS_GENSCREG_15
1000
PF
1040
0.0
1000
DF
1040
0.0
1000
MIN
1011
25.70000000000002
1021
19.5
1031
0.0
1000
MAX
1011
231.3
1021
175.5
1031
0.0
1000
FLAGS
1070
     2
  0
ENDBLK
  5
53
330
50
100
AcDbEntity
 67
     1
  8
0
100
AcDbBlockEnd
  0
BLOCK
  5
9E1
330
C8
100
AcDbEntity
  8
0
100
AcDbBlockBegin
  2
GENAXEH
 70
     0
 10
0.0
 20
0.0
 30
0.0
  3
GENAXEH
  1

  0
LINE
  5
9E2
330
C8
100
AcDbEntity
  8
0
100
AcDbLine
 10
-1.0
 20
0.0
 30
0.0
 11
1.0
 21
0.0
 31
0.0
  0
ENDBLK
  5
9E3
330
C8
100
AcDbEntity
  8
0
100
AcDbBlockEnd
  0
BLOCK
  5
88A
330
880
100
AcDbEntity
  8
0
100
AcDbBlockBegin
  2
*D2
 70
     1
 10
0.0
 20
0.0
 30
0.0
  3
*D2
  1

  0
LINE
  5
8B1
330
880
100
AcDbEntity
  8
AM_5
100
AcDbLine
 10
392.2340709036317
 20
428.2072947341227
 30
0.0
 11
276.622265927985
 21
428.2072947341227
 31
0.0
  0
LINE
  5
8B2
330
880
100
AcDbEntity
  8
AM_5
100
AcDbLine
 10
392.2340709036312
 20
172.2072947341228
 30
0.0
 11
276.622265927985
 21
172.2072947341228
 31
0.0
  0
LINE
  5
8B3
330
880
100
AcDbEntity
  8
AM_5
100
AcDbLine
 10
278.622265927985
 20
425.7072947341226
 30
0.0
 11
278.622265927985
 21
174.7072947341228
 31
0.0
  0
SOLID
  5
8B4
330
880
100
AcDbEntity
  8
AM_5
100
AcDbTrace
 10
278.2055992613183
 20
425.7072947341226
 30
0.0
 11
279.0389325946517
 21
425.7072947341226
 31
0.0
 12
278.622265927985
 22
428.2072947341227
 32
0.0
 13
278.622265927985
 23
428.2072947341227
 33
0.0
  0
SOLID
  5
8B5
330
880
100
AcDbEntity
  8
AM_5
100
AcDbTrace
 10
278.2055992613183
 20
174.7072947341228
 30
0.0
 11
279.0389325946517
 21
174.7072947341228
 31
0.0
 12
278.622265927985
 22
172.2072947341228
 32
0.0
 13
278.622265927985
 23
172.2072947341228
 33
0.0
  0
MTEXT
  5
8B6
330
880
100
AcDbEntity
  8
AM_5
 62
     2
100
AcDbMText
 10
275.3719214397959
 20
301.0258441272565
 30
0.0
 40
3.5
 41
0.0
 71
     5
 72
     1
  1
256 {}{\C2;%%p3}
 11
0.0000000000000001
 21
1.0
 31
0.0
 73
     1
 44
1.0
  0
POINT
  5
8B7
330
880
100
AcDbEntity
  8
Defpoints
 62
     0
100
AcDbPoint
 10
392.2340709036317
 20
428.2072947341227
 30
0.0
  0
POINT
  5
8B8
330
880
100
AcDbEntity
  8
Defpoints
 62
     0
100
AcDbPoint
 10
392.2340709036312
 20
172.2072947341228
 30
0.0
  0
POINT
  5
8B9
330
880
100
AcDbEntity
  8
Defpoints
 62
     0
100
AcDbPoint
 10
278.622265927985
 20
172.2072947341228
 30
0.0
  0
ENDBLK
  5
88B
330
880
100
AcDbEntity
  8
0
100
AcDbBlockEnd
  0
BLOCK
  5
896
330
88C
100
AcDbEntity
  8
0
100
AcDbBlockBegin
  2
*D3
 70
     1
 10
0.0
 20
0.0
 30
0.0
  3
*D3
  1

  0
LINE
  5
8BA
330
88C
100
AcDbEntity
  8
AM_5
100
AcDbLine
 10
381.0363655229425
 20
150.4028031141629
 30
0.0
 11
265.5022897348873
 21
150.4028031141629
 31
0.0
  0
LINE
  5
8BB
330
88C
100
AcDbEntity
  8
AM_5
100
AcDbLine
 10
387.3354681804823
 20
437.0478417620391
 30
0.0
 11
265.5022897348874
 21
437.0478417620391
 31
0.0
  0
LINE
  5
8BC
330
88C
100
AcDbEntity
  8
AM_5
100
AcDbLine
 10
267.5022897348873
 20
152.9028031141629
 30
0.0
 11
267.5022897348874
 21
434.5478417620391
 31
0.0
  0
SOLID
  5
8BD
330
88C
100
AcDbEntity
  8
AM_5
100
AcDbTrace
 10
267.0856230682206
 20
152.9028031141629
 30
0.0
 11
267.918956401554
 21
152.9028031141629
 31
0.0
 12
267.5022897348873
 22
150.4028031141629
 32
0.0
 13
267.5022897348873
 23
150.4028031141629
 33
0.0
  0
SOLID
  5
8BE
330
88C
100
AcDbEntity
  8
AM_5
100
AcDbTrace
 10
267.0856230682207
 20
434.5478417620391
 30
0.0
 11
267.918956401554
 21
434.5478417620391
 31
0.0
 12
267.5022897348874
 22
437.0478417620391
 32
0.0
 13
267.5022897348874
 23
437.0478417620391
 33
0.0
  0
MTEXT
  5
8BF
330
88C
100
AcDbEntity
  8
AM_5
 62
     2
100
AcDbMText
 10
264.2519452466983
 20
297.5855538952778
 30
0.0
 40
3.5
 41
0.0
 71
     5
 72
     1
  1
286 {}{\C2;%%p5}
 11
0.0000000000000001
 21
1.0
 31
0.0
 73
     1
 44
1.0
  0
POINT
  5
8C0
330
88C
100
AcDbEntity
  8
Defpoints
 62
     0
100
AcDbPoint
 10
381.0363655229425
 20
150.4028031141629
 30
0.0
  0
POINT
  5
8C1
330
88C
100
AcDbEntity
  8
Defpoints
 62
     0
100
AcDbPoint
 10
387.3354681804823
 20
437.0478417620391
 30
0.0
  0
POINT
  5
8C2
330
88C
100
AcDbEntity
  8
Defpoints
 62
     0
100
AcDbPoint
 10
267.5022897348874
 20
437.0478417620391
 30
0.0
  0
ENDBLK
  5
897
330
88C
100
AcDbEntity
  8
0
100
AcDbBlockEnd
  0
BLOCK
  5
8A2
330
898
100
AcDbEntity
  8
0
100
AcDbBlockBegin
  2
*D4
 70
     1
 10
0.0
 20
0.0
 30
0.0
  3
*D4
  1

  0
LINE
  5
8C3
330
898
100
AcDbEntity
  8
AM_5
100
AcDbLine
 10
289.2340709036393
 20
387.6541378356073
 30
0.0
 11
289.2340709036393
 21
361.3304051473079
 31
0.0
  0
LINE
  5
8C4
330
898
100
AcDbEntity
  8
AM_5
100
AcDbLine
 10
495.2340709036318
 20
387.6541378356046
 30
0.0
 11
495.2340709036318
 21
361.3304051473079
 31
0.0
  0
LINE
  5
8C5
330
898
100
AcDbEntity
  8
AM_5
100
AcDbLine
 10
291.7340709036393
 20
363.3304051473079
 30
0.0
 11
492.7340709036316
 21
363.3304051473079
 31
0.0
  0
SOLID
  5
8C6
330
898
100
AcDbEntity
  8
AM_5
100
AcDbTrace
 10
291.7340709036393
 20
363.7470718139746
 30
0.0
 11
291.7340709036393
 21
362.9137384806412
 31
0.0
 12
289.2340709036393
 22
363.3304051473079
 32
0.0
 13
289.2340709036393
 23
363.3304051473079
 33
0.0
  0
SOLID
  5
8C7
330
898
100
AcDbEntity
  8
AM_5
100
AcDbTrace
 10
492.7340709036316
 20
363.7470718139746
 30
0.0
 11
492.7340709036316
 21
362.9137384806412
 31
0.0
 12
495.2340709036318
 22
363.3304051473079
 32
0.0
 13
495.2340709036318
 23
363.3304051473079
 33
0.0
  0
MTEXT
  5
8C8
330
898
100
AcDbEntity
  8
AM_5
 62
     2
100
AcDbMText
 10
370.4932716689619
 20
366.5807496354969
 30
0.0
 40
3.5
 41
0.0
 71
     5
 72
     1
  1
ø206
 73
     1
 44
1.0
  0
POINT
  5
8C9
330
898
100
AcDbEntity
  8
Defpoints
 62
     0
100
AcDbPoint
 10
289.2340709036393
 20
387.6541378356073
 30
0.0
  0
POINT
  5
8CA
330
898
100
AcDbEntity
  8
Defpoints
 62
     0
100
AcDbPoint
 10
495.2340709036318
 20
387.6541378356046
 30
0.0
  0
POINT
  5
8CB
330
898
100
AcDbEntity
  8
Defpoints
 62
     0
100
AcDbPoint
 10
495.2340709036318
 20
363.3304051473079
 30
0.0
  0
ENDBLK
  5
8A3
330
898
100
AcDbEntity
  8
0
100
AcDbBlockEnd
  0
BLOCK
  5
8AF
330
8A4
100
AcDbEntity
  8
0
100
AcDbBlockBegin
  2
*D5
 70
     1
 10
0.0
 20
0.0
 30
0.0
  3
*D5
  1

  0
LINE
  5
8F3
330
8A4
100
AcDbEntity
  8
AM_5
100
AcDbLine
 10
379.7769733884439
 20
150.179258010649
 30
0.0
 11
379.7769733884439
 21
128.5218121949975
 31
0.0
  0
LINE
  5
8F4
330
8A4
100
AcDbEntity
  8
AM_5
100
AcDbLine
 10
404.691168418819
 20
150.179258010649
 30
0.0
 11
404.691168418819
 21
128.5218121949975
 31
0.0
  0
LINE
  5
8F5
330
8A4
100
AcDbEntity
  8
AM_5
100
AcDbLine
 10
383.5269733884439
 20
130.0218121949975
 30
0.0
 11
400.941168418819
 21
130.0218121949975
 31
0.0
  0
LINE
  5
8F6
330
8A4
100
AcDbEntity
  8
AM_5
100
AcDbLine
 10
404.691168418819
 20
130.0218121949975
 30
0.0
 11
462.816168418819
 21
130.0218121949975
 31
0.0
  0
SOLID
  5
8F7
330
8A4
100
AcDbEntity
  8
AM_5
100
AcDbTrace
 10
383.5269733884439
 20
130.6468121949975
 30
0.0
 11
383.5269733884439
 21
129.3968121949975
 31
0.0
 12
379.7769733884439
 22
130.0218121949975
 32
0.0
 13
379.7769733884439
 23
130.0218121949975
 33
0.0
  0
SOLID
  5
8F8
330
8A4
100
AcDbEntity
  8
AM_5
100
AcDbTrace
 10
400.941168418819
 20
130.6468121949975
 30
0.0
 11
400.941168418819
 21
129.3968121949975
 31
0.0
 12
404.691168418819
 22
130.0218121949975
 32
0.0
 13
404.691168418819
 23
130.0218121949975
 33
0.0
  0
MTEXT
  5
8F9
330
8A4
100
AcDbEntity
  8
AM_5
 62
     2
100
AcDbMText
 10
435.628668418819
 20
134.8973289272809
 30
0.0
 40
5.25
 41
0.0
 71
     5
 72
     1
  1
EN 10226-1 R3/4
 73
     1
 44
1.0
  0
POINT
  5
8FA
330
8A4
100
AcDbEntity
  8
Defpoints
 62
     0
100
AcDbPoint
 10
379.7769733884439
 20
151.679258010649
 30
0.0
  0
POINT
  5
8FB
330
8A4
100
AcDbEntity
  8
Defpoints
 62
     0
100
AcDbPoint
 10
404.691168418819
 20
151.679258010649
 30
0.0
  0
POINT
  5
8FC
330
8A4
100
AcDbEntity
  8
Defpoints
 62
     0
100
AcDbPoint
 10
404.691168418819
 20
130.0218121949975
 30
0.0
  0
ENDBLK
  5
8B0
330
8A4
100
AcDbEntity
  8
0
100
AcDbBlockEnd
  0
ENDSEC
  0
SECTION
  2
ENTITIES
  0
LINE
  5
5B4
330
1F
100
AcDbEntity
  8
AM_0
 62
     7
100
AcDbLine
 10
289.2340709036316
 20
303.7072947341229
 30
0.0
 11
289.2340709036316
 21
284.2974646778728
 31
0.0
  0
LINE
  5
5B5
330
1F
100
AcDbEntity
  8
AM_0
 62
     7
100
AcDbLine
 10
495.2340709036315
 20
303.7072947341223
 30
0.0
 11
495.2340709036315
 21
284.2974646778728
 31
0.0
  0
LINE
  5
5B6
330
1F
100
AcDbEntity
  8
AM_7
100
AcDbLine
 10
392.2340709036319
 20
459.9385196236084
 30
0.0
 11
392.2340709036311
 21
150.4028031141629
 31
0.0
  0
ARC
  5
5B7
330
1F
100
AcDbEntity
  8
AM_0
100
AcDbCircle
 10
392.2340709036318
 20
379.4572947341229
 30
0.0
 40
207.25
100
AcDbArc
 50
244.0426317165013
 51
267.5111014427195
  0
LINE
  5
5B8
330
1F
100
AcDbEntity
  8
AM_0
 62
     7
100
AcDbLine
 10
289.2340709036316
 20
273.1171247903738
 30
0.0
 11
289.2340709036314
 21
212.7604516326416
 31
0.0
  0
ARC
  5
5B9
330
1F
100
AcDbEntity
  8
AM_0
100
AcDbCircle
 10
311.0840709036317
 20
212.760451632641
 30
0.0
 40
21.85
100
AcDbArc
 50
180.0
 51
244.0426317165013
1001
GENIUS_GENODEF_13
1002
{
1000
HIER
1070
     0
1002
}
1002
{
1000
MANEDIT
1070
     0
1002
}
1002
{
1000
NOSEL
1070
     0
1002
}
1002
{
1000
BEHIND
1070
     0
1002
}
1002
{
1000
REACTOR
1002
}
1001
GENIUS_GENOBJ-N-FIL_13
1002
{
1000
OWNER
1000
GEN
1002
}
  0
ARC
  5
5BA
330
1F
100
AcDbEntity
  8
AM_0
100
AcDbCircle
 10
291.7340709036311
 20
278.7072947341238
 30
0.0
 40
5.0
100
AcDbArc
 50
131.8103148957755
 51
228.1896851042244
  0
ARC
  5
5BB
330
1F
100
AcDbEntity
  8
AM_0
100
AcDbCircle
 10
286.734070903632
 20
273.1171247903738
 30
0.0
 40
2.5
100
AcDbArc
 50
0.0
 51
48.18968510422442
1001
GENIUS_GENODEF_13
1002
{
1000
HIER
1070
     0
1002
}
1002
{
1000
MANEDIT
1070
     0
1002
}
1002
{
1000
NOSEL
1070
     0
1002
}
1002
{
1000
BEHIND
1070
     0
1002
}
1002
{
1000
OTHER
1070
     0
1002
}
1002
{
1000
REACTOR
1002
}
1001
GENIUS_GENOBJ-N-FIL_13
1002
{
1000
OWNER
1000
GEN
1002
}
  0
ARC
  5
5BC
330
1F
100
AcDbEntity
  8
AM_0
100
AcDbCircle
 10
286.7340709036311
 20
284.2974646778728
 30
0.0
 40
2.5
100
AcDbArc
 50
311.8103148958021
 51
0.0
1001
GENIUS_GENOBJ-N-FIL_13
1002
{
1000
OWNER
1000
GEN
1002
}
1001
GENIUS_GENODEF_13
1002
{
1000
HIER
1070
     0
1002
}
1002
{
1000
MANEDIT
1070
     0
1002
}
1002
{
1000
NOSEL
1070
     0
1002
}
1002
{
1000
BEHIND
1070
     0
1002
}
1002
{
1000
OTHER
1070
     0
1002
}
1002
{
1000
REACTOR
1002
}
  0
ARC
  5
5BD
330
1F
100
AcDbEntity
  8
AM_0
100
AcDbCircle
 10
473.3840709036319
 20
212.7604516326407
 30
0.0
 40
21.85
100
AcDbArc
 50
295.9573682834918
 51
0.0
1001
GENIUS_GENODEF_13
1002
{
1000
HIER
1070
     0
1002
}
1002
{
1000
MANEDIT
1070
     0
1002
}
1002
{
1000
NOSEL
1070
     0
1002
}
1002
{
1000
BEHIND
1070
     0
1002
}
1002
{
1000
REACTOR
1002
}
1001
GENIUS_GENOBJ-N-FIL_13
1002
{
1000
OWNER
1000
GEN
1002
}
  0
ARC
  5
5BE
330
1F
100
AcDbEntity
  8
AM_0
100
AcDbCircle
 10
392.2340709036313
 20
220.9572947341227
 30
0.0
 40
207.25
100
AcDbArc
 50
64.04263171650135
 51
85.9580119300943
  0
ARC
  5
5BF
330
1F
100
AcDbEntity
  8
AM_0
100
AcDbCircle
 10
392.2340709036313
 20
220.9572947341227
 30
0.0
 40
207.25
100
AcDbArc
 50
94.03797047714226
 51
115.9573682834917
  0
LINE
  5
5C0
330
1F
100
AcDbEntity
  8
AM_0
100
AcDbLine
 10
289.2340709036306
 20
306.2752439265503
 30
0.0
 11
289.2340709036393
 21
387.6541378356073
 31
0.0
  0
ARC
  5
5C1
330
1F
100
AcDbEntity
  8
AM_0
100
AcDbCircle
 10
289.2340709036311
 20
303.7393455416912
 30
0.0
 40
1.0
100
AcDbArc
 50
0.0
 51
30.00000000000125
1001
GENIUS_GENOBJ-N-FIL_13
1002
{
1000
OWNER
1000
GEN
1002
}
1001
GENIUS_GENODEF_13
1002
{
1000
HIER
1070
     0
1002
}
1002
{
1000
MANEDIT
1070
     0
1002
}
1002
{
1000
NOSEL
1070
     0
1002
}
1002
{
1000
BEHIND
1070
     0
1002
}
1002
{
1000
OTHER
1070
     0
1002
}
1002
{
1000
REACTOR
1002
}
  0
LINE
  5
5C2
330
1F
100
AcDbEntity
  8
AM_0
100
AcDbLine
 10
290.1000963074165
 20
304.2393455416903
 30
0.0
 11
289.5020200960625
 21
305.2752439265503
 31
0.0
  0
ARC
  5
5C3
330
1F
100
AcDbEntity
  8
AM_0
100
AcDbCircle
 10
291.2340709036311
 20
306.2752439265512
 30
0.0
 40
2.0
100
AcDbArc
 50
180.0
 51
210.0000000000012
1001
GENIUS_GENOBJ-N-FIL_13
1002
{
1000
OWNER
1000
GEN
1002
}
1001
GENIUS_GENODEF_13
1002
{
1000
HIER
1070
     0
1002
}
1002
{
1000
MANEDIT
1070
     0
1002
}
1002
{
1000
NOSEL
1070
     0
1002
}
1002
{
1000
BEHIND
1070
     0
1002
}
1002
{
1000
OTHER
1070
     0
1002
}
1002
{
1000
REACTOR
1002
}
  0
LINE
  5
5C4
330
1F
100
AcDbEntity
  8
AM_0
100
AcDbLine
 10
289.2340709036316
 20
303.7072947341229
 30
0.0
 11
290.2340709036316
 21
303.7072947341229
 31
0.0
  0
ARC
  5
5C5
330
1F
100
AcDbEntity
  8
AM_0
100
AcDbCircle
 10
311.0840709036322
 20
387.654137835605
 30
0.0
 40
21.85
100
AcDbArc
 50
115.9573682834917
 51
180.0
1001
GENIUS_GENODEF_13
1002
{
1000
HIER
1070
     0
1002
}
1002
{
1000
MANEDIT
1070
     0
1002
}
1002
{
1000
NOSEL
1070
     0
1002
}
1002
{
1000
BEHIND
1070
     0
1002
}
1002
{
1000
REACTOR
1002
}
1001
GENIUS_GENOBJ-N-FIL_13
1002
{
1000
OWNER
1000
GEN
1002
}
  0
LINE
  5
5C6
330
1F
100
AcDbEntity
  8
AM_0
 62
     7
100
AcDbLine
 10
495.2340709036318
 20
387.6541378356046
 30
0.0
 11
495.2340709036315
 21
306.2752439265512
 31
0.0
  0
ARC
  5
5C7
330
1F
100
AcDbEntity
  8
AM_0
100
AcDbCircle
 10
473.3840709036322
 20
387.6541378356046
 30
0.0
 40
21.85
100
AcDbArc
 50
0.0
 51
64.04263171650135
1001
GENIUS_GENODEF_13
1002
{
1000
HIER
1070
     0
1002
}
1002
{
1000
MANEDIT
1070
     0
1002
}
1002
{
1000
NOSEL
1070
     0
1002
}
1002
{
1000
BEHIND
1070
     0
1002
}
1002
{
1000
REACTOR
1002
}
1001
GENIUS_GENOBJ-N-FIL_13
1002
{
1000
OWNER
1000
GEN
1002
}
  0
ARC
  5
5C8
330
1F
100
AcDbEntity
  8
AM_0
100
AcDbCircle
 10
392.2340709036318
 20
379.4572947341229
 30
0.0
 40
207.25
100
AcDbArc
 50
272.4888985572739
 51
295.9573682834918
  0
LINE
  5
5C9
330
1F
100
AcDbEntity
  8
AM_0
100
AcDbLine
 10
403.4317762843202
 20
150.4028031141629
 30
0.0
 11
381.0363655229426
 21
150.4028031141629
 31
0.0
  0
LINE
  5
5CA
330
1F
100
AcDbEntity
  8
AM_0
100
AcDbLine
 10
406.1379246829706
 20
172.4028031141629
 30
0.0
 11
378.3302171242922
 21
172.4028031141629
 31
0.0
  0
LINE
  5
5CB
330
1F
100
AcDbEntity
  8
AM_0
100
AcDbLine
 10
379.7769733884439
 20
151.679258010649
 30
0.0
 11
378.3302171242922
 21
167.274259506768
 31
0.0
  0
LINE
  5
5CC
330
1F
100
AcDbEntity
  8
AM_4
100
AcDbLine
 10
379.7869977381443
 20
163.9943396801478
 30
0.0
 11
381.0363655229426
 21
150.4028031141629
 31
0.0
  0
LINE
  5
5CD
330
1F
100
AcDbEntity
  8
AM_0
100
AcDbLine
 10
381.0363655229426
 20
150.4028031141629
 30
0.0
 11
379.7769733884439
 21
151.679258010649
 31
0.0
  0
LINE
  5
5CE
330
1F
100
AcDbEntity
  8
AM_0
100
AcDbLine
 10
378.3302171242922
 20
167.274259506768
 30
0.0
 11
378.3302171242922
 21
172.4028031141629
 31
0.0
  0
LINE
  5
5CF
330
1F
100
AcDbEntity
  8
AM_4
100
AcDbLine
 10
379.7869977381443
 20
163.9943396801478
 30
0.0
 11
378.4148934526234
 21
166.3615090319777
 31
0.0
  0
LINE
  5
5D0
330
1F
100
AcDbEntity
  8
AM_4
100
AcDbLine
 10
404.6811440691184
 20
163.9943396801478
 30
0.0
 11
403.4317762843202
 21
150.4028031141629
 31
0.0
  0
LINE
  5
5D1
330
1F
100
AcDbEntity
  8
AM_0
100
AcDbLine
 10
404.691168418819
 20
151.679258010649
 30
0.0
 11
406.1379246829706
 21
167.274259506768
 31
0.0
  0
LINE
  5
5D2
330
1F
100
AcDbEntity
  8
AM_0
100
AcDbLine
 10
403.4317762843202
 20
150.4028031141629
 30
0.0
 11
404.691168418819
 21
151.679258010649
 31
0.0
  0
LINE
  5
5D3
330
1F
100
AcDbEntity
  8
AM_0
100
AcDbLine
 10
406.1379246829706
 20
167.274259506768
 30
0.0
 11
406.1379246829706
 21
172.4028031141629
 31
0.0
  0
LINE
  5
5D4
330
1F
100
AcDbEntity
  8
AM_4
100
AcDbLine
 10
404.6811440691184
 20
163.9943396801478
 30
0.0
 11
406.0532483546395
 21
166.3615090319777
 31
0.0
  0
LINE
  5
5D5
330
1F
100
AcDbEntity
  8
AM_0
100
AcDbLine
 10
495.2340709036315
 20
303.7072947341229
 30
0.0
 11
392.2340709036315
 21
303.7072947341229
 31
0.0
  0
LINE
  5
5D6
330
1F
100
AcDbEntity
  8
AM_0
100
AcDbLine
 10
494.3680454998466
 20
304.2393455416903
 30
0.0
 11
494.9661217112006
 21
305.2752439265503
 31
0.0
  0
ARC
  5
5D7
330
1F
100
AcDbEntity
  8
AM_0
100
AcDbCircle
 10
495.2340709036318
 20
303.7393455416912
 30
0.0
 40
1.0
100
AcDbArc
 50
149.9999999999966
 51
180.0
1001
GENIUS_GENOBJ-N-FIL_13
1002
{
1000
OWNER
1000
GEN
1002
}
1001
GENIUS_GENODEF_13
1002
{
1000
HIER
1070
     0
1002
}
1002
{
1000
MANEDIT
1070
     0
1002
}
1002
{
1000
NOSEL
1070
     0
1002
}
1002
{
1000
BEHIND
1070
     0
1002
}
1002
{
1000
OTHER
1070
     0
1002
}
1002
{
1000
REACTOR
1002
}
  0
ARC
  5
5D8
330
1F
100
AcDbEntity
  8
AM_0
100
AcDbCircle
 10
493.234070903632
 20
306.2752439265512
 30
0.0
 40
2.0
100
AcDbArc
 50
329.9999999999966
 51
0.0
1001
GENIUS_GENOBJ-N-FIL_13
1002
{
1000
OWNER
1000
GEN
1002
}
1001
GENIUS_GENODEF_13
1002
{
1000
HIER
1070
     0
1002
}
1002
{
1000
MANEDIT
1070
     0
1002
}
1002
{
1000
NOSEL
1070
     0
1002
}
1002
{
1000
BEHIND
1070
     0
1002
}
1002
{
1000
OTHER
1070
     0
1002
}
1002
{
1000
REACTOR
1002
}
  0
LINE
  5
5D9
330
1F
100
AcDbEntity
  8
AM_4
100
AcDbLine
 10
494.4008307921001
 20
305.7393455416862
 30
0.0
 11
392.2340709036315
 21
305.739345541686
 31
0.0
  0
DIMENSION
  5
5DA
330
1F
100
AcDbEntity
  8
AM_5
100
AcDbDimension
  2
*D2
 10
278.622265927985
 20
172.2072947341228
 30
0.0
 11
278.6222659279849
 21
301.0258441272565
 31
0.0
 70
   160
  1
<> {}{\C2;%%p3}
 71
     5
 42
255.9999999999999
  3
AM_DIN
100
AcDbAlignedDimension
 13
392.2340709036318
 23
428.2072947341227
 33
0.0
 14
392.2340709036312
 24
172.2072947341228
 34
0.0
 50
90.0
100
AcDbRotatedDimension
1001
GENIUS_GENDTOL_13
1000
TolPm
1000

1000
{$3%%p$P}
1040
256.0
1001
ACAD
1000
DSTYLE
1002
{
1070
    47
1040
3.0
1070
    48
1040
3.0
1002
}
  0
DIMENSION
  5
5DB
330
1F
100
AcDbEntity
  8
AM_5
100
AcDbDimension
  2
*D3
 10
267.5022897348874
 20
437.0478417620391
 30
0.0
 11
267.5022897348873
 21
297.5855538952778
 31
0.0
 70
   160
  1
286 {}{\C2;%%p5}
 71
     5
 42
286.6450386478763
  3
AM_DIN
100
AcDbAlignedDimension
 13
381.0363655229426
 23
150.4028031141629
 33
0.0
 14
387.3354681804824
 24
437.0478417620391
 34
0.0
 50
90.0
100
AcDbRotatedDimension
1001
ACAD
1000
DSTYLE
1002
{
1070
    47
1040
5.0
1070
    48
1040
5.0
1070
   271
1070
     0
1002
}
1001
GENIUS_GENDTOL_13
1000
TolPm
1000

1000
{$3%%p$P}
1040
286.0
  0
DIMENSION
  5
5DC
330
1F
100
AcDbEntity
  8
AM_5
100
AcDbDimension
  2
*D4
 10
495.2340709036318
 20
363.3304051473079
 30
0.0
 11
370.4932716689619
 21
363.3304051473079
 31
0.0
 70
   160
  1
ø<>
 71
     5
 42
205.9999999999925
  3
AM_DIN
100
AcDbAlignedDimension
 13
289.2340709036393
 23
387.6541378356073
 33
0.0
 14
495.2340709036318
 24
387.6541378356046
 34
0.0
100
AcDbRotatedDimension
  0
ARC
  5
5DD
330
1F
100
AcDbEntity
  8
AM_0
100
AcDbCircle
 10
497.7340709036313
 20
273.1171247903738
 30
0.0
 40
2.5
100
AcDbArc
 50
131.8103148957755
 51
180.0
1001
GENIUS_GENODEF_13
1002
{
1000
HIER
1070
     0
1002
}
1002
{
1000
MANEDIT
1070
     0
1002
}
1002
{
1000
NOSEL
1070
     0
1002
}
1002
{
1000
BEHIND
1070
     0
1002
}
1002
{
1000
OTHER
1070
     0
1002
}
1002
{
1000
REACTOR
1002
}
1001
GENIUS_GENOBJ-N-FIL_13
1002
{
1000
OWNER
1000
GEN
1002
}
  0
ARC
  5
5DE
330
1F
100
AcDbEntity
  8
AM_0
100
AcDbCircle
 10
492.7340709036322
 20
278.7072947341238
 30
0.0
 40
5.0
100
AcDbArc
 50
311.8103148957755
 51
48.18968510422442
  0
ARC
  5
5DF
330
1F
100
AcDbEntity
  8
AM_0
100
AcDbCircle
 10
497.7340709036321
 20
284.2974646778728
 30
0.0
 40
2.5
100
AcDbArc
 50
180.0
 51
228.1896851041979
1001
GENIUS_GENOBJ-N-FIL_13
1002
{
1000
OWNER
1000
GEN
1002
}
1001
GENIUS_GENODEF_13
1002
{
1000
HIER
1070
     0
1002
}
1002
{
1000
MANEDIT
1070
     0
1002
}
1002
{
1000
NOSEL
1070
     0
1002
}
1002
{
1000
BEHIND
1070
     0
1002
}
1002
{
1000
OTHER
1070
     0
1002
}
1002
{
1000
REACTOR
1002
}
  0
LINE
  5
5E0
330
1F
100
AcDbEntity
  8
AM_0
 62
     7
100
AcDbLine
 10
495.2340709036313
 20
273.1171247903738
 30
0.0
 11
495.2340709036312
 21
212.7604516326406
 31
0.0
  0
LINE
  5
5E1
330
1F
100
AcDbEntity
  8
AM_4
100
AcDbLine
 10
494.077691336889
 20
283.0374217530463
 30
0.0
 11
392.2340709036315
 21
283.0374217530463
 31
0.0
  0
LINE
  5
5E2
330
1F
100
AcDbEntity
  8
AM_4
100
AcDbLine
 10
494.077691336889
 20
274.3771677152012
 30
0.0
 11
392.2340709036315
 21
274.3771677152012
 31
0.0
  0
LINE
  5
5E3
330
1F
100
AcDbEntity
  8
AM_7
100
AcDbLine
 10
392.2340709036318
 20
460.6149464612419
 30
0.0
 11
392.2340709036316
 21
150.402803114163
 31
0.0
1001
GENIUS_GENOBJ-N-CEN_13
1002
{
1000
OWNER
1000
GEN
1002
}
1001
GENIUS_GENODEF_13
1002
{
1000
HIER
1070
     0
1002
}
1002
{
1000
MANEDIT
1070
     0
1002
}
1002
{
1000
NOSEL
1070
     0
1002
}
1002
{
1000
BEHIND
1070
     0
1002
}
1002
{
1000
OTHER
1070
     0
1002
}
1002
{
1000
REACTOR
1002
}
  0
LINE
  5
5E4
330
1F
100
AcDbEntity
  8
UMRISS05
100
AcDbLine
 10
387.3354681804824
 20
437.0478417620391
 30
0.0
 11
397.1940173268505
 21
437.0478417620391
 31
0.0
  0
LINE
  5
5E5
330
1F
100
AcDbEntity
  8
UMRISS05
100
AcDbLine
 10
387.3354681804824
 20
427.6928179359928
 30
0.0
 11
387.3354681804824
 21
437.0478417620391
 31
0.0
  0
LINE
  5
5E6
330
1F
100
AcDbEntity
  8
OBERTEIL
100
AcDbLine
 10
377.6400328589704
 20
427.6928179359928
 30
0.0
 11
392.2340709036318
 21
427.6928179359928
 31
0.0
  0
ARC
  5
5E7
330
1F
100
AcDbEntity
  8
UMRISS05
100
AcDbCircle
 10
392.1875084232735
 20
437.03267983388
 30
0.0
 40
1.539277951260048
100
AcDbArc
 50
0.5643740561916709
 51
179.4356259438083
  0
LINE
  5
5E8
330
1F
100
AcDbEntity
  8
UMRISS05
100
AcDbLine
 10
397.1940173268505
 20
437.0478417620391
 30
0.0
 11
397.1940173268505
 21
427.6917940905677
 31
0.0
  0
LINE
  5
5E9
330
1F
100
AcDbEntity
  8
OBERTEIL
100
AcDbLine
 10
392.2340709036318
 20
427.6917940905677
 30
0.0
 11
407.0826515506444
 21
427.6917940905677
 31
0.0
  0
LINE
  5
5EA
330
1F
100
AcDbEntity
  8
AM_0
100
AcDbLine
 10
289.2340709036314
 20
303.7072947341234
 30
0.0
 11
392.2340709036315
 21
303.7072947341229
 31
0.0
  0
LINE
  5
5EB
330
1F
100
AcDbEntity
  8
AM_4
100
AcDbLine
 10
290.0673110151627
 20
305.7393455416868
 30
0.0
 11
392.2340709036315
 21
305.7393455416861
 31
0.0
  0
LINE
  5
5EC
330
1F
100
AcDbEntity
  8
AM_4
100
AcDbLine
 10
290.3904504703739
 20
283.0374217530469
 30
0.0
 11
392.2340709036314
 21
283.0374217530464
 31
0.0
  0
LINE
  5
5ED
330
1F
100
AcDbEntity
  8
AM_4
100
AcDbLine
 10
290.3904504703738
 20
274.3771677152018
 30
0.0
 11
392.2340709036314
 21
274.3771677152013
 31
0.0
  0
DIMENSION
  5
5EE
330
1F
100
AcDbEntity
  8
AM_5
100
AcDbDimension
  2
*D5
 10
404.691168418819
 20
130.0218121949975
 30
0.0
 11
435.628668418819
 21
134.8973289272809
 31
0.0
 70
    32
  1
EN 10226-1 R3/4
 71
     5
 42
24.91419503037514
  3
AM_DIN$0
100
AcDbAlignedDimension
 13
379.7769733884439
 23
151.679258010649
 33
0.0
 14
404.691168418819
 24
151.679258010649
 34
0.0
100
AcDbRotatedDimension
  0
LINE
  5
5EF
330
1F
100
AcDbEntity
  8
0
100
AcDbLine
 10
378.3302171242922
 20
167.274259506768
 30
0.0
 11
406.1379246829706
 21
167.274259506768
 31
0.0
  0
LINE
  5
5F0
330
1F
100
AcDbEntity
  8
0
100
AcDbLine
 10
379.7769733884439
 20
151.679258010649
 30
0.0
 11
404.691168418819
 21
151.679258010649
 31
0.0
  0
LWPOLYLINE
  5
5F1
330
1F
100
AcDbEntity
  8
0
100
AcDbPolyline
 90
        4
 70
     1
 43
0.0
 10
185.1296106422253
 20
123.2232527045438
 10
669.8297916422253
 20
123.2232527045438
 10
669.8297916422253
 20
477.7926277045438
 10
185.1296106422253
 20
477.7926277045438
1001
GENIUS_GENREC_14
1002
{
1000
PYDIR
1011
185.1296106422253
1021
477.7926277045438
1031
0.0
1002
}
1002
{
1000
PXDIR
1011
669.8297916422253
1021
123.2232527045438
1031
0.0
1002
}
1002
{
1000
PORI
1011
185.1296106422253
1021
123.2232527045438
1031
0.0
1002
}
1002
{
1000
PINS
1011
185.1296106422253
1021
123.2232527045438
1031
0.0
1002
}
1002
{
1000
PINS2
1011
669.8297916422253
1021
477.7926277045438
1031
0.0
1002
}
1002
{
1000
C
1070
     1
1002
}
1001
GENIUS_GENODEF_13
1002
{
1000
HIER
1070
     0
1002
}
1002
{
1000
MANEDIT
1070
     0
1002
}
1002
{
1000
NOSEL
1070
     0
1002
}
1002
{
1000
BEHIND
1070
     0
1002
}
1002
{
1000
OTHER
1070
     0
1002
}
1002
{
1000
REACTOR
1002
}
1001
GENIUS_GENOBJ-N-REC_13
1002
{
1000
OWNER
1000
GEN
1002
}
  0
TEXT
  5
5F2
330
1F
100
AcDbEntity
  8
6
100
AcDbText
 10
585.1041076422253
 20
150.5096917045438
 30
0.0
 40
3.6
  1
Reflex Winkelmann GmbH
 41
0.95
 72
     1
 11
610.4121076422253
 21
150.5096917045438
 31
0.0
100
AcDbText
  0
TEXT
  5
5F3
330
1F
100
AcDbEntity
  8
0
100
AcDbText
 10
523.7051853151415
 20
152.9591967045439
 30
0.0
 40
5.0
  1
reflex NG
100
AcDbText
  0
TEXT
  5
5F4
330
1F
100
AcDbEntity
  8
0
100
AcDbText
 10
500.9481466422254
 20
162.4591967045438
 30
0.0
 40
5.0
  1
Druckausdehnungsgefäß
100
AcDbText
  0
TEXT
  5
5F5
330
1F
100
AcDbEntity
  8
DN50-0
100
AcDbText
 10
521.2640596422254
 20
142.9925107045438
 30
0.0
 40
5.0
  1
8 l  - 6 bar
100
AcDbText
  0
POLYLINE
  5
5F6
330
1F
100
AcDbEntity
  8
4
100
AcDb2dPolyline
 66
     1
 10
0.0
 20
0.0
 30
0.0
  0
VERTEX
  5
5F7
330
5F6
100
AcDbEntity
  8
4
100
AcDbVertex
100
AcDb2dVertex
 10
610.6095676422253
 20
165.128577704544
 30
0.0
  0
VERTEX
  5
5F8
330
5F6
100
AcDbEntity
  8
4
100
AcDbVertex
100
AcDb2dVertex
 10
610.6095676422253
 20
158.1418547045438
 30
0.0
  0
VERTEX
  5
5F9
330
5F6
100
AcDbEntity
  8
4
100
AcDbVertex
100
AcDb2dVertex
 10
612.2408796422253
 20
158.1418547045438
 30
0.0
  0
VERTEX
  5
5FA
330
5F6
100
AcDbEntity
  8
4
100
AcDbVertex
100
AcDb2dVertex
 10
612.2408796422253
 20
165.128577704544
 30
0.0
  0
VERTEX
  5
5FB
330
5F6
100
AcDbEntity
  8
4
100
AcDbVertex
100
AcDb2dVertex
 10
610.6095676422253
 20
165.128577704544
 30
0.0
  0
VERTEX
  5
5FC
330
5F6
100
AcDbEntity
  8
4
100
AcDbVertex
100
AcDb2dVertex
 10
610.6095676422253
 20
165.128577704544
 30
0.0
  0
SEQEND
  5
5FD
330
5F6
100
AcDbEntity
  8
4
  0
TEXT
  5
5FE
330
1F
100
AcDbEntity
  8
6
100
AcDbText
 10
597.2592572112621
 20
145.4590187045439
 30
0.0
 40
3.6
  1
59227 Ahlen
 72
     1
 11
610.4707856422256
 21
145.4590187045439
 31
0.0
100
AcDbText
  0
POLYLINE
  5
5FF
330
1F
100
AcDbEntity
  8
4
100
AcDb2dPolyline
 66
     1
 10
0.0
 20
0.0
 30
0.0
  0
VERTEX
  5
600
330
5FF
100
AcDbEntity
  8
4
100
AcDbVertex
100
AcDb2dVertex
 10
598.0844896422255
 20
155.9726167045439
 30
0.0
  0
VERTEX
  5
601
330
5FF
100
AcDbEntity
  8
4
100
AcDbVertex
100
AcDb2dVertex
 10
624.3246356422255
 20
155.9726167045439
 30
0.0
  0
VERTEX
  5
602
330
5FF
100
AcDbEntity
  8
4
100
AcDbVertex
100
AcDb2dVertex
 10
624.3246356422255
 20
156.217553704544
 30
0.0
  0
VERTEX
  5
603
330
5FF
100
AcDbEntity
  8
4
100
AcDbVertex
100
AcDb2dVertex
 10
598.0844896422255
 20
156.217553704544
 30
0.0
  0
VERTEX
  5
604
330
5FF
100
AcDbEntity
  8
4
100
AcDbVertex
100
AcDb2dVertex
 10
598.0844896422255
 20
155.9726167045439
 30
0.0
  0
VERTEX
  5
605
330
5FF
100
AcDbEntity
  8
4
100
AcDbVertex
100
AcDb2dVertex
 10
598.0844896422255
 20
155.9726167045439
 30
0.0
  0
SEQEND
  5
606
330
5FF
100
AcDbEntity
  8
4
  0
POLYLINE
  5
607
330
1F
100
AcDbEntity
  8
4
100
AcDb2dPolyline
 66
     1
 10
0.0
 20
0.0
 30
0.0
  0
VERTEX
  5
608
330
607
100
AcDbEntity
  8
4
100
AcDbVertex
100
AcDb2dVertex
 10
624.3246356422255
 20
166.7178717045437
 30
0.0
  0
VERTEX
  5
609
330
607
100
AcDbEntity
  8
4
100
AcDbVertex
100
AcDb2dVertex
 10
598.0844896422255
 20
166.7178717045437
 30
0.0
  0
VERTEX
  5
60A
330
607
100
AcDbEntity
  8
4
100
AcDbVertex
100
AcDb2dVertex
 10
598.0844896422255
 20
166.4729357045438
 30
0.0
  0
VERTEX
  5
60B
330
607
100
AcDbEntity
  8
4
100
AcDbVertex
100
AcDb2dVertex
 10
624.3246356422255
 20
166.4729357045438
 30
0.0
  0
VERTEX
  5
60C
330
607
100
AcDbEntity
  8
4
100
AcDbVertex
100
AcDb2dVertex
 10
624.3246356422255
 20
166.7178717045437
 30
0.0
  0
VERTEX
  5
60D
330
607
100
AcDbEntity
  8
4
100
AcDbVertex
100
AcDb2dVertex
 10
624.3246356422255
 20
166.7178717045437
 30
0.0
  0
SEQEND
  5
60E
330
607
100
AcDbEntity
  8
4
  0
POLYLINE
  5
60F
330
1F
100
AcDbEntity
  8
4
100
AcDb2dPolyline
 66
     1
 10
0.0
 20
0.0
 30
0.0
  0
VERTEX
  5
610
330
60F
100
AcDbEntity
  8
4
100
AcDbVertex
100
AcDb2dVertex
 10
598.0844896422255
 20
166.5954037045438
 30
0.0
  0
VERTEX
  5
611
330
60F
100
AcDbEntity
  8
4
100
AcDbVertex
100
AcDb2dVertex
 10
624.3246356422255
 20
166.5954037045438
 30
0.0
  0
VERTEX
  5
612
330
60F
100
AcDbEntity
  8
4
100
AcDbVertex
100
AcDb2dVertex
 10
624.5216496422252
 20
166.5705547045439
 30
0.0
  0
VERTEX
  5
613
330
60F
100
AcDbEntity
  8
4
100
AcDbVertex
100
AcDb2dVertex
 10
624.7080136422253
 20
166.5208577045438
 30
0.0
  0
VERTEX
  5
614
330
60F
100
AcDbEntity
  8
4
100
AcDbVertex
100
AcDb2dVertex
 10
624.8695296422254
 20
166.4214637045438
 30
0.0
  0
VERTEX
  5
615
330
60F
100
AcDbEntity
  8
4
100
AcDbVertex
100
AcDb2dVertex
 10
625.0186216422251
 20
166.309644704544
 30
0.0
  0
VERTEX
  5
616
330
60F
100
AcDbEntity
  8
4
100
AcDbVertex
100
AcDb2dVertex
 10
625.1428646422255
 20
166.1605527045438
 30
0.0
  0
VERTEX
  5
617
330
60F
100
AcDbEntity
  8
4
100
AcDbVertex
100
AcDb2dVertex
 10
625.2298356422254
 20
165.999036704544
 30
0.0
  0
VERTEX
  5
618
330
60F
100
AcDbEntity
  8
4
100
AcDbVertex
100
AcDb2dVertex
 10
625.2919566422254
 20
165.812671704544
 30
0.0
  0
VERTEX
  5
619
330
60F
100
AcDbEntity
  8
4
100
AcDbVertex
100
AcDb2dVertex
 10
625.3043806422254
 20
165.6156577045438
 30
0.0
  0
VERTEX
  5
61A
330
60F
100
AcDbEntity
  8
4
100
AcDbVertex
100
AcDb2dVertex
 10
625.3043806422254
 20
157.0624067045438
 30
0.0
  0
VERTEX
  5
61B
330
60F
100
AcDbEntity
  8
4
100
AcDbVertex
100
AcDb2dVertex
 10
625.2919566422254
 20
156.8653927045437
 30
0.0
  0
VERTEX
  5
61C
330
60F
100
AcDbEntity
  8
4
100
AcDbVertex
100
AcDb2dVertex
 10
625.2298356422254
 20
156.6914527045438
 30
0.0
  0
VERTEX
  5
61D
330
60F
100
AcDbEntity
  8
4
100
AcDbVertex
100
AcDb2dVertex
 10
625.1428646422255
 20
156.5175117045439
 30
0.0
  0
VERTEX
  5
61E
330
60F
100
AcDbEntity
  8
4
100
AcDbVertex
100
AcDb2dVertex
 10
625.0186216422251
 20
156.3808447045438
 30
0.0
  0
VERTEX
  5
61F
330
60F
100
AcDbEntity
  8
4
100
AcDbVertex
100
AcDb2dVertex
 10
624.8695296422254
 20
156.2566017045438
 30
0.0
  0
VERTEX
  5
620
330
60F
100
AcDbEntity
  8
4
100
AcDbVertex
100
AcDb2dVertex
 10
624.7080136422253
 20
156.169631704544
 30
0.0
  0
VERTEX
  5
621
330
60F
100
AcDbEntity
  8
4
100
AcDbVertex
100
AcDb2dVertex
 10
624.5216496422252
 20
156.1075097045438
 30
0.0
  0
VERTEX
  5
622
330
60F
100
AcDbEntity
  8
4
100
AcDbVertex
100
AcDb2dVertex
 10
624.3246356422255
 20
156.0950857045438
 30
0.0
  0
VERTEX
  5
623
330
60F
100
AcDbEntity
  8
4
100
AcDbVertex
100
AcDb2dVertex
 10
598.0844896422255
 20
156.0950857045438
 30
0.0
  0
VERTEX
  5
624
330
60F
100
AcDbEntity
  8
4
100
AcDbVertex
100
AcDb2dVertex
 10
597.8874746422254
 20
156.1075097045438
 30
0.0
  0
VERTEX
  5
625
330
60F
100
AcDbEntity
  8
4
100
AcDbVertex
100
AcDb2dVertex
 10
597.7135346422253
 20
156.169631704544
 30
0.0
  0
VERTEX
  5
626
330
60F
100
AcDbEntity
  8
4
100
AcDbVertex
100
AcDb2dVertex
 10
597.5395946422254
 20
156.2566017045438
 30
0.0
  0
VERTEX
  5
627
330
60F
100
AcDbEntity
  8
4
100
AcDbVertex
100
AcDb2dVertex
 10
597.4029266422253
 20
156.3808447045438
 30
0.0
  0
VERTEX
  5
628
330
60F
100
AcDbEntity
  8
4
100
AcDbVertex
100
AcDb2dVertex
 10
597.2786836422252
 20
156.5175117045439
 30
0.0
  0
VERTEX
  5
629
330
60F
100
AcDbEntity
  8
4
100
AcDbVertex
100
AcDb2dVertex
 10
597.1917136422253
 20
156.6914527045438
 30
0.0
  0
VERTEX
  5
62A
330
60F
100
AcDbEntity
  8
4
100
AcDbVertex
100
AcDb2dVertex
 10
597.1295916422254
 20
156.8653927045437
 30
0.0
  0
VERTEX
  5
62B
330
60F
100
AcDbEntity
  8
4
100
AcDbVertex
100
AcDb2dVertex
 10
597.1047436422253
 20
157.0624067045438
 30
0.0
  0
VERTEX
  5
62C
330
60F
100
AcDbEntity
  8
4
100
AcDbVertex
100
AcDb2dVertex
 10
597.1047436422253
 20
165.6156577045438
 30
0.0
  0
VERTEX
  5
62D
330
60F
100
AcDbEntity
  8
4
100
AcDbVertex
100
AcDb2dVertex
 10
597.1295916422254
 20
165.812671704544
 30
0.0
  0
VERTEX
  5
62E
330
60F
100
AcDbEntity
  8
4
100
AcDbVertex
100
AcDb2dVertex
 10
597.1917136422253
 20
165.999036704544
 30
0.0
  0
VERTEX
  5
62F
330
60F
100
AcDbEntity
  8
4
100
AcDbVertex
100
AcDb2dVertex
 10
597.2786836422252
 20
166.1605527045438
 30
0.0
  0
VERTEX
  5
630
330
60F
100
AcDbEntity
  8
4
100
AcDbVertex
100
AcDb2dVertex
 10
597.4029266422253
 20
166.309644704544
 30
0.0
  0
VERTEX
  5
631
330
60F
100
AcDbEntity
  8
4
100
AcDbVertex
100
AcDb2dVertex
 10
597.5395946422254
 20
166.4214637045438
 30
0.0
  0
VERTEX
  5
632
330
60F
100
AcDbEntity
  8
4
100
AcDbVertex
100
AcDb2dVertex
 10
597.7135346422253
 20
166.5208577045438
 30
0.0
  0
VERTEX
  5
633
330
60F
100
AcDbEntity
  8
4
100
AcDbVertex
100
AcDb2dVertex
 10
597.8874746422254
 20
166.5705547045439
 30
0.0
  0
VERTEX
  5
634
330
60F
100
AcDbEntity
  8
4
100
AcDbVertex
100
AcDb2dVertex
 10
598.0844896422255
 20
166.5954037045438
 30
0.0
  0
VERTEX
  5
635
330
60F
100
AcDbEntity
  8
4
100
AcDbVertex
100
AcDb2dVertex
 10
598.0844896422255
 20
166.5954037045438
 30
0.0
  0
SEQEND
  5
636
330
60F
100
AcDbEntity
  8
4
  0
HATCH
  5
637
330
1F
100
AcDbEntity
  8
4
100
AcDbHatch
 10
0.0
 20
0.0
 30
0.0
210
0.0
220
0.0
230
1.0
  2
SOLID
 70
     1
 71
     0
 91
       13
 92
        7
 72
     0
 73
     1
 93
        4
 10
597.227211679989
 20
165.615657868761
 10
597.1047434655238
 20
165.615657868761
 10
597.1047434655238
 20
157.0624067744451
 10
597.227211679989
 20
157.0624067744451
 97
        0
 92
        7
 72
     0
 73
     1
 93
        4
 10
624.32463530666
 20
156.2175535848013
 10
598.0844891812458
 20
156.2175535848013
 10
598.0844891812458
 20
156.0950853703357
 10
624.32463530666
 20
156.0950853703357
 97
        0
 92
        7
 72
     0
 73
     1
 93
        4
 10
624.32463530666
 20
166.5954035844826
 10
598.0844891812458
 20
166.5954035844826
 10
598.0844891812458
 20
166.4729353700176
 10
624.32463530666
 20
166.4729353700176
 97
        0
 92
        7
 72
     0
 73
     1
 93
        4
 10
625.4268492368471
 20
165.615657868761
 10
625.3043810223815
 20
165.615657868761
 10
625.3043810223815
 20
157.0624067744451
 10
625.4268492368471
 20
157.0624067744451
 97
        0
 92
        7
 72
     0
 73
     1
 93
       42
 10
597.7135347345327
 20
166.5208577148083
 10
597.8874750971065
 20
166.5705549612582
 10
598.0844891812458
 20
166.5954035844826
 10
598.0844891812453
 20
166.717871798948
 10
598.0294672298198
 20
166.7160968972891
 10
597.9744452783944
 20
166.7107721923125
 10
597.9194233269663
 20
166.7036725856765
 10
597.8644013755402
 20
166.6947980773818
 10
597.8111543257723
 20
166.6823737657697
 10
597.7596821776636
 20
166.6663996508397
 10
597.7082100295545
 20
166.64865063425
 10
597.6585127831054
 20
166.6291267160023
 10
597.6105904383151
 20
166.6078278960948
 10
597.5626680935247
 20
166.5829792728711
 10
597.5165206503925
 20
166.5563557479868
 10
597.4721481089264
 20
166.526182419785
 10
597.4295504691053
 20
166.4960090915838
 10
597.3869528292935
 20
166.4622859600635
 10
597.346130091137
 20
166.4285628285451
 10
597.3088571562986
 20
166.3912898937071
 10
597.2715842214618
 20
166.35224205721
 10
597.2378610899441
 20
166.3131942207162
 10
597.2041379584236
 20
166.2705965809021
 10
597.1739646302221
 20
166.2279989410857
 10
597.1437913020202
 20
166.1836263996135
 10
597.117167777136
 20
166.1374789564809
 10
597.0923191539116
 20
166.0895566116921
 10
597.0710203340054
 20
166.0416342669033
 10
597.0514964157569
 20
165.9919370204531
 10
597.033747399167
 20
165.9404648723411
 10
597.0177732842365
 20
165.8889927242332
 10
597.0053489726251
 20
165.8357456744672
 10
596.9964744643301
 20
165.7807237230396
 10
596.9893748576947
 20
165.7257017716124
 10
596.984050152718
 20
165.6706798201882
 10
596.9822752510593
 20
165.615657868761
 10
597.1047434655238
 20
165.615657868761
 10
597.1295920887492
 20
165.8126719529006
 10
597.1917136468107
 20
165.9990366270869
 10
597.2786838280986
 20
166.160552678049
 10
597.4029269442226
 20
166.3096444173972
 10
597.5395943719586
 20
166.4214632219095
 97
        0
 92
        7
 72
     0
 73
     1
 93
       42
 10
597.7543574726878
 20
166.405489106979
 10
597.7934053091835
 20
166.4196883202499
 10
597.8324531456799
 20
166.4338875335213
 10
597.8732758838344
 20
166.4463118451338
 10
597.9140986219898
 20
166.4551863534278
 10
597.9566962618039
 20
166.4640608617232
 10
597.999293901619
 20
166.4693855667
 10
598.0418915414316
 20
166.4729353700176
 10
598.0844891812458
 20
166.4729353700176
 10
598.0844891812453
 20
166.5954035844831
 10
597.8874750971065
 20
166.5705549612582
 10
597.7135347345327
 20
166.520857714808
 10
597.5395943719586
 20
166.4214632219088
 10
597.4029269442221
 20
166.3096444173968
 10
597.2786838280976
 20
166.1605526780485
 10
597.191713646811
 20
165.9990366270873
 10
597.1295920887492
 20
165.8126719529006
 10
597.1047434655238
 20
165.615657868761
 10
597.227211679989
 20
165.615657868761
 10
597.227211679989
 20
165.6582555085757
 10
597.2307614833074
 20
165.7008531483895
 10
597.2360861882839
 20
165.7434507882029
 10
597.244960696577
 20
165.7860484280217
 10
597.2538352048734
 20
165.8268711661721
 10
597.2662595164884
 20
165.8659190026726
 10
597.2786838280983
 20
165.9067417408236
 10
597.2946579430295
 20
165.9457895773195
 10
597.3124069596186
 20
165.9830625121553
 10
597.3319308778648
 20
166.0203354469935
 10
597.3532296977723
 20
166.0558334801723
 10
597.3745285176788
 20
166.0913315133506
 10
597.3993771409068
 20
166.1250546448739
 10
597.4242257641297
 20
166.1570028747321
 10
597.4526241906706
 20
166.1889511045899
 10
597.4810226172142
 20
166.2191244327924
 10
597.5111959454164
 20
166.2475228593345
 10
597.5431441752767
 20
166.2741463842188
 10
597.5750924051369
 20
166.3007699091028
 10
597.6088155366558
 20
166.3256185323273
 10
597.6443135698348
 20
166.3469173522346
 10
597.6798116030127
 20
166.3682161721418
 10
597.7170845378505
 20
166.3877400903896
 97
        0
 92
        7
 72
     0
 73
     1
 93
        4
 10
624.32463530666
 20
156.0950853703357
 10
598.0844891812458
 20
156.0950853703357
 10
598.0844891812458
 20
155.9726171558706
 10
624.32463530666
 20
155.9726171558706
 97
        0
 92
       22
 72
     0
 73
     1
 93
       42
 10
625.1428649714199
 20
156.5175119651573
 10
625.229835152707
 20
156.6914523277316
 10
625.2919567107694
 20
156.8653926903053
 10
625.3043810223815
 20
157.0624067744451
 10
625.1819128079164
 20
157.0624067744451
 10
625.1819128079164
 20
157.0198091346305
 10
625.1783630045983
 20
156.9772114948156
 10
625.173038299622
 20
156.9346138550024
 10
625.165938692986
 20
156.8920162151888
 10
625.15528928303
 20
156.8511934770246
 10
625.1446398730795
 20
156.8121456405382
 10
625.1304406598076
 20
156.7730978040418
 10
625.1162414465369
 20
156.7340499675466
 10
625.0984924299473
 20
156.6967770327084
 10
625.080743413358
 20
156.6595040978706
 10
625.0594445934519
 20
156.6257809663498
 10
625.0381457735443
 20
156.5902829331735
 10
625.0132971503197
 20
156.5583347033109
 10
624.9884485270943
 20
156.5246115717928
 10
624.9618250022113
 20
156.4944382435934
 10
624.9334265756665
 20
156.4660398170487
 10
624.903253247468
 20
156.4376413905068
 10
624.8730799192647
 20
156.4110178656224
 10
624.839356787746
 20
156.3861692423983
 10
624.8056336562251
 20
156.3613206191724
 10
624.7719105247036
 20
156.3400217992653
 10
624.7364124915288
 20
156.3187229793593
 10
624.699139556692
 20
156.300973962769
 10
624.6600917201954
 20
156.2832249461812
 10
624.6210438836993
 20
156.2690257329097
 10
624.5819960472031
 20
156.2548265196382
 10
624.5411733090466
 20
156.2441771096843
 10
624.498575669234
 20
156.2353026013903
 10
624.4559780294196
 20
156.2264280930955
 10
624.4133803896055
 20
156.2211033881188
 10
624.3690078481327
 20
156.2175535848013
 10
624.32463530666
 20
156.2175535848013
 10
624.32463530666
 20
156.0950853703357
 10
624.5216493907995
 20
156.1075096819481
 10
624.7080140649862
 20
156.1696312400104
 10
624.8695301159467
 20
156.2566014212972
 10
625.0186218552965
 20
156.3808445374218
 97
        0
 92
        7
 72
     0
 73
     1
 93
       42
 10
625.1748132012806
 20
156.3701951274681
 10
625.2085363328014
 20
156.4110178656232
 10
625.2387096610021
 20
156.4536155054358
 10
625.2671080875447
 20
156.4979880469099
 10
625.2937316124269
 20
156.5441354900391
 10
625.3185802356527
 20
156.5902829331743
 10
625.33987905556
 20
156.6382052779631
 10
625.3594029738088
 20
156.6879025244134
 10
625.377151990398
 20
156.7393746725237
 10
625.3913512036684
 20
156.7908468206282
 10
625.4037755152815
 20
156.8440938703996
 10
625.4144249252346
 20
156.8973409201657
 10
625.419749630211
 20
156.9523628715923
 10
625.4250743351875
 20
157.0073848230195
 10
625.4268492368471
 20
157.0624067744451
 10
625.3043810223815
 20
157.0624067744451
 10
625.2919567107694
 20
156.8653926903057
 10
625.229835152707
 20
156.6914523277311
 10
625.1428649714199
 20
156.517511965158
 10
625.0186218552965
 20
156.3808445374209
 10
624.8695301159467
 20
156.256601421297
 10
624.7080140649853
 20
156.1696312400099
 10
624.5216493907995
 20
156.1075096819481
 10
624.32463530666
 20
156.0950853703357
 10
624.32463530666
 20
155.9726171558706
 10
624.3796572580865
 20
155.9743920575296
 10
624.4364541111715
 20
155.9797167625062
 10
624.4932509642572
 20
155.9850414674829
 10
624.5464980140244
 20
155.9956908774363
 10
624.5997450637917
 20
156.0063402873898
 10
624.6529921135596
 20
156.0223144023202
 10
624.7044642616616
 20
156.0400634189092
 10
624.7541615081175
 20
156.0578124354985
 10
624.8038587545654
 20
156.0808861570634
 10
624.8500061977008
 20
156.1039598786312
 10
624.8961536408303
 20
156.1305834035143
 10
624.9423010839632
 20
156.1589818300564
 10
624.9848987237758
 20
156.1891551582578
 10
625.02749636359
 20
156.2211033881188
 10
625.0665442000868
 20
156.2566014212972
 10
625.1055920365827
 20
156.2920994544759
 10
625.1410900697626
 20
156.3293723893131
 97
        0
 92
        7
 72
     0
 73
     1
 93
       42
 10
625.0186218552965
 20
166.3096444173972
 10
624.8695301159473
 20
166.4214632219087
 10
624.7080140649853
 20
166.5208577148083
 10
624.5216493907995
 20
166.5705549612582
 10
624.32463530666
 20
166.5954035844831
 10
624.32463530666
 20
166.4729353700176
 10
624.3690078481327
 20
166.4729353700176
 10
624.4133803896055
 20
166.4693855667
 10
624.4559780294196
 20
166.4622859600638
 10
624.498575669234
 20
166.4551863534286
 10
624.5393984073887
 20
166.4463118451338
 10
624.5802211455445
 20
166.4338875335213
 10
624.6210438836993
 20
166.4196883202499
 10
624.6600917201945
 20
166.405489106979
 10
624.6973646550323
 20
166.3877400903896
 10
624.7346375898692
 20
166.3682161721418
 10
624.7701356230477
 20
166.3469173522346
 10
624.8056336562272
 20
166.3256185323273
 10
624.8393567877442
 20
166.3007699091028
 10
624.8713050176063
 20
166.2759212858777
 10
624.9032532474657
 20
166.2475228593353
 10
624.9334265756687
 20
166.2191244327924
 10
624.9600501005511
 20
166.1889511045921
 10
624.9884485270943
 20
166.1587777763893
 10
625.0132971503197
 20
166.1250546448703
 10
625.0363708718849
 20
166.0913315133506
 10
625.0594445934511
 20
166.0576083818311
 10
625.0789685116991
 20
166.0203354469938
 10
625.0984924299473
 20
165.9848374138149
 10
625.1162414465369
 20
165.9457895773185
 10
625.1304406598076
 20
165.9067417408236
 10
625.1446398730795
 20
165.8676939043261
 10
625.1552892830321
 20
165.8268711661721
 10
625.165938692986
 20
165.7860484280168
 10
625.1730382996209
 20
165.7434507882057
 10
625.1783630045983
 20
165.7026280500501
 10
625.1819128079164
 20
165.6582555085754
 10
625.1819128079164
 20
165.615657868761
 10
625.3043810223815
 20
165.615657868761
 10
625.2919567107694
 20
165.8126719529014
 10
625.229835152707
 20
165.9990366270869
 10
625.1428649714199
 20
166.1605526780485
 97
        0
 92
        7
 72
     0
 73
     1
 93
       42
 10
625.0683191017449
 20
166.4267879268864
 10
625.0274963635911
 20
166.4622859600635
 10
624.9866736254348
 20
166.4960090915838
 10
624.9423010839632
 20
166.5261824197852
 10
624.8979285424898
 20
166.5563557479868
 10
624.8517810993574
 20
166.5829792728706
 10
624.8038587545675
 20
166.6078278960948
 10
624.7559364097772
 20
166.6291267160022
 10
624.7044642616684
 20
166.6486506342502
 10
624.6529921135596
 20
166.6663996508392
 10
624.6015199654512
 20
166.6823737657697
 10
624.5464980140236
 20
166.6947980773822
 10
624.4932509642564
 20
166.7036725856765
 10
624.4364541111715
 20
166.7107721923125
 10
624.3814321597451
 20
166.7160968972891
 10
624.32463530666
 20
166.717871798948
 10
624.32463530666
 20
166.5954035844826
 10
624.5216493908001
 20
166.5705549612578
 10
624.7080140649853
 20
166.5208577148083
 10
624.8695301159467
 20
166.4214632219088
 10
625.0186218552965
 20
166.3096444173972
 10
625.1428649714199
 20
166.1605526780485
 10
625.2298351527074
 20
165.9990366270869
 10
625.2919567107694
 20
165.8126719529006
 10
625.3043810223815
 20
165.615657868761
 10
625.4268492368471
 20
165.615657868761
 10
625.4250743351875
 20
165.6706798201869
 10
625.419749630211
 20
165.725701771614
 10
625.4144249252346
 20
165.7807237230403
 10
625.4037755152802
 20
165.8339707728123
 10
625.3913512036684
 20
165.8872178225759
 10
625.3771519903969
 20
165.9386899706838
 10
625.3594029738081
 20
165.9901621187914
 10
625.33987905556
 20
166.0398593652414
 10
625.3185802356532
 20
166.0895566116921
 10
625.2937316124278
 20
166.1357040548236
 10
625.2688829892033
 20
166.1818514979554
 10
625.2387096610021
 20
166.2279989410873
 10
625.2085363327992
 20
166.2705965809004
 10
625.1765881029399
 20
166.3131942207149
 10
625.1410900697615
 20
166.3522420572116
 10
625.1055920365834
 20
166.3912898937072
 97
        0
 92
       23
 72
     0
 73
     1
 93
       42
 10
597.4810226172142
 20
156.466039817049
 10
597.4508492890134
 20
156.4962131452505
 10
597.4242257641304
 20
156.5263864734517
 10
597.3993771409055
 20
156.558334703313
 10
597.3745285176801
 20
156.592057834832
 10
597.3514547961127
 20
156.6257809663523
 10
597.3301559762062
 20
156.6612789995301
 10
597.3124069596186
 20
156.6985519343651
 10
597.2946579430279
 20
156.734049967545
 10
597.2786838280967
 20
156.7730978040437
 10
597.2644846148271
 20
156.8121456405376
 10
597.2538352048728
 20
156.8529683786943
 10
597.2449606965787
 20
156.893791116848
 10
597.2360861882846
 20
156.9346138550024
 10
597.2307614833071
 20
156.9772114948164
 10
597.227211679989
 20
157.0198091346318
 10
597.227211679989
 20
157.0624067744451
 10
597.1047434655238
 20
157.0624067744451
 10
597.1295920887492
 20
156.8653926903047
 10
597.1917136468107
 20
156.6914523277322
 10
597.2786838280976
 20
156.517511965158
 10
597.4029269442215
 20
156.3808445374215
 10
597.5395943719586
 20
156.2566014212972
 10
597.7135347345327
 20
156.1696312400104
 10
597.8874750971065
 20
156.1075096819481
 10
598.0844891812453
 20
156.0950853703357
 10
598.0844891812458
 20
156.2175535848013
 10
598.0418915414323
 20
156.2175535848013
 10
597.9975189999595
 20
156.2211033881188
 10
597.9549213601447
 20
156.2264280930955
 10
597.9140986219895
 20
156.2335276997312
 10
597.8732758838344
 20
156.2441771096848
 10
597.8324531456799
 20
156.2548265196379
 10
597.7934053091835
 20
156.2690257329097
 10
597.7543574726873
 20
156.2832249461812
 10
597.715309636192
 20
156.3009739627698
 10
597.6798116030127
 20
156.3187229793593
 10
597.6425386681758
 20
156.3400217992661
 10
597.6088155366563
 20
156.3630955208321
 10
597.5733175034783
 20
156.3861692423983
 10
597.5413692736176
 20
156.4110178656224
 10
597.5094210437567
 20
156.4376413905065
 97
        0
 92
        7
 72
     0
 73
     1
 93
       42
 10
597.4029269442215
 20
156.3808445374218
 10
597.2786838280976
 20
156.517511965158
 10
597.1917136468107
 20
156.6914523277322
 10
597.1295920887492
 20
156.8653926903053
 10
597.1047434655242
 20
157.0624067744451
 10
596.9822752510593
 20
157.0624067744451
 10
596.984050152718
 20
157.007384823019
 10
596.9893748576947
 20
156.9523628715909
 10
596.9964744643301
 20
156.8973409201657
 10
597.0053489726247
 20
156.844093870398
 10
597.017773284238
 20
156.7908468206295
 10
597.0337473991681
 20
156.7393746725218
 10
597.0514964157569
 20
156.6879025244152
 10
597.071020334005
 20
156.6382052779651
 10
597.094094055572
 20
156.5902829331707
 10
597.1189426787955
 20
156.5423605883834
 10
597.1455662036808
 20
156.4979880469075
 10
597.1739646302221
 20
156.4536155054358
 10
597.2041379584232
 20
156.4110178656232
 10
597.2378610899429
 20
156.3701951274687
 10
597.2733591231204
 20
156.3293723893131
 10
597.3088571562998
 20
156.2920994544759
 10
597.3479049927958
 20
156.2566014212983
 10
597.3887277309512
 20
156.2211033881182
 10
597.4295504691067
 20
156.1891551582588
 10
597.4721481089193
 20
156.1589818300571
 10
597.5182955520493
 20
156.1305834035149
 10
597.5626680935247
 20
156.1039598786307
 10
597.6105904383151
 20
156.0808861570646
 10
597.6602876847644
 20
156.0578124354987
 10
597.7099849312112
 20
156.0400634189108
 10
597.7614570793232
 20
156.0223144023199
 10
597.8129292274314
 20
156.0063402873898
 10
597.8661762771987
 20
155.9956908774363
 10
597.9194233269668
 20
155.9850414674829
 10
597.9744452783934
 20
155.9797167625062
 10
598.0294672298192
 20
155.9743920575296
 10
598.0844891812458
 20
155.9726171558706
 10
598.0844891812453
 20
156.0950853703357
 10
597.8874750971065
 20
156.1075096819481
 10
597.7135347345327
 20
156.1696312400103
 10
597.5395943719586
 20
156.2566014212972
 97
        0
 75
     0
 76
     1
 47
0.02498
 98
       13
 10
597.1514096422254
 20
162.3854407045438
 10
602.6388666422254
 20
156.1233917045438
 10
609.0004356422255
 20
166.511595704544
 10
625.3656866422254
 20
162.8223267045438
 10
597.3390146422254
 20
166.4161707045438
 10
597.5365796422254
 20
166.387957704544
 10
614.9224566422256
 20
156.0337727045439
 10
624.9983626422253
 20
156.4851817045439
 10
625.1394826422254
 20
156.3441167045438
 10
624.9983626422253
 20
166.2751047045437
 10
625.0548106422254
 20
166.4161707045438
 10
597.4236846422254
 20
156.428755704544
 10
597.3954616422254
 20
156.2876897045437
450
        0
451
        0
460
0.0
461
0.0
452
        0
462
0.0
453
        0
470

  0
HATCH
  5
638
330
1F
100
AcDbEntity
  8
4
100
AcDbHatch
 10
0.0
 20
0.0
 30
0.0
210
0.0
220
0.0
230
1.0
  2
SOLID
 70
     1
 71
     0
 91
        3
 92
        7
 72
     0
 73
     1
 93
        4
 10
624.32463530666
 20
166.717871798948
 10
598.0844891812458
 20
166.717871798948
 10
598.0844891812458
 20
166.5954035844826
 10
624.32463530666
 20
166.5954035844826
 97
        0
 92
        7
 72
     0
 73
     1
 93
        4
 10
597.1047434655242
 20
165.615657868761
 10
596.9822752510593
 20
165.615657868761
 10
596.9822752510593
 20
157.0624067744451
 10
597.1047434655238
 20
157.0624067744451
 97
        0
 92
        7
 72
     0
 73
     1
 93
       42
 10
597.3319308778641
 20
166.0203354469929
 10
597.3532296977723
 20
166.0558334801723
 10
597.3745285176788
 20
166.0913315133506
 10
597.3993771409068
 20
166.1250546448739
 10
597.4242257641297
 20
166.1570028747321
 10
597.4526241906706
 20
166.1889511045899
 10
597.4810226172142
 20
166.2191244327924
 10
597.5111959454164
 20
166.2475228593345
 10
597.5431441752767
 20
166.2741463842188
 10
597.5750924051369
 20
166.3007699091028
 10
597.6088155366558
 20
166.3256185323273
 10
597.6443135698348
 20
166.3469173522346
 10
597.6798116030127
 20
166.3682161721418
 10
597.7170845378505
 20
166.3877400903896
 10
597.7543574726873
 20
166.405489106979
 10
597.7934053091835
 20
166.4196883202499
 10
597.8324531456799
 20
166.4338875335213
 10
597.8732758838344
 20
166.4463118451338
 10
597.9140986219898
 20
166.4551863534278
 10
597.9566962618039
 20
166.4640608617232
 10
597.999293901619
 20
166.4693855667
 10
598.0418915414316
 20
166.4729353700176
 10
598.0844891812458
 20
166.4729353700176
 10
598.0844891812453
 20
166.5954035844831
 10
597.8874750971065
 20
166.5705549612582
 10
597.7135347345327
 20
166.520857714808
 10
597.5395943719586
 20
166.4214632219088
 10
597.4029269442221
 20
166.3096444173968
 10
597.2786838280976
 20
166.1605526780485
 10
597.191713646811
 20
165.9990366270873
 10
597.1295920887492
 20
165.8126719529006
 10
597.1047434655238
 20
165.615657868761
 10
597.227211679989
 20
165.615657868761
 10
597.227211679989
 20
165.6582555085757
 10
597.2307614833074
 20
165.7008531483895
 10
597.2360861882839
 20
165.7434507882029
 10
597.244960696577
 20
165.7860484280217
 10
597.2538352048734
 20
165.8268711661721
 10
597.2662595164884
 20
165.8659190026726
 10
597.2786838280983
 20
165.9067417408236
 10
597.2946579430295
 20
165.9457895773195
 10
597.3124069596186
 20
165.9830625121553
 97
        0
 75
     0
 76
     1
 47
0.005631
 98
        3
 10
599.4387596422255
 20
166.6384307045438
 10
597.0272926422254
 20
165.4045367045438
 10
597.2308996422253
 20
165.9833207045438
450
        0
451
        0
460
0.0
461
0.0
452
        0
462
0.0
453
        0
470

  0
LWPOLYLINE
  5
639
330
1F
100
AcDbEntity
  8
4
100
AcDbPolyline
 90
        9
 70
     0
 43
0.0
 10
597.2272116422255
 20
157.0624067045438
 10
597.2272116422255
 20
165.6156577045438
 42
-0.4142140000000003
 10
598.0844896422255
 20
166.4729357045438
 10
624.3246356422255
 20
166.4729357045438
 42
-0.4142140000000003
 10
625.1819126422254
 20
165.6156577045438
 10
625.1819126422254
 20
157.0624067045438
 42
-0.387993
 10
624.4133806422253
 20
156.2211037045438
 10
598.0844896422255
 20
156.217553704544
 42
-0.3805719999999999
 10
597.2307616422254
 20
156.977211704544
 42
-0.058238
  0
LWPOLYLINE
  5
63A
330
1F
100
AcDbEntity
  8
4
100
AcDbPolyline
 90
        9
 70
     0
 43
0.0
 10
596.9822756422254
 20
157.0624067045438
 10
596.9822756422254
 20
165.6156577045438
 42
-0.4142140000000003
 10
598.0844896422255
 20
166.7178717045437
 10
624.3246356422255
 20
166.7178717045437
 42
-0.4142140000000003
 10
625.4268496422253
 20
165.6156577045438
 10
625.4268496422253
 20
157.0624067045438
 42
-0.391099
 10
624.4237646422255
 20
155.9761687045439
 10
598.0845226422253
 20
155.9726167045439
 42
-0.3805719999999999
 10
596.9874806422254
 20
156.948778704544
 42
-0.3805719999999999
  0
LWPOLYLINE
  5
63B
330
1F
100
AcDbEntity
  8
4
100
AcDbPolyline
 90
        9
 70
     1
 43
0.451772
 10
597.2081616422252
 20
157.0624067045438
 10
597.2081616422252
 20
165.6156577045438
 42
-0.4142140000000003
 10
598.0844896422255
 20
166.491985704544
 10
624.3246356422255
 20
166.491985704544
 42
-0.4142140000000003
 10
625.2009636422252
 20
165.6156577045438
 10
625.2009636422252
 20
157.0624067045438
 42
-0.388281
 10
624.4142376422253
 20
156.2020527045438
 10
598.0844916422254
 20
156.1985037045438
 42
-0.3805719999999999
 10
597.2118396422254
 20
156.9749997045438
 42
-0.037159
  0
HATCH
  5
63C
330
1F
100
AcDbEntity
  8
4
100
AcDbHatch
 10
0.0
 20
0.0
 30
0.0
210
0.0
220
0.0
230
1.0
  2
SOLID
 70
     1
 71
     0
 91
        8
 92
        7
 72
     0
 73
     1
 93
       23
 10
601.6869597049551
 20
161.3375650693749
 10
601.7192629151477
 20
161.5152327254322
 10
601.7838693355327
 20
161.6444455662012
 10
601.8807789661089
 20
161.7413551967774
 10
601.977688596686
 20
161.8221132222587
 10
602.1715078578389
 20
161.8705680375469
 10
602.2684174884168
 20
161.8867196426429
 10
602.446085144474
 20
161.8867196426433
 10
602.446085144474
 20
163.2249954934659
 10
601.8646273610125
 20
163.2249954934659
 10
601.5415952590915
 20
163.2088438883701
 10
601.2670179724564
 20
163.1765406781775
 10
601.0408955011085
 20
163.0957826526974
 10
600.8309246348608
 20
163.0150246272161
 10
600.671715956054
 20
162.9019633915443
 10
600.5263515101915
 20
162.7889021558708
 10
600.413290274518
 20
162.6596893151013
 10
600.3163806439403
 20
162.530476474332
 10
600.2033194082683
 20
162.2582065598541
 10
600.1387129878829
 20
162.032084088509
 10
600.1225613827873
 20
161.8221132222598
 10
600.1225613827873
 20
158.1257030274003
 10
601.6869597049556
 20
158.1257030274003
 97
        0
 92
        7
 72
     0
 73
     1
 93
       54
 10
607.4323163748664
 20
161.5959907509129
 10
607.2869519290016
 20
161.9190228528357
 10
607.0769810627519
 20
162.2420549547586
 10
606.8347069863103
 20
162.5143248692358
 10
606.5278264894839
 20
162.7727505507744
 10
606.1886427824648
 20
162.982721417024
 10
605.8171558652531
 20
163.1442374679854
 10
605.4156731100061
 20
163.2572987036582
 10
604.9957313775064
 20
163.2896019138506
 10
604.688850880681
 20
163.2734503087542
 10
604.4142735940456
 20
163.2249954934663
 10
604.1558479125081
 20
163.1603890730816
 10
603.9135738360663
 20
163.0634794425045
 10
603.6874513647208
 20
162.9504182068312
 10
603.4936321035664
 20
162.821205366063
 10
603.3159644475091
 20
162.6596893151009
 10
603.1382967914517
 20
162.4981732641407
 10
602.9952397177431
 20
162.3228129802399
 10
602.8821784820705
 20
162.1289937190851
 10
602.7691172463969
 20
161.9190228528347
 10
602.6883592209165
 20
161.7090519865865
 10
602.575297985243
 20
161.2729586489901
 10
602.5268431699547
 20
160.820713706299
 10
602.5429947750511
 20
160.4815299992804
 10
602.5914495903394
 20
160.1769568746091
 10
602.6722076158198
 20
159.8862279828795
 10
602.7852688514931
 20
159.6116506962441
 10
602.9144816922628
 20
159.3693766198024
 10
603.0598461381271
 20
159.1432541484575
 10
603.2352064220272
 20
158.9332832822076
 10
603.4290256831813
 20
158.7394640210534
 10
603.6551481545269
 20
158.5779479700922
 10
603.8812706258718
 20
158.4487351293239
 10
604.1235447023159
 20
158.3195222885538
 10
604.3658187787578
 20
158.222612657977
 10
604.6403960653938
 20
158.1580062375919
 10
604.89882174693
 20
158.0933998172078
 10
605.1733990335637
 20
158.0610966070158
 10
605.4456689480433
 20
158.0610966070158
 10
605.8171558652531
 20
158.0772482121123
 10
606.1563395722722
 20
158.1257030274003
 10
606.4470684640032
 20
158.1903094477849
 10
606.7054941455413
 20
158.2710674732658
 10
607.060829457655
 20
158.432583524227
 10
607.1738906933282
 20
158.4971899446114
 10
607.1738906933282
 20
160.0800472440327
 10
606.8185553812129
 20
159.8377731675909
 10
606.4632200690989
 20
159.643953906437
 10
606.0594299416941
 20
159.4985894605715
 10
605.8656106805415
 20
159.4501346452836
 10
605.6717914193885
 20
159.4339830401872
 10
605.3510666896221
 20
159.4339830401872
 10
605.1249442182766
 20
159.4824378554754
 10
605.028034587699
 20
159.4985894605715
 97
        0
 92
       22
 72
     0
 73
     1
 93
       15
 10
604.0589382819312
 20
160.4330751839911
 10
604.0104834666431
 20
160.5461364196641
 10
603.9781802564516
 20
160.6753492604297
 10
603.9458770462579
 20
160.8368653113945
 10
603.9620286513548
 20
161.0306845725482
 10
604.0104834666431
 20
161.2406554387979
 10
604.1235447023159
 20
161.466777910144
 10
604.3173639634695
 20
161.6929003814895
 10
604.5434864348151
 20
161.8544164324505
 10
604.7857605112572
 20
161.9351744579316
 10
605.0118829826033
 20
161.9513260630276
 10
605.2057022437569
 20
161.9190228528357
 10
605.3833698998142
 20
161.8705680375474
 10
605.5102753684268
 20
161.8059616171628
 10
605.6233366040997
 20
161.7413551967783
 97
        0
 92
        7
 72
     0
 73
     1
 93
       27
 10
609.3358984040547
 20
161.5959907509129
 10
610.0304174231881
 20
161.5959907509129
 10
610.0304174231881
 20
162.8050537609666
 10
609.3358984040547
 20
162.8050537609666
 10
609.3358984040547
 20
163.3380567291385
 10
609.3682016142459
 20
163.5157243851961
 10
609.432808034631
 20
163.6449372259653
 10
609.5297176652086
 20
163.7418468565423
 10
609.6266272957848
 20
163.822604882023
 10
609.8365981620339
 20
163.8710596973113
 10
609.917356187515
 20
163.8872113024073
 10
610.0927164714162
 20
163.8872113024073
 10
610.0927164714162
 20
165.1285775226534
 10
609.513566060112
 20
165.1285775226535
 10
609.2066855632847
 20
165.1124259175573
 10
608.9321082766514
 20
165.0639711022684
 10
608.689834200211
 20
164.9832130767888
 10
608.4798633339588
 20
164.9024550513076
 10
608.3183472829972
 20
164.7893938156347
 10
608.1729828371326
 20
164.6786399521187
 10
608.0599216014591
 20
164.5494271113489
 10
607.9791635759796
 20
164.4202142705807
 10
607.8499507352097
 20
164.1617885890425
 10
607.7853443148253
 20
163.9195145125997
 10
607.7691927097289
 20
163.7095436463485
 10
607.7691927097289
 20
158.1418546324964
 10
609.3358984040547
 20
158.1418546324964
 97
        0
 92
        7
 72
     0
 73
     1
 93
        4
 10
612.2408799492018
 20
165.1285775226534
 10
610.6095678344927
 20
165.1285775226535
 10
610.6095678344927
 20
158.1418546324964
 10
612.2408799492018
 20
158.1418546324964
 97
        0
 92
        7
 72
     0
 73
     1
 93
       54
 10
617.580139119553
 20
161.5959907509129
 10
617.434774673688
 20
161.9190228528357
 10
617.2248038074379
 20
162.2420549547584
 10
616.9825297309969
 20
162.5143248692358
 10
616.6779566063256
 20
162.7727505507744
 10
616.3387728993073
 20
162.982721417024
 10
615.9672859820958
 20
163.1442374679854
 10
615.5634958546927
 20
163.2572987036582
 10
615.1435541221927
 20
163.2896019138503
 10
614.8366736253674
 20
163.2734503087545
 10
614.5644037108884
 20
163.2249954934659
 10
614.3059780293513
 20
163.1603890730811
 10
614.0637039529077
 20
163.0634794425045
 10
613.837581481562
 20
162.9504182068312
 10
613.643762220408
 20
162.8212053660622
 10
613.4660945643514
 20
162.6596893151009
 10
613.2884269082942
 20
162.4981732641399
 10
613.1592140675259
 20
162.3228129802393
 10
613.0300012267569
 20
162.1289937190858
 10
612.9169399910827
 20
161.9190228528358
 10
612.8361819656023
 20
161.7090519865864
 10
612.7231207299296
 20
161.2729586489907
 10
612.6746659146411
 20
160.8207137062981
 10
612.6908175197367
 20
160.4815299992798
 10
612.7392723350251
 20
160.1769568746098
 10
612.820030360506
 20
159.8862279828795
 10
612.9330915961794
 20
159.6116506962448
 10
613.0623044369497
 20
159.3693766198005
 10
613.2076688828138
 20
159.1432541484569
 10
613.3853365388707
 20
158.9332832822073
 10
613.5953074051204
 20
158.7394640210534
 10
613.8052782713707
 20
158.577947970092
 10
614.0314007427164
 20
158.4487351293231
 10
614.2736748191587
 20
158.3195222885538
 10
614.5159488956001
 20
158.222612657977
 10
614.7882188100805
 20
158.1580062375919
 10
615.0466444916162
 20
158.0933998172082
 10
615.3212217782513
 20
158.0610966070158
 10
615.595799064884
 20
158.0610966070158
 10
615.9672859820958
 20
158.0772482121117
 10
616.3064696891158
 20
158.1257030274003
 10
616.6133501859413
 20
158.1903094477847
 10
616.8556242623845
 20
158.2710674732655
 10
617.2086522023412
 20
158.432583524227
 10
617.3217134380147
 20
158.4971899446114
 10
617.3217134380147
 20
160.0800472440323
 10
616.9663781258999
 20
159.8377731675911
 10
616.6133501859413
 20
159.6439539064368
 10
616.2095600585383
 20
159.4985894605715
 10
616.0157407973845
 20
159.4501346452836
 10
615.821921536231
 20
159.4339830401872
 10
615.4988894343082
 20
159.4339830401872
 10
615.2727669629618
 20
159.4824378554759
 10
615.1758573323855
 20
159.4985894605715
 97
        0
 92
       22
 72
     0
 73
     1
 93
       15
 10
614.0960071631012
 20
160.8368653113945
 10
614.1121587681971
 20
161.030684572548
 10
614.1606135834854
 20
161.2406554387979
 10
614.2736748191585
 20
161.4667779101432
 10
614.4674940803118
 20
161.6929003814893
 10
614.6913091795014
 20
161.8544164324509
 10
614.9335832559439
 20
161.9351744579318
 10
615.1597057272897
 20
161.9513260630276
 10
615.3535249884424
 20
161.9190228528357
 10
615.5311926445001
 20
161.8705680375474
 10
615.6604054852703
 20
161.8059616171621
 10
615.7734667209425
 20
161.7413551967783
 10
614.2090683987738
 20
160.4330751839912
 10
614.1606135834854
 20
160.5461364196633
 10
614.128310373294
 20
160.6753492604299
 97
        0
 92
        7
 72
     0
 73
     1
 93
       66
 10
621.7264868849468
 20
160.6753492604331
 10
621.5972740441766
 20
160.7561072859143
 10
621.4865201806615
 20
160.8207137062981
 10
621.7103352798504
 20
160.9660781521637
 10
621.8718513308115
 20
161.1598974133161
 10
622.0010641715812
 20
161.3698682795672
 10
622.0818221970614
 20
161.5798391458166
 10
622.1464286174469
 20
161.9351744579313
 10
622.1464286174469
 20
162.096690508893
 10
622.1464286174469
 20
163.1765406781775
 10
620.630485110566
 20
163.1765406781775
 10
620.630485110566
 20
162.2582065598549
 10
620.6143335054703
 20
162.145145324182
 10
620.5497270850854
 20
161.9190228528363
 10
620.4851206647012
 20
161.8059616171628
 10
620.3720594290278
 20
161.6929003814893
 10
620.2105433780664
 20
161.6121423560088
 10
620.0167241169131
 20
161.5959907509129
 10
619.8229048557594
 20
161.6121423560094
 10
619.6613888047981
 20
161.6929003814895
 10
619.5644791742211
 20
161.7898100120666
 10
619.4998727538368
 20
161.9190228528357
 10
619.4514179385483
 20
162.145145324182
 10
619.4514179385483
 20
162.2420549547584
 10
619.4514179385483
 20
163.1765406781775
 10
617.9031712214756
 20
163.1765406781775
 10
617.9031712214761
 20
162.0805389037966
 10
617.9354744316675
 20
161.7413551967785
 10
618.0162324571486
 20
161.4829295152407
 10
618.1131420877261
 20
161.2568070438935
 10
618.242354928494
 20
161.0952909929334
 10
618.3715677692644
 20
160.9660781521632
 10
618.468477399841
 20
160.8853201266829
 10
618.581538635513
 20
160.8207137062981
 10
618.4361741896484
 20
160.7561072859143
 10
618.3231129539761
 20
160.6753492604332
 10
618.1454452979176
 20
160.4815299992803
 10
618.0000808520527
 20
160.2554075279335
 10
617.9193228265719
 20
160.0315924287443
 10
617.8547164061877
 20
159.8216215624947
 10
617.8224131959955
 20
159.6439539064365
 10
617.8062615908991
 20
159.4824378554751
 10
617.8062615908991
 20
158.1418546324964
 10
619.4191147283556
 20
158.1418546324964
 10
619.4191147283556
 20
159.3693766198031
 10
619.4352663334516
 20
159.4985894605735
 10
619.4514179385488
 20
159.6116506962448
 10
619.4837211487407
 20
159.7570151421099
 10
619.5644791742209
 20
159.8862279828788
 10
619.6775404098939
 20
160.0154408236482
 10
619.8390564608557
 20
160.096198849129
 10
620.0651789322014
 20
160.1285020593209
 10
620.2751497984514
 20
160.0961988491285
 10
620.4366658494128
 20
160.0154408236482
 10
620.5335754799894
 20
159.8862279828792
 10
620.5981819003737
 20
159.7408635370147
 10
620.630485110566
 20
159.6116506962436
 10
620.6466367156625
 20
159.4824378554759
 10
620.6466367156625
 20
159.3693766198025
 10
620.6466367156625
 20
158.1418546324964
 10
622.2433382480232
 20
158.1418546324964
 10
622.2433382480232
 20
159.4985894605726
 10
622.2110350378307
 20
159.8539247726868
 10
622.1141254072541
 20
160.1446536644169
 10
622.0010641715806
 20
160.3684687636069
 10
621.8556997257159
 20
160.5461364196641
 97
        0
 75
     0
 76
     1
 47
0.04298
 98
        8
 10
600.9864226422255
 20
161.0813697045438
 10
604.2060546422253
 20
159.6299327045437
 10
604.2060546422253
 20
159.6299327045437
 10
608.6251586422254
 20
160.2609917045438
 10
611.5291406422254
 20
160.5765207045438
 10
613.4861716422252
 20
160.892050704544
 10
613.4861716422252
 20
160.892050704544
 10
619.0416156422254
 20
160.6396277045439
450
        0
451
        0
460
0.0
461
0.0
452
        0
462
0.0
453
        0
470

  0
POLYLINE
  5
63D
330
1F
100
AcDbEntity
  8
4
100
AcDb2dPolyline
 66
     1
 10
0.0
 20
0.0
 30
0.0
  0
VERTEX
  5
63E
330
63D
100
AcDbEntity
  8
4
100
AcDbVertex
100
AcDb2dVertex
 10
601.6869596422253
 20
161.3375647045438
 30
0.0
  0
VERTEX
  5
63F
330
63D
100
AcDbEntity
  8
4
100
AcDbVertex
100
AcDb2dVertex
 10
601.7192626422254
 20
161.5152327045438
 30
0.0
  0
VERTEX
  5
640
330
63D
100
AcDbEntity
  8
4
100
AcDbVertex
100
AcDb2dVertex
 10
601.7838696422254
 20
161.644445704544
 30
0.0
  0
VERTEX
  5
641
330
63D
100
AcDbEntity
  8
4
100
AcDbVertex
100
AcDb2dVertex
 10
601.8807786422253
 20
161.7413547045439
 30
0.0
  0
VERTEX
  5
642
330
63D
100
AcDbEntity
  8
4
100
AcDbVertex
100
AcDb2dVertex
 10
601.9776886422253
 20
161.8221137045438
 30
0.0
  0
VERTEX
  5
643
330
63D
100
AcDbEntity
  8
4
100
AcDbVertex
100
AcDb2dVertex
 10
602.1715076422252
 20
161.8705677045436
 30
0.0
  0
VERTEX
  5
644
330
63D
100
AcDbEntity
  8
4
100
AcDbVertex
100
AcDb2dVertex
 10
602.2684176422252
 20
161.8867197045438
 30
0.0
  0
VERTEX
  5
645
330
63D
100
AcDbEntity
  8
4
100
AcDbVertex
100
AcDb2dVertex
 10
602.4460856422254
 20
161.8867197045438
 30
0.0
  0
VERTEX
  5
646
330
63D
100
AcDbEntity
  8
4
100
AcDbVertex
100
AcDb2dVertex
 10
602.4460856422254
 20
163.2249957045439
 30
0.0
  0
VERTEX
  5
647
330
63D
100
AcDbEntity
  8
4
100
AcDbVertex
100
AcDb2dVertex
 10
601.8646276422255
 20
163.2249957045439
 30
0.0
  0
VERTEX
  5
648
330
63D
100
AcDbEntity
  8
4
100
AcDbVertex
100
AcDb2dVertex
 10
601.5415956422251
 20
163.208843704544
 30
0.0
  0
VERTEX
  5
649
330
63D
100
AcDbEntity
  8
4
100
AcDbVertex
100
AcDb2dVertex
 10
601.2670176422253
 20
163.176540704544
 30
0.0
  0
VERTEX
  5
64A
330
63D
100
AcDbEntity
  8
4
100
AcDbVertex
100
AcDb2dVertex
 10
601.0408956422254
 20
163.0957827045439
 30
0.0
  0
VERTEX
  5
64B
330
63D
100
AcDbEntity
  8
4
100
AcDbVertex
100
AcDb2dVertex
 10
600.8309246422254
 20
163.0150247045438
 30
0.0
  0
VERTEX
  5
64C
330
63D
100
AcDbEntity
  8
4
100
AcDbVertex
100
AcDb2dVertex
 10
600.6717156422255
 20
162.9019637045438
 30
0.0
  0
VERTEX
  5
64D
330
63D
100
AcDbEntity
  8
4
100
AcDbVertex
100
AcDb2dVertex
 10
600.5263516422253
 20
162.788901704544
 30
0.0
  0
VERTEX
  5
64E
330
63D
100
AcDbEntity
  8
4
100
AcDbVertex
100
AcDb2dVertex
 10
600.4132906422253
 20
162.6596897045438
 30
0.0
  0
VERTEX
  5
64F
330
63D
100
AcDbEntity
  8
4
100
AcDbVertex
100
AcDb2dVertex
 10
600.3163806422253
 20
162.530476704544
 30
0.0
  0
VERTEX
  5
650
330
63D
100
AcDbEntity
  8
4
100
AcDbVertex
100
AcDb2dVertex
 10
600.2033196422253
 20
162.2582067045439
 30
0.0
  0
VERTEX
  5
651
330
63D
100
AcDbEntity
  8
4
100
AcDbVertex
100
AcDb2dVertex
 10
600.1387126422253
 20
162.0320837045437
 30
0.0
  0
VERTEX
  5
652
330
63D
100
AcDbEntity
  8
4
100
AcDbVertex
100
AcDb2dVertex
 10
600.1225616422255
 20
161.8221137045438
 30
0.0
  0
VERTEX
  5
653
330
63D
100
AcDbEntity
  8
4
100
AcDbVertex
100
AcDb2dVertex
 10
600.1225616422255
 20
158.1257027045437
 30
0.0
  0
VERTEX
  5
654
330
63D
100
AcDbEntity
  8
4
100
AcDbVertex
100
AcDb2dVertex
 10
601.6869596422253
 20
158.1257027045437
 30
0.0
  0
VERTEX
  5
655
330
63D
100
AcDbEntity
  8
4
100
AcDbVertex
100
AcDb2dVertex
 10
601.6869596422253
 20
161.3375647045438
 30
0.0
  0
VERTEX
  5
656
330
63D
100
AcDbEntity
  8
4
100
AcDbVertex
100
AcDb2dVertex
 10
601.6869596422253
 20
161.3375647045438
 30
0.0
  0
SEQEND
  5
657
330
63D
100
AcDbEntity
  8
4
  0
POLYLINE
  5
658
330
1F
100
AcDbEntity
  8
4
100
AcDb2dPolyline
 66
     1
 10
0.0
 20
0.0
 30
0.0
  0
VERTEX
  5
659
330
658
100
AcDbEntity
  8
4
100
AcDbVertex
100
AcDb2dVertex
 10
598.0844896422255
 20
166.7178717045437
 30
0.0
  0
VERTEX
  5
65A
330
658
100
AcDbEntity
  8
4
100
AcDbVertex
100
AcDb2dVertex
 10
598.0294676422253
 20
166.716096704544
 30
0.0
  0
VERTEX
  5
65B
330
658
100
AcDbEntity
  8
4
100
AcDbVertex
100
AcDb2dVertex
 10
597.9744456422253
 20
166.7107717045438
 30
0.0
  0
VERTEX
  5
65C
330
658
100
AcDbEntity
  8
4
100
AcDbVertex
100
AcDb2dVertex
 10
597.9194236422253
 20
166.7036727045438
 30
0.0
  0
VERTEX
  5
65D
330
658
100
AcDbEntity
  8
4
100
AcDbVertex
100
AcDb2dVertex
 10
597.8644016422252
 20
166.6947977045438
 30
0.0
  0
VERTEX
  5
65E
330
658
100
AcDbEntity
  8
4
100
AcDbVertex
100
AcDb2dVertex
 10
597.8111546422253
 20
166.6823737045438
 30
0.0
  0
VERTEX
  5
65F
330
658
100
AcDbEntity
  8
4
100
AcDbVertex
100
AcDb2dVertex
 10
597.7596826422255
 20
166.6663997045437
 30
0.0
  0
VERTEX
  5
660
330
658
100
AcDbEntity
  8
4
100
AcDbVertex
100
AcDb2dVertex
 10
597.7082096422255
 20
166.6486507045438
 30
0.0
  0
VERTEX
  5
661
330
658
100
AcDbEntity
  8
4
100
AcDbVertex
100
AcDb2dVertex
 10
597.6585126422253
 20
166.6291267045438
 30
0.0
  0
VERTEX
  5
662
330
658
100
AcDbEntity
  8
4
100
AcDbVertex
100
AcDb2dVertex
 10
597.6105906422255
 20
166.6078277045437
 30
0.0
  0
VERTEX
  5
663
330
658
100
AcDbEntity
  8
4
100
AcDbVertex
100
AcDb2dVertex
 10
597.5626676422251
 20
166.5829797045438
 30
0.0
  0
VERTEX
  5
664
330
658
100
AcDbEntity
  8
4
100
AcDbVertex
100
AcDb2dVertex
 10
597.5165206422254
 20
166.5563557045436
 30
0.0
  0
VERTEX
  5
665
330
658
100
AcDbEntity
  8
4
100
AcDbVertex
100
AcDb2dVertex
 10
597.4721476422253
 20
166.5261827045438
 30
0.0
  0
VERTEX
  5
666
330
658
100
AcDbEntity
  8
4
100
AcDbVertex
100
AcDb2dVertex
 10
597.4295506422254
 20
166.4960087045438
 30
0.0
  0
VERTEX
  5
667
330
658
100
AcDbEntity
  8
4
100
AcDbVertex
100
AcDb2dVertex
 10
597.3869526422254
 20
166.4622857045438
 30
0.0
  0
VERTEX
  5
668
330
658
100
AcDbEntity
  8
4
100
AcDbVertex
100
AcDb2dVertex
 10
597.3461296422254
 20
166.4285627045438
 30
0.0
  0
VERTEX
  5
669
330
658
100
AcDbEntity
  8
4
100
AcDbVertex
100
AcDb2dVertex
 10
597.3088576422253
 20
166.3912897045435
 30
0.0
  0
VERTEX
  5
66A
330
658
100
AcDbEntity
  8
4
100
AcDbVertex
100
AcDb2dVertex
 10
597.2715846422254
 20
166.3522417045438
 30
0.0
  0
VERTEX
  5
66B
330
658
100
AcDbEntity
  8
4
100
AcDbVertex
100
AcDb2dVertex
 10
597.2378606422255
 20
166.3131947045438
 30
0.0
  0
VERTEX
  5
66C
330
658
100
AcDbEntity
  8
4
100
AcDbVertex
100
AcDb2dVertex
 10
597.2041376422253
 20
166.2705967045438
 30
0.0
  0
VERTEX
  5
66D
330
658
100
AcDbEntity
  8
4
100
AcDbVertex
100
AcDb2dVertex
 10
597.1739646422254
 20
166.2279987045438
 30
0.0
  0
VERTEX
  5
66E
330
658
100
AcDbEntity
  8
4
100
AcDbVertex
100
AcDb2dVertex
 10
597.1437916422253
 20
166.1836267045439
 30
0.0
  0
VERTEX
  5
66F
330
658
100
AcDbEntity
  8
4
100
AcDbVertex
100
AcDb2dVertex
 10
597.1171676422255
 20
166.1374787045438
 30
0.0
  0
VERTEX
  5
670
330
658
100
AcDbEntity
  8
4
100
AcDbVertex
100
AcDb2dVertex
 10
597.0923196422254
 20
166.0895567045438
 30
0.0
  0
VERTEX
  5
671
330
658
100
AcDbEntity
  8
4
100
AcDbVertex
100
AcDb2dVertex
 10
597.0710206422254
 20
166.0416347045438
 30
0.0
  0
VERTEX
  5
672
330
658
100
AcDbEntity
  8
4
100
AcDbVertex
100
AcDb2dVertex
 10
597.0514966422252
 20
165.9919367045437
 30
0.0
  0
VERTEX
  5
673
330
658
100
AcDbEntity
  8
4
100
AcDbVertex
100
AcDb2dVertex
 10
597.0337476422253
 20
165.9404647045438
 30
0.0
  0
VERTEX
  5
674
330
658
100
AcDbEntity
  8
4
100
AcDbVertex
100
AcDb2dVertex
 10
597.0177736422254
 20
165.8889927045438
 30
0.0
  0
VERTEX
  5
675
330
658
100
AcDbEntity
  8
4
100
AcDbVertex
100
AcDb2dVertex
 10
597.0053486422255
 20
165.8357457045438
 30
0.0
  0
VERTEX
  5
676
330
658
100
AcDbEntity
  8
4
100
AcDbVertex
100
AcDb2dVertex
 10
596.9964746422252
 20
165.7807237045438
 30
0.0
  0
VERTEX
  5
677
330
658
100
AcDbEntity
  8
4
100
AcDbVertex
100
AcDb2dVertex
 10
596.9893746422252
 20
165.7257017045438
 30
0.0
  0
VERTEX
  5
678
330
658
100
AcDbEntity
  8
4
100
AcDbVertex
100
AcDb2dVertex
 10
596.9840506422253
 20
165.6706797045438
 30
0.0
  0
VERTEX
  5
679
330
658
100
AcDbEntity
  8
4
100
AcDbVertex
100
AcDb2dVertex
 10
596.9822756422254
 20
165.6156577045438
 30
0.0
  0
VERTEX
  5
67A
330
658
100
AcDbEntity
  8
4
100
AcDbVertex
100
AcDb2dVertex
 10
597.2272116422255
 20
165.6156577045438
 30
0.0
  0
VERTEX
  5
67B
330
658
100
AcDbEntity
  8
4
100
AcDbVertex
100
AcDb2dVertex
 10
597.2272116422255
 20
165.6582557045438
 30
0.0
  0
VERTEX
  5
67C
330
658
100
AcDbEntity
  8
4
100
AcDbVertex
100
AcDb2dVertex
 10
597.2307616422254
 20
165.700852704544
 30
0.0
  0
VERTEX
  5
67D
330
658
100
AcDbEntity
  8
4
100
AcDbVertex
100
AcDb2dVertex
 10
597.2360866422254
 20
165.7434507045436
 30
0.0
  0
VERTEX
  5
67E
330
658
100
AcDbEntity
  8
4
100
AcDbVertex
100
AcDb2dVertex
 10
597.2449606422253
 20
165.786048704544
 30
0.0
  0
VERTEX
  5
67F
330
658
100
AcDbEntity
  8
4
100
AcDbVertex
100
AcDb2dVertex
 10
597.2538356422253
 20
165.8268707045438
 30
0.0
  0
VERTEX
  5
680
330
658
100
AcDbEntity
  8
4
100
AcDbVertex
100
AcDb2dVertex
 10
597.2662596422253
 20
165.8659187045438
 30
0.0
  0
VERTEX
  5
681
330
658
100
AcDbEntity
  8
4
100
AcDbVertex
100
AcDb2dVertex
 10
597.2786836422252
 20
165.9067417045438
 30
0.0
  0
VERTEX
  5
682
330
658
100
AcDbEntity
  8
4
100
AcDbVertex
100
AcDb2dVertex
 10
597.2946576422251
 20
165.9457897045439
 30
0.0
  0
VERTEX
  5
683
330
658
100
AcDbEntity
  8
4
100
AcDbVertex
100
AcDb2dVertex
 10
597.3124066422256
 20
165.9830627045438
 30
0.0
  0
VERTEX
  5
684
330
658
100
AcDbEntity
  8
4
100
AcDbVertex
100
AcDb2dVertex
 10
597.3319306422254
 20
166.020335704544
 30
0.0
  0
VERTEX
  5
685
330
658
100
AcDbEntity
  8
4
100
AcDbVertex
100
AcDb2dVertex
 10
597.3532296422254
 20
166.055833704544
 30
0.0
  0
VERTEX
  5
686
330
658
100
AcDbEntity
  8
4
100
AcDbVertex
100
AcDb2dVertex
 10
597.3745286422253
 20
166.0913317045438
 30
0.0
  0
VERTEX
  5
687
330
658
100
AcDbEntity
  8
4
100
AcDbVertex
100
AcDb2dVertex
 10
597.3993766422254
 20
166.1250547045438
 30
0.0
  0
VERTEX
  5
688
330
658
100
AcDbEntity
  8
4
100
AcDbVertex
100
AcDb2dVertex
 10
597.4242256422253
 20
166.1570027045438
 30
0.0
  0
VERTEX
  5
689
330
658
100
AcDbEntity
  8
4
100
AcDbVertex
100
AcDb2dVertex
 10
597.4526246422254
 20
166.1889507045438
 30
0.0
  0
VERTEX
  5
68A
330
658
100
AcDbEntity
  8
4
100
AcDbVertex
100
AcDb2dVertex
 10
597.4810226422255
 20
166.2191247045438
 30
0.0
  0
VERTEX
  5
68B
330
658
100
AcDbEntity
  8
4
100
AcDbVertex
100
AcDb2dVertex
 10
597.5111956422254
 20
166.2475227045437
 30
0.0
  0
VERTEX
  5
68C
330
658
100
AcDbEntity
  8
4
100
AcDbVertex
100
AcDb2dVertex
 10
597.5431446422253
 20
166.2741467045438
 30
0.0
  0
VERTEX
  5
68D
330
658
100
AcDbEntity
  8
4
100
AcDbVertex
100
AcDb2dVertex
 10
597.5750926422254
 20
166.300769704544
 30
0.0
  0
VERTEX
  5
68E
330
658
100
AcDbEntity
  8
4
100
AcDbVertex
100
AcDb2dVertex
 10
597.6088156422254
 20
166.3256187045438
 30
0.0
  0
VERTEX
  5
68F
330
658
100
AcDbEntity
  8
4
100
AcDbVertex
100
AcDb2dVertex
 10
597.6443136422252
 20
166.3469177045438
 30
0.0
  0
VERTEX
  5
690
330
658
100
AcDbEntity
  8
4
100
AcDbVertex
100
AcDb2dVertex
 10
597.6798116422253
 20
166.368215704544
 30
0.0
  0
VERTEX
  5
691
330
658
100
AcDbEntity
  8
4
100
AcDbVertex
100
AcDb2dVertex
 10
597.7170846422255
 20
166.3877397045437
 30
0.0
  0
VERTEX
  5
692
330
658
100
AcDbEntity
  8
4
100
AcDbVertex
100
AcDb2dVertex
 10
597.7543576422252
 20
166.4054887045439
 30
0.0
  0
VERTEX
  5
693
330
658
100
AcDbEntity
  8
4
100
AcDbVertex
100
AcDb2dVertex
 10
597.7934056422253
 20
166.4196887045438
 30
0.0
  0
VERTEX
  5
694
330
658
100
AcDbEntity
  8
4
100
AcDbVertex
100
AcDb2dVertex
 10
597.8324536422254
 20
166.433887704544
 30
0.0
  0
VERTEX
  5
695
330
658
100
AcDbEntity
  8
4
100
AcDbVertex
100
AcDb2dVertex
 10
597.8732756422251
 20
166.446311704544
 30
0.0
  0
VERTEX
  5
696
330
658
100
AcDbEntity
  8
4
100
AcDbVertex
100
AcDb2dVertex
 10
597.9140986422253
 20
166.455186704544
 30
0.0
  0
VERTEX
  5
697
330
658
100
AcDbEntity
  8
4
100
AcDbVertex
100
AcDb2dVertex
 10
597.9566966422253
 20
166.4640607045439
 30
0.0
  0
VERTEX
  5
698
330
658
100
AcDbEntity
  8
4
100
AcDbVertex
100
AcDb2dVertex
 10
597.9992936422254
 20
166.4693857045439
 30
0.0
  0
VERTEX
  5
699
330
658
100
AcDbEntity
  8
4
100
AcDbVertex
100
AcDb2dVertex
 10
598.0418916422254
 20
166.4729357045438
 30
0.0
  0
VERTEX
  5
69A
330
658
100
AcDbEntity
  8
4
100
AcDbVertex
100
AcDb2dVertex
 10
598.0844896422255
 20
166.4729357045438
 30
0.0
  0
VERTEX
  5
69B
330
658
100
AcDbEntity
  8
4
100
AcDbVertex
100
AcDb2dVertex
 10
598.0844896422255
 20
166.7178717045437
 30
0.0
  0
VERTEX
  5
69C
330
658
100
AcDbEntity
  8
4
100
AcDbVertex
100
AcDb2dVertex
 10
598.0844896422255
 20
166.7178717045437
 30
0.0
  0
SEQEND
  5
69D
330
658
100
AcDbEntity
  8
4
  0
POLYLINE
  5
69E
330
1F
100
AcDbEntity
  8
4
100
AcDb2dPolyline
 66
     1
 10
0.0
 20
0.0
 30
0.0
  0
VERTEX
  5
69F
330
69E
100
AcDbEntity
  8
4
100
AcDbVertex
100
AcDb2dVertex
 10
596.9822756422254
 20
165.6156577045438
 30
0.0
  0
VERTEX
  5
6A0
330
69E
100
AcDbEntity
  8
4
100
AcDbVertex
100
AcDb2dVertex
 10
596.9822756422254
 20
157.0624067045438
 30
0.0
  0
VERTEX
  5
6A1
330
69E
100
AcDbEntity
  8
4
100
AcDbVertex
100
AcDb2dVertex
 10
597.2272116422255
 20
157.0624067045438
 30
0.0
  0
VERTEX
  5
6A2
330
69E
100
AcDbEntity
  8
4
100
AcDbVertex
100
AcDb2dVertex
 10
597.2272116422255
 20
165.6156577045438
 30
0.0
  0
VERTEX
  5
6A3
330
69E
100
AcDbEntity
  8
4
100
AcDbVertex
100
AcDb2dVertex
 10
596.9822756422254
 20
165.6156577045438
 30
0.0
  0
VERTEX
  5
6A4
330
69E
100
AcDbEntity
  8
4
100
AcDbVertex
100
AcDb2dVertex
 10
596.9822756422254
 20
165.6156577045438
 30
0.0
  0
SEQEND
  5
6A5
330
69E
100
AcDbEntity
  8
4
  0
POLYLINE
  5
6A6
330
1F
100
AcDbEntity
  8
4
100
AcDb2dPolyline
 66
     1
 10
0.0
 20
0.0
 30
0.0
  0
VERTEX
  5
6A7
330
6A6
100
AcDbEntity
  8
4
100
AcDbVertex
100
AcDb2dVertex
 10
596.9822756422254
 20
157.0624067045438
 30
0.0
  0
VERTEX
  5
6A8
330
6A6
100
AcDbEntity
  8
4
100
AcDbVertex
100
AcDb2dVertex
 10
596.9840506422253
 20
157.0073847045437
 30
0.0
  0
VERTEX
  5
6A9
330
6A6
100
AcDbEntity
  8
4
100
AcDbVertex
100
AcDb2dVertex
 10
596.9893746422252
 20
156.9523627045438
 30
0.0
  0
VERTEX
  5
6AA
330
6A6
100
AcDbEntity
  8
4
100
AcDbVertex
100
AcDb2dVertex
 10
596.9964746422252
 20
156.8973407045438
 30
0.0
  0
VERTEX
  5
6AB
330
6A6
100
AcDbEntity
  8
4
100
AcDbVertex
100
AcDb2dVertex
 10
597.0053486422255
 20
156.8440937045438
 30
0.0
  0
VERTEX
  5
6AC
330
6A6
100
AcDbEntity
  8
4
100
AcDbVertex
100
AcDb2dVertex
 10
597.0177736422254
 20
156.7908467045438
 30
0.0
  0
VERTEX
  5
6AD
330
6A6
100
AcDbEntity
  8
4
100
AcDbVertex
100
AcDb2dVertex
 10
597.0337476422253
 20
156.7393747045439
 30
0.0
  0
VERTEX
  5
6AE
330
6A6
100
AcDbEntity
  8
4
100
AcDbVertex
100
AcDb2dVertex
 10
597.0514966422252
 20
156.6879027045438
 30
0.0
  0
VERTEX
  5
6AF
330
6A6
100
AcDbEntity
  8
4
100
AcDbVertex
100
AcDb2dVertex
 10
597.0710206422254
 20
156.6382057045438
 30
0.0
  0
VERTEX
  5
6B0
330
6A6
100
AcDbEntity
  8
4
100
AcDbVertex
100
AcDb2dVertex
 10
597.0940936422253
 20
156.5902827045438
 30
0.0
  0
VERTEX
  5
6B1
330
6A6
100
AcDbEntity
  8
4
100
AcDbVertex
100
AcDb2dVertex
 10
597.1189426422254
 20
156.542360704544
 30
0.0
  0
VERTEX
  5
6B2
330
6A6
100
AcDbEntity
  8
4
100
AcDbVertex
100
AcDb2dVertex
 10
597.1455666422253
 20
156.4979877045438
 30
0.0
  0
VERTEX
  5
6B3
330
6A6
100
AcDbEntity
  8
4
100
AcDbVertex
100
AcDb2dVertex
 10
597.1739646422254
 20
156.453615704544
 30
0.0
  0
VERTEX
  5
6B4
330
6A6
100
AcDbEntity
  8
4
100
AcDbVertex
100
AcDb2dVertex
 10
597.2041376422253
 20
156.4110177045439
 30
0.0
  0
VERTEX
  5
6B5
330
6A6
100
AcDbEntity
  8
4
100
AcDbVertex
100
AcDb2dVertex
 10
597.2378606422255
 20
156.3701947045438
 30
0.0
  0
VERTEX
  5
6B6
330
6A6
100
AcDbEntity
  8
4
100
AcDbVertex
100
AcDb2dVertex
 10
597.2733586422251
 20
156.3293727045435
 30
0.0
  0
VERTEX
  5
6B7
330
6A6
100
AcDbEntity
  8
4
100
AcDbVertex
100
AcDb2dVertex
 10
597.3088576422253
 20
156.2920997045439
 30
0.0
  0
VERTEX
  5
6B8
330
6A6
100
AcDbEntity
  8
4
100
AcDbVertex
100
AcDb2dVertex
 10
597.3479046422253
 20
156.2566017045438
 30
0.0
  0
VERTEX
  5
6B9
330
6A6
100
AcDbEntity
  8
4
100
AcDbVertex
100
AcDb2dVertex
 10
597.3887276422252
 20
156.2211037045438
 30
0.0
  0
VERTEX
  5
6BA
330
6A6
100
AcDbEntity
  8
4
100
AcDbVertex
100
AcDb2dVertex
 10
597.4295506422254
 20
156.189154704544
 30
0.0
  0
VERTEX
  5
6BB
330
6A6
100
AcDbEntity
  8
4
100
AcDbVertex
100
AcDb2dVertex
 10
597.4721476422253
 20
156.1589817045438
 30
0.0
  0
VERTEX
  5
6BC
330
6A6
100
AcDbEntity
  8
4
100
AcDbVertex
100
AcDb2dVertex
 10
597.5182956422254
 20
156.1305837045439
 30
0.0
  0
VERTEX
  5
6BD
330
6A6
100
AcDbEntity
  8
4
100
AcDbVertex
100
AcDb2dVertex
 10
597.5626676422251
 20
156.1039597045438
 30
0.0
  0
VERTEX
  5
6BE
330
6A6
100
AcDbEntity
  8
4
100
AcDbVertex
100
AcDb2dVertex
 10
597.6105906422255
 20
156.0808857045438
 30
0.0
  0
VERTEX
  5
6BF
330
6A6
100
AcDbEntity
  8
4
100
AcDbVertex
100
AcDb2dVertex
 10
597.6602876422251
 20
156.0578127045437
 30
0.0
  0
VERTEX
  5
6C0
330
6A6
100
AcDbEntity
  8
4
100
AcDbVertex
100
AcDb2dVertex
 10
597.7099846422254
 20
156.0400637045439
 30
0.0
  0
VERTEX
  5
6C1
330
6A6
100
AcDbEntity
  8
4
100
AcDbVertex
100
AcDb2dVertex
 10
597.7614566422255
 20
156.0223147045437
 30
0.0
  0
VERTEX
  5
6C2
330
6A6
100
AcDbEntity
  8
4
100
AcDbVertex
100
AcDb2dVertex
 10
597.8129296422252
 20
156.006340704544
 30
0.0
  0
VERTEX
  5
6C3
330
6A6
100
AcDbEntity
  8
4
100
AcDbVertex
100
AcDb2dVertex
 10
597.8661766422253
 20
155.9956907045441
 30
0.0
  0
VERTEX
  5
6C4
330
6A6
100
AcDbEntity
  8
4
100
AcDbVertex
100
AcDb2dVertex
 10
597.9194236422253
 20
155.9850417045438
 30
0.0
  0
VERTEX
  5
6C5
330
6A6
100
AcDbEntity
  8
4
100
AcDbVertex
100
AcDb2dVertex
 10
597.9744456422253
 20
155.9797167045438
 30
0.0
  0
VERTEX
  5
6C6
330
6A6
100
AcDbEntity
  8
4
100
AcDbVertex
100
AcDb2dVertex
 10
598.0294676422253
 20
155.9743917045438
 30
0.0
  0
VERTEX
  5
6C7
330
6A6
100
AcDbEntity
  8
4
100
AcDbVertex
100
AcDb2dVertex
 10
598.0844896422255
 20
155.9726167045439
 30
0.0
  0
VERTEX
  5
6C8
330
6A6
100
AcDbEntity
  8
4
100
AcDbVertex
100
AcDb2dVertex
 10
598.0844896422255
 20
156.217553704544
 30
0.0
  0
VERTEX
  5
6C9
330
6A6
100
AcDbEntity
  8
4
100
AcDbVertex
100
AcDb2dVertex
 10
598.0418916422254
 20
156.217553704544
 30
0.0
  0
VERTEX
  5
6CA
330
6A6
100
AcDbEntity
  8
4
100
AcDbVertex
100
AcDb2dVertex
 10
597.9975186422255
 20
156.2211037045438
 30
0.0
  0
VERTEX
  5
6CB
330
6A6
100
AcDbEntity
  8
4
100
AcDbVertex
100
AcDb2dVertex
 10
597.9549216422253
 20
156.2264277045437
 30
0.0
  0
VERTEX
  5
6CC
330
6A6
100
AcDbEntity
  8
4
100
AcDbVertex
100
AcDb2dVertex
 10
597.9140986422253
 20
156.2335277045438
 30
0.0
  0
VERTEX
  5
6CD
330
6A6
100
AcDbEntity
  8
4
100
AcDbVertex
100
AcDb2dVertex
 10
597.8732756422251
 20
156.2441767045439
 30
0.0
  0
VERTEX
  5
6CE
330
6A6
100
AcDbEntity
  8
4
100
AcDbVertex
100
AcDb2dVertex
 10
597.8324536422254
 20
156.2548267045438
 30
0.0
  0
VERTEX
  5
6CF
330
6A6
100
AcDbEntity
  8
4
100
AcDbVertex
100
AcDb2dVertex
 10
597.7934056422253
 20
156.2690257045438
 30
0.0
  0
VERTEX
  5
6D0
330
6A6
100
AcDbEntity
  8
4
100
AcDbVertex
100
AcDb2dVertex
 10
597.7543576422252
 20
156.2832247045438
 30
0.0
  0
VERTEX
  5
6D1
330
6A6
100
AcDbEntity
  8
4
100
AcDbVertex
100
AcDb2dVertex
 10
597.7153096422251
 20
156.3009737045438
 30
0.0
  0
VERTEX
  5
6D2
330
6A6
100
AcDbEntity
  8
4
100
AcDbVertex
100
AcDb2dVertex
 10
597.6798116422253
 20
156.3187227045438
 30
0.0
  0
VERTEX
  5
6D3
330
6A6
100
AcDbEntity
  8
4
100
AcDbVertex
100
AcDb2dVertex
 10
597.6425386422254
 20
156.3400217045438
 30
0.0
  0
VERTEX
  5
6D4
330
6A6
100
AcDbEntity
  8
4
100
AcDbVertex
100
AcDb2dVertex
 10
597.6088156422254
 20
156.363095704544
 30
0.0
  0
VERTEX
  5
6D5
330
6A6
100
AcDbEntity
  8
4
100
AcDbVertex
100
AcDb2dVertex
 10
597.5733176422254
 20
156.386169704544
 30
0.0
  0
VERTEX
  5
6D6
330
6A6
100
AcDbEntity
  8
4
100
AcDbVertex
100
AcDb2dVertex
 10
597.5413696422252
 20
156.4110177045439
 30
0.0
  0
VERTEX
  5
6D7
330
6A6
100
AcDbEntity
  8
4
100
AcDbVertex
100
AcDb2dVertex
 10
597.5094206422254
 20
156.4376417045438
 30
0.0
  0
VERTEX
  5
6D8
330
6A6
100
AcDbEntity
  8
4
100
AcDbVertex
100
AcDb2dVertex
 10
597.4810226422255
 20
156.4660397045439
 30
0.0
  0
VERTEX
  5
6D9
330
6A6
100
AcDbEntity
  8
4
100
AcDbVertex
100
AcDb2dVertex
 10
597.4508496422254
 20
156.4962127045438
 30
0.0
  0
VERTEX
  5
6DA
330
6A6
100
AcDbEntity
  8
4
100
AcDbVertex
100
AcDb2dVertex
 10
597.4242256422253
 20
156.5263867045437
 30
0.0
  0
VERTEX
  5
6DB
330
6A6
100
AcDbEntity
  8
4
100
AcDbVertex
100
AcDb2dVertex
 10
597.3993766422254
 20
156.5583347045437
 30
0.0
  0
VERTEX
  5
6DC
330
6A6
100
AcDbEntity
  8
4
100
AcDbVertex
100
AcDb2dVertex
 10
597.3745286422253
 20
156.5920577045438
 30
0.0
  0
VERTEX
  5
6DD
330
6A6
100
AcDbEntity
  8
4
100
AcDbVertex
100
AcDb2dVertex
 10
597.3514546422253
 20
156.6257807045438
 30
0.0
  0
VERTEX
  5
6DE
330
6A6
100
AcDbEntity
  8
4
100
AcDbVertex
100
AcDb2dVertex
 10
597.3301556422255
 20
156.6612787045439
 30
0.0
  0
VERTEX
  5
6DF
330
6A6
100
AcDbEntity
  8
4
100
AcDbVertex
100
AcDb2dVertex
 10
597.3124066422256
 20
156.6985517045438
 30
0.0
  0
VERTEX
  5
6E0
330
6A6
100
AcDbEntity
  8
4
100
AcDbVertex
100
AcDb2dVertex
 10
597.2946576422251
 20
156.734049704544
 30
0.0
  0
VERTEX
  5
6E1
330
6A6
100
AcDbEntity
  8
4
100
AcDbVertex
100
AcDb2dVertex
 10
597.2786836422252
 20
156.7730977045439
 30
0.0
  0
VERTEX
  5
6E2
330
6A6
100
AcDbEntity
  8
4
100
AcDbVertex
100
AcDb2dVertex
 10
597.2644846422253
 20
156.8121457045438
 30
0.0
  0
VERTEX
  5
6E3
330
6A6
100
AcDbEntity
  8
4
100
AcDbVertex
100
AcDb2dVertex
 10
597.2538356422253
 20
156.8529687045438
 30
0.0
  0
VERTEX
  5
6E4
330
6A6
100
AcDbEntity
  8
4
100
AcDbVertex
100
AcDb2dVertex
 10
597.2449606422253
 20
156.8937907045438
 30
0.0
  0
VERTEX
  5
6E5
330
6A6
100
AcDbEntity
  8
4
100
AcDbVertex
100
AcDb2dVertex
 10
597.2360866422254
 20
156.934613704544
 30
0.0
  0
VERTEX
  5
6E6
330
6A6
100
AcDbEntity
  8
4
100
AcDbVertex
100
AcDb2dVertex
 10
597.2307616422254
 20
156.977211704544
 30
0.0
  0
VERTEX
  5
6E7
330
6A6
100
AcDbEntity
  8
4
100
AcDbVertex
100
AcDb2dVertex
 10
597.2272116422255
 20
157.0198087045437
 30
0.0
  0
VERTEX
  5
6E8
330
6A6
100
AcDbEntity
  8
4
100
AcDbVertex
100
AcDb2dVertex
 10
597.2272116422255
 20
157.0624067045438
 30
0.0
  0
VERTEX
  5
6E9
330
6A6
100
AcDbEntity
  8
4
100
AcDbVertex
100
AcDb2dVertex
 10
596.9822756422254
 20
157.0624067045438
 30
0.0
  0
VERTEX
  5
6EA
330
6A6
100
AcDbEntity
  8
4
100
AcDbVertex
100
AcDb2dVertex
 10
596.9822756422254
 20
157.0624067045438
 30
0.0
  0
SEQEND
  5
6EB
330
6A6
100
AcDbEntity
  8
4
  0
POLYLINE
  5
6EC
330
1F
100
AcDbEntity
  8
4
100
AcDb2dPolyline
 66
     1
 10
0.0
 20
0.0
 30
0.0
  0
VERTEX
  5
6ED
330
6EC
100
AcDbEntity
  8
4
100
AcDbVertex
100
AcDb2dVertex
 10
607.1738906422254
 20
160.0800477045439
 30
0.0
  0
VERTEX
  5
6EE
330
6EC
100
AcDbEntity
  8
4
100
AcDbVertex
100
AcDb2dVertex
 10
607.1738906422254
 20
158.4971897045438
 30
0.0
  0
VERTEX
  5
6EF
330
6EC
100
AcDbEntity
  8
4
100
AcDbVertex
100
AcDb2dVertex
 10
607.0608296422252
 20
158.4325837045438
 30
0.0
  0
VERTEX
  5
6F0
330
6EC
100
AcDbEntity
  8
4
100
AcDbVertex
100
AcDb2dVertex
 10
606.7054946422254
 20
158.2710677045437
 30
0.0
  0
VERTEX
  5
6F1
330
6EC
100
AcDbEntity
  8
4
100
AcDbVertex
100
AcDb2dVertex
 10
606.4470686422255
 20
158.1903097045437
 30
0.0
  0
VERTEX
  5
6F2
330
6EC
100
AcDbEntity
  8
4
100
AcDbVertex
100
AcDb2dVertex
 10
606.1563396422253
 20
158.1257027045437
 30
0.0
  0
VERTEX
  5
6F3
330
6EC
100
AcDbEntity
  8
4
100
AcDbVertex
100
AcDb2dVertex
 10
605.8171556422252
 20
158.0772487045438
 30
0.0
  0
VERTEX
  5
6F4
330
6EC
100
AcDbEntity
  8
4
100
AcDbVertex
100
AcDb2dVertex
 10
605.4456686422254
 20
158.061096704544
 30
0.0
  0
VERTEX
  5
6F5
330
6EC
100
AcDbEntity
  8
4
100
AcDbVertex
100
AcDb2dVertex
 10
605.1733986422255
 20
158.061096704544
 30
0.0
  0
VERTEX
  5
6F6
330
6EC
100
AcDbEntity
  8
4
100
AcDbVertex
100
AcDb2dVertex
 10
604.8988216422252
 20
158.0933997045438
 30
0.0
  0
VERTEX
  5
6F7
330
6EC
100
AcDbEntity
  8
4
100
AcDbVertex
100
AcDb2dVertex
 10
604.6403956422254
 20
158.1580067045438
 30
0.0
  0
VERTEX
  5
6F8
330
6EC
100
AcDbEntity
  8
4
100
AcDbVertex
100
AcDb2dVertex
 10
604.3658186422253
 20
158.2226127045439
 30
0.0
  0
VERTEX
  5
6F9
330
6EC
100
AcDbEntity
  8
4
100
AcDbVertex
100
AcDb2dVertex
 10
604.1235446422254
 20
158.3195227045439
 30
0.0
  0
VERTEX
  5
6FA
330
6EC
100
AcDbEntity
  8
4
100
AcDbVertex
100
AcDb2dVertex
 10
603.8812706422254
 20
158.4487347045437
 30
0.0
  0
VERTEX
  5
6FB
330
6EC
100
AcDbEntity
  8
4
100
AcDbVertex
100
AcDb2dVertex
 10
603.6551486422254
 20
158.5779477045438
 30
0.0
  0
VERTEX
  5
6FC
330
6EC
100
AcDbEntity
  8
4
100
AcDbVertex
100
AcDb2dVertex
 10
603.4290256422255
 20
158.739463704544
 30
0.0
  0
VERTEX
  5
6FD
330
6EC
100
AcDbEntity
  8
4
100
AcDbVertex
100
AcDb2dVertex
 10
603.2352066422254
 20
158.9332837045437
 30
0.0
  0
VERTEX
  5
6FE
330
6EC
100
AcDbEntity
  8
4
100
AcDbVertex
100
AcDb2dVertex
 10
603.0598456422254
 20
159.1432537045438
 30
0.0
  0
VERTEX
  5
6FF
330
6EC
100
AcDbEntity
  8
4
100
AcDbVertex
100
AcDb2dVertex
 10
602.9144816422252
 20
159.3693767045438
 30
0.0
  0
VERTEX
  5
700
330
6EC
100
AcDbEntity
  8
4
100
AcDbVertex
100
AcDb2dVertex
 10
602.7852686422254
 20
159.6116507045437
 30
0.0
  0
VERTEX
  5
701
330
6EC
100
AcDbEntity
  8
4
100
AcDbVertex
100
AcDb2dVertex
 10
602.6722076422254
 20
159.8862277045441
 30
0.0
  0
VERTEX
  5
702
330
6EC
100
AcDbEntity
  8
4
100
AcDbVertex
100
AcDb2dVertex
 10
602.5914496422252
 20
160.1769567045438
 30
0.0
  0
VERTEX
  5
703
330
6EC
100
AcDbEntity
  8
4
100
AcDbVertex
100
AcDb2dVertex
 10
602.5429946422255
 20
160.481529704544
 30
0.0
  0
VERTEX
  5
704
330
6EC
100
AcDbEntity
  8
4
100
AcDbVertex
100
AcDb2dVertex
 10
602.5268436422253
 20
160.8207137045438
 30
0.0
  0
VERTEX
  5
705
330
6EC
100
AcDbEntity
  8
4
100
AcDbVertex
100
AcDb2dVertex
 10
602.5752976422254
 20
161.2729587045438
 30
0.0
  0
VERTEX
  5
706
330
6EC
100
AcDbEntity
  8
4
100
AcDbVertex
100
AcDb2dVertex
 10
602.6883596422253
 20
161.7090517045437
 30
0.0
  0
VERTEX
  5
707
330
6EC
100
AcDbEntity
  8
4
100
AcDbVertex
100
AcDb2dVertex
 10
602.7691176422254
 20
161.9190227045438
 30
0.0
  0
VERTEX
  5
708
330
6EC
100
AcDbEntity
  8
4
100
AcDbVertex
100
AcDb2dVertex
 10
602.8821786422254
 20
162.1289937045439
 30
0.0
  0
VERTEX
  5
709
330
6EC
100
AcDbEntity
  8
4
100
AcDbVertex
100
AcDb2dVertex
 10
602.9952396422254
 20
162.3228127045438
 30
0.0
  0
VERTEX
  5
70A
330
6EC
100
AcDbEntity
  8
4
100
AcDbVertex
100
AcDb2dVertex
 10
603.1382966422254
 20
162.498173704544
 30
0.0
  0
VERTEX
  5
70B
330
6EC
100
AcDbEntity
  8
4
100
AcDbVertex
100
AcDb2dVertex
 10
603.3159646422253
 20
162.6596897045438
 30
0.0
  0
VERTEX
  5
70C
330
6EC
100
AcDbEntity
  8
4
100
AcDbVertex
100
AcDb2dVertex
 10
603.4936316422252
 20
162.8212057045438
 30
0.0
  0
VERTEX
  5
70D
330
6EC
100
AcDbEntity
  8
4
100
AcDbVertex
100
AcDb2dVertex
 10
603.6874516422252
 20
162.950418704544
 30
0.0
  0
VERTEX
  5
70E
330
6EC
100
AcDbEntity
  8
4
100
AcDbVertex
100
AcDb2dVertex
 10
603.9135736422252
 20
163.0634797045439
 30
0.0
  0
VERTEX
  5
70F
330
6EC
100
AcDbEntity
  8
4
100
AcDbVertex
100
AcDb2dVertex
 10
604.1558476422253
 20
163.1603887045438
 30
0.0
  0
VERTEX
  5
710
330
6EC
100
AcDbEntity
  8
4
100
AcDbVertex
100
AcDb2dVertex
 10
604.4142736422254
 20
163.2249957045439
 30
0.0
  0
VERTEX
  5
711
330
6EC
100
AcDbEntity
  8
4
100
AcDbVertex
100
AcDb2dVertex
 10
604.6888506422252
 20
163.273450704544
 30
0.0
  0
VERTEX
  5
712
330
6EC
100
AcDbEntity
  8
4
100
AcDbVertex
100
AcDb2dVertex
 10
604.9957316422253
 20
163.2896017045438
 30
0.0
  0
VERTEX
  5
713
330
6EC
100
AcDbEntity
  8
4
100
AcDbVertex
100
AcDb2dVertex
 10
605.4156726422254
 20
163.2572987045439
 30
0.0
  0
VERTEX
  5
714
330
6EC
100
AcDbEntity
  8
4
100
AcDbVertex
100
AcDb2dVertex
 10
605.8171556422252
 20
163.1442377045438
 30
0.0
  0
VERTEX
  5
715
330
6EC
100
AcDbEntity
  8
4
100
AcDbVertex
100
AcDb2dVertex
 10
606.1886426422254
 20
162.9827217045438
 30
0.0
  0
VERTEX
  5
716
330
6EC
100
AcDbEntity
  8
4
100
AcDbVertex
100
AcDb2dVertex
 10
606.5278266422254
 20
162.7727507045438
 30
0.0
  0
VERTEX
  5
717
330
6EC
100
AcDbEntity
  8
4
100
AcDbVertex
100
AcDb2dVertex
 10
606.8347066422254
 20
162.5143247045438
 30
0.0
  0
VERTEX
  5
718
330
6EC
100
AcDbEntity
  8
4
100
AcDbVertex
100
AcDb2dVertex
 10
607.0769806422254
 20
162.2420547045438
 30
0.0
  0
VERTEX
  5
719
330
6EC
100
AcDbEntity
  8
4
100
AcDbVertex
100
AcDb2dVertex
 10
607.2869516422254
 20
161.9190227045438
 30
0.0
  0
VERTEX
  5
71A
330
6EC
100
AcDbEntity
  8
4
100
AcDbVertex
100
AcDb2dVertex
 10
607.4323166422255
 20
161.5959907045438
 30
0.0
  0
VERTEX
  5
71B
330
6EC
100
AcDbEntity
  8
4
100
AcDbVertex
100
AcDb2dVertex
 10
605.0280346422253
 20
159.4985897045439
 30
0.0
  0
VERTEX
  5
71C
330
6EC
100
AcDbEntity
  8
4
100
AcDbVertex
100
AcDb2dVertex
 10
605.1249446422255
 20
159.482437704544
 30
0.0
  0
VERTEX
  5
71D
330
6EC
100
AcDbEntity
  8
4
100
AcDbVertex
100
AcDb2dVertex
 10
605.3510666422253
 20
159.4339827045438
 30
0.0
  0
VERTEX
  5
71E
330
6EC
100
AcDbEntity
  8
4
100
AcDbVertex
100
AcDb2dVertex
 10
605.6717916422256
 20
159.4339827045438
 30
0.0
  0
VERTEX
  5
71F
330
6EC
100
AcDbEntity
  8
4
100
AcDbVertex
100
AcDb2dVertex
 10
605.8656106422254
 20
159.4501347045436
 30
0.0
  0
VERTEX
  5
720
330
6EC
100
AcDbEntity
  8
4
100
AcDbVertex
100
AcDb2dVertex
 10
606.0594296422253
 20
159.4985897045439
 30
0.0
  0
VERTEX
  5
721
330
6EC
100
AcDbEntity
  8
4
100
AcDbVertex
100
AcDb2dVertex
 10
606.4632196422253
 20
159.6439537045438
 30
0.0
  0
VERTEX
  5
722
330
6EC
100
AcDbEntity
  8
4
100
AcDbVertex
100
AcDb2dVertex
 10
606.8185556422254
 20
159.8377727045438
 30
0.0
  0
VERTEX
  5
723
330
6EC
100
AcDbEntity
  8
4
100
AcDbVertex
100
AcDb2dVertex
 10
607.1738906422254
 20
160.0800477045439
 30
0.0
  0
VERTEX
  5
724
330
6EC
100
AcDbEntity
  8
4
100
AcDbVertex
100
AcDb2dVertex
 10
607.1738906422254
 20
160.0800477045439
 30
0.0
  0
SEQEND
  5
725
330
6EC
100
AcDbEntity
  8
4
  0
POLYLINE
  5
726
330
1F
100
AcDbEntity
  8
4
100
AcDb2dPolyline
 66
     1
 10
0.0
 20
0.0
 30
0.0
  0
VERTEX
  5
727
330
726
100
AcDbEntity
  8
4
100
AcDbVertex
100
AcDb2dVertex
 10
604.0589386422253
 20
160.4330747045438
 30
0.0
  0
VERTEX
  5
728
330
726
100
AcDbEntity
  8
4
100
AcDbVertex
100
AcDb2dVertex
 10
605.6233366422254
 20
161.7413547045439
 30
0.0
  0
VERTEX
  5
729
330
726
100
AcDbEntity
  8
4
100
AcDbVertex
100
AcDb2dVertex
 10
605.5102756422254
 20
161.8059617045439
 30
0.0
  0
VERTEX
  5
72A
330
726
100
AcDbEntity
  8
4
100
AcDbVertex
100
AcDb2dVertex
 10
605.3833696422254
 20
161.8705677045436
 30
0.0
  0
VERTEX
  5
72B
330
726
100
AcDbEntity
  8
4
100
AcDbVertex
100
AcDb2dVertex
 10
605.2057026422253
 20
161.9190227045438
 30
0.0
  0
VERTEX
  5
72C
330
726
100
AcDbEntity
  8
4
100
AcDbVertex
100
AcDb2dVertex
 10
605.0118826422252
 20
161.9513257045438
 30
0.0
  0
VERTEX
  5
72D
330
726
100
AcDbEntity
  8
4
100
AcDbVertex
100
AcDb2dVertex
 10
604.7857606422253
 20
161.9351747045438
 30
0.0
  0
VERTEX
  5
72E
330
726
100
AcDbEntity
  8
4
100
AcDbVertex
100
AcDb2dVertex
 10
604.5434866422254
 20
161.8544167045438
 30
0.0
  0
VERTEX
  5
72F
330
726
100
AcDbEntity
  8
4
100
AcDbVertex
100
AcDb2dVertex
 10
604.3173636422253
 20
161.6929007045438
 30
0.0
  0
VERTEX
  5
730
330
726
100
AcDbEntity
  8
4
100
AcDbVertex
100
AcDb2dVertex
 10
604.1235446422254
 20
161.4667777045438
 30
0.0
  0
VERTEX
  5
731
330
726
100
AcDbEntity
  8
4
100
AcDbVertex
100
AcDb2dVertex
 10
604.0104836422252
 20
161.2406557045438
 30
0.0
  0
VERTEX
  5
732
330
726
100
AcDbEntity
  8
4
100
AcDbVertex
100
AcDb2dVertex
 10
603.9620286422253
 20
161.0306847045438
 30
0.0
  0
VERTEX
  5
733
330
726
100
AcDbEntity
  8
4
100
AcDbVertex
100
AcDb2dVertex
 10
603.9458766422252
 20
160.8368657045438
 30
0.0
  0
VERTEX
  5
734
330
726
100
AcDbEntity
  8
4
100
AcDbVertex
100
AcDb2dVertex
 10
603.9781806422254
 20
160.6753497045438
 30
0.0
  0
VERTEX
  5
735
330
726
100
AcDbEntity
  8
4
100
AcDbVertex
100
AcDb2dVertex
 10
604.0104836422252
 20
160.546136704544
 30
0.0
  0
VERTEX
  5
736
330
726
100
AcDbEntity
  8
4
100
AcDbVertex
100
AcDb2dVertex
 10
604.0589386422253
 20
160.4330747045438
 30
0.0
  0
VERTEX
  5
737
330
726
100
AcDbEntity
  8
4
100
AcDbVertex
100
AcDb2dVertex
 10
604.0589386422253
 20
160.4330747045438
 30
0.0
  0
SEQEND
  5
738
330
726
100
AcDbEntity
  8
4
  0
POLYLINE
  5
739
330
1F
100
AcDbEntity
  8
4
100
AcDb2dPolyline
 66
     1
 10
0.0
 20
0.0
 30
0.0
  0
VERTEX
  5
73A
330
739
100
AcDbEntity
  8
4
100
AcDbVertex
100
AcDb2dVertex
 10
607.7691926422253
 20
158.1418547045438
 30
0.0
  0
VERTEX
  5
73B
330
739
100
AcDbEntity
  8
4
100
AcDbVertex
100
AcDb2dVertex
 10
607.7691926422253
 20
163.7095437045438
 30
0.0
  0
VERTEX
  5
73C
330
739
100
AcDbEntity
  8
4
100
AcDbVertex
100
AcDb2dVertex
 10
607.7853446422254
 20
163.9195147045437
 30
0.0
  0
VERTEX
  5
73D
330
739
100
AcDbEntity
  8
4
100
AcDbVertex
100
AcDb2dVertex
 10
607.8499506422254
 20
164.1617887045437
 30
0.0
  0
VERTEX
  5
73E
330
739
100
AcDbEntity
  8
4
100
AcDbVertex
100
AcDb2dVertex
 10
607.9791636422253
 20
164.4202147045438
 30
0.0
  0
VERTEX
  5
73F
330
739
100
AcDbEntity
  8
4
100
AcDbVertex
100
AcDb2dVertex
 10
608.0599216422252
 20
164.5494267045439
 30
0.0
  0
VERTEX
  5
740
330
739
100
AcDbEntity
  8
4
100
AcDbVertex
100
AcDb2dVertex
 10
608.1729826422254
 20
164.6786397045438
 30
0.0
  0
VERTEX
  5
741
330
739
100
AcDbEntity
  8
4
100
AcDbVertex
100
AcDb2dVertex
 10
608.3183476422255
 20
164.7893937045439
 30
0.0
  0
VERTEX
  5
742
330
739
100
AcDbEntity
  8
4
100
AcDbVertex
100
AcDb2dVertex
 10
608.4798636422252
 20
164.9024547045438
 30
0.0
  0
VERTEX
  5
743
330
739
100
AcDbEntity
  8
4
100
AcDbVertex
100
AcDb2dVertex
 10
608.6898346422254
 20
164.9832127045438
 30
0.0
  0
VERTEX
  5
744
330
739
100
AcDbEntity
  8
4
100
AcDbVertex
100
AcDb2dVertex
 10
608.9321086422253
 20
165.0639707045438
 30
0.0
  0
VERTEX
  5
745
330
739
100
AcDbEntity
  8
4
100
AcDbVertex
100
AcDb2dVertex
 10
609.2066856422253
 20
165.1124257045439
 30
0.0
  0
VERTEX
  5
746
330
739
100
AcDbEntity
  8
4
100
AcDbVertex
100
AcDb2dVertex
 10
609.5135656422253
 20
165.128577704544
 30
0.0
  0
VERTEX
  5
747
330
739
100
AcDbEntity
  8
4
100
AcDbVertex
100
AcDb2dVertex
 10
610.0927166422255
 20
165.128577704544
 30
0.0
  0
VERTEX
  5
748
330
739
100
AcDbEntity
  8
4
100
AcDbVertex
100
AcDb2dVertex
 10
610.0927166422255
 20
163.8872117045438
 30
0.0
  0
VERTEX
  5
749
330
739
100
AcDbEntity
  8
4
100
AcDbVertex
100
AcDb2dVertex
 10
609.9173566422255
 20
163.8872117045438
 30
0.0
  0
VERTEX
  5
74A
330
739
100
AcDbEntity
  8
4
100
AcDbVertex
100
AcDb2dVertex
 10
609.8365986422254
 20
163.8710597045438
 30
0.0
  0
VERTEX
  5
74B
330
739
100
AcDbEntity
  8
4
100
AcDbVertex
100
AcDb2dVertex
 10
609.6266276422253
 20
163.8226047045438
 30
0.0
  0
VERTEX
  5
74C
330
739
100
AcDbEntity
  8
4
100
AcDbVertex
100
AcDb2dVertex
 10
609.5297176422254
 20
163.7418467045437
 30
0.0
  0
VERTEX
  5
74D
330
739
100
AcDbEntity
  8
4
100
AcDbVertex
100
AcDb2dVertex
 10
609.4328076422255
 20
163.6449377045439
 30
0.0
  0
VERTEX
  5
74E
330
739
100
AcDbEntity
  8
4
100
AcDbVertex
100
AcDb2dVertex
 10
609.3682016422254
 20
163.5157247045438
 30
0.0
  0
VERTEX
  5
74F
330
739
100
AcDbEntity
  8
4
100
AcDbVertex
100
AcDb2dVertex
 10
609.3358986422254
 20
163.3380567045437
 30
0.0
  0
VERTEX
  5
750
330
739
100
AcDbEntity
  8
4
100
AcDbVertex
100
AcDb2dVertex
 10
609.3358986422254
 20
162.8050537045438
 30
0.0
  0
VERTEX
  5
751
330
739
100
AcDbEntity
  8
4
100
AcDbVertex
100
AcDb2dVertex
 10
610.0304176422253
 20
162.8050537045438
 30
0.0
  0
VERTEX
  5
752
330
739
100
AcDbEntity
  8
4
100
AcDbVertex
100
AcDb2dVertex
 10
610.0304176422253
 20
161.5959907045438
 30
0.0
  0
VERTEX
  5
753
330
739
100
AcDbEntity
  8
4
100
AcDbVertex
100
AcDb2dVertex
 10
609.3358986422254
 20
161.5959907045438
 30
0.0
  0
VERTEX
  5
754
330
739
100
AcDbEntity
  8
4
100
AcDbVertex
100
AcDb2dVertex
 10
609.3358986422254
 20
158.1418547045438
 30
0.0
  0
VERTEX
  5
755
330
739
100
AcDbEntity
  8
4
100
AcDbVertex
100
AcDb2dVertex
 10
607.7691926422253
 20
158.1418547045438
 30
0.0
  0
VERTEX
  5
756
330
739
100
AcDbEntity
  8
4
100
AcDbVertex
100
AcDb2dVertex
 10
607.7691926422253
 20
158.1418547045438
 30
0.0
  0
SEQEND
  5
757
330
739
100
AcDbEntity
  8
4
  0
POLYLINE
  5
758
330
1F
100
AcDbEntity
  8
4
100
AcDb2dPolyline
 66
     1
 10
0.0
 20
0.0
 30
0.0
  0
VERTEX
  5
759
330
758
100
AcDbEntity
  8
4
100
AcDbVertex
100
AcDb2dVertex
 10
617.9031716422253
 20
163.176540704544
 30
0.0
  0
VERTEX
  5
75A
330
758
100
AcDbEntity
  8
4
100
AcDbVertex
100
AcDb2dVertex
 10
619.4514176422253
 20
163.176540704544
 30
0.0
  0
VERTEX
  5
75B
330
758
100
AcDbEntity
  8
4
100
AcDbVertex
100
AcDb2dVertex
 10
619.4514176422253
 20
162.2420547045438
 30
0.0
  0
VERTEX
  5
75C
330
758
100
AcDbEntity
  8
4
100
AcDbVertex
100
AcDb2dVertex
 10
619.4514176422253
 20
162.1451457045438
 30
0.0
  0
VERTEX
  5
75D
330
758
100
AcDbEntity
  8
4
100
AcDbVertex
100
AcDb2dVertex
 10
619.4998726422254
 20
161.9190227045438
 30
0.0
  0
VERTEX
  5
75E
330
758
100
AcDbEntity
  8
4
100
AcDbVertex
100
AcDb2dVertex
 10
619.5644796422254
 20
161.7898097045438
 30
0.0
  0
VERTEX
  5
75F
330
758
100
AcDbEntity
  8
4
100
AcDbVertex
100
AcDb2dVertex
 10
619.6613886422253
 20
161.6929007045438
 30
0.0
  0
VERTEX
  5
760
330
758
100
AcDbEntity
  8
4
100
AcDbVertex
100
AcDb2dVertex
 10
619.8229046422254
 20
161.6121427045438
 30
0.0
  0
VERTEX
  5
761
330
758
100
AcDbEntity
  8
4
100
AcDbVertex
100
AcDb2dVertex
 10
620.0167236422255
 20
161.5959907045438
 30
0.0
  0
VERTEX
  5
762
330
758
100
AcDbEntity
  8
4
100
AcDbVertex
100
AcDb2dVertex
 10
620.2105436422255
 20
161.6121427045438
 30
0.0
  0
VERTEX
  5
763
330
758
100
AcDbEntity
  8
4
100
AcDbVertex
100
AcDb2dVertex
 10
620.3720596422254
 20
161.6929007045438
 30
0.0
  0
VERTEX
  5
764
330
758
100
AcDbEntity
  8
4
100
AcDbVertex
100
AcDb2dVertex
 10
620.4851206422254
 20
161.8059617045439
 30
0.0
  0
VERTEX
  5
765
330
758
100
AcDbEntity
  8
4
100
AcDbVertex
100
AcDb2dVertex
 10
620.5497266422253
 20
161.9190227045438
 30
0.0
  0
VERTEX
  5
766
330
758
100
AcDbEntity
  8
4
100
AcDbVertex
100
AcDb2dVertex
 10
620.6143336422253
 20
162.1451457045438
 30
0.0
  0
VERTEX
  5
767
330
758
100
AcDbEntity
  8
4
100
AcDbVertex
100
AcDb2dVertex
 10
620.6304846422254
 20
162.2582067045439
 30
0.0
  0
VERTEX
  5
768
330
758
100
AcDbEntity
  8
4
100
AcDbVertex
100
AcDb2dVertex
 10
620.6304846422254
 20
163.176540704544
 30
0.0
  0
VERTEX
  5
769
330
758
100
AcDbEntity
  8
4
100
AcDbVertex
100
AcDb2dVertex
 10
622.1464286422254
 20
163.176540704544
 30
0.0
  0
VERTEX
  5
76A
330
758
100
AcDbEntity
  8
4
100
AcDbVertex
100
AcDb2dVertex
 10
622.1464286422254
 20
162.0966907045438
 30
0.0
  0
VERTEX
  5
76B
330
758
100
AcDbEntity
  8
4
100
AcDbVertex
100
AcDb2dVertex
 10
622.1464286422254
 20
161.9351747045438
 30
0.0
  0
VERTEX
  5
76C
330
758
100
AcDbEntity
  8
4
100
AcDbVertex
100
AcDb2dVertex
 10
622.0818226422253
 20
161.5798387045439
 30
0.0
  0
VERTEX
  5
76D
330
758
100
AcDbEntity
  8
4
100
AcDbVertex
100
AcDb2dVertex
 10
622.0010646422252
 20
161.3698687045439
 30
0.0
  0
VERTEX
  5
76E
330
758
100
AcDbEntity
  8
4
100
AcDbVertex
100
AcDb2dVertex
 10
621.8718516422255
 20
161.1598977045439
 30
0.0
  0
VERTEX
  5
76F
330
758
100
AcDbEntity
  8
4
100
AcDbVertex
100
AcDb2dVertex
 10
621.7103356422253
 20
160.9660777045437
 30
0.0
  0
VERTEX
  5
770
330
758
100
AcDbEntity
  8
4
100
AcDbVertex
100
AcDb2dVertex
 10
621.4865206422253
 20
160.8207137045438
 30
0.0
  0
VERTEX
  5
771
330
758
100
AcDbEntity
  8
4
100
AcDbVertex
100
AcDb2dVertex
 10
621.5972736422254
 20
160.756107704544
 30
0.0
  0
VERTEX
  5
772
330
758
100
AcDbEntity
  8
4
100
AcDbVertex
100
AcDb2dVertex
 10
621.7264866422254
 20
160.6753497045438
 30
0.0
  0
VERTEX
  5
773
330
758
100
AcDbEntity
  8
4
100
AcDbVertex
100
AcDb2dVertex
 10
621.8556996422255
 20
160.546136704544
 30
0.0
  0
VERTEX
  5
774
330
758
100
AcDbEntity
  8
4
100
AcDbVertex
100
AcDb2dVertex
 10
622.0010646422252
 20
160.368468704544
 30
0.0
  0
VERTEX
  5
775
330
758
100
AcDbEntity
  8
4
100
AcDbVertex
100
AcDb2dVertex
 10
622.1141256422254
 20
160.1446537045438
 30
0.0
  0
VERTEX
  5
776
330
758
100
AcDbEntity
  8
4
100
AcDbVertex
100
AcDb2dVertex
 10
622.2110346422253
 20
159.8539247045438
 30
0.0
  0
VERTEX
  5
777
330
758
100
AcDbEntity
  8
4
100
AcDbVertex
100
AcDb2dVertex
 10
622.2433386422253
 20
159.4985897045439
 30
0.0
  0
VERTEX
  5
778
330
758
100
AcDbEntity
  8
4
100
AcDbVertex
100
AcDb2dVertex
 10
622.2433386422253
 20
158.1418547045438
 30
0.0
  0
VERTEX
  5
779
330
758
100
AcDbEntity
  8
4
100
AcDbVertex
100
AcDb2dVertex
 10
620.6466366422255
 20
158.1418547045438
 30
0.0
  0
VERTEX
  5
77A
330
758
100
AcDbEntity
  8
4
100
AcDbVertex
100
AcDb2dVertex
 10
620.6466366422255
 20
159.3693767045438
 30
0.0
  0
VERTEX
  5
77B
330
758
100
AcDbEntity
  8
4
100
AcDbVertex
100
AcDb2dVertex
 10
620.6466366422255
 20
159.482437704544
 30
0.0
  0
VERTEX
  5
77C
330
758
100
AcDbEntity
  8
4
100
AcDbVertex
100
AcDb2dVertex
 10
620.6304846422254
 20
159.6116507045437
 30
0.0
  0
VERTEX
  5
77D
330
758
100
AcDbEntity
  8
4
100
AcDbVertex
100
AcDb2dVertex
 10
620.5981816422254
 20
159.7408637045439
 30
0.0
  0
VERTEX
  5
77E
330
758
100
AcDbEntity
  8
4
100
AcDbVertex
100
AcDb2dVertex
 10
620.5335756422251
 20
159.8862277045441
 30
0.0
  0
VERTEX
  5
77F
330
758
100
AcDbEntity
  8
4
100
AcDbVertex
100
AcDb2dVertex
 10
620.4366656422255
 20
160.0154407045438
 30
0.0
  0
VERTEX
  5
780
330
758
100
AcDbEntity
  8
4
100
AcDbVertex
100
AcDb2dVertex
 10
620.2751496422254
 20
160.0961987045441
 30
0.0
  0
VERTEX
  5
781
330
758
100
AcDbEntity
  8
4
100
AcDbVertex
100
AcDb2dVertex
 10
620.0651786422254
 20
160.1285017045436
 30
0.0
  0
VERTEX
  5
782
330
758
100
AcDbEntity
  8
4
100
AcDbVertex
100
AcDb2dVertex
 10
619.8390566422252
 20
160.0961987045441
 30
0.0
  0
VERTEX
  5
783
330
758
100
AcDbEntity
  8
4
100
AcDbVertex
100
AcDb2dVertex
 10
619.6775406422253
 20
160.0154407045438
 30
0.0
  0
VERTEX
  5
784
330
758
100
AcDbEntity
  8
4
100
AcDbVertex
100
AcDb2dVertex
 10
619.5644796422254
 20
159.8862277045441
 30
0.0
  0
VERTEX
  5
785
330
758
100
AcDbEntity
  8
4
100
AcDbVertex
100
AcDb2dVertex
 10
619.4837216422254
 20
159.7570147045439
 30
0.0
  0
VERTEX
  5
786
330
758
100
AcDbEntity
  8
4
100
AcDbVertex
100
AcDb2dVertex
 10
619.4514176422253
 20
159.6116507045437
 30
0.0
  0
VERTEX
  5
787
330
758
100
AcDbEntity
  8
4
100
AcDbVertex
100
AcDb2dVertex
 10
619.4352666422253
 20
159.4985897045439
 30
0.0
  0
VERTEX
  5
788
330
758
100
AcDbEntity
  8
4
100
AcDbVertex
100
AcDb2dVertex
 10
619.4191146422252
 20
159.3693767045438
 30
0.0
  0
VERTEX
  5
789
330
758
100
AcDbEntity
  8
4
100
AcDbVertex
100
AcDb2dVertex
 10
619.4191146422252
 20
158.1418547045438
 30
0.0
  0
VERTEX
  5
78A
330
758
100
AcDbEntity
  8
4
100
AcDbVertex
100
AcDb2dVertex
 10
617.8062616422253
 20
158.1418547045438
 30
0.0
  0
VERTEX
  5
78B
330
758
100
AcDbEntity
  8
4
100
AcDbVertex
100
AcDb2dVertex
 10
617.8062616422253
 20
159.482437704544
 30
0.0
  0
VERTEX
  5
78C
330
758
100
AcDbEntity
  8
4
100
AcDbVertex
100
AcDb2dVertex
 10
617.8224136422254
 20
159.6439537045438
 30
0.0
  0
VERTEX
  5
78D
330
758
100
AcDbEntity
  8
4
100
AcDbVertex
100
AcDb2dVertex
 10
617.8547166422254
 20
159.8216217045438
 30
0.0
  0
VERTEX
  5
78E
330
758
100
AcDbEntity
  8
4
100
AcDbVertex
100
AcDb2dVertex
 10
617.9193226422255
 20
160.0315927045437
 30
0.0
  0
VERTEX
  5
78F
330
758
100
AcDbEntity
  8
4
100
AcDbVertex
100
AcDb2dVertex
 10
618.0000806422254
 20
160.2554077045438
 30
0.0
  0
VERTEX
  5
790
330
758
100
AcDbEntity
  8
4
100
AcDbVertex
100
AcDb2dVertex
 10
618.1454456422255
 20
160.481529704544
 30
0.0
  0
VERTEX
  5
791
330
758
100
AcDbEntity
  8
4
100
AcDbVertex
100
AcDb2dVertex
 10
618.3231126422254
 20
160.6753497045438
 30
0.0
  0
VERTEX
  5
792
330
758
100
AcDbEntity
  8
4
100
AcDbVertex
100
AcDb2dVertex
 10
618.4361746422252
 20
160.756107704544
 30
0.0
  0
VERTEX
  5
793
330
758
100
AcDbEntity
  8
4
100
AcDbVertex
100
AcDb2dVertex
 10
618.5815386422254
 20
160.8207137045438
 30
0.0
  0
VERTEX
  5
794
330
758
100
AcDbEntity
  8
4
100
AcDbVertex
100
AcDb2dVertex
 10
618.4684776422255
 20
160.8853197045438
 30
0.0
  0
VERTEX
  5
795
330
758
100
AcDbEntity
  8
4
100
AcDbVertex
100
AcDb2dVertex
 10
618.3715676422255
 20
160.9660777045437
 30
0.0
  0
VERTEX
  5
796
330
758
100
AcDbEntity
  8
4
100
AcDbVertex
100
AcDb2dVertex
 10
618.2423546422253
 20
161.0952907045438
 30
0.0
  0
VERTEX
  5
797
330
758
100
AcDbEntity
  8
4
100
AcDbVertex
100
AcDb2dVertex
 10
618.1131416422252
 20
161.2568067045438
 30
0.0
  0
VERTEX
  5
798
330
758
100
AcDbEntity
  8
4
100
AcDbVertex
100
AcDb2dVertex
 10
618.0162326422252
 20
161.4829297045439
 30
0.0
  0
VERTEX
  5
799
330
758
100
AcDbEntity
  8
4
100
AcDbVertex
100
AcDb2dVertex
 10
617.9354746422253
 20
161.7413547045439
 30
0.0
  0
VERTEX
  5
79A
330
758
100
AcDbEntity
  8
4
100
AcDbVertex
100
AcDb2dVertex
 10
617.9031716422253
 20
162.0805387045438
 30
0.0
  0
VERTEX
  5
79B
330
758
100
AcDbEntity
  8
4
100
AcDbVertex
100
AcDb2dVertex
 10
617.9031716422253
 20
163.176540704544
 30
0.0
  0
VERTEX
  5
79C
330
758
100
AcDbEntity
  8
4
100
AcDbVertex
100
AcDb2dVertex
 10
617.9031716422253
 20
163.176540704544
 30
0.0
  0
SEQEND
  5
79D
330
758
100
AcDbEntity
  8
4
  0
POLYLINE
  5
79E
330
1F
100
AcDbEntity
  8
4
100
AcDb2dPolyline
 66
     1
 10
0.0
 20
0.0
 30
0.0
  0
VERTEX
  5
79F
330
79E
100
AcDbEntity
  8
4
100
AcDbVertex
100
AcDb2dVertex
 10
617.3217136422254
 20
160.0800477045439
 30
0.0
  0
VERTEX
  5
7A0
330
79E
100
AcDbEntity
  8
4
100
AcDbVertex
100
AcDb2dVertex
 10
617.3217136422254
 20
158.4971897045438
 30
0.0
  0
VERTEX
  5
7A1
330
79E
100
AcDbEntity
  8
4
100
AcDbVertex
100
AcDb2dVertex
 10
617.2086526422254
 20
158.4325837045438
 30
0.0
  0
VERTEX
  5
7A2
330
79E
100
AcDbEntity
  8
4
100
AcDbVertex
100
AcDb2dVertex
 10
616.8556246422252
 20
158.2710677045437
 30
0.0
  0
VERTEX
  5
7A3
330
79E
100
AcDbEntity
  8
4
100
AcDbVertex
100
AcDb2dVertex
 10
616.6133506422254
 20
158.1903097045437
 30
0.0
  0
VERTEX
  5
7A4
330
79E
100
AcDbEntity
  8
4
100
AcDbVertex
100
AcDb2dVertex
 10
616.3064696422253
 20
158.1257027045437
 30
0.0
  0
VERTEX
  5
7A5
330
79E
100
AcDbEntity
  8
4
100
AcDbVertex
100
AcDb2dVertex
 10
615.9672856422255
 20
158.0772487045438
 30
0.0
  0
VERTEX
  5
7A6
330
79E
100
AcDbEntity
  8
4
100
AcDbVertex
100
AcDb2dVertex
 10
615.5957986422254
 20
158.061096704544
 30
0.0
  0
VERTEX
  5
7A7
330
79E
100
AcDbEntity
  8
4
100
AcDbVertex
100
AcDb2dVertex
 10
615.3212216422253
 20
158.061096704544
 30
0.0
  0
VERTEX
  5
7A8
330
79E
100
AcDbEntity
  8
4
100
AcDbVertex
100
AcDb2dVertex
 10
615.0466446422252
 20
158.0933997045438
 30
0.0
  0
VERTEX
  5
7A9
330
79E
100
AcDbEntity
  8
4
100
AcDbVertex
100
AcDb2dVertex
 10
614.7882186422255
 20
158.1580067045438
 30
0.0
  0
VERTEX
  5
7AA
330
79E
100
AcDbEntity
  8
4
100
AcDbVertex
100
AcDb2dVertex
 10
614.5159486422253
 20
158.2226127045439
 30
0.0
  0
VERTEX
  5
7AB
330
79E
100
AcDbEntity
  8
4
100
AcDbVertex
100
AcDb2dVertex
 10
614.2736746422253
 20
158.3195227045439
 30
0.0
  0
VERTEX
  5
7AC
330
79E
100
AcDbEntity
  8
4
100
AcDbVertex
100
AcDb2dVertex
 10
614.0314006422254
 20
158.4487347045437
 30
0.0
  0
VERTEX
  5
7AD
330
79E
100
AcDbEntity
  8
4
100
AcDbVertex
100
AcDb2dVertex
 10
613.8052786422254
 20
158.5779477045438
 30
0.0
  0
VERTEX
  5
7AE
330
79E
100
AcDbEntity
  8
4
100
AcDbVertex
100
AcDb2dVertex
 10
613.5953076422254
 20
158.739463704544
 30
0.0
  0
VERTEX
  5
7AF
330
79E
100
AcDbEntity
  8
4
100
AcDbVertex
100
AcDb2dVertex
 10
613.3853366422254
 20
158.9332837045437
 30
0.0
  0
VERTEX
  5
7B0
330
79E
100
AcDbEntity
  8
4
100
AcDbVertex
100
AcDb2dVertex
 10
613.2076686422256
 20
159.1432537045438
 30
0.0
  0
VERTEX
  5
7B1
330
79E
100
AcDbEntity
  8
4
100
AcDbVertex
100
AcDb2dVertex
 10
613.0623046422254
 20
159.3693767045438
 30
0.0
  0
VERTEX
  5
7B2
330
79E
100
AcDbEntity
  8
4
100
AcDbVertex
100
AcDb2dVertex
 10
612.9330916422254
 20
159.6116507045437
 30
0.0
  0
VERTEX
  5
7B3
330
79E
100
AcDbEntity
  8
4
100
AcDbVertex
100
AcDb2dVertex
 10
612.8200306422254
 20
159.8862277045441
 30
0.0
  0
VERTEX
  5
7B4
330
79E
100
AcDbEntity
  8
4
100
AcDbVertex
100
AcDb2dVertex
 10
612.7392726422254
 20
160.1769567045438
 30
0.0
  0
VERTEX
  5
7B5
330
79E
100
AcDbEntity
  8
4
100
AcDbVertex
100
AcDb2dVertex
 10
612.6908176422253
 20
160.481529704544
 30
0.0
  0
VERTEX
  5
7B6
330
79E
100
AcDbEntity
  8
4
100
AcDbVertex
100
AcDb2dVertex
 10
612.6746656422255
 20
160.8207137045438
 30
0.0
  0
VERTEX
  5
7B7
330
79E
100
AcDbEntity
  8
4
100
AcDbVertex
100
AcDb2dVertex
 10
612.7231206422253
 20
161.2729587045438
 30
0.0
  0
VERTEX
  5
7B8
330
79E
100
AcDbEntity
  8
4
100
AcDbVertex
100
AcDb2dVertex
 10
612.8361816422255
 20
161.7090517045437
 30
0.0
  0
VERTEX
  5
7B9
330
79E
100
AcDbEntity
  8
4
100
AcDbVertex
100
AcDb2dVertex
 10
612.9169396422255
 20
161.9190227045438
 30
0.0
  0
VERTEX
  5
7BA
330
79E
100
AcDbEntity
  8
4
100
AcDbVertex
100
AcDb2dVertex
 10
613.0300016422254
 20
162.1289937045439
 30
0.0
  0
VERTEX
  5
7BB
330
79E
100
AcDbEntity
  8
4
100
AcDbVertex
100
AcDb2dVertex
 10
613.1592136422255
 20
162.3228127045438
 30
0.0
  0
VERTEX
  5
7BC
330
79E
100
AcDbEntity
  8
4
100
AcDbVertex
100
AcDb2dVertex
 10
613.2884266422254
 20
162.498173704544
 30
0.0
  0
VERTEX
  5
7BD
330
79E
100
AcDbEntity
  8
4
100
AcDbVertex
100
AcDb2dVertex
 10
613.4660946422253
 20
162.6596897045438
 30
0.0
  0
VERTEX
  5
7BE
330
79E
100
AcDbEntity
  8
4
100
AcDbVertex
100
AcDb2dVertex
 10
613.6437626422255
 20
162.8212057045438
 30
0.0
  0
VERTEX
  5
7BF
330
79E
100
AcDbEntity
  8
4
100
AcDbVertex
100
AcDb2dVertex
 10
613.8375816422255
 20
162.950418704544
 30
0.0
  0
VERTEX
  5
7C0
330
79E
100
AcDbEntity
  8
4
100
AcDbVertex
100
AcDb2dVertex
 10
614.0637036422254
 20
163.0634797045439
 30
0.0
  0
VERTEX
  5
7C1
330
79E
100
AcDbEntity
  8
4
100
AcDbVertex
100
AcDb2dVertex
 10
614.3059776422253
 20
163.1603887045438
 30
0.0
  0
VERTEX
  5
7C2
330
79E
100
AcDbEntity
  8
4
100
AcDbVertex
100
AcDb2dVertex
 10
614.5644036422254
 20
163.2249957045439
 30
0.0
  0
VERTEX
  5
7C3
330
79E
100
AcDbEntity
  8
4
100
AcDbVertex
100
AcDb2dVertex
 10
614.8366736422254
 20
163.273450704544
 30
0.0
  0
VERTEX
  5
7C4
330
79E
100
AcDbEntity
  8
4
100
AcDbVertex
100
AcDb2dVertex
 10
615.1435536422255
 20
163.2896017045438
 30
0.0
  0
VERTEX
  5
7C5
330
79E
100
AcDbEntity
  8
4
100
AcDbVertex
100
AcDb2dVertex
 10
615.5634956422253
 20
163.2572987045439
 30
0.0
  0
VERTEX
  5
7C6
330
79E
100
AcDbEntity
  8
4
100
AcDbVertex
100
AcDb2dVertex
 10
615.9672856422255
 20
163.1442377045438
 30
0.0
  0
VERTEX
  5
7C7
330
79E
100
AcDbEntity
  8
4
100
AcDbVertex
100
AcDb2dVertex
 10
616.3387726422254
 20
162.9827217045438
 30
0.0
  0
VERTEX
  5
7C8
330
79E
100
AcDbEntity
  8
4
100
AcDbVertex
100
AcDb2dVertex
 10
616.6779566422254
 20
162.7727507045438
 30
0.0
  0
VERTEX
  5
7C9
330
79E
100
AcDbEntity
  8
4
100
AcDbVertex
100
AcDb2dVertex
 10
616.9825296422255
 20
162.5143247045438
 30
0.0
  0
VERTEX
  5
7CA
330
79E
100
AcDbEntity
  8
4
100
AcDbVertex
100
AcDb2dVertex
 10
617.2248036422254
 20
162.2420547045438
 30
0.0
  0
VERTEX
  5
7CB
330
79E
100
AcDbEntity
  8
4
100
AcDbVertex
100
AcDb2dVertex
 10
617.4347746422254
 20
161.9190227045438
 30
0.0
  0
VERTEX
  5
7CC
330
79E
100
AcDbEntity
  8
4
100
AcDbVertex
100
AcDb2dVertex
 10
617.5801386422254
 20
161.5959907045438
 30
0.0
  0
VERTEX
  5
7CD
330
79E
100
AcDbEntity
  8
4
100
AcDbVertex
100
AcDb2dVertex
 10
615.1758576422253
 20
159.4985897045439
 30
0.0
  0
VERTEX
  5
7CE
330
79E
100
AcDbEntity
  8
4
100
AcDbVertex
100
AcDb2dVertex
 10
615.2727666422252
 20
159.482437704544
 30
0.0
  0
VERTEX
  5
7CF
330
79E
100
AcDbEntity
  8
4
100
AcDbVertex
100
AcDb2dVertex
 10
615.4988896422255
 20
159.4339827045438
 30
0.0
  0
VERTEX
  5
7D0
330
79E
100
AcDbEntity
  8
4
100
AcDbVertex
100
AcDb2dVertex
 10
615.8219216422253
 20
159.4339827045438
 30
0.0
  0
VERTEX
  5
7D1
330
79E
100
AcDbEntity
  8
4
100
AcDbVertex
100
AcDb2dVertex
 10
616.0157406422253
 20
159.4501347045436
 30
0.0
  0
VERTEX
  5
7D2
330
79E
100
AcDbEntity
  8
4
100
AcDbVertex
100
AcDb2dVertex
 10
616.2095596422253
 20
159.4985897045439
 30
0.0
  0
VERTEX
  5
7D3
330
79E
100
AcDbEntity
  8
4
100
AcDbVertex
100
AcDb2dVertex
 10
616.6133506422254
 20
159.6439537045438
 30
0.0
  0
VERTEX
  5
7D4
330
79E
100
AcDbEntity
  8
4
100
AcDbVertex
100
AcDb2dVertex
 10
616.9663776422253
 20
159.8377727045438
 30
0.0
  0
VERTEX
  5
7D5
330
79E
100
AcDbEntity
  8
4
100
AcDbVertex
100
AcDb2dVertex
 10
617.3217136422254
 20
160.0800477045439
 30
0.0
  0
VERTEX
  5
7D6
330
79E
100
AcDbEntity
  8
4
100
AcDbVertex
100
AcDb2dVertex
 10
617.3217136422254
 20
160.0800477045439
 30
0.0
  0
SEQEND
  5
7D7
330
79E
100
AcDbEntity
  8
4
  0
POLYLINE
  5
7D8
330
1F
100
AcDbEntity
  8
4
100
AcDb2dPolyline
 66
     1
 10
0.0
 20
0.0
 30
0.0
  0
VERTEX
  5
7D9
330
7D8
100
AcDbEntity
  8
4
100
AcDbVertex
100
AcDb2dVertex
 10
614.2090686422253
 20
160.4330747045438
 30
0.0
  0
VERTEX
  5
7DA
330
7D8
100
AcDbEntity
  8
4
100
AcDbVertex
100
AcDb2dVertex
 10
615.7734666422253
 20
161.7413547045439
 30
0.0
  0
VERTEX
  5
7DB
330
7D8
100
AcDbEntity
  8
4
100
AcDbVertex
100
AcDb2dVertex
 10
615.6604056422254
 20
161.8059617045439
 30
0.0
  0
VERTEX
  5
7DC
330
7D8
100
AcDbEntity
  8
4
100
AcDbVertex
100
AcDb2dVertex
 10
615.5311926422252
 20
161.8705677045436
 30
0.0
  0
VERTEX
  5
7DD
330
7D8
100
AcDbEntity
  8
4
100
AcDbVertex
100
AcDb2dVertex
 10
615.3535246422253
 20
161.9190227045438
 30
0.0
  0
VERTEX
  5
7DE
330
7D8
100
AcDbEntity
  8
4
100
AcDbVertex
100
AcDb2dVertex
 10
615.1597056422254
 20
161.9513257045438
 30
0.0
  0
VERTEX
  5
7DF
330
7D8
100
AcDbEntity
  8
4
100
AcDbVertex
100
AcDb2dVertex
 10
614.9335836422253
 20
161.9351747045438
 30
0.0
  0
VERTEX
  5
7E0
330
7D8
100
AcDbEntity
  8
4
100
AcDbVertex
100
AcDb2dVertex
 10
614.6913096422252
 20
161.8544167045438
 30
0.0
  0
VERTEX
  5
7E1
330
7D8
100
AcDbEntity
  8
4
100
AcDbVertex
100
AcDb2dVertex
 10
614.4674936422253
 20
161.6929007045438
 30
0.0
  0
VERTEX
  5
7E2
330
7D8
100
AcDbEntity
  8
4
100
AcDbVertex
100
AcDb2dVertex
 10
614.2736746422253
 20
161.4667777045438
 30
0.0
  0
VERTEX
  5
7E3
330
7D8
100
AcDbEntity
  8
4
100
AcDbVertex
100
AcDb2dVertex
 10
614.1606136422254
 20
161.2406557045438
 30
0.0
  0
VERTEX
  5
7E4
330
7D8
100
AcDbEntity
  8
4
100
AcDbVertex
100
AcDb2dVertex
 10
614.1121586422253
 20
161.0306847045438
 30
0.0
  0
VERTEX
  5
7E5
330
7D8
100
AcDbEntity
  8
4
100
AcDbVertex
100
AcDb2dVertex
 10
614.0960076422253
 20
160.8368657045438
 30
0.0
  0
VERTEX
  5
7E6
330
7D8
100
AcDbEntity
  8
4
100
AcDbVertex
100
AcDb2dVertex
 10
614.1283106422254
 20
160.6753497045438
 30
0.0
  0
VERTEX
  5
7E7
330
7D8
100
AcDbEntity
  8
4
100
AcDbVertex
100
AcDb2dVertex
 10
614.1606136422254
 20
160.546136704544
 30
0.0
  0
VERTEX
  5
7E8
330
7D8
100
AcDbEntity
  8
4
100
AcDbVertex
100
AcDb2dVertex
 10
614.2090686422253
 20
160.4330747045438
 30
0.0
  0
VERTEX
  5
7E9
330
7D8
100
AcDbEntity
  8
4
100
AcDbVertex
100
AcDb2dVertex
 10
614.2090686422253
 20
160.4330747045438
 30
0.0
  0
SEQEND
  5
7EA
330
7D8
100
AcDbEntity
  8
4
  0
POLYLINE
  5
7EB
330
1F
100
AcDbEntity
  8
4
100
AcDb2dPolyline
 66
     1
 10
0.0
 20
0.0
 30
0.0
  0
VERTEX
  5
7EC
330
7EB
100
AcDbEntity
  8
4
100
AcDbVertex
100
AcDb2dVertex
 10
625.4268496422253
 20
165.6156577045438
 30
0.0
  0
VERTEX
  5
7ED
330
7EB
100
AcDbEntity
  8
4
100
AcDbVertex
100
AcDb2dVertex
 10
625.4250746422253
 20
165.6706797045438
 30
0.0
  0
VERTEX
  5
7EE
330
7EB
100
AcDbEntity
  8
4
100
AcDbVertex
100
AcDb2dVertex
 10
625.4197496422253
 20
165.7257017045438
 30
0.0
  0
VERTEX
  5
7EF
330
7EB
100
AcDbEntity
  8
4
100
AcDbVertex
100
AcDb2dVertex
 10
625.4144246422254
 20
165.7807237045438
 30
0.0
  0
VERTEX
  5
7F0
330
7EB
100
AcDbEntity
  8
4
100
AcDbVertex
100
AcDb2dVertex
 10
625.4037756422254
 20
165.8339707045438
 30
0.0
  0
VERTEX
  5
7F1
330
7EB
100
AcDbEntity
  8
4
100
AcDbVertex
100
AcDb2dVertex
 10
625.3913516422253
 20
165.8872177045438
 30
0.0
  0
VERTEX
  5
7F2
330
7EB
100
AcDbEntity
  8
4
100
AcDbVertex
100
AcDb2dVertex
 10
625.3771516422253
 20
165.9386897045438
 30
0.0
  0
VERTEX
  5
7F3
330
7EB
100
AcDbEntity
  8
4
100
AcDbVertex
100
AcDb2dVertex
 10
625.3594026422254
 20
165.990161704544
 30
0.0
  0
VERTEX
  5
7F4
330
7EB
100
AcDbEntity
  8
4
100
AcDbVertex
100
AcDb2dVertex
 10
625.3398786422252
 20
166.0398597045438
 30
0.0
  0
VERTEX
  5
7F5
330
7EB
100
AcDbEntity
  8
4
100
AcDbVertex
100
AcDb2dVertex
 10
625.3185806422253
 20
166.0895567045438
 30
0.0
  0
VERTEX
  5
7F6
330
7EB
100
AcDbEntity
  8
4
100
AcDbVertex
100
AcDb2dVertex
 10
625.2937316422254
 20
166.135703704544
 30
0.0
  0
VERTEX
  5
7F7
330
7EB
100
AcDbEntity
  8
4
100
AcDbVertex
100
AcDb2dVertex
 10
625.2688826422254
 20
166.1818517045437
 30
0.0
  0
VERTEX
  5
7F8
330
7EB
100
AcDbEntity
  8
4
100
AcDbVertex
100
AcDb2dVertex
 10
625.2387096422253
 20
166.2279987045438
 30
0.0
  0
VERTEX
  5
7F9
330
7EB
100
AcDbEntity
  8
4
100
AcDbVertex
100
AcDb2dVertex
 10
625.2085366422254
 20
166.2705967045438
 30
0.0
  0
VERTEX
  5
7FA
330
7EB
100
AcDbEntity
  8
4
100
AcDbVertex
100
AcDb2dVertex
 10
625.1765876422251
 20
166.3131947045438
 30
0.0
  0
VERTEX
  5
7FB
330
7EB
100
AcDbEntity
  8
4
100
AcDbVertex
100
AcDb2dVertex
 10
625.1410896422255
 20
166.3522417045438
 30
0.0
  0
VERTEX
  5
7FC
330
7EB
100
AcDbEntity
  8
4
100
AcDbVertex
100
AcDb2dVertex
 10
625.1055916422252
 20
166.3912897045435
 30
0.0
  0
VERTEX
  5
7FD
330
7EB
100
AcDbEntity
  8
4
100
AcDbVertex
100
AcDb2dVertex
 10
625.0683186422255
 20
166.4267877045438
 30
0.0
  0
VERTEX
  5
7FE
330
7EB
100
AcDbEntity
  8
4
100
AcDbVertex
100
AcDb2dVertex
 10
625.0274966422253
 20
166.4622857045438
 30
0.0
  0
VERTEX
  5
7FF
330
7EB
100
AcDbEntity
  8
4
100
AcDbVertex
100
AcDb2dVertex
 10
624.9866736422253
 20
166.4960087045438
 30
0.0
  0
VERTEX
  5
800
330
7EB
100
AcDbEntity
  8
4
100
AcDbVertex
100
AcDb2dVertex
 10
624.9423006422253
 20
166.5261827045438
 30
0.0
  0
VERTEX
  5
801
330
7EB
100
AcDbEntity
  8
4
100
AcDbVertex
100
AcDb2dVertex
 10
624.8979286422255
 20
166.5563557045436
 30
0.0
  0
VERTEX
  5
802
330
7EB
100
AcDbEntity
  8
4
100
AcDbVertex
100
AcDb2dVertex
 10
624.8517806422253
 20
166.5829797045438
 30
0.0
  0
VERTEX
  5
803
330
7EB
100
AcDbEntity
  8
4
100
AcDbVertex
100
AcDb2dVertex
 10
624.8038586422254
 20
166.6078277045437
 30
0.0
  0
VERTEX
  5
804
330
7EB
100
AcDbEntity
  8
4
100
AcDbVertex
100
AcDb2dVertex
 10
624.7559366422254
 20
166.6291267045438
 30
0.0
  0
VERTEX
  5
805
330
7EB
100
AcDbEntity
  8
4
100
AcDbVertex
100
AcDb2dVertex
 10
624.7044646422255
 20
166.6486507045438
 30
0.0
  0
VERTEX
  5
806
330
7EB
100
AcDbEntity
  8
4
100
AcDbVertex
100
AcDb2dVertex
 10
624.6529916422253
 20
166.6663997045437
 30
0.0
  0
VERTEX
  5
807
330
7EB
100
AcDbEntity
  8
4
100
AcDbVertex
100
AcDb2dVertex
 10
624.6015196422254
 20
166.6823737045438
 30
0.0
  0
VERTEX
  5
808
330
7EB
100
AcDbEntity
  8
4
100
AcDbVertex
100
AcDb2dVertex
 10
624.5464976422254
 20
166.6947977045438
 30
0.0
  0
VERTEX
  5
809
330
7EB
100
AcDbEntity
  8
4
100
AcDbVertex
100
AcDb2dVertex
 10
624.4932506422253
 20
166.7036727045438
 30
0.0
  0
VERTEX
  5
80A
330
7EB
100
AcDbEntity
  8
4
100
AcDbVertex
100
AcDb2dVertex
 10
624.4364536422254
 20
166.7107717045438
 30
0.0
  0
VERTEX
  5
80B
330
7EB
100
AcDbEntity
  8
4
100
AcDbVertex
100
AcDb2dVertex
 10
624.3814326422254
 20
166.716096704544
 30
0.0
  0
VERTEX
  5
80C
330
7EB
100
AcDbEntity
  8
4
100
AcDbVertex
100
AcDb2dVertex
 10
624.3246356422255
 20
166.7178717045437
 30
0.0
  0
VERTEX
  5
80D
330
7EB
100
AcDbEntity
  8
4
100
AcDbVertex
100
AcDb2dVertex
 10
624.3246356422255
 20
166.4729357045438
 30
0.0
  0
VERTEX
  5
80E
330
7EB
100
AcDbEntity
  8
4
100
AcDbVertex
100
AcDb2dVertex
 10
624.3690076422254
 20
166.4729357045438
 30
0.0
  0
VERTEX
  5
80F
330
7EB
100
AcDbEntity
  8
4
100
AcDbVertex
100
AcDb2dVertex
 10
624.4133806422253
 20
166.4693857045439
 30
0.0
  0
VERTEX
  5
810
330
7EB
100
AcDbEntity
  8
4
100
AcDbVertex
100
AcDb2dVertex
 10
624.4559776422254
 20
166.4622857045438
 30
0.0
  0
VERTEX
  5
811
330
7EB
100
AcDbEntity
  8
4
100
AcDbVertex
100
AcDb2dVertex
 10
624.4985756422254
 20
166.455186704544
 30
0.0
  0
VERTEX
  5
812
330
7EB
100
AcDbEntity
  8
4
100
AcDbVertex
100
AcDb2dVertex
 10
624.5393986422254
 20
166.446311704544
 30
0.0
  0
VERTEX
  5
813
330
7EB
100
AcDbEntity
  8
4
100
AcDbVertex
100
AcDb2dVertex
 10
624.5802216422251
 20
166.433887704544
 30
0.0
  0
VERTEX
  5
814
330
7EB
100
AcDbEntity
  8
4
100
AcDbVertex
100
AcDb2dVertex
 10
624.6210436422253
 20
166.4196887045438
 30
0.0
  0
VERTEX
  5
815
330
7EB
100
AcDbEntity
  8
4
100
AcDbVertex
100
AcDb2dVertex
 10
624.6600916422253
 20
166.4054887045439
 30
0.0
  0
VERTEX
  5
816
330
7EB
100
AcDbEntity
  8
4
100
AcDbVertex
100
AcDb2dVertex
 10
624.6973646422254
 20
166.3877397045437
 30
0.0
  0
VERTEX
  5
817
330
7EB
100
AcDbEntity
  8
4
100
AcDbVertex
100
AcDb2dVertex
 10
624.7346376422252
 20
166.368215704544
 30
0.0
  0
VERTEX
  5
818
330
7EB
100
AcDbEntity
  8
4
100
AcDbVertex
100
AcDb2dVertex
 10
624.7701356422253
 20
166.3469177045438
 30
0.0
  0
VERTEX
  5
819
330
7EB
100
AcDbEntity
  8
4
100
AcDbVertex
100
AcDb2dVertex
 10
624.8056336422251
 20
166.3256187045438
 30
0.0
  0
VERTEX
  5
81A
330
7EB
100
AcDbEntity
  8
4
100
AcDbVertex
100
AcDb2dVertex
 10
624.8393566422255
 20
166.300769704544
 30
0.0
  0
VERTEX
  5
81B
330
7EB
100
AcDbEntity
  8
4
100
AcDbVertex
100
AcDb2dVertex
 10
624.8713046422254
 20
166.275921704544
 30
0.0
  0
VERTEX
  5
81C
330
7EB
100
AcDbEntity
  8
4
100
AcDbVertex
100
AcDb2dVertex
 10
624.9032536422252
 20
166.2475227045437
 30
0.0
  0
VERTEX
  5
81D
330
7EB
100
AcDbEntity
  8
4
100
AcDbVertex
100
AcDb2dVertex
 10
624.9334266422254
 20
166.2191247045438
 30
0.0
  0
VERTEX
  5
81E
330
7EB
100
AcDbEntity
  8
4
100
AcDbVertex
100
AcDb2dVertex
 10
624.9600496422252
 20
166.1889507045438
 30
0.0
  0
VERTEX
  5
81F
330
7EB
100
AcDbEntity
  8
4
100
AcDbVertex
100
AcDb2dVertex
 10
624.9884486422254
 20
166.1587777045438
 30
0.0
  0
VERTEX
  5
820
330
7EB
100
AcDbEntity
  8
4
100
AcDbVertex
100
AcDb2dVertex
 10
625.0132976422255
 20
166.1250547045438
 30
0.0
  0
VERTEX
  5
821
330
7EB
100
AcDbEntity
  8
4
100
AcDbVertex
100
AcDb2dVertex
 10
625.0363706422254
 20
166.0913317045438
 30
0.0
  0
VERTEX
  5
822
330
7EB
100
AcDbEntity
  8
4
100
AcDbVertex
100
AcDb2dVertex
 10
625.0594446422253
 20
166.0576087045438
 30
0.0
  0
VERTEX
  5
823
330
7EB
100
AcDbEntity
  8
4
100
AcDbVertex
100
AcDb2dVertex
 10
625.0789686422254
 20
166.020335704544
 30
0.0
  0
VERTEX
  5
824
330
7EB
100
AcDbEntity
  8
4
100
AcDbVertex
100
AcDb2dVertex
 10
625.0984926422254
 20
165.9848377045438
 30
0.0
  0
VERTEX
  5
825
330
7EB
100
AcDbEntity
  8
4
100
AcDbVertex
100
AcDb2dVertex
 10
625.1162416422253
 20
165.9457897045439
 30
0.0
  0
VERTEX
  5
826
330
7EB
100
AcDbEntity
  8
4
100
AcDbVertex
100
AcDb2dVertex
 10
625.1304406422255
 20
165.9067417045438
 30
0.0
  0
VERTEX
  5
827
330
7EB
100
AcDbEntity
  8
4
100
AcDbVertex
100
AcDb2dVertex
 10
625.1446396422254
 20
165.8676937045439
 30
0.0
  0
VERTEX
  5
828
330
7EB
100
AcDbEntity
  8
4
100
AcDbVertex
100
AcDb2dVertex
 10
625.1552896422253
 20
165.8268707045438
 30
0.0
  0
VERTEX
  5
829
330
7EB
100
AcDbEntity
  8
4
100
AcDbVertex
100
AcDb2dVertex
 10
625.1659386422254
 20
165.786048704544
 30
0.0
  0
VERTEX
  5
82A
330
7EB
100
AcDbEntity
  8
4
100
AcDbVertex
100
AcDb2dVertex
 10
625.1730386422255
 20
165.7434507045436
 30
0.0
  0
VERTEX
  5
82B
330
7EB
100
AcDbEntity
  8
4
100
AcDbVertex
100
AcDb2dVertex
 10
625.1783626422255
 20
165.7026277045439
 30
0.0
  0
VERTEX
  5
82C
330
7EB
100
AcDbEntity
  8
4
100
AcDbVertex
100
AcDb2dVertex
 10
625.1819126422254
 20
165.6582557045438
 30
0.0
  0
VERTEX
  5
82D
330
7EB
100
AcDbEntity
  8
4
100
AcDbVertex
100
AcDb2dVertex
 10
625.1819126422254
 20
165.6156577045438
 30
0.0
  0
VERTEX
  5
82E
330
7EB
100
AcDbEntity
  8
4
100
AcDbVertex
100
AcDb2dVertex
 10
625.4268496422253
 20
165.6156577045438
 30
0.0
  0
VERTEX
  5
82F
330
7EB
100
AcDbEntity
  8
4
100
AcDbVertex
100
AcDb2dVertex
 10
625.4268496422253
 20
165.6156577045438
 30
0.0
  0
SEQEND
  5
830
330
7EB
100
AcDbEntity
  8
4
  0
HATCH
  5
831
330
1F
100
AcDbEntity
  8
4
100
AcDbHatch
 10
0.0
 20
0.0
 30
0.0
210
0.0
220
0.0
230
1.0
  2
SOLID
 70
     1
 71
     0
 91
        2
 92
        7
 72
     0
 73
     1
 93
        4
 10
625.3043810223815
 20
165.615657868761
 10
625.1819128079164
 20
165.615657868761
 10
625.1819128079164
 20
157.0624067744451
 10
625.3043810223815
 20
157.0624067744451
 97
        0
 92
        7
 72
     0
 73
     1
 93
       42
 10
625.2298351527074
 20
156.6914523277317
 10
625.2919567107694
 20
156.8653926903053
 10
625.3043810223815
 20
157.0624067744451
 10
625.1819128079164
 20
157.0624067744451
 10
625.1819128079164
 20
157.0198091346307
 10
625.1783630045983
 20
156.9772114948161
 10
625.173038299622
 20
156.9346138550073
 10
625.165938692986
 20
156.8920162151887
 10
625.1552892830311
 20
156.8511934770272
 10
625.1446398730795
 20
156.8121456405388
 10
625.1304406598076
 20
156.7730978040418
 10
625.1162414465369
 20
156.7340499675466
 10
625.0984924299473
 20
156.6967770327084
 10
625.080743413358
 20
156.6595040978706
 10
625.0594445934519
 20
156.6257809663498
 10
625.0381457735443
 20
156.5902829331735
 10
625.0132971503197
 20
156.5583347033109
 10
624.9884485270943
 20
156.5246115717928
 10
624.9618250022113
 20
156.4944382435934
 10
624.9334265756665
 20
156.4660398170487
 10
624.903253247468
 20
156.4376413905068
 10
624.8730799192647
 20
156.4110178656224
 10
624.839356787746
 20
156.3861692423983
 10
624.8056336562251
 20
156.3613206191724
 10
624.7719105247036
 20
156.3400217992653
 10
624.7364124915288
 20
156.3187229793593
 10
624.699139556692
 20
156.300973962769
 10
624.6600917201954
 20
156.2832249461812
 10
624.6210438836993
 20
156.2690257329097
 10
624.5819960472031
 20
156.2548265196382
 10
624.5411733090466
 20
156.2441771096843
 10
624.498575669234
 20
156.2353026013903
 10
624.4559780294196
 20
156.2264280930955
 10
624.4133803896055
 20
156.2211033881188
 10
624.3690078481327
 20
156.2175535848013
 10
624.32463530666
 20
156.2175535848013
 10
624.32463530666
 20
156.0950853703357
 10
624.5216493907995
 20
156.1075096819481
 10
624.7080140649862
 20
156.1696312400104
 10
624.8695301159467
 20
156.2566014212972
 10
625.0186218552965
 20
156.3808445374218
 10
625.1428649714199
 20
156.517511965158
 97
        0
 75
     0
 76
     1
 47
0.013813
 98
        2
 10
625.2669736422252
 20
163.5389637045438
 10
625.1265146422253
 20
156.6434747045437
450
        0
451
        0
460
0.0
461
0.0
452
        0
462
0.0
453
        0
470

  0
POLYLINE
  5
832
330
1F
100
AcDbEntity
  8
4
100
AcDb2dPolyline
 66
     1
 10
0.0
 20
0.0
 30
0.0
  0
VERTEX
  5
833
330
832
100
AcDbEntity
  8
4
100
AcDbVertex
100
AcDb2dVertex
 10
625.4268496422253
 20
157.0624067045438
 30
0.0
  0
VERTEX
  5
834
330
832
100
AcDbEntity
  8
4
100
AcDbVertex
100
AcDb2dVertex
 10
625.4268496422253
 20
165.6156577045438
 30
0.0
  0
VERTEX
  5
835
330
832
100
AcDbEntity
  8
4
100
AcDbVertex
100
AcDb2dVertex
 10
625.1819126422254
 20
165.6156577045438
 30
0.0
  0
VERTEX
  5
836
330
832
100
AcDbEntity
  8
4
100
AcDbVertex
100
AcDb2dVertex
 10
625.1819126422254
 20
157.0624067045438
 30
0.0
  0
VERTEX
  5
837
330
832
100
AcDbEntity
  8
4
100
AcDbVertex
100
AcDb2dVertex
 10
625.4268496422253
 20
157.0624067045438
 30
0.0
  0
VERTEX
  5
838
330
832
100
AcDbEntity
  8
4
100
AcDbVertex
100
AcDb2dVertex
 10
625.4268496422253
 20
157.0624067045438
 30
0.0
  0
SEQEND
  5
839
330
832
100
AcDbEntity
  8
4
  0
POLYLINE
  5
83A
330
1F
100
AcDbEntity
  8
4
100
AcDb2dPolyline
 66
     1
 10
0.0
 20
0.0
 30
0.0
  0
VERTEX
  5
83B
330
83A
100
AcDbEntity
  8
4
100
AcDbVertex
100
AcDb2dVertex
 10
624.3246356422255
 20
155.9726167045439
 30
0.0
  0
VERTEX
  5
83C
330
83A
100
AcDbEntity
  8
4
100
AcDbVertex
100
AcDb2dVertex
 10
624.3796576422253
 20
155.9743917045438
 30
0.0
  0
VERTEX
  5
83D
330
83A
100
AcDbEntity
  8
4
100
AcDbVertex
100
AcDb2dVertex
 10
624.4364536422254
 20
155.9797167045438
 30
0.0
  0
VERTEX
  5
83E
330
83A
100
AcDbEntity
  8
4
100
AcDbVertex
100
AcDb2dVertex
 10
624.4932506422253
 20
155.9850417045438
 30
0.0
  0
VERTEX
  5
83F
330
83A
100
AcDbEntity
  8
4
100
AcDbVertex
100
AcDb2dVertex
 10
624.5464976422254
 20
155.9956907045441
 30
0.0
  0
VERTEX
  5
840
330
83A
100
AcDbEntity
  8
4
100
AcDbVertex
100
AcDb2dVertex
 10
624.5997446422253
 20
156.006340704544
 30
0.0
  0
VERTEX
  5
841
330
83A
100
AcDbEntity
  8
4
100
AcDbVertex
100
AcDb2dVertex
 10
624.6529916422253
 20
156.0223147045437
 30
0.0
  0
VERTEX
  5
842
330
83A
100
AcDbEntity
  8
4
100
AcDbVertex
100
AcDb2dVertex
 10
624.7044646422255
 20
156.0400637045439
 30
0.0
  0
VERTEX
  5
843
330
83A
100
AcDbEntity
  8
4
100
AcDbVertex
100
AcDb2dVertex
 10
624.7541616422254
 20
156.0578127045437
 30
0.0
  0
VERTEX
  5
844
330
83A
100
AcDbEntity
  8
4
100
AcDbVertex
100
AcDb2dVertex
 10
624.8038586422254
 20
156.0808857045438
 30
0.0
  0
VERTEX
  5
845
330
83A
100
AcDbEntity
  8
4
100
AcDbVertex
100
AcDb2dVertex
 10
624.8500066422255
 20
156.1039597045438
 30
0.0
  0
VERTEX
  5
846
330
83A
100
AcDbEntity
  8
4
100
AcDbVertex
100
AcDb2dVertex
 10
624.8961536422255
 20
156.1305837045439
 30
0.0
  0
VERTEX
  5
847
330
83A
100
AcDbEntity
  8
4
100
AcDbVertex
100
AcDb2dVertex
 10
624.9423006422253
 20
156.1589817045438
 30
0.0
  0
VERTEX
  5
848
330
83A
100
AcDbEntity
  8
4
100
AcDbVertex
100
AcDb2dVertex
 10
624.9848986422253
 20
156.189154704544
 30
0.0
  0
VERTEX
  5
849
330
83A
100
AcDbEntity
  8
4
100
AcDbVertex
100
AcDb2dVertex
 10
625.0274966422253
 20
156.2211037045438
 30
0.0
  0
VERTEX
  5
84A
330
83A
100
AcDbEntity
  8
4
100
AcDbVertex
100
AcDb2dVertex
 10
625.0665446422252
 20
156.2566017045438
 30
0.0
  0
VERTEX
  5
84B
330
83A
100
AcDbEntity
  8
4
100
AcDbVertex
100
AcDb2dVertex
 10
625.1055916422252
 20
156.2920997045439
 30
0.0
  0
VERTEX
  5
84C
330
83A
100
AcDbEntity
  8
4
100
AcDbVertex
100
AcDb2dVertex
 10
625.1410896422255
 20
156.3293727045435
 30
0.0
  0
VERTEX
  5
84D
330
83A
100
AcDbEntity
  8
4
100
AcDbVertex
100
AcDb2dVertex
 10
625.1748136422254
 20
156.3701947045438
 30
0.0
  0
VERTEX
  5
84E
330
83A
100
AcDbEntity
  8
4
100
AcDbVertex
100
AcDb2dVertex
 10
625.2085366422254
 20
156.4110177045439
 30
0.0
  0
VERTEX
  5
84F
330
83A
100
AcDbEntity
  8
4
100
AcDbVertex
100
AcDb2dVertex
 10
625.2387096422253
 20
156.453615704544
 30
0.0
  0
VERTEX
  5
850
330
83A
100
AcDbEntity
  8
4
100
AcDbVertex
100
AcDb2dVertex
 10
625.2671076422253
 20
156.4979877045438
 30
0.0
  0
VERTEX
  5
851
330
83A
100
AcDbEntity
  8
4
100
AcDbVertex
100
AcDb2dVertex
 10
625.2937316422254
 20
156.5441357045439
 30
0.0
  0
VERTEX
  5
852
330
83A
100
AcDbEntity
  8
4
100
AcDbVertex
100
AcDb2dVertex
 10
625.3185806422253
 20
156.5902827045438
 30
0.0
  0
VERTEX
  5
853
330
83A
100
AcDbEntity
  8
4
100
AcDbVertex
100
AcDb2dVertex
 10
625.3398786422252
 20
156.6382057045438
 30
0.0
  0
VERTEX
  5
854
330
83A
100
AcDbEntity
  8
4
100
AcDbVertex
100
AcDb2dVertex
 10
625.3594026422254
 20
156.6879027045438
 30
0.0
  0
VERTEX
  5
855
330
83A
100
AcDbEntity
  8
4
100
AcDbVertex
100
AcDb2dVertex
 10
625.3771516422253
 20
156.7393747045439
 30
0.0
  0
VERTEX
  5
856
330
83A
100
AcDbEntity
  8
4
100
AcDbVertex
100
AcDb2dVertex
 10
625.3913516422253
 20
156.7908467045438
 30
0.0
  0
VERTEX
  5
857
330
83A
100
AcDbEntity
  8
4
100
AcDbVertex
100
AcDb2dVertex
 10
625.4037756422254
 20
156.8440937045438
 30
0.0
  0
VERTEX
  5
858
330
83A
100
AcDbEntity
  8
4
100
AcDbVertex
100
AcDb2dVertex
 10
625.4144246422254
 20
156.8973407045438
 30
0.0
  0
VERTEX
  5
859
330
83A
100
AcDbEntity
  8
4
100
AcDbVertex
100
AcDb2dVertex
 10
625.4197496422253
 20
156.9523627045438
 30
0.0
  0
VERTEX
  5
85A
330
83A
100
AcDbEntity
  8
4
100
AcDbVertex
100
AcDb2dVertex
 10
625.4250746422253
 20
157.0073847045437
 30
0.0
  0
VERTEX
  5
85B
330
83A
100
AcDbEntity
  8
4
100
AcDbVertex
100
AcDb2dVertex
 10
625.4268496422253
 20
157.0624067045438
 30
0.0
  0
VERTEX
  5
85C
330
83A
100
AcDbEntity
  8
4
100
AcDbVertex
100
AcDb2dVertex
 10
625.1819126422254
 20
157.0624067045438
 30
0.0
  0
VERTEX
  5
85D
330
83A
100
AcDbEntity
  8
4
100
AcDbVertex
100
AcDb2dVertex
 10
625.1819126422254
 20
157.0198087045437
 30
0.0
  0
VERTEX
  5
85E
330
83A
100
AcDbEntity
  8
4
100
AcDbVertex
100
AcDb2dVertex
 10
625.1783626422255
 20
156.977211704544
 30
0.0
  0
VERTEX
  5
85F
330
83A
100
AcDbEntity
  8
4
100
AcDbVertex
100
AcDb2dVertex
 10
625.1730386422255
 20
156.934613704544
 30
0.0
  0
VERTEX
  5
860
330
83A
100
AcDbEntity
  8
4
100
AcDbVertex
100
AcDb2dVertex
 10
625.1659386422254
 20
156.8920167045439
 30
0.0
  0
VERTEX
  5
861
330
83A
100
AcDbEntity
  8
4
100
AcDbVertex
100
AcDb2dVertex
 10
625.1552896422253
 20
156.8511937045438
 30
0.0
  0
VERTEX
  5
862
330
83A
100
AcDbEntity
  8
4
100
AcDbVertex
100
AcDb2dVertex
 10
625.1446396422254
 20
156.8121457045438
 30
0.0
  0
VERTEX
  5
863
330
83A
100
AcDbEntity
  8
4
100
AcDbVertex
100
AcDb2dVertex
 10
625.1304406422255
 20
156.7730977045439
 30
0.0
  0
VERTEX
  5
864
330
83A
100
AcDbEntity
  8
4
100
AcDbVertex
100
AcDb2dVertex
 10
625.1162416422253
 20
156.734049704544
 30
0.0
  0
VERTEX
  5
865
330
83A
100
AcDbEntity
  8
4
100
AcDbVertex
100
AcDb2dVertex
 10
625.0984926422254
 20
156.6967767045437
 30
0.0
  0
VERTEX
  5
866
330
83A
100
AcDbEntity
  8
4
100
AcDbVertex
100
AcDb2dVertex
 10
625.0807436422254
 20
156.6595037045438
 30
0.0
  0
VERTEX
  5
867
330
83A
100
AcDbEntity
  8
4
100
AcDbVertex
100
AcDb2dVertex
 10
625.0594446422253
 20
156.6257807045438
 30
0.0
  0
VERTEX
  5
868
330
83A
100
AcDbEntity
  8
4
100
AcDbVertex
100
AcDb2dVertex
 10
625.0381456422253
 20
156.5902827045438
 30
0.0
  0
VERTEX
  5
869
330
83A
100
AcDbEntity
  8
4
100
AcDbVertex
100
AcDb2dVertex
 10
625.0132976422255
 20
156.5583347045437
 30
0.0
  0
VERTEX
  5
86A
330
83A
100
AcDbEntity
  8
4
100
AcDbVertex
100
AcDb2dVertex
 10
624.9884486422254
 20
156.5246117045438
 30
0.0
  0
VERTEX
  5
86B
330
83A
100
AcDbEntity
  8
4
100
AcDbVertex
100
AcDb2dVertex
 10
624.9618246422253
 20
156.4944387045437
 30
0.0
  0
VERTEX
  5
86C
330
83A
100
AcDbEntity
  8
4
100
AcDbVertex
100
AcDb2dVertex
 10
624.9334266422254
 20
156.4660397045439
 30
0.0
  0
VERTEX
  5
86D
330
83A
100
AcDbEntity
  8
4
100
AcDbVertex
100
AcDb2dVertex
 10
624.9032536422252
 20
156.4376417045438
 30
0.0
  0
VERTEX
  5
86E
330
83A
100
AcDbEntity
  8
4
100
AcDbVertex
100
AcDb2dVertex
 10
624.8730796422253
 20
156.4110177045439
 30
0.0
  0
VERTEX
  5
86F
330
83A
100
AcDbEntity
  8
4
100
AcDbVertex
100
AcDb2dVertex
 10
624.8393566422255
 20
156.386169704544
 30
0.0
  0
VERTEX
  5
870
330
83A
100
AcDbEntity
  8
4
100
AcDbVertex
100
AcDb2dVertex
 10
624.8056336422251
 20
156.3613207045438
 30
0.0
  0
VERTEX
  5
871
330
83A
100
AcDbEntity
  8
4
100
AcDbVertex
100
AcDb2dVertex
 10
624.7719106422253
 20
156.3400217045438
 30
0.0
  0
VERTEX
  5
872
330
83A
100
AcDbEntity
  8
4
100
AcDbVertex
100
AcDb2dVertex
 10
624.7364126422253
 20
156.3187227045438
 30
0.0
  0
VERTEX
  5
873
330
83A
100
AcDbEntity
  8
4
100
AcDbVertex
100
AcDb2dVertex
 10
624.6991396422254
 20
156.3009737045438
 30
0.0
  0
VERTEX
  5
874
330
83A
100
AcDbEntity
  8
4
100
AcDbVertex
100
AcDb2dVertex
 10
624.6600916422253
 20
156.2832247045438
 30
0.0
  0
VERTEX
  5
875
330
83A
100
AcDbEntity
  8
4
100
AcDbVertex
100
AcDb2dVertex
 10
624.6210436422253
 20
156.2690257045438
 30
0.0
  0
VERTEX
  5
876
330
83A
100
AcDbEntity
  8
4
100
AcDbVertex
100
AcDb2dVertex
 10
624.5819956422252
 20
156.2548267045438
 30
0.0
  0
VERTEX
  5
877
330
83A
100
AcDbEntity
  8
4
100
AcDbVertex
100
AcDb2dVertex
 10
624.5411736422254
 20
156.2441767045439
 30
0.0
  0
VERTEX
  5
878
330
83A
100
AcDbEntity
  8
4
100
AcDbVertex
100
AcDb2dVertex
 10
624.4985756422254
 20
156.2353027045437
 30
0.0
  0
VERTEX
  5
879
330
83A
100
AcDbEntity
  8
4
100
AcDbVertex
100
AcDb2dVertex
 10
624.4559776422254
 20
156.2264277045437
 30
0.0
  0
VERTEX
  5
87A
330
83A
100
AcDbEntity
  8
4
100
AcDbVertex
100
AcDb2dVertex
 10
624.4133806422253
 20
156.2211037045438
 30
0.0
  0
VERTEX
  5
87B
330
83A
100
AcDbEntity
  8
4
100
AcDbVertex
100
AcDb2dVertex
 10
624.3690076422254
 20
156.217553704544
 30
0.0
  0
VERTEX
  5
87C
330
83A
100
AcDbEntity
  8
4
100
AcDbVertex
100
AcDb2dVertex
 10
624.3246356422255
 20
156.217553704544
 30
0.0
  0
VERTEX
  5
87D
330
83A
100
AcDbEntity
  8
4
100
AcDbVertex
100
AcDb2dVertex
 10
624.3246356422255
 20
155.9726167045439
 30
0.0
  0
VERTEX
  5
87E
330
83A
100
AcDbEntity
  8
4
100
AcDbVertex
100
AcDb2dVertex
 10
624.3246356422255
 20
155.9726167045439
 30
0.0
  0
SEQEND
  5
87F
330
83A
100
AcDbEntity
  8
4
  0
VIEWPORT
  5
6F
330
55
100
AcDbEntity
 67
     1
  8
0
100
AcDbViewport
 10
141.0
 20
85.0
 30
0.0
 40
384.7606204379562
 41
222.18
 68
     1
 69
     1
 12
141.0
 22
85.0
 13
0.0
 23
0.0
 14
10.0
 24
10.0
 15
10.0
 25
10.0
 16
0.0
 26
0.0
 36
1.0
 17
0.0
 27
0.0
 37
0.0
 42
50.0
 43
0.0
 44
0.0
 45
222.18
 50
0.0
 51
0.0
 72
   100
 90
    32800
  1

281
     0
 71
     1
 74
     0
110
0.0
120
0.0
130
0.0
111
1.0
121
0.0
131
0.0
112
0.0
122
1.0
132
0.0
 79
     0
146
0.0
170
     0
1001
GENIUS_GENOBJ-N-SDF_13
1002
{
1000
OWNER
1000
GEN
1002
}
1001
GENIUS_GENODEF_13
1002
{
1000
HIER
1070
     0
1002
}
1002
{
1000
MANEDIT
1070
     0
1002
}
1002
{
1000
NOSEL
1070
     0
1002
}
1002
{
1000
BEHIND
1070
     0
1002
}
1002
{
1000
OTHER
1070
     0
1002
}
1002
{
1000
REACTOR
1002
}
1001
GENIUS_GENSCREG_15
1000
PF
1040
1.0
1000
DF
1040
1.0
1000
MIN
1011
-51.38031021897808
1021
-26.09
1031
0.0
1000
MAX
1011
333.3803102189782
1021
196.09
1031
0.0
1000
FLAGS
1070
     2
  0
VIEWPORT
  5
71
330
55
100
AcDbEntity
 67
     1
  8
0
100
AcDbViewport
 10
141.0
 20
85.0
 30
0.0
 40
225.6
 41
136.0
 68
     2
 69
     2
 12
210.0
 22
148.5
 13
0.0
 23
0.0
 14
10.0
 24
10.0
 15
10.0
 25
10.0
 16
0.0
 26
0.0
 36
1.0
 17
0.0
 27
0.0
 37
0.0
 42
50.0
 43
0.0
 44
0.0
 45
302.3194029850746
 50
0.0
 51
0.0
 72
   100
 90
    32864
  1

281
     0
 71
     1
 74
     0
110
0.0
120
0.0
130
0.0
111
1.0
121
0.0
131
0.0
112
0.0
122
1.0
132
0.0
 79
     0
146
0.0
170
     0
1001
GENIUS_GENODEF_13
1002
{
1000
HIER
1070
     0
1002
}
1002
{
1000
MANEDIT
1070
     0
1002
}
1002
{
1000
NOSEL
1070
     0
1002
}
1002
{
1000
BEHIND
1070
     0
1002
}
1002
{
1000
OTHER
1070
     0
1002
}
1002
{
1000
REACTOR
1002
}
1001
GENIUS_GENOBJ-N-SDF_13
1002
{
1000
OWNER
1000
GEN
1002
}
1001
GENIUS_GENSCREG_15
1000
PF
1040
0.0
1000
DF
1040
0.0
1000
MIN
1011
28.20000000000002
1021
17.0
1031
0.0
1000
MAX
1011
253.8
1021
153.0
1031
0.0
1000
FLAGS
1070
     2
  0
ENDSEC
  0
SECTION
  2
OBJECTS
  0
DICTIONARY
  5
C
330
0
100
AcDbDictionary
281
     1
  3
ACAD_COLOR
350
F6
  3
ACAD_GROUP
350
D
  3
ACAD_LAYOUT
350
1A
  3
ACAD_MATERIAL
350
F5
  3
ACAD_MLINESTYLE
350
17
  3
ACAD_PLOTSETTINGS
350
19
  3
ACAD_PLOTSTYLENAME
350
E
  3
ACAD_TABLESTYLE
350
16F
  3
ACAD_VISUALSTYLE
350
1EE
  3
AcDbVariableDictionary
350
DA
  3
AcmDictionary
350
97
  3
AMG
350
7D
  3
AMGSNAPSETTINGS
350
5AC
  0
DICTIONARY
  5
D5
330
1F
100
AcDbDictionary
280
     1
281
     1
  0
DICTIONARY
  5
F6
102
{ACAD_REACTORS
330
C
102
}
330
C
100
AcDbDictionary
281
     1
  0
DICTIONARY
  5
D
102
{ACAD_REACTORS
330
C
102
}
330
C
100
AcDbDictionary
281
     1
  0
DICTIONARY
  5
1A
102
{ACAD_REACTORS
330
C
102
}
330
C
100
AcDbDictionary
281
     1
  3
Layout1
350
51
  3
Layout2
350
56
  3
Model
350
22
  0
DICTIONARY
  5
F5
102
{ACAD_REACTORS
330
C
102
}
330
C
100
AcDbDictionary
281
     1
  3
ByBlock
350
1EC
  3
ByLayer
350
1EB
  3
Global
350
1ED
  0
DICTIONARY
  5
17
102
{ACAD_REACTORS
330
C
102
}
330
C
100
AcDbDictionary
281
     1
  3
Standard
350
18
  0
DICTIONARY
  5
19
102
{ACAD_REACTORS
330
C
102
}
330
C
100
AcDbDictionary
281
     1
  0
ACDBDICTIONARYWDFLT
  5
E
102
{ACAD_REACTORS
330
C
102
}
330
C
100
AcDbDictionary
281
     1
  3
Normal
350
F
100
AcDbDictionaryWithDefault
340
F
  0
DICTIONARY
  5
16F
102
{ACAD_REACTORS
330
C
102
}
330
C
100
AcDbDictionary
281
     1
  3
Standard
350
170
  0
DICTIONARY
  5
1EE
102
{ACAD_REACTORS
330
C
102
}
330
C
100
AcDbDictionary
281
     1
  3
2dWireframe
350
1F4
  3
3D Hidden
350
1F6
  3
3dWireframe
350
1F5
  3
Basic
350
1F3
  3
Brighten
350
1FA
  3
ColorChange
350
1FE
  3
Conceptual
350
1F7
  3
Dim
350
1F9
  3
EdgeColorOff
350
953
  3
Facepattern
350
1FD
  3
Flat
350
1EF
  3
FlatWithEdges
350
1F0
  3
Gouraud
350
1F1
  3
GouraudWithEdges
350
1F2
  3
JitterOff
350
956
  3
Linepattern
350
1FC
  3
OverhangOff
350
959
  3
Realistic
350
1F8
  3
Thicken
350
1FB
  0
DICTIONARY
  5
DA
102
{ACAD_REACTORS
330
C
102
}
330
C
100
AcDbDictionary
281
     1
  3
CTABLESTYLE
350
18F
  3
DIMASSOC
350
DC
  3
INDEXCTL
350
DB
  0
DICTIONARY
  5
97
102
{ACAD_REACTORS
330
C
102
}
330
C
100
AcDbDictionary
281
     1
  3
AcmStdDictionary
350
9D
  3
AMDTSECTSYM_ARROWCOLOR
350
186
  0
DICTIONARY
  5
7D
102
{ACAD_REACTORS
330
C
102
}
330
C
100
AcDbDictionary
281
     1
  0
DICTIONARY
  5
5AC
102
{ACAD_REACTORS
330
C
102
}
330
C
100
AcDbDictionary
281
     1
  0
LAYOUT
  5
51
102
{ACAD_REACTORS
330
1A
102
}
330
1A
100
AcDbPlotSettings
  1

  2
none_device
  4
ISO_A4_(210.00_x_297.00_MM)
  6

 40
7.5
 41
20.0
 42
7.5
 43
20.0
 44
210.0
 45
297.0
 46
0.0
 47
0.0
 48
0.0
 49
0.0
140
0.0
141
0.0
142
1.0
143
1.0
 70
   688
 72
     1
 73
     1
 74
     5
  7
ganz_fein_1.ctb
 75
    16
147
1.0
 76
     0
 77
     2
 78
   300
148
0.0
149
0.0
100
AcDbLayout
  1
Layout1
 70
     1
 71
     1
 10
-20.0
 20
-7.5
 11
277.0
 21
202.5
 12
0.0
 22
0.0
 32
0.0
 14
25.69999999999999
 24
19.5
 34
0.0
 15
231.3
 25
175.5
 35
0.0
146
0.0
 13
0.0
 23
0.0
 33
0.0
 16
1.0
 26
0.0
 36
0.0
 17
0.0
 27
1.0
 37
0.0
 76
     0
330
50
331
69
  0
LAYOUT
  5
56
102
{ACAD_REACTORS
330
1A
102
}
330
1A
100
AcDbPlotSettings
  1

  2
none_device
  4
ISO_A4_(297.00_x_210.00_MM)
  6

 40
7.5
 41
20.0
 42
7.5
 43
20.0
 44
297.0
 45
210.0
 46
0.0
 47
0.0
 48
0.0
 49
0.0
140
0.0
141
0.0
142
1.0
143
1.0
 70
   688
 72
     1
 73
     0
 74
     5
  7
ganz_fein_1.ctb
 75
    16
147
1.0
 76
     0
 77
     2
 78
   300
148
0.0
149
0.0
100
AcDbLayout
  1
Layout2
 70
     1
 71
     2
 10
-7.5
 20
-20.0
 11
289.5
 21
190.0
 12
0.0
 22
0.0
 32
0.0
 14
28.19999999999999
 24
17.0
 34
0.0
 15
253.8
 25
153.0
 35
0.0
146
0.0
 13
0.0
 23
0.0
 33
0.0
 16
1.0
 26
0.0
 36
0.0
 17
0.0
 27
1.0
 37
0.0
 76
     0
330
55
331
6F
  0
LAYOUT
  5
22
102
{ACAD_REACTORS
330
1A
102
}
330
1A
100
AcDbPlotSettings
  1

  2
Adobe PDF
  4
A4
  6

 40
3.174999952316284
 41
3.174999952316284
 42
3.175003051757812
 43
3.17498779296875
 44
209.9733276367187
 45
297.0318298339844
 46
0.0000000000000007
 47
6.163274490322502
 48
185.1296106422253
 49
123.2232527045438
140
669.8297916422253
141
477.7926277045438
142
1.0
143
1.741300391984444
 70
 11956
 72
     1
 73
     1
 74
     4
  7
ganz_fein_1.ctb
 75
     0
147
0.5742834519553322
 76
     0
 77
     2
 78
   300
148
-185.1296106422253
149
-123.2232527045438
100
AcDbLayout
  1
Model
 70
     1
 71
     0
 10
0.0
 20
0.0
 11
12.0
 21
9.0
 12
0.0
 22
0.0
 32
0.0
 14
0.0
 24
0.0
 34
0.0
 15
0.0
 25
0.0
 35
0.0
146
0.0
 13
0.0
 23
0.0
 33
0.0
 16
1.0
 26
0.0
 36
0.0
 17
0.0
 27
1.0
 37
0.0
 76
     0
330
1F
331
1E9
1001
ACAD_PSEXT
1000
Adobe PDF
1000
Adobe PDF Converter
1000
Documents\*.pdf
1000

1070
     0
  0
MATERIAL
  5
1EC
102
{ACAD_XDICTIONARY
360
96A
102
}
102
{ACAD_REACTORS
330
F5
102
}
330
F5
100
AcDbMaterial
  1
ByBlock
  0
MATERIAL
  5
1EB
102
{ACAD_XDICTIONARY
360
968
102
}
102
{ACAD_REACTORS
330
F5
102
}
330
F5
100
AcDbMaterial
  1
ByLayer
  0
MATERIAL
  5
1ED
102
{ACAD_XDICTIONARY
360
96C
102
}
102
{ACAD_REACTORS
330
F5
102
}
330
F5
100
AcDbMaterial
  1
Global
  0
MLINESTYLE
  5
18
102
{ACAD_REACTORS
330
17
102
}
330
17
100
AcDbMlineStyle
  2
STANDARD
 70
     0
  3

 62
   256
 51
90.0
 52
90.0
 71
     2
 49
0.5
 62
   256
  6
BYLAYER
 49
-0.5
 62
   256
  6
BYLAYER
  0
ACDBPLACEHOLDER
  5
F
102
{ACAD_REACTORS
330
E
102
}
330
E
  0
TABLESTYLE
  5
170
102
{ACAD_XDICTIONARY
360
A39
102
}
102
{ACAD_REACTORS
330
16F
102
}
330
16F
100
AcDbTableStyle
  3
Standard
 70
     0
 71
     0
 40
1.5
 41
1.5
280
     0
281
     0
  7
STANDARD
140
4.5
170
     2
 62
     0
 63
     7
283
     0
274
    -2
284
     1
 64
     0
275
    -2
285
     1
 65
     0
276
    -2
286
     1
 66
     0
277
    -2
287
     1
 67
     0
278
    -2
288
     1
 68
     0
279
    -2
289
     1
 69
     0
  7
STANDARD
140
6.0
170
     5
 62
     0
 63
     7
283
     0
274
    -2
284
     1
 64
     0
275
    -2
285
     1
 65
     0
276
    -2
286
     1
 66
     0
277
    -2
287
     1
 67
     0
278
    -2
288
     1
 68
     0
279
    -2
289
     1
 69
     0
  7
STANDARD
140
4.5
170
     5
 62
     0
 63
     7
283
     0
274
    -2
284
     1
 64
     0
275
    -2
285
     1
 65
     0
276
    -2
286
     1
 66
     0
277
    -2
287
     1
 67
     0
278
    -2
288
     1
 68
     0
279
    -2
289
     1
 69
     0
  0
VISUALSTYLE
  5
1F4
102
{ACAD_REACTORS
330
1EE
102
}
330
1EE
100
AcDbVisualStyle
  2
2dWireframe
 70
     4
 71
     0
 72
     2
 73
     0
 90
        0
 40
-0.6
 41
-30.0
 62
     5
 63
     7
421
 16777215
 74
     1
 91
        4
 64
     7
 65
   257
 75
     1
175
     1
 42
1.0
 92
        0
 66
   257
 43
1.0
 76
     1
 77
     6
 78
     2
 67
     7
 79
     5
170
     0
171
     0
290
     0
174
     0
 93
        1
 44
0.0
173
     0
291
     0
 45
0.0
1001
ACAD
1000
AcDbSavedByObjectVersion
1070
     0
1000
AcDbSavedByObjectVersion
1070
     0
  0
VISUALSTYLE
  5
1F6
102
{ACAD_REACTORS
330
1EE
102
}
330
1EE
100
AcDbVisualStyle
  2
3D Hidden
 70
     6
 71
     1
 72
     2
 73
     2
 90
        0
 40
-0.6
 41
-30.0
 62
     5
 63
     7
421
 16777215
 74
     2
 91
        2
 64
     7
 65
   257
 75
     2
175
     1
 42
40.0
 92
        0
 66
   257
 43
1.0
 76
     1
 77
     6
 78
     2
 67
     7
 79
     3
170
     0
171
     0
290
     0
174
     0
 93
        1
 44
0.0
173
     0
291
     0
 45
0.0
1001
ACAD
1000
AcDbSavedByObjectVersion
1070
     0
1000
AcDbSavedByObjectVersion
1070
     0
  0
VISUALSTYLE
  5
1F5
102
{ACAD_REACTORS
330
1EE
102
}
330
1EE
100
AcDbVisualStyle
  2
3dWireframe
 70
     5
 71
     0
 72
     2
 73
     0
 90
        0
 40
-0.6
 41
-30.0
 62
     5
 63
     7
421
 16777215
 74
     1
 91
        4
 64
     7
 65
   257
 75
     1
175
     1
 42
1.0
 92
        0
 66
   257
 43
1.0
 76
     1
 77
     6
 78
     2
 67
     7
 79
     5
170
     0
171
     0
290
     0
174
     0
 93
        1
 44
0.0
173
     0
291
     0
 45
0.0
1001
ACAD
1000
AcDbSavedByObjectVersion
1070
     0
1000
AcDbSavedByObjectVersion
1070
     0
  0
VISUALSTYLE
  5
1F3
102
{ACAD_REACTORS
330
1EE
102
}
330
1EE
100
AcDbVisualStyle
  2
Basic
 70
     7
 71
     1
 72
     0
 73
     1
 90
        0
 40
-0.6
 41
-30.0
 62
     5
 63
     7
421
 16777215
 74
     0
 91
        4
 64
     7
 65
   257
 75
     1
175
     1
 42
1.0
 92
        8
 66
     7
 43
1.0
 76
     1
 77
     6
 78
     2
 67
     7
 79
     5
170
     0
171
     0
290
     0
174
     0
 93
        1
 44
0.0
173
     0
291
     1
 45
0.0
1001
ACAD
1000
AcDbSavedByObjectVersion
1070
     0
1000
AcDbSavedByObjectVersion
1070
     0
  0
VISUALSTYLE
  5
1FA
102
{ACAD_REACTORS
330
1EE
102
}
330
1EE
100
AcDbVisualStyle
  2
Brighten
 70
    12
 71
     2
 72
     2
 73
     0
 90
        0
 40
-0.6
 41
-30.0
 62
     5
 63
     7
421
 16777215
 74
     1
 91
        4
 64
     7
 65
   257
 75
     1
175
     1
 42
1.0
 92
        8
 66
     7
 43
1.0
 76
     1
 77
     6
 78
     2
 67
     7
 79
     5
170
     0
171
     0
290
     0
174
     0
 93
        1
 44
50.0
173
     0
291
     1
 45
0.0
1001
ACAD
1000
AcDbSavedByObjectVersion
1070
     0
1000
AcDbSavedByObjectVersion
1070
     0
  0
VISUALSTYLE
  5
1FE
102
{ACAD_REACTORS
330
1EE
102
}
330
1EE
100
AcDbVisualStyle
  2
ColorChange
 70
    16
 71
     2
 72
     2
 73
     3
 90
        0
 40
-0.6
 41
-30.0
 62
     5
 63
     8
421
  8421504
 74
     1
 91
        4
 64
     7
 65
   257
 75
     1
175
     1
 42
1.0
 92
        8
 66
     8
424
  8421504
 43
1.0
 76
     1
 77
     6
 78
     2
 67
     7
 79
     5
170
     0
171
     0
290
     0
174
     0
 93
        1
 44
0.0
173
     0
291
     1
 45
0.0
1001
ACAD
1000
AcDbSavedByObjectVersion
1070
     0
1000
AcDbSavedByObjectVersion
1070
     0
  0
VISUALSTYLE
  5
1F7
102
{ACAD_REACTORS
330
1EE
102
}
330
1EE
100
AcDbVisualStyle
  2
Conceptual
 70
     9
 71
     3
 72
     2
 73
     0
 90
        0
 40
-0.6
 41
-30.0
 62
     5
 63
     7
421
 16777215
 74
     2
 91
        2
 64
     7
 65
   257
 75
     1
175
     1
 42
40.0
 92
        8
 66
     7
 43
1.0
 76
     1
 77
     6
 78
     2
 67
     7
 79
     3
170
     0
171
     0
290
     0
174
     0
 93
        1
 44
0.0
173
     0
291
     0
 45
0.0
1001
ACAD
1000
AcDbSavedByObjectVersion
1070
     0
1000
AcDbSavedByObjectVersion
1070
     0
  0
VISUALSTYLE
  5
1F9
102
{ACAD_REACTORS
330
1EE
102
}
330
1EE
100
AcDbVisualStyle
  2
Dim
 70
    11
 71
     2
 72
     2
 73
     0
 90
        0
 40
-0.6
 41
-30.0
 62
     5
 63
     7
421
 16777215
 74
     1
 91
        4
 64
     7
 65
   257
 75
     1
175
     1
 42
1.0
 92
        8
 66
     7
 43
1.0
 76
     1
 77
     6
 78
     2
 67
     7
 79
     5
170
     0
171
     0
290
     0
174
     0
 93
        1
 44
-50.0
173
     0
291
     1
 45
0.0
1001
ACAD
1000
AcDbSavedByObjectVersion
1070
     0
1000
AcDbSavedByObjectVersion
1070
     0
  0
VISUALSTYLE
  5
953
102
{ACAD_XDICTIONARY
360
954
102
}
102
{ACAD_REACTORS
330
1EE
102
}
330
1EE
100
AcDbVisualStyle
  2
EdgeColorOff
 70
    22
 71
     2
 72
     2
 73
     0
 90
        0
 40
-0.6
 41
-30.0
 62
     5
 63
     7
 74
     1
 91
        4
 64
     7
 65
   257
 75
     1
175
     1
 42
1.0
 92
        8
 66
     7
 43
1.0
 76
     1
 77
     6
 78
     2
 67
     7
 79
     5
170
     0
171
     0
290
     0
174
     0
 93
        1
 44
0.0
173
     0
291
     1
 45
0.0
1001
ACAD
1000
AcDbSavedByObjectVersion
1070
     0
1000
AcDbSavedByObjectVersion
1070
     0
  0
VISUALSTYLE
  5
1FD
102
{ACAD_REACTORS
330
1EE
102
}
330
1EE
100
AcDbVisualStyle
  2
Facepattern
 70
    15
 71
     2
 72
     2
 73
     0
 90
        0
 40
-0.6
 41
-30.0
 62
     5
 63
     7
421
 16777215
 74
     1
 91
        4
 64
     7
 65
   257
 75
     1
175
     1
 42
1.0
 92
        8
 66
     7
 43
1.0
 76
     1
 77
     6
 78
     2
 67
     7
 79
     5
170
     0
171
     0
290
     0
174
     0
 93
        1
 44
0.0
173
     0
291
     1
 45
0.0
1001
ACAD
1000
AcDbSavedByObjectVersion
1070
     0
1000
AcDbSavedByObjectVersion
1070
     0
  0
VISUALSTYLE
  5
1EF
102
{ACAD_REACTORS
330
1EE
102
}
330
1EE
100
AcDbVisualStyle
  2
Flat
 70
     0
 71
     2
 72
     1
 73
     1
 90
        2
 40
-0.6
 41
30.0
 62
     5
 63
     7
421
 16777215
 74
     0
 91
        4
 64
     7
 65
   257
 75
     1
175
     1
 42
1.0
 92
        8
 66
     7
 43
1.0
 76
     1
 77
     6
 78
     2
 67
     7
 79
     5
170
     0
171
     0
290
     0
174
     0
 93
       13
 44
0.0
173
     0
291
     1
 45
0.0
1001
ACAD
1000
AcDbSavedByObjectVersion
1070
     0
1000
AcDbSavedByObjectVersion
1070
     0
  0
VISUALSTYLE
  5
1F0
102
{ACAD_REACTORS
330
1EE
102
}
330
1EE
100
AcDbVisualStyle
  2
FlatWithEdges
 70
     1
 71
     2
 72
     1
 73
     1
 90
        2
 40
-0.6
 41
30.0
 62
     5
 63
     7
421
 16777215
 74
     1
 91
        4
 64
     7
 65
   257
 75
     1
175
     1
 42
1.0
 92
        0
 66
   257
 43
1.0
 76
     1
 77
     6
 78
     2
 67
     7
 79
     5
170
     0
171
     0
290
     0
174
     0
 93
       13
 44
0.0
173
     0
291
     1
 45
0.0
1001
ACAD
1000
AcDbSavedByObjectVersion
1070
     0
1000
AcDbSavedByObjectVersion
1070
     0
  0
VISUALSTYLE
  5
1F1
102
{ACAD_REACTORS
330
1EE
102
}
330
1EE
100
AcDbVisualStyle
  2
Gouraud
 70
     2
 71
     2
 72
     2
 73
     1
 90
        2
 40
-0.6
 41
30.0
 62
     5
 63
     7
421
 16777215
 74
     0
 91
        4
 64
     7
 65
   257
 75
     1
175
     1
 42
1.0
 92
        0
 66
     7
 43
1.0
 76
     1
 77
     6
 78
     2
 67
     7
 79
     5
170
     0
171
     0
290
     0
174
     0
 93
       13
 44
0.0
173
     0
291
     1
 45
0.0
1001
ACAD
1000
AcDbSavedByObjectVersion
1070
     0
1000
AcDbSavedByObjectVersion
1070
     0
  0
VISUALSTYLE
  5
1F2
102
{ACAD_REACTORS
330
1EE
102
}
330
1EE
100
AcDbVisualStyle
  2
GouraudWithEdges
 70
     3
 71
     2
 72
     2
 73
     1
 90
        2
 40
-0.6
 41
30.0
 62
     5
 63
     7
421
 16777215
 74
     1
 91
        4
 64
     7
 65
   257
 75
     1
175
     1
 42
1.0
 92
        0
 66
   257
 43
1.0
 76
     1
 77
     6
 78
     2
 67
     7
 79
     5
170
     0
171
     0
290
     0
174
     0
 93
       13
 44
0.0
173
     0
291
     1
 45
0.0
1001
ACAD
1000
AcDbSavedByObjectVersion
1070
     0
1000
AcDbSavedByObjectVersion
1070
     0
  0
VISUALSTYLE
  5
956
102
{ACAD_XDICTIONARY
360
957
102
}
102
{ACAD_REACTORS
330
1EE
102
}
330
1EE
100
AcDbVisualStyle
  2
JitterOff
 70
    20
 71
     2
 72
     2
 73
     0
 90
        0
 40
-0.6
 41
-30.0
 62
     5
 63
     7
 74
     1
 91
        4
 64
     7
 65
   257
 75
     1
175
     1
 42
1.0
 92
       10
 66
     7
 43
1.0
 76
     1
 77
     6
 78
     2
 67
     7
 79
     5
170
     0
171
     0
290
     0
174
     0
 93
        1
 44
0.0
173
     0
291
     1
 45
0.0
1001
ACAD
1000
AcDbSavedByObjectVersion
1070
     0
1000
AcDbSavedByObjectVersion
1070
     0
  0
VISUALSTYLE
  5
1FC
102
{ACAD_REACTORS
330
1EE
102
}
330
1EE
100
AcDbVisualStyle
  2
Linepattern
 70
    14
 71
     2
 72
     2
 73
     0
 90
        0
 40
-0.6
 41
-30.0
 62
     5
 63
     7
421
 16777215
 74
     1
 91
        4
 64
     7
 65
   257
 75
     7
175
     7
 42
1.0
 92
        8
 66
     7
 43
1.0
 76
     1
 77
     6
 78
     2
 67
     7
 79
     5
170
     0
171
     0
290
     0
174
     0
 93
        1
 44
0.0
173
     0
291
     1
 45
0.0
1001
ACAD
1000
AcDbSavedByObjectVersion
1070
     0
1000
AcDbSavedByObjectVersion
1070
     0
  0
VISUALSTYLE
  5
959
102
{ACAD_XDICTIONARY
360
95A
102
}
102
{ACAD_REACTORS
330
1EE
102
}
330
1EE
100
AcDbVisualStyle
  2
OverhangOff
 70
    21
 71
     2
 72
     2
 73
     0
 90
        0
 40
-0.6
 41
-30.0
 62
     5
 63
     7
 74
     1
 91
        4
 64
     7
 65
   257
 75
     1
175
     1
 42
1.0
 92
        9
 66
     7
 43
1.0
 76
     1
 77
     6
 78
     2
 67
     7
 79
     5
170
     0
171
     0
290
     0
174
     0
 93
        1
 44
0.0
173
     0
291
     1
 45
0.0
1001
ACAD
1000
AcDbSavedByObjectVersion
1070
     0
1000
AcDbSavedByObjectVersion
1070
     0
  0
VISUALSTYLE
  5
1F8
102
{ACAD_REACTORS
330
1EE
102
}
330
1EE
100
AcDbVisualStyle
  2
Realistic
 70
     8
 71
     2
 72
     2
 73
     0
 90
        0
 40
-0.6
 41
-30.0
 62
     5
 63
     7
421
 16777215
 74
     1
 91
        0
 64
     7
 65
   257
 75
     1
175
     1
 42
1.0
 92
        8
 66
     8
424
  7895160
 43
1.0
 76
     1
 77
     6
 78
     2
 67
     7
 79
     5
170
     0
171
     0
290
     0
174
     0
 93
       13
 44
0.0
173
     0
291
     0
 45
0.0
1001
ACAD
1000
AcDbSavedByObjectVersion
1070
     0
1000
AcDbSavedByObjectVersion
1070
     0
  0
VISUALSTYLE
  5
1FB
102
{ACAD_REACTORS
330
1EE
102
}
330
1EE
100
AcDbVisualStyle
  2
Thicken
 70
    13
 71
     2
 72
     2
 73
     0
 90
        0
 40
-0.6
 41
-30.0
 62
     5
 63
     7
421
 16777215
 74
     1
 91
        4
 64
     7
 65
   257
 75
     1
175
     1
 42
1.0
 92
       12
 66
     7
 43
1.0
 76
     1
 77
     6
 78
     2
 67
     7
 79
     5
170
     0
171
     0
290
     0
174
     0
 93
        1
 44
0.0
173
     0
291
     1
 45
0.0
1001
ACAD
1000
AcDbSavedByObjectVersion
1070
     0
1000
AcDbSavedByObjectVersion
1070
     0
  0
DICTIONARYVAR
  5
18F
102
{ACAD_REACTORS
330
DA
102
}
330
DA
100
DictionaryVariables
280
     0
  1
STANDARD
  0
DICTIONARYVAR
  5
DC
102
{ACAD_REACTORS
330
DA
102
}
330
DA
100
DictionaryVariables
280
     0
  1
1
  0
DICTIONARYVAR
  5
DB
102
{ACAD_REACTORS
330
DA
102
}
330
DA
100
DictionaryVariables
280
     0
  1
1
  0
DICTIONARY
  5
9D
102
{ACAD_REACTORS
330
97
102
}
330
97
100
AcDbDictionary
281
     1
  0
XRECORD
  5
186
102
{ACAD_REACTORS
330
97
102
}
330
97
100
AcDbXrecord
280
     1
 90
-1023410169
  0
DICTIONARY
  5
96A
330
1EC
100
AcDbDictionary
280
     1
281
     1
  3
ACAD_XREC_ROUNDTRIP
360
96B
  0
DICTIONARY
  5
968
330
1EB
100
AcDbDictionary
280
     1
281
     1
  3
ACAD_XREC_ROUNDTRIP
360
969
  0
DICTIONARY
  5
96C
330
1ED
100
AcDbDictionary
280
     1
281
     1
  3
ACAD_XREC_ROUNDTRIP
360
96D
  0
DICTIONARY
  5
A39
330
170
100
AcDbDictionary
280
     1
281
     1
  3
ACAD_XREC_ROUNDTRIP
360
A3A
  0
DICTIONARY
  5
954
330
953
100
AcDbDictionary
280
     1
281
     1
  3
ACAD_XREC_ROUNDTRIP
360
955
  0
DICTIONARY
  5
957
330
956
100
AcDbDictionary
280
     1
281
     1
  3
ACAD_XREC_ROUNDTRIP
360
958
  0
DICTIONARY
  5
95A
330
959
100
AcDbDictionary
280
     1
281
     1
  3
ACAD_XREC_ROUNDTRIP
360
95B
  0
XRECORD
  5
96B
102
{ACAD_REACTORS
330
96A
102
}
330
96A
100
AcDbXrecord
280
     1
102
MATERIAL
148
0.0
149
0.0
149
0.0
 93
        0
 94
       63
282
     0
 72
     1
 77
     1
171
     1
175
     1
179
     1
273
     0
  0
XRECORD
  5
969
102
{ACAD_REACTORS
330
968
102
}
330
968
100
AcDbXrecord
280
     1
102
MATERIAL
148
0.0
149
0.0
149
0.0
 93
        0
 94
       63
282
     0
 72
     1
 77
     1
171
     1
175
     1
179
     1
273
     0
  0
XRECORD
  5
96D
102
{ACAD_REACTORS
330
96C
102
}
330
96C
100
AcDbXrecord
280
     1
102
MATERIAL
148
0.0
149
0.0
149
0.0
 93
        0
 94
       63
282
     0
 72
     1
 77
     1
171
     1
175
     1
179
     1
273
     0
  0
XRECORD
  5
A3A
102
{ACAD_REACTORS
330
A39
102
}
330
A39
100
AcDbXrecord
280
     1
102
ACAD_ROUNDTRIP_PRE2007_TABLESTYLE
 90
        4
 91
        0
  1

 92
        4
 93
        0
  2

 94
        4
 95
        0
  3

  0
XRECORD
  5
955
102
{ACAD_REACTORS
330
954
102
}
330
954
100
AcDbXrecord
280
     1
102
RTVSPropertyOp0
 70
     0
102
RTVSPropertyOp1
 70
     0
102
RTVSPropertyOp2
 70
     0
102
RTVSPropertyOp3
 70
     0
102
RTVSPropertyOp4
 70
     0
102
RTVSPropertyOp5
 70
     0
102
RTVSPropertyOp6
 70
     0
102
RTVSPropertyOp7
 70
     0
102
RTVSPropertyOp8
 70
     0
102
RTVSPropertyOp9
 70
     0
102
RTVSPropertyOp10
 70
     0
102
RTVSPropertyOp11
 70
     0
102
RTVSPropertyOp12
 70
     0
102
RTVSPropertyOp13
 70
     0
102
RTVSPropertyOp14
 70
     2
102
RTVSPropertyOp15
 70
     0
102
RTVSPropertyOp16
 70
     0
102
RTVSPropertyOp17
 70
     0
102
RTVSPropertyOp18
 70
     0
102
RTVSPropertyOp19
 70
     0
102
RTVSPropertyOp20
 70
     0
102
RTVSPropertyOp21
 70
     0
102
RTVSPropertyOp22
 70
     0
102
RTVSPropertyOp23
 70
     0
102
RTVSPropertyOp24
 70
     0
102
RTVSPropertyOp25
 70
     0
102
RTVSPropertyOp26
 70
     0
102
RTVSPropertyOp27
 70
     0
  0
XRECORD
  5
958
102
{ACAD_REACTORS
330
957
102
}
330
957
100
AcDbXrecord
280
     1
102
RTVSPropertyOp0
 70
     0
102
RTVSPropertyOp1
 70
     0
102
RTVSPropertyOp2
 70
     0
102
RTVSPropertyOp3
 70
     0
102
RTVSPropertyOp4
 70
     0
102
RTVSPropertyOp5
 70
     0
102
RTVSPropertyOp6
 70
     0
102
RTVSPropertyOp7
 70
     0
102
RTVSPropertyOp8
 70
     0
102
RTVSPropertyOp9
 70
     0
102
RTVSPropertyOp10
 70
     0
102
RTVSPropertyOp11
 70
     0
102
RTVSPropertyOp12
 70
     0
102
RTVSPropertyOp13
 70
     0
102
RTVSPropertyOp14
 70
     2
102
RTVSPropertyOp15
 70
     0
102
RTVSPropertyOp16
 70
     0
102
RTVSPropertyOp17
 70
     0
102
RTVSPropertyOp18
 70
     0
102
RTVSPropertyOp19
 70
     0
102
RTVSPropertyOp20
 70
     0
102
RTVSPropertyOp21
 70
     0
102
RTVSPropertyOp22
 70
     0
102
RTVSPropertyOp23
 70
     0
102
RTVSPropertyOp24
 70
     0
102
RTVSPropertyOp25
 70
     0
102
RTVSPropertyOp26
 70
     0
102
RTVSPropertyOp27
 70
     0
  0
XRECORD
  5
95B
102
{ACAD_REACTORS
330
95A
102
}
330
95A
100
AcDbXrecord
280
     1
102
RTVSPropertyOp0
 70
     0
102
RTVSPropertyOp1
 70
     0
102
RTVSPropertyOp2
 70
     0
102
RTVSPropertyOp3
 70
     0
102
RTVSPropertyOp4
 70
     0
102
RTVSPropertyOp5
 70
     0
102
RTVSPropertyOp6
 70
     0
102
RTVSPropertyOp7
 70
     0
102
RTVSPropertyOp8
 70
     0
102
RTVSPropertyOp9
 70
     0
102
RTVSPropertyOp10
 70
     0
102
RTVSPropertyOp11
 70
     0
102
RTVSPropertyOp12
 70
     0
102
RTVSPropertyOp13
 70
     0
102
RTVSPropertyOp14
 70
     2
102
RTVSPropertyOp15
 70
     0
102
RTVSPropertyOp16
 70
     0
102
RTVSPropertyOp17
 70
     0
102
RTVSPropertyOp18
 70
     0
102
RTVSPropertyOp19
 70
     0
102
RTVSPropertyOp20
 70
     0
102
RTVSPropertyOp21
 70
     0
102
RTVSPropertyOp22
 70
     0
102
RTVSPropertyOp23
 70
     0
102
RTVSPropertyOp24
 70
     0
102
RTVSPropertyOp25
 70
     0
102
RTVSPropertyOp26
 70
     0
102
RTVSPropertyOp27
 70
     0
  0
ENDSEC
  0
EOF
