  0
SECTION
  2
HEADER
  9
$ACADVER
  1
AC1018
  9
$ACADMAINTVER
 70
   104
  9
$DWGCODEPAGE
  3
ANSI_1252
  9
$LASTSAVEDBY
  1
oberdoer
  9
$CUSTOMPROPERTYTAG
  1
AmdtFileType
  9
$CUSTOMPROPERTY
  1
84
  9
$INSBASE
 10
0.0
 20
0.0
 30
0.0
  9
$EXTMIN
 10
494.7601488065387
 20
246.0992601596703
 30
-0.0000000000112531
  9
$EXTMAX
 10
1446.621007841399
 20
920.1062696498448
 30
0.0000000000002922
  9
$LIMMIN
 10
0.0
 20
0.0
  9
$LIMMAX
 10
420.0
 20
297.0
  9
$ORTHOMODE
 70
     0
  9
$REGENMODE
 70
     1
  9
$FILLMODE
 70
     1
  9
$QTEXTMODE
 70
     0
  9
$MIRRTEXT
 70
     1
  9
$LTSCALE
 40
1.0
  9
$ATTMODE
 70
     1
  9
$TEXTSIZE
 40
2.5
  9
$TRACEWID
 40
1.0
  9
$TEXTSTYLE
  7
STANDARD
  9
$CLAYER
  8
0
  9
$CELTYPE
  6
ByLayer
  9
$CECOLOR
 62
   256
  9
$CELTSCALE
 40
1.0
  9
$DISPSILH
 70
     0
  9
$DIMSCALE
 40
1.0
  9
$DIMASZ
 40
2.5
  9
$DIMEXO
 40
0.0
  9
$DIMDLI
 40
10.0
  9
$DIMRND
 40
0.0
  9
$DIMDLE
 40
0.0
  9
$DIMEXE
 40
2.0
  9
$DIMTP
 40
0.1
  9
$DIMTM
 40
0.1
  9
$DIMTXT
 40
3.5
  9
$DIMCEN
 40
0.0
  9
$DIMTSZ
 40
0.0
  9
$DIMTOL
 70
     0
  9
$DIMLIM
 70
     0
  9
$DIMTIH
 70
     0
  9
$DIMTOH
 70
     0
  9
$DIMSE1
 70
     0
  9
$DIMSE2
 70
     0
  9
$DIMTAD
 70
     1
  9
$DIMZIN
 70
     8
  9
$DIMBLK
  1

  9
$DIMASO
 70
     1
  9
$DIMSHO
 70
     1
  9
$DIMPOST
  1

  9
$DIMAPOST
  1
"
  9
$DIMALT
 70
     0
  9
$DIMALTD
 70
     2
  9
$DIMALTF
 40
0.0393701
  9
$DIMLFAC
 40
1.0
  9
$DIMTOFL
 70
     1
  9
$DIMTVP
 40
0.0
  9
$DIMTIX
 70
     0
  9
$DIMSOXD
 70
     0
  9
$DIMSAH
 70
     0
  9
$DIMBLK1
  1

  9
$DIMBLK2
  1

  9
$DIMSTYLE
  2
AM_DIN
  9
$DIMCLRD
 70
   256
  9
$DIMCLRE
 70
   256
  9
$DIMCLRT
 70
     2
  9
$DIMTFAC
 40
0.71
  9
$DIMGAP
 40
1.5
  9
$DIMJUST
 70
     0
  9
$DIMSD1
 70
     0
  9
$DIMSD2
 70
     0
  9
$DIMTOLJ
 70
     0
  9
$DIMTZIN
 70
     8
  9
$DIMALTZ
 70
     0
  9
$DIMALTTZ
 70
     0
  9
$DIMUPT
 70
     0
  9
$DIMDEC
 70
     2
  9
$DIMTDEC
 70
     2
  9
$DIMALTU
 70
     2
  9
$DIMALTTD
 70
     2
  9
$DIMTXSTY
  7
STANDARD
  9
$DIMAUNIT
 70
     0
  9
$DIMADEC
 70
     0
  9
$DIMALTRND
 40
0.0
  9
$DIMAZIN
 70
     2
  9
$DIMDSEP
 70
    46
  9
$DIMATFIT
 70
     3
  9
$DIMFRAC
 70
     0
  9
$DIMLDRBLK
  1

  9
$DIMLUNIT
 70
     2
  9
$DIMLWD
 70
    -1
  9
$DIMLWE
 70
    -1
  9
$DIMTMOVE
 70
     0
  9
$LUNITS
 70
     2
  9
$LUPREC
 70
     2
  9
$SKETCHINC
 40
1.0
  9
$FILLETRAD
 40
2.5
  9
$AUNITS
 70
     0
  9
$AUPREC
 70
     0
  9
$MENU
  1
.
  9
$ELEVATION
 40
0.0
  9
$PELEVATION
 40
0.0
  9
$THICKNESS
 40
0.0
  9
$LIMCHECK
 70
     0
  9
$CHAMFERA
 40
2.5
  9
$CHAMFERB
 40
2.5
  9
$CHAMFERC
 40
20.0
  9
$CHAMFERD
 40
0.0
  9
$SKPOLY
 70
     0
  9
$TDCREATE
 40
2455484.532974711
  9
$TDUCREATE
 40
2455484.449641377
  9
$TDUPDATE
 40
2456149.682443310
  9
$TDUUPDATE
 40
2456149.599109977
  9
$TDINDWG
 40
0.0890996065
  9
$TDUSRTIMER
 40
0.0890992361
  9
$USRTIMER
 70
     1
  9
$ANGBASE
 50
0.0
  9
$ANGDIR
 70
     0
  9
$PDMODE
 70
     0
  9
$PDSIZE
 40
0.0
  9
$PLINEWID
 40
0.0
  9
$SPLFRAME
 70
     0
  9
$SPLINETYPE
 70
     6
  9
$SPLINESEGS
 70
     8
  9
$HANDSEED
  5
D0D
  9
$SURFTAB1
 70
     6
  9
$SURFTAB2
 70
     6
  9
$SURFTYPE
 70
     6
  9
$SURFU
 70
     6
  9
$SURFV
 70
     6
  9
$UCSBASE
  2

  9
$UCSNAME
  2

  9
$UCSORG
 10
0.0
 20
0.0
 30
0.0
  9
$UCSXDIR
 10
1.0
 20
0.0
 30
0.0
  9
$UCSYDIR
 10
0.0
 20
1.0
 30
0.0
  9
$UCSORTHOREF
  2

  9
$UCSORTHOVIEW
 70
     0
  9
$UCSORGTOP
 10
0.0
 20
0.0
 30
0.0
  9
$UCSORGBOTTOM
 10
0.0
 20
0.0
 30
0.0
  9
$UCSORGLEFT
 10
0.0
 20
0.0
 30
0.0
  9
$UCSORGRIGHT
 10
0.0
 20
0.0
 30
0.0
  9
$UCSORGFRONT
 10
0.0
 20
0.0
 30
0.0
  9
$UCSORGBACK
 10
0.0
 20
0.0
 30
0.0
  9
$PUCSBASE
  2

  9
$PUCSNAME
  2

  9
$PUCSORG
 10
0.0
 20
0.0
 30
0.0
  9
$PUCSXDIR
 10
1.0
 20
0.0
 30
0.0
  9
$PUCSYDIR
 10
0.0
 20
1.0
 30
0.0
  9
$PUCSORTHOREF
  2

  9
$PUCSORTHOVIEW
 70
     0
  9
$PUCSORGTOP
 10
0.0
 20
0.0
 30
0.0
  9
$PUCSORGBOTTOM
 10
0.0
 20
0.0
 30
0.0
  9
$PUCSORGLEFT
 10
0.0
 20
0.0
 30
0.0
  9
$PUCSORGRIGHT
 10
0.0
 20
0.0
 30
0.0
  9
$PUCSORGFRONT
 10
0.0
 20
0.0
 30
0.0
  9
$PUCSORGBACK
 10
0.0
 20
0.0
 30
0.0
  9
$USERI1
 70
     0
  9
$USERI2
 70
     0
  9
$USERI3
 70
     0
  9
$USERI4
 70
     0
  9
$USERI5
 70
     0
  9
$USERR1
 40
0.0
  9
$USERR2
 40
0.0
  9
$USERR3
 40
0.0
  9
$USERR4
 40
0.0
  9
$USERR5
 40
0.0
  9
$WORLDVIEW
 70
     1
  9
$SHADEDGE
 70
     3
  9
$SHADEDIF
 70
    70
  9
$TILEMODE
 70
     1
  9
$MAXACTVP
 70
    64
  9
$PINSBASE
 10
0.0
 20
0.0
 30
0.0
  9
$PLIMCHECK
 70
     0
  9
$PEXTMIN
 10
28.19999999999999
 20
17.0
 30
0.0
  9
$PEXTMAX
 10
253.8
 20
153.0
 30
0.0
  9
$PLIMMIN
 10
-7.5
 20
-20.0
  9
$PLIMMAX
 10
289.5
 20
190.0
  9
$UNITMODE
 70
     0
  9
$VISRETAIN
 70
     1
  9
$PLINEGEN
 70
     0
  9
$PSLTSCALE
 70
     1
  9
$TREEDEPTH
 70
  3020
  9
$CMLSTYLE
  2
Standard
  9
$CMLJUST
 70
     0
  9
$CMLSCALE
 40
20.0
  9
$PROXYGRAPHICS
 70
     1
  9
$MEASUREMENT
 70
     1
  9
$CELWEIGHT
370
    -1
  9
$ENDCAPS
280
     0
  9
$JOINSTYLE
280
     0
  9
$LWDISPLAY
290
     0
  9
$INSUNITS
 70
     4
  9
$HYPERLINKBASE
  1

  9
$STYLESHEET
  1
ganz_fein_1.ctb
  9
$XEDIT
290
     1
  9
$CEPSNTYPE
380
     0
  9
$PSTYLEMODE
290
     1
  9
$FINGERPRINTGUID
  2
{1ED8DA75-6351-46FC-8A74-01D590B6CB8C}
  9
$VERSIONGUID
  2
{0C69249E-5778-4CD5-AE0E-0C1FB8DB4DFA}
  9
$EXTNAMES
290
     1
  9
$PSVPSCALE
 40
0.0
  9
$OLESTARTUP
290
     0
  9
$SORTENTS
280
   127
  9
$INDEXCTL
280
     0
  9
$HIDETEXT
280
     0
  9
$XCLIPFRAME
290
     0
  9
$HALOGAP
280
     0
  9
$OBSCOLOR
 70
   257
  9
$OBSLTYPE
280
     0
  9
$INTERSECTIONDISPLAY
280
     0
  9
$INTERSECTIONCOLOR
 70
   257
  9
$DIMASSOC
280
     1
  9
$PROJECTNAME
  1

  0
ENDSEC
  0
SECTION
  2
CLASSES
  0
CLASS
  1
ACDBDICTIONARYWDFLT
  2
AcDbDictionaryWithDefault
  3
ObjectDBX Classes
 90
        0
 91
        1
280
     0
281
     0
  0
CLASS
  1
ACME_DOCUMENT
  2
AcMeDbDoc
  3
AcMeServices
 90
        0
 91
        1
280
     0
281
     0
  0
CLASS
  1
AMGSETTINGSOBJ
  2
AmgSettingsObj
  3
"AcadM|Product Description: AutoCAD Mechanical|Company: Autodesk"
 90
        0
 91
        2
280
     0
281
     0
  0
CLASS
  1
ACMESCOPE
  2
AcMeScope
  3
AcMeServices
 90
        0
 91
        1
280
     0
281
     0
  0
CLASS
  1
ACMECOMMANDHISTORY
  2
AcMeCommandHistory
  3
AcMeServices
 90
        0
 91
        1
280
     0
281
     0
  0
CLASS
  1
ACIMSYSVARMAN
  2
AcImSysVarManager
  3
AcMeServices
 90
        0
 91
        5
280
     0
281
     0
  0
CLASS
  1
ACIMREALSYSVAR
  2
AcImRealSysVar
  3
AcMeServices
 90
        0
 91
        1
280
     0
281
     0
  0
CLASS
  1
ACIMINTSYSVAR
  2
AcImIntSysVar
  3
AcMeServices
 90
        0
 91
       27
280
     0
281
     0
  0
CLASS
  1
ACMEDRAWINGMAN
  2
AcMeDrawingMan
  3
AcMeServices
 90
        0
 91
        1
280
     0
281
     0
  0
CLASS
  1
ACMEVIEW
  2
AcMeView
  3
AcMeServices
 90
        0
 91
        1
280
     0
281
     0
  0
CLASS
  1
ACDBENTITYCACHE
  2
AcMeEntityCache
  3
AcMeServices
 90
        0
 91
        1
280
     0
281
     0
  0
CLASS
  1
GSMANAGER
  2
AcMeGSManager
  3
AcMeServices
 90
        0
 91
        1
280
     0
281
     0
  0
CLASS
  1
AMDTINTERNALREACTOR
  2
AmdtInternalReactor
  3
AcMeServices
 90
        0
 91
        2
280
     0
281
     0
  0
CLASS
  1
ACMESTATEMGR
  2
AcMeStateMgr
  3
AcMeServices
 90
        0
 91
        1
280
     0
281
     0
  0
CLASS
  1
ACGREFMASTER
  2
AcGrefMaster
  3
AcAttribServices
 90
        0
 91
        1
280
     0
281
     0
  0
CLASS
  1
ACME_DATABASE
  2
AcMeDbDatabase
  3
AcMeServices
 90
        0
 91
        1
280
     0
281
     0
  0
CLASS
  1
ACRFINSADJUSTERMGR
  2
AcRfInsAdjusterMgr
  3
AcMeServices
 90
        0
 91
        1
280
     0
281
     0
  0
CLASS
  1
ACGREFACADMASTER
  2
AcGrefacadMaster
  3
AcGrefServices
 90
        0
 91
        1
280
     0
281
     0
  0
CLASS
  1
AMIMASTER
  2
AmiMaster
  3
AmiServices
 90
        0
 91
        1
280
     0
281
     0
  0
CLASS
  1
ACMDATADICTIONARY
  2
AcmDataDictionary
  3
"AcmSymBB|Product Description: AutoCAD Mechanical|Company: Autodesk"
 90
        0
 91
        1
280
     0
281
     0
  0
CLASS
  1
ACMDATAENTRYBLOCK
  2
AcmDataEntryBlock
  3
"AcmSymBB|Product Description: AutoCAD Mechanical|Company: Autodesk"
 90
        0
 91
        0
280
     0
281
     0
  0
CLASS
  1
ACIMSTRSYSVAR
  2
AcImStrSysVar
  3
AcMeServices
 90
        0
 91
        5
280
     0
281
     0
  0
CLASS
  1
ACMSTANDARDDIN
  2
AcmStandardDIN
  3
"Amdt_StdImp|Product Description: AutoCAD Mechanical|Company: Autodesk"
 90
        0
 91
        1
280
     0
281
     0
  0
CLASS
  1
AMGOBJPROPCFG
  2
AmgObjPropCfg
  3
"AmgLay|Product Description: AutoCAD Mechanical|Company: Autodesk"
 90
        1
 91
        2
280
     0
281
     0
  0
CLASS
  1
AMDTEDGESTANDARDDIN
  2
AmdtEdgeStdDIN
  3
"Amdt_StdImp|Product Description: AutoCAD Mechanical|Company: Autodesk"
 90
        0
 91
        0
280
     0
281
     0
  0
CLASS
  1
ACMSURFSTANDARDDIN
  2
AcmSurfTextStdDIN
  3
"Amdt_StdImp|Product Description: AutoCAD Mechanical|Company: Autodesk"
 90
        0
 91
        1
280
     0
281
     0
  0
CLASS
  1
ACMFCFSTANDARDDIN
  2
AcmFCFStdDIN
  3
"Amdt_StdImp|Product Description: AutoCAD Mechanical|Company: Autodesk"
 90
        0
 91
        1
280
     0
281
     0
  0
CLASS
  1
ACMWELDSTANDARDDIN
  2
AcmWeldingStdDIN
  3
"Amdt_StdImp|Product Description: AutoCAD Mechanical|Company: Autodesk"
 90
        0
 91
        1
280
     0
281
     0
  0
CLASS
  1
ACMIDSTANDARDDIN
  2
AcmIdStdDIN
  3
"Amdt_StdImp|Product Description: AutoCAD Mechanical|Company: Autodesk"
 90
        0
 91
        1
280
     0
281
     0
  0
CLASS
  1
ACMDATUMSTANDARDDIN
  2
AcmDatumStdDIN
  3
"Amdt_StdImp|Product Description: AutoCAD Mechanical|Company: Autodesk"
 90
        0
 91
        1
280
     0
281
     0
  0
CLASS
  1
ACMBOMSTANDARDDIN
  2
AcmBOMStdDIN
  3
"Amdt_StdImp|Product Description: AutoCAD Mechanical|Company: Autodesk"
 90
        0
 91
        1
280
     0
281
     0
  0
CLASS
  1
ACMDETAILSTANDARDDIN
  2
AmdtDetailSymStdDIN
  3
"Amdt_StdImp|Product Description: AutoCAD Mechanical|Company: Autodesk"
 90
        0
 91
        1
280
     0
281
     0
  0
CLASS
  1
ACMSECTIONSTANDARDDIN
  2
AmdtSectionSymStdDIN
  3
"Amdt_StdImp|Product Description: AutoCAD Mechanical|Company: Autodesk"
 90
        0
 91
        1
280
     0
281
     0
  0
CLASS
  1
ACMCENTERLINESTANDARDDIN
  2
AmdtCenterLineStdDIN
  3
"Amdt_StdImp|Product Description: AutoCAD Mechanical|Company: Autodesk"
 90
        0
 91
        1
280
     0
281
     0
  0
CLASS
  1
ACMNOTESTANDARDDIN
  2
AmdtNoteStdDIN
  3
"Amdt_StdImp|Product Description: AutoCAD Mechanical|Company: Autodesk"
 90
        0
 91
        1
280
     0
281
     0
  0
CLASS
  1
ACAMGLAYSTD
  2
AcAmgLayStd
  3
"AmgLay|Product Description: AutoCAD Mechanical|Company: Autodesk"
 90
        0
 91
        2
280
     0
281
     0
  0
CLASS
  1
ACAMGDIMSTD
  2
AcAmgDimStd
  3
"AmgDim|Product Description: AutoCAD Mechanical|Company: Autodesk"
 90
        0
 91
        2
280
     0
281
     0
  0
CLASS
  1
ACAMGHOLECHARTSTDDIN
  2
AcAmgHoleChartStdDIN
  3
ACMSYMBB_MODULE_NAME
 90
        0
 91
        1
280
     0
281
     0
  0
CLASS
  1
ACAMGTITLESTD
  2
AcAmgTitleStd
  3
"AmgTitle|Product Description: AutoCAD Mechanical|Company: Autodesk"
 90
        0
 91
        2
280
     0
281
     0
  0
CLASS
  1
LAYER_INDEX
  2
AcDbLayerIndex
  3
ObjectDBX Classes
 90
        0
 91
        0
280
     0
281
     0
  0
CLASS
  1
IDBUFFER
  2
AcDbIdBuffer
  3
ObjectDBX Classes
 90
        0
 91
        0
280
     0
281
     0
  0
CLASS
  1
DICTIONARYVAR
  2
AcDbDictionaryVar
  3
ObjectDBX Classes
 90
        0
 91
        3
280
     0
281
     0
  0
CLASS
  1
AM_DRAWING_MGR
  2
AcDmDwgMgr
  3
AcMechDwgViewMgmt
 90
        0
 91
        1
280
     0
281
     0
  0
CLASS
  1
AM_DWG_DOCUMENT
  2
AcDmDwgDocument
  3
AcMechDwgViewMgmt
 90
        0
 91
        1
280
     0
281
     0
  0
CLASS
  1
AM_DWG_SHEET
  2
AcDmSheet
  3
AcMechDwgViewMgmt
 90
        0
 91
        2
280
     0
281
     0
  0
CLASS
  1
AM_VIEWDIMPARMAP
  2
AcDmViewDimParMap
  3
AcMechDwgViewMgmt
 90
        0
 91
        2
280
     0
281
     0
  0
CLASS
  1
AM_DWGMGR_NAME
  2
AcDmDwgMgrName
  3
AcMechDwgViewMgmt
 90
        0
 91
        1
280
     0
281
     0
  0
CLASS
  1
AMDTMENUSTATEMGR
  2
AmdtMenuStateMgr
  3
McadcomServices
 90
        0
 91
        1
280
     0
281
     0
  0
CLASS
  1
AMDTMCOMMENUSTATE
  2
AmdtMcomMenuState
  3
McadcomServices
 90
        0
 91
        1
280
     0
281
     0
  0
CLASS
  1
MAPIAMMOUDLE
  2
MApiAmModule
  3
MApiAmServices
 90
        0
 91
        1
280
     0
281
     0
  0
CLASS
  1
AMDTADMENUSTATE
  2
AmdtAdMenuState
  3
DesignerServices
 90
        0
 91
        1
280
     0
281
     0
  0
CLASS
  1
ADAPPL
  2
AcAdAppl
  3
DesignerServices
 90
        0
 91
        1
280
     0
281
     0
  0
CLASS
  1
DEPMGR
  2
AcAdDepMgr
  3
DesignerServices
 90
        0
 91
        1
280
     0
281
     0
  0
CLASS
  1
PARAMMGR
  2
AcAdParamMgr
  3
DesignerServices
 90
        0
 91
        1
280
     0
281
     0
  0
CLASS
  1
PARAMSCOPE
  2
AcAdParamScope
  3
DesignerServices
 90
        0
 91
        1
280
     0
281
     0
  0
CLASS
  1
NAMEDAPPL
  2
AcAdNamedAppl
  3
DesignerServices
 90
        0
 91
        1
280
     0
281
     0
  0
CLASS
  1
AMDTDMMENUSTATE
  2
AmdtDmMenuState
  3
AcMechDwgViewMgmt
 90
        0
 91
        1
280
     0
281
     0
  0
CLASS
  1
AMDTAMMENUSTATE
  2
AmdtAmMenuState
  3
DesignerAssemblies
 90
        0
 91
        1
280
     0
281
     0
  0
CLASS
  1
ACAMPROJECT
  2
AcAmProject
  3
DesignerAssemblies
 90
        0
 91
        1
280
     0
281
     0
  0
CLASS
  1
ACAMGRCOMPDEF
  2
AcAmGrCompDef
  3
DesignerAssemblies
 90
        0
 91
        1
280
     0
281
     0
  0
CLASS
  1
ACCMCONTEXT
  2
AcCmContext
  3
DesignerAssemblies
 90
        0
 91
        1
280
     0
281
     0
  0
CLASS
  1
ACAMCOMPDEF
  2
AcAmCompDef
  3
DesignerAssemblies
 90
        0
 91
        1
280
     0
281
     0
  0
CLASS
  1
ACAMCOMPDEFMGR
  2
AcAmCompDefMgr
  3
DesignerAssemblies
 90
        0
 91
        1
280
     0
281
     0
  0
CLASS
  1
AMCONTEXTMGR
  2
AcAmContextMgr
  3
DesignerAssemblies
 90
        0
 91
        1
280
     0
281
     0
  0
CLASS
  1
ACAMCONTEXTMODELER
  2
AcAmContextModeler
  3
DesignerAssemblies
 90
        0
 91
        1
280
     0
281
     0
  0
CLASS
  1
ACMTHREADLINESTANDARDDIN
  2
AmdtThreadLineStdDIN
  3
"Amdt_StdImp|Product Description: AutoCAD Mechanical|Company: Autodesk"
 90
        0
 91
        1
280
     0
281
     0
  0
CLASS
  1
CATALOGSTATE
  2
AcAmCatalogState
  3
DesignerAssemblies
 90
        0
 91
        1
280
     0
281
     0
  0
CLASS
  1
ACAMGRCOMPDEFSET
  2
AcAmGrCompDefSet
  3
DesignerAssemblies
 90
        0
 91
        1
280
     0
281
     0
  0
CLASS
  1
AMDTBROWSERDBTAB
  2
AmdtBrowserDbTab
  3
McadcomServices
 90
        0
 91
        1
280
     0
281
     0
  0
CLASS
  1
CBROWSERAPPOBJECT
  2
CBrowserAppObject
  3
McadcomServices
 90
        0
 91
        3
280
     0
281
     0
  0
CLASS
  1
DM_PLACEHOLDER
  2
AcDmSelsetPlaceholder
  3
AcMechDwgViewMgmt
 90
        0
 91
        1
280
     0
281
     0
  0
CLASS
  1
TABLESTYLE
  2
AcDbTableStyle
  3
ObjectDBX Classes
 90
     4095
 91
        1
280
     0
281
     0
  0
CLASS
  1
MATERIAL
  2
AcDbMaterial
  3
ObjectDBX Classes
 90
     1024
 91
        3
280
     0
281
     0
  0
CLASS
  1
VISUALSTYLE
  2
AcDbVisualStyle
  3
ObjectDBX Classes
 90
     4095
 91
       19
280
     0
281
     0
  0
CLASS
  1
ACRFATTGENMGR
  2
AcRfAttGeneralMgr
  3
AcAttribServices
 90
        0
 91
        0
280
     0
281
     0
  0
CLASS
  1
ACRFOBJATTMGR
  2
AcRfObjAttGroupMgr
  3
AcAttribServices
 90
        0
 91
        0
280
     0
281
     0
  0
CLASS
  1
ACRFMCADAPIATTHOLDER
  2
AcRfMCADAPIAttHolder
  3
AcAttribServices
 90
        0
 91
        0
280
     0
281
     0
  0
CLASS
  1
AMDTSYSATTR
  2
AmdtSystemAttribute
  3
AcAttribServices
 90
        0
 91
        0
280
     0
281
     0
  0
CLASS
  1
ACMTAPERSTANDARDDIN
  2
AcmTaperStdDIN
  3
"Amdt_StdImp|Product Description: AutoCAD Mechanical|Company: Autodesk"
 90
        0
 91
        1
280
     0
281
     0
  0
CLASS
  1
CAMSSTRUCTBTNSTATE
  2
StructBtnState
  3
L"DesignerAssemblies"
 90
        0
 91
        0
280
     0
281
     0
  0
CLASS
  1
ACMPARTREF
  2
AcmPartRef
  3
"AcmSymBB|Product Description: AutoCAD Mechanical|Company: Autodesk"
 90
     3071
 91
        0
280
     0
281
     1
  0
CLASS
  1
ACMDATAENTRYPART
  2
AcmDataEntryPart
  3
"AcmSymBB|Product Description: AutoCAD Mechanical|Company: Autodesk"
 90
        0
 91
        0
280
     0
281
     0
  0
CLASS
  1
ACAMGFILTERDAT
  2
AcAmgFilterDat
  3
"AcadM|Product Description: AutoCAD Mechanical|Company: Autodesk"
 90
        0
 91
        0
280
     0
281
     0
  0
CLASS
  1
AMDTEDGESTANDARDDIN13715
  2
AmdtEdgeStdDIN13715
  3
"Amdt_StdImp|Product Description: AutoCAD Mechanical|Company: Autodesk"
 90
        0
 91
        1
280
     0
281
     0
  0
CLASS
  1
AMDTNOTETEMPLATEDB
  2
AmdtNoteTemplateDB
  3
AMDT_STDIMP_MODULE_NAME
 90
        0
 91
        9
280
     0
281
     0
  0
CLASS
  1
ACMSTANDARDISO
  2
AcmStandardISO
  3
"Amdt_StdImp|Product Description: AutoCAD Mechanical|Company: Autodesk"
 90
        0
 91
        1
280
     0
281
     0
  0
CLASS
  1
AMDTEDGESTANDARDISO
  2
AmdtEdgeStdISO
  3
"Amdt_StdImp|Product Description: AutoCAD Mechanical|Company: Autodesk"
 90
        0
 91
        1
280
     0
281
     0
  0
CLASS
  1
ACMSURFSTANDARDISO
  2
AcmSurfTextStdISO
  3
"Amdt_StdImp|Product Description: AutoCAD Mechanical|Company: Autodesk"
 90
        0
 91
        1
280
     0
281
     0
  0
CLASS
  1
ACMFCFSTANDARDISO
  2
AcmFCFStdISO
  3
"Amdt_StdImp|Product Description: AutoCAD Mechanical|Company: Autodesk"
 90
        0
 91
        1
280
     0
281
     0
  0
CLASS
  1
ACMWELDSTANDARDISO
  2
AcmWeldingStdISO
  3
"Amdt_StdImp|Product Description: AutoCAD Mechanical|Company: Autodesk"
 90
        0
 91
        1
280
     0
281
     0
  0
CLASS
  1
ACMIDSTANDARDISO
  2
AcmIdStdISO
  3
"Amdt_StdImp|Product Description: AutoCAD Mechanical|Company: Autodesk"
 90
        0
 91
        1
280
     0
281
     0
  0
CLASS
  1
ACMDATUMSTANDARDISO
  2
AcmDatumStdISO
  3
"Amdt_StdImp|Product Description: AutoCAD Mechanical|Company: Autodesk"
 90
        0
 91
        1
280
     0
281
     0
  0
CLASS
  1
ACMBOMSTANDARDISO
  2
AcmBOMStdISO
  3
"Amdt_StdImp|Product Description: AutoCAD Mechanical|Company: Autodesk"
 90
        0
 91
        1
280
     0
281
     0
  0
CLASS
  1
ACMDETAILSTANDARDISO
  2
AmdtDetailSymStdISO
  3
"Amdt_StdImp|Product Description: AutoCAD Mechanical|Company: Autodesk"
 90
        0
 91
        1
280
     0
281
     0
  0
CLASS
  1
ACMSECTIONSTANDARDISO
  2
AmdtSectionSymStdISO
  3
"Amdt_StdImp|Product Description: AutoCAD Mechanical|Company: Autodesk"
 90
        0
 91
        1
280
     0
281
     0
  0
CLASS
  1
ACMCENTERLINESTANDARDISO
  2
AmdtCenterLineStdISO
  3
"Amdt_StdImp|Product Description: AutoCAD Mechanical|Company: Autodesk"
 90
        0
 91
        1
280
     0
281
     0
  0
CLASS
  1
ACMNOTESTANDARDISO
  2
AmdtNoteStdISO
  3
"Amdt_StdImp|Product Description: AutoCAD Mechanical|Company: Autodesk"
 90
        0
 91
        1
280
     0
281
     0
  0
CLASS
  1
ACAMGHOLECHARTSTDISO
  2
AcAmgHoleChartStdISO
  3
ACMSYMBB_MODULE_NAME
 90
        0
 91
        1
280
     0
281
     0
  0
CLASS
  1
ACMTHREADLINESTANDARDISO
  2
AmdtThreadLineStdISO
  3
"Amdt_StdImp|Product Description: AutoCAD Mechanical|Company: Autodesk"
 90
        0
 91
        1
280
     0
281
     0
  0
CLASS
  1
ACMTAPERSTANDARDISO
  2
AcmTaperStdISO
  3
"Amdt_StdImp|Product Description: AutoCAD Mechanical|Company: Autodesk"
 90
        0
 91
        1
280
     0
281
     0
  0
ENDSEC
  0
SECTION
  2
TABLES
  0
TABLE
  2
VPORT
  5
8
330
0
100
AcDbSymbolTable
 70
     1
  0
VPORT
  5
1E9
330
8
100
AcDbSymbolTableRecord
100
AcDbViewportTableRecord
  2
*Active
 70
     0
 10
0.0
 20
0.0
 11
1.0
 21
1.0
 12
970.6905783239689
 22
583.1027649047574
 13
0.0
 23
0.0
 14
2.5
 24
2.5
 15
10.0
 25
10.0
 16
0.0
 26
0.0
 36
1.0
 17
0.0
 27
0.0
 37
0.0
 40
678.1632705969998
 41
1.845679012345678
 42
50.0
 43
0.0
 44
0.0
 50
0.0
 51
0.0
 71
     0
 72
   100
 73
     1
 74
     3
 75
     0
 76
     0
 77
     0
 78
     0
281
     0
 65
     1
110
0.0
120
0.0
130
0.0
111
1.0
121
0.0
131
0.0
112
0.0
122
1.0
132
0.0
 79
     0
146
0.0
  0
ENDTAB
  0
TABLE
  2
LTYPE
  5
5
330
0
100
AcDbSymbolTable
 70
    64
  0
LTYPE
  5
14
330
5
100
AcDbSymbolTableRecord
100
AcDbLinetypeTableRecord
  2
ByBlock
 70
     0
  3

 72
    65
 73
     0
 40
0.0
  0
LTYPE
  5
15
330
5
100
AcDbSymbolTableRecord
100
AcDbLinetypeTableRecord
  2
ByLayer
 70
     0
  3

 72
    65
 73
     0
 40
0.0
  0
LTYPE
  5
16
330
5
100
AcDbSymbolTableRecord
100
AcDbLinetypeTableRecord
  2
Continuous
 70
     0
  3
Solid line
 72
    65
 73
     0
 40
0.0
  0
LTYPE
  5
A0
330
5
100
AcDbSymbolTableRecord
100
AcDbLinetypeTableRecord
  2
AM_ISO02W050
 70
     0
  3
__ __ __ __ __ __ __ __ __ __ __ __ __ __ __
 72
    65
 73
     2
 40
7.5
 49
6.0
 74
     0
 49
-1.5
 74
     0
  0
LTYPE
  5
A1
330
5
100
AcDbSymbolTableRecord
100
AcDbLinetypeTableRecord
  2
AM_ISO08W050
 70
     0
  3
____ . ____ . ____ . ____ . ____ . ____ . ____
 72
    65
 73
     4
 40
18.0
 49
12.0
 74
     0
 49
-1.5
 74
     0
 49
3.0
 74
     0
 49
-1.5
 74
     0
  0
LTYPE
  5
A2
330
5
100
AcDbSymbolTableRecord
100
AcDbLinetypeTableRecord
  2
AM_ISO09W050
 70
     0
  3
_____ . . _____ . . _____ . . ____ .. ____
 72
    65
 73
     6
 40
22.5
 49
12.0
 74
     0
 49
-1.5
 74
     0
 49
3.0
 74
     0
 49
-1.5
 74
     0
 49
3.0
 74
     0
 49
-1.5
 74
     0
  0
LTYPE
  5
A3
330
5
100
AcDbSymbolTableRecord
100
AcDbLinetypeTableRecord
  2
Amconstr
 70
     0
  3
_______________________
 72
    65
 73
     2
 40
9999.0
 49
9999.0
 74
     0
 49
0.0
 74
     0
  0
LTYPE
  5
A4
330
5
100
AcDbSymbolTableRecord
100
AcDbLinetypeTableRecord
  2
AM_ISO08W050x2
 70
     0
  3
__ . __ . __ . __ . __ . __
 72
    65
 73
     4
 40
9.0
 49
6.0
 74
     0
 49
-0.75
 74
     0
 49
1.5
 74
     0
 49
-0.75
 74
     0
  0
LTYPE
  5
A5
330
5
100
AcDbSymbolTableRecord
100
AcDbLinetypeTableRecord
  2
AM_ISO02W050x2
 70
     0
  3
 _ _ _ _ _ _ _ _ _ _ _ _
 72
    65
 73
     2
 40
3.75
 49
3.0
 74
     0
 49
-0.75
 74
     0
  0
LTYPE
  5
A8
330
5
100
AcDbSymbolTableRecord
100
AcDbLinetypeTableRecord
  2
Amzigzag
 70
     0
  3
/\/-/\/-/\/-/\/-/\/-/\/
 72
    65
 73
     2
 40
11.0001
 49
0.0001
 74
     4
 75
   135
340
A7
 46
0.04
 50
0.0
 44
0.0
 45
0.0
 49
-11.0
 74
     0
  0
LTYPE
  5
A9
330
5
100
AcDbSymbolTableRecord
100
AcDbLinetypeTableRecord
  2
AM_DIN_F_W050
 70
     0
  3
__ __ __ __ __ __ __ __ __ __ __ __ __ __ __
 72
    65
 73
     2
 40
6.25
 49
4.75
 74
     0
 49
-1.5
 74
     0
  0
LTYPE
  5
AA
330
5
100
AcDbSymbolTableRecord
100
AcDbLinetypeTableRecord
  2
AM_DIN_G_W050
 70
     0
  3
____ . ____ . ____ . ____ . ____ . ____ . ____
 72
    65
 73
     4
 40
13.75
 49
9.75
 74
     0
 49
-1.5
 74
     0
 49
1.0
 74
     0
 49
-1.5
 74
     0
  0
LTYPE
  5
AB
330
5
100
AcDbSymbolTableRecord
100
AcDbLinetypeTableRecord
  2
AM_DIN_K_W050
 70
     0
  3
_____ . . _____ . . _____ . . ____ .. ____
 72
    65
 73
     6
 40
16.25
 49
9.75
 74
     0
 49
-1.5
 74
     0
 49
1.0
 74
     0
 49
-1.5
 74
     0
 49
1.0
 74
     0
 49
-1.5
 74
     0
  0
LTYPE
  5
AC
330
5
100
AcDbSymbolTableRecord
100
AcDbLinetypeTableRecord
  2
AM_DIN_G_W050x2
 70
     0
  3
__ . __ . __ . __ . __ . __
 72
    65
 73
     4
 40
6.875
 49
4.75
 74
     0
 49
-0.875
 74
     0
 49
0.375
 74
     0
 49
-0.875
 74
     0
  0
LTYPE
  5
AD
330
5
100
AcDbSymbolTableRecord
100
AcDbLinetypeTableRecord
  2
AM_DIN_F_W050x2
 70
     0
  3
 _ _ _ _ _ _ _ _ _ _ _ _
 72
    65
 73
     2
 40
3.125
 49
2.25
 74
     0
 49
-0.875
 74
     0
  0
LTYPE
  5
BB
330
5
100
AcDbSymbolTableRecord
100
AcDbLinetypeTableRecord
  2
ACDINWELD
 70
     0
  3
_ _ _ _ _
 72
    65
 73
     2
 40
2.0
 49
2.0
 74
     0
 49
-1.0
 74
     0
  0
LTYPE
  5
BC
330
5
100
AcDbSymbolTableRecord
100
AcDbLinetypeTableRecord
  2
ACDINTGB
 70
     0
  3
__ . . __ . .
 72
    65
 73
     6
 40
9.0
 49
4.0
 74
     0
 49
-1.0
 74
     0
 49
1.0
 74
     0
 49
-1.0
 74
     0
 49
1.0
 74
     0
 49
-1.0
 74
     0
  0
LTYPE
  5
BD
330
5
100
AcDbSymbolTableRecord
100
AcDbLinetypeTableRecord
  2
ACDINTGL
 70
     0
  3
_ _ _ _ _
 72
    65
 73
     2
 40
3.0
 49
2.0
 74
     0
 49
-1.0
 74
     0
  0
LTYPE
  5
BF
330
5
100
AcDbSymbolTableRecord
100
AcDbLinetypeTableRecord
  2
CENTER
 70
     0
  3
__ . __
 72
    65
 73
     4
 40
7.0
 49
4.0
 74
     0
 49
-1.0
 74
     0
 49
1.0
 74
     0
 49
-1.0
 74
     0
  0
LTYPE
  5
10F
330
5
100
AcDbSymbolTableRecord
100
AcDbLinetypeTableRecord
  2
HIDDEN
 70
     0
  3
Verdeckt
 72
    65
 73
     2
 40
9.525
 49
6.349999999999998
 74
     0
 49
-3.174999999999998
 74
     0
  0
LTYPE
  5
110
330
5
100
AcDbSymbolTableRecord
100
AcDbLinetypeTableRecord
  2
PHANTOM2
 70
     0
  3
Phantom (.5x) ___ _ _ ___ _ _ ___ _ _ ___ _ _
 72
    65
 73
     6
 40
31.75
 49
15.875
 74
     0
 49
-3.174999999999998
 74
     0
 49
3.174999999999998
 74
     0
 49
-3.174999999999998
 74
     0
 49
3.174999999999998
 74
     0
 49
-3.174999999999998
 74
     0
  0
LTYPE
  5
2FE
330
5
100
AcDbSymbolTableRecord
100
AcDbLinetypeTableRecord
  2
gen7a
 70
     0
  3
__ . __ . __
 72
    65
 73
     4
 40
6.875
 49
4.75
 74
     0
 49
-0.875
 74
     0
 49
0.375
 74
     0
 49
-0.875
 74
     0
  0
LTYPE
  5
2FF
330
5
100
AcDbSymbolTableRecord
100
AcDbLinetypeTableRecord
  2
VERDECKT
 70
     0
  3
_ _ _ _ _ _ _ _ _ _ _ _ _ _ _ _ _ _ _ _ _ _ _
 72
    65
 73
     2
 40
0.375
 49
0.25
 74
     0
 49
-0.125
 74
     0
  0
LTYPE
  5
BE4
330
5
100
AcDbSymbolTableRecord
100
AcDbLinetypeTableRecord
  2
BORDER
 70
     0
  3
Border __ __ . __ __ . __ __ . __ __ . __ __ .
 72
    65
 73
     6
 40
1.75
 49
0.5
 74
     0
 49
-0.25
 74
     0
 49
0.5
 74
     0
 49
-0.25
 74
     0
 49
0.0
 74
     0
 49
-0.25
 74
     0
  0
LTYPE
  5
BE5
330
5
100
AcDbSymbolTableRecord
100
AcDbLinetypeTableRecord
  2
BORDER2
 70
     0
  3
Border (.5x) __.__.__.__.__.__.__.__.__.__.__.
 72
    65
 73
     6
 40
0.875
 49
0.25
 74
     0
 49
-0.125
 74
     0
 49
0.25
 74
     0
 49
-0.125
 74
     0
 49
0.0
 74
     0
 49
-0.125
 74
     0
  0
LTYPE
  5
BE6
330
5
100
AcDbSymbolTableRecord
100
AcDbLinetypeTableRecord
  2
BORDERX2
 70
     0
  3
Border (2x) ____  ____  .  ____  ____  .  ___
 72
    65
 73
     6
 40
3.5
 49
1.0
 74
     0
 49
-0.5
 74
     0
 49
1.0
 74
     0
 49
-0.5
 74
     0
 49
0.0
 74
     0
 49
-0.5
 74
     0
  0
LTYPE
  5
BE7
330
5
100
AcDbSymbolTableRecord
100
AcDbLinetypeTableRecord
  2
CENTER2
 70
     0
  3
Center (.5x) ___ _ ___ _ ___ _ ___ _ ___ _ ___
 72
    65
 73
     4
 40
1.125
 49
0.75
 74
     0
 49
-0.125
 74
     0
 49
0.125
 74
     0
 49
-0.125
 74
     0
  0
LTYPE
  5
BE8
330
5
100
AcDbSymbolTableRecord
100
AcDbLinetypeTableRecord
  2
CENTERX2
 70
     0
  3
Center (2x) ________  __  ________  __  _____
 72
    65
 73
     4
 40
4.0
 49
2.5
 74
     0
 49
-0.5
 74
     0
 49
0.5
 74
     0
 49
-0.5
 74
     0
  0
LTYPE
  5
BE9
330
5
100
AcDbSymbolTableRecord
100
AcDbLinetypeTableRecord
  2
DASHDOT
 70
     0
  3
Dash dot __ . __ . __ . __ . __ . __ . __ . __
 72
    65
 73
     4
 40
1.0
 49
0.5
 74
     0
 49
-0.25
 74
     0
 49
0.0
 74
     0
 49
-0.25
 74
     0
  0
LTYPE
  5
BEA
330
5
100
AcDbSymbolTableRecord
100
AcDbLinetypeTableRecord
  2
DASHDOT2
 70
     0
  3
Dash dot (.5x) _._._._._._._._._._._._._._._.
 72
    65
 73
     4
 40
0.5
 49
0.25
 74
     0
 49
-0.125
 74
     0
 49
0.0
 74
     0
 49
-0.125
 74
     0
  0
LTYPE
  5
BEB
330
5
100
AcDbSymbolTableRecord
100
AcDbLinetypeTableRecord
  2
DASHDOTX2
 70
     0
  3
Dash dot (2x) ____  .  ____  .  ____  .  ___
 72
    65
 73
     4
 40
2.0
 49
1.0
 74
     0
 49
-0.5
 74
     0
 49
0.0
 74
     0
 49
-0.5
 74
     0
  0
LTYPE
  5
BEC
330
5
100
AcDbSymbolTableRecord
100
AcDbLinetypeTableRecord
  2
DASHED
 70
     0
  3
Dashed __ __ __ __ __ __ __ __ __ __ __ __ __ _
 72
    65
 73
     2
 40
0.75
 49
0.5
 74
     0
 49
-0.25
 74
     0
  0
LTYPE
  5
BED
330
5
100
AcDbSymbolTableRecord
100
AcDbLinetypeTableRecord
  2
DASHED2
 70
     0
  3
Dashed (.5x) _ _ _ _ _ _ _ _ _ _ _ _ _ _ _ _ _
 72
    65
 73
     2
 40
0.375
 49
0.25
 74
     0
 49
-0.125
 74
     0
  0
LTYPE
  5
BEE
330
5
100
AcDbSymbolTableRecord
100
AcDbLinetypeTableRecord
  2
DASHEDX2
 70
     0
  3
Dashed (2x) ____  ____  ____  ____  ____  ___
 72
    65
 73
     2
 40
1.5
 49
1.0
 74
     0
 49
-0.5
 74
     0
  0
LTYPE
  5
BEF
330
5
100
AcDbSymbolTableRecord
100
AcDbLinetypeTableRecord
  2
DIVIDE
 70
     0
  3
Divide ____ . . ____ . . ____ . . ____ . . ____
 72
    65
 73
     6
 40
1.25
 49
0.5
 74
     0
 49
-0.25
 74
     0
 49
0.0
 74
     0
 49
-0.25
 74
     0
 49
0.0
 74
     0
 49
-0.25
 74
     0
  0
LTYPE
  5
BF0
330
5
100
AcDbSymbolTableRecord
100
AcDbLinetypeTableRecord
  2
DIVIDE2
 70
     0
  3
Divide (.5x) __..__..__..__..__..__..__..__.._
 72
    65
 73
     6
 40
0.625
 49
0.25
 74
     0
 49
-0.125
 74
     0
 49
0.0
 74
     0
 49
-0.125
 74
     0
 49
0.0
 74
     0
 49
-0.125
 74
     0
  0
LTYPE
  5
BF1
330
5
100
AcDbSymbolTableRecord
100
AcDbLinetypeTableRecord
  2
DIVIDEX2
 70
     0
  3
Divide (2x) ________  .  .  ________  .  .  _
 72
    65
 73
     6
 40
2.5
 49
1.0
 74
     0
 49
-0.5
 74
     0
 49
0.0
 74
     0
 49
-0.5
 74
     0
 49
0.0
 74
     0
 49
-0.5
 74
     0
  0
LTYPE
  5
BF2
330
5
100
AcDbSymbolTableRecord
100
AcDbLinetypeTableRecord
  2
DOT
 70
     0
  3
Dot . . . . . . . . . . . . . . . . . . . . . .
 72
    65
 73
     2
 40
0.25
 49
0.0
 74
     0
 49
-0.25
 74
     0
  0
LTYPE
  5
BF3
330
5
100
AcDbSymbolTableRecord
100
AcDbLinetypeTableRecord
  2
DOT2
 70
     0
  3
Dot (.5x) .....................................
 72
    65
 73
     2
 40
0.125
 49
0.0
 74
     0
 49
-0.125
 74
     0
  0
LTYPE
  5
BF4
330
5
100
AcDbSymbolTableRecord
100
AcDbLinetypeTableRecord
  2
DOTX2
 70
     0
  3
Dot (2x) .  .  .  .  .  .  .  .  .  .  .  .  . 
 72
    65
 73
     2
 40
0.5
 49
0.0
 74
     0
 49
-0.5
 74
     0
  0
LTYPE
  5
BF5
330
5
100
AcDbSymbolTableRecord
100
AcDbLinetypeTableRecord
  2
GAS_LINE
 70
     0
  3
Gas line ----GAS----GAS----GAS----GAS----GAS---
 72
    65
 73
     3
 40
0.95
 49
0.5
 74
     0
 49
-0.2
 74
     2
 75
     0
340
11
 46
0.1
 50
0.0
 44
-0.1
 45
-0.05
  9
GAS
 49
-0.25
 74
     0
  0
LTYPE
  5
BF6
330
5
100
AcDbSymbolTableRecord
100
AcDbLinetypeTableRecord
  2
HIDDEN2
 70
     0
  3
Hidden (.5x) _ _ _ _ _ _ _ _ _ _ _ _ _ _ _ _ _
 72
    65
 73
     2
 40
0.1875
 49
0.125
 74
     0
 49
-0.0625
 74
     0
  0
LTYPE
  5
BF7
330
5
100
AcDbSymbolTableRecord
100
AcDbLinetypeTableRecord
  2
HIDDENX2
 70
     0
  3
Hidden (2x) ____ ____ ____ ____ ____ ____ ____
 72
    65
 73
     2
 40
0.75
 49
0.5
 74
     0
 49
-0.25
 74
     0
  0
LTYPE
  5
BF8
330
5
100
AcDbSymbolTableRecord
100
AcDbLinetypeTableRecord
  2
PHANTOM
 70
     0
  3
Phantom ______  __  __  ______  __  __  ______
 72
    65
 73
     6
 40
2.5
 49
1.25
 74
     0
 49
-0.25
 74
     0
 49
0.25
 74
     0
 49
-0.25
 74
     0
 49
0.25
 74
     0
 49
-0.25
 74
     0
  0
LTYPE
  5
BF9
330
5
100
AcDbSymbolTableRecord
100
AcDbLinetypeTableRecord
  2
PHANTOMX2
 70
     0
  3
Phantom (2x) ____________    ____    ____   _
 72
    65
 73
     6
 40
5.0
 49
2.5
 74
     0
 49
-0.5
 74
     0
 49
0.5
 74
     0
 49
-0.5
 74
     0
 49
0.5
 74
     0
 49
-0.5
 74
     0
  0
LTYPE
  5
BFA
330
5
100
AcDbSymbolTableRecord
100
AcDbLinetypeTableRecord
  2
ZIGZAG
 70
     0
  3
Zig zag /\/\/\/\/\/\/\/\/\/\/\/\/\/\/\/\/\/\/\/
 72
    65
 73
     4
 40
0.8001000000000001
 49
0.0001
 74
     0
 49
-0.2
 74
     4
 75
   131
340
C0E
 46
0.2
 50
0.0
 44
-0.2
 45
0.0
 49
-0.4
 74
     4
 75
   131
340
C0E
 46
0.2
 50
180.0
 44
0.2
 45
0.0
 49
-0.2
 74
     0
  0
LTYPE
  5
BFB
330
5
100
AcDbSymbolTableRecord
100
AcDbLinetypeTableRecord
  2
CPFLEX
 70
     0
  3
CP flex /\/\/\/\/\/\/\/\/\/\/\/\/\/\/\/\/\/\/\/
 72
    65
 73
     4
 40
0.8001000000000001
 49
0.0001
 74
     0
 49
-0.2
 74
     4
 75
   131
340
C0E
 46
0.2
 50
0.0
 44
-0.2
 45
0.0
 49
-0.4
 74
     4
 75
   131
340
C0E
 46
0.2
 50
180.0
 44
0.2
 45
0.0
 49
-0.2
 74
     0
  0
LTYPE
  5
BFC
330
5
100
AcDbSymbolTableRecord
100
AcDbLinetypeTableRecord
  2
CIRC
 70
     0
  3
 ----- ~ ----- ~ ---- ~ -----
 72
    65
 73
     3
 40
9.0
 49
7.0
 74
     0
 49
-1.0
 74
     2
 75
     0
340
11
 46
1.0
 50
0.0
 44
-0.3
 45
-0.6
  9
~
 49
-1.0
 74
     0
  0
LTYPE
  5
BFD
330
5
100
AcDbSymbolTableRecord
100
AcDbLinetypeTableRecord
  2
DN 010
 70
     0
  3
 DN10  ---- 10 ---- 10 ---- 10 ----
 72
    65
 73
     3
 40
9.0
 49
5.0
 74
     0
 49
-2.0
 74
     2
 75
     0
340
11
 46
1.0
 50
0.0
 44
-0.5
 45
-0.5
  9
10
 49
-2.0
 74
     0
  0
LTYPE
  5
BFE
330
5
100
AcDbSymbolTableRecord
100
AcDbLinetypeTableRecord
  2
DN 015
 70
     0
  3
 DN15  ---- 15 ---- 15 ---- 15 ----
 72
    65
 73
     3
 40
9.0
 49
5.0
 74
     0
 49
-2.0
 74
     2
 75
     0
340
11
 46
1.0
 50
0.0
 44
-0.5
 45
-0.5
  9
15
 49
-2.0
 74
     0
  0
LTYPE
  5
BFF
330
5
100
AcDbSymbolTableRecord
100
AcDbLinetypeTableRecord
  2
DN 020
 70
     0
  3
 DN20  ---- 20 ---- 20 ---- 20 ----
 72
    65
 73
     3
 40
9.0
 49
5.0
 74
     0
 49
-2.0
 74
     2
 75
     0
340
11
 46
1.0
 50
0.0
 44
-0.5
 45
-0.5
  9
20
 49
-2.0
 74
     0
  0
LTYPE
  5
C00
330
5
100
AcDbSymbolTableRecord
100
AcDbLinetypeTableRecord
  2
DN 025
 70
     0
  3
 DN25  ---- 25 ---- 25 ---- 25 ----
 72
    65
 73
     3
 40
9.0
 49
5.0
 74
     0
 49
-2.0
 74
     2
 75
     0
340
11
 46
1.0
 50
0.0
 44
-0.5
 45
-0.5
  9
25
 49
-2.0
 74
     0
  0
LTYPE
  5
C01
330
5
100
AcDbSymbolTableRecord
100
AcDbLinetypeTableRecord
  2
DN 032
 70
     0
  3
 DN32  ---- 32 ---- 32 ---- 32 ----
 72
    65
 73
     3
 40
9.0
 49
5.0
 74
     0
 49
-2.0
 74
     2
 75
     0
340
11
 46
1.0
 50
0.0
 44
-0.5
 45
-0.5
  9
32
 49
-2.0
 74
     0
  0
LTYPE
  5
C02
330
5
100
AcDbSymbolTableRecord
100
AcDbLinetypeTableRecord
  2
DN 040
 70
     0
  3
 DN40  ---- 40 ---- 40 ---- 40 ----
 72
    65
 73
     3
 40
9.0
 49
5.0
 74
     0
 49
-2.0
 74
     2
 75
     0
340
11
 46
1.0
 50
0.0
 44
-0.5
 45
-0.5
  9
40
 49
-2.0
 74
     0
  0
LTYPE
  5
C03
330
5
100
AcDbSymbolTableRecord
100
AcDbLinetypeTableRecord
  2
DN 050
 70
     0
  3
 DN50  ---- 50 ---- 50 ---- 50 ----
 72
    65
 73
     3
 40
9.0
 49
5.0
 74
     0
 49
-2.0
 74
     2
 75
     0
340
11
 46
1.0
 50
0.0
 44
-0.5
 45
-0.5
  9
50
 49
-2.0
 74
     0
  0
LTYPE
  5
C04
330
5
100
AcDbSymbolTableRecord
100
AcDbLinetypeTableRecord
  2
DN 065
 70
     0
  3
 DN65  ---- 65 ---- 65 ---- 65 ----
 72
    65
 73
     3
 40
9.0
 49
5.0
 74
     0
 49
-2.0
 74
     2
 75
     0
340
11
 46
1.0
 50
0.0
 44
-0.5
 45
-0.5
  9
65
 49
-2.0
 74
     0
  0
LTYPE
  5
C05
330
5
100
AcDbSymbolTableRecord
100
AcDbLinetypeTableRecord
  2
DN 080
 70
     0
  3
 DN80  ---- 80 ---- 80 ---- 80 ----
 72
    65
 73
     3
 40
9.0
 49
5.0
 74
     0
 49
-2.0
 74
     2
 75
     0
340
11
 46
1.0
 50
0.0
 44
-0.5
 45
-0.5
  9
80
 49
-2.0
 74
     0
  0
LTYPE
  5
C06
330
5
100
AcDbSymbolTableRecord
100
AcDbLinetypeTableRecord
  2
DN 100
 70
     0
  3
 DN100 ---- 100 --- 100 --- 100 ---
 72
    65
 73
     3
 40
9.0
 49
5.0
 74
     0
 49
-2.0
 74
     2
 75
     0
340
11
 46
1.0
 50
0.0
 44
-1.0
 45
-0.5
  9
100
 49
-2.0
 74
     0
  0
LTYPE
  5
C07
330
5
100
AcDbSymbolTableRecord
100
AcDbLinetypeTableRecord
  2
DN 125
 70
     0
  3
 DN125 ---- 125 --- 125 --- 125 ---
 72
    65
 73
     3
 40
9.0
 49
5.0
 74
     0
 49
-2.0
 74
     2
 75
     0
340
11
 46
1.0
 50
0.0
 44
-1.0
 45
-0.5
  9
125
 49
-2.0
 74
     0
  0
LTYPE
  5
C08
330
5
100
AcDbSymbolTableRecord
100
AcDbLinetypeTableRecord
  2
DN 150
 70
     0
  3
 DN150 ---- 150 --- 150 --- 150 ---
 72
    65
 73
     3
 40
9.0
 49
5.0
 74
     0
 49
-2.0
 74
     2
 75
     0
340
11
 46
1.0
 50
0.0
 44
-1.0
 45
-0.5
  9
150
 49
-2.0
 74
     0
  0
LTYPE
  5
C09
330
5
100
AcDbSymbolTableRecord
100
AcDbLinetypeTableRecord
  2
DN 200
 70
     0
  3
 DN200 ---- 200 --- 200 --- 200 ---
 72
    65
 73
     3
 40
9.0
 49
5.0
 74
     0
 49
-2.0
 74
     2
 75
     0
340
11
 46
1.0
 50
0.0
 44
-1.0
 45
-0.5
  9
200
 49
-2.0
 74
     0
  0
LTYPE
  5
C0A
330
5
100
AcDbSymbolTableRecord
100
AcDbLinetypeTableRecord
  2
DN 250
 70
     0
  3
 DN250 ---- 250 --- 250 --- 250 ---
 72
    65
 73
     3
 40
9.0
 49
5.0
 74
     0
 49
-2.0
 74
     2
 75
     0
340
11
 46
1.0
 50
0.0
 44
-1.0
 45
-0.5
  9
250
 49
-2.0
 74
     0
  0
LTYPE
  5
C0B
330
5
100
AcDbSymbolTableRecord
100
AcDbLinetypeTableRecord
  2
DN 300
 70
     0
  3
 DN300 ---- 300 --- 300 --- 300 ---
 72
    65
 73
     3
 40
9.0
 49
5.0
 74
     0
 49
-2.0
 74
     2
 75
     0
340
11
 46
1.0
 50
0.0
 44
-1.0
 45
-0.5
  9
300
 49
-2.0
 74
     0
  0
LTYPE
  5
CBE
330
5
100
AcDbSymbolTableRecord
100
AcDbLinetypeTableRecord
  2
ACISOWELD
 70
     0
  3
_ _ _ _ _
 72
    65
 73
     2
 40
2.0
 49
2.0
 74
     0
 49
-1.0
 74
     0
  0
LTYPE
  5
CC1
330
5
100
AcDbSymbolTableRecord
100
AcDbLinetypeTableRecord
  2
ACISOTGB
 70
     0
  3
__ . . __ . .
 72
    65
 73
     6
 40
9.0
 49
4.0
 74
     0
 49
-1.0
 74
     0
 49
1.0
 74
     0
 49
-1.0
 74
     0
 49
1.0
 74
     0
 49
-1.0
 74
     0
  0
LTYPE
  5
CC2
330
5
100
AcDbSymbolTableRecord
100
AcDbLinetypeTableRecord
  2
ACISOTGL
 70
     0
  3
_ _ _ _ _
 72
    65
 73
     2
 40
3.0
 49
2.0
 74
     0
 49
-1.0
 74
     0
  0
ENDTAB
  0
TABLE
  2
LAYER
  5
2
330
0
100
AcDbSymbolTable
 70
    21
  0
LAYER
  5
10
330
2
100
AcDbSymbolTableRecord
100
AcDbLayerTableRecord
  2
0
 70
     0
 62
     7
  6
Continuous
370
    -3
390
F
  0
LAYER
  5
F0
330
2
100
AcDbSymbolTableRecord
100
AcDbLayerTableRecord
  2
AM_5
 70
     0
 62
     3
  6
Continuous
370
    25
390
F
  0
LAYER
  5
300
330
2
100
AcDbSymbolTableRecord
100
AcDbLayerTableRecord
  2
AM_0
 70
     0
 62
     7
  6
Continuous
370
    50
390
F
  0
LAYER
  5
301
330
2
100
AcDbSymbolTableRecord
100
AcDbLayerTableRecord
  2
6
 70
     0
 62
     2
  6
Continuous
370
    -3
390
F
  0
LAYER
  5
302
330
2
100
AcDbSymbolTableRecord
100
AcDbLayerTableRecord
  2
AM_7
 70
     0
 62
     4
  6
AM_DIN_G_W050
370
    25
390
F
  0
LAYER
  5
303
330
2
100
AcDbSymbolTableRecord
100
AcDbLayerTableRecord
  2
AM_6
 70
     0
 62
     2
  6
Continuous
370
    35
390
F
  0
LAYER
  5
304
330
2
100
AcDbSymbolTableRecord
100
AcDbLayerTableRecord
  2
AM_4
 70
     0
 62
     3
  6
Continuous
370
    25
390
F
  0
LAYER
  5
305
330
2
100
AcDbSymbolTableRecord
100
AcDbLayerTableRecord
  2
Defpoints
 70
     0
 62
     7
  6
Continuous
290
     0
370
    -3
390
F
  0
LAYER
  5
306
330
2
100
AcDbSymbolTableRecord
100
AcDbLayerTableRecord
  2
AM_12
 70
     0
 62
     7
  6
Continuous
290
     0
370
    50
390
F
  0
LAYER
  5
307
330
2
100
AcDbSymbolTableRecord
100
AcDbLayerTableRecord
  2
AM_PAREF
 70
     0
 62
     4
  6
Continuous
290
     0
370
    25
390
F
  0
LAYER
  5
308
330
2
100
AcDbSymbolTableRecord
100
AcDbLayerTableRecord
  2
7A
 70
     0
 62
     1
  6
gen7a
370
    -3
390
F
  0
LAYER
  5
309
330
2
100
AcDbSymbolTableRecord
100
AcDbLayerTableRecord
  2
8
 70
     0
 62
     1
  6
Continuous
370
    -3
390
F
  0
LAYER
  5
30A
330
2
100
AcDbSymbolTableRecord
100
AcDbLayerTableRecord
  2
UMRISS05
 70
     0
 62
     7
  6
Continuous
370
    -3
390
F
  0
LAYER
  5
30B
330
2
100
AcDbSymbolTableRecord
100
AcDbLayerTableRecord
  2
GEWINDESTCK
 70
     0
 62
     7
  6
Continuous
370
    -3
390
F
  0
LAYER
  5
30C
330
2
100
AcDbSymbolTableRecord
100
AcDbLayerTableRecord
  2
TYPENSCHILD
 70
     0
 62
     6
  6
Continuous
370
    -3
390
F
  0
LAYER
  5
30D
330
2
100
AcDbSymbolTableRecord
100
AcDbLayerTableRecord
  2
GEFÄß
 70
     0
 62
     7
  6
Continuous
370
    -3
390
F
  0
LAYER
  5
30E
330
2
100
AcDbSymbolTableRecord
100
AcDbLayerTableRecord
  2
VERDECKTE
 70
     0
 62
     3
  6
VERDECKT
370
    -3
390
F
  0
LAYER
  5
30F
330
2
100
AcDbSymbolTableRecord
100
AcDbLayerTableRecord
  2
OBERTEIL
 70
     0
 62
     7
  6
Continuous
370
    -3
390
F
  0
LAYER
  5
310
330
2
100
AcDbSymbolTableRecord
100
AcDbLayerTableRecord
  2
VENTILKOMPL
 70
     0
 62
     7
  6
Continuous
370
    -3
390
F
  0
LAYER
  5
311
330
2
100
AcDbSymbolTableRecord
100
AcDbLayerTableRecord
  2
4
 70
     0
 62
     3
  6
Continuous
370
    -3
390
F
  0
LAYER
  5
312
330
2
100
AcDbSymbolTableRecord
100
AcDbLayerTableRecord
  2
DN50-0
 70
     0
 62
     7
  6
Continuous
370
    -3
390
F
  0
ENDTAB
  0
TABLE
  2
STYLE
  5
3
330
0
100
AcDbSymbolTable
 70
    17
  0
STYLE
  5
11
330
3
100
AcDbSymbolTableRecord
100
AcDbTextStyleTableRecord
  2
STANDARD
 70
     0
 40
0.0
 41
1.0
 50
0.0
 71
     0
 42
2.5
  3
ISOCP.SHX
  4

  0
STYLE
  5
A7
330
3
100
AcDbSymbolTableRecord
100
AcDbTextStyleTableRecord
  2

 70
     1
 40
0.0
 41
1.0
 50
0.0
 71
     0
 42
2.5
  3
ltypeshp.shx
  4

  0
STYLE
  5
AE
330
3
100
AcDbSymbolTableRecord
100
AcDbTextStyleTableRecord
  2
ACDINTS
 70
     0
 40
1.0
 41
1.0
 50
0.0
 71
     0
 42
2.5
  3
isocp.shx
  4

  0
STYLE
  5
BA
330
3
100
AcDbSymbolTableRecord
100
AcDbTextStyleTableRecord
  2
ACDINGDT
 70
     0
 40
0.0
 41
1.0
 50
0.0
 71
     0
 42
2.5
  3
amgdt.shx
  4

  0
STYLE
  5
23D
330
3
100
AcDbSymbolTableRecord
100
AcDbTextStyleTableRecord
  2
USER1
 70
     0
 40
0.0
 41
1.0
 50
0.0
 71
     0
 42
2.5
  3
TXT.SHX
  4

  0
STYLE
  5
23E
330
3
100
AcDbSymbolTableRecord
100
AcDbTextStyleTableRecord
  2
USER2
 70
     0
 40
0.0
 41
1.0
 50
0.0
 71
     0
 42
2.5
  3
SIMPLEX.SHX
  4

  0
STYLE
  5
23F
330
3
100
AcDbSymbolTableRecord
100
AcDbTextStyleTableRecord
  2
USER3
 70
     0
 40
0.0
 41
1.0
 50
0.0
 71
     0
 42
2.5
  3
ITALIC.SHX
  4

  0
STYLE
  5
C0C
330
3
100
AcDbSymbolTableRecord
100
AcDbTextStyleTableRecord
  2
Annotative
 70
     0
 40
0.0
 41
1.0
 50
0.0
 71
     0
 42
2.5
  3
ARIAL.TTF
  4

1001
AcadAnnotative
1000
AnnotativeData
1002
{
1070
     1
1070
     1
1002
}
1001
ACAD
1000
Arial
1071
       34
  0
STYLE
  5
C0D
330
3
100
AcDbSymbolTableRecord
100
AcDbTextStyleTableRecord
  2
CP_TXT
 70
     0
 40
0.0
 41
1.0
 50
0.0
 71
     0
 42
2.5
  3
ROMANS.SHX
  4

  0
STYLE
  5
C0E
330
3
100
AcDbSymbolTableRecord
100
AcDbTextStyleTableRecord
  2

 70
     1
 40
0.0
 41
1.0
 50
0.0
 71
     0
 42
2.5
  3
LTYPESHP.SHX
  4

  0
STYLE
  5
C0F
330
3
100
AcDbSymbolTableRecord
100
AcDbTextStyleTableRecord
  2
CP_ATTR
 70
     0
 40
0.0
 41
1.0
 50
0.0
 71
     0
 42
0.2
  3
ROMANS.SHX
  4

  0
STYLE
  5
C10
330
3
100
AcDbSymbolTableRecord
100
AcDbTextStyleTableRecord
  2
CP_TXT_IT
 70
     0
 40
0.0
 41
1.0
 50
15.0
 71
     0
 42
2.5
  3
ROMANS.SHX
  4

  0
STYLE
  5
C11
330
3
100
AcDbSymbolTableRecord
100
AcDbTextStyleTableRecord
  2
CP_TXTCON
 70
     0
 40
0.0
 41
0.8
 50
0.0
 71
     0
 42
2.5
  3
ROMANS.SHX
  4

  0
STYLE
  5
C12
330
3
100
AcDbSymbolTableRecord
100
AcDbTextStyleTableRecord
  2
CP_TXTCON_IT
 70
     0
 40
0.0
 41
0.8
 50
15.0
 71
     0
 42
2.5
  3
ROMANS.SHX
  4

  0
STYLE
  5
CB8
330
3
100
AcDbSymbolTableRecord
100
AcDbTextStyleTableRecord
  2
ACISOTS
 70
     0
 40
1.0
 41
1.0
 50
0.0
 71
     0
 42
2.5
  3
isocp.shx
  4
bigfont.shx
  0
STYLE
  5
CBC
330
3
100
AcDbSymbolTableRecord
100
AcDbTextStyleTableRecord
  2
ACISOGDT
 70
     0
 40
0.0
 41
1.0
 50
0.0
 71
     0
 42
2.5
  3
amgdt.shx
  4
bigfont.shx
  0
ENDTAB
  0
TABLE
  2
VIEW
  5
6
330
0
100
AcDbSymbolTable
 70
     0
  0
ENDTAB
  0
TABLE
  2
UCS
  5
7
330
0
100
AcDbSymbolTable
 70
     0
  0
ENDTAB
  0
TABLE
  2
APPID
  5
9
330
0
100
AcDbSymbolTable
 70
    31
  0
APPID
  5
12
330
9
100
AcDbSymbolTableRecord
100
AcDbRegAppTableRecord
  2
ACAD
 70
     0
  0
APPID
  5
82
330
9
100
AcDbSymbolTableRecord
100
AcDbRegAppTableRecord
  2
MCAD_NO_VIS
 70
     0
  0
APPID
  5
83
330
9
100
AcDbSymbolTableRecord
100
AcDbRegAppTableRecord
  2
ACAD_TEMP_GRAPHIC
 70
     0
  0
APPID
  5
94
330
9
100
AcDbSymbolTableRecord
100
AcDbRegAppTableRecord
  2
ACATTRIBSERVICES
 70
     0
  0
APPID
  5
CF
330
9
100
AcDbSymbolTableRecord
100
AcDbRegAppTableRecord
  2
GENIUS_GENSCREG_15
 70
     0
  0
APPID
  5
D0
330
9
100
AcDbSymbolTableRecord
100
AcDbRegAppTableRecord
  2
GENIUS_GENOBJ-N-SDF_13
 70
     0
  0
APPID
  5
D1
330
9
100
AcDbSymbolTableRecord
100
AcDbRegAppTableRecord
  2
GENIUS_GENODEF_13
 70
     0
  0
APPID
  5
125
330
9
100
AcDbSymbolTableRecord
100
AcDbRegAppTableRecord
  2
AD_DRAW
 70
     0
  0
APPID
  5
143
330
9
100
AcDbSymbolTableRecord
100
AcDbRegAppTableRecord
  2
DESIGNERASSEMBLIES
 70
     0
  0
APPID
  5
148
330
9
100
AcDbSymbolTableRecord
100
AcDbRegAppTableRecord
  2
ACADM_DIM_EDIT
 70
     0
  0
APPID
  5
149
330
9
100
AcDbSymbolTableRecord
100
AcDbRegAppTableRecord
  2
AMDT_DM_ADJ
 70
     0
  0
APPID
  5
315
330
9
100
AcDbSymbolTableRecord
100
AcDbRegAppTableRecord
  2
GENIUS_GENDTOL_13
 70
     0
  0
APPID
  5
316
330
9
100
AcDbSymbolTableRecord
100
AcDbRegAppTableRecord
  2
GENIUS_GENOENT_13
 70
     0
  0
APPID
  5
317
330
9
100
AcDbSymbolTableRecord
100
AcDbRegAppTableRecord
  2
GENIUS_GENOREF_13
 70
     0
  0
APPID
  5
318
330
9
100
AcDbSymbolTableRecord
100
AcDbRegAppTableRecord
  2
GENIUS_GENOLIS_13
 70
     0
  0
APPID
  5
319
330
9
100
AcDbSymbolTableRecord
100
AcDbRegAppTableRecord
  2
GENIUS_GENOBJ-N-FIL_13
 70
     0
  0
APPID
  5
31A
330
9
100
AcDbSymbolTableRecord
100
AcDbRegAppTableRecord
  2
GENIUS_GENOBJ-N-HTC_13
 70
     0
  0
APPID
  5
31B
330
9
100
AcDbSymbolTableRecord
100
AcDbRegAppTableRecord
  2
GENIUS_GENHATCH_13
 70
     0
  0
APPID
  5
31C
330
9
100
AcDbSymbolTableRecord
100
AcDbRegAppTableRecord
  2
GENIUS_GENOBJ-N-CEN_13
 70
     0
  0
APPID
  5
31D
330
9
100
AcDbSymbolTableRecord
100
AcDbRegAppTableRecord
  2
GENIUS_GENREC_14
 70
     0
  0
APPID
  5
31E
330
9
100
AcDbSymbolTableRecord
100
AcDbRegAppTableRecord
  2
GENIUS_GENOBJ-N-REC_13
 70
     0
  0
APPID
  5
31F
330
9
100
AcDbSymbolTableRecord
100
AcDbRegAppTableRecord
  2
GENIUS_GENOBJ-N-CRS_13
 70
     0
  0
APPID
  5
320
330
9
100
AcDbSymbolTableRecord
100
AcDbRegAppTableRecord
  2
GENIUS_GENOBJ-N-SEC_13
 70
     0
  0
APPID
  5
321
330
9
100
AcDbSymbolTableRecord
100
AcDbRegAppTableRecord
  2
GENIUS_GENCEN_19
 70
     0
  0
APPID
  5
C15
330
9
100
AcDbSymbolTableRecord
100
AcDbRegAppTableRecord
  2
ACAD_PSEXT
 70
     0
  0
APPID
  5
C16
330
9
100
AcDbSymbolTableRecord
100
AcDbRegAppTableRecord
  2
AcadAnnoPO
 70
     0
  0
APPID
  5
C17
330
9
100
AcDbSymbolTableRecord
100
AcDbRegAppTableRecord
  2
AcadAnnotative
 70
     0
  0
APPID
  5
C18
330
9
100
AcDbSymbolTableRecord
100
AcDbRegAppTableRecord
  2
ACAD_DSTYLE_DIMJAG
 70
     0
  0
APPID
  5
C19
330
9
100
AcDbSymbolTableRecord
100
AcDbRegAppTableRecord
  2
ACAD_DSTYLE_DIMTALN
 70
     0
  0
APPID
  5
C1A
330
9
100
AcDbSymbolTableRecord
100
AcDbRegAppTableRecord
  2
ACAD_MLEADERVER
 70
     0
  0
APPID
  5
C1B
330
9
100
AcDbSymbolTableRecord
100
AcDbRegAppTableRecord
  2
DCO15
 70
     0
  0
ENDTAB
  0
TABLE
  2
DIMSTYLE
  5
A
330
0
100
AcDbSymbolTable
 70
    20
100
AcDbDimStyleTable
 71
     2
340
C2
340
27
  0
DIMSTYLE
105
27
330
A
100
AcDbSymbolTableRecord
100
AcDbDimStyleTableRecord
  2
ISO-25
 70
     0
 41
2.5
 42
0.625
 43
3.75
 44
1.25
 73
     0
 74
     0
 77
     1
 78
     8
140
2.5
141
2.5
143
0.03937007874016
147
0.625
171
     3
172
     1
271
     2
272
     2
274
     3
278
    44
283
     0
284
     8
340
11
  0
DIMSTYLE
105
C2
102
{ACAD_REACTORS
330
78C
330
78D
330
78E
330
7CA
102
}
330
A
100
AcDbSymbolTableRecord
100
AcDbDimStyleTableRecord
  2
AM_DIN
 70
     0
  4
"
 41
2.5
 42
1.0
 43
10.0
 44
1.0
 47
0.1
 48
0.1
 73
     0
 74
     0
 77
     1
 78
     8
 79
     2
140
3.5
141
0.0
143
0.0393701
146
0.71
147
1.5
172
     1
176
   256
177
   256
178
     2
271
     2
272
     3
274
     4
283
     0
284
     8
340
11
371
    -1
372
    -1
  0
DIMSTYLE
105
C3
330
A
100
AcDbSymbolTableRecord
100
AcDbDimStyleTableRecord
  2
AM_DIN$3
 70
     0
  4
"
 41
2.5
 42
1.0
 43
10.0
 44
1.0
 47
0.1
 48
0.1
 73
     0
 77
     1
 78
     8
 79
     2
140
3.5
141
0.0
143
0.0393701
146
0.71
147
1.5
176
   256
177
   256
178
     2
271
     2
272
     3
274
     4
283
     0
284
     8
288
     1
289
     0
340
11
371
    -1
372
    -1
  0
DIMSTYLE
105
C4
330
A
100
AcDbSymbolTableRecord
100
AcDbDimStyleTableRecord
  2
AM_DIN$4
 70
     0
  4
"
 41
2.5
 42
1.0
 43
10.0
 44
1.0
 47
0.1
 48
0.1
 73
     0
 77
     1
 78
     8
 79
     2
140
3.5
141
0.0
143
0.0393701
146
0.71
147
1.5
176
   256
177
   256
178
     2
271
     2
272
     3
274
     4
283
     0
284
     8
288
     1
289
     0
340
11
371
    -1
372
    -1
  0
DIMSTYLE
105
C5
330
A
100
AcDbSymbolTableRecord
100
AcDbDimStyleTableRecord
  2
AM_DIN$6
 70
     0
  4
"
 41
2.5
 42
1.0
 43
10.0
 44
1.0
 47
0.1
 48
0.1
 73
     0
 74
     0
 78
     8
 79
     2
140
3.5
141
0.0
143
0.0393701
146
0.71
147
1.5
172
     1
176
   256
177
   256
178
     2
271
     2
272
     3
274
     4
283
     0
284
     8
340
11
371
    -1
372
    -1
  0
DIMSTYLE
105
C6
330
A
100
AcDbSymbolTableRecord
100
AcDbDimStyleTableRecord
  2
AM_DIN$7
 70
     0
  4
"
 41
2.5
 42
1.0
 43
10.0
 44
1.0
 47
0.1
 48
0.1
 73
     0
 74
     0
 77
     1
 78
     8
 79
     2
140
5.0
141
0.0
143
0.0393701
146
0.71
147
1.5
172
     1
176
   256
177
   256
178
     2
271
     2
272
     3
274
     4
283
     0
284
     8
340
11
371
    -1
372
    -1
  0
DIMSTYLE
105
C7
330
A
100
AcDbSymbolTableRecord
100
AcDbDimStyleTableRecord
  2
AM_DIN$SF
 70
     0
  4
"
 41
2.5
 42
1.0
 43
10.0
 44
1.0
 47
0.1
 48
0.1
 73
     0
 74
     0
 75
     1
 76
     1
 77
     1
 78
     8
 79
     2
140
3.5
141
0.0
143
0.0393701
146
0.71
147
1.5
172
     1
176
   256
177
   256
178
     2
271
     2
272
     3
274
     4
283
     0
284
     8
340
11
371
    -1
372
    -1
  0
DIMSTYLE
105
CC
330
A
100
AcDbSymbolTableRecord
100
AcDbDimStyleTableRecord
  2
AM_DIN$SH
 70
     0
  4
"
 41
2.5
 42
1.0
 43
10.0
 44
1.0
 47
0.1
 48
0.1
 73
     0
 74
     0
 75
     1
 76
     1
 77
     1
 78
     8
 79
     2
140
3.5
141
0.0
143
0.0393701
144
2.0
146
0.71
147
1.5
172
     1
173
     1
176
   256
177
   256
178
     2
271
     2
272
     3
274
     4
283
     0
284
     8
340
11
343
C8
371
    -1
372
    -1
  0
DIMSTYLE
105
313
102
{ACAD_REACTORS
330
7F7
330
7F8
330
7F9
102
}
330
A
100
AcDbSymbolTableRecord
100
AcDbDimStyleTableRecord
  2
AM_DIN$0
 70
     0
  4
"
 41
2.5
 42
0.0
 43
10.0
 44
1.0
 47
0.1
 48
0.1
 73
     0
 74
     0
 77
     1
 78
     8
 79
     2
140
3.0
141
0.0
143
0.0393701
146
0.71
147
0.7
172
     1
176
   256
177
   256
178
     2
271
     2
272
     2
283
     0
284
     8
340
11
371
    -1
372
    -1
  0
DIMSTYLE
105
314
102
{ACAD_REACTORS
330
738
102
}
330
A
100
AcDbSymbolTableRecord
100
AcDbDimStyleTableRecord
  2
AM_DIN$2
 70
     0
  4
"
 40
7.0
 41
2.5
 42
1.0
 43
10.0
 44
1.0
 47
0.1
 48
0.1
 73
     0
 74
     0
 77
     1
 78
     8
 79
     2
140
3.5
141
0.0
143
0.0393701
146
0.71
147
1.5
172
     1
176
   256
177
   256
178
     2
271
     2
272
     3
274
     4
283
     0
284
     8
340
11
371
    -1
372
    -1
  0
DIMSTYLE
105
C13
330
A
100
AcDbSymbolTableRecord
100
AcDbDimStyleTableRecord
  2
Standard
 70
     0
340
11
  0
DIMSTYLE
105
C14
330
A
100
AcDbSymbolTableRecord
100
AcDbDimStyleTableRecord
  2
Opisowy
 70
     0
 40
0.0
 41
2.5
 42
0.625
 43
3.75
 44
1.25
 73
     0
 74
     0
 77
     1
 78
     8
140
2.5
141
2.5
143
0.03937007874016
147
0.625
171
     3
172
     1
271
     2
272
     2
274
     3
278
    44
283
     0
284
     8
340
11
1001
AcadAnnotative
1000
AnnotativeData
1002
{
1070
     1
1070
     1
1002
}
1001
ACAD_DSTYLE_DIMJAG
1070
   388
1040
1.5
1001
ACAD_DSTYLE_DIMTALN
1070
   392
1070
     0
  0
DIMSTYLE
105
CD3
330
A
100
AcDbSymbolTableRecord
100
AcDbDimStyleTableRecord
  2
AM_ISO
 70
     0
  4
"
 41
2.5
 42
1.0
 43
10.0
 44
1.0
 47
0.1
 48
0.1
 73
     0
 74
     0
 77
     1
 78
     8
 79
     2
140
3.5
141
0.0
143
0.0393701
146
0.71
147
1.5
172
     1
176
   256
177
   256
178
     2
271
     2
272
     3
274
     4
283
     0
284
     8
340
11
371
    -1
372
    -1
  0
DIMSTYLE
105
CD4
330
A
100
AcDbSymbolTableRecord
100
AcDbDimStyleTableRecord
  2
AM_ISO$3
 70
     0
  4
"
 41
2.5
 42
1.0
 43
10.0
 44
1.0
 47
0.1
 48
0.1
 73
     0
 77
     1
 78
     8
 79
     2
140
3.5
141
0.0
143
0.0393701
146
0.71
147
1.5
176
   256
177
   256
178
     2
271
     2
272
     3
274
     4
283
     0
284
     8
288
     1
289
     0
340
11
371
    -1
372
    -1
  0
DIMSTYLE
105
CD5
330
A
100
AcDbSymbolTableRecord
100
AcDbDimStyleTableRecord
  2
AM_ISO$4
 70
     0
  4
"
 41
2.5
 42
1.0
 43
10.0
 44
1.0
 47
0.1
 48
0.1
 73
     0
 77
     1
 78
     8
 79
     2
140
3.5
141
0.0
143
0.0393701
146
0.71
147
1.5
176
   256
177
   256
178
     2
271
     2
272
     3
274
     4
283
     0
284
     8
288
     1
289
     0
340
11
371
    -1
372
    -1
  0
DIMSTYLE
105
CD6
330
A
100
AcDbSymbolTableRecord
100
AcDbDimStyleTableRecord
  2
AM_ISO$6
 70
     0
  4
"
 41
2.5
 42
1.0
 43
10.0
 44
1.0
 47
0.1
 48
0.1
 73
     0
 74
     0
 78
     8
 79
     2
140
3.5
141
0.0
143
0.0393701
146
0.71
147
1.5
172
     1
176
   256
177
   256
178
     2
271
     2
272
     3
274
     4
283
     0
284
     8
340
11
371
    -1
372
    -1
  0
DIMSTYLE
105
CD7
330
A
100
AcDbSymbolTableRecord
100
AcDbDimStyleTableRecord
  2
AM_ISO$7
 70
     0
  4
"
 41
2.5
 42
1.0
 43
10.0
 44
1.0
 47
0.1
 48
0.1
 73
     0
 74
     0
 77
     1
 78
     8
 79
     2
140
5.0
141
0.0
143
0.0393701
146
0.71
147
1.5
172
     1
176
   256
177
   256
178
     2
271
     2
272
     3
274
     4
283
     0
284
     8
340
11
371
    -1
372
    -1
  0
DIMSTYLE
105
CD8
330
A
100
AcDbSymbolTableRecord
100
AcDbDimStyleTableRecord
  2
AM_ISO$SF
 70
     0
  4
"
 41
2.5
 42
1.0
 43
10.0
 44
1.0
 47
0.1
 48
0.1
 73
     0
 74
     0
 75
     1
 76
     1
 77
     1
 78
     8
 79
     2
140
3.5
141
0.0
143
0.0393701
146
0.71
147
1.5
172
     1
176
   256
177
   256
178
     2
271
     2
272
     3
274
     4
283
     0
284
     8
340
11
371
    -1
372
    -1
  0
DIMSTYLE
105
CD9
330
A
100
AcDbSymbolTableRecord
100
AcDbDimStyleTableRecord
  2
AM_ISO$SH
 70
     0
  4
"
 41
2.5
 42
1.0
 43
10.0
 44
1.0
 47
0.1
 48
0.1
 73
     0
 74
     0
 75
     1
 76
     1
 77
     1
 78
     8
 79
     2
140
3.5
141
0.0
143
0.0393701
144
2.0
146
0.71
147
1.5
172
     1
173
     1
176
   256
177
   256
178
     2
271
     2
272
     3
274
     4
283
     0
284
     8
340
11
343
C8
371
    -1
372
    -1
  0
ENDTAB
  0
TABLE
  2
BLOCK_RECORD
  5
1
330
0
100
AcDbSymbolTable
 70
    13
  0
BLOCK_RECORD
  5
1F
102
{ACAD_XDICTIONARY
360
D5
102
}
330
1
100
AcDbSymbolTableRecord
100
AcDbBlockTableRecord
  2
*Model_Space
340
22
  0
BLOCK_RECORD
  5
55
330
1
100
AcDbSymbolTableRecord
100
AcDbBlockTableRecord
  2
*Paper_Space
340
56
  0
BLOCK_RECORD
  5
50
330
1
100
AcDbSymbolTableRecord
100
AcDbBlockTableRecord
  2
*Paper_Space0
340
51
  0
BLOCK_RECORD
  5
C8
330
1
100
AcDbSymbolTableRecord
100
AcDbBlockTableRecord
  2
GENAXEH
340
0
  0
BLOCK_RECORD
  5
B18
330
1
100
AcDbSymbolTableRecord
100
AcDbBlockTableRecord
  2
*D2
340
0
  0
BLOCK_RECORD
  5
B24
330
1
100
AcDbSymbolTableRecord
100
AcDbBlockTableRecord
  2
*D3
340
0
  0
BLOCK_RECORD
  5
B30
330
1
100
AcDbSymbolTableRecord
100
AcDbBlockTableRecord
  2
*D4
340
0
  0
BLOCK_RECORD
  5
B3C
330
1
100
AcDbSymbolTableRecord
100
AcDbBlockTableRecord
  2
*D5
340
0
  0
BLOCK_RECORD
  5
B49
330
1
100
AcDbSymbolTableRecord
100
AcDbBlockTableRecord
  2
*D6
340
0
  0
BLOCK_RECORD
  5
B55
330
1
100
AcDbSymbolTableRecord
100
AcDbBlockTableRecord
  2
*D7
340
0
  0
BLOCK_RECORD
  5
B61
330
1
100
AcDbSymbolTableRecord
100
AcDbBlockTableRecord
  2
*D8
340
0
  0
BLOCK_RECORD
  5
B6D
330
1
100
AcDbSymbolTableRecord
100
AcDbBlockTableRecord
  2
*D9
340
0
  0
BLOCK_RECORD
  5
C2F
330
1
100
AcDbSymbolTableRecord
100
AcDbBlockTableRecord
  2
*S2010
340
0
102
{BLKREFS
331
724
102
}
  0
ENDTAB
  0
ENDSEC
  0
SECTION
  2
BLOCKS
  0
BLOCK
  5
20
330
1F
100
AcDbEntity
  8
0
100
AcDbBlockBegin
  2
*Model_Space
 70
     0
 10
0.0
 20
0.0
 30
0.0
  3
*Model_Space
  1

  0
ENDBLK
  5
21
330
1F
100
AcDbEntity
  8
0
100
AcDbBlockEnd
  0
BLOCK
  5
57
330
55
100
AcDbEntity
 67
     1
  8
0
100
AcDbBlockBegin
  2
*Paper_Space
 70
     0
 10
0.0
 20
0.0
 30
0.0
  3
*Paper_Space
  1

  0
ENDBLK
  5
58
330
55
100
AcDbEntity
 67
     1
  8
0
100
AcDbBlockEnd
  0
BLOCK
  5
52
330
50
100
AcDbEntity
 67
     1
  8
0
100
AcDbBlockBegin
  2
*Paper_Space0
 70
     0
 10
0.0
 20
0.0
 30
0.0
  3
*Paper_Space0
  1

  0
VIEWPORT
  5
69
330
50
100
AcDbEntity
 67
     1
  8
0
100
AcDbViewport
 10
128.5
 20
97.5
 30
0.0
 40
384.7606204379562
 41
222.18
 68
     0
 69
     0
 12
128.5
 22
97.5
 13
0.0
 23
0.0
 14
10.0
 24
10.0
 15
10.0
 25
10.0
 16
0.0
 26
0.0
 36
1.0
 17
0.0
 27
0.0
 37
0.0
 42
50.0
 43
0.0
 44
0.0
 45
222.18
 50
0.0
 51
0.0
 72
   100
 90
    32800
  1

281
     0
 71
     1
 74
     0
110
0.0
120
0.0
130
0.0
111
1.0
121
0.0
131
0.0
112
0.0
122
1.0
132
0.0
 79
     0
146
0.0
170
     0
1001
GENIUS_GENOBJ-N-SDF_13
1002
{
1000
OWNER
1000
GEN
1002
}
1001
GENIUS_GENODEF_13
1002
{
1000
HIER
1070
     0
1002
}
1002
{
1000
MANEDIT
1070
     0
1002
}
1002
{
1000
NOSEL
1070
     0
1002
}
1002
{
1000
BEHIND
1070
     0
1002
}
1002
{
1000
OTHER
1070
     0
1002
}
1002
{
1000
REACTOR
1002
}
1001
GENIUS_GENSCREG_15
1000
PF
1040
1.0
1000
DF
1040
1.0
1000
MIN
1011
-63.88031021897808
1021
-13.59
1031
0.0
1000
MAX
1011
320.8803102189782
1021
208.59
1031
0.0
1000
FLAGS
1070
     2
  0
VIEWPORT
  5
6B
330
50
100
AcDbEntity
 67
     1
  8
0
100
AcDbViewport
 10
128.5
 20
97.5
 30
0.0
 40
205.6
 41
156.0
 68
     0
 69
     0
 12
210.0
 22
148.5
 13
0.0
 23
0.0
 14
10.0
 24
10.0
 15
10.0
 25
10.0
 16
0.0
 26
0.0
 36
1.0
 17
0.0
 27
0.0
 37
0.0
 42
50.0
 43
0.0
 44
0.0
 45
322.4558219652112
 50
0.0
 51
0.0
 72
   100
 90
    32864
  1

281
     0
 71
     1
 74
     0
110
0.0
120
0.0
130
0.0
111
1.0
121
0.0
131
0.0
112
0.0
122
1.0
132
0.0
 79
     0
146
0.0
170
     0
1001
GENIUS_GENOBJ-N-SDF_13
1002
{
1000
OWNER
1000
GEN
1002
}
1001
GENIUS_GENODEF_13
1002
{
1000
HIER
1070
     0
1002
}
1002
{
1000
MANEDIT
1070
     0
1002
}
1002
{
1000
NOSEL
1070
     0
1002
}
1002
{
1000
BEHIND
1070
     0
1002
}
1002
{
1000
OTHER
1070
     0
1002
}
1002
{
1000
REACTOR
1002
}
1001
GENIUS_GENSCREG_15
1000
PF
1040
0.0
1000
DF
1040
0.0
1000
MIN
1011
25.70000000000002
1021
19.5
1031
0.0
1000
MAX
1011
231.3
1021
175.5
1031
0.0
1000
FLAGS
1070
     2
  0
ENDBLK
  5
53
330
50
100
AcDbEntity
 67
     1
  8
0
100
AcDbBlockEnd
  0
BLOCK
  5
CB1
330
C8
100
AcDbEntity
  8
0
100
AcDbBlockBegin
  2
GENAXEH
 70
     0
 10
0.0
 20
0.0
 30
0.0
  3
GENAXEH
  1

  0
LINE
  5
CB2
330
C8
100
AcDbEntity
  8
0
100
AcDbLine
 10
-1.0
 20
0.0
 30
0.0
 11
1.0
 21
0.0
 31
0.0
  0
ENDBLK
  5
CB3
330
C8
100
AcDbEntity
  8
0
100
AcDbBlockEnd
  0
BLOCK
  5
B22
330
B18
100
AcDbEntity
  8
0
100
AcDbBlockBegin
  2
*D2
 70
     1
 10
0.0
 20
0.0
 30
0.0
  3
*D2
  1

  0
LINE
  5
B7B
330
B18
100
AcDbEntity
  8
AM_5
100
AcDbLine
 10
565.1524424233675
 20
686.0186176167574
 30
0.0
 11
565.1524424233675
 21
634.6427130335601
 31
0.0
  0
LINE
  5
B7C
330
B18
100
AcDbEntity
  8
AM_5
100
AcDbLine
 10
919.1524424233673
 20
686.0186176167574
 30
0.0
 11
919.1524424233673
 21
634.6427130335601
 31
0.0
  0
LINE
  5
B7D
330
B18
100
AcDbEntity
  8
AM_5
100
AcDbLine
 10
568.9024424233674
 20
637.6427130335599
 30
0.0
 11
915.4024424233671
 21
637.6427130335599
 31
0.0
  0
SOLID
  5
B7E
330
B18
100
AcDbEntity
  8
AM_5
100
AcDbTrace
 10
568.9024424233674
 20
638.2677130335601
 30
0.0
 11
568.9024424233674
 21
637.01771303356
 31
0.0
 12
565.1524424233675
 22
637.6427130335599
 32
0.0
 13
565.1524424233675
 23
637.6427130335599
 33
0.0
  0
SOLID
  5
B7F
330
B18
100
AcDbEntity
  8
AM_5
100
AcDbTrace
 10
915.4024424233671
 20
638.2677130335601
 30
0.0
 11
915.4024424233671
 21
637.01771303356
 31
0.0
 12
919.1524424233673
 22
637.6427130335599
 32
0.0
 13
919.1524424233673
 23
637.6427130335599
 33
0.0
  0
MTEXT
  5
B80
330
B18
100
AcDbEntity
  8
AM_5
 62
     2
100
AcDbMText
 10
698.908799413684
 20
642.8927130335599
 30
0.0
 40
6.0
 41
0.0
 71
     5
 72
     1
  1
ø354
 73
     1
 44
1.0
  0
POINT
  5
B81
330
B18
100
AcDbEntity
  8
Defpoints
 62
     0
100
AcDbPoint
 10
565.1524424233675
 20
686.0186176167574
 30
0.0
  0
POINT
  5
B82
330
B18
100
AcDbEntity
  8
Defpoints
 62
     0
100
AcDbPoint
 10
919.1524424233673
 20
686.0186176167574
 30
0.0
  0
POINT
  5
B83
330
B18
100
AcDbEntity
  8
Defpoints
 62
     0
100
AcDbPoint
 10
919.1524424233673
 20
637.6427130335599
 30
0.0
  0
ENDBLK
  5
B23
330
B18
100
AcDbEntity
  8
0
100
AcDbBlockEnd
  0
BLOCK
  5
B2E
330
B24
100
AcDbEntity
  8
0
100
AcDbBlockBegin
  2
*D3
 70
     1
 10
0.0
 20
0.0
 30
0.0
  3
*D3
  1

  0
LINE
  5
B84
330
B24
100
AcDbEntity
  8
AM_5
100
AcDbLine
 10
742.1524424233673
 20
776.7378991172136
 30
0.0
 11
547.3455158299957
 21
776.7378991172136
 31
0.0
  0
LINE
  5
B85
330
B24
100
AcDbEntity
  8
AM_5
100
AcDbLine
 10
742.1177264302275
 20
348.7378991172129
 30
0.0
 11
547.3455158299957
 21
348.737899117213
 31
0.0
  0
LINE
  5
B86
330
B24
100
AcDbEntity
  8
AM_5
100
AcDbLine
 10
550.3455158299957
 20
772.9878991172136
 30
0.0
 11
550.3455158299957
 21
352.487899117213
 31
0.0
  0
SOLID
  5
B87
330
B24
100
AcDbEntity
  8
AM_5
100
AcDbTrace
 10
549.7205158299957
 20
772.9878991172136
 30
0.0
 11
550.9705158299957
 21
772.9878991172136
 31
0.0
 12
550.3455158299957
 22
776.7378991172136
 32
0.0
 13
550.3455158299957
 23
776.7378991172136
 33
0.0
  0
SOLID
  5
B88
330
B24
100
AcDbEntity
  8
AM_5
100
AcDbTrace
 10
549.7205158299957
 20
352.487899117213
 30
0.0
 11
550.9705158299957
 21
352.487899117213
 31
0.0
 12
550.3455158299957
 22
348.737899117213
 32
0.0
 13
550.3455158299957
 23
348.737899117213
 33
0.0
  0
MTEXT
  5
B89
330
B24
100
AcDbEntity
  8
AM_5
 62
     2
100
AcDbMText
 10
545.0949252788144
 20
561.5292685272919
 30
0.0
 40
6.0
 41
0.0
 71
     5
 72
     1
  1
428 {}{\C2;%%p3}
 11
0.0000000000000001
 21
1.0
 31
0.0
 73
     1
 44
1.0
  0
POINT
  5
B8A
330
B24
100
AcDbEntity
  8
Defpoints
 62
     0
100
AcDbPoint
 10
742.1524424233673
 20
776.7378991172136
 30
0.0
  0
POINT
  5
B8B
330
B24
100
AcDbEntity
  8
Defpoints
 62
     0
100
AcDbPoint
 10
742.1177264302275
 20
348.7378991172129
 30
0.0
  0
POINT
  5
B8C
330
B24
100
AcDbEntity
  8
Defpoints
 62
     0
100
AcDbPoint
 10
550.3455158299957
 20
348.737899117213
 30
0.0
  0
ENDBLK
  5
B2F
330
B24
100
AcDbEntity
  8
0
100
AcDbBlockEnd
  0
BLOCK
  5
B3A
330
B30
100
AcDbEntity
  8
0
100
AcDbBlockBegin
  2
*D4
 70
     1
 10
0.0
 20
0.0
 30
0.0
  3
*D4
  1

  0
LINE
  5
B8D
330
B30
100
AcDbEntity
  8
AM_5
100
AcDbLine
 10
569.6223992246899
 20
328.6864261472209
 30
0.0
 11
529.9837483425314
 21
328.6864261472209
 31
0.0
  0
LINE
  5
B8E
330
B30
100
AcDbEntity
  8
AM_5
100
AcDbLine
 10
742.150045110054
 20
776.7223788789038
 30
0.0
 11
529.9837483425314
 21
776.7223788789038
 31
0.0
  0
LINE
  5
B8F
330
B30
100
AcDbEntity
  8
AM_5
100
AcDbLine
 10
532.9837483425314
 20
332.4364261472208
 30
0.0
 11
532.9837483425314
 21
772.9723788789038
 31
0.0
  0
SOLID
  5
B90
330
B30
100
AcDbEntity
  8
AM_5
100
AcDbTrace
 10
532.3587483425312
 20
332.4364261472208
 30
0.0
 11
533.6087483425314
 21
332.4364261472208
 31
0.0
 12
532.9837483425314
 22
328.6864261472209
 32
0.0
 13
532.9837483425314
 23
328.6864261472209
 33
0.0
  0
SOLID
  5
B91
330
B30
100
AcDbEntity
  8
AM_5
100
AcDbTrace
 10
532.3587483425312
 20
772.9723788789038
 30
0.0
 11
533.6087483425314
 21
772.9723788789038
 31
0.0
 12
532.9837483425314
 22
776.7223788789038
 32
0.0
 13
532.9837483425314
 23
776.7223788789038
 33
0.0
  0
MTEXT
  5
B92
330
B30
100
AcDbEntity
  8
AM_5
 62
     2
100
AcDbMText
 10
527.7337483425311
 20
555.6036292559715
 30
0.0
 40
6.0
 41
0.0
 71
     5
 72
     1
  1
448 {}{\C2;%%p5}
 11
0.0000000000000001
 21
1.0
 31
0.0
 73
     1
 44
1.0
  0
POINT
  5
B93
330
B30
100
AcDbEntity
  8
Defpoints
 62
     0
100
AcDbPoint
 10
569.6223992246899
 20
328.6864261472209
 30
0.0
  0
POINT
  5
B94
330
B30
100
AcDbEntity
  8
Defpoints
 62
     0
100
AcDbPoint
 10
742.150045110054
 20
776.7223788789038
 30
0.0
  0
POINT
  5
B95
330
B30
100
AcDbEntity
  8
Defpoints
 62
     0
100
AcDbPoint
 10
532.9837483425314
 20
776.7223788789038
 30
0.0
  0
ENDBLK
  5
B3B
330
B30
100
AcDbEntity
  8
0
100
AcDbBlockEnd
  0
BLOCK
  5
B47
330
B3C
100
AcDbEntity
  8
0
100
AcDbBlockBegin
  2
*D5
 70
     1
 10
0.0
 20
0.0
 30
0.0
  3
*D5
  1

  0
LINE
  5
B96
330
B3C
100
AcDbEntity
  8
AM_5
100
AcDbLine
 10
939.8403772273031
 20
446.2293286320331
 30
0.0
 11
958.1975516006396
 21
446.2293286320331
 31
0.0
  0
LINE
  5
B97
330
B3C
100
AcDbEntity
  8
AM_5
100
AcDbLine
 10
939.8403772273031
 20
471.1435236624082
 30
0.0
 11
958.1975516006396
 21
471.1435236624082
 31
0.0
  0
LINE
  5
B98
330
B3C
100
AcDbEntity
  8
AM_5
100
AcDbLine
 10
955.1975516006395
 20
467.3935236624084
 30
0.0
 11
955.1975516006395
 21
449.9793286320332
 31
0.0
  0
LINE
  5
B99
330
B3C
100
AcDbEntity
  8
AM_5
100
AcDbLine
 10
955.1975516006395
 20
446.2293286320331
 30
0.0
 11
955.1975516006395
 21
398.9478796575848
 31
0.0
  0
SOLID
  5
B9A
330
B3C
100
AcDbEntity
  8
AM_5
100
AcDbTrace
 10
954.5725516006395
 20
467.3935236624084
 30
0.0
 11
955.8225516006396
 21
467.3935236624084
 31
0.0
 12
955.1975516006395
 22
471.1435236624082
 32
0.0
 13
955.1975516006395
 23
471.1435236624082
 33
0.0
  0
SOLID
  5
B9B
330
B3C
100
AcDbEntity
  8
AM_5
100
AcDbTrace
 10
954.5725516006395
 20
449.9793286320332
 30
0.0
 11
955.8225516006396
 21
449.9793286320332
 31
0.0
 12
955.1975516006395
 22
446.2293286320331
 32
0.0
 13
955.1975516006395
 23
446.2293286320331
 33
0.0
  0
MTEXT
  5
B9C
330
B3C
100
AcDbEntity
  8
AM_5
 62
     2
100
AcDbMText
 10
944.6469610494583
 20
419.4978796575847
 30
0.0
 40
6.0
 41
0.0
 71
     5
 72
     1
  1
EN 10226-1\PR¾
 11
0.0000000000000001
 21
1.0
 31
0.0
 73
     1
 44
1.0
  0
POINT
  5
B9D
330
B3C
100
AcDbEntity
  8
Defpoints
 62
     0
100
AcDbPoint
 10
939.8403772273031
 20
446.2293286320331
 30
0.0
  0
POINT
  5
B9E
330
B3C
100
AcDbEntity
  8
Defpoints
 62
     0
100
AcDbPoint
 10
939.8403772273031
 20
471.1435236624082
 30
0.0
  0
POINT
  5
B9F
330
B3C
100
AcDbEntity
  8
Defpoints
 62
     0
100
AcDbPoint
 10
955.1975516006395
 20
471.1435236624082
 30
0.0
  0
ENDBLK
  5
B48
330
B3C
100
AcDbEntity
  8
0
100
AcDbBlockEnd
  0
BLOCK
  5
B53
330
B49
100
AcDbEntity
  8
0
100
AcDbBlockBegin
  2
*D6
 70
     1
 10
0.0
 20
0.0
 30
0.0
  3
*D6
  1

  0
LINE
  5
BA0
330
B49
100
AcDbEntity
  8
AM_5
100
AcDbLine
 10
582.1223992246899
 20
323.9460946247833
 30
0.0
 11
582.1223992246899
 21
288.5852623433902
 31
0.0
  0
LINE
  5
BA1
330
B49
100
AcDbEntity
  8
AM_5
100
AcDbLine
 10
902.1177264302275
 20
323.9460946247833
 30
0.0
 11
902.1177264302275
 21
288.5852623433902
 31
0.0
  0
LINE
  5
BA2
330
B49
100
AcDbEntity
  8
AM_5
100
AcDbLine
 10
585.87239922469
 20
290.0852623433902
 30
0.0
 11
898.3677264302276
 21
290.0852623433902
 31
0.0
  0
SOLID
  5
BA3
330
B49
100
AcDbEntity
  8
AM_5
100
AcDbTrace
 10
585.87239922469
 20
290.7102623433902
 30
0.0
 11
585.87239922469
 21
289.4602623433902
 31
0.0
 12
582.1223992246899
 22
290.0852623433902
 32
0.0
 13
582.1223992246899
 23
290.0852623433902
 33
0.0
  0
SOLID
  5
BA4
330
B49
100
AcDbEntity
  8
AM_5
100
AcDbTrace
 10
898.3677264302276
 20
290.7102623433902
 30
0.0
 11
898.3677264302276
 21
289.4602623433902
 31
0.0
 12
902.1177264302275
 22
290.0852623433902
 32
0.0
 13
902.1177264302275
 23
290.0852623433902
 33
0.0
  0
MTEXT
  5
BA5
330
B49
100
AcDbEntity
  8
AM_5
 62
     2
100
AcDbMText
 10
742.1200628274589
 20
294.1358528945713
 30
0.0
 40
6.0
 41
0.0
 71
     5
 72
     1
  1
%%c320 {}{\C2;%%p3}
 73
     1
 44
1.0
  0
POINT
  5
BA6
330
B49
100
AcDbEntity
  8
Defpoints
 62
     0
100
AcDbPoint
 10
582.1223992246899
 20
323.9460946247833
 30
0.0
  0
POINT
  5
BA7
330
B49
100
AcDbEntity
  8
Defpoints
 62
     0
100
AcDbPoint
 10
902.1177264302275
 20
323.9460946247833
 30
0.0
  0
POINT
  5
BA8
330
B49
100
AcDbEntity
  8
Defpoints
 62
     0
100
AcDbPoint
 10
902.1177264302275
 20
290.0852623433902
 30
0.0
  0
ENDBLK
  5
B54
330
B49
100
AcDbEntity
  8
0
100
AcDbBlockEnd
  0
BLOCK
  5
B5F
330
B55
100
AcDbEntity
  8
0
100
AcDbBlockBegin
  2
*D7
 70
     1
 10
0.0
 20
0.0
 30
0.0
  3
*D7
  1

  0
LINE
  5
BA9
330
B55
100
AcDbEntity
  8
AM_5
100
AcDbLine
 10
941.1168321237893
 20
458.6864261472206
 30
0.0
 11
982.7097972349871
 21
458.6864261472206
 31
0.0
  0
LINE
  5
BAA
330
B55
100
AcDbEntity
  8
AM_5
100
AcDbLine
 10
914.6177264302275
 20
328.6864261472208
 30
0.0
 11
982.7097972349871
 21
328.6864261472208
 31
0.0
  0
LINE
  5
BAB
330
B55
100
AcDbEntity
  8
AM_5
100
AcDbLine
 10
981.2097972349871
 20
454.9364261472208
 30
0.0
 11
981.2097972349871
 21
332.4364261472208
 31
0.0
  0
SOLID
  5
BAC
330
B55
100
AcDbEntity
  8
AM_5
100
AcDbTrace
 10
980.5847972349871
 20
454.9364261472208
 30
0.0
 11
981.8347972349874
 21
454.9364261472208
 31
0.0
 12
981.2097972349871
 22
458.6864261472206
 32
0.0
 13
981.2097972349871
 23
458.6864261472206
 33
0.0
  0
SOLID
  5
BAD
330
B55
100
AcDbEntity
  8
AM_5
100
AcDbTrace
 10
980.5847972349871
 20
332.4364261472208
 30
0.0
 11
981.8347972349874
 21
332.4364261472208
 31
0.0
 12
981.2097972349871
 22
328.6864261472208
 32
0.0
 13
981.2097972349871
 23
328.6864261472208
 33
0.0
  0
MTEXT
  5
BAE
330
B55
100
AcDbEntity
  8
AM_5
 62
     2
100
AcDbMText
 10
977.1597972349871
 20
393.1937722127973
 30
0.0
 40
6.0
 41
0.0
 71
     5
 72
     1
  1
130 {}{\C2;%%p3}
 11
0.0000000000000001
 21
1.0
 31
0.0
 73
     1
 44
1.0
  0
POINT
  5
BAF
330
B55
100
AcDbEntity
  8
Defpoints
 62
     0
100
AcDbPoint
 10
941.1168321237893
 20
458.6864261472206
 30
0.0
  0
POINT
  5
BB0
330
B55
100
AcDbEntity
  8
Defpoints
 62
     0
100
AcDbPoint
 10
914.6177264302275
 20
328.6864261472208
 30
0.0
  0
POINT
  5
BB1
330
B55
100
AcDbEntity
  8
Defpoints
 62
     0
100
AcDbPoint
 10
981.2097972349871
 20
328.6864261472208
 30
0.0
  0
ENDBLK
  5
B60
330
B55
100
AcDbEntity
  8
0
100
AcDbBlockEnd
  0
BLOCK
  5
B6B
330
B61
100
AcDbEntity
  8
0
100
AcDbBlockBegin
  2
*D8
 70
     1
 10
0.0
 20
0.0
 30
0.0
  3
*D8
  1

  0
LINE
  5
BB2
330
B61
100
AcDbEntity
  8
AM_5
100
AcDbLine
 10
745.9673167410795
 20
787.269419906647
 30
0.0
 11
515.8158107627806
 21
787.269419906647
 31
0.0
  0
LINE
  5
BB3
330
B61
100
AcDbEntity
  8
AM_5
100
AcDbLine
 10
569.6223992246899
 20
328.6864261472209
 30
0.0
 11
515.8158107627806
 21
328.6864261472209
 31
0.0
  0
LINE
  5
BB4
330
B61
100
AcDbEntity
  8
AM_5
100
AcDbLine
 10
517.3158107627806
 20
783.519419906647
 30
0.0
 11
517.3158107627806
 21
332.4364261472208
 31
0.0
  0
SOLID
  5
BB5
330
B61
100
AcDbEntity
  8
AM_5
100
AcDbTrace
 10
516.6908107627806
 20
783.519419906647
 30
0.0
 11
517.9408107627806
 21
783.519419906647
 31
0.0
 12
517.3158107627806
 22
787.269419906647
 32
0.0
 13
517.3158107627806
 23
787.269419906647
 33
0.0
  0
SOLID
  5
BB6
330
B61
100
AcDbEntity
  8
AM_5
100
AcDbTrace
 10
516.6908107627806
 20
332.4364261472208
 30
0.0
 11
517.9408107627806
 21
332.4364261472208
 31
0.0
 12
517.3158107627806
 22
328.6864261472209
 32
0.0
 13
517.3158107627806
 23
328.6864261472209
 33
0.0
  0
MTEXT
  5
BB7
330
B61
100
AcDbEntity
  8
AM_5
 62
     2
100
AcDbMText
 10
513.2658107627804
 20
557.2966699624962
 30
0.0
 40
6.0
 41
0.0
 71
     5
 72
     1
  1
459 {}{\C2;%%p6}
 11
0.0000000000000001
 21
1.0
 31
0.0
 73
     1
 44
1.0
  0
POINT
  5
BB8
330
B61
100
AcDbEntity
  8
Defpoints
 62
     0
100
AcDbPoint
 10
745.9673167410795
 20
787.269419906647
 30
0.0
  0
POINT
  5
BB9
330
B61
100
AcDbEntity
  8
Defpoints
 62
     0
100
AcDbPoint
 10
569.6223992246899
 20
328.6864261472209
 30
0.0
  0
POINT
  5
BBA
330
B61
100
AcDbEntity
  8
Defpoints
 62
     0
100
AcDbPoint
 10
517.3158107627806
 20
328.6864261472209
 30
0.0
  0
ENDBLK
  5
B6C
330
B61
100
AcDbEntity
  8
0
100
AcDbBlockEnd
  0
BLOCK
  5
B79
330
B6D
100
AcDbEntity
  8
0
100
AcDbBlockBegin
  2
*D9
 70
     1
 10
0.0
 20
0.0
 30
0.0
  3
*D9
  1

  0
LINE
  5
BBB
330
B6D
100
AcDbEntity
  8
AM_5
100
AcDbLine
 10
1251.685293118579
 20
515.3345315342952
 30
0.0
 11
1262.24799015659
 21
497.0394035995033
 31
0.0
  0
LINE
  5
BBC
330
B6D
100
AcDbEntity
  8
AM_5
100
AcDbLine
 10
1251.685293118579
 20
848.8759701431483
 30
0.0
 11
1262.247990156589
 21
867.1710980779401
 31
0.0
  0
ARC
  5
BBD
330
B6D
100
AcDbEntity
  8
AM_5
100
AcDbCircle
 10
1155.40017343522
 20
682.1052508387216
 30
0.0
 40
212.1956334427382
100
AcDbArc
 50
301.0125654602551
 51
58.98743453974502
  0
SOLID
  5
BBE
330
B6D
100
AcDbEntity
  8
AM_5
100
AcDbTrace
 10
1265.046161312951
 20
499.7035814215323
 30
0.0
 11
1264.411620261358
 21
500.7805482983873
 31
0.0
 12
1261.49799015659
 22
498.3384417051799
 32
0.0
 13
1261.49799015659
 23
498.3384417051799
 33
0.0
  0
SOLID
  5
BBF
330
B6D
100
AcDbEntity
  8
AM_5
100
AcDbTrace
 10
1264.411620261358
 20
863.429953379056
 30
0.0
 11
1265.046161312951
 21
864.506920255911
 31
0.0
 12
1261.497990156589
 22
865.8720599722634
 32
0.0
 13
1261.497990156589
 23
865.8720599722634
 33
0.0
  0
MTEXT
  5
BC0
330
B6D
100
AcDbEntity
  8
AM_5
 62
     2
100
AcDbMText
 10
1316.874933894549
 20
550.765003332748
 30
0.0
 40
6.0
 41
0.0
 71
     5
 72
     1
  1
3x120°
 11
0.631003485268691
 21
0.775779995603628
 31
0.0
 73
     1
 44
1.0
  0
POINT
  5
BC1
330
B6D
100
AcDbEntity
  8
Defpoints
 62
     0
100
AcDbPoint
 10
1354.798844344352
 20
754.6804318018879
 30
0.0
  0
POINT
  5
BC2
330
B6D
100
AcDbEntity
  8
Defpoints
 62
     0
100
AcDbPoint
 10
1251.685293118579
 20
515.3345315342952
 30
0.0
  0
POINT
  5
BC3
330
B6D
100
AcDbEntity
  8
Defpoints
 62
     0
100
AcDbPoint
 10
1251.685293118579
 20
848.8759701431483
 30
0.0
  0
POINT
  5
BC4
330
B6D
100
AcDbEntity
  8
Defpoints
 62
     0
100
AcDbPoint
 10
1196.925916351599
 20
754.0299473919328
 30
0.0
  0
POINT
  5
BC5
330
B6D
100
AcDbEntity
  8
Defpoints
 62
     0
100
AcDbPoint
 10
1196.925916351599
 20
610.1805542855105
 30
0.0
  0
ENDBLK
  5
B7A
330
B6D
100
AcDbEntity
  8
0
100
AcDbBlockEnd
  0
BLOCK
  5
C33
330
C2F
100
AcDbEntity
  8
0
100
AcDbBlockBegin
  2
*S2010
 70
     1
 10
0.0
 20
0.0
 30
0.0
  3
*S2010
  1

  0
CIRCLE
  5
C30
330
C2F
100
AcDbEntity
  8
AM_12
 62
     4
100
AcDbCircle
 10
1247.140554491987
 20
811.0042519347706
 30
0.0
 40
3.5
  0
LINE
  5
C31
330
C2F
100
AcDbEntity
  8
AM_12
 62
     4
100
AcDbLine
 10
1243.640554491987
 20
807.5042519347706
 30
0.0
 11
1250.640554491987
 21
814.5042519347708
 31
0.0
  0
LINE
  5
C32
330
C2F
100
AcDbEntity
  8
AM_12
 62
     4
100
AcDbLine
 10
1243.640554491987
 20
814.5042519347708
 30
0.0
 11
1250.640554491987
 21
807.5042519347706
 31
0.0
  0
ENDBLK
  5
C34
330
C2F
100
AcDbEntity
  8
0
100
AcDbBlockEnd
  0
ENDSEC
  0
SECTION
  2
ENTITIES
  0
INSERT
  5
724
330
1F
100
AcDbEntity
  8
AM_12
100
AcDbBlockReference
  2
*S2010
 10
0.0
 20
0.0
 30
0.0
  0
ARC
  5
725
330
1F
100
AcDbEntity
  8
GEFÄß
100
AcDbCircle
 10
1155.40017343522
 20
682.1052508387216
 30
0.0
 40
177.0
100
AcDbArc
 50
186.4879557246685
 51
0.0
  0
CIRCLE
  5
726
330
1F
100
AcDbEntity
  8
GEFÄß
100
AcDbCircle
 10
1155.40017343522
 20
682.1052508387216
 30
0.0
 40
10.0
  0
LINE
  5
727
330
1F
100
AcDbEntity
  8
AM_7
100
AcDbLine
 10
1249.275173435222
 20
844.7015203992494
 30
0.0
 11
1155.40017343522
 21
682.1052508387216
 31
0.0
  0
LINE
  5
728
330
1F
100
AcDbEntity
  8
AM_7
100
AcDbLine
 10
1155.40017343522
 20
682.1052508387216
 30
0.0
 11
1249.275173435222
 21
519.5089812781942
 31
0.0
  0
LINE
  5
729
330
1F
100
AcDbEntity
  8
GEWINDESTCK
100
AcDbLine
 10
1351.954641303466
 20
670.0974809055858
 30
0.0
 11
1351.954641303466
 21
693.5954535957352
 31
0.0
  0
HATCH
  5
72A
330
1F
100
AcDbEntity
  8
8
100
AcDbHatch
 10
0.0
 20
0.0
 30
0.0
210
0.0
220
0.0
230
1.0
  2
_U
 70
     0
 71
     0
 91
        1
 92
        1
 93
        4
 72
     1
 10
1351.954641303466
 20
670.0974809055858
 11
1335.909649842916
 21
669.3748615603501
 72
     1
 10
1335.909649842916
 20
669.3748615603501
 11
1335.954641303466
 21
668.3758741888196
 72
     1
 10
1335.954641303466
 20
668.3758741888196
 11
1350.954641303466
 21
669.0514301842954
 72
     1
 10
1350.954641303466
 20
669.0514301842954
 11
1351.954641303466
 21
670.0974809055858
 97
        0
 75
     0
 76
     0
 52
135.0
 41
2.16
 77
     0
 78
     1
 53
135.0
 43
-389.8387050536273
 44
-331.4065648267001
 45
-1.527350647362941
 46
-1.527350647362941
 79
     0
 98
        1
 10
790.0514986118894
 20
342.1553350595984
1001
GENIUS_GENODEF_13
1002
{
1000
HIER
1070
     0
1002
}
1002
{
1000
MANEDIT
1070
     0
1002
}
1002
{
1000
NOSEL
1070
     0
1002
}
1002
{
1000
BEHIND
1070
     0
1002
}
1002
{
1000
REACTOR
1002
}
1001
GENIUS_GENOBJ-N-HTC_13
1002
{
1000
OWNER
1000
GEN
1002
}
1001
GENIUS_GENHATCH_13
1002
{
1000
DATA
1040
135.0
1042
5.4
1000
_U
1070
     0
1011
1340.052857226778
1021
669.0265347462807
1031
0.0
1002
}
1002
{
1000
UCS
1010
0.0
1020
0.0
1030
0.0
1010
1.0
1020
0.0
1030
0.0
1010
0.0
1020
1.0
1030
0.0
1002
}
  0
LINE
  5
72B
330
1F
100
AcDbEntity
  8
GEWINDESTCK
 62
     3
100
AcDbLine
 10
1335.909649842916
 20
669.3748615603501
 30
0.0
 11
1351.954641303466
 21
670.0974809055858
 31
0.0
  0
LINE
  5
72C
330
1F
100
AcDbEntity
  8
GEWINDESTCK
100
AcDbLine
 10
1335.954641303466
 20
668.3758741888196
 30
0.0
 11
1350.954641303466
 21
669.0514301842954
 31
0.0
  0
LINE
  5
72D
330
1F
100
AcDbEntity
  8
GEWINDESTCK
 62
     3
100
AcDbLine
 10
1335.909649842916
 20
669.3748615603501
 30
0.0
 11
1335.954641303466
 21
668.3758741888196
 31
0.0
  0
LINE
  5
72E
330
1F
100
AcDbEntity
  8
GEWINDESTCK
100
AcDbLine
 10
1335.954641303466
 20
668.3758741888196
 30
0.0
 11
1331.6146843577
 21
665.4485362661707
 31
0.0
  0
LINE
  5
72F
330
1F
100
AcDbEntity
  8
GEWINDESTCK
100
AcDbLine
 10
1350.954641303466
 20
669.0514301842954
 30
0.0
 11
1351.954641303466
 21
670.0974809055858
 31
0.0
  0
HATCH
  5
730
330
1F
100
AcDbEntity
  8
8
100
AcDbHatch
 10
0.0
 20
0.0
 30
0.0
210
0.0
220
0.0
230
1.0
  2
_U
 70
     0
 71
     0
 91
        1
 92
        1
 93
        4
 72
     1
 10
1335.909649842916
 20
694.3180729409707
 11
1351.954641303465
 21
693.5954535957352
 72
     1
 10
1351.954641303466
 20
693.5954535957352
 11
1350.954641303466
 21
694.6415043170254
 72
     1
 10
1350.954641303466
 20
694.6415043170254
 11
1335.954641303466
 21
695.3170603125013
 72
     1
 10
1335.954641303466
 20
695.3170603125013
 11
1335.909649842917
 21
694.3180729409707
 97
        0
 75
     0
 76
     0
 52
135.0
 41
2.0
 77
     0
 78
     1
 53
135.0
 43
-389.8387050536273
 44
-331.4065648267001
 45
-1.414213562373094
 46
-1.414213562373094
 79
     0
 98
        1
 10
1545.622994148514
 20
571.330119535959
1001
GENIUS_GENODEF_13
1002
{
1000
HIER
1070
     0
1002
}
1002
{
1000
MANEDIT
1070
     0
1002
}
1002
{
1000
NOSEL
1070
     0
1002
}
1002
{
1000
BEHIND
1070
     0
1002
}
1002
{
1000
REACTOR
1002
}
1001
GENIUS_GENOBJ-N-HTC_13
1002
{
1000
OWNER
1000
GEN
1002
}
1001
GENIUS_GENHATCH_13
1002
{
1000
DATA
1040
45.0
1042
2.5
1000
_U
1070
     0
1011
1342.387550874003
1021
694.5954676267811
1031
0.0
1002
}
1002
{
1000
UCS
1010
0.0
1020
0.0
1030
0.0
1010
1.0
1020
0.0
1030
0.0
1010
0.0
1020
1.0
1030
0.0
1002
}
  0
LINE
  5
731
330
1F
100
AcDbEntity
  8
GEWINDESTCK
 62
     3
100
AcDbLine
 10
1335.909649842916
 20
694.3180729409707
 30
0.0
 11
1351.954641303466
 21
693.5954535957352
 31
0.0
  0
LINE
  5
732
330
1F
100
AcDbEntity
  8
GEWINDESTCK
100
AcDbLine
 10
1335.954641303466
 20
695.3170603125013
 30
0.0
 11
1350.954641303466
 21
694.6415043170254
 31
0.0
  0
LINE
  5
733
330
1F
100
AcDbEntity
  8
GEWINDESTCK
 62
     3
100
AcDbLine
 10
1335.909649842916
 20
694.3180729409707
 30
0.0
 11
1335.954641303466
 21
695.3170603125013
 31
0.0
  0
LINE
  5
734
330
1F
100
AcDbEntity
  8
GEWINDESTCK
100
AcDbLine
 10
1335.954641303466
 20
695.3170603125013
 30
0.0
 11
1331.666007110154
 21
698.2097806015117
 31
0.0
  0
LINE
  5
735
330
1F
100
AcDbEntity
  8
GEWINDESTCK
100
AcDbLine
 10
1351.954641303466
 20
693.5954535957352
 30
0.0
 11
1350.954641303466
 21
694.6415043170254
 31
0.0
  0
ARC
  5
736
330
1F
100
AcDbEntity
  8
GEFÄß
100
AcDbCircle
 10
1155.40017343522
 20
682.1052508387216
 30
0.0
 40
177.0
100
AcDbArc
 50
0.0
 51
186.4879557246685
  0
CIRCLE
  5
737
330
1F
100
AcDbEntity
  8
GEFÄß
100
AcDbCircle
 10
1155.40017343522
 20
682.1052508387216
 30
0.0
 40
7.0
  0
DIMENSION
  5
738
330
1F
100
AcDbEntity
  8
AM_5
100
AcDbDimension
  2
*D9
 10
1196.925916351599
 20
610.1805542855106
 30
0.0
 11
1320.017301014536
 21
548.2090665775562
 31
0.0
 70
   162
  1
3x<>
 71
     5
 42
2.094395102393189
  3
AM_DIN$2
100
AcDb2LineAngularDimension
 13
1251.685293118579
 23
848.8759701431483
 33
0.0
 14
1196.925916351599
 24
754.0299473919331
 34
0.0
 15
1251.685293118579
 25
515.3345315342952
 35
0.0
 16
1354.798844344352
 26
754.6804318018879
 36
0.0
1001
GENIUS_GENDTOL_13
1000

1000
h7
1000

1040
0.0
1000
3x<>
1001
ACAD
1000
DSTYLE
1002
{
1070
    40
1040
1.5
1070
    42
1040
0.0
1070
    47
1040
3.0
1070
    48
1040
3.0
1070
   140
1040
4.0
1070
   147
1040
0.7
1070
   271
1070
     0
1070
   272
1070
     2
1070
   274
1070
     2
1002
}
  0
CIRCLE
  5
739
330
1F
100
AcDbEntity
  8
TYPENSCHILD
100
AcDbCircle
 10
1155.40017343522
 20
682.1052508387216
 30
0.0
 40
41.5
  0
CIRCLE
  5
73A
330
1F
100
AcDbEntity
  8
VERDECKTE
 48
10.0
100
AcDbCircle
 10
995.4001734352203
 20
682.1052508387216
 30
0.0
 40
6.0
  0
ARC
  5
73B
330
1F
100
AcDbEntity
  8
VERDECKTE
 48
10.0
100
AcDbCircle
 10
997.9001734352204
 20
682.1052508387216
 30
0.0
 40
15.0
100
AcDbArc
 50
90.0
 51
270.0
  0
LINE
  5
73C
330
1F
100
AcDbEntity
  8
VERDECKTE
 48
10.0
100
AcDbLine
 10
997.9001734352204
 20
697.1052508387217
 30
0.0
 11
1008.155350601646
 21
697.1052508387217
 31
0.0
  0
LINE
  5
73D
330
1F
100
AcDbEntity
  8
VERDECKTE
 48
10.0
100
AcDbLine
 10
997.9001734352204
 20
667.1052508387218
 30
0.0
 11
1008.155350601646
 21
667.1052508387218
 31
0.0
  0
LINE
  5
73E
330
1F
100
AcDbEntity
  8
AM_7
100
AcDbLine
 10
995.4001734352203
 20
692.1901403366048
 30
0.0
 11
995.4001734352203
 21
672.4082414541758
 31
0.0
  0
LINE
  5
73F
330
1F
100
AcDbEntity
  8
VERDECKTE
 48
10.0
100
AcDbLine
 10
1012.90017343522
 20
671.1052508387218
 30
0.0
 11
1012.90017343522
 21
693.1052508387216
 31
0.0
  0
LINE
  5
740
330
1F
100
AcDbEntity
  8
VERDECKTE
 48
10.0
100
AcDbLine
 10
1067.40017343522
 20
671.1052508387218
 30
0.0
 11
1067.40017343522
 21
693.1052508387216
 31
0.0
  0
LINE
  5
741
330
1F
100
AcDbEntity
  8
VERDECKTE
 48
10.0
100
AcDbLine
 10
1014.90017343522
 20
695.1052508387216
 30
0.0
 11
1065.40017343522
 21
695.1052508387216
 31
0.0
1001
GENIUS_GENODEF_13
1002
{
1000
HIER
1070
     0
1002
}
1002
{
1000
MANEDIT
1070
     0
1002
}
1002
{
1000
NOSEL
1070
     0
1002
}
1002
{
1000
BEHIND
1070
     0
1002
}
1002
{
1000
REACTOR
1002
}
1001
GENIUS_GENOBJ-N-CEN_13
1002
{
1000
OWNER
1000
GEN
1002
}
  0
LINE
  5
742
330
1F
100
AcDbEntity
  8
VERDECKTE
 48
10.0
100
AcDbLine
 10
1014.90017343522
 20
669.1052508387216
 30
0.0
 11
1065.40017343522
 21
669.1052508387216
 31
0.0
1001
GENIUS_GENODEF_13
1002
{
1000
HIER
1070
     0
1002
}
1002
{
1000
MANEDIT
1070
     0
1002
}
1002
{
1000
NOSEL
1070
     0
1002
}
1002
{
1000
BEHIND
1070
     0
1002
}
1002
{
1000
REACTOR
1002
}
1001
GENIUS_GENOBJ-N-CEN_13
1002
{
1000
OWNER
1000
GEN
1002
}
  0
LINE
  5
743
330
1F
100
AcDbEntity
  8
AM_7
100
AcDbLine
 10
1002.036807647872
 20
687.1052508387216
 30
0.0
 11
1017.820249229264
 21
687.1052508387216
 31
0.0
1001
GENIUS_GENODEF_13
1002
{
1000
HIER
1070
     0
1002
}
1002
{
1000
MANEDIT
1070
     0
1002
}
1002
{
1000
NOSEL
1070
     0
1002
}
1002
{
1000
BEHIND
1070
     0
1002
}
1002
{
1000
REACTOR
1002
}
1001
GENIUS_GENOBJ-N-CEN_13
1002
{
1000
OWNER
1000
GEN
1002
}
  0
LINE
  5
744
330
1F
100
AcDbEntity
  8
AM_7
100
AcDbLine
 10
1002.036807647872
 20
677.1052508387216
 30
0.0
 11
1017.498138490839
 21
677.1052508387216
 31
0.0
1001
GENIUS_GENODEF_13
1002
{
1000
HIER
1070
     0
1002
}
1002
{
1000
MANEDIT
1070
     0
1002
}
1002
{
1000
NOSEL
1070
     0
1002
}
1002
{
1000
BEHIND
1070
     0
1002
}
1002
{
1000
REACTOR
1002
}
1001
GENIUS_GENOBJ-N-CEN_13
1002
{
1000
OWNER
1000
GEN
1002
}
  0
LINE
  5
745
330
1F
100
AcDbEntity
  8
VERDECKTE
 48
10.0
100
AcDbLine
 10
1007.40017343522
 20
690.6052508387216
 30
0.0
 11
1012.90017343522
 21
690.6052508387216
 31
0.0
1001
GENIUS_GENODEF_13
1002
{
1000
HIER
1070
     0
1002
}
1002
{
1000
MANEDIT
1070
     0
1002
}
1002
{
1000
NOSEL
1070
     0
1002
}
1002
{
1000
BEHIND
1070
     0
1002
}
1002
{
1000
REACTOR
1002
}
1001
GENIUS_GENOBJ-N-CEN_13
1002
{
1000
OWNER
1000
GEN
1002
}
  0
LINE
  5
746
330
1F
100
AcDbEntity
  8
VERDECKTE
 48
10.0
100
AcDbLine
 10
1007.40017343522
 20
683.6052508387218
 30
0.0
 11
1012.90017343522
 21
683.6052508387218
 31
0.0
1001
GENIUS_GENODEF_13
1002
{
1000
HIER
1070
     0
1002
}
1002
{
1000
MANEDIT
1070
     0
1002
}
1002
{
1000
NOSEL
1070
     0
1002
}
1002
{
1000
BEHIND
1070
     0
1002
}
1002
{
1000
REACTOR
1002
}
1001
GENIUS_GENOBJ-N-CEN_13
1002
{
1000
OWNER
1000
GEN
1002
}
  0
LINE
  5
747
330
1F
100
AcDbEntity
  8
VERDECKTE
 48
10.0
100
AcDbLine
 10
1007.40017343522
 20
673.6052508387216
 30
0.0
 11
1012.90017343522
 21
673.6052508387216
 31
0.0
1001
GENIUS_GENODEF_13
1002
{
1000
HIER
1070
     0
1002
}
1002
{
1000
MANEDIT
1070
     0
1002
}
1002
{
1000
NOSEL
1070
     0
1002
}
1002
{
1000
BEHIND
1070
     0
1002
}
1002
{
1000
REACTOR
1002
}
1001
GENIUS_GENOBJ-N-CEN_13
1002
{
1000
OWNER
1000
GEN
1002
}
  0
LINE
  5
748
330
1F
100
AcDbEntity
  8
VERDECKTE
 48
10.0
100
AcDbLine
 10
1007.40017343522
 20
680.6052508387216
 30
0.0
 11
1012.90017343522
 21
680.6052508387216
 31
0.0
1001
GENIUS_GENODEF_13
1002
{
1000
HIER
1070
     0
1002
}
1002
{
1000
MANEDIT
1070
     0
1002
}
1002
{
1000
NOSEL
1070
     0
1002
}
1002
{
1000
BEHIND
1070
     0
1002
}
1002
{
1000
REACTOR
1002
}
1001
GENIUS_GENOBJ-N-CEN_13
1002
{
1000
OWNER
1000
GEN
1002
}
  0
ARC
  5
749
330
1F
100
AcDbEntity
  8
VERDECKTE
 48
10.0
100
AcDbCircle
 10
1007.40017343522
 20
687.1052508387216
 30
0.0
 40
3.5
100
AcDbArc
 50
90.0
 51
270.0
  0
ARC
  5
74A
330
1F
100
AcDbEntity
  8
VERDECKTE
 48
10.0
100
AcDbCircle
 10
1007.40017343522
 20
677.1052508387216
 30
0.0
 40
3.5
100
AcDbArc
 50
90.0
 51
270.0
  0
ARC
  5
74B
330
1F
100
AcDbEntity
  8
VERDECKTE
 48
10.0
100
AcDbCircle
 10
1009.11597768619
 20
686.8139648125882
 30
0.0
 40
10.33602304889329
100
AcDbArc
 50
53.33818125731804
 51
95.3327497551427
  0
ARC
  5
74C
330
1F
100
AcDbEntity
  8
VERDECKTE
 48
10.0
100
AcDbCircle
 10
1012.90017343522
 20
688.6052508387216
 30
0.0
 40
2.0
100
AcDbArc
 50
90.0
 51
180.0
  0
LINE
  5
74D
330
1F
100
AcDbEntity
  8
VERDECKTE
 48
10.0
100
AcDbLine
 10
1010.90017343522
 20
675.6052508387218
 30
0.0
 11
1010.90017343522
 21
678.6052508387216
 31
0.0
  0
ARC
  5
74E
330
1F
100
AcDbEntity
  8
VERDECKTE
 48
10.0
100
AcDbCircle
 10
1012.90017343522
 20
685.6052508387216
 30
0.0
 40
2.0
100
AcDbArc
 50
180.0
 51
270.0
  0
ARC
  5
74F
330
1F
100
AcDbEntity
  8
VERDECKTE
 48
10.0
100
AcDbCircle
 10
1012.90017343522
 20
675.6052508387218
 30
0.0
 40
2.0
100
AcDbArc
 50
180.0
 51
270.0
  0
ARC
  5
750
330
1F
100
AcDbEntity
  8
VERDECKTE
 48
10.0
100
AcDbCircle
 10
1012.90017343522
 20
678.6052508387216
 30
0.0
 40
2.0
100
AcDbArc
 50
90.0
 51
180.0
  0
LINE
  5
751
330
1F
100
AcDbEntity
  8
VERDECKTE
 48
10.0
100
AcDbLine
 10
1010.90017343522
 20
685.6052508387216
 30
0.0
 11
1010.90017343522
 21
688.6052508387216
 31
0.0
  0
LINE
  5
752
330
1F
100
AcDbEntity
  8
VERDECKTE
 48
10.0
100
AcDbLine
 10
1014.102667376517
 20
685.1052508387216
 30
0.0
 11
1024.46413303959
 21
685.1052508387216
 31
0.0
1001
GENIUS_GENODEF_13
1002
{
1000
HIER
1070
     0
1002
}
1002
{
1000
MANEDIT
1070
     0
1002
}
1002
{
1000
NOSEL
1070
     0
1002
}
1002
{
1000
BEHIND
1070
     0
1002
}
1002
{
1000
REACTOR
1002
}
1001
GENIUS_GENOBJ-N-CEN_13
1002
{
1000
OWNER
1000
GEN
1002
}
  0
LINE
  5
753
330
1F
100
AcDbEntity
  8
VERDECKTE
 48
10.0
100
AcDbLine
 10
1014.102667376517
 20
679.1052508387216
 30
0.0
 11
1024.464133039591
 21
679.1052508387216
 31
0.0
1001
GENIUS_GENODEF_13
1002
{
1000
HIER
1070
     0
1002
}
1002
{
1000
MANEDIT
1070
     0
1002
}
1002
{
1000
NOSEL
1070
     0
1002
}
1002
{
1000
BEHIND
1070
     0
1002
}
1002
{
1000
REACTOR
1002
}
1001
GENIUS_GENOBJ-N-CEN_13
1002
{
1000
OWNER
1000
GEN
1002
}
  0
ELLIPSE
  5
754
330
1F
100
AcDbEntity
  8
VERDECKTE
 48
10.0
100
AcDbEllipse
 10
1024.46413303959
 20
682.1052508387216
 30
0.0
 11
0.0
 21
2.999999999999984
 31
0.0
210
0.0
220
0.0
230
1.0
 40
0.7741598128011863
 41
3.141592653589793
 42
6.283185307179586
  0
LINE
  5
755
330
1F
100
AcDbEntity
  8
VERDECKTE
 48
10.0
100
AcDbLine
 10
1016.204598358512
 20
683.1052508387216
 30
0.0
 11
1024.46413303959
 21
683.1052508387216
 31
0.0
1001
GENIUS_GENODEF_13
1002
{
1000
HIER
1070
     0
1002
}
1002
{
1000
MANEDIT
1070
     0
1002
}
1002
{
1000
NOSEL
1070
     0
1002
}
1002
{
1000
BEHIND
1070
     0
1002
}
1002
{
1000
REACTOR
1002
}
1001
GENIUS_GENOBJ-N-CEN_13
1002
{
1000
OWNER
1000
GEN
1002
}
  0
SPLINE
  5
756
330
1F
100
AcDbEntity
  8
VERDECKTE
 48
10.0
100
AcDbSpline
210
0.0
220
0.0
230
1.0
 70
     8
 71
     3
 72
    18
 73
    14
 74
     0
 42
0.0000000001
 43
0.0000000001
 40
3.628703069452225
 40
3.628703069452225
 40
3.628703069452225
 40
3.628703069452225
 40
3.912493910190089
 40
3.912493910190089
 40
4.196284750927953
 40
4.196284750927953
 40
4.622228449873871
 40
4.622228449873871
 40
5.048172148819787
 40
5.048172148819787
 40
5.474115847765705
 40
5.474115847765705
 40
5.796074891333206
 40
5.796074891333206
 40
5.796074891333206
 40
5.796074891333206
 10
1024.421867160035
 20
681.1048041877061
 30
0.0
 10
1024.440087469149
 20
681.1172705708627
 30
0.0
 10
1024.475723475739
 20
681.146414555636
 30
0.0
 10
1024.560923257164
 20
681.2533235488602
 30
0.0
 10
1024.609828487072
 20
681.3308770356846
 30
0.0
 10
1024.717735055707
 20
681.5765331714636
 30
0.0
 10
1024.767767849504
 20
681.7705676867904
 30
0.0
 10
1024.796351548533
 20
682.1789738899045
 30
0.0
 10
1024.774846310387
 20
682.3918383574464
 30
0.0
 10
1024.677429425837
 20
682.7523994749228
 30
0.0
 10
1024.602038131634
 20
682.8981295500414
 30
0.0
 10
1024.485788651784
 20
683.0555744896262
 30
0.0
 10
1024.442537993805
 20
683.0915544512016
 30
0.0
 10
1024.421867160032
 20
683.1056974897395
 30
0.0
  0
LINE
  5
757
330
1F
100
AcDbEntity
  8
VERDECKTE
 48
10.0
100
AcDbLine
 10
1016.204598358512
 20
681.1052508387216
 30
0.0
 11
1024.464133039591
 21
681.1052508387216
 31
0.0
1001
GENIUS_GENODEF_13
1002
{
1000
HIER
1070
     0
1002
}
1002
{
1000
MANEDIT
1070
     0
1002
}
1002
{
1000
NOSEL
1070
     0
1002
}
1002
{
1000
BEHIND
1070
     0
1002
}
1002
{
1000
REACTOR
1002
}
1001
GENIUS_GENOBJ-N-CEN_13
1002
{
1000
OWNER
1000
GEN
1002
}
  0
ARC
  5
758
330
1F
100
AcDbEntity
  8
VERDECKTE
 48
10.0
100
AcDbCircle
 10
1009.11597768619
 20
677.3965368648555
 30
0.0
 40
10.33602304889329
100
AcDbArc
 50
264.6672502448573
 51
306.6618187426774
  0
ARC
  5
759
330
1F
100
AcDbEntity
  8
VERDECKTE
 48
10.0
100
AcDbCircle
 10
1014.90017343522
 20
693.1052508387216
 30
0.0
 40
2.0
100
AcDbArc
 50
90.0
 51
180.0
1001
GENIUS_GENOBJ-N-CEN_13
1002
{
1000
OWNER
1000
GEN
1002
}
1001
GENIUS_GENODEF_13
1002
{
1000
HIER
1070
     0
1002
}
1002
{
1000
MANEDIT
1070
     0
1002
}
1002
{
1000
NOSEL
1070
     0
1002
}
1002
{
1000
BEHIND
1070
     0
1002
}
1002
{
1000
REACTOR
1002
}
1001
GENIUS_GENOBJ-N-FIL_13
1002
{
1000
OWNER
1000
GEN
1002
}
  0
ARC
  5
75A
330
1F
100
AcDbEntity
  8
VERDECKTE
 48
10.0
100
AcDbCircle
 10
1014.90017343522
 20
671.1052508387218
 30
0.0
 40
2.0
100
AcDbArc
 50
180.0
 51
270.0
1001
GENIUS_GENOBJ-N-CEN_13
1002
{
1000
OWNER
1000
GEN
1002
}
1001
GENIUS_GENODEF_13
1002
{
1000
HIER
1070
     0
1002
}
1002
{
1000
MANEDIT
1070
     0
1002
}
1002
{
1000
NOSEL
1070
     0
1002
}
1002
{
1000
BEHIND
1070
     0
1002
}
1002
{
1000
REACTOR
1002
}
1001
GENIUS_GENOBJ-N-FIL_13
1002
{
1000
OWNER
1000
GEN
1002
}
  0
ARC
  5
75B
330
1F
100
AcDbEntity
  8
VERDECKTE
 48
10.0
100
AcDbCircle
 10
1065.40017343522
 20
693.1052508387216
 30
0.0
 40
2.0
100
AcDbArc
 50
0.0
 51
90.0
1001
GENIUS_GENODEF_13
1002
{
1000
HIER
1070
     0
1002
}
1002
{
1000
MANEDIT
1070
     0
1002
}
1002
{
1000
NOSEL
1070
     0
1002
}
1002
{
1000
BEHIND
1070
     0
1002
}
1002
{
1000
REACTOR
1002
}
1001
GENIUS_GENOBJ-N-FIL_13
1002
{
1000
OWNER
1000
GEN
1002
}
  0
ARC
  5
75C
330
1F
100
AcDbEntity
  8
VERDECKTE
 48
10.0
100
AcDbCircle
 10
1065.40017343522
 20
671.1052508387218
 30
0.0
 40
2.0
100
AcDbArc
 50
270.0
 51
0.0
1001
GENIUS_GENOBJ-N-CEN_13
1002
{
1000
OWNER
1000
GEN
1002
}
1001
GENIUS_GENODEF_13
1002
{
1000
HIER
1070
     0
1002
}
1002
{
1000
MANEDIT
1070
     0
1002
}
1002
{
1000
NOSEL
1070
     0
1002
}
1002
{
1000
BEHIND
1070
     0
1002
}
1002
{
1000
REACTOR
1002
}
1001
GENIUS_GENOBJ-N-FIL_13
1002
{
1000
OWNER
1000
GEN
1002
}
  0
LINE
  5
75D
330
1F
100
AcDbEntity
  8
VERDECKTE
 48
10.0
100
AcDbLine
 10
1016.204598358512
 20
681.1052508387216
 30
0.0
 11
1016.204598358512
 21
683.1052508387216
 31
0.0
  0
LINE
  5
75E
330
1F
100
AcDbEntity
  8
VERDECKTE
 48
10.0
100
AcDbLine
 10
1014.102667376517
 20
671.1052508387215
 30
0.0
 11
1014.102667376517
 21
679.1052508387216
 31
0.0
  0
ARC
  5
75F
330
1F
100
AcDbEntity
  8
VERDECKTE
 48
10.0
100
AcDbCircle
 10
1016.102667376517
 20
693.1052508387216
 30
0.0
 40
2.0
100
AcDbArc
 50
90.0
 51
180.0
1001
GENIUS_GENOBJ-N-CEN_13
1002
{
1000
OWNER
1000
GEN
1002
}
1001
GENIUS_GENODEF_13
1002
{
1000
HIER
1070
     0
1002
}
1002
{
1000
MANEDIT
1070
     0
1002
}
1002
{
1000
NOSEL
1070
     0
1002
}
1002
{
1000
BEHIND
1070
     0
1002
}
1002
{
1000
REACTOR
1002
}
1001
GENIUS_GENOBJ-N-FIL_13
1002
{
1000
OWNER
1000
GEN
1002
}
  0
ARC
  5
760
330
1F
100
AcDbEntity
  8
VERDECKTE
 48
10.0
100
AcDbCircle
 10
1016.102667376517
 20
671.1052508387218
 30
0.0
 40
2.0
100
AcDbArc
 50
180.0
 51
270.0
1001
GENIUS_GENOBJ-N-CEN_13
1002
{
1000
OWNER
1000
GEN
1002
}
1001
GENIUS_GENODEF_13
1002
{
1000
HIER
1070
     0
1002
}
1002
{
1000
MANEDIT
1070
     0
1002
}
1002
{
1000
NOSEL
1070
     0
1002
}
1002
{
1000
BEHIND
1070
     0
1002
}
1002
{
1000
REACTOR
1002
}
1001
GENIUS_GENOBJ-N-FIL_13
1002
{
1000
OWNER
1000
GEN
1002
}
  0
ARC
  5
761
330
1F
100
AcDbEntity
  8
VERDECKTE
 48
10.0
100
AcDbCircle
 10
1016.793837930232
 20
678.3814519196464
 30
0.0
 40
2.786805307953311
100
AcDbArc
 50
102.2066997936596
 51
164.9463418185644
  0
ARC
  5
762
330
1F
100
AcDbEntity
  8
VERDECKTE
 48
10.0
100
AcDbCircle
 10
1016.793837930232
 20
685.8290497577971
 30
0.0
 40
2.786805307953311
100
AcDbArc
 50
195.0536581814355
 51
257.7933002063403
  0
LINE
  5
763
330
1F
100
AcDbEntity
  8
VERDECKTE
 48
10.0
100
AcDbLine
 10
1015.095963566397
 20
680.5913176325507
 30
0.0
 11
1015.095963566397
 21
683.6191840448923
 31
0.0
  0
ARC
  5
764
330
1F
100
AcDbEntity
  8
VERDECKTE
 48
10.0
100
AcDbCircle
 10
1017.296534282247
 20
685.6995098287616
 30
0.0
 40
2.77539230657983
100
AcDbArc
 50
192.3637354700707
 51
249.1855291363143
  0
ARC
  5
765
330
1F
100
AcDbEntity
  8
VERDECKTE
 48
10.0
100
AcDbCircle
 10
1017.296534282247
 20
678.5109918486819
 30
0.0
 40
2.77539230657983
100
AcDbArc
 50
110.8144708636856
 51
167.6362645299293
  0
LINE
  5
766
330
1F
100
AcDbEntity
  8
VERDECKTE
 48
10.0
100
AcDbLine
 10
1014.102667376517
 20
685.1052508387216
 30
0.0
 11
1014.102667376517
 21
693.1052508387215
 31
0.0
  0
LINE
  5
767
330
1F
100
AcDbEntity
  8
VERDECKTE
 48
10.0
100
AcDbLine
 10
988.2854952240228
 20
682.1052508387216
 30
0.0
 11
1062.597239536534
 21
682.105250838722
 31
0.0
1001
GENIUS_GENOREF_13
1005
B15
  0
LINE
  5
768
330
1F
100
AcDbEntity
  8
VERDECKTE
 48
10.0
100
AcDbLine
 10
1238.957512540819
 20
826.8308075148805
 30
0.0
 11
1201.801640384563
 21
762.4749491407119
 31
0.0
1001
GENIUS_GENOREF_13
1005
B14
  0
LINE
  5
769
330
1F
100
AcDbEntity
  8
AM_7
100
AcDbLine
 10
1155.40017343522
 20
682.1052508387216
 30
0.0
 11
1349.15017343522
 21
682.1052508387216
 31
0.0
1001
GENIUS_GENOREF_13
1005
B13
  0
LINE
  5
76A
330
1F
100
AcDbEntity
  8
AM_7
100
AcDbLine
 10
1155.40017343522
 20
682.1052508387216
 30
0.0
 11
1155.40017343522
 21
875.8552508387218
 31
0.0
1001
GENIUS_GENOREF_13
1005
B13
  0
LINE
  5
76B
330
1F
100
AcDbEntity
  8
AM_7
100
AcDbLine
 10
1155.40017343522
 20
682.1052508387216
 30
0.0
 11
961.6501734352203
 21
682.1052508387216
 31
0.0
1001
GENIUS_GENOREF_13
1005
B13
  0
LINE
  5
76C
330
1F
100
AcDbEntity
  8
AM_7
100
AcDbLine
 10
1155.40017343522
 20
682.1052508387216
 30
0.0
 11
1155.40017343522
 21
505.1052508387217
 31
0.0
1001
GENIUS_GENOREF_13
1005
B13
  0
ARC
  5
76D
330
1F
100
AcDbEntity
  8
AM_0
100
AcDbCircle
 10
619.6177264302266
 20
444.2393908619961
 30
0.0
 40
54.5
100
AcDbArc
 50
180.0
 51
232.9885886133853
1001
GENIUS_GENOBJ-N-FIL_13
1002
{
1000
OWNER
1000
GEN
1002
}
1001
GENIUS_GENODEF_13
1002
{
1000
HIER
1070
     0
1002
}
1002
{
1000
MANEDIT
1070
     0
1002
}
1002
{
1000
NOSEL
1070
     0
1002
}
1002
{
1000
BEHIND
1070
     0
1002
}
1002
{
1000
OTHER
1070
     0
1002
}
1002
{
1000
REACTOR
1002
}
  0
LINE
  5
76E
330
1F
100
AcDbEntity
  8
AM_7
100
AcDbLine
 10
742.1524424233678
 20
808.4691240066995
 30
0.0
 11
742.1168321237885
 21
336.8949253895713
 31
0.0
1001
GENIUS_GENODEF_13
1002
{
1000
HIER
1070
     0
1002
}
1002
{
1000
MANEDIT
1070
     0
1002
}
1002
{
1000
NOSEL
1070
     0
1002
}
1002
{
1000
BEHIND
1070
     0
1002
}
1002
{
1000
REACTOR
1002
}
1001
GENIUS_GENOBJ-N-CEN_13
1002
{
1000
OWNER
1000
GEN
1002
}
  0
ARC
  5
76F
330
1F
100
AcDbEntity
  8
AM_0
100
AcDbCircle
 10
742.1177264302275
 20
606.7350356259221
 30
0.0
 40
257.9971365087093
100
AcDbArc
 50
232.9885886133853
 51
307.0114113866147
  0
ARC
  5
770
330
1F
100
AcDbEntity
  8
AM_0
100
AcDbCircle
 10
742.1524424233678
 20
492.8378991172136
 30
0.0
 40
283.9
100
AcDbArc
 50
57.91746383470023
 51
87.07664019524692
  0
ARC
  5
771
330
1F
100
AcDbEntity
  8
AM_0
100
AcDbCircle
 10
742.1524424233678
 20
492.8378991172136
 30
0.0
 40
283.9
100
AcDbArc
 50
92.93347511505798
 51
122.0825361652998
  0
LINE
  5
772
330
1F
100
AcDbEntity
  8
AM_0
100
AcDbLine
 10
565.1168321237888
 20
535.6477291734639
 30
0.0
 11
565.1168321237876
 21
459.2393908619969
 31
0.0
1001
GENIUS_GENODEF_13
1002
{
1000
HIER
1070
     0
1002
}
1002
{
1000
MANEDIT
1070
     0
1002
}
1002
{
1000
NOSEL
1070
     0
1002
}
1002
{
1000
BEHIND
1070
     0
1002
}
1002
{
1000
REACTOR
1002
}
1001
GENIUS_GENOBJ-N-CEN_13
1002
{
1000
OWNER
1000
GEN
1002
}
  0
LINE
  5
773
330
1F
100
AcDbEntity
  8
AM_0
100
AcDbLine
 10
565.1168321237894
 20
566.2378991172129
 30
0.0
 11
565.1168321237888
 21
546.8280690609629
 31
0.0
1001
GENIUS_GENODEF_13
1002
{
1000
HIER
1070
     0
1002
}
1002
{
1000
MANEDIT
1070
     0
1002
}
1002
{
1000
NOSEL
1070
     0
1002
}
1002
{
1000
BEHIND
1070
     0
1002
}
1002
{
1000
REACTOR
1002
}
1001
GENIUS_GENOBJ-N-CEN_13
1002
{
1000
OWNER
1000
GEN
1002
}
  0
ARC
  5
774
330
1F
100
AcDbEntity
  8
AM_0
100
AcDbCircle
 10
562.6168321237903
 20
535.6477291734639
 30
0.0
 40
2.5
100
AcDbArc
 50
0.0
 51
48.18968510420198
1001
GENIUS_GENODEF_13
1002
{
1000
HIER
1070
     0
1002
}
1002
{
1000
MANEDIT
1070
     0
1002
}
1002
{
1000
NOSEL
1070
     0
1002
}
1002
{
1000
BEHIND
1070
     0
1002
}
1002
{
1000
OTHER
1070
     0
1002
}
1002
{
1000
REACTOR
1002
}
1001
GENIUS_GENOBJ-N-FIL_13
1002
{
1000
OWNER
1000
GEN
1002
}
  0
ARC
  5
775
330
1F
100
AcDbEntity
  8
AM_0
100
AcDbCircle
 10
562.6168321237885
 20
546.8280690609629
 30
0.0
 40
2.5
100
AcDbArc
 50
311.810314895798
 51
0.0
1001
GENIUS_GENOBJ-N-FIL_13
1002
{
1000
OWNER
1000
GEN
1002
}
1001
GENIUS_GENODEF_13
1002
{
1000
HIER
1070
     0
1002
}
1002
{
1000
MANEDIT
1070
     0
1002
}
1002
{
1000
NOSEL
1070
     0
1002
}
1002
{
1000
BEHIND
1070
     0
1002
}
1002
{
1000
OTHER
1070
     0
1002
}
1002
{
1000
REACTOR
1002
}
  0
ARC
  5
776
330
1F
100
AcDbEntity
  8
AM_0
100
AcDbCircle
 10
567.6168321237885
 20
541.2378991172138
 30
0.0
 40
5.0
100
AcDbArc
 50
131.810314895798
 51
228.189685104202
  0
ARC
  5
777
330
1F
100
AcDbEntity
  8
AM_0
100
AcDbCircle
 10
567.1168321237884
 20
568.8058483096413
 30
0.0
 40
2.0
100
AcDbArc
 50
180.0
 51
210.0000000000078
1001
GENIUS_GENOBJ-N-FIL_13
1002
{
1000
OWNER
1000
GEN
1002
}
1001
GENIUS_GENODEF_13
1002
{
1000
HIER
1070
     0
1002
}
1002
{
1000
MANEDIT
1070
     0
1002
}
1002
{
1000
NOSEL
1070
     0
1002
}
1002
{
1000
BEHIND
1070
     0
1002
}
1002
{
1000
OTHER
1070
     0
1002
}
1002
{
1000
REACTOR
1002
}
  0
LINE
  5
778
330
1F
100
AcDbEntity
  8
AM_0
100
AcDbLine
 10
565.9828575275744
 20
566.7699499247803
 30
0.0
 11
565.3847813162204
 21
567.8058483096402
 31
0.0
  0
ARC
  5
779
330
1F
100
AcDbEntity
  8
AM_0
100
AcDbCircle
 10
565.1168321237885
 20
566.2699499247811
 30
0.0
 40
1.0
100
AcDbArc
 50
0.0
 51
30.00000000000782
1001
GENIUS_GENOBJ-N-FIL_13
1002
{
1000
OWNER
1000
GEN
1002
}
1001
GENIUS_GENODEF_13
1002
{
1000
HIER
1070
     0
1002
}
1002
{
1000
MANEDIT
1070
     0
1002
}
1002
{
1000
NOSEL
1070
     0
1002
}
1002
{
1000
BEHIND
1070
     0
1002
}
1002
{
1000
OTHER
1070
     0
1002
}
1002
{
1000
REACTOR
1002
}
  0
LINE
  5
77A
330
1F
100
AcDbEntity
  8
AM_0
100
AcDbLine
 10
565.1168321237894
 20
566.2378991172129
 30
0.0
 11
566.1168321237894
 21
566.2378991172125
 31
0.0
  0
ARC
  5
77B
330
1F
100
AcDbEntity
  8
AM_0
100
AcDbCircle
 10
621.0524424233683
 20
686.0186176167574
 30
0.0
 40
55.89999999999999
100
AcDbArc
 50
122.0825361652998
 51
180.0
1001
GENIUS_GENODEF_13
1002
{
1000
HIER
1070
     0
1002
}
1002
{
1000
MANEDIT
1070
     0
1002
}
1002
{
1000
NOSEL
1070
     0
1002
}
1002
{
1000
BEHIND
1070
     0
1002
}
1002
{
1000
REACTOR
1002
}
1001
GENIUS_GENOBJ-N-FIL_13
1002
{
1000
OWNER
1000
GEN
1002
}
  0
ARC
  5
77C
330
1F
100
AcDbEntity
  8
AM_0
100
AcDbCircle
 10
863.2524424233672
 20
686.0186176167574
 30
0.0
 40
55.89999999999999
100
AcDbArc
 50
0.0
 51
57.91746383470023
1001
GENIUS_GENODEF_13
1002
{
1000
HIER
1070
     0
1002
}
1002
{
1000
MANEDIT
1070
     0
1002
}
1002
{
1000
NOSEL
1070
     0
1002
}
1002
{
1000
BEHIND
1070
     0
1002
}
1002
{
1000
REACTOR
1002
}
1001
GENIUS_GENOBJ-N-FIL_13
1002
{
1000
OWNER
1000
GEN
1002
}
  0
LINE
  5
77D
330
1F
100
AcDbEntity
  8
AM_0
100
AcDbLine
 10
565.1168321237885
 20
568.8058483096413
 30
0.0
 11
565.1524424233676
 21
686.0186176167574
 31
0.0
  0
LINE
  5
77E
330
1F
100
AcDbEntity
  8
AM_0
100
AcDbLine
 10
919.1168321237883
 20
568.8058483096413
 30
0.0
 11
919.1524424233678
 21
686.0186176167574
 31
0.0
  0
ARC
  5
77F
330
1F
100
AcDbEntity
  8
AM_0
100
AcDbCircle
 10
917.1168321237884
 20
568.8058483096413
 30
0.0
 40
2.0
100
AcDbArc
 50
329.9999999999922
 51
0.0
1001
GENIUS_GENOBJ-N-FIL_13
1002
{
1000
OWNER
1000
GEN
1002
}
1001
GENIUS_GENODEF_13
1002
{
1000
HIER
1070
     0
1002
}
1002
{
1000
MANEDIT
1070
     0
1002
}
1002
{
1000
NOSEL
1070
     0
1002
}
1002
{
1000
BEHIND
1070
     0
1002
}
1002
{
1000
OTHER
1070
     0
1002
}
1002
{
1000
REACTOR
1002
}
  0
LINE
  5
780
330
1F
100
AcDbEntity
  8
AM_0
100
AcDbLine
 10
918.2508067200023
 20
566.7699499247803
 30
0.0
 11
918.8488829313564
 21
567.8058483096402
 31
0.0
  0
ARC
  5
781
330
1F
100
AcDbEntity
  8
AM_0
100
AcDbCircle
 10
919.1168321237883
 20
566.2699499247811
 30
0.0
 40
1.0
100
AcDbArc
 50
149.9999999999922
 51
180.0
1001
GENIUS_GENOBJ-N-FIL_13
1002
{
1000
OWNER
1000
GEN
1002
}
1001
GENIUS_GENODEF_13
1002
{
1000
HIER
1070
     0
1002
}
1002
{
1000
MANEDIT
1070
     0
1002
}
1002
{
1000
NOSEL
1070
     0
1002
}
1002
{
1000
BEHIND
1070
     0
1002
}
1002
{
1000
OTHER
1070
     0
1002
}
1002
{
1000
REACTOR
1002
}
  0
LINE
  5
782
330
1F
100
AcDbEntity
  8
AM_0
100
AcDbLine
 10
919.1168321237874
 20
566.2378991172129
 30
0.0
 11
742.1341506539895
 21
566.2378991171322
 31
0.0
  0
LINE
  5
783
330
1F
100
AcDbEntity
  8
AM_0
100
AcDbLine
 10
919.1168321237874
 20
566.2378991172129
 30
0.0
 11
919.1168321237878
 21
546.8280690609629
 31
0.0
1001
GENIUS_GENODEF_13
1002
{
1000
HIER
1070
     0
1002
}
1002
{
1000
MANEDIT
1070
     0
1002
}
1002
{
1000
NOSEL
1070
     0
1002
}
1002
{
1000
BEHIND
1070
     0
1002
}
1002
{
1000
REACTOR
1002
}
1001
GENIUS_GENOBJ-N-CEN_13
1002
{
1000
OWNER
1000
GEN
1002
}
  0
ARC
  5
784
330
1F
100
AcDbEntity
  8
AM_0
100
AcDbCircle
 10
921.6168321237883
 20
546.8280690609629
 30
0.0
 40
2.5
100
AcDbArc
 50
180.0
 51
228.189685104202
1001
GENIUS_GENOBJ-N-FIL_13
1002
{
1000
OWNER
1000
GEN
1002
}
1001
GENIUS_GENODEF_13
1002
{
1000
HIER
1070
     0
1002
}
1002
{
1000
MANEDIT
1070
     0
1002
}
1002
{
1000
NOSEL
1070
     0
1002
}
1002
{
1000
BEHIND
1070
     0
1002
}
1002
{
1000
OTHER
1070
     0
1002
}
1002
{
1000
REACTOR
1002
}
  0
ARC
  5
785
330
1F
100
AcDbEntity
  8
AM_0
100
AcDbCircle
 10
916.6168321237885
 20
541.2378991172138
 30
0.0
 40
5.0
100
AcDbArc
 50
311.810314895798
 51
48.18968510420198
  0
ARC
  5
786
330
1F
100
AcDbEntity
  8
AM_0
100
AcDbCircle
 10
921.6168321237864
 20
535.6477291734639
 30
0.0
 40
2.5
100
AcDbArc
 50
131.810314895798
 51
180.0
1001
GENIUS_GENODEF_13
1002
{
1000
HIER
1070
     0
1002
}
1002
{
1000
MANEDIT
1070
     0
1002
}
1002
{
1000
NOSEL
1070
     0
1002
}
1002
{
1000
BEHIND
1070
     0
1002
}
1002
{
1000
OTHER
1070
     0
1002
}
1002
{
1000
REACTOR
1002
}
1001
GENIUS_GENOBJ-N-FIL_13
1002
{
1000
OWNER
1000
GEN
1002
}
  0
LINE
  5
787
330
1F
100
AcDbEntity
  8
AM_0
100
AcDbLine
 10
919.1168321237878
 20
535.6477291734639
 30
0.0
 11
919.1168321237894
 21
444.5516064959284
 31
0.0
1001
GENIUS_GENODEF_13
1002
{
1000
HIER
1070
     0
1002
}
1002
{
1000
MANEDIT
1070
     0
1002
}
1002
{
1000
NOSEL
1070
     0
1002
}
1002
{
1000
BEHIND
1070
     0
1002
}
1002
{
1000
REACTOR
1002
}
1001
GENIUS_GENOBJ-N-CEN_13
1002
{
1000
OWNER
1000
GEN
1002
}
  0
ARC
  5
788
330
1F
100
AcDbEntity
  8
AM_0
100
AcDbCircle
 10
864.6177264302282
 20
444.2393908619961
 30
0.0
 40
54.5
100
AcDbArc
 50
307.0114113866147
 51
0.3282336875164362
1001
GENIUS_GENOBJ-N-FIL_13
1002
{
1000
OWNER
1000
GEN
1002
}
1001
GENIUS_GENODEF_13
1002
{
1000
HIER
1070
     0
1002
}
1002
{
1000
MANEDIT
1070
     0
1002
}
1002
{
1000
NOSEL
1070
     0
1002
}
1002
{
1000
BEHIND
1070
     0
1002
}
1002
{
1000
OTHER
1070
     0
1002
}
1002
{
1000
REACTOR
1002
}
  0
LINE
  5
789
330
1F
100
AcDbEntity
  8
AM_6
100
AcDbLine
 10
742.1319358283843
 20
536.9077720982907
 30
0.0
 11
917.1168321237884
 21
536.9077720982907
 31
0.0
  0
LINE
  5
78A
330
1F
100
AcDbEntity
  8
AM_6
100
AcDbLine
 10
742.1325897959714
 20
545.5680261361345
 30
0.0
 11
917.1168321237884
 21
545.5680261361351
 31
0.0
  0
LINE
  5
78B
330
1F
100
AcDbEntity
  8
AM_4
100
AcDbLine
 10
917.9992753723729
 20
568.2699499247744
 30
0.0
 11
742.1343041016085
 21
568.2699499247749
 31
0.0
  0
DIMENSION
  5
78C
330
1F
100
AcDbEntity
  8
AM_5
100
AcDbDimension
  2
*D2
 10
919.1524424233673
 20
637.6427130335599
 30
0.0
 11
698.908799413684
 21
637.6427130335599
 31
0.0
 70
   160
  1
ø<>
 71
     5
 42
353.9999999999996
  3
AM_DIN
100
AcDbAlignedDimension
 13
565.1524424233675
 23
686.0186176167574
 33
0.0
 14
919.1524424233673
 24
686.0186176167574
 34
0.0
100
AcDbRotatedDimension
1001
ACAD
1000
DSTYLE
1002
{
1070
   140
1040
4.0
1070
    40
1040
1.5
1002
}
  0
DIMENSION
  5
78D
330
1F
100
AcDbEntity
  8
AM_5
100
AcDbDimension
  2
*D3
 10
550.3455158299957
 20
348.737899117213
 30
0.0
 11
550.3455158299956
 21
561.5292685272919
 31
0.0
 70
   160
  1
<> {}{\C2;%%p3}
 71
     5
 42
428.0000000000006
  3
AM_DIN
100
AcDbAlignedDimension
 13
742.1524424233674
 23
776.7378991172136
 33
0.0
 14
742.1177264302275
 24
348.737899117213
 34
0.0
 50
90.0
100
AcDbRotatedDimension
1001
GENIUS_GENDTOL_13
1000
TolPm
1000

1000
{$3%%p$P}
1040
256.0
1001
ACAD
1000
DSTYLE
1002
{
1070
   140
1040
4.0
1070
    40
1040
1.5
1070
    47
1040
3.0
1070
    48
1040
3.0
1002
}
  0
DIMENSION
  5
78E
330
1F
100
AcDbEntity
  8
AM_5
100
AcDbDimension
  2
*D4
 10
532.9837483425314
 20
776.7223788789038
 30
0.0
 11
532.9837483425311
 21
555.6036292559715
 31
0.0
 70
   160
  1
<> {}{\C2;%%p5}
 71
     5
 42
448.0359527316829
  3
AM_DIN
100
AcDbAlignedDimension
 13
569.6223992246899
 23
328.6864261472209
 33
0.0
 14
742.150045110054
 24
776.7223788789038
 34
0.0
 50
90.0
100
AcDbRotatedDimension
1001
ACAD
1000
DSTYLE
1002
{
1070
   140
1040
4.0
1070
    40
1040
1.5
1070
    47
1040
5.0
1070
    48
1040
5.0
1070
   271
1070
     0
1002
}
1001
GENIUS_GENDTOL_13
1000
TolPm
1000

1000
{$3%%p$P}
1040
448.0
  0
LINE
  5
78F
330
1F
100
AcDbEntity
  8
AM_0
100
AcDbLine
 10
565.1177264302266
 20
444.2393908619961
 30
0.0
 11
565.1168321237876
 21
459.2393908619969
 31
0.0
  0
LINE
  5
790
330
1F
100
AcDbEntity
  8
0
100
AcDbLine
 10
914.6177264302275
 20
328.6864261472209
 30
0.0
 11
889.3625492638021
 21
328.6864261472209
 31
0.0
  0
LINE
  5
791
330
1F
100
AcDbEntity
  8
0
100
AcDbLine
 10
914.6177264302275
 20
330.6864261472209
 30
0.0
 11
889.3625492638021
 21
330.6864261472209
 31
0.0
  0
LINE
  5
792
330
1F
100
AcDbEntity
  8
0
100
AcDbLine
 10
908.1177264302278
 20
330.6864261472209
 30
0.0
 11
908.1177264302278
 21
328.6864261472209
 31
0.0
  0
HATCH
  5
793
330
1F
100
AcDbEntity
  8
8
100
AcDbHatch
 10
0.0
 20
0.0
 30
0.0
210
0.0
220
0.0
230
1.0
  2
_U
 70
     0
 71
     0
 91
        1
 92
        1
 93
        4
 72
     1
 10
908.1177264302278
 20
330.6864261472209
 11
914.6177264302275
 21
330.6864261472209
 72
     1
 10
914.6177264302275
 20
330.6864261472209
 11
914.6177264302275
 21
328.6864261472209
 72
     1
 10
914.6177264302275
 20
328.6864261472209
 11
908.1177264302278
 21
328.6864261472209
 72
     1
 10
908.1177264302278
 20
328.6864261472209
 11
908.1177264302278
 21
330.6864261472209
 97
        0
 75
     0
 76
     0
 52
45.0
 41
1.0
 77
     0
 78
     1
 53
45.0
 43
-152.7395614229523
 44
-394.3069410917747
 45
-0.7071067811865475
 46
0.7071067811865476
 79
     0
 98
        1
 10
994.1606665736204
 20
212.5643506290849
1001
GENIUS_GENODEF_13
1002
{
1000
HIER
1070
     0
1002
}
1002
{
1000
MANEDIT
1070
     0
1002
}
1002
{
1000
NOSEL
1070
     0
1002
}
1002
{
1000
BEHIND
1070
     0
1002
}
1002
{
1000
REACTOR
1002
}
1001
GENIUS_GENOBJ-N-HTC_13
1002
{
1000
OWNER
1000
GEN
1002
}
1001
GENIUS_GENHATCH_13
1002
{
1000
DATA
1040
45.0
1042
2.5
1000
_U
1070
     0
1011
910.4719519712713
1021
329.4142752814537
1031
0.0
1002
}
1002
{
1000
UCS
1010
0.0
1020
0.0
1030
0.0
1010
1.0
1020
0.0
1030
0.0
1010
0.0
1020
1.0
1030
0.0
1002
}
  0
LINE
  5
794
330
1F
100
AcDbEntity
  8
0
100
AcDbLine
 10
914.6177264302275
 20
330.6864261472209
 30
0.0
 11
914.6177264302275
 21
328.6864261472209
 31
0.0
  0
LINE
  5
795
330
1F
100
AcDbEntity
  8
7A
100
AcDbLine
 10
835.0709980977786
 20
371.5892264500035
 30
0.0
 11
839.1966401383978
 21
359.1471603099535
 31
0.0
  0
LINE
  5
796
330
1F
100
AcDbEntity
  8
0
100
AcDbLine
 10
880.3748834510111
 20
335.2154025410344
 30
0.0
 11
878.427418160032
 21
372.3752539528101
 31
0.0
  0
LINE
  5
797
330
1F
100
AcDbEntity
  8
0
100
AcDbLine
 10
881.3133015069359
 20
355.523964564294
 30
0.0
 11
880.4246772295412
 21
372.4799258652959
 31
0.0
  0
LINE
  5
798
330
1F
100
AcDbEntity
  8
0
100
AcDbLine
 10
883.4152324889309
 20
353.6313774072708
 30
0.0
 11
882.4219362990502
 21
372.5845977777818
 31
0.0
  0
ARC
  5
799
330
1F
100
AcDbEntity
  8
0
100
AcDbCircle
 10
725.6251894905597
 20
679.4138761161373
 30
0.0
 40
332.0
100
AcDbArc
 50
288.3449107207239
 51
295.6871964587068
  0
ARC
  5
79A
330
1F
100
AcDbEntity
  8
0
100
AcDbCircle
 10
725.6251894905597
 20
679.4138761161373
 30
0.0
 40
334.0
100
AcDbArc
 50
288.3449107207239
 51
295.5706629913988
  0
ARC
  5
79B
330
1F
100
AcDbEntity
  8
0
100
AcDbCircle
 10
725.6251894905597
 20
679.4138761161373
 30
0.0
 40
336.0
100
AcDbArc
 50
288.8610958971564
 51
295.6871964587068
  0
HATCH
  5
79C
330
1F
100
AcDbEntity
  8
8
100
AcDbHatch
 10
0.0
 20
0.0
 30
0.0
210
0.0
220
0.0
230
1.0
  2
_U
 70
     0
 71
     0
 91
        1
 92
        1
 93
       24
 72
     2
 10
871.0316188428762
 20
379.74425337338
 40
1.000000000000013
 50
252.5224878140711
 51
349.7032435955267
 73
     0
 72
     2
 10
872.9994091600856
 20
380.1017464047784
 40
0.9999999999999918
 50
-169.7032435955265
 51
-86.88399937698756
 73
     1
 72
     2
 10
873.4342704862591
 20
372.1135741715953
 40
7.00000000000001
 50
266.8839993769873
 51
357.0
 73
     0
 72
     1
 10
880.4246772295412
 20
372.4799258652959
 11
881.3133015069359
 21
355.523964564294
 72
     2
 10
882.3119310416904
 20
355.576300520537
 40
0.9999999999999802
 50
-177.0000000000024
 51
-86.99999999999837
 73
     1
 72
     2
 10
882.4166029541764
 20
353.5790414510278
 40
0.9999999999999673
 50
267.0000000000008
 51
357.0000000000009
 73
     0
 72
     1
 10
883.4152324889306
 20
353.6313774072708
 11
884.3694015900291
 21
335.4247463660062
 72
     2
 10
889.3625492638021
 20
335.6864261472209
 40
5.000000000000015
 50
-176.9999999999993
 51
-90.00000000000012
 73
     1
 72
     1
 10
889.3625492638021
 20
330.6864261472209
 11
896.1177264302277
 21
330.6864261472207
 72
     1
 10
896.1177264302277
 20
330.6864261472209
 11
896.1177264302277
 21
328.6864261472209
 72
     1
 10
896.1177264302277
 20
328.6864261472209
 11
889.3625492638021
 21
328.6864261472209
 72
     2
 10
889.3625492638021
 20
335.6864261472209
 40
6.999999999999984
 50
449.9999999999998
 51
537.0000000000002
 73
     0
 72
     1
 10
882.3721425205201
 20
335.3200744535203
 11
881.5226453319075
 21
351.5294464252758
 72
     2
 10
880.524015797153
 20
351.4771104690329
 40
1.000000000000011
 50
3.000000000000702
 51
92.99999999999911
 73
     1
 72
     2
 10
880.419343884667
 20
353.4743695385419
 40
0.9999999999999971
 50
446.9999999999991
 51
537.0000000000008
 73
     0
 72
     1
 10
879.4207143499125
 20
353.4220335822991
 11
878.427418160032
 21
372.3752539528103
 72
     2
 10
873.4342704862593
 20
372.1135741715953
 40
4.999999999999995
 50
2.999999999999761
 51
103.0437746799477
 73
     1
 72
     2
 10
872.0800979703012
 20
377.9587616619181
 40
0.9999999999999944
 50
436.9562253200511
 51
518.5044600812893
 73
     0
 72
     2
 10
870.2192057807895
 20
377.2259040638719
 40
0.9999999999999914
 50
21.49553991871078
 51
115.5706629914002
 73
     1
 72
     2
 10
725.6251894905599
 20
679.4138761161373
 40
333.9999999999997
 50
424.4293370085996
 51
431.6248339521104
 73
     0
 72
     2
 10
833.2757469027693
 20
364.2942837566009
 40
3.0
 50
501.9108305259889
 51
521.6550892792723
 73
     0
 72
     1
 10
830.428209704255
 20
363.3500740854593
 11
830.1177264302278
 21
364.2864261472208
 72
     2
 10
725.6251894905597
 20
679.4138761161373
 40
331.9999999999998
 50
-71.65508927927198
 51
-64.31280354128727
 73
     1
 72
     2
 10
873.4342704862584
 20
372.1135741715951
 40
9.00000000000003
 50
244.31280354129
 51
252.5224878140737
 73
     0
 97
        0
 75
     0
 76
     0
 52
45.0
 41
5.0
 77
     0
 78
     1
 53
45.0
 43
994.1606665736204
 44
212.5643506290849
 45
-3.535533905932736
 46
3.535533905932736
 79
     0
 98
        1
 10
994.1606665736204
 20
212.5643506290849
1001
GENIUS_GENODEF_13
1002
{
1000
HIER
1070
     0
1002
}
1002
{
1000
MANEDIT
1070
     0
1002
}
1002
{
1000
NOSEL
1070
     0
1002
}
1002
{
1000
BEHIND
1070
     0
1002
}
1002
{
1000
REACTOR
1002
}
1001
GENIUS_GENOBJ-N-HTC_13
1002
{
1000
OWNER
1000
GEN
1002
}
1001
GENIUS_GENHATCH_13
1002
{
1000
DATA
1040
45.0
1042
2.5
1000
_U
1070
     0
1011
858.0471250340018
1021
373.9118077230685
1031
0.0
1002
}
1002
{
1000
UCS
1010
0.0
1020
0.0
1030
0.0
1010
1.0
1020
0.0
1030
0.0
1010
0.0
1020
1.0
1030
0.0
1002
}
  0
LINE
  5
79D
330
1F
100
AcDbEntity
  8
0
100
AcDbLine
 10
882.3721425205201
 20
335.3200744535203
 30
0.0
 11
881.5226453319075
 21
351.5294464252757
 31
0.0
  0
LINE
  5
79E
330
1F
100
AcDbEntity
  8
0
100
AcDbLine
 10
884.3694015900291
 20
335.4247463660061
 30
0.0
 11
883.4152324889306
 21
353.6313774072708
 31
0.0
  0
LINE
  5
79F
330
1F
100
AcDbEntity
  8
0
100
AcDbLine
 10
884.2561127531748
 20
339.586426147221
 30
0.0
 11
884.1512971946086
 21
339.586426147221
 31
0.0
  0
ARC
  5
7A0
330
1F
100
AcDbEntity
  8
0
100
AcDbCircle
 10
889.3625492638021
 20
335.6864261472209
 30
0.0
 40
3.0
100
AcDbArc
 50
182.9999999999991
 51
270.0
1001
GENIUS_GENODEF_13
1002
{
1000
HIER
1070
     0
1002
}
1002
{
1000
MANEDIT
1070
     0
1002
}
1002
{
1000
NOSEL
1070
     0
1002
}
1002
{
1000
BEHIND
1070
     0
1002
}
1002
{
1000
REACTOR
1002
}
1001
GENIUS_GENOBJ-N-FIL_13
1002
{
1000
OWNER
1000
GEN
1002
}
  0
LINE
  5
7A1
330
1F
100
AcDbEntity
  8
0
100
AcDbLine
 10
891.6177264302277
 20
332.6864261472209
 30
0.0
 11
889.3625492638021
 21
332.6864261472209
 31
0.0
  0
LINE
  5
7A2
330
1F
100
AcDbEntity
  8
0
100
AcDbLine
 10
886.3666606595383
 20
335.529418278492
 30
0.0
 11
886.3581873812499
 21
335.6910980597066
 31
0.0
  0
LINE
  5
7A3
330
1F
100
AcDbEntity
  8
0
100
AcDbLine
 10
886.3666606595383
 20
335.529418278492
 30
0.0
 11
886.2533718226838
 21
337.6910980597066
 31
0.0
  0
ARC
  5
7A4
330
1F
100
AcDbEntity
  8
0
100
AcDbCircle
 10
884.2561127531748
 20
337.586426147221
 30
0.0
 40
2.0
100
AcDbArc
 50
3.000000000002342
 51
90.0
1001
GENIUS_GENODEF_13
1002
{
1000
HIER
1070
     0
1002
}
1002
{
1000
MANEDIT
1070
     0
1002
}
1002
{
1000
NOSEL
1070
     0
1002
}
1002
{
1000
BEHIND
1070
     0
1002
}
1002
{
1000
REACTOR
1002
}
1001
GENIUS_GENOBJ-N-FIL_13
1002
{
1000
OWNER
1000
GEN
1002
}
  0
ARC
  5
7A5
330
1F
100
AcDbEntity
  8
0
100
AcDbCircle
 10
880.524015797153
 20
351.4771104690329
 30
0.0
 40
1.0
100
AcDbArc
 50
2.99999999999909
 51
93.00000000000558
1001
GENIUS_GENODEF_13
1002
{
1000
HIER
1070
     0
1002
}
1002
{
1000
MANEDIT
1070
     0
1002
}
1002
{
1000
NOSEL
1070
     0
1002
}
1002
{
1000
BEHIND
1070
     0
1002
}
1002
{
1000
REACTOR
1002
}
1001
GENIUS_GENOBJ-N-FIL_13
1002
{
1000
OWNER
1000
GEN
1002
}
  0
ARC
  5
7A6
330
1F
100
AcDbEntity
  8
0
100
AcDbCircle
 10
880.419343884667
 20
353.4743695385419
 30
0.0
 40
1.0
100
AcDbArc
 50
182.9999999999991
 51
273.0000000000056
1001
GENIUS_GENODEF_13
1002
{
1000
HIER
1070
     0
1002
}
1002
{
1000
MANEDIT
1070
     0
1002
}
1002
{
1000
NOSEL
1070
     0
1002
}
1002
{
1000
BEHIND
1070
     0
1002
}
1002
{
1000
REACTOR
1002
}
1001
GENIUS_GENOBJ-N-FIL_13
1002
{
1000
OWNER
1000
GEN
1002
}
  0
ARC
  5
7A7
330
1F
100
AcDbEntity
  8
0
100
AcDbCircle
 10
882.3119310416903
 20
355.576300520537
 30
0.0
 40
1.0
100
AcDbArc
 50
182.9999999999958
 51
273.0000000000056
1001
GENIUS_GENODEF_13
1002
{
1000
HIER
1070
     0
1002
}
1002
{
1000
MANEDIT
1070
     0
1002
}
1002
{
1000
NOSEL
1070
     0
1002
}
1002
{
1000
BEHIND
1070
     0
1002
}
1002
{
1000
REACTOR
1002
}
1001
GENIUS_GENOBJ-N-FIL_13
1002
{
1000
OWNER
1000
GEN
1002
}
  0
ARC
  5
7A8
330
1F
100
AcDbEntity
  8
0
100
AcDbCircle
 10
882.4166029541764
 20
353.5790414510278
 30
0.0
 40
1.0
100
AcDbArc
 50
2.99999999999909
 51
93.00000000000558
1001
GENIUS_GENODEF_13
1002
{
1000
HIER
1070
     0
1002
}
1002
{
1000
MANEDIT
1070
     0
1002
}
1002
{
1000
NOSEL
1070
     0
1002
}
1002
{
1000
BEHIND
1070
     0
1002
}
1002
{
1000
REACTOR
1002
}
1001
GENIUS_GENOBJ-N-FIL_13
1002
{
1000
OWNER
1000
GEN
1002
}
  0
LINE
  5
7A9
330
1F
100
AcDbEntity
  8
0
100
AcDbLine
 10
896.1177264302277
 20
330.6864261472209
 30
0.0
 11
896.1177264302277
 21
328.6864261472209
 31
0.0
  0
LINE
  5
7AA
330
1F
100
AcDbEntity
  8
7A
100
AcDbLine
 10
902.1177264302275
 20
336.3582662584932
 30
0.0
 11
902.1177264302275
 21
323.9460946247833
 31
0.0
  0
ARC
  5
7AB
330
1F
100
AcDbEntity
  8
0
100
AcDbCircle
 10
891.6177264302277
 20
330.6864261472209
 30
0.0
 40
2.0
100
AcDbArc
 50
0.0
 51
90.0
1001
GENIUS_GENODEF_13
1002
{
1000
HIER
1070
     0
1002
}
1002
{
1000
MANEDIT
1070
     0
1002
}
1002
{
1000
NOSEL
1070
     0
1002
}
1002
{
1000
BEHIND
1070
     0
1002
}
1002
{
1000
REACTOR
1002
}
1001
GENIUS_GENOBJ-N-FIL_13
1002
{
1000
OWNER
1000
GEN
1002
}
  0
ARC
  5
7AC
330
1F
100
AcDbEntity
  8
0
100
AcDbCircle
 10
889.3625492638021
 20
335.6864261472209
 30
0.0
 40
5.0
100
AcDbArc
 50
182.9999999999991
 51
270.0
1001
GENIUS_GENODEF_13
1002
{
1000
HIER
1070
     0
1002
}
1002
{
1000
MANEDIT
1070
     0
1002
}
1002
{
1000
NOSEL
1070
     0
1002
}
1002
{
1000
BEHIND
1070
     0
1002
}
1002
{
1000
REACTOR
1002
}
1001
GENIUS_GENOBJ-N-FIL_13
1002
{
1000
OWNER
1000
GEN
1002
}
  0
ARC
  5
7AD
330
1F
100
AcDbEntity
  8
0
100
AcDbCircle
 10
889.3625492638021
 20
335.6864261472209
 30
0.0
 40
7.0
100
AcDbArc
 50
182.9999999999991
 51
270.0
1001
GENIUS_GENODEF_13
1002
{
1000
HIER
1070
     0
1002
}
1002
{
1000
MANEDIT
1070
     0
1002
}
1002
{
1000
NOSEL
1070
     0
1002
}
1002
{
1000
BEHIND
1070
     0
1002
}
1002
{
1000
REACTOR
1002
}
1001
GENIUS_GENOBJ-N-FIL_13
1002
{
1000
OWNER
1000
GEN
1002
}
  0
ARC
  5
7AE
330
1F
100
AcDbEntity
  8
0
100
AcDbCircle
 10
887.5350831759387
 20
335.9714051198301
 30
0.0
 40
7.2
100
AcDbArc
 50
186.0271871956044
 51
274.7325186121445
1001
GENIUS_GENODEF_13
1002
{
1000
HIER
1070
     0
1002
}
1002
{
1000
MANEDIT
1070
     0
1002
}
1002
{
1000
NOSEL
1070
     0
1002
}
1002
{
1000
BEHIND
1070
     0
1002
}
1002
{
1000
REACTOR
1002
}
1001
GENIUS_GENOBJ-N-FIL_13
1002
{
1000
OWNER
1000
GEN
1002
}
  0
ARC
  5
7AF
330
1F
100
AcDbEntity
  8
0
100
AcDbCircle
 10
836.9905963665113
 20
365.8001229876216
 30
0.0
 40
1.5
100
AcDbArc
 50
51.89038266559215
 51
167.2098957212831
  0
ARC
  5
7B0
330
1F
100
AcDbEntity
  8
0
100
AcDbCircle
 10
833.2757469027693
 20
364.2942837566009
 30
0.0
 40
3.0
100
AcDbArc
 50
198.3449107207275
 51
288.8610958971564
1001
GENIUS_GENODEF_13
1002
{
1000
HIER
1070
     0
1002
}
1002
{
1000
MANEDIT
1070
     0
1002
}
1002
{
1000
NOSEL
1070
     0
1002
}
1002
{
1000
BEHIND
1070
     0
1002
}
1002
{
1000
REACTOR
1002
}
1001
GENIUS_GENOBJ-N-FIL_13
1002
{
1000
OWNER
1000
GEN
1002
}
  0
LINE
  5
7B1
330
1F
100
AcDbEntity
  8
0
100
AcDbLine
 10
830.428209704255
 20
363.3500740854593
 30
0.0
 11
830.1177264302278
 21
364.2864261472208
 31
0.0
  0
ARC
  5
7B2
330
1F
100
AcDbEntity
  8
0
100
AcDbCircle
 10
872.9994091600856
 20
380.1017464047784
 30
0.0
 40
1.0
100
AcDbArc
 50
190.29675640447
 51
273.1160006230132
1001
GENIUS_GENODEF_13
1002
{
1000
HIER
1070
     0
1002
}
1002
{
1000
MANEDIT
1070
     0
1002
}
1002
{
1000
NOSEL
1070
     0
1002
}
1002
{
1000
BEHIND
1070
     0
1002
}
1002
{
1000
REACTOR
1002
}
1001
GENIUS_GENOBJ-N-FIL_13
1002
{
1000
OWNER
1000
GEN
1002
}
  0
ARC
  5
7B3
330
1F
100
AcDbEntity
  8
0
100
AcDbCircle
 10
870.2192057807895
 20
377.2259040638719
 30
0.0
 40
1.0
100
AcDbArc
 50
21.49553991870864
 51
115.5706629913988
1001
GENIUS_GENODEF_13
1002
{
1000
HIER
1070
     0
1002
}
1002
{
1000
MANEDIT
1070
     0
1002
}
1002
{
1000
NOSEL
1070
     0
1002
}
1002
{
1000
BEHIND
1070
     0
1002
}
1002
{
1000
REACTOR
1002
}
1001
GENIUS_GENOBJ-N-FIL_13
1002
{
1000
OWNER
1000
GEN
1002
}
  0
ARC
  5
7B4
330
1F
100
AcDbEntity
  8
0
100
AcDbCircle
 10
871.0316188428762
 20
379.74425337338
 30
0.0
 40
1.0
100
AcDbArc
 50
10.29675640447323
 51
107.4775121859273
1001
GENIUS_GENODEF_13
1002
{
1000
HIER
1070
     0
1002
}
1002
{
1000
MANEDIT
1070
     0
1002
}
1002
{
1000
NOSEL
1070
     0
1002
}
1002
{
1000
BEHIND
1070
     0
1002
}
1002
{
1000
REACTOR
1002
}
1001
GENIUS_GENOBJ-N-FIL_13
1002
{
1000
OWNER
1000
GEN
1002
}
  0
ARC
  5
7B5
330
1F
100
AcDbEntity
  8
0
100
AcDbCircle
 10
873.4342704862593
 20
372.1135741715953
 30
0.0
 40
5.0
100
AcDbArc
 50
2.99999999999909
 51
115.6871964587177
1001
GENIUS_GENODEF_13
1002
{
1000
HIER
1070
     0
1002
}
1002
{
1000
MANEDIT
1070
     0
1002
}
1002
{
1000
NOSEL
1070
     0
1002
}
1002
{
1000
BEHIND
1070
     0
1002
}
1002
{
1000
REACTOR
1002
}
1001
GENIUS_GENOBJ-N-FIL_13
1002
{
1000
OWNER
1000
GEN
1002
}
  0
ARC
  5
7B6
330
1F
100
AcDbEntity
  8
0
100
AcDbCircle
 10
873.4342704862591
 20
372.1135741715953
 30
0.0
 40
7.0
100
AcDbArc
 50
3.000000000002342
 51
93.11600062301323
1001
GENIUS_GENODEF_13
1002
{
1000
HIER
1070
     0
1002
}
1002
{
1000
MANEDIT
1070
     0
1002
}
1002
{
1000
NOSEL
1070
     0
1002
}
1002
{
1000
BEHIND
1070
     0
1002
}
1002
{
1000
REACTOR
1002
}
1001
GENIUS_GENOBJ-N-FIL_13
1002
{
1000
OWNER
1000
GEN
1002
}
  0
ARC
  5
7B7
330
1F
100
AcDbEntity
  8
0
100
AcDbCircle
 10
873.4342704862591
 20
372.1135741715953
 30
0.0
 40
9.0
100
AcDbArc
 50
3.000000000002342
 51
115.6871964587067
1001
GENIUS_GENODEF_13
1002
{
1000
HIER
1070
     0
1002
}
1002
{
1000
MANEDIT
1070
     0
1002
}
1002
{
1000
NOSEL
1070
     0
1002
}
1002
{
1000
BEHIND
1070
     0
1002
}
1002
{
1000
REACTOR
1002
}
1001
GENIUS_GENOBJ-N-FIL_13
1002
{
1000
OWNER
1000
GEN
1002
}
  0
ARC
  5
7B8
330
1F
100
AcDbEntity
  8
0
100
AcDbCircle
 10
872.0800979703012
 20
377.9587616619181
 30
0.0
 40
1.0
100
AcDbArc
 50
201.4955399187086
 51
283.0437746799445
1001
GENIUS_GENODEF_13
1002
{
1000
HIER
1070
     0
1002
}
1002
{
1000
MANEDIT
1070
     0
1002
}
1002
{
1000
NOSEL
1070
     0
1002
}
1002
{
1000
BEHIND
1070
     0
1002
}
1002
{
1000
REACTOR
1002
}
1001
GENIUS_GENOBJ-N-FIL_13
1002
{
1000
OWNER
1000
GEN
1002
}
  0
LINE
  5
7B9
330
1F
100
AcDbEntity
  8
7A
100
AcDbLine
 10
861.7290195967095
 20
383.3348084769184
 30
0.0
 11
865.7944793143487
 21
371.0742395282412
 31
0.0
  0
ARC
  5
7BA
330
1F
100
AcDbEntity
  8
0
100
AcDbCircle
 10
863.9253303598021
 20
376.7111985007128
 30
0.0
 40
1.5
100
AcDbArc
 50
56.89516634136921
 51
172.2146793970668
  0
LINE
  5
7BB
330
1F
100
AcDbEntity
  8
AM_0
100
AcDbLine
 10
919.1168321237892
 20
449.6864261472201
 30
0.0
 11
919.1168321237892
 21
467.6864261472198
 31
0.0
  0
LINE
  5
7BC
330
1F
100
AcDbEntity
  8
AM_0
100
AcDbLine
 10
941.1168321237893
 20
469.8841315279095
 30
0.0
 11
941.1168321237893
 21
447.488720766532
 31
0.0
  0
LINE
  5
7BD
330
1F
100
AcDbEntity
  8
AM_0
100
AcDbLine
 10
919.1168321237892
 20
472.5902799265599
 30
0.0
 11
919.1168321237892
 21
444.7825723678816
 31
0.0
  0
LINE
  5
7BE
330
1F
100
AcDbEntity
  8
AM_0
100
AcDbLine
 10
919.1168321237892
 20
449.1364261472209
 30
0.0
 11
941.1168321237893
 21
449.1364261472209
 31
0.0
  0
LINE
  5
7BF
330
1F
100
AcDbEntity
  8
AM_0
100
AcDbLine
 10
939.8403772273031
 20
446.2293286320331
 30
0.0
 11
924.2453757311841
 21
444.7825723678816
 31
0.0
  0
LINE
  5
7C0
330
1F
100
AcDbEntity
  8
AM_4
100
AcDbLine
 10
927.5252955578043
 20
446.2393529817337
 30
0.0
 11
941.1168321237893
 21
447.488720766532
 31
0.0
  0
LINE
  5
7C1
330
1F
100
AcDbEntity
  8
AM_0
100
AcDbLine
 10
941.1168321237893
 20
447.488720766532
 30
0.0
 11
939.8403772273031
 21
446.2293286320331
 31
0.0
  0
LINE
  5
7C2
330
1F
100
AcDbEntity
  8
AM_0
100
AcDbLine
 10
924.2453757311841
 20
444.7825723678816
 30
0.0
 11
919.1168321237892
 21
444.7825723678816
 31
0.0
  0
LINE
  5
7C3
330
1F
100
AcDbEntity
  8
AM_4
100
AcDbLine
 10
927.5252955578043
 20
446.2393529817337
 30
0.0
 11
925.1581262059744
 21
444.8672486962128
 31
0.0
  0
LINE
  5
7C4
330
1F
100
AcDbEntity
  8
AM_4
100
AcDbLine
 10
927.5252955578043
 20
471.133499312708
 30
0.0
 11
941.1168321237893
 21
469.8841315279095
 31
0.0
  0
LINE
  5
7C5
330
1F
100
AcDbEntity
  8
AM_0
100
AcDbLine
 10
939.8403772273031
 20
471.1435236624084
 30
0.0
 11
924.2453757311841
 21
472.5902799265599
 31
0.0
  0
LWPOLYLINE
  5
7C6
330
1F
100
AcDbEntity
  8
AM_0
100
AcDbPolyline
 90
        2
 70
     0
 43
0.0
 10
919.1168321237892
 20
468.2364261472208
 10
941.1168321237893
 20
468.2364261472208
  0
LINE
  5
7C7
330
1F
100
AcDbEntity
  8
AM_0
100
AcDbLine
 10
941.1168321237893
 20
469.8841315279095
 30
0.0
 11
939.8403772273031
 21
471.1435236624084
 31
0.0
  0
LINE
  5
7C8
330
1F
100
AcDbEntity
  8
AM_0
100
AcDbLine
 10
924.2453757311841
 20
472.5902799265599
 30
0.0
 11
919.1168321237892
 21
472.5902799265599
 31
0.0
  0
LINE
  5
7C9
330
1F
100
AcDbEntity
  8
AM_4
100
AcDbLine
 10
927.5252955578043
 20
471.133499312708
 30
0.0
 11
925.1581262059744
 21
472.5056035982289
 31
0.0
  0
DIMENSION
  5
7CA
330
1F
100
AcDbEntity
  8
AM_5
100
AcDbDimension
  2
*D5
 10
955.1975516006395
 20
471.1435236624082
 30
0.0
 11
955.1975516006395
 21
419.4978796575847
 31
0.0
 70
   160
  1
EN 10226-1\PR¾
 71
     5
 42
24.91419503037514
  3
AM_DIN
100
AcDbAlignedDimension
 13
939.8403772273031
 23
446.2293286320331
 33
0.0
 14
939.8403772273031
 24
471.1435236624084
 34
0.0
 50
90.0
100
AcDbRotatedDimension
1001
ACAD
1000
DSTYLE
1002
{
1070
   140
1040
4.0
1070
    40
1040
1.5
1002
}
  0
LINE
  5
7CB
330
1F
100
AcDbEntity
  8
0
100
AcDbLine
 10
569.6223992246903
 20
328.6864261472209
 30
0.0
 11
594.877576391116
 21
328.6864261472209
 31
0.0
  0
LINE
  5
7CC
330
1F
100
AcDbEntity
  8
0
100
AcDbLine
 10
569.6223992246903
 20
330.6864261472209
 30
0.0
 11
594.877576391116
 21
330.6864261472209
 31
0.0
  0
LINE
  5
7CD
330
1F
100
AcDbEntity
  8
0
100
AcDbLine
 10
576.1223992246903
 20
330.6864261472209
 30
0.0
 11
576.1223992246903
 21
328.6864261472209
 31
0.0
  0
HATCH
  5
7CE
330
1F
100
AcDbEntity
  8
8
100
AcDbHatch
 10
0.0
 20
0.0
 30
0.0
210
0.0
220
0.0
230
1.0
  2
_U
 70
     0
 71
     0
 91
        1
 92
        1
 93
        4
 72
     1
 10
576.1223992246899
 20
330.6864261472209
 11
569.6223992246899
 21
330.6864261472209
 72
     1
 10
569.6223992246899
 20
330.6864261472209
 11
569.6223992246899
 21
328.6864261472209
 72
     1
 10
569.6223992246899
 20
328.6864261472209
 11
576.1223992246899
 21
328.6864261472209
 72
     1
 10
576.1223992246899
 20
328.6864261472209
 11
576.1223992246899
 21
330.6864261472209
 97
        0
 75
     0
 76
     0
 52
45.0
 41
1.0
 77
     0
 78
     1
 53
135.0
 43
1636.97968707787
 44
-394.3069410917747
 45
0.7071067811865475
 46
0.7071067811865476
 79
     0
 98
        1
 10
490.0794590812974
 20
212.5643506290849
1001
GENIUS_GENODEF_13
1002
{
1000
HIER
1070
     0
1002
}
1002
{
1000
MANEDIT
1070
     0
1002
}
1002
{
1000
NOSEL
1070
     0
1002
}
1002
{
1000
BEHIND
1070
     0
1002
}
1002
{
1000
REACTOR
1002
}
1001
GENIUS_GENOBJ-N-HTC_13
1002
{
1000
OWNER
1000
GEN
1002
}
1001
GENIUS_GENHATCH_13
1002
{
1000
DATA
1040
45.0
1042
-2.5
1000
_U
1070
     0
1011
573.7681736836466
1021
329.4142752814537
1031
0.0
1002
}
1002
{
1000
UCS
1010
0.0
1020
0.0
1030
0.0
1010
1.0
1020
0.0
1030
0.0
1010
0.0
1020
1.0
1030
0.0
1002
}
  0
LINE
  5
7CF
330
1F
100
AcDbEntity
  8
0
100
AcDbLine
 10
569.6223992246903
 20
330.6864261472209
 30
0.0
 11
569.6223992246903
 21
328.6864261472209
 31
0.0
  0
LINE
  5
7D0
330
1F
100
AcDbEntity
  8
7A
100
AcDbLine
 10
649.1691275571395
 20
371.5892264500035
 30
0.0
 11
645.0434855165201
 21
359.1471603099535
 31
0.0
  0
LINE
  5
7D1
330
1F
100
AcDbEntity
  8
0
100
AcDbLine
 10
603.865242203907
 20
335.2154025410344
 30
0.0
 11
605.8127074948859
 21
372.3752539528101
 31
0.0
  0
LINE
  5
7D2
330
1F
100
AcDbEntity
  8
0
100
AcDbLine
 10
602.9268241479818
 20
355.523964564294
 30
0.0
 11
603.8154484253766
 21
372.4799258652959
 31
0.0
  0
LINE
  5
7D3
330
1F
100
AcDbEntity
  8
0
100
AcDbLine
 10
600.8248931659871
 20
353.6313774072708
 30
0.0
 11
601.8181893558678
 21
372.5845977777818
 31
0.0
  0
ARC
  5
7D4
330
1F
100
AcDbEntity
  8
0
100
AcDbCircle
 10
758.6149361643581
 20
679.4138761161373
 30
0.0
 40
332.0
100
AcDbArc
 50
244.3128035412932
 51
251.6550892792761
  0
ARC
  5
7D5
330
1F
100
AcDbEntity
  8
0
100
AcDbCircle
 10
758.6149361643581
 20
679.4138761161373
 30
0.0
 40
334.0
100
AcDbArc
 50
244.4293370086012
 51
251.6550892792761
  0
ARC
  5
7D6
330
1F
100
AcDbEntity
  8
0
100
AcDbCircle
 10
758.6149361643581
 20
679.4138761161373
 30
0.0
 40
336.0
100
AcDbArc
 50
244.3128035412932
 51
251.1389041028436
  0
HATCH
  5
7D7
330
1F
100
AcDbEntity
  8
8
100
AcDbHatch
 10
0.0
 20
0.0
 30
0.0
210
0.0
220
0.0
230
1.0
  2
_U
 70
     0
 71
     0
 91
        1
 92
        1
 93
       24
 72
     2
 10
613.2085068120414
 20
379.74425337338
 40
1.000000000000013
 50
432.5224878140709
 51
529.7032435955267
 73
     1
 72
     2
 10
611.2407164948322
 20
380.1017464047784
 40
0.9999999999999918
 50
-349.7032435955265
 51
-266.8839993769875
 73
     0
 72
     2
 10
610.8058551686588
 20
372.1135741715953
 40
7.00000000000001
 50
446.8839993769872
 51
537.0
 73
     1
 72
     1
 10
603.8154484253766
 20
372.4799258652959
 11
602.9268241479818
 21
355.523964564294
 72
     2
 10
601.9281946132273
 20
355.576300520537
 40
0.9999999999999802
 50
-357.0000000000025
 51
-266.9999999999983
 73
     0
 72
     2
 10
601.8235227007415
 20
353.5790414510278
 40
0.9999999999999673
 50
447.0000000000006
 51
537.0000000000008
 73
     1
 72
     1
 10
600.8248931659871
 20
353.6313774072708
 11
599.8707240648887
 21
335.4247463660061
 72
     2
 10
594.8775763911156
 20
335.6864261472209
 40
5.000000000000015
 50
-356.9999999999993
 51
-270.0000000000001
 73
     0
 72
     1
 10
594.8775763911156
 20
330.6864261472209
 11
588.12239922469
 21
330.6864261472209
 72
     1
 10
588.12239922469
 20
330.6864261472209
 11
588.12239922469
 21
328.6864261472209
 72
     1
 10
588.12239922469
 20
328.6864261472209
 11
594.8775763911156
 21
328.6864261472209
 72
     2
 10
594.8775763911156
 20
335.6864261472209
 40
6.999999999999984
 50
629.9999999999998
 51
717.0000000000002
 73
     1
 72
     1
 10
601.8679831343977
 20
335.3200744535203
 11
602.7174803230102
 21
351.5294464252759
 72
     2
 10
603.7161098577647
 20
351.4771104690329
 40
1.000000000000011
 50
-176.9999999999993
 51
-87.00000000000086
 73
     0
 72
     2
 10
603.8207817702507
 20
353.4743695385419
 40
0.9999999999999971
 50
626.9999999999993
 51
717.0000000000007
 73
     1
 72
     1
 10
604.8194113050052
 20
353.4220335822991
 11
605.8127074948859
 21
372.3752539528103
 72
     2
 10
610.8058551686585
 20
372.1135741715953
 40
4.999999999999995
 50
-177.0000000000002
 51
-76.95622532005228
 73
     0
 72
     2
 10
612.1600276846166
 20
377.9587616619181
 40
0.9999999999999944
 50
616.9562253200511
 51
698.5044600812893
 73
     1
 72
     2
 10
614.0209198741282
 20
377.2259040638719
 40
0.9999999999999914
 50
-158.5044600812892
 51
-64.42933700859974
 73
     0
 72
     2
 10
758.6149361643581
 20
679.4138761161373
 40
333.9999999999997
 50
604.4293370085996
 51
611.6248339521105
 73
     1
 72
     2
 10
650.9643787521484
 20
364.2942837566009
 40
3.0
 50
681.9108305259889
 51
701.6550892792723
 73
     1
 72
     1
 10
653.8119159506627
 20
363.3500740854593
 11
654.1223992246901
 21
364.2864261472208
 72
     2
 10
758.6149361643584
 20
679.4138761161373
 40
331.9999999999998
 50
-251.6550892792719
 51
-244.3128035412873
 73
     0
 72
     2
 10
610.8058551686593
 20
372.1135741715951
 40
9.00000000000003
 50
424.3128035412898
 51
432.5224878140736
 73
     1
 97
        0
 75
     0
 76
     0
 52
45.0
 41
5.0
 77
     0
 78
     1
 53
135.0
 43
490.0794590812974
 44
212.5643506290849
 45
3.535533905932736
 46
3.535533905932736
 79
     0
 98
        1
 10
490.0794590812974
 20
212.5643506290849
1001
GENIUS_GENODEF_13
1002
{
1000
HIER
1070
     0
1002
}
1002
{
1000
MANEDIT
1070
     0
1002
}
1002
{
1000
NOSEL
1070
     0
1002
}
1002
{
1000
BEHIND
1070
     0
1002
}
1002
{
1000
REACTOR
1002
}
1001
GENIUS_GENOBJ-N-HTC_13
1002
{
1000
OWNER
1000
GEN
1002
}
1001
GENIUS_GENHATCH_13
1002
{
1000
DATA
1040
45.0
1042
-2.5
1000
_U
1070
     0
1011
626.1930006209161
1021
373.9118077230685
1031
0.0
1002
}
1002
{
1000
UCS
1010
0.0
1020
0.0
1030
0.0
1010
1.0
1020
0.0
1030
0.0
1010
0.0
1020
1.0
1030
0.0
1002
}
  0
LINE
  5
7D8
330
1F
100
AcDbEntity
  8
0
100
AcDbLine
 10
601.8679831343977
 20
335.3200744535203
 30
0.0
 11
602.7174803230102
 21
351.5294464252757
 31
0.0
  0
LINE
  5
7D9
330
1F
100
AcDbEntity
  8
0
100
AcDbLine
 10
599.8707240648889
 20
335.4247463660061
 30
0.0
 11
600.8248931659871
 21
353.6313774072708
 31
0.0
  0
LINE
  5
7DA
330
1F
100
AcDbEntity
  8
0
100
AcDbLine
 10
599.9840129017432
 20
339.586426147221
 30
0.0
 11
600.0888284603095
 21
339.586426147221
 31
0.0
  0
ARC
  5
7DB
330
1F
100
AcDbEntity
  8
0
100
AcDbCircle
 10
594.877576391116
 20
335.6864261472209
 30
0.0
 40
3.0
100
AcDbArc
 50
270.0
 51
357.0000000000009
1001
GENIUS_GENODEF_13
1002
{
1000
HIER
1070
     0
1002
}
1002
{
1000
MANEDIT
1070
     0
1002
}
1002
{
1000
NOSEL
1070
     0
1002
}
1002
{
1000
BEHIND
1070
     0
1002
}
1002
{
1000
REACTOR
1002
}
1001
GENIUS_GENOBJ-N-FIL_13
1002
{
1000
OWNER
1000
GEN
1002
}
  0
LINE
  5
7DC
330
1F
100
AcDbEntity
  8
0
100
AcDbLine
 10
592.6223992246901
 20
332.6864261472209
 30
0.0
 11
594.877576391116
 21
332.6864261472209
 31
0.0
  0
LINE
  5
7DD
330
1F
100
AcDbEntity
  8
0
100
AcDbLine
 10
597.8734649953795
 20
335.529418278492
 30
0.0
 11
597.8819382736681
 21
335.6910980597066
 31
0.0
  0
LINE
  5
7DE
330
1F
100
AcDbEntity
  8
0
100
AcDbLine
 10
597.8734649953795
 20
335.529418278492
 30
0.0
 11
597.9867538322339
 21
337.6910980597066
 31
0.0
  0
ARC
  5
7DF
330
1F
100
AcDbEntity
  8
0
100
AcDbCircle
 10
599.9840129017432
 20
337.586426147221
 30
0.0
 40
2.0
100
AcDbArc
 50
90.0
 51
176.9999999999976
1001
GENIUS_GENODEF_13
1002
{
1000
HIER
1070
     0
1002
}
1002
{
1000
MANEDIT
1070
     0
1002
}
1002
{
1000
NOSEL
1070
     0
1002
}
1002
{
1000
BEHIND
1070
     0
1002
}
1002
{
1000
REACTOR
1002
}
1001
GENIUS_GENOBJ-N-FIL_13
1002
{
1000
OWNER
1000
GEN
1002
}
  0
ARC
  5
7E0
330
1F
100
AcDbEntity
  8
0
100
AcDbCircle
 10
603.7161098577651
 20
351.4771104690329
 30
0.0
 40
1.0
100
AcDbArc
 50
86.99999999999441
 51
177.0000000000009
1001
GENIUS_GENODEF_13
1002
{
1000
HIER
1070
     0
1002
}
1002
{
1000
MANEDIT
1070
     0
1002
}
1002
{
1000
NOSEL
1070
     0
1002
}
1002
{
1000
BEHIND
1070
     0
1002
}
1002
{
1000
REACTOR
1002
}
1001
GENIUS_GENOBJ-N-FIL_13
1002
{
1000
OWNER
1000
GEN
1002
}
  0
ARC
  5
7E1
330
1F
100
AcDbEntity
  8
0
100
AcDbCircle
 10
603.8207817702507
 20
353.4743695385419
 30
0.0
 40
1.0
100
AcDbArc
 50
266.9999999999944
 51
357.0000000000009
1001
GENIUS_GENODEF_13
1002
{
1000
HIER
1070
     0
1002
}
1002
{
1000
MANEDIT
1070
     0
1002
}
1002
{
1000
NOSEL
1070
     0
1002
}
1002
{
1000
BEHIND
1070
     0
1002
}
1002
{
1000
REACTOR
1002
}
1001
GENIUS_GENOBJ-N-FIL_13
1002
{
1000
OWNER
1000
GEN
1002
}
  0
ARC
  5
7E2
330
1F
100
AcDbEntity
  8
0
100
AcDbCircle
 10
601.9281946132274
 20
355.576300520537
 30
0.0
 40
1.0
100
AcDbArc
 50
266.9999999999944
 51
357.0000000000042
1001
GENIUS_GENODEF_13
1002
{
1000
HIER
1070
     0
1002
}
1002
{
1000
MANEDIT
1070
     0
1002
}
1002
{
1000
NOSEL
1070
     0
1002
}
1002
{
1000
BEHIND
1070
     0
1002
}
1002
{
1000
REACTOR
1002
}
1001
GENIUS_GENOBJ-N-FIL_13
1002
{
1000
OWNER
1000
GEN
1002
}
  0
ARC
  5
7E3
330
1F
100
AcDbEntity
  8
0
100
AcDbCircle
 10
601.8235227007415
 20
353.5790414510278
 30
0.0
 40
1.0
100
AcDbArc
 50
86.99999999999441
 51
177.0000000000009
1001
GENIUS_GENODEF_13
1002
{
1000
HIER
1070
     0
1002
}
1002
{
1000
MANEDIT
1070
     0
1002
}
1002
{
1000
NOSEL
1070
     0
1002
}
1002
{
1000
BEHIND
1070
     0
1002
}
1002
{
1000
REACTOR
1002
}
1001
GENIUS_GENOBJ-N-FIL_13
1002
{
1000
OWNER
1000
GEN
1002
}
  0
LINE
  5
7E4
330
1F
100
AcDbEntity
  8
0
100
AcDbLine
 10
588.1223992246901
 20
330.6864261472209
 30
0.0
 11
588.1223992246901
 21
328.6864261472209
 31
0.0
  0
LINE
  5
7E5
330
1F
100
AcDbEntity
  8
7A
100
AcDbLine
 10
582.1223992246903
 20
336.3582662584932
 30
0.0
 11
582.1223992246903
 21
323.9460946247833
 31
0.0
  0
ARC
  5
7E6
330
1F
100
AcDbEntity
  8
0
100
AcDbCircle
 10
592.6223992246901
 20
330.6864261472209
 30
0.0
 40
2.0
100
AcDbArc
 50
90.0
 51
180.0
1001
GENIUS_GENODEF_13
1002
{
1000
HIER
1070
     0
1002
}
1002
{
1000
MANEDIT
1070
     0
1002
}
1002
{
1000
NOSEL
1070
     0
1002
}
1002
{
1000
BEHIND
1070
     0
1002
}
1002
{
1000
REACTOR
1002
}
1001
GENIUS_GENOBJ-N-FIL_13
1002
{
1000
OWNER
1000
GEN
1002
}
  0
ARC
  5
7E7
330
1F
100
AcDbEntity
  8
0
100
AcDbCircle
 10
594.877576391116
 20
335.6864261472209
 30
0.0
 40
5.0
100
AcDbArc
 50
270.0
 51
357.0000000000009
1001
GENIUS_GENODEF_13
1002
{
1000
HIER
1070
     0
1002
}
1002
{
1000
MANEDIT
1070
     0
1002
}
1002
{
1000
NOSEL
1070
     0
1002
}
1002
{
1000
BEHIND
1070
     0
1002
}
1002
{
1000
REACTOR
1002
}
1001
GENIUS_GENOBJ-N-FIL_13
1002
{
1000
OWNER
1000
GEN
1002
}
  0
ARC
  5
7E8
330
1F
100
AcDbEntity
  8
0
100
AcDbCircle
 10
594.877576391116
 20
335.6864261472209
 30
0.0
 40
7.0
100
AcDbArc
 50
270.0
 51
357.0000000000009
1001
GENIUS_GENODEF_13
1002
{
1000
HIER
1070
     0
1002
}
1002
{
1000
MANEDIT
1070
     0
1002
}
1002
{
1000
NOSEL
1070
     0
1002
}
1002
{
1000
BEHIND
1070
     0
1002
}
1002
{
1000
REACTOR
1002
}
1001
GENIUS_GENOBJ-N-FIL_13
1002
{
1000
OWNER
1000
GEN
1002
}
  0
ARC
  5
7E9
330
1F
100
AcDbEntity
  8
0
100
AcDbCircle
 10
596.7050424789793
 20
335.9714051198301
 30
0.0
 40
7.2
100
AcDbArc
 50
265.2674813878555
 51
353.9728128043956
1001
GENIUS_GENODEF_13
1002
{
1000
HIER
1070
     0
1002
}
1002
{
1000
MANEDIT
1070
     0
1002
}
1002
{
1000
NOSEL
1070
     0
1002
}
1002
{
1000
BEHIND
1070
     0
1002
}
1002
{
1000
REACTOR
1002
}
1001
GENIUS_GENOBJ-N-FIL_13
1002
{
1000
OWNER
1000
GEN
1002
}
  0
ARC
  5
7EA
330
1F
100
AcDbEntity
  8
0
100
AcDbCircle
 10
647.2495292884066
 20
365.8001229876216
 30
0.0
 40
1.5
100
AcDbArc
 50
12.79010427871681
 51
128.1096173344078
  0
ARC
  5
7EB
330
1F
100
AcDbEntity
  8
0
100
AcDbCircle
 10
650.9643787521484
 20
364.2942837566009
 30
0.0
 40
3.0
100
AcDbArc
 50
251.1389041028436
 51
341.6550892792725
1001
GENIUS_GENODEF_13
1002
{
1000
HIER
1070
     0
1002
}
1002
{
1000
MANEDIT
1070
     0
1002
}
1002
{
1000
NOSEL
1070
     0
1002
}
1002
{
1000
BEHIND
1070
     0
1002
}
1002
{
1000
REACTOR
1002
}
1001
GENIUS_GENOBJ-N-FIL_13
1002
{
1000
OWNER
1000
GEN
1002
}
  0
LINE
  5
7EC
330
1F
100
AcDbEntity
  8
0
100
AcDbLine
 10
653.811915950663
 20
363.3500740854593
 30
0.0
 11
654.1223992246901
 21
364.2864261472208
 31
0.0
  0
ARC
  5
7ED
330
1F
100
AcDbEntity
  8
0
100
AcDbCircle
 10
611.2407164948324
 20
380.1017464047784
 30
0.0
 40
1.0
100
AcDbArc
 50
266.8839993769868
 51
349.7032435955268
1001
GENIUS_GENODEF_13
1002
{
1000
HIER
1070
     0
1002
}
1002
{
1000
MANEDIT
1070
     0
1002
}
1002
{
1000
NOSEL
1070
     0
1002
}
1002
{
1000
BEHIND
1070
     0
1002
}
1002
{
1000
REACTOR
1002
}
1001
GENIUS_GENOBJ-N-FIL_13
1002
{
1000
OWNER
1000
GEN
1002
}
  0
ARC
  5
7EE
330
1F
100
AcDbEntity
  8
0
100
AcDbCircle
 10
614.0209198741282
 20
377.2259040638719
 30
0.0
 40
1.0
100
AcDbArc
 50
64.42933700860121
 51
158.5044600812913
1001
GENIUS_GENODEF_13
1002
{
1000
HIER
1070
     0
1002
}
1002
{
1000
MANEDIT
1070
     0
1002
}
1002
{
1000
NOSEL
1070
     0
1002
}
1002
{
1000
BEHIND
1070
     0
1002
}
1002
{
1000
REACTOR
1002
}
1001
GENIUS_GENOBJ-N-FIL_13
1002
{
1000
OWNER
1000
GEN
1002
}
  0
ARC
  5
7EF
330
1F
100
AcDbEntity
  8
0
100
AcDbCircle
 10
613.2085068120415
 20
379.74425337338
 30
0.0
 40
1.0
100
AcDbArc
 50
72.52248781407266
 51
169.7032435955267
1001
GENIUS_GENODEF_13
1002
{
1000
HIER
1070
     0
1002
}
1002
{
1000
MANEDIT
1070
     0
1002
}
1002
{
1000
NOSEL
1070
     0
1002
}
1002
{
1000
BEHIND
1070
     0
1002
}
1002
{
1000
REACTOR
1002
}
1001
GENIUS_GENOBJ-N-FIL_13
1002
{
1000
OWNER
1000
GEN
1002
}
  0
ARC
  5
7F0
330
1F
100
AcDbEntity
  8
0
100
AcDbCircle
 10
610.8058551686588
 20
372.1135741715953
 30
0.0
 40
5.0
100
AcDbArc
 50
64.31280354128232
 51
177.0000000000009
1001
GENIUS_GENODEF_13
1002
{
1000
HIER
1070
     0
1002
}
1002
{
1000
MANEDIT
1070
     0
1002
}
1002
{
1000
NOSEL
1070
     0
1002
}
1002
{
1000
BEHIND
1070
     0
1002
}
1002
{
1000
REACTOR
1002
}
1001
GENIUS_GENOBJ-N-FIL_13
1002
{
1000
OWNER
1000
GEN
1002
}
  0
ARC
  5
7F1
330
1F
100
AcDbEntity
  8
0
100
AcDbCircle
 10
610.8058551686588
 20
372.1135741715953
 30
0.0
 40
7.0
100
AcDbArc
 50
86.88399937698676
 51
176.9999999999976
1001
GENIUS_GENODEF_13
1002
{
1000
HIER
1070
     0
1002
}
1002
{
1000
MANEDIT
1070
     0
1002
}
1002
{
1000
NOSEL
1070
     0
1002
}
1002
{
1000
BEHIND
1070
     0
1002
}
1002
{
1000
REACTOR
1002
}
1001
GENIUS_GENOBJ-N-FIL_13
1002
{
1000
OWNER
1000
GEN
1002
}
  0
ARC
  5
7F2
330
1F
100
AcDbEntity
  8
0
100
AcDbCircle
 10
610.8058551686588
 20
372.1135741715953
 30
0.0
 40
9.0
100
AcDbArc
 50
64.31280354129324
 51
176.9999999999976
1001
GENIUS_GENODEF_13
1002
{
1000
HIER
1070
     0
1002
}
1002
{
1000
MANEDIT
1070
     0
1002
}
1002
{
1000
NOSEL
1070
     0
1002
}
1002
{
1000
BEHIND
1070
     0
1002
}
1002
{
1000
REACTOR
1002
}
1001
GENIUS_GENOBJ-N-FIL_13
1002
{
1000
OWNER
1000
GEN
1002
}
  0
ARC
  5
7F3
330
1F
100
AcDbEntity
  8
0
100
AcDbCircle
 10
612.1600276846168
 20
377.9587616619181
 30
0.0
 40
1.0
100
AcDbArc
 50
256.9562253200555
 51
338.5044600812914
1001
GENIUS_GENODEF_13
1002
{
1000
HIER
1070
     0
1002
}
1002
{
1000
MANEDIT
1070
     0
1002
}
1002
{
1000
NOSEL
1070
     0
1002
}
1002
{
1000
BEHIND
1070
     0
1002
}
1002
{
1000
REACTOR
1002
}
1001
GENIUS_GENOBJ-N-FIL_13
1002
{
1000
OWNER
1000
GEN
1002
}
  0
LINE
  5
7F4
330
1F
100
AcDbEntity
  8
7A
100
AcDbLine
 10
622.5111060582081
 20
383.3348084769184
 30
0.0
 11
618.4456463405693
 21
371.0742395282412
 31
0.0
  0
ARC
  5
7F5
330
1F
100
AcDbEntity
  8
0
100
AcDbCircle
 10
620.314795295116
 20
376.7111985007128
 30
0.0
 40
1.5
100
AcDbArc
 50
7.785320602933165
 51
123.1048336586307
  0
LINE
  5
7F6
330
1F
100
AcDbEntity
  8
AM_7
100
AcDbLine
 10
916.1158717080882
 20
458.6864261472207
 30
0.0
 11
950.6453634950876
 21
458.6864261472207
 31
0.0
1001
GENIUS_GENODEF_13
1002
{
1000
HIER
1070
     0
1002
}
1002
{
1000
MANEDIT
1070
     0
1002
}
1002
{
1000
NOSEL
1070
     0
1002
}
1002
{
1000
BEHIND
1070
     0
1002
}
1002
{
1000
OTHER
1070
     0
1002
}
1002
{
1000
REACTOR
1002
}
1001
GENIUS_GENOBJ-N-CEN_13
1002
{
1000
OWNER
1000
GEN
1002
}
1001
GENIUS_GENCEN_19
1002
{
1040
2.0
1002
}
  0
DIMENSION
  5
7F7
330
1F
100
AcDbEntity
  8
AM_5
100
AcDbDimension
  2
*D6
 10
902.1177264302275
 20
290.0852623433902
 30
0.0
 11
742.1200628274589
 21
294.1358528945713
 31
0.0
 70
    32
  1
%%c<> {}{\C2;%%p3}
 71
     5
 42
319.9953272055377
  3
AM_DIN$0
100
AcDbAlignedDimension
 13
582.1223992246899
 23
323.9460946247833
 33
0.0
 14
902.1177264302275
 24
323.9460946247833
 34
0.0
100
AcDbRotatedDimension
1001
GENIUS_GENDTOL_13
1000
TolPm
1000

1000
{$3%%p$P}
1040
320.0
1001
ACAD
1000
DSTYLE
1002
{
1070
   140
1040
4.0
1070
   286
1070
     0
1070
   284
1070
     8
1070
   274
1070
     2
1070
   272
1070
     2
1070
    40
1040
1.5
1070
    47
1040
3.0
1070
    48
1040
3.0
1002
}
  0
DIMENSION
  5
7F8
330
1F
100
AcDbEntity
  8
AM_5
100
AcDbDimension
  2
*D7
 10
981.2097972349871
 20
328.6864261472208
 30
0.0
 11
981.2097972349871
 21
393.1937722127973
 31
0.0
 70
   160
  1
<> {}{\C2;%%p3}
 71
     5
 42
130.0
  3
AM_DIN$0
100
AcDbAlignedDimension
 13
941.1168321237893
 23
458.6864261472207
 33
0.0
 14
914.6177264302275
 24
328.6864261472209
 34
0.0
 50
90.0
100
AcDbRotatedDimension
1001
GENIUS_GENDTOL_13
1000
TolPm
1000

1000
{$3%%p$P}
1040
130.0
1001
ACAD
1000
DSTYLE
1002
{
1070
   140
1040
4.0
1070
    40
1040
1.5
1070
    47
1040
3.0
1070
    48
1040
3.0
1002
}
  0
DIMENSION
  5
7F9
330
1F
100
AcDbEntity
  8
AM_5
100
AcDbDimension
  2
*D8
 10
517.3158107627806
 20
328.6864261472209
 30
0.0
 11
517.3158107627805
 21
557.2966699624962
 31
0.0
 70
   160
  1
<> {}{\C2;%%p6}
 71
     5
 42
458.5829937594262
  3
AM_DIN$0
100
AcDbAlignedDimension
 13
745.9673167410795
 23
787.269419906647
 33
0.0
 14
569.6223992246899
 24
328.6864261472209
 34
0.0
 50
90.0
100
AcDbRotatedDimension
1001
ACAD
1000
DSTYLE
1002
{
1070
   286
1070
     0
1070
   284
1070
     8
1070
   274
1070
     2
1070
   272
1070
     2
1070
    40
1040
1.5
1070
    47
1040
6.0
1070
    48
1040
6.0
1070
   140
1040
4.0
1070
   271
1070
     0
1002
}
1001
GENIUS_GENDTOL_13
1000
TolPm
1000

1000
{$3%%p$P}
1040
459.0
  0
LINE
  5
7FA
330
1F
100
AcDbEntity
  8
VERDECKTE
 48
10.0
100
AcDbLine
 10
1038.476104839807
 20
684.1674929257922
 30
0.0
 11
1058.985898733237
 21
684.1674929257922
 31
0.0
1001
GENIUS_GENODEF_13
1002
{
1000
HIER
1070
     0
1002
}
1002
{
1000
MANEDIT
1070
     0
1002
}
1002
{
1000
NOSEL
1070
     0
1002
}
1002
{
1000
BEHIND
1070
     0
1002
}
1002
{
1000
REACTOR
1002
}
1001
GENIUS_GENOBJ-N-CEN_13
1002
{
1000
OWNER
1000
GEN
1002
}
  0
LINE
  5
7FB
330
1F
100
AcDbEntity
  8
VERDECKTE
 48
10.0
100
AcDbLine
 10
1038.476104839807
 20
680.1674929257922
 30
0.0
 11
1058.985898733237
 21
680.1674929257922
 31
0.0
1001
GENIUS_GENODEF_13
1002
{
1000
HIER
1070
     0
1002
}
1002
{
1000
MANEDIT
1070
     0
1002
}
1002
{
1000
NOSEL
1070
     0
1002
}
1002
{
1000
BEHIND
1070
     0
1002
}
1002
{
1000
REACTOR
1002
}
1001
GENIUS_GENOBJ-N-CEN_13
1002
{
1000
OWNER
1000
GEN
1002
}
  0
LINE
  5
7FC
330
1F
100
AcDbEntity
  8
AM_7
100
AcDbLine
 10
1036.889575881999
 20
686.7232972086892
 30
0.0
 11
1036.889575881999
 21
677.7660379203405
 31
0.0
  0
LINE
  5
7FD
330
1F
100
AcDbEntity
  8
AM_7
100
AcDbLine
 10
1061.098787591369
 20
686.6354805393923
 30
0.0
 11
1061.098787591369
 21
677.9416701513683
 31
0.0
  0
ELLIPSE
  5
7FE
330
1F
100
AcDbEntity
  8
VERDECKTE
 48
10.0
100
AcDbEllipse
 10
1061.098787591369
 20
682.1674929257921
 30
0.0
 11
0.0
 21
3.0
 31
0.0
210
0.0
220
0.0
230
1.0
 40
0.9449126231368628
 41
2.300523983021861
 42
7.124253977747517
  0
ELLIPSE
  5
7FF
330
1F
100
AcDbEntity
  8
VERDECKTE
 48
10.0
100
AcDbEllipse
 10
1036.889575881999
 20
682.1674929257921
 30
0.0
 11
0.0
 21
3.0
 31
0.0
210
0.0
220
0.0
230
1.0
 40
0.9201419238112578
 41
5.442116636611653
 42
10.2658466313373
  0
ELLIPSE
  5
800
330
1F
100
AcDbEntity
  8
VERDECKTE
 48
10.0
100
AcDbEllipse
 10
1036.889575881999
 20
682.1674929257921
 30
0.0
 11
0.0
 21
3.0
 31
0.0
210
0.0
220
0.0
230
1.0
 40
0.7095173195865053
 41
3.141592653589793
 42
3.982661324157721
  0
ELLIPSE
  5
801
330
1F
100
AcDbEntity
  8
VERDECKTE
 48
10.0
100
AcDbEllipse
 10
1036.889575881999
 20
682.1674929257921
 30
0.0
 11
0.0
 21
3.0
 31
0.0
210
0.0
220
0.0
230
1.0
 40
0.7095173195865053
 41
5.442116636611656
 42
6.283185307179586
  0
ELLIPSE
  5
802
330
1F
100
AcDbEntity
  8
VERDECKTE
 48
10.0
100
AcDbEllipse
 10
1061.098787591369
 20
682.1674929257921
 30
0.0
 11
0.0
 21
3.0
 31
0.0
210
0.0
220
0.0
230
1.0
 40
0.6301633309658806
 41
3.141592653589793
 42
6.283185307179586
  0
CIRCLE
  5
803
330
1F
100
AcDbEntity
  8
VERDECKTE
 48
10.0
100
AcDbCircle
 10
1235.40017343522
 20
543.5411862332117
 30
0.0
 40
6.0
  0
ARC
  5
804
330
1F
100
AcDbEntity
  8
VERDECKTE
 48
10.0
100
AcDbCircle
 10
1234.15017343522
 20
545.7062497426728
 30
0.0
 40
15.0
100
AcDbArc
 50
210.0000000000005
 51
30.00000000000055
  0
LINE
  5
805
330
1F
100
AcDbEntity
  8
VERDECKTE
 48
10.0
100
AcDbLine
 10
1221.159792378454
 20
538.2062497426728
 30
0.0
 11
1216.032203795241
 21
547.0874936891073
 31
0.0
  0
LINE
  5
806
330
1F
100
AcDbEntity
  8
VERDECKTE
 48
10.0
100
AcDbLine
 10
1247.140554491987
 20
553.2062497426728
 30
0.0
 11
1242.012965908774
 21
562.0874936891071
 31
0.0
  0
LINE
  5
807
330
1F
100
AcDbEntity
  8
AM_7
100
AcDbLine
 10
1226.666402935695
 20
538.4987414842703
 30
0.0
 11
1243.798029902973
 21
548.3896909254847
 31
0.0
  0
LINE
  5
808
330
1F
100
AcDbEntity
  8
VERDECKTE
 48
10.0
100
AcDbLine
 10
1236.176452876849
 20
564.1966307994396
 30
0.0
 11
1217.123893993591
 21
553.1966307994395
 31
0.0
  0
LINE
  5
809
330
1F
100
AcDbEntity
  8
VERDECKTE
 48
10.0
100
AcDbLine
 10
1208.926452876849
 20
611.395015305691
 30
0.0
 11
1189.873893993592
 21
600.3950153056909
 31
0.0
  0
LINE
  5
80A
330
1F
100
AcDbEntity
  8
VERDECKTE
 48
10.0
100
AcDbLine
 10
1214.391843186023
 20
553.9286816070083
 30
0.0
 11
1189.141843186023
 21
597.6629644981219
 31
0.0
1001
GENIUS_GENODEF_13
1002
{
1000
HIER
1070
     0
1002
}
1002
{
1000
MANEDIT
1070
     0
1002
}
1002
{
1000
NOSEL
1070
     0
1002
}
1002
{
1000
BEHIND
1070
     0
1002
}
1002
{
1000
REACTOR
1002
}
1001
GENIUS_GENOBJ-N-CEN_13
1002
{
1000
OWNER
1000
GEN
1002
}
  0
LINE
  5
80B
330
1F
100
AcDbEntity
  8
VERDECKTE
 48
10.0
100
AcDbLine
 10
1236.908503684418
 20
566.9286816070083
 30
0.0
 11
1211.658503684418
 21
610.6629644981219
 31
0.0
1001
GENIUS_GENODEF_13
1002
{
1000
HIER
1070
     0
1002
}
1002
{
1000
MANEDIT
1070
     0
1002
}
1002
{
1000
NOSEL
1070
     0
1002
}
1002
{
1000
BEHIND
1070
     0
1002
}
1002
{
1000
REACTOR
1002
}
1001
GENIUS_GENOBJ-N-CEN_13
1002
{
1000
OWNER
1000
GEN
1002
}
  0
LINE
  5
80C
330
1F
100
AcDbEntity
  8
AM_7
100
AcDbLine
 10
1227.751729309972
 20
546.7886800569934
 30
0.0
 11
1219.860008519276
 21
560.4575414256263
 31
0.0
1001
GENIUS_GENODEF_13
1002
{
1000
HIER
1070
     0
1002
}
1002
{
1000
MANEDIT
1070
     0
1002
}
1002
{
1000
NOSEL
1070
     0
1002
}
1002
{
1000
BEHIND
1070
     0
1002
}
1002
{
1000
REACTOR
1002
}
1001
GENIUS_GENOBJ-N-CEN_13
1002
{
1000
OWNER
1000
GEN
1002
}
  0
LINE
  5
80D
330
1F
100
AcDbEntity
  8
AM_7
100
AcDbLine
 10
1236.411983347816
 20
551.7886800569936
 30
0.0
 11
1228.681317926333
 21
565.1785853433184
 31
0.0
1001
GENIUS_GENODEF_13
1002
{
1000
HIER
1070
     0
1002
}
1002
{
1000
MANEDIT
1070
     0
1002
}
1002
{
1000
NOSEL
1070
     0
1002
}
1002
{
1000
BEHIND
1070
     0
1002
}
1002
{
1000
REACTOR
1002
}
1001
GENIUS_GENOBJ-N-CEN_13
1002
{
1000
OWNER
1000
GEN
1002
}
  0
LINE
  5
80E
330
1F
100
AcDbEntity
  8
VERDECKTE
 48
10.0
100
AcDbLine
 10
1222.038957503053
 20
549.6834910786251
 30
0.0
 11
1219.288957503052
 21
554.4466307994396
 31
0.0
1001
GENIUS_GENODEF_13
1002
{
1000
HIER
1070
     0
1002
}
1002
{
1000
MANEDIT
1070
     0
1002
}
1002
{
1000
NOSEL
1070
     0
1002
}
1002
{
1000
BEHIND
1070
     0
1002
}
1002
{
1000
REACTOR
1002
}
1001
GENIUS_GENOBJ-N-CEN_13
1002
{
1000
OWNER
1000
GEN
1002
}
  0
LINE
  5
80F
330
1F
100
AcDbEntity
  8
VERDECKTE
 48
10.0
100
AcDbLine
 10
1228.101135329543
 20
553.1834910786251
 30
0.0
 11
1225.351135329544
 21
557.9466307994396
 31
0.0
1001
GENIUS_GENODEF_13
1002
{
1000
HIER
1070
     0
1002
}
1002
{
1000
MANEDIT
1070
     0
1002
}
1002
{
1000
NOSEL
1070
     0
1002
}
1002
{
1000
BEHIND
1070
     0
1002
}
1002
{
1000
REACTOR
1002
}
1001
GENIUS_GENOBJ-N-CEN_13
1002
{
1000
OWNER
1000
GEN
1002
}
  0
LINE
  5
810
330
1F
100
AcDbEntity
  8
VERDECKTE
 48
10.0
100
AcDbLine
 10
1236.761389367388
 20
558.1834910786251
 30
0.0
 11
1234.011389367388
 21
562.9466307994396
 31
0.0
1001
GENIUS_GENODEF_13
1002
{
1000
HIER
1070
     0
1002
}
1002
{
1000
MANEDIT
1070
     0
1002
}
1002
{
1000
NOSEL
1070
     0
1002
}
1002
{
1000
BEHIND
1070
     0
1002
}
1002
{
1000
REACTOR
1002
}
1001
GENIUS_GENOBJ-N-CEN_13
1002
{
1000
OWNER
1000
GEN
1002
}
  0
LINE
  5
811
330
1F
100
AcDbEntity
  8
VERDECKTE
 48
10.0
100
AcDbLine
 10
1230.699211540897
 20
554.6834910786251
 30
0.0
 11
1227.949211540897
 21
559.4466307994395
 31
0.0
1001
GENIUS_GENODEF_13
1002
{
1000
HIER
1070
     0
1002
}
1002
{
1000
MANEDIT
1070
     0
1002
}
1002
{
1000
NOSEL
1070
     0
1002
}
1002
{
1000
BEHIND
1070
     0
1002
}
1002
{
1000
REACTOR
1002
}
1001
GENIUS_GENOBJ-N-CEN_13
1002
{
1000
OWNER
1000
GEN
1002
}
  0
ARC
  5
812
330
1F
100
AcDbEntity
  8
VERDECKTE
 48
10.0
100
AcDbCircle
 10
1225.070046416298
 20
551.4334910786251
 30
0.0
 40
3.5
100
AcDbArc
 50
210.0000000000005
 51
30.00000000000055
  0
ARC
  5
813
330
1F
100
AcDbEntity
  8
VERDECKTE
 48
10.0
100
AcDbCircle
 10
1233.730300454143
 20
556.4334910786251
 30
0.0
 40
3.5
100
AcDbArc
 50
210.0000000000005
 51
30.00000000000055
  0
ARC
  5
814
330
1F
100
AcDbEntity
  8
VERDECKTE
 48
10.0
100
AcDbCircle
 10
1224.464405389212
 20
553.0650641609532
 30
0.0
 40
10.33602304889329
100
AcDbArc
 50
173.3381812573207
 51
215.332749755144
  0
ARC
  5
815
330
1F
100
AcDbEntity
  8
VERDECKTE
 48
10.0
100
AcDbCircle
 10
1221.021008310622
 20
555.4466307994395
 30
0.0
 40
2.0
100
AcDbArc
 50
210.0000000000005
 51
299.9999999999997
  0
LINE
  5
816
330
1F
100
AcDbEntity
  8
VERDECKTE
 48
10.0
100
AcDbLine
 10
1233.279338559819
 20
560.2145799918708
 30
0.0
 11
1230.681262348466
 21
558.7145799918706
 31
0.0
  0
ARC
  5
817
330
1F
100
AcDbEntity
  8
VERDECKTE
 48
10.0
100
AcDbCircle
 10
1223.619084521975
 20
556.9466307994396
 30
0.0
 40
2.0
100
AcDbArc
 50
299.9999999999997
 51
30.00000000000055
  0
ARC
  5
818
330
1F
100
AcDbEntity
  8
VERDECKTE
 48
10.0
100
AcDbCircle
 10
1232.279338559819
 20
561.9466307994396
 30
0.0
 40
2.0
100
AcDbArc
 50
299.9999999999997
 51
30.00000000000055
  0
ARC
  5
819
330
1F
100
AcDbEntity
  8
VERDECKTE
 48
10.0
100
AcDbCircle
 10
1229.681262348466
 20
560.4466307994396
 30
0.0
 40
2.0
100
AcDbArc
 50
210.0000000000005
 51
299.9999999999997
  0
LINE
  5
81A
330
1F
100
AcDbEntity
  8
VERDECKTE
 48
10.0
100
AcDbLine
 10
1224.619084521975
 20
555.2145799918706
 30
0.0
 11
1222.021008310621
 21
553.7145799918707
 31
0.0
  0
LINE
  5
81B
330
1F
100
AcDbEntity
  8
VERDECKTE
 48
10.0
100
AcDbLine
 10
1223.450850253219
 20
558.2380211004995
 30
0.0
 11
1218.270117421682
 21
567.2113135851612
 31
0.0
1001
GENIUS_GENODEF_13
1002
{
1000
HIER
1070
     0
1002
}
1002
{
1000
MANEDIT
1070
     0
1002
}
1002
{
1000
NOSEL
1070
     0
1002
}
1002
{
1000
BEHIND
1070
     0
1002
}
1002
{
1000
REACTOR
1002
}
1001
GENIUS_GENOBJ-N-CEN_13
1002
{
1000
OWNER
1000
GEN
1002
}
  0
LINE
  5
81C
330
1F
100
AcDbEntity
  8
VERDECKTE
 48
10.0
100
AcDbLine
 10
1228.647002675925
 20
561.2380211004995
 30
0.0
 11
1223.466269844388
 21
570.2113135851616
 31
0.0
1001
GENIUS_GENODEF_13
1002
{
1000
HIER
1070
     0
1002
}
1002
{
1000
MANEDIT
1070
     0
1002
}
1002
{
1000
NOSEL
1070
     0
1002
}
1002
{
1000
BEHIND
1070
     0
1002
}
1002
{
1000
REACTOR
1002
}
1001
GENIUS_GENOBJ-N-CEN_13
1002
{
1000
OWNER
1000
GEN
1002
}
  0
ELLIPSE
  5
81D
330
1F
100
AcDbEntity
  8
VERDECKTE
 48
10.0
100
AcDbEllipse
 10
1220.868193633035
 20
568.711313585161
 30
0.0
 11
-2.598076211353304
 21
-1.499999999999992
 31
0.0
210
0.0
220
0.0
230
1.0
 40
0.7741598128011863
 41
3.141592653589793
 42
6.283185307179586
  0
LINE
  5
81E
330
1F
100
AcDbEntity
  8
VERDECKTE
 48
10.0
100
AcDbLine
 10
1224.13193556979
 20
561.0583467279086
 30
0.0
 11
1220.002168229251
 21
568.2113135851611
 31
0.0
1001
GENIUS_GENODEF_13
1002
{
1000
HIER
1070
     0
1002
}
1002
{
1000
MANEDIT
1070
     0
1002
}
1002
{
1000
NOSEL
1070
     0
1002
}
1002
{
1000
BEHIND
1070
     0
1002
}
1002
{
1000
REACTOR
1002
}
1001
GENIUS_GENOBJ-N-CEN_13
1002
{
1000
OWNER
1000
GEN
1002
}
  0
SPLINE
  5
81F
330
1F
100
AcDbEntity
  8
VERDECKTE
 48
10.0
100
AcDbSpline
210
0.0
220
0.0
230
1.0
 70
     8
 71
     3
 72
    18
 73
    14
 74
     0
 42
0.0000000001
 43
0.0000000001
 40
3.628703069452225
 40
3.628703069452225
 40
3.628703069452225
 40
3.628703069452225
 40
3.912493910190089
 40
3.912493910190089
 40
4.196284750927953
 40
4.196284750927953
 40
4.622228449873871
 40
4.622228449873871
 40
5.048172148819787
 40
5.048172148819787
 40
5.474115847765705
 40
5.474115847765705
 40
5.796074891333206
 40
5.796074891333206
 40
5.796074891333206
 40
5.796074891333206
 10
1221.755738787723
 20
569.174933585261
 30
0.0
 10
1221.735832428659
 20
569.1844796442397
 30
0.0
 10
1221.692774994183
 20
569.2007693388493
 30
0.0
 10
1221.557589199445
 20
569.2211000173482
 30
0.0
 10
1221.465973294749
 20
569.224676445414
 30
0.0
 10
1221.199275556252
 20
569.1952982071978
 30
0.0
 10
1221.006220339869
 20
569.141610619985
 30
0.0
 10
1220.638238343395
 20
568.9621617279215
 30
0.0
 10
1220.464644926014
 20
568.8371054116019
 30
0.0
 10
1220.201098280937
 20
568.5724593560856
 30
0.0
 10
1220.11258798089
 20
568.4343035425227
 30
0.0
 10
1220.034361403437
 20
568.2549060700035
 30
0.0
 10
1220.024827171676
 20
568.199459920675
 30
0.0
 10
1220.022914357901
 20
568.1744869342415
 30
0.0
  0
LINE
  5
820
330
1F
100
AcDbEntity
  8
VERDECKTE
 48
10.0
100
AcDbLine
 10
1225.863986377359
 20
562.0583467279086
 30
0.0
 11
1221.734219036819
 21
569.2113135851616
 31
0.0
1001
GENIUS_GENODEF_13
1002
{
1000
HIER
1070
     0
1002
}
1002
{
1000
MANEDIT
1070
     0
1002
}
1002
{
1000
NOSEL
1070
     0
1002
}
1002
{
1000
BEHIND
1070
     0
1002
}
1002
{
1000
REACTOR
1002
}
1001
GENIUS_GENOBJ-N-CEN_13
1002
{
1000
OWNER
1000
GEN
1002
}
  0
ARC
  5
821
330
1F
100
AcDbEntity
  8
VERDECKTE
 48
10.0
100
AcDbCircle
 10
1232.620137230258
 20
557.7737781348196
 30
0.0
 40
10.33602304889329
100
AcDbArc
 50
24.66725024485814
 51
66.66181874268005
  0
ARC
  5
822
330
1F
100
AcDbEntity
  8
VERDECKTE
 48
10.0
100
AcDbCircle
 10
1216.123893993591
 20
554.9286816070083
 30
0.0
 40
2.0
100
AcDbArc
 50
210.0000000000005
 51
299.9999999999997
1001
GENIUS_GENOBJ-N-CEN_13
1002
{
1000
OWNER
1000
GEN
1002
}
1001
GENIUS_GENODEF_13
1002
{
1000
HIER
1070
     0
1002
}
1002
{
1000
MANEDIT
1070
     0
1002
}
1002
{
1000
NOSEL
1070
     0
1002
}
1002
{
1000
BEHIND
1070
     0
1002
}
1002
{
1000
REACTOR
1002
}
1001
GENIUS_GENOBJ-N-FIL_13
1002
{
1000
OWNER
1000
GEN
1002
}
  0
ARC
  5
823
330
1F
100
AcDbEntity
  8
VERDECKTE
 48
10.0
100
AcDbCircle
 10
1235.176452876849
 20
565.9286816070085
 30
0.0
 40
2.0
100
AcDbArc
 50
299.9999999999997
 51
30.00000000000055
1001
GENIUS_GENOBJ-N-CEN_13
1002
{
1000
OWNER
1000
GEN
1002
}
1001
GENIUS_GENODEF_13
1002
{
1000
HIER
1070
     0
1002
}
1002
{
1000
MANEDIT
1070
     0
1002
}
1002
{
1000
NOSEL
1070
     0
1002
}
1002
{
1000
BEHIND
1070
     0
1002
}
1002
{
1000
REACTOR
1002
}
1001
GENIUS_GENOBJ-N-FIL_13
1002
{
1000
OWNER
1000
GEN
1002
}
  0
ARC
  5
824
330
1F
100
AcDbEntity
  8
VERDECKTE
 48
10.0
100
AcDbCircle
 10
1190.873893993592
 20
598.6629644981219
 30
0.0
 40
2.0
100
AcDbArc
 50
119.9999999999997
 51
210.0000000000005
1001
GENIUS_GENODEF_13
1002
{
1000
HIER
1070
     0
1002
}
1002
{
1000
MANEDIT
1070
     0
1002
}
1002
{
1000
NOSEL
1070
     0
1002
}
1002
{
1000
BEHIND
1070
     0
1002
}
1002
{
1000
REACTOR
1002
}
1001
GENIUS_GENOBJ-N-FIL_13
1002
{
1000
OWNER
1000
GEN
1002
}
  0
ARC
  5
825
330
1F
100
AcDbEntity
  8
VERDECKTE
 48
10.0
100
AcDbCircle
 10
1209.92645287685
 20
609.6629644981219
 30
0.0
 40
2.0
100
AcDbArc
 50
30.00000000000055
 51
119.9999999999997
1001
GENIUS_GENOBJ-N-CEN_13
1002
{
1000
OWNER
1000
GEN
1002
}
1001
GENIUS_GENODEF_13
1002
{
1000
HIER
1070
     0
1002
}
1002
{
1000
MANEDIT
1070
     0
1002
}
1002
{
1000
NOSEL
1070
     0
1002
}
1002
{
1000
BEHIND
1070
     0
1002
}
1002
{
1000
REACTOR
1002
}
1001
GENIUS_GENOBJ-N-FIL_13
1002
{
1000
OWNER
1000
GEN
1002
}
  0
LINE
  5
826
330
1F
100
AcDbEntity
  8
VERDECKTE
 48
10.0
100
AcDbLine
 10
1225.863986377359
 20
562.0583467279086
 30
0.0
 11
1224.13193556979
 21
561.0583467279086
 31
0.0
  0
LINE
  5
827
330
1F
100
AcDbEntity
  8
VERDECKTE
 48
10.0
100
AcDbLine
 10
1235.575205906201
 20
565.2380211004993
 30
0.0
 11
1228.647002675925
 21
561.2380211004995
 31
0.0
  0
ARC
  5
828
330
1F
100
AcDbEntity
  8
VERDECKTE
 48
10.0
100
AcDbCircle
 10
1215.522647022943
 20
555.9700719080683
 30
0.0
 40
2.0
100
AcDbArc
 50
210.0000000000005
 51
299.9999999999997
1001
GENIUS_GENOBJ-N-CEN_13
1002
{
1000
OWNER
1000
GEN
1002
}
1001
GENIUS_GENODEF_13
1002
{
1000
HIER
1070
     0
1002
}
1002
{
1000
MANEDIT
1070
     0
1002
}
1002
{
1000
NOSEL
1070
     0
1002
}
1002
{
1000
BEHIND
1070
     0
1002
}
1002
{
1000
REACTOR
1002
}
1001
GENIUS_GENOBJ-N-FIL_13
1002
{
1000
OWNER
1000
GEN
1002
}
  0
ARC
  5
829
330
1F
100
AcDbEntity
  8
VERDECKTE
 48
10.0
100
AcDbCircle
 10
1234.575205906201
 20
566.9700719080683
 30
0.0
 40
2.0
100
AcDbArc
 50
299.9999999999997
 51
30.00000000000055
1001
GENIUS_GENOBJ-N-CEN_13
1002
{
1000
OWNER
1000
GEN
1002
}
1001
GENIUS_GENODEF_13
1002
{
1000
HIER
1070
     0
1002
}
1002
{
1000
MANEDIT
1070
     0
1002
}
1002
{
1000
NOSEL
1070
     0
1002
}
1002
{
1000
BEHIND
1070
     0
1002
}
1002
{
1000
REACTOR
1002
}
1001
GENIUS_GENOBJ-N-FIL_13
1002
{
1000
OWNER
1000
GEN
1002
}
  0
ARC
  5
82A
330
1F
100
AcDbEntity
  8
VERDECKTE
 48
10.0
100
AcDbCircle
 10
1227.928245650219
 20
563.9305426254703
 30
0.0
 40
2.786805307953311
100
AcDbArc
 50
222.2066997936612
 51
284.9463418185651
  0
ARC
  5
82B
330
1F
100
AcDbEntity
  8
VERDECKTE
 48
10.0
100
AcDbCircle
 10
1221.47843672521
 20
560.2067437063952
 30
0.0
 40
2.786805307953311
100
AcDbArc
 50
315.0536581814358
 51
17.79330020634075
  0
LINE
  5
82C
330
1F
100
AcDbEntity
  8
VERDECKTE
 48
10.0
100
AcDbLine
 10
1226.863382985809
 20
561.3552074375036
 30
0.0
 11
1224.241173753455
 21
559.8412742313326
 31
0.0
  0
ARC
  5
82D
330
1F
100
AcDbEntity
  8
VERDECKTE
 48
10.0
100
AcDbCircle
 10
1221.339273418552
 20
560.7068614821476
 30
0.0
 40
2.77539230657983
100
AcDbArc
 50
312.3637354700715
 51
9.185529136313276
  0
ARC
  5
82E
330
1F
100
AcDbEntity
  8
VERDECKTE
 48
10.0
100
AcDbCircle
 10
1227.564712604862
 20
564.3011204721874
 30
0.0
 40
2.77539230657983
100
AcDbArc
 50
230.8144708636852
 51
287.6362645299311
  0
LINE
  5
82F
330
1F
100
AcDbEntity
  8
VERDECKTE
 48
10.0
100
AcDbLine
 10
1223.450850253219
 20
558.2380211004995
 30
0.0
 11
1216.522647022943
 21
554.2380211004995
 31
0.0
  0
LINE
  5
830
330
1F
100
AcDbEntity
  8
VERDECKTE
 48
10.0
100
AcDbLine
 10
1238.957512540819
 20
537.379694162563
 30
0.0
 11
1201.801640384563
 21
601.7355525367313
 31
0.0
1001
GENIUS_GENOREF_13
1005
B17
  0
LINE
  5
831
330
1F
100
AcDbEntity
  8
VERDECKTE
 48
10.0
100
AcDbLine
 10
1212.07625369677
 20
579.8149160777248
 30
0.0
 11
1201.821356750055
 21
597.5769186158179
 31
0.0
1001
GENIUS_GENODEF_13
1002
{
1000
HIER
1070
     0
1002
}
1002
{
1000
MANEDIT
1070
     0
1002
}
1002
{
1000
NOSEL
1070
     0
1002
}
1002
{
1000
BEHIND
1070
     0
1002
}
1002
{
1000
REACTOR
1002
}
1001
GENIUS_GENOBJ-N-CEN_13
1002
{
1000
OWNER
1000
GEN
1002
}
  0
LINE
  5
832
330
1F
100
AcDbEntity
  8
VERDECKTE
 48
10.0
100
AcDbLine
 10
1215.540355311908
 20
581.814916077725
 30
0.0
 11
1205.285458365193
 21
599.5769186158179
 31
0.0
1001
GENIUS_GENODEF_13
1002
{
1000
HIER
1070
     0
1002
}
1002
{
1000
MANEDIT
1070
     0
1002
}
1002
{
1000
NOSEL
1070
     0
1002
}
1002
{
1000
BEHIND
1070
     0
1002
}
1002
{
1000
REACTOR
1002
}
1001
GENIUS_GENOBJ-N-CEN_13
1002
{
1000
OWNER
1000
GEN
1002
}
  0
LINE
  5
833
330
1F
100
AcDbEntity
  8
AM_7
100
AcDbLine
 10
1210.656126739585
 20
577.1630395549744
 30
0.0
 11
1218.413340831579
 21
581.6416691991487
 31
0.0
  0
LINE
  5
834
330
1F
100
AcDbEntity
  8
AM_7
100
AcDbLine
 10
1198.627572351387
 20
598.1727402355329
 30
0.0
 11
1206.1566330031
 21
602.5196454295447
 31
0.0
  0
ELLIPSE
  5
835
330
1F
100
AcDbEntity
  8
VERDECKTE
 48
10.0
100
AcDbEllipse
 10
1202.496963128559
 20
600.406734042333
 30
0.0
 11
-2.598076211353316
 21
-1.499999999999998
 31
0.0
210
0.0
220
0.0
230
1.0
 40
0.9449126231368628
 41
2.300523983021861
 42
7.124253977747517
  0
ELLIPSE
  5
836
330
1F
100
AcDbEntity
  8
VERDECKTE
 48
10.0
100
AcDbEllipse
 10
1214.601568983243
 20
579.4409416964229
 30
0.0
 11
-2.598076211353316
 21
-1.499999999999998
 31
0.0
210
0.0
220
0.0
230
1.0
 40
0.9201419238112578
 41
5.442116636611653
 42
10.2658466313373
  0
ELLIPSE
  5
837
330
1F
100
AcDbEntity
  8
VERDECKTE
 48
10.0
100
AcDbEllipse
 10
1214.601568983243
 20
579.4409416964229
 30
0.0
 11
-2.598076211353316
 21
-1.499999999999998
 31
0.0
210
0.0
220
0.0
230
1.0
 40
0.7095173195865053
 41
3.141592653589793
 42
3.982661324157721
  0
ELLIPSE
  5
838
330
1F
100
AcDbEntity
  8
VERDECKTE
 48
10.0
100
AcDbEllipse
 10
1214.601568983243
 20
579.4409416964229
 30
0.0
 11
-2.598076211353316
 21
-1.499999999999998
 31
0.0
210
0.0
220
0.0
230
1.0
 40
0.7095173195865053
 41
5.442116636611656
 42
6.283185307179586
  0
ELLIPSE
  5
839
330
1F
100
AcDbEntity
  8
VERDECKTE
 48
10.0
100
AcDbEllipse
 10
1202.496963128559
 20
600.406734042333
 30
0.0
 11
-2.598076211353316
 21
-1.499999999999998
 31
0.0
210
0.0
220
0.0
230
1.0
 40
0.630163330965881
 41
3.141592653589793
 42
6.283185307179586
  0
CIRCLE
  5
83A
330
1F
100
AcDbEntity
  8
VERDECKTE
 48
10.0
100
AcDbCircle
 10
1235.40017343522
 20
820.6693154442321
 30
0.0
 40
6.0
  0
ARC
  5
83B
330
1F
100
AcDbEntity
  8
VERDECKTE
 48
10.0
100
AcDbCircle
 10
1234.15017343522
 20
818.504251934771
 30
0.0
 40
15.0
100
AcDbArc
 50
329.9999999999995
 51
149.9999999999994
  0
LINE
  5
83C
330
1F
100
AcDbEntity
  8
VERDECKTE
 48
10.0
100
AcDbLine
 10
1247.140554491987
 20
811.0042519347706
 30
0.0
 11
1242.012965908774
 21
802.1230079883364
 31
0.0
  0
LINE
  5
83D
330
1F
100
AcDbEntity
  8
VERDECKTE
 48
10.0
100
AcDbLine
 10
1221.159792378453
 20
826.0042519347708
 30
0.0
 11
1216.032203795241
 21
817.1230079883365
 31
0.0
  0
LINE
  5
83E
330
1F
100
AcDbEntity
  8
AM_7
100
AcDbLine
 10
1244.133943934746
 20
815.6268706952904
 30
0.0
 11
1227.002316967467
 21
825.5178201365049
 31
0.0
  0
LINE
  5
83F
330
1F
100
AcDbEntity
  8
VERDECKTE
 48
10.0
100
AcDbLine
 10
1217.123893993591
 20
811.0138708780041
 30
0.0
 11
1236.176452876849
 21
800.013870878004
 31
0.0
  0
LINE
  5
840
330
1F
100
AcDbEntity
  8
VERDECKTE
 48
10.0
100
AcDbLine
 10
1189.873893993592
 20
763.8154863717527
 30
0.0
 11
1208.926452876849
 21
752.8154863717527
 31
0.0
  0
LINE
  5
841
330
1F
100
AcDbEntity
  8
VERDECKTE
 48
10.0
100
AcDbLine
 10
1236.908503684418
 20
797.2818200704351
 30
0.0
 11
1211.658503684418
 21
753.5475371793214
 31
0.0
1001
GENIUS_GENODEF_13
1002
{
1000
HIER
1070
     0
1002
}
1002
{
1000
MANEDIT
1070
     0
1002
}
1002
{
1000
NOSEL
1070
     0
1002
}
1002
{
1000
BEHIND
1070
     0
1002
}
1002
{
1000
REACTOR
1002
}
1001
GENIUS_GENOBJ-N-CEN_13
1002
{
1000
OWNER
1000
GEN
1002
}
  0
LINE
  5
842
330
1F
100
AcDbEntity
  8
VERDECKTE
 48
10.0
100
AcDbLine
 10
1214.391843186022
 20
810.2818200704353
 30
0.0
 11
1189.141843186023
 21
766.5475371793214
 31
0.0
1001
GENIUS_GENODEF_13
1002
{
1000
HIER
1070
     0
1002
}
1002
{
1000
MANEDIT
1070
     0
1002
}
1002
{
1000
NOSEL
1070
     0
1002
}
1002
{
1000
BEHIND
1070
     0
1002
}
1002
{
1000
REACTOR
1002
}
1001
GENIUS_GENOBJ-N-CEN_13
1002
{
1000
OWNER
1000
GEN
1002
}
  0
LINE
  5
843
330
1F
100
AcDbEntity
  8
AM_7
100
AcDbLine
 10
1236.411983347816
 20
812.4218216204502
 30
0.0
 11
1228.52026255712
 21
798.7529602518173
 31
0.0
1001
GENIUS_GENODEF_13
1002
{
1000
HIER
1070
     0
1002
}
1002
{
1000
MANEDIT
1070
     0
1002
}
1002
{
1000
NOSEL
1070
     0
1002
}
1002
{
1000
BEHIND
1070
     0
1002
}
1002
{
1000
REACTOR
1002
}
1001
GENIUS_GENOBJ-N-CEN_13
1002
{
1000
OWNER
1000
GEN
1002
}
  0
LINE
  5
844
330
1F
100
AcDbEntity
  8
AM_7
100
AcDbLine
 10
1227.751729309972
 20
817.4218216204501
 30
0.0
 11
1220.021063888488
 21
804.0319163341253
 31
0.0
1001
GENIUS_GENODEF_13
1002
{
1000
HIER
1070
     0
1002
}
1002
{
1000
MANEDIT
1070
     0
1002
}
1002
{
1000
NOSEL
1070
     0
1002
}
1002
{
1000
BEHIND
1070
     0
1002
}
1002
{
1000
REACTOR
1002
}
1001
GENIUS_GENOBJ-N-CEN_13
1002
{
1000
OWNER
1000
GEN
1002
}
  0
LINE
  5
845
330
1F
100
AcDbEntity
  8
VERDECKTE
 48
10.0
100
AcDbLine
 10
1236.761389367388
 20
806.0270105988186
 30
0.0
 11
1234.011389367388
 21
801.2638708780041
 31
0.0
1001
GENIUS_GENODEF_13
1002
{
1000
HIER
1070
     0
1002
}
1002
{
1000
MANEDIT
1070
     0
1002
}
1002
{
1000
NOSEL
1070
     0
1002
}
1002
{
1000
BEHIND
1070
     0
1002
}
1002
{
1000
REACTOR
1002
}
1001
GENIUS_GENOBJ-N-CEN_13
1002
{
1000
OWNER
1000
GEN
1002
}
  0
LINE
  5
846
330
1F
100
AcDbEntity
  8
VERDECKTE
 48
10.0
100
AcDbLine
 10
1230.699211540897
 20
809.5270105988186
 30
0.0
 11
1227.949211540897
 21
804.7638708780041
 31
0.0
1001
GENIUS_GENODEF_13
1002
{
1000
HIER
1070
     0
1002
}
1002
{
1000
MANEDIT
1070
     0
1002
}
1002
{
1000
NOSEL
1070
     0
1002
}
1002
{
1000
BEHIND
1070
     0
1002
}
1002
{
1000
REACTOR
1002
}
1001
GENIUS_GENOBJ-N-CEN_13
1002
{
1000
OWNER
1000
GEN
1002
}
  0
LINE
  5
847
330
1F
100
AcDbEntity
  8
VERDECKTE
 48
10.0
100
AcDbLine
 10
1222.038957503052
 20
814.5270105988185
 30
0.0
 11
1219.288957503052
 21
809.763870878004
 31
0.0
1001
GENIUS_GENODEF_13
1002
{
1000
HIER
1070
     0
1002
}
1002
{
1000
MANEDIT
1070
     0
1002
}
1002
{
1000
NOSEL
1070
     0
1002
}
1002
{
1000
BEHIND
1070
     0
1002
}
1002
{
1000
REACTOR
1002
}
1001
GENIUS_GENOBJ-N-CEN_13
1002
{
1000
OWNER
1000
GEN
1002
}
  0
LINE
  5
848
330
1F
100
AcDbEntity
  8
VERDECKTE
 48
10.0
100
AcDbLine
 10
1228.101135329543
 20
811.0270105988186
 30
0.0
 11
1225.351135329544
 21
806.263870878004
 31
0.0
1001
GENIUS_GENODEF_13
1002
{
1000
HIER
1070
     0
1002
}
1002
{
1000
MANEDIT
1070
     0
1002
}
1002
{
1000
NOSEL
1070
     0
1002
}
1002
{
1000
BEHIND
1070
     0
1002
}
1002
{
1000
REACTOR
1002
}
1001
GENIUS_GENOBJ-N-CEN_13
1002
{
1000
OWNER
1000
GEN
1002
}
  0
ARC
  5
849
330
1F
100
AcDbEntity
  8
VERDECKTE
 48
10.0
100
AcDbCircle
 10
1233.730300454143
 20
807.7770105988188
 30
0.0
 40
3.5
100
AcDbArc
 50
329.9999999999995
 51
149.9999999999994
  0
ARC
  5
84A
330
1F
100
AcDbEntity
  8
VERDECKTE
 48
10.0
100
AcDbCircle
 10
1225.070046416298
 20
812.7770105988188
 30
0.0
 40
3.5
100
AcDbArc
 50
329.9999999999995
 51
149.9999999999994
  0
ARC
  5
84B
330
1F
100
AcDbEntity
  8
VERDECKTE
 48
10.0
100
AcDbCircle
 10
1232.620137230258
 20
806.4367235426242
 30
0.0
 40
10.33602304889329
100
AcDbArc
 50
293.33818125732
 51
335.3327497551418
  0
ARC
  5
84C
330
1F
100
AcDbEntity
  8
VERDECKTE
 48
10.0
100
AcDbCircle
 10
1232.279338559819
 20
802.2638708780043
 30
0.0
 40
2.0
100
AcDbArc
 50
329.9999999999995
 51
59.99999999999946
  0
LINE
  5
84D
330
1F
100
AcDbEntity
  8
VERDECKTE
 48
10.0
100
AcDbLine
 10
1222.021008310621
 20
810.4959216855728
 30
0.0
 11
1224.619084521974
 21
808.995921685573
 31
0.0
  0
ARC
  5
84E
330
1F
100
AcDbEntity
  8
VERDECKTE
 48
10.0
100
AcDbCircle
 10
1229.681262348466
 20
803.7638708780043
 30
0.0
 40
2.0
100
AcDbArc
 50
59.99999999999946
 51
149.9999999999994
  0
ARC
  5
84F
330
1F
100
AcDbEntity
  8
VERDECKTE
 48
10.0
100
AcDbCircle
 10
1221.021008310621
 20
808.7638708780044
 30
0.0
 40
2.0
100
AcDbArc
 50
59.99999999999946
 51
149.9999999999994
  0
ARC
  5
850
330
1F
100
AcDbEntity
  8
VERDECKTE
 48
10.0
100
AcDbCircle
 10
1223.619084521975
 20
807.2638708780043
 30
0.0
 40
2.0
100
AcDbArc
 50
329.9999999999995
 51
59.99999999999946
  0
LINE
  5
851
330
1F
100
AcDbEntity
  8
VERDECKTE
 48
10.0
100
AcDbLine
 10
1230.681262348465
 20
805.495921685573
 30
0.0
 11
1233.279338559819
 21
803.9959216855729
 31
0.0
  0
LINE
  5
852
330
1F
100
AcDbEntity
  8
VERDECKTE
 48
10.0
100
AcDbLine
 10
1228.647002675925
 20
802.9724805769442
 30
0.0
 11
1223.466269844388
 21
793.9991880922826
 31
0.0
1001
GENIUS_GENODEF_13
1002
{
1000
HIER
1070
     0
1002
}
1002
{
1000
MANEDIT
1070
     0
1002
}
1002
{
1000
NOSEL
1070
     0
1002
}
1002
{
1000
BEHIND
1070
     0
1002
}
1002
{
1000
REACTOR
1002
}
1001
GENIUS_GENOBJ-N-CEN_13
1002
{
1000
OWNER
1000
GEN
1002
}
  0
LINE
  5
853
330
1F
100
AcDbEntity
  8
VERDECKTE
 48
10.0
100
AcDbLine
 10
1223.450850253218
 20
805.9724805769443
 30
0.0
 11
1218.270117421681
 21
796.9991880922821
 31
0.0
1001
GENIUS_GENODEF_13
1002
{
1000
HIER
1070
     0
1002
}
1002
{
1000
MANEDIT
1070
     0
1002
}
1002
{
1000
NOSEL
1070
     0
1002
}
1002
{
1000
BEHIND
1070
     0
1002
}
1002
{
1000
REACTOR
1002
}
1001
GENIUS_GENOBJ-N-CEN_13
1002
{
1000
OWNER
1000
GEN
1002
}
  0
ELLIPSE
  5
854
330
1F
100
AcDbEntity
  8
VERDECKTE
 48
10.0
100
AcDbEllipse
 10
1220.868193633035
 20
795.4991880922826
 30
0.0
 11
2.598076211353301
 21
-1.499999999999994
 31
0.0
210
0.0
220
0.0
230
0.9999999999999998
 40
0.7741598128011863
 41
3.141592653589793
 42
6.283185307179586
  0
LINE
  5
855
330
1F
100
AcDbEntity
  8
VERDECKTE
 48
10.0
100
AcDbLine
 10
1225.863986377359
 20
802.1521549495354
 30
0.0
 11
1221.734219036819
 21
794.9991880922826
 31
0.0
1001
GENIUS_GENODEF_13
1002
{
1000
HIER
1070
     0
1002
}
1002
{
1000
MANEDIT
1070
     0
1002
}
1002
{
1000
NOSEL
1070
     0
1002
}
1002
{
1000
BEHIND
1070
     0
1002
}
1002
{
1000
REACTOR
1002
}
1001
GENIUS_GENOBJ-N-CEN_13
1002
{
1000
OWNER
1000
GEN
1002
}
  0
SPLINE
  5
856
330
1F
100
AcDbEntity
  8
VERDECKTE
 48
10.0
100
AcDbSpline
210
0.0
220
0.0
230
1.0
 70
     8
 71
     3
 72
    18
 73
    14
 74
     0
 42
0.0000000001
 43
0.0000000001
 40
3.628703069452225
 40
3.628703069452225
 40
3.628703069452225
 40
3.628703069452225
 40
3.912493910190089
 40
3.912493910190089
 40
4.196284750927953
 40
4.196284750927953
 40
4.622228449873871
 40
4.622228449873871
 40
5.048172148819787
 40
5.048172148819787
 40
5.474115847765705
 40
5.474115847765705
 40
5.796074891333206
 40
5.796074891333206
 40
5.796074891333206
 40
5.796074891333206
 10
1220.022914357902
 20
796.0360147431984
 30
0.0
 10
1220.024600407852
 20
796.0140023010628
 30
0.0
 10
1220.032021835738
 20
795.9685686216801
 30
0.0
 10
1220.082007849051
 20
795.8413289499568
 30
0.0
 10
1220.124718523839
 20
795.7601990350665
 30
0.0
 10
1220.283509693702
 20
795.5439211375038
 30
0.0
 10
1220.426532116287
 20
795.4035742093899
 30
0.0
 10
1220.765930413732
 20
795.1746168983393
 30
0.0
 10
1220.96102906926
 20
795.0868087471172
 30
0.0
 10
1221.321992598886
 20
794.9908936851571
 30
0.0
 10
1221.485894193136
 20
794.9833194236014
 30
0.0
 10
1221.680370250439
 20
795.0052719565356
 30
0.0
 10
1221.73315514018
 20
795.0247381442888
 30
0.0
 10
1221.755738787727
 20
795.0355680921846
 30
0.0
  0
LINE
  5
857
330
1F
100
AcDbEntity
  8
VERDECKTE
 48
10.0
100
AcDbLine
 10
1224.13193556979
 20
803.1521549495353
 30
0.0
 11
1220.00216822925
 21
795.9991880922821
 31
0.0
1001
GENIUS_GENODEF_13
1002
{
1000
HIER
1070
     0
1002
}
1002
{
1000
MANEDIT
1070
     0
1002
}
1002
{
1000
NOSEL
1070
     0
1002
}
1002
{
1000
BEHIND
1070
     0
1002
}
1002
{
1000
REACTOR
1002
}
1001
GENIUS_GENOBJ-N-CEN_13
1002
{
1000
OWNER
1000
GEN
1002
}
  0
ARC
  5
858
330
1F
100
AcDbEntity
  8
VERDECKTE
 48
10.0
100
AcDbCircle
 10
1224.464405389212
 20
811.1454375164907
 30
0.0
 40
10.33602304889329
100
AcDbArc
 50
144.667250244856
 51
186.6618187426793
  0
ARC
  5
859
330
1F
100
AcDbEntity
  8
VERDECKTE
 48
10.0
100
AcDbCircle
 10
1235.176452876849
 20
798.2818200704355
 30
0.0
 40
2.0
100
AcDbArc
 50
329.9999999999995
 51
59.99999999999946
1001
GENIUS_GENOBJ-N-CEN_13
1002
{
1000
OWNER
1000
GEN
1002
}
1001
GENIUS_GENODEF_13
1002
{
1000
HIER
1070
     0
1002
}
1002
{
1000
MANEDIT
1070
     0
1002
}
1002
{
1000
NOSEL
1070
     0
1002
}
1002
{
1000
BEHIND
1070
     0
1002
}
1002
{
1000
REACTOR
1002
}
1001
GENIUS_GENOBJ-N-FIL_13
1002
{
1000
OWNER
1000
GEN
1002
}
  0
ARC
  5
85A
330
1F
100
AcDbEntity
  8
VERDECKTE
 48
10.0
100
AcDbCircle
 10
1216.123893993591
 20
809.2818200704355
 30
0.0
 40
2.0
100
AcDbArc
 50
59.99999999999946
 51
149.9999999999994
1001
GENIUS_GENOBJ-N-CEN_13
1002
{
1000
OWNER
1000
GEN
1002
}
1001
GENIUS_GENODEF_13
1002
{
1000
HIER
1070
     0
1002
}
1002
{
1000
MANEDIT
1070
     0
1002
}
1002
{
1000
NOSEL
1070
     0
1002
}
1002
{
1000
BEHIND
1070
     0
1002
}
1002
{
1000
REACTOR
1002
}
1001
GENIUS_GENOBJ-N-FIL_13
1002
{
1000
OWNER
1000
GEN
1002
}
  0
ARC
  5
85B
330
1F
100
AcDbEntity
  8
VERDECKTE
 48
10.0
100
AcDbCircle
 10
1209.926452876849
 20
754.5475371793218
 30
0.0
 40
2.0
100
AcDbArc
 50
239.9999999999995
 51
329.9999999999995
1001
GENIUS_GENODEF_13
1002
{
1000
HIER
1070
     0
1002
}
1002
{
1000
MANEDIT
1070
     0
1002
}
1002
{
1000
NOSEL
1070
     0
1002
}
1002
{
1000
BEHIND
1070
     0
1002
}
1002
{
1000
REACTOR
1002
}
1001
GENIUS_GENOBJ-N-FIL_13
1002
{
1000
OWNER
1000
GEN
1002
}
  0
ARC
  5
85C
330
1F
100
AcDbEntity
  8
VERDECKTE
 48
10.0
100
AcDbCircle
 10
1190.873893993592
 20
765.5475371793218
 30
0.0
 40
2.0
100
AcDbArc
 50
149.9999999999994
 51
239.9999999999995
1001
GENIUS_GENOBJ-N-CEN_13
1002
{
1000
OWNER
1000
GEN
1002
}
1001
GENIUS_GENODEF_13
1002
{
1000
HIER
1070
     0
1002
}
1002
{
1000
MANEDIT
1070
     0
1002
}
1002
{
1000
NOSEL
1070
     0
1002
}
1002
{
1000
BEHIND
1070
     0
1002
}
1002
{
1000
REACTOR
1002
}
1001
GENIUS_GENOBJ-N-FIL_13
1002
{
1000
OWNER
1000
GEN
1002
}
  0
LINE
  5
85D
330
1F
100
AcDbEntity
  8
VERDECKTE
 48
10.0
100
AcDbLine
 10
1224.13193556979
 20
803.1521549495353
 30
0.0
 11
1225.863986377359
 21
802.1521549495354
 31
0.0
  0
LINE
  5
85E
330
1F
100
AcDbEntity
  8
VERDECKTE
 48
10.0
100
AcDbLine
 10
1216.522647022943
 20
809.9724805769444
 30
0.0
 11
1223.450850253218
 21
805.9724805769443
 31
0.0
  0
ARC
  5
85F
330
1F
100
AcDbEntity
  8
VERDECKTE
 48
10.0
100
AcDbCircle
 10
1234.575205906201
 20
797.2404297693756
 30
0.0
 40
2.0
100
AcDbArc
 50
329.9999999999995
 51
59.99999999999946
1001
GENIUS_GENOBJ-N-CEN_13
1002
{
1000
OWNER
1000
GEN
1002
}
1001
GENIUS_GENODEF_13
1002
{
1000
HIER
1070
     0
1002
}
1002
{
1000
MANEDIT
1070
     0
1002
}
1002
{
1000
NOSEL
1070
     0
1002
}
1002
{
1000
BEHIND
1070
     0
1002
}
1002
{
1000
REACTOR
1002
}
1001
GENIUS_GENOBJ-N-FIL_13
1002
{
1000
OWNER
1000
GEN
1002
}
  0
ARC
  5
860
330
1F
100
AcDbEntity
  8
VERDECKTE
 48
10.0
100
AcDbCircle
 10
1215.522647022943
 20
808.2404297693756
 30
0.0
 40
2.0
100
AcDbArc
 50
59.99999999999946
 51
149.9999999999994
1001
GENIUS_GENOBJ-N-CEN_13
1002
{
1000
OWNER
1000
GEN
1002
}
1001
GENIUS_GENODEF_13
1002
{
1000
HIER
1070
     0
1002
}
1002
{
1000
MANEDIT
1070
     0
1002
}
1002
{
1000
NOSEL
1070
     0
1002
}
1002
{
1000
BEHIND
1070
     0
1002
}
1002
{
1000
REACTOR
1002
}
1001
GENIUS_GENOBJ-N-FIL_13
1002
{
1000
OWNER
1000
GEN
1002
}
  0
ARC
  5
861
330
1F
100
AcDbEntity
  8
VERDECKTE
 48
10.0
100
AcDbCircle
 10
1221.47843672521
 20
804.0037579710487
 30
0.0
 40
2.786805307953311
100
AcDbArc
 50
342.2066997936592
 51
44.94634181856424
  0
ARC
  5
862
330
1F
100
AcDbEntity
  8
VERDECKTE
 48
10.0
100
AcDbCircle
 10
1227.928245650219
 20
800.2799590519732
 30
0.0
 40
2.786805307953311
100
AcDbArc
 50
75.0536581814349
 51
137.7933002063388
  0
LINE
  5
863
330
1F
100
AcDbEntity
  8
VERDECKTE
 48
10.0
100
AcDbLine
 10
1224.241173753455
 20
804.3692274461111
 30
0.0
 11
1226.863382985808
 21
802.8552942399404
 31
0.0
  0
ARC
  5
864
330
1F
100
AcDbEntity
  8
VERDECKTE
 48
10.0
100
AcDbCircle
 10
1227.564712604862
 20
799.9093812052563
 30
0.0
 40
2.77539230657983
100
AcDbArc
 50
72.3637354700689
 51
129.1855291363148
  0
ARC
  5
865
330
1F
100
AcDbEntity
  8
VERDECKTE
 48
10.0
100
AcDbCircle
 10
1221.339273418552
 20
803.5036401952963
 30
0.0
 40
2.77539230657983
100
AcDbArc
 50
350.8144708636867
 51
47.63626452992851
  0
LINE
  5
866
330
1F
100
AcDbEntity
  8
VERDECKTE
 48
10.0
100
AcDbLine
 10
1228.647002675925
 20
802.9724805769442
 30
0.0
 11
1235.5752059062
 21
798.9724805769443
 31
0.0
  0
LINE
  5
867
330
1F
100
AcDbEntity
  8
VERDECKTE
 48
10.0
100
AcDbLine
 10
1238.957512540819
 20
826.8308075148807
 30
0.0
 11
1201.801640384564
 21
762.474949140712
 31
0.0
1001
GENIUS_GENOREF_13
1005
B16
  0
LINE
  5
868
330
1F
100
AcDbEntity
  8
VERDECKTE
 48
10.0
100
AcDbLine
 10
1215.648161769083
 20
782.3333435126479
 30
0.0
 11
1205.393264822368
 21
764.5713409745552
 31
0.0
1001
GENIUS_GENODEF_13
1002
{
1000
HIER
1070
     0
1002
}
1002
{
1000
MANEDIT
1070
     0
1002
}
1002
{
1000
NOSEL
1070
     0
1002
}
1002
{
1000
BEHIND
1070
     0
1002
}
1002
{
1000
REACTOR
1002
}
1001
GENIUS_GENOBJ-N-CEN_13
1002
{
1000
OWNER
1000
GEN
1002
}
  0
LINE
  5
869
330
1F
100
AcDbEntity
  8
VERDECKTE
 48
10.0
100
AcDbLine
 10
1212.184060153945
 20
784.333343512648
 30
0.0
 11
1201.92916320723
 21
766.5713409745554
 31
0.0
1001
GENIUS_GENODEF_13
1002
{
1000
HIER
1070
     0
1002
}
1002
{
1000
MANEDIT
1070
     0
1002
}
1002
{
1000
NOSEL
1070
     0
1002
}
1002
{
1000
BEHIND
1070
     0
1002
}
1002
{
1000
REACTOR
1002
}
1001
GENIUS_GENOBJ-N-CEN_13
1002
{
1000
OWNER
1000
GEN
1002
}
  0
LINE
  5
86A
330
1F
100
AcDbEntity
  8
AM_7
100
AcDbLine
 10
1218.654817684077
 20
782.4294157525017
 30
0.0
 11
1210.897603592083
 21
786.908045396676
 31
0.0
  0
LINE
  5
86B
330
1F
100
AcDbEntity
  8
AM_7
100
AcDbLine
 10
1206.474160362905
 20
761.5075317412402
 30
0.0
 11
1198.945099711192
 21
765.8544369352521
 31
0.0
  0
ELLIPSE
  5
86C
330
1F
100
AcDbEntity
  8
VERDECKTE
 48
10.0
100
AcDbEllipse
 10
1202.604769585734
 20
763.7415255480402
 30
0.0
 11
2.598076211353315
 21
-1.5
 31
0.0
210
0.0
220
0.0
230
0.9999999999999998
 40
0.9449126231368628
 41
2.300523983021861
 42
7.124253977747517
  0
ELLIPSE
  5
86D
330
1F
100
AcDbEntity
  8
VERDECKTE
 48
10.0
100
AcDbEllipse
 10
1214.709375440419
 20
784.7073178939502
 30
0.0
 11
2.598076211353315
 21
-1.5
 31
0.0
210
0.0
220
0.0
230
0.9999999999999998
 40
0.9201419238112578
 41
5.442116636611653
 42
10.2658466313373
  0
ELLIPSE
  5
86E
330
1F
100
AcDbEntity
  8
VERDECKTE
 48
10.0
100
AcDbEllipse
 10
1214.709375440419
 20
784.7073178939502
 30
0.0
 11
2.598076211353315
 21
-1.5
 31
0.0
210
0.0
220
0.0
230
0.9999999999999998
 40
0.7095173195865053
 41
3.141592653589793
 42
3.982661324157721
  0
ELLIPSE
  5
86F
330
1F
100
AcDbEntity
  8
VERDECKTE
 48
10.0
100
AcDbEllipse
 10
1214.709375440419
 20
784.7073178939502
 30
0.0
 11
2.598076211353315
 21
-1.5
 31
0.0
210
0.0
220
0.0
230
0.9999999999999998
 40
0.7095173195865053
 41
5.442116636611656
 42
6.283185307179586
  0
ELLIPSE
  5
870
330
1F
100
AcDbEntity
  8
VERDECKTE
 48
10.0
100
AcDbEllipse
 10
1202.604769585734
 20
763.7415255480402
 30
0.0
 11
2.598076211353315
 21
-1.5
 31
0.0
210
0.0
220
0.0
230
0.9999999999999998
 40
0.6301633309658806
 41
3.141592653589793
 42
6.283185307179586
  0
LINE
  5
871
330
1F
100
AcDbEntity
  8
UMRISS05
100
AcDbLine
 10
737.2514435588941
 20
785.7460325654113
 30
0.0
 11
747.1099927052622
 21
785.7460325654113
 31
0.0
  0
LINE
  5
872
330
1F
100
AcDbEntity
  8
UMRISS05
100
AcDbLine
 10
737.2514435588941
 20
776.9172213267536
 30
0.0
 11
737.2514435588941
 21
785.7460325654113
 31
0.0
  0
LINE
  5
873
330
1F
100
AcDbEntity
  8
OBERTEIL
100
AcDbLine
 10
727.2360065290418
 20
776.3910087393647
 30
0.0
 11
738.2673167170174
 21
776.3910087393647
 31
0.0
  0
LINE
  5
874
330
1F
100
AcDbEntity
  8
UMRISS05
100
AcDbLine
 10
737.2514435588941
 20
776.9172213267536
 30
0.0
 11
738.2673167170174
 21
776.917221326753
 31
0.0
  0
ARC
  5
875
330
1F
100
AcDbEntity
  8
UMRISS05
100
AcDbCircle
 10
742.1034838016853
 20
785.7308706372521
 30
0.0
 40
1.539277951260048
100
AcDbArc
 50
0.5643740561916709
 51
179.4356259438083
  0
LINE
  5
876
330
1F
100
AcDbEntity
  8
UMRISS05
100
AcDbLine
 10
747.1099927052622
 20
785.7460325654113
 30
0.0
 11
747.1099927052622
 21
776.917221326753
 31
0.0
  0
LINE
  5
877
330
1F
100
AcDbEntity
  8
OBERTEIL
100
AcDbLine
 10
745.9673167410795
 20
776.3910087393647
 30
0.0
 11
756.998626929056
 21
776.3910087393647
 31
0.0
  0
LINE
  5
878
330
1F
100
AcDbEntity
  8
VENTILKOMPL
100
AcDbLine
 10
745.9673167410795
 20
776.917221326753
 30
0.0
 11
745.9673167410795
 21
776.3910087393647
 31
0.0
  0
LINE
  5
879
330
1F
100
AcDbEntity
  8
UMRISS05
100
AcDbLine
 10
745.9673167410795
 20
776.917221326753
 30
0.0
 11
747.1099927052622
 21
776.917221326753
 31
0.0
  0
LINE
  5
87A
330
1F
100
AcDbEntity
  8
0
100
AcDbLine
 10
738.2673167170174
 20
776.3910087393647
 30
0.0
 11
738.2673167170174
 21
776.917221326753
 31
0.0
  0
LINE
  5
87B
330
1F
100
AcDbEntity
  8
0
100
AcDbLine
 10
738.2673167170174
 20
776.917221326753
 30
0.0
 11
745.9673167410795
 21
776.917221326753
 31
0.0
  0
LINE
  5
87C
330
1F
100
AcDbEntity
  8
0
100
AcDbLine
 10
738.2673167170174
 20
776.3910087393647
 30
0.0
 11
745.9673167410795
 21
776.3910087393647
 31
0.0
  0
LINE
  5
87D
330
1F
100
AcDbEntity
  8
0
100
AcDbLine
 10
924.2453757311841
 20
444.7825723678816
 30
0.0
 11
924.2453757311841
 21
472.5902799265599
 31
0.0
  0
LINE
  5
87E
330
1F
100
AcDbEntity
  8
0
100
AcDbLine
 10
939.8403772273031
 20
471.1435236624084
 30
0.0
 11
939.8403772273031
 21
446.2293286320331
 31
0.0
  0
LINE
  5
87F
330
1F
100
AcDbEntity
  8
AM_0
100
AcDbLine
 10
565.1514712026137
 20
566.2646283415431
 30
0.0
 11
742.1341506539895
 21
566.2378991171322
 31
0.0
  0
LINE
  5
880
330
1F
100
AcDbEntity
  8
AM_6
100
AcDbLine
 10
742.1319358283843
 20
536.9077720982907
 30
0.0
 11
567.1470415286185
 21
536.9341996024318
 31
0.0
  0
LINE
  5
881
330
1F
100
AcDbEntity
  8
AM_6
100
AcDbLine
 10
742.132589795971
 20
545.5680261361345
 30
0.0
 11
567.1483494637848
 21
545.5944535415094
 31
0.0
  0
LINE
  5
882
330
1F
100
AcDbEntity
  8
AM_4
100
AcDbLine
 10
566.2693348365195
 20
568.2965103443018
 30
0.0
 11
742.1343041016085
 21
568.2699499247749
 31
0.0
  0
LINE
  5
883
330
1F
100
AcDbEntity
  8
0
100
AcDbLine
 10
1335.954641303466
 20
668.3758741888196
 30
0.0
 11
1335.954641303466
 21
695.3170603125013
 31
0.0
  0
LWPOLYLINE
  5
884
330
1F
100
AcDbEntity
  8
0
100
AcDbPolyline
 90
        4
 70
     1
 43
0.0
 10
494.8431910715702
 20
246.1267574436513
 10
1416.161295116368
 20
246.1267574436513
 10
1416.161295116368
 20
920.0922254436514
 10
494.8431910715702
 20
920.0922254436514
1001
GENIUS_GENREC_14
1002
{
1000
PYDIR
1011
494.8431910715702
1021
920.0922254436514
1031
0.0
1002
}
1002
{
1000
PXDIR
1011
1416.161295116368
1021
246.1267574436513
1031
0.0
1002
}
1002
{
1000
PORI
1011
494.8431910715702
1021
246.1267574436513
1031
0.0
1002
}
1002
{
1000
PINS
1011
494.8431910715702
1021
246.1267574436513
1031
0.0
1002
}
1002
{
1000
PINS2
1011
1416.161295116368
1021
920.0922254436514
1031
0.0
1002
}
1002
{
1000
C
1070
     1
1002
}
1001
GENIUS_GENODEF_13
1002
{
1000
HIER
1070
     0
1002
}
1002
{
1000
MANEDIT
1070
     0
1002
}
1002
{
1000
NOSEL
1070
     0
1002
}
1002
{
1000
BEHIND
1070
     0
1002
}
1002
{
1000
OTHER
1070
     0
1002
}
1002
{
1000
REACTOR
1002
}
1001
GENIUS_GENOBJ-N-REC_13
1002
{
1000
OWNER
1000
GEN
1002
}
  0
TEXT
  5
885
330
1F
100
AcDbEntity
  8
6
100
AcDbText
 10
1261.312718970825
 20
304.1883936373482
 30
0.0
 40
6.84288
  1
Reflex Winkelmann GmbH
 41
0.95
 72
     1
 11
1309.418165370825
 21
304.1883936373482
 31
0.0
100
AcDbText
  0
TEXT
  5
886
330
1F
100
AcDbEntity
  8
0
100
AcDbText
 10
1148.184077006026
 20
308.8444127413481
 30
0.0
 40
9.503999999999996
  1
reflex NG
100
AcDbText
  0
TEXT
  5
887
330
1F
100
AcDbEntity
  8
0
100
AcDbText
 10
1101.349068302028
 20
326.9020127413482
 30
0.0
 40
9.503999999999996
  1
Druckausdehnungsgefäß
100
AcDbText
  0
TEXT
  5
888
330
1F
100
AcDbEntity
  8
DN50-0
100
AcDbText
 10
1139.965555732425
 20
289.8997359925481
 30
0.0
 40
9.503999999999996
  1
35 l  - 6 bar
100
AcDbText
  0
POLYLINE
  5
889
330
1F
100
AcDbEntity
  8
4
100
AcDb2dPolyline
 66
     1
 10
0.0
 20
0.0
 30
0.0
  0
VERTEX
  5
88A
330
889
100
AcDbEntity
  8
4
100
AcDbVertex
100
AcDb2dVertex
 10
1309.793497338826
 20
331.9759721461484
 30
0.0
  0
VERTEX
  5
88B
330
889
100
AcDbEntity
  8
4
100
AcDbVertex
100
AcDb2dVertex
 10
1309.793497338826
 20
318.6956090677478
 30
0.0
  0
VERTEX
  5
88C
330
889
100
AcDbEntity
  8
4
100
AcDbVertex
100
AcDb2dVertex
 10
1312.894295188427
 20
318.6956090677478
 30
0.0
  0
VERTEX
  5
88D
330
889
100
AcDbEntity
  8
4
100
AcDbVertex
100
AcDb2dVertex
 10
1312.894295188427
 20
331.9759721461484
 30
0.0
  0
VERTEX
  5
88E
330
889
100
AcDbEntity
  8
4
100
AcDbVertex
100
AcDb2dVertex
 10
1309.793497338826
 20
331.9759721461484
 30
0.0
  0
VERTEX
  5
88F
330
889
100
AcDbEntity
  8
4
100
AcDbVertex
100
AcDb2dVertex
 10
1309.793497338826
 20
331.9759721461484
 30
0.0
  0
SEQEND
  5
890
330
889
100
AcDbEntity
  8
4
  0
TEXT
  5
891
330
1F
100
AcDbEntity
  8
6
100
AcDbText
 10
1284.417227271652
 20
294.5880743989479
 30
0.0
 40
6.84288
  1
59227 Ahlen
 72
     1
 11
1309.529700513227
 21
294.5880743989479
 31
0.0
100
AcDbText
  0
POLYLINE
  5
892
330
1F
100
AcDbEntity
  8
4
100
AcDb2dPolyline
 66
     1
 10
0.0
 20
0.0
 30
0.0
  0
VERTEX
  5
893
330
892
100
AcDbEntity
  8
4
100
AcDbVertex
100
AcDb2dVertex
 10
1285.985829076427
 20
314.5723214773481
 30
0.0
  0
VERTEX
  5
894
330
892
100
AcDbEntity
  8
4
100
AcDbVertex
100
AcDb2dVertex
 10
1335.863098593229
 20
314.5723214773481
 30
0.0
  0
VERTEX
  5
895
330
892
100
AcDbEntity
  8
4
100
AcDbVertex
100
AcDb2dVertex
 10
1335.863098593229
 20
315.0378977269481
 30
0.0
  0
VERTEX
  5
896
330
892
100
AcDbEntity
  8
4
100
AcDbVertex
100
AcDb2dVertex
 10
1285.985829076427
 20
315.0378977269481
 30
0.0
  0
VERTEX
  5
897
330
892
100
AcDbEntity
  8
4
100
AcDbVertex
100
AcDb2dVertex
 10
1285.985829076427
 20
314.5723214773481
 30
0.0
  0
VERTEX
  5
898
330
892
100
AcDbEntity
  8
4
100
AcDbVertex
100
AcDb2dVertex
 10
1285.985829076427
 20
314.5723214773481
 30
0.0
  0
SEQEND
  5
899
330
892
100
AcDbEntity
  8
4
  0
POLYLINE
  5
89A
330
1F
100
AcDbEntity
  8
4
100
AcDb2dPolyline
 66
     1
 10
0.0
 20
0.0
 30
0.0
  0
VERTEX
  5
89B
330
89A
100
AcDbEntity
  8
4
100
AcDbVertex
100
AcDb2dVertex
 10
1335.863098593229
 20
334.9969021813481
 30
0.0
  0
VERTEX
  5
89C
330
89A
100
AcDbEntity
  8
4
100
AcDbVertex
100
AcDb2dVertex
 10
1285.985829076427
 20
334.9969021813481
 30
0.0
  0
VERTEX
  5
89D
330
89A
100
AcDbEntity
  8
4
100
AcDbVertex
100
AcDb2dVertex
 10
1285.985829076427
 20
334.5313278325482
 30
0.0
  0
VERTEX
  5
89E
330
89A
100
AcDbEntity
  8
4
100
AcDbVertex
100
AcDb2dVertex
 10
1335.863098593229
 20
334.5313278325482
 30
0.0
  0
VERTEX
  5
89F
330
89A
100
AcDbEntity
  8
4
100
AcDbVertex
100
AcDb2dVertex
 10
1335.863098593229
 20
334.9969021813481
 30
0.0
  0
VERTEX
  5
8A0
330
89A
100
AcDbEntity
  8
4
100
AcDbVertex
100
AcDb2dVertex
 10
1335.863098593229
 20
334.9969021813481
 30
0.0
  0
SEQEND
  5
8A1
330
89A
100
AcDbEntity
  8
4
  0
POLYLINE
  5
8A2
330
1F
100
AcDbEntity
  8
4
100
AcDb2dPolyline
 66
     1
 10
0.0
 20
0.0
 30
0.0
  0
VERTEX
  5
8A3
330
8A2
100
AcDbEntity
  8
4
100
AcDbVertex
100
AcDb2dVertex
 10
1285.985829076427
 20
334.7641150069484
 30
0.0
  0
VERTEX
  5
8A4
330
8A2
100
AcDbEntity
  8
4
100
AcDbVertex
100
AcDb2dVertex
 10
1335.863098593229
 20
334.7641150069484
 30
0.0
  0
VERTEX
  5
8A5
330
8A2
100
AcDbEntity
  8
4
100
AcDbVertex
100
AcDb2dVertex
 10
1336.237582804427
 20
334.7168820277482
 30
0.0
  0
VERTEX
  5
8A6
330
8A2
100
AcDbEntity
  8
4
100
AcDbVertex
100
AcDb2dVertex
 10
1336.591823495627
 20
334.6224179701483
 30
0.0
  0
VERTEX
  5
8A7
330
8A2
100
AcDbEntity
  8
4
100
AcDbVertex
100
AcDb2dVertex
 10
1336.898833108427
 20
334.4334898549481
 30
0.0
  0
VERTEX
  5
8A8
330
8A2
100
AcDbEntity
  8
4
100
AcDbVertex
100
AcDb2dVertex
 10
1337.182227182026
 20
334.2209442997483
 30
0.0
  0
VERTEX
  5
8A9
330
8A2
100
AcDbEntity
  8
4
100
AcDbVertex
100
AcDb2dVertex
 10
1337.418388276429
 20
333.9375502261484
 30
0.0
  0
VERTEX
  5
8AA
330
8A2
100
AcDbEntity
  8
4
100
AcDbVertex
100
AcDb2dVertex
 10
1337.583702753227
 20
333.6305406133485
 30
0.0
  0
VERTEX
  5
8AB
330
8A2
100
AcDbEntity
  8
4
100
AcDbVertex
100
AcDb2dVertex
 10
1337.701782350026
 20
333.2762980213481
 30
0.0
  0
VERTEX
  5
8AC
330
8A2
100
AcDbEntity
  8
4
100
AcDbVertex
100
AcDb2dVertex
 10
1337.725397889225
 20
332.9018138101482
 30
0.0
  0
VERTEX
  5
8AD
330
8A2
100
AcDbEntity
  8
4
100
AcDbVertex
100
AcDb2dVertex
 10
1337.725397889225
 20
316.643794309348
 30
0.0
  0
VERTEX
  5
8AE
330
8A2
100
AcDbEntity
  8
4
100
AcDbVertex
100
AcDb2dVertex
 10
1337.701782350026
 20
316.2693100981481
 30
0.0
  0
VERTEX
  5
8AF
330
8A2
100
AcDbEntity
  8
4
100
AcDbVertex
100
AcDb2dVertex
 10
1337.583702753227
 20
315.938684946148
 30
0.0
  0
VERTEX
  5
8B0
330
8A2
100
AcDbEntity
  8
4
100
AcDbVertex
100
AcDb2dVertex
 10
1337.418388276429
 20
315.608057893348
 30
0.0
  0
VERTEX
  5
8B1
330
8A2
100
AcDbEntity
  8
4
100
AcDbVertex
100
AcDb2dVertex
 10
1337.182227182026
 20
315.3482812597482
 30
0.0
  0
VERTEX
  5
8B2
330
8A2
100
AcDbEntity
  8
4
100
AcDbVertex
100
AcDb2dVertex
 10
1336.898833108427
 20
315.1121201653478
 30
0.0
  0
VERTEX
  5
8B3
330
8A2
100
AcDbEntity
  8
4
100
AcDbVertex
100
AcDb2dVertex
 10
1336.591823495627
 20
314.9468075893483
 30
0.0
  0
VERTEX
  5
8B4
330
8A2
100
AcDbEntity
  8
4
100
AcDbVertex
100
AcDb2dVertex
 10
1336.237582804427
 20
314.8287260917481
 30
0.0
  0
VERTEX
  5
8B5
330
8A2
100
AcDbEntity
  8
4
100
AcDbVertex
100
AcDb2dVertex
 10
1335.863098593229
 20
314.8051105525479
 30
0.0
  0
VERTEX
  5
8B6
330
8A2
100
AcDbEntity
  8
4
100
AcDbVertex
100
AcDb2dVertex
 10
1285.985829076427
 20
314.8051105525479
 30
0.0
  0
VERTEX
  5
8B7
330
8A2
100
AcDbEntity
  8
4
100
AcDbVertex
100
AcDb2dVertex
 10
1285.611342964429
 20
314.8287260917481
 30
0.0
  0
VERTEX
  5
8B8
330
8A2
100
AcDbEntity
  8
4
100
AcDbVertex
100
AcDb2dVertex
 10
1285.280717812427
 20
314.9468075893483
 30
0.0
  0
VERTEX
  5
8B9
330
8A2
100
AcDbEntity
  8
4
100
AcDbVertex
100
AcDb2dVertex
 10
1284.950092660427
 20
315.1121201653478
 30
0.0
  0
VERTEX
  5
8BA
330
8A2
100
AcDbEntity
  8
4
100
AcDbVertex
100
AcDb2dVertex
 10
1284.690314126027
 20
315.3482812597482
 30
0.0
  0
VERTEX
  5
8BB
330
8A2
100
AcDbEntity
  8
4
100
AcDbVertex
100
AcDb2dVertex
 10
1284.454153031626
 20
315.608057893348
 30
0.0
  0
VERTEX
  5
8BC
330
8A2
100
AcDbEntity
  8
4
100
AcDbVertex
100
AcDb2dVertex
 10
1284.288840455626
 20
315.938684946148
 30
0.0
  0
VERTEX
  5
8BD
330
8A2
100
AcDbEntity
  8
4
100
AcDbVertex
100
AcDb2dVertex
 10
1284.170758958028
 20
316.2693100981481
 30
0.0
  0
VERTEX
  5
8BE
330
8A2
100
AcDbEntity
  8
4
100
AcDbVertex
100
AcDb2dVertex
 10
1284.123527879627
 20
316.643794309348
 30
0.0
  0
VERTEX
  5
8BF
330
8A2
100
AcDbEntity
  8
4
100
AcDbVertex
100
AcDb2dVertex
 10
1284.123527879627
 20
332.9018138101482
 30
0.0
  0
VERTEX
  5
8C0
330
8A2
100
AcDbEntity
  8
4
100
AcDbVertex
100
AcDb2dVertex
 10
1284.170758958028
 20
333.2762980213481
 30
0.0
  0
VERTEX
  5
8C1
330
8A2
100
AcDbEntity
  8
4
100
AcDbVertex
100
AcDb2dVertex
 10
1284.288840455626
 20
333.6305406133485
 30
0.0
  0
VERTEX
  5
8C2
330
8A2
100
AcDbEntity
  8
4
100
AcDbVertex
100
AcDb2dVertex
 10
1284.454153031626
 20
333.9375502261484
 30
0.0
  0
VERTEX
  5
8C3
330
8A2
100
AcDbEntity
  8
4
100
AcDbVertex
100
AcDb2dVertex
 10
1284.690314126027
 20
334.2209442997483
 30
0.0
  0
VERTEX
  5
8C4
330
8A2
100
AcDbEntity
  8
4
100
AcDbVertex
100
AcDb2dVertex
 10
1284.950092660427
 20
334.4334898549481
 30
0.0
  0
VERTEX
  5
8C5
330
8A2
100
AcDbEntity
  8
4
100
AcDbVertex
100
AcDb2dVertex
 10
1285.280717812427
 20
334.6224179701483
 30
0.0
  0
VERTEX
  5
8C6
330
8A2
100
AcDbEntity
  8
4
100
AcDbVertex
100
AcDb2dVertex
 10
1285.611342964429
 20
334.7168820277482
 30
0.0
  0
VERTEX
  5
8C7
330
8A2
100
AcDbEntity
  8
4
100
AcDbVertex
100
AcDb2dVertex
 10
1285.985829076427
 20
334.7641150069484
 30
0.0
  0
VERTEX
  5
8C8
330
8A2
100
AcDbEntity
  8
4
100
AcDbVertex
100
AcDb2dVertex
 10
1285.985829076427
 20
334.7641150069484
 30
0.0
  0
SEQEND
  5
8C9
330
8A2
100
AcDbEntity
  8
4
  0
HATCH
  5
8CA
330
1F
100
AcDbEntity
  8
4
100
AcDbHatch
 10
0.0
 20
0.0
 30
0.0
210
0.0
220
0.0
230
1.0
  2
SOLID
 70
     1
 71
     0
 91
       13
 92
        7
 72
     0
 73
     1
 93
        4
 10
1284.356315125806
 20
332.9018141222926
 10
1284.123527543753
 20
332.9018141222926
 10
1284.123527543753
 20
316.6437944422166
 10
1284.356315125806
 20
316.6437944422166
 97
        0
 92
        7
 72
     0
 73
     1
 93
        4
 10
1335.863097955385
 20
315.0378974993415
 10
1285.985828200199
 20
315.0378974993415
 10
1285.985828200199
 20
314.8051099172861
 10
1335.863097955385
 20
314.8051099172861
 97
        0
 92
        7
 72
     0
 73
     1
 93
        4
 10
1335.863097955385
 20
334.7641147787358
 10
1285.985828200199
 20
334.7641147787358
 10
1285.985828200199
 20
334.5313271966808
 10
1335.863097955385
 20
334.5313271966808
 97
        0
 92
        7
 72
     0
 73
     1
 93
        4
 10
1337.958186193884
 20
332.9018141222926
 10
1337.725398611828
 20
332.9018141222926
 10
1337.725398611828
 20
316.6437944422166
 10
1337.958186193884
 20
316.6437944422166
 97
        0
 92
        7
 72
     0
 73
     1
 93
       42
 10
1285.280717987883
 20
334.6224179896591
 10
1285.611343829065
 20
334.716882515711
 10
1285.985828200199
 20
334.7641147787358
 10
1285.985828200197
 20
334.9969023607917
 10
1285.881242474928
 20
334.9935286277187
 10
1285.776656749657
 20
334.9834074284988
 10
1285.672071024381
 20
334.9699124962055
 10
1285.56748529911
 20
334.9530438308386
 10
1285.466273306915
 20
334.9294276993264
 10
1285.368435047789
 20
334.8990641016675
 10
1285.270596788661
 20
334.8653267709337
 10
1285.176132262611
 20
334.8282157071288
 10
1285.085041469635
 20
334.7877309102487
 10
1284.993950676657
 20
334.740498647225
 10
1284.90623361675
 20
334.6898926511247
 10
1284.821890289933
 20
334.6325391888787
 10
1284.740920696161
 20
334.5751857266343
 10
1284.659951102406
 20
334.5110847982403
 10
1284.582355241717
 20
334.4469838698497
 10
1284.511506847179
 20
334.3761354753097
 10
1284.440658452637
 20
334.3019133476962
 10
1284.37655752425
 20
334.2276912200888
 10
1284.312456595856
 20
334.1467216263302
 10
1284.255103133611
 20
334.0657520325667
 10
1284.197749671364
 20
333.9814087057366
 10
1284.147143675265
 20
333.89369164583
 10
1284.099911412241
 20
333.8026008528556
 10
1284.059426615364
 20
333.7115100598811
 10
1284.022315551556
 20
333.6170455338287
 10
1283.988578220824
 20
333.519207274697
 10
1283.958214623163
 20
333.421369015574
 10
1283.934598491652
 20
333.3201570233789
 10
1283.917729826284
 20
333.215571298105
 10
1283.904234893993
 20
333.1109855728323
 10
1283.894113694773
 20
333.0063998475649
 10
1283.890739961697
 20
332.9018141222926
 10
1284.123527543753
 20
332.9018141222926
 10
1284.17075980678
 20
333.2762984934246
 10
1284.288840464343
 20
333.6305404661177
 10
1284.454153384935
 20
333.9375501757868
 10
1284.690314700064
 20
334.2209437539399
 10
1284.950092146704
 20
334.4334889375565
 97
        0
 92
        7
 72
     0
 73
     1
 93
       42
 10
1285.35831384857
 20
334.4031253398969
 10
1285.432535976181
 20
334.4301152044824
 10
1285.506758103794
 20
334.4571050690693
 10
1285.584353964479
 20
334.4807212005819
 10
1285.661949825165
 20
334.497589865947
 10
1285.742919418922
 20
334.5144585313144
 10
1285.823889012683
 20
334.5245797305351
 10
1285.904858606441
 20
334.5313271966808
 10
1285.985828200199
 20
334.5313271966808
 10
1285.985828200197
 20
334.7641147787366
 10
1285.611343829065
 20
334.716882515711
 10
1285.280717987883
 20
334.6224179896588
 10
1284.950092146704
 20
334.4334889375561
 10
1284.690314700063
 20
334.2209437539388
 10
1284.454153384934
 20
333.937550175786
 10
1284.288840464344
 20
333.6305404661188
 10
1284.17075980678
 20
333.2762984934246
 10
1284.123527543753
 20
332.9018141222926
 10
1284.356315125806
 20
332.9018141222926
 10
1284.356315125806
 20
332.9827837160526
 10
1284.363062591957
 20
333.0637533098102
 10
1284.373183791175
 20
333.1447229035675
 10
1284.390052456537
 20
333.2256924973348
 10
1284.406921121907
 20
333.3032883580121
 10
1284.430537253424
 20
333.3775104856314
 10
1284.454153384934
 20
333.4551063463086
 10
1284.484516982596
 20
333.5293284739203
 10
1284.518254313329
 20
333.6001768684566
 10
1284.555365377132
 20
333.6710252629969
 10
1284.59585017401
 20
333.738499924463
 10
1284.63633497089
 20
333.8059745859283
 10
1284.683567233921
 20
333.8700755143276
 10
1284.730799496941
 20
333.9308027096421
 10
1284.784779226113
 20
333.9915299049561
 10
1284.838758955287
 20
334.0488833672037
 10
1284.896112417531
 20
334.1028630963745
 10
1284.956839612852
 20
334.1534690924746
 10
1285.017566808169
 20
334.2040750885744
 10
1285.081667736562
 20
334.2513073515994
 10
1285.149142398027
 20
334.2917921484788
 10
1285.216617059492
 20
334.3322769453582
 10
1285.287465454033
 20
334.3693880091639
 97
        0
 92
        7
 72
     0
 73
     1
 93
        4
 10
1335.863097955385
 20
314.8051099172861
 10
1285.985828200199
 20
314.8051099172861
 10
1285.985828200199
 20
314.5723223352299
 10
1335.863097955385
 20
314.5723223352299
 97
        0
 92
       22
 72
     0
 73
     1
 93
       42
 10
1337.418388902161
 20
315.6080583887231
 10
1337.583701822751
 20
315.9386842299033
 10
1337.701782480315
 20
316.2693100710835
 10
1337.725398611828
 20
316.6437944422166
 10
1337.492611029772
 20
316.6437944422166
 10
1337.492611029772
 20
316.5628248484567
 10
1337.485863563625
 20
316.4818552546967
 10
1337.475742364407
 20
316.4008856609399
 10
1337.462247432112
 20
316.3199160671824
 10
1337.44200503367
 20
316.2423202064796
 10
1337.421762635233
 20
316.1680980788861
 10
1337.394772770648
 20
316.093875951274
 10
1337.367782906063
 20
316.0196538236637
 10
1337.334045575329
 20
315.9488054291238
 10
1337.300308244596
 20
315.877957034584
 10
1337.259823447717
 20
315.8138561061893
 10
1337.219338650839
 20
315.7463814447276
 10
1337.172106387814
 20
315.6856542494048
 10
1337.124874124785
 20
315.6215533210152
 10
1337.074268128689
 20
315.5641998587735
 10
1337.020288399513
 20
315.5102201295979
 10
1336.962934937272
 20
315.4562404004271
 10
1336.905581475023
 20
315.4056344043269
 10
1336.841480546633
 20
315.3584021413018
 10
1336.777379618237
 20
315.3111698782744
 10
1336.713278689841
 20
315.2706850813953
 10
1336.645804028385
 20
315.2302002845171
 10
1336.574955633846
 20
315.1964629537828
 10
1336.500733506233
 20
315.1627256230522
 10
1336.42651137862
 20
315.1357357584659
 10
1336.352289251008
 20
315.1087458938794
 10
1336.27469339032
 20
315.0885034954393
 10
1336.193723796566
 20
315.0716348300739
 10
1336.112754202807
 20
315.0547661647076
 10
1336.031784609049
 20
315.0446449654876
 10
1335.947441282214
 20
315.0378974993415
 10
1335.863097955385
 20
315.0378974993415
 10
1335.863097955385
 20
314.8051099172861
 10
1336.237582326519
 20
314.8287260487986
 10
1336.591824299211
 20
314.946806706363
 10
1336.898834008878
 20
315.1121196269533
 10
1337.182227587031
 20
315.3482809420829
 97
        0
 92
        7
 72
     0
 73
     1
 93
       42
 10
1337.479116097477
 20
315.3280385436428
 10
1337.543217025874
 20
315.4056344043281
 10
1337.600570488117
 20
315.4866039980841
 10
1337.654550217291
 20
315.5709473249178
 10
1337.705156213388
 20
315.6586643848176
 10
1337.752388476414
 20
315.746381444729
 10
1337.792873273294
 20
315.8374722377033
 10
1337.829984337101
 20
315.9319367637565
 10
1337.863721667833
 20
316.0297750228843
 10
1337.890711532419
 20
316.1276132820013
 10
1337.914327663932
 20
316.228825274207
 10
1337.934570062371
 20
316.330037266402
 10
1337.944691261591
 20
316.4346229916738
 10
1337.954812460809
 20
316.5392087169468
 10
1337.958186193884
 20
316.6437944422166
 10
1337.725398611828
 20
316.6437944422166
 10
1337.701782480315
 20
316.2693100710843
 10
1337.583701822751
 20
315.9386842299026
 10
1337.418388902161
 20
315.6080583887235
 10
1337.182227587031
 20
315.3482809420807
 10
1336.898834008878
 20
315.112119626953
 10
1336.591824299208
 20
314.9468067063623
 10
1336.237582326519
 20
314.8287260487986
 10
1335.863097955385
 20
314.8051099172861
 10
1335.863097955385
 20
314.5723223352299
 10
1335.967683680655
 20
314.5756960683035
 10
1336.075643138999
 20
314.5858172675233
 10
1336.183602597343
 20
314.5959384667435
 10
1336.284814589544
 20
314.616180865183
 10
1336.38602658174
 20
314.6364232636219
 10
1336.487238573939
 20
314.6667868612817
 10
1336.585076833051
 20
314.7005241920141
 10
1336.679541359114
 20
314.7342615227467
 10
1336.774005885162
 20
314.7781200526972
 10
1336.861722945074
 20
314.8219785826536
 10
1336.949440004975
 20
314.872584578751
 10
1337.037157064882
 20
314.9265643079224
 10
1337.118126658636
 20
314.9839177701679
 10
1337.199096252397
 20
315.0446449654876
 10
1337.273318380011
 20
315.1121196269533
 10
1337.347540507621
 20
315.1795942884191
 10
1337.415015169091
 20
315.2504426829577
 97
        0
 92
        7
 72
     0
 73
     1
 93
       42
 10
1337.182227587031
 20
334.2209437539399
 10
1336.898834008878
 20
334.4334889375554
 10
1336.591824299208
 20
334.6224179896591
 10
1336.237582326519
 20
334.716882515711
 10
1335.863097955385
 20
334.7641147787366
 10
1335.863097955385
 20
334.5313271966808
 10
1335.947441282214
 20
334.5313271966808
 10
1336.031784609049
 20
334.5245797305351
 10
1336.112754202807
 20
334.5110847982408
 10
1336.193723796566
 20
334.4975898659487
 10
1336.271319657251
 20
334.4807212005819
 10
1336.348915517934
 20
334.4571050690685
 10
1336.42651137862
 20
334.4301152044824
 10
1336.500733506229
 20
334.4031253398969
 10
1336.571581900771
 20
334.3693880091639
 10
1336.642430295308
 20
334.3322769453582
 10
1336.709904956776
 20
334.2917921484788
 10
1336.777379618242
 20
334.2513073515994
 10
1336.841480546628
 20
334.2040750885744
 10
1336.902207741949
 20
334.1568428255474
 10
1336.962934937269
 20
334.1028630963761
 10
1337.020288399518
 20
334.0488833672031
 10
1337.070894395613
 20
333.9915299049601
 10
1337.124874124785
 20
333.9341764427127
 10
1337.172106387814
 20
333.8700755143211
 10
1337.215964917765
 20
333.8059745859283
 10
1337.259823447716
 20
333.7418736575357
 10
1337.296934511523
 20
333.6710252629976
 10
1337.334045575329
 20
333.6035506015307
 10
1337.367782906063
 20
333.5293284739187
 10
1337.394772770648
 20
333.4551063463086
 10
1337.421762635233
 20
333.3808842186944
 10
1337.442005033672
 20
333.3032883580121
 10
1337.462247432112
 20
333.225692497326
 10
1337.475742364403
 20
333.1447229035728
 10
1337.485863563625
 20
333.0671270428864
 10
1337.492611029772
 20
332.9827837160514
 10
1337.492611029772
 20
332.9018141222926
 10
1337.725398611828
 20
332.9018141222926
 10
1337.701782480315
 20
333.276298493426
 10
1337.583701822751
 20
333.6305404661177
 10
1337.418388902161
 20
333.937550175786
 97
        0
 92
        7
 72
     0
 73
     1
 93
       42
 10
1337.276692113081
 20
334.4436101367775
 10
1337.1990962524
 20
334.5110847982403
 10
1337.121500391713
 20
334.5751857266343
 10
1337.037157064882
 20
334.6325391888791
 10
1336.952813738049
 20
334.6898926511247
 10
1336.865096678143
 20
334.7404986472237
 10
1336.774005885167
 20
334.7877309102487
 10
1336.682915092189
 20
334.8282157071282
 10
1336.585076833064
 20
334.8653267709341
 10
1336.487238573939
 20
334.8990641016669
 10
1336.389400314815
 20
334.9294276993264
 10
1336.284814589542
 20
334.9530438308391
 10
1336.183602597343
 20
334.9699124962055
 10
1336.075643138999
 20
334.9834074284988
 10
1335.971057413728
 20
334.9935286277187
 10
1335.863097955385
 20
334.9969023607917
 10
1335.863097955385
 20
334.7641147787358
 10
1336.237582326519
 20
334.7168825157103
 10
1336.591824299208
 20
334.6224179896591
 10
1336.898834008878
 20
334.4334889375561
 10
1337.182227587031
 20
334.2209437539399
 10
1337.418388902161
 20
333.937550175786
 10
1337.583701822751
 20
333.6305404661177
 10
1337.701782480315
 20
333.2762984934246
 10
1337.725398611828
 20
332.9018141222926
 10
1337.958186193884
 20
332.9018141222926
 10
1337.954812460809
 20
333.0063998475632
 10
1337.944691261591
 20
333.1109855728355
 10
1337.934570062371
 20
333.215571298106
 10
1337.914327663929
 20
333.3167832903133
 10
1337.890711532419
 20
333.4179952825039
 10
1337.863721667831
 20
333.5158335416273
 10
1337.829984337099
 20
333.6136718007498
 10
1337.792873273294
 20
333.7081363268022
 10
1337.752388476414
 20
333.8026008528556
 10
1337.705156213388
 20
333.8903179127601
 10
1337.657923950362
 20
333.9780349726647
 10
1337.600570488117
 20
334.0657520325699
 10
1337.543217025869
 20
334.1467216263268
 10
1337.482489830555
 20
334.2276912200864
 10
1337.415015169091
 20
334.3019133476989
 10
1337.347540507622
 20
334.3761354753097
 97
        0
 92
       23
 72
     0
 73
     1
 93
       42
 10
1284.838758955287
 20
315.5102201295982
 10
1284.781405493039
 20
315.567573591844
 10
1284.730799496945
 20
315.6249270540882
 10
1284.683567233919
 20
315.6856542494088
 10
1284.63633497089
 20
315.7497551777999
 10
1284.592476440937
 20
315.813856106194
 10
1284.551991644056
 20
315.8813307676581
 10
1284.518254313329
 20
315.9521791621925
 10
1284.484516982593
 20
316.0196538236609
 10
1284.454153384934
 20
316.0938759512776
 10
1284.42716352035
 20
316.1680980788849
 10
1284.406921121907
 20
316.2456939395728
 10
1284.390052456541
 20
316.3232898002563
 10
1284.373183791178
 20
316.4008856609399
 10
1284.363062591956
 20
316.481855254699
 10
1284.356315125806
 20
316.5628248484593
 10
1284.356315125806
 20
316.6437944422166
 10
1284.123527543753
 20
316.6437944422166
 10
1284.17075980678
 20
316.2693100710826
 10
1284.288840464343
 20
315.9386842299047
 10
1284.454153384934
 20
315.6080583887235
 10
1284.690314700061
 20
315.3482809420824
 10
1284.950092146704
 20
315.1121196269533
 10
1285.280717987883
 20
314.946806706363
 10
1285.611343829065
 20
314.8287260487986
 10
1285.985828200197
 20
314.8051099172861
 10
1285.985828200199
 20
315.0378974993415
 10
1285.904858606441
 20
315.0378974993415
 10
1285.820515279609
 20
315.0446449654876
 10
1285.73954568585
 20
315.0547661647076
 10
1285.661949825162
 20
315.0682610970004
 10
1285.584353964479
 20
315.0885034954398
 10
1285.506758103794
 20
315.1087458938794
 10
1285.432535976181
 20
315.1357357584659
 10
1285.35831384857
 20
315.1627256230522
 10
1285.284091720959
 20
315.1964629537845
 10
1285.216617059492
 20
315.2302002845182
 10
1285.145768664955
 20
315.2706850813965
 10
1285.081667736562
 20
315.3145436113493
 10
1285.014193075096
 20
315.3584021413018
 10
1284.953465879774
 20
315.4056344043269
 10
1284.892738684455
 20
315.4562404004264
 97
        0
 92
        7
 72
     0
 73
     1
 93
       42
 10
1284.690314700061
 20
315.3482809420829
 10
1284.454153384934
 20
315.6080583887235
 10
1284.288840464343
 20
315.9386842299047
 10
1284.17075980678
 20
316.2693100710832
 10
1284.123527543753
 20
316.6437944422166
 10
1283.890739961697
 20
316.6437944422166
 10
1283.894113694773
 20
316.5392087169463
 10
1283.904234893993
 20
316.4346229916718
 10
1283.917729826284
 20
316.330037266402
 10
1283.934598491652
 20
316.2288252742039
 10
1283.958214623164
 20
316.1276132820037
 10
1283.988578220824
 20
316.0297750228811
 10
1284.022315551556
 20
315.9319367637595
 10
1284.059426615361
 20
315.8374722377072
 10
1284.103285145317
 20
315.7463814447219
 10
1284.150517408338
 20
315.6552906517502
 10
1284.201123404441
 20
315.5709473249133
 10
1284.255103133611
 20
315.4866039980841
 10
1284.312456595856
 20
315.4056344043281
 10
1284.376557524249
 20
315.3280385436439
 10
1284.444032185711
 20
315.2504426829577
 10
1284.511506847181
 20
315.1795942884191
 10
1284.585728974792
 20
315.1121196269551
 10
1284.663324835477
 20
315.0446449654864
 10
1284.740920696164
 20
314.9839177701694
 10
1284.821890289918
 20
314.9265643079238
 10
1284.909607349819
 20
314.8725845787521
 10
1284.993950676657
 20
314.8219785826527
 10
1285.085041469635
 20
314.7781200526996
 10
1285.179505995685
 20
314.7342615227473
 10
1285.273970521731
 20
314.700524192017
 10
1285.371808780862
 20
314.6667868612812
 10
1285.469647039988
 20
314.6364232636219
 10
1285.570859032183
 20
314.616180865183
 10
1285.672071024384
 20
314.5959384667435
 10
1285.776656749653
 20
314.5858172675233
 10
1285.881242474925
 20
314.5756960683035
 10
1285.985828200199
 20
314.5723223352299
 10
1285.985828200197
 20
314.8051099172861
 10
1285.611343829065
 20
314.8287260487986
 10
1285.280717987883
 20
314.9468067063627
 10
1284.950092146704
 20
315.1121196269533
 97
        0
 75
     0
 76
     1
 47
0.02498
 98
       13
 10
1284.212230612425
 20
326.7618173365485
 10
1294.642788878026
 20
314.8589145973485
 10
1306.734859233227
 20
334.6048127605482
 10
1337.841928334026
 20
327.5922502453484
 10
1284.568830196427
 20
334.4234289205485
 10
1284.944361748426
 20
334.3698016501483
 10
1317.991436750027
 20
314.6885668021486
 10
1337.143718874827
 20
315.5466050293485
 10
1337.411959770826
 20
315.2784686773485
 10
1337.143718874827
 20
334.1552906677482
 10
1337.251015233227
 20
334.4234289205485
 10
1284.729770932427
 20
315.4393504885483
 10
1284.676124654026
 20
315.1712122357482
450
        0
451
        0
460
0.0
461
0.0
452
        0
462
0.0
453
        0
470

  0
HATCH
  5
8CB
330
1F
100
AcDbEntity
  8
4
100
AcDbHatch
 10
0.0
 20
0.0
 30
0.0
210
0.0
220
0.0
230
1.0
  2
SOLID
 70
     1
 71
     0
 91
        3
 92
        7
 72
     0
 73
     1
 93
        4
 10
1335.863097955385
 20
334.9969023607917
 10
1285.985828200199
 20
334.9969023607917
 10
1285.985828200199
 20
334.7641147787358
 10
1335.863097955385
 20
334.7641147787358
 97
        0
 92
        7
 72
     0
 73
     1
 93
        4
 10
1284.123527543753
 20
332.9018141222926
 10
1283.890739961697
 20
332.9018141222926
 10
1283.890739961697
 20
316.6437944422166
 10
1284.123527543753
 20
316.6437944422166
 97
        0
 92
        7
 72
     0
 73
     1
 93
       42
 10
1284.55536537713
 20
333.6710252629956
 10
1284.59585017401
 20
333.738499924463
 10
1284.63633497089
 20
333.8059745859283
 10
1284.683567233921
 20
333.8700755143276
 10
1284.730799496941
 20
333.9308027096421
 10
1284.784779226113
 20
333.9915299049561
 10
1284.838758955287
 20
334.0488833672037
 10
1284.896112417531
 20
334.1028630963745
 10
1284.956839612852
 20
334.1534690924746
 10
1285.017566808169
 20
334.2040750885744
 10
1285.081667736562
 20
334.2513073515994
 10
1285.149142398027
 20
334.2917921484788
 10
1285.216617059492
 20
334.3322769453582
 10
1285.287465454033
 20
334.3693880091639
 10
1285.35831384857
 20
334.4031253398969
 10
1285.432535976181
 20
334.4301152044824
 10
1285.506758103794
 20
334.4571050690693
 10
1285.584353964479
 20
334.4807212005819
 10
1285.661949825165
 20
334.497589865947
 10
1285.742919418922
 20
334.5144585313144
 10
1285.823889012683
 20
334.5245797305351
 10
1285.904858606441
 20
334.5313271966808
 10
1285.985828200199
 20
334.5313271966808
 10
1285.985828200197
 20
334.7641147787366
 10
1285.611343829065
 20
334.716882515711
 10
1285.280717987883
 20
334.6224179896588
 10
1284.950092146704
 20
334.4334889375561
 10
1284.690314700063
 20
334.2209437539388
 10
1284.454153384934
 20
333.937550175786
 10
1284.288840464344
 20
333.6305404661188
 10
1284.17075980678
 20
333.2762984934246
 10
1284.123527543753
 20
332.9018141222926
 10
1284.356315125806
 20
332.9018141222926
 10
1284.356315125806
 20
332.9827837160526
 10
1284.363062591957
 20
333.0637533098102
 10
1284.373183791175
 20
333.1447229035675
 10
1284.390052456537
 20
333.2256924973348
 10
1284.406921121907
 20
333.3032883580121
 10
1284.430537253424
 20
333.3775104856314
 10
1284.454153384934
 20
333.4551063463086
 10
1284.484516982596
 20
333.5293284739203
 10
1284.518254313329
 20
333.6001768684566
 97
        0
 75
     0
 76
     1
 47
0.005631
 98
        3
 10
1288.560025492425
 20
334.8459007285483
 10
1283.976309018827
 20
332.5005150133482
 10
1284.363325204426
 20
333.6006676405484
450
        0
451
        0
460
0.0
461
0.0
452
        0
462
0.0
453
        0
470

  0
LWPOLYLINE
  5
8CC
330
1F
100
AcDbEntity
  8
4
100
AcDbPolyline
 90
        9
 70
     0
 43
0.0
 10
1284.356315054027
 20
316.643794309348
 10
1284.356315054027
 20
332.9018138101481
 42
-0.4142140000000003
 10
1285.985829076426
 20
334.5313278325482
 10
1335.863098593229
 20
334.5313278325482
 42
-0.4142140000000003
 10
1337.492610714827
 20
332.9018138101481
 10
1337.492610714827
 20
316.643794309348
 42
-0.387993
 10
1336.031785089227
 20
315.0446455669483
 10
1285.985829076426
 20
315.0378977269481
 42
-0.3805719999999999
 10
1284.363062894028
 20
316.4818556533482
 42
-0.058238
  0
LWPOLYLINE
  5
8CD
330
1F
100
AcDbEntity
  8
4
100
AcDbPolyline
 90
        9
 70
     0
 43
0.0
 10
1283.890740705227
 20
316.643794309348
 10
1283.890740705227
 20
332.9018138101481
 42
-0.4142140000000003
 10
1285.985829076426
 20
334.9969021813481
 10
1335.863098593229
 20
334.9969021813481
 42
-0.4142140000000003
 10
1337.958186964427
 20
332.9018138101481
 10
1337.958186964427
 20
316.643794309348
 42
-0.391099
 10
1336.051522996427
 20
314.5790731189478
 10
1285.985891802827
 20
314.5723214773481
 42
-0.3805719999999999
 10
1283.900634369226
 20
316.4278102069481
 42
-0.3805719999999999
  0
LWPOLYLINE
  5
8CE
330
1F
100
AcDbEntity
  8
4
100
AcDbPolyline
 90
        9
 70
     1
 43
0.8587282175999998
 10
1284.320104814026
 20
316.643794309348
 10
1284.320104814026
 20
332.9018138101481
 42
-0.4142140000000003
 10
1285.985829076426
 20
334.5675380725482
 10
1335.863098593229
 20
334.5675380725482
 42
-0.4142140000000003
 10
1337.528822855627
 20
332.9018138101481
 10
1337.528822855627
 20
316.643794309348
 42
-0.388281
 10
1336.033414074829
 20
315.0084334261483
 10
1285.985832878026
 20
315.0016874869482
 42
-0.3805719999999999
 10
1284.327095956427
 20
316.4776510837482
 42
-0.037159
  0
HATCH
  5
8CF
330
1F
100
AcDbEntity
  8
4
100
AcDbHatch
 10
0.0
 20
0.0
 30
0.0
210
0.0
220
0.0
230
1.0
  2
SOLID
 70
     1
 71
     0
 91
        8
 92
        7
 72
     0
 73
     1
 93
       23
 10
1292.833404171665
 20
324.770015329219
 10
1292.894806113598
 20
325.1077260098527
 10
1293.017609997466
 20
325.3533337775866
 10
1293.201815823263
 20
325.537539603386
 10
1293.386021649065
 20
325.6910444582207
 10
1293.754433300665
 20
325.7831473711206
 10
1293.938639126468
 20
325.8138483420874
 10
1294.276349807102
 20
325.8138483420878
 10
1294.276349807102
 20
328.3576430793311
 10
1293.171114852297
 20
328.3576430793311
 10
1292.557095432966
 20
328.3269421083649
 10
1292.035178926532
 20
328.2655401664313
 10
1291.605365332993
 20
328.1120353115983
 10
1291.206252710428
 20
327.9585304567639
 10
1290.903628853752
 20
327.7436236599991
 10
1290.627320115057
 20
327.5287168632312
 10
1290.412413318291
 20
327.2831090954965
 10
1290.228207492487
 20
327.0375013277617
 10
1290.013300695721
 20
326.5199706743222
 10
1289.890496811853
 20
326.0901570807894
 10
1289.859795840889
 20
325.6910444582223
 10
1289.859795840889
 20
318.6649079598338
 10
1292.833404171665
 20
318.6649079598338
 97
        0
 92
        7
 72
     0
 73
     1
 93
       54
 10
1303.754178129829
 20
325.2612308646866
 10
1303.477869391132
 20
325.8752502840215
 10
1303.078756768563
 20
326.4892697033568
 10
1302.618242204064
 20
327.0068003567946
 10
1302.034923755696
 20
327.4980158922628
 10
1301.390203365393
 20
327.8971285148303
 10
1300.684081033161
 20
328.2041382244977
 10
1299.920942611985
 20
328.419045021265
 10
1299.12271736685
 20
328.4804469631984
 10
1298.539398918483
 20
328.4497459922311
 10
1298.017482412047
 20
328.3576430793318
 10
1297.526266876582
 20
328.2348391954648
 10
1297.065752312082
 20
328.0506333696637
 10
1296.635938718547
 20
327.8357265728959
 10
1296.267527066945
 20
327.5901188051636
 10
1295.92981638631
 20
327.2831090954956
 10
1295.592105705676
 20
326.97609938583
 10
1295.320182819971
 20
326.6427745581911
 10
1295.105276023206
 20
326.2743629065884
 10
1294.890369226437
 20
325.8752502840195
 10
1294.736864371603
 20
325.4761376614553
 10
1294.521957574837
 20
324.6472114453517
 10
1294.429854661936
 20
323.7875842582843
 10
1294.460555632902
 20
323.142863867984
 10
1294.552658545803
 20
322.5639312726083
 10
1294.706163400636
 20
322.0113137952089
 10
1294.921070197404
 20
321.4893972887722
 10
1295.166677965139
 20
321.0288827242718
 10
1295.442986703835
 20
320.5990691307392
 10
1295.776311531475
 20
320.199956508172
 10
1296.144723183076
 20
319.8315448565696
 10
1296.574536776609
 20
319.5245351469025
 10
1297.004350370142
 20
319.2789273791702
 10
1297.464864934648
 20
319.0333196114345
 10
1297.925379499148
 20
318.8491137856338
 10
1298.447296005587
 20
318.7263099017659
 10
1298.93851154105
 20
318.6035060178999
 10
1299.460428047485
 20
318.5421040759671
 10
1299.977958700928
 20
318.5421040759671
 10
1300.684081033161
 20
318.5728050469343
 10
1301.32880142346
 20
318.6649079598338
 10
1301.881418900862
 20
318.7877118437012
 10
1302.372634436331
 20
318.9412166985349
 10
1303.048055797597
 20
319.248226408202
 10
1303.262962594363
 20
319.3710302920687
 10
1303.262962594363
 20
322.3797254468086
 10
1302.587541233094
 20
321.9192108823081
 10
1301.912119871829
 20
321.5507992307069
 10
1301.144595597657
 20
321.2744904920055
 10
1300.77618394606
 20
321.1823875791062
 10
1300.407772294461
 20
321.151686608139
 10
1299.798138728119
 20
321.151686608139
 10
1299.368325134584
 20
321.2437895210392
 10
1299.184119308784
 20
321.2744904920059
 97
        0
 92
       22
 72
     0
 73
     1
 93
       15
 10
1297.34206105078
 20
323.0507609550816
 10
1297.24995813788
 20
323.265667751849
 10
1297.188556195948
 20
323.511275519576
 10
1297.127154254012
 20
323.8182852292505
 10
1297.15785522498
 20
324.1866968808508
 10
1297.24995813788
 20
324.5858095034187
 10
1297.464864934648
 20
325.0156230969531
 10
1297.833276586247
 20
325.4454366904869
 10
1298.26309017978
 20
325.7524464001539
 10
1298.723604744283
 20
325.9059512549875
 10
1299.153418337818
 20
325.9366522259549
 10
1299.521829989419
 20
325.8752502840215
 10
1299.859540670052
 20
325.7831473711212
 10
1300.100762584792
 20
325.6603434872539
 10
1300.31566938156
 20
325.5375396033876
 97
        0
 92
        7
 72
     0
 73
     1
 93
       27
 10
1307.37250685091
 20
325.2612308646866
 10
1308.692648602481
 20
325.2612308646866
 10
1308.692648602481
 20
327.5594178341967
 10
1307.37250685091
 20
327.5594178341967
 10
1307.37250685091
 20
328.5725498760976
 10
1307.433908792845
 20
328.9102605567321
 10
1307.556712676713
 20
329.1558683244666
 10
1307.740918502515
 20
329.3400741502667
 10
1307.925124328314
 20
329.4935790051007
 10
1308.32423695088
 20
329.5856819180006
 10
1308.477741805713
 20
329.6163828889678
 10
1308.811066633353
 20
329.6163828889678
 10
1308.811066633353
 20
331.9759718004103
 10
1307.710217531547
 20
331.975971800411
 10
1307.126899083179
 20
331.9452708294442
 10
1306.604982576744
 20
331.8531679165433
 10
1306.144468012247
 20
331.6996630617117
 10
1305.745355389676
 20
331.5461582068768
 10
1305.438345680006
 20
331.3312514101095
 10
1305.162036941308
 20
331.1207304663385
 10
1304.947130144539
 20
330.8751226986037
 10
1304.793625289705
 20
330.6295149308714
 10
1304.548017521971
 20
330.1382993954029
 10
1304.425213638105
 20
329.6777848309006
 10
1304.394512667138
 20
329.2786722083309
 10
1304.394512667138
 20
318.695608930801
 10
1307.37250685091
 20
318.695608930801
 97
        0
 92
        7
 72
     0
 73
     1
 93
        4
 10
1312.894295771927
 20
331.9759718004103
 10
1309.793497704289
 20
331.975971800411
 10
1309.793497704289
 20
318.695608930801
 10
1312.894295771927
 20
318.695608930801
 97
        0
 92
        7
 72
     0
 73
     1
 93
       54
 10
1323.043159602931
 20
325.2612308646866
 10
1322.766850864233
 20
325.8752502840215
 10
1322.367738241663
 20
326.4892697033559
 10
1321.907223677164
 20
327.006800356795
 10
1321.328291081787
 20
327.4980158922636
 10
1320.683570691488
 20
327.8971285148303
 10
1319.977448359252
 20
328.2041382244977
 10
1319.209924085086
 20
328.419045021265
 10
1318.411698839949
 20
328.4804469631982
 10
1317.828380391583
 20
328.4497459922321
 10
1317.310849738141
 20
328.3576430793318
 10
1316.819634202675
 20
328.2348391954638
 10
1316.359119638172
 20
328.0506333696637
 10
1315.929306044641
 20
327.8357265728959
 10
1315.560894393038
 20
327.5901188051623
 10
1315.223183712404
 20
327.2831090954956
 10
1314.88547303177
 20
326.9760993858286
 10
1314.639865264039
 20
326.6427745581898
 10
1314.394257496305
 20
326.274362906589
 10
1314.179350699534
 20
325.8752502840216
 10
1314.025845844702
 20
325.4761376614545
 10
1313.810939047934
 20
324.6472114453525
 10
1313.718836135033
 20
323.7875842582829
 10
1313.749537106003
 20
323.1428638679825
 10
1313.8416400189
 20
322.56393127261
 10
1313.995144873736
 20
322.0113137952089
 10
1314.210051670502
 20
321.4893972887731
 10
1314.455659438239
 20
321.0288827242683
 10
1314.731968176938
 20
320.599069130738
 10
1315.06967885757
 20
320.1999565081714
 10
1315.468791480139
 20
319.8315448565699
 10
1315.867904102707
 20
319.5245351469023
 10
1316.29771769624
 20
319.2789273791685
 10
1316.758232260744
 20
319.0333196114345
 10
1317.218746825241
 20
318.8491137856338
 10
1317.736277478684
 20
318.7263099017659
 10
1318.227493014149
 20
318.603506017901
 10
1318.749409520586
 20
318.5421040759671
 10
1319.271326027016
 20
318.5421040759671
 10
1319.977448359252
 20
318.5728050469337
 10
1320.622168749554
 20
318.6649079598338
 10
1321.205487197922
 20
318.7877118437002
 10
1321.666001762424
 20
318.9412166985348
 10
1322.337037270696
 20
319.248226408202
 10
1322.551944067464
 20
319.3710302920687
 10
1322.551944067464
 20
322.3797254468082
 10
1321.876522706195
 20
321.9192108823084
 10
1321.205487197922
 20
321.5507992307068
 10
1320.437962923755
 20
321.2744904920059
 10
1320.069551272152
 20
321.1823875791062
 10
1319.701139620552
 20
321.151686608139
 10
1319.087120201219
 20
321.151686608139
 10
1318.657306607683
 20
321.2437895210398
 10
1318.473100781883
 20
321.2744904920059
 97
        0
 92
       22
 72
     0
 73
     1
 93
       15
 10
1316.420521580108
 20
323.8182852292505
 10
1316.451222551074
 20
324.1866968808508
 10
1316.543325463976
 20
324.5858095034185
 10
1316.758232260741
 20
325.0156230969512
 10
1317.126643912342
 20
325.4454366904863
 10
1317.552071652882
 20
325.7524464001539
 10
1318.012586217383
 20
325.9059512549885
 10
1318.442399810919
 20
325.9366522259549
 10
1318.810811462517
 20
325.8752502840215
 10
1319.148522143152
 20
325.7831473711212
 10
1319.394129910887
 20
325.6603434872531
 10
1319.609036707653
 20
325.5375396033876
 10
1316.635428376873
 20
323.0507609550816
 10
1316.543325463976
 20
323.2656677518478
 10
1316.481923522042
 20
323.5112755195767
 97
        0
 92
        7
 72
     0
 73
     1
 93
       66
 10
1330.924537435395
 20
323.5112755195827
 10
1330.678929667657
 20
323.6647803744169
 10
1330.468408723888
 20
323.7875842582829
 10
1330.893836464425
 20
324.0638929969842
 10
1331.200846174092
 20
324.4323046485826
 10
1331.446453941826
 20
324.8314172711526
 10
1331.599958796662
 20
325.23052989372
 10
1331.722762680527
 20
325.9059512549875
 10
1331.722762680527
 20
326.2129609646551
 10
1331.722762680527
 20
328.2655401664313
 10
1328.84125726265
 20
328.2655401664313
 10
1328.84125726265
 20
326.5199706743239
 10
1328.810556291682
 20
326.3050638775567
 10
1328.687752407817
 20
325.8752502840226
 10
1328.564948523949
 20
325.6603434872539
 10
1328.350041727181
 20
325.4454366904863
 10
1328.043032017513
 20
325.2919318356527
 10
1327.674620365914
 20
325.2612308646866
 10
1327.306208714311
 20
325.2919318356534
 10
1326.999199004645
 20
325.4454366904869
 10
1326.814993178845
 20
325.6296425162877
 10
1326.692189294978
 20
325.8752502840215
 10
1326.600086382075
 20
326.3050638775567
 10
1326.600086382075
 20
326.4892697033559
 10
1326.600086382075
 20
328.2655401664313
 10
1323.657179022267
 20
328.2655401664313
 10
1323.657179022267
 20
326.1822599936878
 10
1323.7185809642
 20
325.5375396033881
 10
1323.872085819032
 20
325.046324067921
 10
1324.056291644836
 20
324.6165104743845
 10
1324.301899412567
 20
324.3095007647198
 10
1324.547507180303
 20
324.0638929969835
 10
1324.731713006103
 20
323.9103881421498
 10
1324.946619802868
 20
323.7875842582829
 10
1324.670311064169
 20
323.6647803744169
 10
1324.455404267404
 20
323.5112755195831
 10
1324.117693586766
 20
323.1428638679832
 10
1323.841384848066
 20
322.7130502744471
 10
1323.687879993232
 20
322.2876225339092
 10
1323.565076109367
 20
321.8885099113419
 10
1323.503674167434
 20
321.5507992307061
 10
1323.472973196466
 20
321.2437895210381
 10
1323.472973196466
 20
318.695608930801
 10
1326.538684440143
 20
318.695608930801
 10
1326.538684440143
 20
321.0288827242731
 10
1326.569385411109
 20
321.2744904920097
 10
1326.600086382078
 20
321.4893972887731
 10
1326.661488324011
 20
321.7657060274742
 10
1326.814993178845
 20
322.0113137952072
 10
1327.029899975613
 20
322.2569215629415
 10
1327.336909685281
 20
322.4104264177756
 10
1327.766723278814
 20
322.4718283597092
 10
1328.165835901383
 20
322.4104264177752
 10
1328.472845611049
 20
322.2569215629415
 10
1328.657051436848
 20
322.0113137952081
 10
1328.779855320715
 20
321.7350050565087
 10
1328.84125726265
 20
321.4893972887713
 10
1328.871958233617
 20
321.2437895210398
 10
1328.871958233617
 20
321.0288827242726
 10
1328.871958233617
 20
318.695608930801
 10
1331.906968506327
 20
318.695608930801
 10
1331.906968506327
 20
321.2744904920078
 10
1331.845566564395
 20
321.9499118532747
 10
1331.661360738595
 20
322.5025293306744
 10
1331.446453941825
 20
322.9279570712156
 10
1331.170145203125
 20
323.265667751849
 97
        0
 75
     0
 76
     1
 47
0.04298
 98
        8
 10
1291.501823322827
 20
324.2830391797485
 10
1297.621699828428
 20
321.5241477301485
 10
1297.621699828428
 20
321.5241477301485
 10
1306.021532711627
 20
322.7236646773483
 10
1311.541421697226
 20
323.3234222005484
 10
1315.261346222026
 20
323.9231816245486
 10
1315.261346222026
 20
323.9231816245486
 10
1325.821134177226
 20
323.4433759861483
450
        0
451
        0
460
0.0
461
0.0
452
        0
462
0.0
453
        0
470

  0
POLYLINE
  5
8D0
330
1F
100
AcDbEntity
  8
4
100
AcDb2dPolyline
 66
     1
 10
0.0
 20
0.0
 30
0.0
  0
VERTEX
  5
8D1
330
8D0
100
AcDbEntity
  8
4
100
AcDbVertex
100
AcDb2dVertex
 10
1292.833404052428
 20
324.7700146357481
 30
0.0
  0
VERTEX
  5
8D2
330
8D0
100
AcDbEntity
  8
4
100
AcDbVertex
100
AcDb2dVertex
 10
1292.894805594826
 20
325.1077259701483
 30
0.0
  0
VERTEX
  5
8D3
330
8D0
100
AcDbEntity
  8
4
100
AcDbVertex
100
AcDb2dVertex
 10
1293.017610580427
 20
325.3533340405481
 30
0.0
  0
VERTEX
  5
8D4
330
8D0
100
AcDbEntity
  8
4
100
AcDbVertex
100
AcDb2dVertex
 10
1293.201815207627
 20
325.537538667748
 30
0.0
  0
VERTEX
  5
8D5
330
8D0
100
AcDbEntity
  8
4
100
AcDbVertex
100
AcDb2dVertex
 10
1293.386021735627
 20
325.6910453749481
 30
0.0
  0
VERTEX
  5
8D6
330
8D0
100
AcDbEntity
  8
4
100
AcDbVertex
100
AcDb2dVertex
 10
1293.754432890827
 20
325.783146738148
 30
0.0
  0
VERTEX
  5
8D7
330
8D0
100
AcDbEntity
  8
4
100
AcDbVertex
100
AcDb2dVertex
 10
1293.938639418827
 20
325.8138484597484
 30
0.0
  0
VERTEX
  5
8D8
330
8D0
100
AcDbEntity
  8
4
100
AcDbVertex
100
AcDb2dVertex
 10
1294.276350753226
 20
325.8138484597484
 30
0.0
  0
VERTEX
  5
8D9
330
8D0
100
AcDbEntity
  8
4
100
AcDbVertex
100
AcDb2dVertex
 10
1294.276350753226
 20
328.3576434805481
 30
0.0
  0
VERTEX
  5
8DA
330
8D0
100
AcDbEntity
  8
4
100
AcDbVertex
100
AcDb2dVertex
 10
1293.171115386827
 20
328.3576434805481
 30
0.0
  0
VERTEX
  5
8DB
330
8D0
100
AcDbEntity
  8
4
100
AcDbVertex
100
AcDb2dVertex
 10
1292.557096161226
 20
328.326941758948
 30
0.0
  0
VERTEX
  5
8DC
330
8D0
100
AcDbEntity
  8
4
100
AcDbVertex
100
AcDb2dVertex
 10
1292.035178298827
 20
328.2655402165484
 30
0.0
  0
VERTEX
  5
8DD
330
8D0
100
AcDbEntity
  8
4
100
AcDbVertex
100
AcDb2dVertex
 10
1291.605365601226
 20
328.1120354101482
 30
0.0
  0
VERTEX
  5
8DE
330
8D0
100
AcDbEntity
  8
4
100
AcDbVertex
100
AcDb2dVertex
 10
1291.206252724427
 20
327.9585306037484
 30
0.0
  0
VERTEX
  5
8DF
330
8D0
100
AcDbEntity
  8
4
100
AcDbVertex
100
AcDb2dVertex
 10
1290.903628257227
 20
327.7436242549481
 30
0.0
  0
VERTEX
  5
8E0
330
8D0
100
AcDbEntity
  8
4
100
AcDbVertex
100
AcDb2dVertex
 10
1290.627320366027
 20
327.528716005348
 30
0.0
  0
VERTEX
  5
8E1
330
8D0
100
AcDbEntity
  8
4
100
AcDbVertex
100
AcDb2dVertex
 10
1290.412414017227
 20
327.2831098357481
 30
0.0
  0
VERTEX
  5
8E2
330
8D0
100
AcDbEntity
  8
4
100
AcDbVertex
100
AcDb2dVertex
 10
1290.228207489227
 20
327.0375017653481
 30
0.0
  0
VERTEX
  5
8E3
330
8D0
100
AcDbEntity
  8
4
100
AcDbVertex
100
AcDb2dVertex
 10
1290.013301140427
 20
326.5199709493482
 30
0.0
  0
VERTEX
  5
8E4
330
8D0
100
AcDbEntity
  8
4
100
AcDbVertex
100
AcDb2dVertex
 10
1289.890496154827
 20
326.0901563509482
 30
0.0
  0
VERTEX
  5
8E5
330
8D0
100
AcDbEntity
  8
4
100
AcDbVertex
100
AcDb2dVertex
 10
1289.859796334027
 20
325.6910453749481
 30
0.0
  0
VERTEX
  5
8E6
330
8D0
100
AcDbEntity
  8
4
100
AcDbVertex
100
AcDb2dVertex
 10
1289.859796334027
 20
318.6649073461481
 30
0.0
  0
VERTEX
  5
8E7
330
8D0
100
AcDbEntity
  8
4
100
AcDbVertex
100
AcDb2dVertex
 10
1292.833404052428
 20
318.6649073461481
 30
0.0
  0
VERTEX
  5
8E8
330
8D0
100
AcDbEntity
  8
4
100
AcDbVertex
100
AcDb2dVertex
 10
1292.833404052428
 20
324.7700146357481
 30
0.0
  0
VERTEX
  5
8E9
330
8D0
100
AcDbEntity
  8
4
100
AcDbVertex
100
AcDb2dVertex
 10
1292.833404052428
 20
324.7700146357481
 30
0.0
  0
SEQEND
  5
8EA
330
8D0
100
AcDbEntity
  8
4
  0
POLYLINE
  5
8EB
330
1F
100
AcDbEntity
  8
4
100
AcDb2dPolyline
 66
     1
 10
0.0
 20
0.0
 30
0.0
  0
VERTEX
  5
8EC
330
8EB
100
AcDbEntity
  8
4
100
AcDbVertex
100
AcDb2dVertex
 10
1285.985829076427
 20
334.9969021813481
 30
0.0
  0
VERTEX
  5
8ED
330
8EB
100
AcDbEntity
  8
4
100
AcDbVertex
100
AcDb2dVertex
 10
1285.881243258827
 20
334.9935282613483
 30
0.0
  0
VERTEX
  5
8EE
330
8EB
100
AcDbEntity
  8
4
100
AcDbVertex
100
AcDb2dVertex
 10
1285.776657441227
 20
334.9834065013481
 30
0.0
  0
VERTEX
  5
8EF
330
8EB
100
AcDbEntity
  8
4
100
AcDbVertex
100
AcDb2dVertex
 10
1285.672071623628
 20
334.9699127221483
 30
0.0
  0
VERTEX
  5
8F0
330
8EB
100
AcDbEntity
  8
4
100
AcDbVertex
100
AcDb2dVertex
 10
1285.567485806027
 20
334.9530431221481
 30
0.0
  0
VERTEX
  5
8F1
330
8EB
100
AcDbEntity
  8
4
100
AcDbVertex
100
AcDb2dVertex
 10
1285.466273908427
 20
334.9294275829483
 30
0.0
  0
VERTEX
  5
8F2
330
8EB
100
AcDbEntity
  8
4
100
AcDbVertex
100
AcDb2dVertex
 10
1285.368435930827
 20
334.8990642037483
 30
0.0
  0
VERTEX
  5
8F3
330
8EB
100
AcDbEntity
  8
4
100
AcDbVertex
100
AcDb2dVertex
 10
1285.270596052427
 20
334.8653269045481
 30
0.0
  0
VERTEX
  5
8F4
330
8EB
100
AcDbEntity
  8
4
100
AcDbVertex
100
AcDb2dVertex
 10
1285.176131994827
 20
334.8282156853481
 30
0.0
  0
VERTEX
  5
8F5
330
8EB
100
AcDbEntity
  8
4
100
AcDbVertex
100
AcDb2dVertex
 10
1285.085041857227
 20
334.7877305461481
 30
0.0
  0
VERTEX
  5
8F6
330
8EB
100
AcDbEntity
  8
4
100
AcDbVertex
100
AcDb2dVertex
 10
1284.993949818825
 20
334.740499467748
 30
0.0
  0
VERTEX
  5
8F7
330
8EB
100
AcDbEntity
  8
4
100
AcDbVertex
100
AcDb2dVertex
 10
1284.906233601226
 20
334.6898925685482
 30
0.0
  0
VERTEX
  5
8F8
330
8EB
100
AcDbEntity
  8
4
100
AcDbVertex
100
AcDb2dVertex
 10
1284.821889402827
 20
334.6325397301483
 30
0.0
  0
VERTEX
  5
8F9
330
8EB
100
AcDbEntity
  8
4
100
AcDbVertex
100
AcDb2dVertex
 10
1284.740921025227
 20
334.575184990948
 30
0.0
  0
VERTEX
  5
8FA
330
8EB
100
AcDbEntity
  8
4
100
AcDbVertex
100
AcDb2dVertex
 10
1284.659950746827
 20
334.5110843125482
 30
0.0
  0
VERTEX
  5
8FB
330
8EB
100
AcDbEntity
  8
4
100
AcDbVertex
100
AcDb2dVertex
 10
1284.582354388425
 20
334.446983634148
 30
0.0
  0
VERTEX
  5
8FC
330
8EB
100
AcDbEntity
  8
4
100
AcDbVertex
100
AcDb2dVertex
 10
1284.511507770827
 20
334.376135115748
 30
0.0
  0
VERTEX
  5
8FD
330
8EB
100
AcDbEntity
  8
4
100
AcDbVertex
100
AcDb2dVertex
 10
1284.440659252427
 20
334.3019126773483
 30
0.0
  0
VERTEX
  5
8FE
330
8EB
100
AcDbEntity
  8
4
100
AcDbVertex
100
AcDb2dVertex
 10
1284.376556673227
 20
334.2276921397484
 30
0.0
  0
VERTEX
  5
8FF
330
8EB
100
AcDbEntity
  8
4
100
AcDbVertex
100
AcDb2dVertex
 10
1284.312455994827
 20
334.1467218613478
 30
0.0
  0
VERTEX
  5
900
330
8EB
100
AcDbEntity
  8
4
100
AcDbVertex
100
AcDb2dVertex
 10
1284.255103156425
 20
334.0657515829486
 30
0.0
  0
VERTEX
  5
901
330
8EB
100
AcDbEntity
  8
4
100
AcDbVertex
100
AcDb2dVertex
 10
1284.197750318027
 20
333.9814092853479
 30
0.0
  0
VERTEX
  5
902
330
8EB
100
AcDbEntity
  8
4
100
AcDbVertex
100
AcDb2dVertex
 10
1284.147143418827
 20
333.8936911669485
 30
0.0
  0
VERTEX
  5
903
330
8EB
100
AcDbEntity
  8
4
100
AcDbVertex
100
AcDb2dVertex
 10
1284.099912340427
 20
333.802601029348
 30
0.0
  0
VERTEX
  5
904
330
8EB
100
AcDbEntity
  8
4
100
AcDbVertex
100
AcDb2dVertex
 10
1284.059427201227
 20
333.711510891748
 30
0.0
  0
VERTEX
  5
905
330
8EB
100
AcDbEntity
  8
4
100
AcDbVertex
100
AcDb2dVertex
 10
1284.022315982026
 20
333.6170449333482
 30
0.0
  0
VERTEX
  5
906
330
8EB
100
AcDbEntity
  8
4
100
AcDbVertex
100
AcDb2dVertex
 10
1283.988578682827
 20
333.5192069557479
 30
0.0
  0
VERTEX
  5
907
330
8EB
100
AcDbEntity
  8
4
100
AcDbVertex
100
AcDb2dVertex
 10
1283.958215303627
 20
333.4213689781483
 30
0.0
  0
VERTEX
  5
908
330
8EB
100
AcDbEntity
  8
4
100
AcDbVertex
100
AcDb2dVertex
 10
1283.934597863626
 20
333.3201570805478
 30
0.0
  0
VERTEX
  5
909
330
8EB
100
AcDbEntity
  8
4
100
AcDbVertex
100
AcDb2dVertex
 10
1283.917730164425
 20
333.2155712629482
 30
0.0
  0
VERTEX
  5
90A
330
8EB
100
AcDbEntity
  8
4
100
AcDbVertex
100
AcDb2dVertex
 10
1283.904234484427
 20
333.1109854453481
 30
0.0
  0
VERTEX
  5
90B
330
8EB
100
AcDbEntity
  8
4
100
AcDbVertex
100
AcDb2dVertex
 10
1283.894114625226
 20
333.0063996277483
 30
0.0
  0
VERTEX
  5
90C
330
8EB
100
AcDbEntity
  8
4
100
AcDbVertex
100
AcDb2dVertex
 10
1283.890740705227
 20
332.9018138101482
 30
0.0
  0
VERTEX
  5
90D
330
8EB
100
AcDbEntity
  8
4
100
AcDbVertex
100
AcDb2dVertex
 10
1284.356315054027
 20
332.9018138101482
 30
0.0
  0
VERTEX
  5
90E
330
8EB
100
AcDbEntity
  8
4
100
AcDbVertex
100
AcDb2dVertex
 10
1284.356315054027
 20
332.9827840885481
 30
0.0
  0
VERTEX
  5
90F
330
8EB
100
AcDbEntity
  8
4
100
AcDbVertex
100
AcDb2dVertex
 10
1284.363062894027
 20
333.0637524661482
 30
0.0
  0
VERTEX
  5
910
330
8EB
100
AcDbEntity
  8
4
100
AcDbVertex
100
AcDb2dVertex
 10
1284.373184654028
 20
333.1447227445483
 30
0.0
  0
VERTEX
  5
911
330
8EB
100
AcDbEntity
  8
4
100
AcDbVertex
100
AcDb2dVertex
 10
1284.390052353229
 20
333.2256930229484
 30
0.0
  0
VERTEX
  5
912
330
8EB
100
AcDbEntity
  8
4
100
AcDbVertex
100
AcDb2dVertex
 10
1284.406921953226
 20
333.3032874805482
 30
0.0
  0
VERTEX
  5
913
330
8EB
100
AcDbEntity
  8
4
100
AcDbVertex
100
AcDb2dVertex
 10
1284.430537492427
 20
333.3775099189482
 30
0.0
  0
VERTEX
  5
914
330
8EB
100
AcDbEntity
  8
4
100
AcDbVertex
100
AcDb2dVertex
 10
1284.454153031626
 20
333.4551062773483
 30
0.0
  0
VERTEX
  5
915
330
8EB
100
AcDbEntity
  8
4
100
AcDbVertex
100
AcDb2dVertex
 10
1284.484516410827
 20
333.5293287157482
 30
0.0
  0
VERTEX
  5
916
330
8EB
100
AcDbEntity
  8
4
100
AcDbVertex
100
AcDb2dVertex
 10
1284.518253710027
 20
333.6001772341483
 30
0.0
  0
VERTEX
  5
917
330
8EB
100
AcDbEntity
  8
4
100
AcDbVertex
100
AcDb2dVertex
 10
1284.555364929227
 20
333.6710257525482
 30
0.0
  0
VERTEX
  5
918
330
8EB
100
AcDbEntity
  8
4
100
AcDbVertex
100
AcDb2dVertex
 10
1284.595850068427
 20
333.7385003509483
 30
0.0
  0
VERTEX
  5
919
330
8EB
100
AcDbEntity
  8
4
100
AcDbVertex
100
AcDb2dVertex
 10
1284.636335207627
 20
333.8059749493481
 30
0.0
  0
VERTEX
  5
91A
330
8EB
100
AcDbEntity
  8
4
100
AcDbVertex
100
AcDb2dVertex
 10
1284.683566286029
 20
333.8700756277482
 30
0.0
  0
VERTEX
  5
91B
330
8EB
100
AcDbEntity
  8
4
100
AcDbVertex
100
AcDb2dVertex
 10
1284.730799265227
 20
333.9308023861482
 30
0.0
  0
VERTEX
  5
91C
330
8EB
100
AcDbEntity
  8
4
100
AcDbVertex
100
AcDb2dVertex
 10
1284.784780084425
 20
333.9915291445482
 30
0.0
  0
VERTEX
  5
91D
330
8EB
100
AcDbEntity
  8
4
100
AcDbVertex
100
AcDb2dVertex
 10
1284.838759002827
 20
334.0488838837482
 30
0.0
  0
VERTEX
  5
91E
330
8EB
100
AcDbEntity
  8
4
100
AcDbVertex
100
AcDb2dVertex
 10
1284.896111841226
 20
334.1028628021481
 30
0.0
  0
VERTEX
  5
91F
330
8EB
100
AcDbEntity
  8
4
100
AcDbVertex
100
AcDb2dVertex
 10
1284.956840500427
 20
334.1534697013481
 30
0.0
  0
VERTEX
  5
920
330
8EB
100
AcDbEntity
  8
4
100
AcDbVertex
100
AcDb2dVertex
 10
1285.017567258826
 20
334.2040746997483
 30
0.0
  0
VERTEX
  5
921
330
8EB
100
AcDbEntity
  8
4
100
AcDbVertex
100
AcDb2dVertex
 10
1285.081667937225
 20
334.2513076789482
 30
0.0
  0
VERTEX
  5
922
330
8EB
100
AcDbEntity
  8
4
100
AcDbVertex
100
AcDb2dVertex
 10
1285.149142535627
 20
334.2917928181481
 30
0.0
  0
VERTEX
  5
923
330
8EB
100
AcDbEntity
  8
4
100
AcDbVertex
100
AcDb2dVertex
 10
1285.216617134027
 20
334.3322760565483
 30
0.0
  0
VERTEX
  5
924
330
8EB
100
AcDbEntity
  8
4
100
AcDbVertex
100
AcDb2dVertex
 10
1285.287465652427
 20
334.369387275748
 30
0.0
  0
VERTEX
  5
925
330
8EB
100
AcDbEntity
  8
4
100
AcDbVertex
100
AcDb2dVertex
 10
1285.358314170827
 20
334.4031245749483
 30
0.0
  0
VERTEX
  5
926
330
8EB
100
AcDbEntity
  8
4
100
AcDbVertex
100
AcDb2dVertex
 10
1285.432536609227
 20
334.4301159349482
 30
0.0
  0
VERTEX
  5
927
330
8EB
100
AcDbEntity
  8
4
100
AcDbVertex
100
AcDb2dVertex
 10
1285.506759047627
 20
334.4571053941484
 30
0.0
  0
VERTEX
  5
928
330
8EB
100
AcDbEntity
  8
4
100
AcDbVertex
100
AcDb2dVertex
 10
1285.584353505226
 20
334.4807209333482
 30
0.0
  0
VERTEX
  5
929
330
8EB
100
AcDbEntity
  8
4
100
AcDbVertex
100
AcDb2dVertex
 10
1285.661949863626
 20
334.497590533348
 30
0.0
  0
VERTEX
  5
92A
330
8EB
100
AcDbEntity
  8
4
100
AcDbVertex
100
AcDb2dVertex
 10
1285.742920142028
 20
334.514458232548
 30
0.0
  0
VERTEX
  5
92B
330
8EB
100
AcDbEntity
  8
4
100
AcDbVertex
100
AcDb2dVertex
 10
1285.823888519628
 20
334.5245799925482
 30
0.0
  0
VERTEX
  5
92C
330
8EB
100
AcDbEntity
  8
4
100
AcDbVertex
100
AcDb2dVertex
 10
1285.904858798027
 20
334.5313278325482
 30
0.0
  0
VERTEX
  5
92D
330
8EB
100
AcDbEntity
  8
4
100
AcDbVertex
100
AcDb2dVertex
 10
1285.985829076427
 20
334.5313278325482
 30
0.0
  0
VERTEX
  5
92E
330
8EB
100
AcDbEntity
  8
4
100
AcDbVertex
100
AcDb2dVertex
 10
1285.985829076427
 20
334.9969021813481
 30
0.0
  0
VERTEX
  5
92F
330
8EB
100
AcDbEntity
  8
4
100
AcDbVertex
100
AcDb2dVertex
 10
1285.985829076427
 20
334.9969021813481
 30
0.0
  0
SEQEND
  5
930
330
8EB
100
AcDbEntity
  8
4
  0
POLYLINE
  5
931
330
1F
100
AcDbEntity
  8
4
100
AcDb2dPolyline
 66
     1
 10
0.0
 20
0.0
 30
0.0
  0
VERTEX
  5
932
330
931
100
AcDbEntity
  8
4
100
AcDbVertex
100
AcDb2dVertex
 10
1283.890740705227
 20
332.9018138101482
 30
0.0
  0
VERTEX
  5
933
330
931
100
AcDbEntity
  8
4
100
AcDbVertex
100
AcDb2dVertex
 10
1283.890740705227
 20
316.643794309348
 30
0.0
  0
VERTEX
  5
934
330
931
100
AcDbEntity
  8
4
100
AcDbVertex
100
AcDb2dVertex
 10
1284.356315054027
 20
316.643794309348
 30
0.0
  0
VERTEX
  5
935
330
931
100
AcDbEntity
  8
4
100
AcDbVertex
100
AcDb2dVertex
 10
1284.356315054027
 20
332.9018138101482
 30
0.0
  0
VERTEX
  5
936
330
931
100
AcDbEntity
  8
4
100
AcDbVertex
100
AcDb2dVertex
 10
1283.890740705227
 20
332.9018138101482
 30
0.0
  0
VERTEX
  5
937
330
931
100
AcDbEntity
  8
4
100
AcDbVertex
100
AcDb2dVertex
 10
1283.890740705227
 20
332.9018138101482
 30
0.0
  0
SEQEND
  5
938
330
931
100
AcDbEntity
  8
4
  0
POLYLINE
  5
939
330
1F
100
AcDbEntity
  8
4
100
AcDb2dPolyline
 66
     1
 10
0.0
 20
0.0
 30
0.0
  0
VERTEX
  5
93A
330
939
100
AcDbEntity
  8
4
100
AcDbVertex
100
AcDb2dVertex
 10
1283.890740705227
 20
316.643794309348
 30
0.0
  0
VERTEX
  5
93B
330
939
100
AcDbEntity
  8
4
100
AcDbVertex
100
AcDb2dVertex
 10
1283.894114625226
 20
316.5392084917482
 30
0.0
  0
VERTEX
  5
93C
330
939
100
AcDbEntity
  8
4
100
AcDbVertex
100
AcDb2dVertex
 10
1283.904234484427
 20
316.4346226741482
 30
0.0
  0
VERTEX
  5
93D
330
939
100
AcDbEntity
  8
4
100
AcDbVertex
100
AcDb2dVertex
 10
1283.917730164425
 20
316.3300368565482
 30
0.0
  0
VERTEX
  5
93E
330
939
100
AcDbEntity
  8
4
100
AcDbVertex
100
AcDb2dVertex
 10
1283.934597863626
 20
316.228824958948
 30
0.0
  0
VERTEX
  5
93F
330
939
100
AcDbEntity
  8
4
100
AcDbVertex
100
AcDb2dVertex
 10
1283.958215303627
 20
316.1276130613483
 30
0.0
  0
VERTEX
  5
940
330
939
100
AcDbEntity
  8
4
100
AcDbVertex
100
AcDb2dVertex
 10
1283.988578682827
 20
316.029775083748
 30
0.0
  0
VERTEX
  5
941
330
939
100
AcDbEntity
  8
4
100
AcDbVertex
100
AcDb2dVertex
 10
1284.022315982026
 20
315.9319371061481
 30
0.0
  0
VERTEX
  5
942
330
939
100
AcDbEntity
  8
4
100
AcDbVertex
100
AcDb2dVertex
 10
1284.059427201227
 20
315.8374730485476
 30
0.0
  0
VERTEX
  5
943
330
939
100
AcDbEntity
  8
4
100
AcDbVertex
100
AcDb2dVertex
 10
1284.103284359627
 20
315.7463810101482
 30
0.0
  0
VERTEX
  5
944
330
939
100
AcDbEntity
  8
4
100
AcDbVertex
100
AcDb2dVertex
 10
1284.150517338826
 20
315.6552908725481
 30
0.0
  0
VERTEX
  5
945
330
939
100
AcDbEntity
  8
4
100
AcDbVertex
100
AcDb2dVertex
 10
1284.201124238028
 20
315.570946674148
 30
0.0
  0
VERTEX
  5
946
330
939
100
AcDbEntity
  8
4
100
AcDbVertex
100
AcDb2dVertex
 10
1284.255103156425
 20
315.4866043765482
 30
0.0
  0
VERTEX
  5
947
330
939
100
AcDbEntity
  8
4
100
AcDbVertex
100
AcDb2dVertex
 10
1284.312455994827
 20
315.4056340981483
 30
0.0
  0
VERTEX
  5
948
330
939
100
AcDbEntity
  8
4
100
AcDbVertex
100
AcDb2dVertex
 10
1284.376556673227
 20
315.3280377397482
 30
0.0
  0
VERTEX
  5
949
330
939
100
AcDbEntity
  8
4
100
AcDbVertex
100
AcDb2dVertex
 10
1284.444031271627
 20
315.2504432821482
 30
0.0
  0
VERTEX
  5
94A
330
939
100
AcDbEntity
  8
4
100
AcDbVertex
100
AcDb2dVertex
 10
1284.511507770827
 20
315.1795947637482
 30
0.0
  0
VERTEX
  5
94B
330
939
100
AcDbEntity
  8
4
100
AcDbVertex
100
AcDb2dVertex
 10
1284.585728308427
 20
315.1121201653478
 30
0.0
  0
VERTEX
  5
94C
330
939
100
AcDbEntity
  8
4
100
AcDbVertex
100
AcDb2dVertex
 10
1284.663324666825
 20
315.0446455669483
 30
0.0
  0
VERTEX
  5
94D
330
939
100
AcDbEntity
  8
4
100
AcDbVertex
100
AcDb2dVertex
 10
1284.740921025227
 20
314.9839169077481
 30
0.0
  0
VERTEX
  5
94E
330
939
100
AcDbEntity
  8
4
100
AcDbVertex
100
AcDb2dVertex
 10
1284.821889402827
 20
314.926564069348
 30
0.0
  0
VERTEX
  5
94F
330
939
100
AcDbEntity
  8
4
100
AcDbVertex
100
AcDb2dVertex
 10
1284.909607521229
 20
314.8725851509482
 30
0.0
  0
VERTEX
  5
950
330
939
100
AcDbEntity
  8
4
100
AcDbVertex
100
AcDb2dVertex
 10
1284.993949818825
 20
314.8219782517478
 30
0.0
  0
VERTEX
  5
951
330
939
100
AcDbEntity
  8
4
100
AcDbVertex
100
AcDb2dVertex
 10
1285.085041857227
 20
314.7781191925481
 30
0.0
  0
VERTEX
  5
952
330
939
100
AcDbEntity
  8
4
100
AcDbVertex
100
AcDb2dVertex
 10
1285.179505914826
 20
314.7342620341483
 30
0.0
  0
VERTEX
  5
953
330
939
100
AcDbEntity
  8
4
100
AcDbVertex
100
AcDb2dVertex
 10
1285.273969972426
 20
314.7005247349481
 30
0.0
  0
VERTEX
  5
954
330
939
100
AcDbEntity
  8
4
100
AcDbVertex
100
AcDb2dVertex
 10
1285.371807950027
 20
314.6667874357482
 30
0.0
  0
VERTEX
  5
955
330
939
100
AcDbEntity
  8
4
100
AcDbVertex
100
AcDb2dVertex
 10
1285.469647828425
 20
314.6364240565481
 30
0.0
  0
VERTEX
  5
956
330
939
100
AcDbEntity
  8
4
100
AcDbVertex
100
AcDb2dVertex
 10
1285.570859726028
 20
314.6161805365482
 30
0.0
  0
VERTEX
  5
957
330
939
100
AcDbEntity
  8
4
100
AcDbVertex
100
AcDb2dVertex
 10
1285.672071623628
 20
314.595938917348
 30
0.0
  0
VERTEX
  5
958
330
939
100
AcDbEntity
  8
4
100
AcDbVertex
100
AcDb2dVertex
 10
1285.776657441227
 20
314.5858171573482
 30
0.0
  0
VERTEX
  5
959
330
939
100
AcDbEntity
  8
4
100
AcDbVertex
100
AcDb2dVertex
 10
1285.881243258827
 20
314.5756953973482
 30
0.0
  0
VERTEX
  5
95A
330
939
100
AcDbEntity
  8
4
100
AcDbVertex
100
AcDb2dVertex
 10
1285.985829076427
 20
314.5723214773481
 30
0.0
  0
VERTEX
  5
95B
330
939
100
AcDbEntity
  8
4
100
AcDbVertex
100
AcDb2dVertex
 10
1285.985829076427
 20
315.0378977269481
 30
0.0
  0
VERTEX
  5
95C
330
939
100
AcDbEntity
  8
4
100
AcDbVertex
100
AcDb2dVertex
 10
1285.904858798027
 20
315.0378977269481
 30
0.0
  0
VERTEX
  5
95D
330
939
100
AcDbEntity
  8
4
100
AcDbVertex
100
AcDb2dVertex
 10
1285.820514599625
 20
315.0446455669483
 30
0.0
  0
VERTEX
  5
95E
330
939
100
AcDbEntity
  8
4
100
AcDbVertex
100
AcDb2dVertex
 10
1285.739546222027
 20
315.0547654261485
 30
0.0
  0
VERTEX
  5
95F
330
939
100
AcDbEntity
  8
4
100
AcDbVertex
100
AcDb2dVertex
 10
1285.661949863626
 20
315.0682611061485
 30
0.0
  0
VERTEX
  5
960
330
939
100
AcDbEntity
  8
4
100
AcDbVertex
100
AcDb2dVertex
 10
1285.584353505226
 20
315.0885027253479
 30
0.0
  0
VERTEX
  5
961
330
939
100
AcDbEntity
  8
4
100
AcDbVertex
100
AcDb2dVertex
 10
1285.506759047627
 20
315.1087462453481
 30
0.0
  0
VERTEX
  5
962
330
939
100
AcDbEntity
  8
4
100
AcDbVertex
100
AcDb2dVertex
 10
1285.432536609227
 20
315.1357357045481
 30
0.0
  0
VERTEX
  5
963
330
939
100
AcDbEntity
  8
4
100
AcDbVertex
100
AcDb2dVertex
 10
1285.358314170827
 20
315.162725163748
 30
0.0
  0
VERTEX
  5
964
330
939
100
AcDbEntity
  8
4
100
AcDbVertex
100
AcDb2dVertex
 10
1285.284091732427
 20
315.1964624629481
 30
0.0
  0
VERTEX
  5
965
330
939
100
AcDbEntity
  8
4
100
AcDbVertex
100
AcDb2dVertex
 10
1285.216617134027
 20
315.2301997621479
 30
0.0
  0
VERTEX
  5
966
330
939
100
AcDbEntity
  8
4
100
AcDbVertex
100
AcDb2dVertex
 10
1285.145768615627
 20
315.2706849013481
 30
0.0
  0
VERTEX
  5
967
330
939
100
AcDbEntity
  8
4
100
AcDbVertex
100
AcDb2dVertex
 10
1285.081667937225
 20
315.3145439605481
 30
0.0
  0
VERTEX
  5
968
330
939
100
AcDbEntity
  8
4
100
AcDbVertex
100
AcDb2dVertex
 10
1285.014193338827
 20
315.3584030197483
 30
0.0
  0
VERTEX
  5
969
330
939
100
AcDbEntity
  8
4
100
AcDbVertex
100
AcDb2dVertex
 10
1284.953466580427
 20
315.4056340981483
 30
0.0
  0
VERTEX
  5
96A
330
939
100
AcDbEntity
  8
4
100
AcDbVertex
100
AcDb2dVertex
 10
1284.892737921227
 20
315.4562409973481
 30
0.0
  0
VERTEX
  5
96B
330
939
100
AcDbEntity
  8
4
100
AcDbVertex
100
AcDb2dVertex
 10
1284.838759002827
 20
315.5102199157478
 30
0.0
  0
VERTEX
  5
96C
330
939
100
AcDbEntity
  8
4
100
AcDbVertex
100
AcDb2dVertex
 10
1284.781406164425
 20
315.567572754148
 30
0.0
  0
VERTEX
  5
96D
330
939
100
AcDbEntity
  8
4
100
AcDbVertex
100
AcDb2dVertex
 10
1284.730799265227
 20
315.6249274933481
 30
0.0
  0
VERTEX
  5
96E
330
939
100
AcDbEntity
  8
4
100
AcDbVertex
100
AcDb2dVertex
 10
1284.683566286029
 20
315.6856542517482
 30
0.0
  0
VERTEX
  5
96F
330
939
100
AcDbEntity
  8
4
100
AcDbVertex
100
AcDb2dVertex
 10
1284.636335207627
 20
315.7497549301481
 30
0.0
  0
VERTEX
  5
970
330
939
100
AcDbEntity
  8
4
100
AcDbVertex
100
AcDb2dVertex
 10
1284.592476148427
 20
315.8138556085482
 30
0.0
  0
VERTEX
  5
971
330
939
100
AcDbEntity
  8
4
100
AcDbVertex
100
AcDb2dVertex
 10
1284.551991009225
 20
315.8813302069482
 30
0.0
  0
VERTEX
  5
972
330
939
100
AcDbEntity
  8
4
100
AcDbVertex
100
AcDb2dVertex
 10
1284.518253710027
 20
315.952178725348
 30
0.0
  0
VERTEX
  5
973
330
939
100
AcDbEntity
  8
4
100
AcDbVertex
100
AcDb2dVertex
 10
1284.484516410827
 20
316.0196533237481
 30
0.0
  0
VERTEX
  5
974
330
939
100
AcDbEntity
  8
4
100
AcDbVertex
100
AcDb2dVertex
 10
1284.454153031626
 20
316.0938757621483
 30
0.0
  0
VERTEX
  5
975
330
939
100
AcDbEntity
  8
4
100
AcDbVertex
100
AcDb2dVertex
 10
1284.427163572426
 20
316.168098200548
 30
0.0
  0
VERTEX
  5
976
330
939
100
AcDbEntity
  8
4
100
AcDbVertex
100
AcDb2dVertex
 10
1284.406921953226
 20
316.2456945589479
 30
0.0
  0
VERTEX
  5
977
330
939
100
AcDbEntity
  8
4
100
AcDbVertex
100
AcDb2dVertex
 10
1284.390052353229
 20
316.3232890165482
 30
0.0
  0
VERTEX
  5
978
330
939
100
AcDbEntity
  8
4
100
AcDbVertex
100
AcDb2dVertex
 10
1284.373184654028
 20
316.4008853749482
 30
0.0
  0
VERTEX
  5
979
330
939
100
AcDbEntity
  8
4
100
AcDbVertex
100
AcDb2dVertex
 10
1284.363062894027
 20
316.4818556533482
 30
0.0
  0
VERTEX
  5
97A
330
939
100
AcDbEntity
  8
4
100
AcDbVertex
100
AcDb2dVertex
 10
1284.356315054027
 20
316.562824030948
 30
0.0
  0
VERTEX
  5
97B
330
939
100
AcDbEntity
  8
4
100
AcDbVertex
100
AcDb2dVertex
 10
1284.356315054027
 20
316.643794309348
 30
0.0
  0
VERTEX
  5
97C
330
939
100
AcDbEntity
  8
4
100
AcDbVertex
100
AcDb2dVertex
 10
1283.890740705227
 20
316.643794309348
 30
0.0
  0
VERTEX
  5
97D
330
939
100
AcDbEntity
  8
4
100
AcDbVertex
100
AcDb2dVertex
 10
1283.890740705227
 20
316.643794309348
 30
0.0
  0
SEQEND
  5
97E
330
939
100
AcDbEntity
  8
4
  0
POLYLINE
  5
97F
330
1F
100
AcDbEntity
  8
4
100
AcDb2dPolyline
 66
     1
 10
0.0
 20
0.0
 30
0.0
  0
VERTEX
  5
980
330
97F
100
AcDbEntity
  8
4
100
AcDbVertex
100
AcDb2dVertex
 10
1303.262962497226
 20
322.3797263221478
 30
0.0
  0
VERTEX
  5
981
330
97F
100
AcDbEntity
  8
4
100
AcDbVertex
100
AcDb2dVertex
 10
1303.262962497226
 20
319.3710298357481
 30
0.0
  0
VERTEX
  5
982
330
97F
100
AcDbEntity
  8
4
100
AcDbVertex
100
AcDb2dVertex
 10
1303.048056148427
 20
319.248226750948
 30
0.0
  0
VERTEX
  5
983
330
97F
100
AcDbEntity
  8
4
100
AcDbVertex
100
AcDb2dVertex
 10
1302.372635380427
 20
318.941217138148
 30
0.0
  0
VERTEX
  5
984
330
97F
100
AcDbEntity
  8
4
100
AcDbVertex
100
AcDb2dVertex
 10
1301.881419239627
 20
318.7877123317482
 30
0.0
  0
VERTEX
  5
985
330
97F
100
AcDbEntity
  8
4
100
AcDbVertex
100
AcDb2dVertex
 10
1301.328801556427
 20
318.6649073461481
 30
0.0
  0
VERTEX
  5
986
330
97F
100
AcDbEntity
  8
4
100
AcDbVertex
100
AcDb2dVertex
 10
1300.684080609227
 20
318.5728059829483
 30
0.0
  0
VERTEX
  5
987
330
97F
100
AcDbEntity
  8
4
100
AcDbVertex
100
AcDb2dVertex
 10
1299.977958119627
 20
318.5421042613481
 30
0.0
  0
VERTEX
  5
988
330
97F
100
AcDbEntity
  8
4
100
AcDbVertex
100
AcDb2dVertex
 10
1299.460427303627
 20
318.5421042613481
 30
0.0
  0
VERTEX
  5
989
330
97F
100
AcDbEntity
  8
4
100
AcDbVertex
100
AcDb2dVertex
 10
1298.938511342025
 20
318.6035058037483
 30
0.0
  0
VERTEX
  5
98A
330
97F
100
AcDbEntity
  8
4
100
AcDbVertex
100
AcDb2dVertex
 10
1298.447295201227
 20
318.7263107893481
 30
0.0
  0
VERTEX
  5
98B
330
97F
100
AcDbEntity
  8
4
100
AcDbVertex
100
AcDb2dVertex
 10
1297.925379239626
 20
318.8491138741483
 30
0.0
  0
VERTEX
  5
98C
330
97F
100
AcDbEntity
  8
4
100
AcDbVertex
100
AcDb2dVertex
 10
1297.464864820426
 20
319.0333204021481
 30
0.0
  0
VERTEX
  5
98D
330
97F
100
AcDbEntity
  8
4
100
AcDbVertex
100
AcDb2dVertex
 10
1297.004350401227
 20
319.2789265717482
 30
0.0
  0
VERTEX
  5
98E
330
97F
100
AcDbEntity
  8
4
100
AcDbVertex
100
AcDb2dVertex
 10
1296.574537703627
 20
319.5245346421484
 30
0.0
  0
VERTEX
  5
98F
330
97F
100
AcDbEntity
  8
4
100
AcDbVertex
100
AcDb2dVertex
 10
1296.144723105227
 20
319.8315442549481
 30
0.0
  0
VERTEX
  5
990
330
97F
100
AcDbEntity
  8
4
100
AcDbVertex
100
AcDb2dVertex
 10
1295.776311950027
 20
320.1999573109481
 30
0.0
  0
VERTEX
  5
991
330
97F
100
AcDbEntity
  8
4
100
AcDbVertex
100
AcDb2dVertex
 10
1295.442985761227
 20
320.5990682869481
 30
0.0
  0
VERTEX
  5
992
330
97F
100
AcDbEntity
  8
4
100
AcDbVertex
100
AcDb2dVertex
 10
1295.166677870027
 20
321.0288828853483
 30
0.0
  0
VERTEX
  5
993
330
97F
100
AcDbEntity
  8
4
100
AcDbVertex
100
AcDb2dVertex
 10
1294.921069799627
 20
321.4893973045481
 30
0.0
  0
VERTEX
  5
994
330
97F
100
AcDbEntity
  8
4
100
AcDbVertex
100
AcDb2dVertex
 10
1294.706163450827
 20
322.0113132661482
 30
0.0
  0
VERTEX
  5
995
330
97F
100
AcDbEntity
  8
4
100
AcDbVertex
100
AcDb2dVertex
 10
1294.552658644426
 20
322.5639309493482
 30
0.0
  0
VERTEX
  5
996
330
97F
100
AcDbEntity
  8
4
100
AcDbVertex
100
AcDb2dVertex
 10
1294.460555380428
 20
323.142863307748
 30
0.0
  0
VERTEX
  5
997
330
97F
100
AcDbEntity
  8
4
100
AcDbVertex
100
AcDb2dVertex
 10
1294.429855559627
 20
323.7875842549479
 30
0.0
  0
VERTEX
  5
998
330
97F
100
AcDbEntity
  8
4
100
AcDbVertex
100
AcDb2dVertex
 10
1294.521956922827
 20
324.6472115509484
 30
0.0
  0
VERTEX
  5
999
330
97F
100
AcDbEntity
  8
4
100
AcDbVertex
100
AcDb2dVertex
 10
1294.736865172427
 20
325.4761371253481
 30
0.0
  0
VERTEX
  5
99A
330
97F
100
AcDbEntity
  8
4
100
AcDbVertex
100
AcDb2dVertex
 10
1294.890369978827
 20
325.8752500021479
 30
0.0
  0
VERTEX
  5
99B
330
97F
100
AcDbEntity
  8
4
100
AcDbVertex
100
AcDb2dVertex
 10
1295.105276327627
 20
326.274362878948
 30
0.0
  0
VERTEX
  5
99C
330
97F
100
AcDbEntity
  8
4
100
AcDbVertex
100
AcDb2dVertex
 10
1295.320182676427
 20
326.6427740341481
 30
0.0
  0
VERTEX
  5
99D
330
97F
100
AcDbEntity
  8
4
100
AcDbVertex
100
AcDb2dVertex
 10
1295.592105422027
 20
326.9761002229482
 30
0.0
  0
VERTEX
  5
99E
330
97F
100
AcDbEntity
  8
4
100
AcDbVertex
100
AcDb2dVertex
 10
1295.929816756427
 20
327.2831098357481
 30
0.0
  0
VERTEX
  5
99F
330
97F
100
AcDbEntity
  8
4
100
AcDbVertex
100
AcDb2dVertex
 10
1296.267526190027
 20
327.5901194485481
 30
0.0
  0
VERTEX
  5
9A0
330
97F
100
AcDbEntity
  8
4
100
AcDbVertex
100
AcDb2dVertex
 10
1296.635939246027
 20
327.8357275189482
 30
0.0
  0
VERTEX
  5
9A1
330
97F
100
AcDbEntity
  8
4
100
AcDbVertex
100
AcDb2dVertex
 10
1297.065751943626
 20
328.050633867748
 30
0.0
  0
VERTEX
  5
9A2
330
97F
100
AcDbEntity
  8
4
100
AcDbVertex
100
AcDb2dVertex
 10
1297.526266362827
 20
328.234838494948
 30
0.0
  0
VERTEX
  5
9A3
330
97F
100
AcDbEntity
  8
4
100
AcDbVertex
100
AcDb2dVertex
 10
1298.017482503627
 20
328.3576434805481
 30
0.0
  0
VERTEX
  5
9A4
330
97F
100
AcDbEntity
  8
4
100
AcDbVertex
100
AcDb2dVertex
 10
1298.539398465225
 20
328.449746744548
 30
0.0
  0
VERTEX
  5
9A5
330
97F
100
AcDbEntity
  8
4
100
AcDbVertex
100
AcDb2dVertex
 10
1299.122717870029
 20
328.4804465653482
 30
0.0
  0
VERTEX
  5
9A6
330
97F
100
AcDbEntity
  8
4
100
AcDbVertex
100
AcDb2dVertex
 10
1299.920941722826
 20
328.4190450229483
 30
0.0
  0
VERTEX
  5
9A7
330
97F
100
AcDbEntity
  8
4
100
AcDbVertex
100
AcDb2dVertex
 10
1300.684080609227
 20
328.2041386741484
 30
0.0
  0
VERTEX
  5
9A8
330
97F
100
AcDbEntity
  8
4
100
AcDbVertex
100
AcDb2dVertex
 10
1301.390203098826
 20
327.8971290613481
 30
0.0
  0
VERTEX
  5
9A9
330
97F
100
AcDbEntity
  8
4
100
AcDbVertex
100
AcDb2dVertex
 10
1302.034924046026
 20
327.4980161845483
 30
0.0
  0
VERTEX
  5
9AA
330
97F
100
AcDbEntity
  8
4
100
AcDbVertex
100
AcDb2dVertex
 10
1302.618241550027
 20
327.0068000437481
 30
0.0
  0
VERTEX
  5
9AB
330
97F
100
AcDbEntity
  8
4
100
AcDbVertex
100
AcDb2dVertex
 10
1303.078755969227
 20
326.4892692277481
 30
0.0
  0
VERTEX
  5
9AC
330
97F
100
AcDbEntity
  8
4
100
AcDbVertex
100
AcDb2dVertex
 10
1303.477868846027
 20
325.8752500021479
 30
0.0
  0
VERTEX
  5
9AD
330
97F
100
AcDbEntity
  8
4
100
AcDbVertex
100
AcDb2dVertex
 10
1303.754178638027
 20
325.2612307765483
 30
0.0
  0
VERTEX
  5
9AE
330
97F
100
AcDbEntity
  8
4
100
AcDbVertex
100
AcDb2dVertex
 10
1299.184119412427
 20
321.2744909557481
 30
0.0
  0
VERTEX
  5
9AF
330
97F
100
AcDbEntity
  8
4
100
AcDbVertex
100
AcDb2dVertex
 10
1299.368325940426
 20
321.2437892341483
 30
0.0
  0
VERTEX
  5
9B0
330
97F
100
AcDbEntity
  8
4
100
AcDbVertex
100
AcDb2dVertex
 10
1299.798138638027
 20
321.1516859701481
 30
0.0
  0
VERTEX
  5
9B1
330
97F
100
AcDbEntity
  8
4
100
AcDbVertex
100
AcDb2dVertex
 10
1300.407772718027
 20
321.1516859701481
 30
0.0
  0
VERTEX
  5
9B2
330
97F
100
AcDbEntity
  8
4
100
AcDbVertex
100
AcDb2dVertex
 10
1300.776183873227
 20
321.1823876917482
 30
0.0
  0
VERTEX
  5
9B3
330
97F
100
AcDbEntity
  8
4
100
AcDbVertex
100
AcDb2dVertex
 10
1301.144595028427
 20
321.2744909557481
 30
0.0
  0
VERTEX
  5
9B4
330
97F
100
AcDbEntity
  8
4
100
AcDbVertex
100
AcDb2dVertex
 10
1301.912119060425
 20
321.5507988469483
 30
0.0
  0
VERTEX
  5
9B5
330
97F
100
AcDbEntity
  8
4
100
AcDbVertex
100
AcDb2dVertex
 10
1302.587541729227
 20
321.9192100021482
 30
0.0
  0
VERTEX
  5
9B6
330
97F
100
AcDbEntity
  8
4
100
AcDbVertex
100
AcDb2dVertex
 10
1303.262962497226
 20
322.3797263221478
 30
0.0
  0
VERTEX
  5
9B7
330
97F
100
AcDbEntity
  8
4
100
AcDbVertex
100
AcDb2dVertex
 10
1303.262962497226
 20
322.3797263221478
 30
0.0
  0
SEQEND
  5
9B8
330
97F
100
AcDbEntity
  8
4
  0
POLYLINE
  5
9B9
330
1F
100
AcDbEntity
  8
4
100
AcDb2dPolyline
 66
     1
 10
0.0
 20
0.0
 30
0.0
  0
VERTEX
  5
9BA
330
9B9
100
AcDbEntity
  8
4
100
AcDbVertex
100
AcDb2dVertex
 10
1297.342061735627
 20
323.0507600437484
 30
0.0
  0
VERTEX
  5
9BB
330
9B9
100
AcDbEntity
  8
4
100
AcDbVertex
100
AcDb2dVertex
 10
1300.315669454026
 20
325.537538667748
 30
0.0
  0
VERTEX
  5
9BC
330
9B9
100
AcDbEntity
  8
4
100
AcDbVertex
100
AcDb2dVertex
 10
1300.100763105226
 20
325.6603436533482
 30
0.0
  0
VERTEX
  5
9BD
330
9B9
100
AcDbEntity
  8
4
100
AcDbVertex
100
AcDb2dVertex
 10
1299.859540180426
 20
325.783146738148
 30
0.0
  0
VERTEX
  5
9BE
330
9B9
100
AcDbEntity
  8
4
100
AcDbVertex
100
AcDb2dVertex
 10
1299.521830746827
 20
325.8752500021479
 30
0.0
  0
VERTEX
  5
9BF
330
9B9
100
AcDbEntity
  8
4
100
AcDbVertex
100
AcDb2dVertex
 10
1299.153417690827
 20
325.9366515445481
 30
0.0
  0
VERTEX
  5
9C0
330
9B9
100
AcDbEntity
  8
4
100
AcDbVertex
100
AcDb2dVertex
 10
1298.723604993227
 20
325.9059517237481
 30
0.0
  0
VERTEX
  5
9C1
330
9B9
100
AcDbEntity
  8
4
100
AcDbVertex
100
AcDb2dVertex
 10
1298.263090574025
 20
325.7524469173482
 30
0.0
  0
VERTEX
  5
9C2
330
9B9
100
AcDbEntity
  8
4
100
AcDbVertex
100
AcDb2dVertex
 10
1297.833275975627
 20
325.4454373045481
 30
0.0
  0
VERTEX
  5
9C3
330
9B9
100
AcDbEntity
  8
4
100
AcDbVertex
100
AcDb2dVertex
 10
1297.464864820426
 20
325.0156227061478
 30
0.0
  0
VERTEX
  5
9C4
330
9B9
100
AcDbEntity
  8
4
100
AcDbVertex
100
AcDb2dVertex
 10
1297.249958471626
 20
324.5858100085483
 30
0.0
  0
VERTEX
  5
9C5
330
9B9
100
AcDbEntity
  8
4
100
AcDbVertex
100
AcDb2dVertex
 10
1297.157855207627
 20
324.1866971317483
 30
0.0
  0
VERTEX
  5
9C6
330
9B9
100
AcDbEntity
  8
4
100
AcDbVertex
100
AcDb2dVertex
 10
1297.127153486027
 20
323.8182859765481
 30
0.0
  0
VERTEX
  5
9C7
330
9B9
100
AcDbEntity
  8
4
100
AcDbVertex
100
AcDb2dVertex
 10
1297.188556929226
 20
323.5112763637481
 30
0.0
  0
VERTEX
  5
9C8
330
9B9
100
AcDbEntity
  8
4
100
AcDbVertex
100
AcDb2dVertex
 10
1297.249958471626
 20
323.2656682933481
 30
0.0
  0
VERTEX
  5
9C9
330
9B9
100
AcDbEntity
  8
4
100
AcDbVertex
100
AcDb2dVertex
 10
1297.342061735627
 20
323.0507600437484
 30
0.0
  0
VERTEX
  5
9CA
330
9B9
100
AcDbEntity
  8
4
100
AcDbVertex
100
AcDb2dVertex
 10
1297.342061735627
 20
323.0507600437484
 30
0.0
  0
SEQEND
  5
9CB
330
9B9
100
AcDbEntity
  8
4
  0
POLYLINE
  5
9CC
330
1F
100
AcDbEntity
  8
4
100
AcDb2dPolyline
 66
     1
 10
0.0
 20
0.0
 30
0.0
  0
VERTEX
  5
9CD
330
9CC
100
AcDbEntity
  8
4
100
AcDbVertex
100
AcDb2dVertex
 10
1304.394512538827
 20
318.6956090677478
 30
0.0
  0
VERTEX
  5
9CE
330
9CC
100
AcDbEntity
  8
4
100
AcDbVertex
100
AcDb2dVertex
 10
1304.394512538827
 20
329.2786723189478
 30
0.0
  0
VERTEX
  5
9CF
330
9CC
100
AcDbEntity
  8
4
100
AcDbVertex
100
AcDb2dVertex
 10
1304.425214260427
 20
329.6777851957483
 30
0.0
  0
VERTEX
  5
9D0
330
9CC
100
AcDbEntity
  8
4
100
AcDbVertex
100
AcDb2dVertex
 10
1304.548017345227
 20
330.1382996149481
 30
0.0
  0
VERTEX
  5
9D1
330
9CC
100
AcDbEntity
  8
4
100
AcDbVertex
100
AcDb2dVertex
 10
1304.793625415627
 20
330.6295157557482
 30
0.0
  0
VERTEX
  5
9D2
330
9CC
100
AcDbEntity
  8
4
100
AcDbVertex
100
AcDb2dVertex
 10
1304.947130222026
 20
330.8751219253481
 30
0.0
  0
VERTEX
  5
9D3
330
9CC
100
AcDbEntity
  8
4
100
AcDbVertex
100
AcDb2dVertex
 10
1305.162036570826
 20
331.1207299957482
 30
0.0
  0
VERTEX
  5
9D4
330
9CC
100
AcDbEntity
  8
4
100
AcDbVertex
100
AcDb2dVertex
 10
1305.438346362827
 20
331.3312511989482
 30
0.0
  0
VERTEX
  5
9D5
330
9CC
100
AcDbEntity
  8
4
100
AcDbVertex
100
AcDb2dVertex
 10
1305.745355975627
 20
331.5461575477481
 30
0.0
  0
VERTEX
  5
9D6
330
9CC
100
AcDbEntity
  8
4
100
AcDbVertex
100
AcDb2dVertex
 10
1306.144468852427
 20
331.699662354148
 30
0.0
  0
VERTEX
  5
9D7
330
9CC
100
AcDbEntity
  8
4
100
AcDbVertex
100
AcDb2dVertex
 10
1306.604983271629
 20
331.8531671605482
 30
0.0
  0
VERTEX
  5
9D8
330
9CC
100
AcDbEntity
  8
4
100
AcDbVertex
100
AcDb2dVertex
 10
1307.126899233229
 20
331.9452704245481
 30
0.0
  0
VERTEX
  5
9D9
330
9CC
100
AcDbEntity
  8
4
100
AcDbVertex
100
AcDb2dVertex
 10
1307.710216737227
 20
331.9759721461484
 30
0.0
  0
VERTEX
  5
9DA
330
9CC
100
AcDbEntity
  8
4
100
AcDbVertex
100
AcDb2dVertex
 10
1308.811066958026
 20
331.9759721461484
 30
0.0
  0
VERTEX
  5
9DB
330
9CC
100
AcDbEntity
  8
4
100
AcDbVertex
100
AcDb2dVertex
 10
1308.811066958026
 20
329.6163836533481
 30
0.0
  0
VERTEX
  5
9DC
330
9CC
100
AcDbEntity
  8
4
100
AcDbVertex
100
AcDb2dVertex
 10
1308.477742670027
 20
329.6163836533481
 30
0.0
  0
VERTEX
  5
9DD
330
9CC
100
AcDbEntity
  8
4
100
AcDbVertex
100
AcDb2dVertex
 10
1308.324237863627
 20
329.5856819317479
 30
0.0
  0
VERTEX
  5
9DE
330
9CC
100
AcDbEntity
  8
4
100
AcDbVertex
100
AcDb2dVertex
 10
1307.925124986826
 20
329.4935786677483
 30
0.0
  0
VERTEX
  5
9DF
330
9CC
100
AcDbEntity
  8
4
100
AcDbVertex
100
AcDb2dVertex
 10
1307.740918458827
 20
329.3400738613483
 30
0.0
  0
VERTEX
  5
9E0
330
9CC
100
AcDbEntity
  8
4
100
AcDbVertex
100
AcDb2dVertex
 10
1307.556711930827
 20
329.1558692341482
 30
0.0
  0
VERTEX
  5
9E1
330
9CC
100
AcDbEntity
  8
4
100
AcDbVertex
100
AcDb2dVertex
 10
1307.433908846027
 20
328.9102611637482
 30
0.0
  0
VERTEX
  5
9E2
330
9CC
100
AcDbEntity
  8
4
100
AcDbVertex
100
AcDb2dVertex
 10
1307.372507303625
 20
328.5725498293483
 30
0.0
  0
VERTEX
  5
9E3
330
9CC
100
AcDbEntity
  8
4
100
AcDbVertex
100
AcDb2dVertex
 10
1307.372507303625
 20
327.5594177269483
 30
0.0
  0
VERTEX
  5
9E4
330
9CC
100
AcDbEntity
  8
4
100
AcDbVertex
100
AcDb2dVertex
 10
1308.692649018827
 20
327.5594177269483
 30
0.0
  0
VERTEX
  5
9E5
330
9CC
100
AcDbEntity
  8
4
100
AcDbVertex
100
AcDb2dVertex
 10
1308.692649018827
 20
325.2612307765483
 30
0.0
  0
VERTEX
  5
9E6
330
9CC
100
AcDbEntity
  8
4
100
AcDbVertex
100
AcDb2dVertex
 10
1307.372507303625
 20
325.2612307765483
 30
0.0
  0
VERTEX
  5
9E7
330
9CC
100
AcDbEntity
  8
4
100
AcDbVertex
100
AcDb2dVertex
 10
1307.372507303625
 20
318.6956090677478
 30
0.0
  0
VERTEX
  5
9E8
330
9CC
100
AcDbEntity
  8
4
100
AcDbVertex
100
AcDb2dVertex
 10
1304.394512538827
 20
318.6956090677478
 30
0.0
  0
VERTEX
  5
9E9
330
9CC
100
AcDbEntity
  8
4
100
AcDbVertex
100
AcDb2dVertex
 10
1304.394512538827
 20
318.6956090677478
 30
0.0
  0
SEQEND
  5
9EA
330
9CC
100
AcDbEntity
  8
4
  0
POLYLINE
  5
9EB
330
1F
100
AcDbEntity
  8
4
100
AcDb2dPolyline
 66
     1
 10
0.0
 20
0.0
 30
0.0
  0
VERTEX
  5
9EC
330
9EB
100
AcDbEntity
  8
4
100
AcDbVertex
100
AcDb2dVertex
 10
1323.657179822028
 20
328.2655402165484
 30
0.0
  0
VERTEX
  5
9ED
330
9EB
100
AcDbEntity
  8
4
100
AcDbVertex
100
AcDb2dVertex
 10
1326.600085818827
 20
328.2655402165484
 30
0.0
  0
VERTEX
  5
9EE
330
9EB
100
AcDbEntity
  8
4
100
AcDbVertex
100
AcDb2dVertex
 10
1326.600085818827
 20
326.4892692277481
 30
0.0
  0
VERTEX
  5
9EF
330
9EB
100
AcDbEntity
  8
4
100
AcDbVertex
100
AcDb2dVertex
 10
1326.600085818827
 20
326.3050646005481
 30
0.0
  0
VERTEX
  5
9F0
330
9EB
100
AcDbEntity
  8
4
100
AcDbVertex
100
AcDb2dVertex
 10
1326.692189082827
 20
325.8752500021479
 30
0.0
  0
VERTEX
  5
9F1
330
9EB
100
AcDbEntity
  8
4
100
AcDbVertex
100
AcDb2dVertex
 10
1326.814994068427
 20
325.6296419317481
 30
0.0
  0
VERTEX
  5
9F2
330
9EB
100
AcDbEntity
  8
4
100
AcDbVertex
100
AcDb2dVertex
 10
1326.999198695627
 20
325.4454373045481
 30
0.0
  0
VERTEX
  5
9F3
330
9EB
100
AcDbEntity
  8
4
100
AcDbVertex
100
AcDb2dVertex
 10
1327.306208308425
 20
325.2919324981482
 30
0.0
  0
VERTEX
  5
9F4
330
9EB
100
AcDbEntity
  8
4
100
AcDbVertex
100
AcDb2dVertex
 10
1327.674619463627
 20
325.2612307765483
 30
0.0
  0
VERTEX
  5
9F5
330
9EB
100
AcDbEntity
  8
4
100
AcDbVertex
100
AcDb2dVertex
 10
1328.043032519629
 20
325.2919324981482
 30
0.0
  0
VERTEX
  5
9F6
330
9EB
100
AcDbEntity
  8
4
100
AcDbVertex
100
AcDb2dVertex
 10
1328.350042132427
 20
325.4454373045481
 30
0.0
  0
VERTEX
  5
9F7
330
9EB
100
AcDbEntity
  8
4
100
AcDbVertex
100
AcDb2dVertex
 10
1328.564948481227
 20
325.6603436533482
 30
0.0
  0
VERTEX
  5
9F8
330
9EB
100
AcDbEntity
  8
4
100
AcDbVertex
100
AcDb2dVertex
 10
1328.687751566026
 20
325.8752500021479
 30
0.0
  0
VERTEX
  5
9F9
330
9EB
100
AcDbEntity
  8
4
100
AcDbVertex
100
AcDb2dVertex
 10
1328.810556551627
 20
326.3050646005481
 30
0.0
  0
VERTEX
  5
9FA
330
9EB
100
AcDbEntity
  8
4
100
AcDbVertex
100
AcDb2dVertex
 10
1328.841256372427
 20
326.5199709493482
 30
0.0
  0
VERTEX
  5
9FB
330
9EB
100
AcDbEntity
  8
4
100
AcDbVertex
100
AcDb2dVertex
 10
1328.841256372427
 20
328.2655402165484
 30
0.0
  0
VERTEX
  5
9FC
330
9EB
100
AcDbEntity
  8
4
100
AcDbVertex
100
AcDb2dVertex
 10
1331.722762727626
 20
328.2655402165484
 30
0.0
  0
VERTEX
  5
9FD
330
9EB
100
AcDbEntity
  8
4
100
AcDbVertex
100
AcDb2dVertex
 10
1331.722762727626
 20
326.2129613365483
 30
0.0
  0
VERTEX
  5
9FE
330
9EB
100
AcDbEntity
  8
4
100
AcDbVertex
100
AcDb2dVertex
 10
1331.722762727626
 20
325.9059517237481
 30
0.0
  0
VERTEX
  5
9FF
330
9EB
100
AcDbEntity
  8
4
100
AcDbVertex
100
AcDb2dVertex
 10
1331.599959642827
 20
325.2305290549481
 30
0.0
  0
VERTEX
  5
A00
330
9EB
100
AcDbEntity
  8
4
100
AcDbVertex
100
AcDb2dVertex
 10
1331.446454836425
 20
324.8314180789483
 30
0.0
  0
VERTEX
  5
A01
330
9EB
100
AcDbEntity
  8
4
100
AcDbVertex
100
AcDb2dVertex
 10
1331.200846766027
 20
324.4323052021481
 30
0.0
  0
VERTEX
  5
A02
330
9EB
100
AcDbEntity
  8
4
100
AcDbVertex
100
AcDb2dVertex
 10
1330.893837153227
 20
324.0638921461481
 30
0.0
  0
VERTEX
  5
A03
330
9EB
100
AcDbEntity
  8
4
100
AcDbVertex
100
AcDb2dVertex
 10
1330.468409601227
 20
323.7875842549479
 30
0.0
  0
VERTEX
  5
A04
330
9EB
100
AcDbEntity
  8
4
100
AcDbVertex
100
AcDb2dVertex
 10
1330.678928903627
 20
323.6647811701481
 30
0.0
  0
VERTEX
  5
A05
330
9EB
100
AcDbEntity
  8
4
100
AcDbVertex
100
AcDb2dVertex
 10
1330.924536974027
 20
323.5112763637481
 30
0.0
  0
VERTEX
  5
A06
330
9EB
100
AcDbEntity
  8
4
100
AcDbVertex
100
AcDb2dVertex
 10
1331.170145044427
 20
323.2656682933481
 30
0.0
  0
VERTEX
  5
A07
330
9EB
100
AcDbEntity
  8
4
100
AcDbVertex
100
AcDb2dVertex
 10
1331.446454836425
 20
322.9279569589483
 30
0.0
  0
VERTEX
  5
A08
330
9EB
100
AcDbEntity
  8
4
100
AcDbVertex
100
AcDb2dVertex
 10
1331.661361185227
 20
322.5025294069483
 30
0.0
  0
VERTEX
  5
A09
330
9EB
100
AcDbEntity
  8
4
100
AcDbVertex
100
AcDb2dVertex
 10
1331.845565812429
 20
321.9499117237482
 30
0.0
  0
VERTEX
  5
A0A
330
9EB
100
AcDbEntity
  8
4
100
AcDbVertex
100
AcDb2dVertex
 10
1331.906969255628
 20
321.2744909557481
 30
0.0
  0
VERTEX
  5
A0B
330
9EB
100
AcDbEntity
  8
4
100
AcDbVertex
100
AcDb2dVertex
 10
1331.906969255628
 20
318.6956090677478
 30
0.0
  0
VERTEX
  5
A0C
330
9EB
100
AcDbEntity
  8
4
100
AcDbVertex
100
AcDb2dVertex
 10
1328.871958094025
 20
318.6956090677478
 30
0.0
  0
VERTEX
  5
A0D
330
9EB
100
AcDbEntity
  8
4
100
AcDbVertex
100
AcDb2dVertex
 10
1328.871958094025
 20
321.0288828853483
 30
0.0
  0
VERTEX
  5
A0E
330
9EB
100
AcDbEntity
  8
4
100
AcDbVertex
100
AcDb2dVertex
 10
1328.871958094025
 20
321.2437892341483
 30
0.0
  0
VERTEX
  5
A0F
330
9EB
100
AcDbEntity
  8
4
100
AcDbVertex
100
AcDb2dVertex
 10
1328.841256372427
 20
321.4893973045481
 30
0.0
  0
VERTEX
  5
A10
330
9EB
100
AcDbEntity
  8
4
100
AcDbVertex
100
AcDb2dVertex
 10
1328.779854830027
 20
321.7350053749482
 30
0.0
  0
VERTEX
  5
A11
330
9EB
100
AcDbEntity
  8
4
100
AcDbVertex
100
AcDb2dVertex
 10
1328.657051745227
 20
322.0113132661482
 30
0.0
  0
VERTEX
  5
A12
330
9EB
100
AcDbEntity
  8
4
100
AcDbVertex
100
AcDb2dVertex
 10
1328.472845217226
 20
322.2569213365482
 30
0.0
  0
VERTEX
  5
A13
330
9EB
100
AcDbEntity
  8
4
100
AcDbVertex
100
AcDb2dVertex
 10
1328.165835604426
 20
322.4104261429484
 30
0.0
  0
VERTEX
  5
A14
330
9EB
100
AcDbEntity
  8
4
100
AcDbVertex
100
AcDb2dVertex
 10
1327.766722727627
 20
322.4718276853481
 30
0.0
  0
VERTEX
  5
A15
330
9EB
100
AcDbEntity
  8
4
100
AcDbVertex
100
AcDb2dVertex
 10
1327.336910030027
 20
322.4104261429484
 30
0.0
  0
VERTEX
  5
A16
330
9EB
100
AcDbEntity
  8
4
100
AcDbVertex
100
AcDb2dVertex
 10
1327.029900417227
 20
322.2569213365482
 30
0.0
  0
VERTEX
  5
A17
330
9EB
100
AcDbEntity
  8
4
100
AcDbVertex
100
AcDb2dVertex
 10
1326.814994068427
 20
322.0113132661482
 30
0.0
  0
VERTEX
  5
A18
330
9EB
100
AcDbEntity
  8
4
100
AcDbVertex
100
AcDb2dVertex
 10
1326.661489262026
 20
321.7657051957477
 30
0.0
  0
VERTEX
  5
A19
330
9EB
100
AcDbEntity
  8
4
100
AcDbVertex
100
AcDb2dVertex
 10
1326.600085818827
 20
321.4893973045481
 30
0.0
  0
VERTEX
  5
A1A
330
9EB
100
AcDbEntity
  8
4
100
AcDbVertex
100
AcDb2dVertex
 10
1326.569385998027
 20
321.2744909557481
 30
0.0
  0
VERTEX
  5
A1B
330
9EB
100
AcDbEntity
  8
4
100
AcDbVertex
100
AcDb2dVertex
 10
1326.538684276427
 20
321.0288828853483
 30
0.0
  0
VERTEX
  5
A1C
330
9EB
100
AcDbEntity
  8
4
100
AcDbVertex
100
AcDb2dVertex
 10
1326.538684276427
 20
318.6956090677478
 30
0.0
  0
VERTEX
  5
A1D
330
9EB
100
AcDbEntity
  8
4
100
AcDbVertex
100
AcDb2dVertex
 10
1323.472973294027
 20
318.6956090677478
 30
0.0
  0
VERTEX
  5
A1E
330
9EB
100
AcDbEntity
  8
4
100
AcDbVertex
100
AcDb2dVertex
 10
1323.472973294027
 20
321.2437892341483
 30
0.0
  0
VERTEX
  5
A1F
330
9EB
100
AcDbEntity
  8
4
100
AcDbVertex
100
AcDb2dVertex
 10
1323.503675015629
 20
321.5507988469483
 30
0.0
  0
VERTEX
  5
A20
330
9EB
100
AcDbEntity
  8
4
100
AcDbVertex
100
AcDb2dVertex
 10
1323.565076558027
 20
321.888510181348
 30
0.0
  0
VERTEX
  5
A21
330
9EB
100
AcDbEntity
  8
4
100
AcDbVertex
100
AcDb2dVertex
 10
1323.687879642827
 20
322.2876230581482
 30
0.0
  0
VERTEX
  5
A22
330
9EB
100
AcDbEntity
  8
4
100
AcDbVertex
100
AcDb2dVertex
 10
1323.841384449227
 20
322.7130506101481
 30
0.0
  0
VERTEX
  5
A23
330
9EB
100
AcDbEntity
  8
4
100
AcDbVertex
100
AcDb2dVertex
 10
1324.117694241227
 20
323.142863307748
 30
0.0
  0
VERTEX
  5
A24
330
9EB
100
AcDbEntity
  8
4
100
AcDbVertex
100
AcDb2dVertex
 10
1324.455403674825
 20
323.5112763637481
 30
0.0
  0
VERTEX
  5
A25
330
9EB
100
AcDbEntity
  8
4
100
AcDbVertex
100
AcDb2dVertex
 10
1324.670311924427
 20
323.6647811701481
 30
0.0
  0
VERTEX
  5
A26
330
9EB
100
AcDbEntity
  8
4
100
AcDbVertex
100
AcDb2dVertex
 10
1324.946619815627
 20
323.7875842549479
 30
0.0
  0
VERTEX
  5
A27
330
9EB
100
AcDbEntity
  8
4
100
AcDbVertex
100
AcDb2dVertex
 10
1324.731713466827
 20
323.9103873397483
 30
0.0
  0
VERTEX
  5
A28
330
9EB
100
AcDbEntity
  8
4
100
AcDbVertex
100
AcDb2dVertex
 10
1324.547506938826
 20
324.0638921461481
 30
0.0
  0
VERTEX
  5
A29
330
9EB
100
AcDbEntity
  8
4
100
AcDbVertex
100
AcDb2dVertex
 10
1324.301898868426
 20
324.3095002165482
 30
0.0
  0
VERTEX
  5
A2A
330
9EB
100
AcDbEntity
  8
4
100
AcDbVertex
100
AcDb2dVertex
 10
1324.056290798029
 20
324.6165098293481
 30
0.0
  0
VERTEX
  5
A2B
330
9EB
100
AcDbEntity
  8
4
100
AcDbVertex
100
AcDb2dVertex
 10
1323.872086170827
 20
325.046324427748
 30
0.0
  0
VERTEX
  5
A2C
330
9EB
100
AcDbEntity
  8
4
100
AcDbVertex
100
AcDb2dVertex
 10
1323.718581364429
 20
325.537538667748
 30
0.0
  0
VERTEX
  5
A2D
330
9EB
100
AcDbEntity
  8
4
100
AcDbVertex
100
AcDb2dVertex
 10
1323.657179822028
 20
326.1822596149479
 30
0.0
  0
VERTEX
  5
A2E
330
9EB
100
AcDbEntity
  8
4
100
AcDbVertex
100
AcDb2dVertex
 10
1323.657179822028
 20
328.2655402165484
 30
0.0
  0
VERTEX
  5
A2F
330
9EB
100
AcDbEntity
  8
4
100
AcDbVertex
100
AcDb2dVertex
 10
1323.657179822028
 20
328.2655402165484
 30
0.0
  0
SEQEND
  5
A30
330
9EB
100
AcDbEntity
  8
4
  0
POLYLINE
  5
A31
330
1F
100
AcDbEntity
  8
4
100
AcDb2dPolyline
 66
     1
 10
0.0
 20
0.0
 30
0.0
  0
VERTEX
  5
A32
330
A31
100
AcDbEntity
  8
4
100
AcDbVertex
100
AcDb2dVertex
 10
1322.551944455627
 20
322.3797263221478
 30
0.0
  0
VERTEX
  5
A33
330
A31
100
AcDbEntity
  8
4
100
AcDbVertex
100
AcDb2dVertex
 10
1322.551944455627
 20
319.3710298357481
 30
0.0
  0
VERTEX
  5
A34
330
A31
100
AcDbEntity
  8
4
100
AcDbVertex
100
AcDb2dVertex
 10
1322.337038106827
 20
319.248226750948
 30
0.0
  0
VERTEX
  5
A35
330
A31
100
AcDbEntity
  8
4
100
AcDbVertex
100
AcDb2dVertex
 10
1321.666002484427
 20
318.941217138148
 30
0.0
  0
VERTEX
  5
A36
330
A31
100
AcDbEntity
  8
4
100
AcDbVertex
100
AcDb2dVertex
 10
1321.205488065225
 20
318.7877123317482
 30
0.0
  0
VERTEX
  5
A37
330
A31
100
AcDbEntity
  8
4
100
AcDbVertex
100
AcDb2dVertex
 10
1320.622168660426
 20
318.6649073461481
 30
0.0
  0
VERTEX
  5
A38
330
A31
100
AcDbEntity
  8
4
100
AcDbVertex
100
AcDb2dVertex
 10
1319.977447713227
 20
318.5728059829483
 30
0.0
  0
VERTEX
  5
A39
330
A31
100
AcDbEntity
  8
4
100
AcDbVertex
100
AcDb2dVertex
 10
1319.271325223627
 20
318.5421042613481
 30
0.0
  0
VERTEX
  5
A3A
330
A31
100
AcDbEntity
  8
4
100
AcDbVertex
100
AcDb2dVertex
 10
1318.749409262029
 20
318.5421042613481
 30
0.0
  0
VERTEX
  5
A3B
330
A31
100
AcDbEntity
  8
4
100
AcDbVertex
100
AcDb2dVertex
 10
1318.227493300426
 20
318.6035058037483
 30
0.0
  0
VERTEX
  5
A3C
330
A31
100
AcDbEntity
  8
4
100
AcDbVertex
100
AcDb2dVertex
 10
1317.736277159627
 20
318.7263107893481
 30
0.0
  0
VERTEX
  5
A3D
330
A31
100
AcDbEntity
  8
4
100
AcDbVertex
100
AcDb2dVertex
 10
1317.218746343627
 20
318.8491138741483
 30
0.0
  0
VERTEX
  5
A3E
330
A31
100
AcDbEntity
  8
4
100
AcDbVertex
100
AcDb2dVertex
 10
1316.758231924425
 20
319.0333204021481
 30
0.0
  0
VERTEX
  5
A3F
330
A31
100
AcDbEntity
  8
4
100
AcDbVertex
100
AcDb2dVertex
 10
1316.297717505227
 20
319.2789265717482
 30
0.0
  0
VERTEX
  5
A40
330
A31
100
AcDbEntity
  8
4
100
AcDbVertex
100
AcDb2dVertex
 10
1315.867904807627
 20
319.5245346421484
 30
0.0
  0
VERTEX
  5
A41
330
A31
100
AcDbEntity
  8
4
100
AcDbVertex
100
AcDb2dVertex
 10
1315.468791930826
 20
319.8315442549481
 30
0.0
  0
VERTEX
  5
A42
330
A31
100
AcDbEntity
  8
4
100
AcDbVertex
100
AcDb2dVertex
 10
1315.069679054027
 20
320.1999573109481
 30
0.0
  0
VERTEX
  5
A43
330
A31
100
AcDbEntity
  8
4
100
AcDbVertex
100
AcDb2dVertex
 10
1314.731967719628
 20
320.5990682869481
 30
0.0
  0
VERTEX
  5
A44
330
A31
100
AcDbEntity
  8
4
100
AcDbVertex
100
AcDb2dVertex
 10
1314.455659828427
 20
321.0288828853483
 30
0.0
  0
VERTEX
  5
A45
330
A31
100
AcDbEntity
  8
4
100
AcDbVertex
100
AcDb2dVertex
 10
1314.210051758027
 20
321.4893973045481
 30
0.0
  0
VERTEX
  5
A46
330
A31
100
AcDbEntity
  8
4
100
AcDbVertex
100
AcDb2dVertex
 10
1313.995145409227
 20
322.0113132661482
 30
0.0
  0
VERTEX
  5
A47
330
A31
100
AcDbEntity
  8
4
100
AcDbVertex
100
AcDb2dVertex
 10
1313.841640602827
 20
322.5639309493482
 30
0.0
  0
VERTEX
  5
A48
330
A31
100
AcDbEntity
  8
4
100
AcDbVertex
100
AcDb2dVertex
 10
1313.749537338825
 20
323.142863307748
 30
0.0
  0
VERTEX
  5
A49
330
A31
100
AcDbEntity
  8
4
100
AcDbVertex
100
AcDb2dVertex
 10
1313.718835617226
 20
323.7875842549479
 30
0.0
  0
VERTEX
  5
A4A
330
A31
100
AcDbEntity
  8
4
100
AcDbVertex
100
AcDb2dVertex
 10
1313.810938881227
 20
324.6472115509484
 30
0.0
  0
VERTEX
  5
A4B
330
A31
100
AcDbEntity
  8
4
100
AcDbVertex
100
AcDb2dVertex
 10
1314.025845230027
 20
325.4761371253481
 30
0.0
  0
VERTEX
  5
A4C
330
A31
100
AcDbEntity
  8
4
100
AcDbVertex
100
AcDb2dVertex
 10
1314.179350036425
 20
325.8752500021479
 30
0.0
  0
VERTEX
  5
A4D
330
A31
100
AcDbEntity
  8
4
100
AcDbVertex
100
AcDb2dVertex
 10
1314.394258286027
 20
326.274362878948
 30
0.0
  0
VERTEX
  5
A4E
330
A31
100
AcDbEntity
  8
4
100
AcDbVertex
100
AcDb2dVertex
 10
1314.639864455629
 20
326.6427740341481
 30
0.0
  0
VERTEX
  5
A4F
330
A31
100
AcDbEntity
  8
4
100
AcDbVertex
100
AcDb2dVertex
 10
1314.885472526027
 20
326.9761002229482
 30
0.0
  0
VERTEX
  5
A50
330
A31
100
AcDbEntity
  8
4
100
AcDbVertex
100
AcDb2dVertex
 10
1315.223183860427
 20
327.2831098357481
 30
0.0
  0
VERTEX
  5
A51
330
A31
100
AcDbEntity
  8
4
100
AcDbVertex
100
AcDb2dVertex
 10
1315.560895194827
 20
327.5901194485481
 30
0.0
  0
VERTEX
  5
A52
330
A31
100
AcDbEntity
  8
4
100
AcDbVertex
100
AcDb2dVertex
 10
1315.929306350027
 20
327.8357275189482
 30
0.0
  0
VERTEX
  5
A53
330
A31
100
AcDbEntity
  8
4
100
AcDbVertex
100
AcDb2dVertex
 10
1316.359119047627
 20
328.050633867748
 30
0.0
  0
VERTEX
  5
A54
330
A31
100
AcDbEntity
  8
4
100
AcDbVertex
100
AcDb2dVertex
 10
1316.819633466829
 20
328.234838494948
 30
0.0
  0
VERTEX
  5
A55
330
A31
100
AcDbEntity
  8
4
100
AcDbVertex
100
AcDb2dVertex
 10
1317.310849607627
 20
328.3576434805481
 30
0.0
  0
VERTEX
  5
A56
330
A31
100
AcDbEntity
  8
4
100
AcDbVertex
100
AcDb2dVertex
 10
1317.828380423627
 20
328.449746744548
 30
0.0
  0
VERTEX
  5
A57
330
A31
100
AcDbEntity
  8
4
100
AcDbVertex
100
AcDb2dVertex
 10
1318.411697927627
 20
328.4804465653482
 30
0.0
  0
VERTEX
  5
A58
330
A31
100
AcDbEntity
  8
4
100
AcDbVertex
100
AcDb2dVertex
 10
1319.209923681226
 20
328.4190450229483
 30
0.0
  0
VERTEX
  5
A59
330
A31
100
AcDbEntity
  8
4
100
AcDbVertex
100
AcDb2dVertex
 10
1319.977447713227
 20
328.2041386741484
 30
0.0
  0
VERTEX
  5
A5A
330
A31
100
AcDbEntity
  8
4
100
AcDbVertex
100
AcDb2dVertex
 10
1320.683570202826
 20
327.8971290613481
 30
0.0
  0
VERTEX
  5
A5B
330
A31
100
AcDbEntity
  8
4
100
AcDbVertex
100
AcDb2dVertex
 10
1321.328291150027
 20
327.4980161845483
 30
0.0
  0
VERTEX
  5
A5C
330
A31
100
AcDbEntity
  8
4
100
AcDbVertex
100
AcDb2dVertex
 10
1321.907223508427
 20
327.0068000437481
 30
0.0
  0
VERTEX
  5
A5D
330
A31
100
AcDbEntity
  8
4
100
AcDbVertex
100
AcDb2dVertex
 10
1322.367737927626
 20
326.4892692277481
 30
0.0
  0
VERTEX
  5
A5E
330
A31
100
AcDbEntity
  8
4
100
AcDbVertex
100
AcDb2dVertex
 10
1322.766850804427
 20
325.8752500021479
 30
0.0
  0
VERTEX
  5
A5F
330
A31
100
AcDbEntity
  8
4
100
AcDbVertex
100
AcDb2dVertex
 10
1323.043158695627
 20
325.2612307765483
 30
0.0
  0
VERTEX
  5
A60
330
A31
100
AcDbEntity
  8
4
100
AcDbVertex
100
AcDb2dVertex
 10
1318.473101370825
 20
321.2744909557481
 30
0.0
  0
VERTEX
  5
A61
330
A31
100
AcDbEntity
  8
4
100
AcDbVertex
100
AcDb2dVertex
 10
1318.657305998027
 20
321.2437892341483
 30
0.0
  0
VERTEX
  5
A62
330
A31
100
AcDbEntity
  8
4
100
AcDbVertex
100
AcDb2dVertex
 10
1319.087120596427
 20
321.1516859701481
 30
0.0
  0
VERTEX
  5
A63
330
A31
100
AcDbEntity
  8
4
100
AcDbVertex
100
AcDb2dVertex
 10
1319.701139822027
 20
321.1516859701481
 30
0.0
  0
VERTEX
  5
A64
330
A31
100
AcDbEntity
  8
4
100
AcDbVertex
100
AcDb2dVertex
 10
1320.069550977228
 20
321.1823876917482
 30
0.0
  0
VERTEX
  5
A65
330
A31
100
AcDbEntity
  8
4
100
AcDbVertex
100
AcDb2dVertex
 10
1320.437962132427
 20
321.2744909557481
 30
0.0
  0
VERTEX
  5
A66
330
A31
100
AcDbEntity
  8
4
100
AcDbVertex
100
AcDb2dVertex
 10
1321.205488065225
 20
321.5507988469483
 30
0.0
  0
VERTEX
  5
A67
330
A31
100
AcDbEntity
  8
4
100
AcDbVertex
100
AcDb2dVertex
 10
1321.876521786828
 20
321.9192100021482
 30
0.0
  0
VERTEX
  5
A68
330
A31
100
AcDbEntity
  8
4
100
AcDbVertex
100
AcDb2dVertex
 10
1322.551944455627
 20
322.3797263221478
 30
0.0
  0
VERTEX
  5
A69
330
A31
100
AcDbEntity
  8
4
100
AcDbVertex
100
AcDb2dVertex
 10
1322.551944455627
 20
322.3797263221478
 30
0.0
  0
SEQEND
  5
A6A
330
A31
100
AcDbEntity
  8
4
  0
POLYLINE
  5
A6B
330
1F
100
AcDbEntity
  8
4
100
AcDb2dPolyline
 66
     1
 10
0.0
 20
0.0
 30
0.0
  0
VERTEX
  5
A6C
330
A6B
100
AcDbEntity
  8
4
100
AcDbVertex
100
AcDb2dVertex
 10
1316.635428839627
 20
323.0507600437484
 30
0.0
  0
VERTEX
  5
A6D
330
A6B
100
AcDbEntity
  8
4
100
AcDbVertex
100
AcDb2dVertex
 10
1319.609036558029
 20
325.537538667748
 30
0.0
  0
VERTEX
  5
A6E
330
A6B
100
AcDbEntity
  8
4
100
AcDbVertex
100
AcDb2dVertex
 10
1319.394130209226
 20
325.6603436533482
 30
0.0
  0
VERTEX
  5
A6F
330
A6B
100
AcDbEntity
  8
4
100
AcDbVertex
100
AcDb2dVertex
 10
1319.148522138827
 20
325.783146738148
 30
0.0
  0
VERTEX
  5
A70
330
A6B
100
AcDbEntity
  8
4
100
AcDbVertex
100
AcDb2dVertex
 10
1318.810810804425
 20
325.8752500021479
 30
0.0
  0
VERTEX
  5
A71
330
A6B
100
AcDbEntity
  8
4
100
AcDbVertex
100
AcDb2dVertex
 10
1318.442399649225
 20
325.9366515445481
 30
0.0
  0
VERTEX
  5
A72
330
A6B
100
AcDbEntity
  8
4
100
AcDbVertex
100
AcDb2dVertex
 10
1318.012586951627
 20
325.9059517237481
 30
0.0
  0
VERTEX
  5
A73
330
A6B
100
AcDbEntity
  8
4
100
AcDbVertex
100
AcDb2dVertex
 10
1317.552072532427
 20
325.7524469173482
 30
0.0
  0
VERTEX
  5
A74
330
A6B
100
AcDbEntity
  8
4
100
AcDbVertex
100
AcDb2dVertex
 10
1317.126643079627
 20
325.4454373045481
 30
0.0
  0
VERTEX
  5
A75
330
A6B
100
AcDbEntity
  8
4
100
AcDbVertex
100
AcDb2dVertex
 10
1316.758231924425
 20
325.0156227061478
 30
0.0
  0
VERTEX
  5
A76
330
A6B
100
AcDbEntity
  8
4
100
AcDbVertex
100
AcDb2dVertex
 10
1316.543325575626
 20
324.5858100085483
 30
0.0
  0
VERTEX
  5
A77
330
A6B
100
AcDbEntity
  8
4
100
AcDbVertex
100
AcDb2dVertex
 10
1316.451222311627
 20
324.1866971317483
 30
0.0
  0
VERTEX
  5
A78
330
A6B
100
AcDbEntity
  8
4
100
AcDbVertex
100
AcDb2dVertex
 10
1316.420522490827
 20
323.8182859765481
 30
0.0
  0
VERTEX
  5
A79
330
A6B
100
AcDbEntity
  8
4
100
AcDbVertex
100
AcDb2dVertex
 10
1316.481924033226
 20
323.5112763637481
 30
0.0
  0
VERTEX
  5
A7A
330
A6B
100
AcDbEntity
  8
4
100
AcDbVertex
100
AcDb2dVertex
 10
1316.543325575626
 20
323.2656682933481
 30
0.0
  0
VERTEX
  5
A7B
330
A6B
100
AcDbEntity
  8
4
100
AcDbVertex
100
AcDb2dVertex
 10
1316.635428839627
 20
323.0507600437484
 30
0.0
  0
VERTEX
  5
A7C
330
A6B
100
AcDbEntity
  8
4
100
AcDbVertex
100
AcDb2dVertex
 10
1316.635428839627
 20
323.0507600437484
 30
0.0
  0
SEQEND
  5
A7D
330
A6B
100
AcDbEntity
  8
4
  0
POLYLINE
  5
A7E
330
1F
100
AcDbEntity
  8
4
100
AcDb2dPolyline
 66
     1
 10
0.0
 20
0.0
 30
0.0
  0
VERTEX
  5
A7F
330
A7E
100
AcDbEntity
  8
4
100
AcDbVertex
100
AcDb2dVertex
 10
1337.958186964427
 20
332.9018138101482
 30
0.0
  0
VERTEX
  5
A80
330
A7E
100
AcDbEntity
  8
4
100
AcDbVertex
100
AcDb2dVertex
 10
1337.954813044429
 20
333.0063996277483
 30
0.0
  0
VERTEX
  5
A81
330
A7E
100
AcDbEntity
  8
4
100
AcDbVertex
100
AcDb2dVertex
 10
1337.944691284427
 20
333.1109854453481
 30
0.0
  0
VERTEX
  5
A82
330
A7E
100
AcDbEntity
  8
4
100
AcDbVertex
100
AcDb2dVertex
 10
1337.934569524426
 20
333.2155712629482
 30
0.0
  0
VERTEX
  5
A83
330
A7E
100
AcDbEntity
  8
4
100
AcDbVertex
100
AcDb2dVertex
 10
1337.914327905227
 20
333.3167831605484
 30
0.0
  0
VERTEX
  5
A84
330
A7E
100
AcDbEntity
  8
4
100
AcDbVertex
100
AcDb2dVertex
 10
1337.890712366029
 20
333.4179950581478
 30
0.0
  0
VERTEX
  5
A85
330
A7E
100
AcDbEntity
  8
4
100
AcDbVertex
100
AcDb2dVertex
 10
1337.863721006027
 20
333.5158330357481
 30
0.0
  0
VERTEX
  5
A86
330
A7E
100
AcDbEntity
  8
4
100
AcDbVertex
100
AcDb2dVertex
 10
1337.829983706827
 20
333.6136710133485
 30
0.0
  0
VERTEX
  5
A87
330
A7E
100
AcDbEntity
  8
4
100
AcDbVertex
100
AcDb2dVertex
 10
1337.792872487626
 20
333.7081369717481
 30
0.0
  0
VERTEX
  5
A88
330
A7E
100
AcDbEntity
  8
4
100
AcDbVertex
100
AcDb2dVertex
 10
1337.752389249227
 20
333.802601029348
 30
0.0
  0
VERTEX
  5
A89
330
A7E
100
AcDbEntity
  8
4
100
AcDbVertex
100
AcDb2dVertex
 10
1337.705156270025
 20
333.8903172469483
 30
0.0
  0
VERTEX
  5
A8A
330
A7E
100
AcDbEntity
  8
4
100
AcDbVertex
100
AcDb2dVertex
 10
1337.657923290829
 20
333.9780353653483
 30
0.0
  0
VERTEX
  5
A8B
330
A7E
100
AcDbEntity
  8
4
100
AcDbVertex
100
AcDb2dVertex
 10
1337.600570452427
 20
334.0657515829486
 30
0.0
  0
VERTEX
  5
A8C
330
A7E
100
AcDbEntity
  8
4
100
AcDbVertex
100
AcDb2dVertex
 10
1337.543217614026
 20
334.1467218613478
 30
0.0
  0
VERTEX
  5
A8D
330
A7E
100
AcDbEntity
  8
4
100
AcDbVertex
100
AcDb2dVertex
 10
1337.482488954829
 20
334.2276921397484
 30
0.0
  0
VERTEX
  5
A8E
330
A7E
100
AcDbEntity
  8
4
100
AcDbVertex
100
AcDb2dVertex
 10
1337.415014356426
 20
334.3019126773483
 30
0.0
  0
VERTEX
  5
A8F
330
A7E
100
AcDbEntity
  8
4
100
AcDbVertex
100
AcDb2dVertex
 10
1337.347539758026
 20
334.376135115748
 30
0.0
  0
VERTEX
  5
A90
330
A7E
100
AcDbEntity
  8
4
100
AcDbVertex
100
AcDb2dVertex
 10
1337.276691239626
 20
334.4436097141483
 30
0.0
  0
VERTEX
  5
A91
330
A7E
100
AcDbEntity
  8
4
100
AcDbVertex
100
AcDb2dVertex
 10
1337.199096782027
 20
334.5110843125482
 30
0.0
  0
VERTEX
  5
A92
330
A7E
100
AcDbEntity
  8
4
100
AcDbVertex
100
AcDb2dVertex
 10
1337.121500423629
 20
334.575184990948
 30
0.0
  0
VERTEX
  5
A93
330
A7E
100
AcDbEntity
  8
4
100
AcDbVertex
100
AcDb2dVertex
 10
1337.037156225227
 20
334.6325397301483
 30
0.0
  0
VERTEX
  5
A94
330
A7E
100
AcDbEntity
  8
4
100
AcDbVertex
100
AcDb2dVertex
 10
1336.952813927628
 20
334.6898925685482
 30
0.0
  0
VERTEX
  5
A95
330
A7E
100
AcDbEntity
  8
4
100
AcDbVertex
100
AcDb2dVertex
 10
1336.865095809227
 20
334.740499467748
 30
0.0
  0
VERTEX
  5
A96
330
A7E
100
AcDbEntity
  8
4
100
AcDbVertex
100
AcDb2dVertex
 10
1336.774005671627
 20
334.7877305461481
 30
0.0
  0
VERTEX
  5
A97
330
A7E
100
AcDbEntity
  8
4
100
AcDbVertex
100
AcDb2dVertex
 10
1336.682915534026
 20
334.8282156853481
 30
0.0
  0
VERTEX
  5
A98
330
A7E
100
AcDbEntity
  8
4
100
AcDbVertex
100
AcDb2dVertex
 10
1336.585077556426
 20
334.8653269045481
 30
0.0
  0
VERTEX
  5
A99
330
A7E
100
AcDbEntity
  8
4
100
AcDbVertex
100
AcDb2dVertex
 10
1336.487237678027
 20
334.8990642037483
 30
0.0
  0
VERTEX
  5
A9A
330
A7E
100
AcDbEntity
  8
4
100
AcDbVertex
100
AcDb2dVertex
 10
1336.389399700427
 20
334.9294275829483
 30
0.0
  0
VERTEX
  5
A9B
330
A7E
100
AcDbEntity
  8
4
100
AcDbVertex
100
AcDb2dVertex
 10
1336.284813882829
 20
334.9530431221481
 30
0.0
  0
VERTEX
  5
A9C
330
A7E
100
AcDbEntity
  8
4
100
AcDbVertex
100
AcDb2dVertex
 10
1336.183601985227
 20
334.9699127221483
 30
0.0
  0
VERTEX
  5
A9D
330
A7E
100
AcDbEntity
  8
4
100
AcDbVertex
100
AcDb2dVertex
 10
1336.075642247627
 20
334.9834065013481
 30
0.0
  0
VERTEX
  5
A9E
330
A7E
100
AcDbEntity
  8
4
100
AcDbVertex
100
AcDb2dVertex
 10
1335.971058330827
 20
334.9935282613483
 30
0.0
  0
VERTEX
  5
A9F
330
A7E
100
AcDbEntity
  8
4
100
AcDbVertex
100
AcDb2dVertex
 10
1335.863098593229
 20
334.9969021813481
 30
0.0
  0
VERTEX
  5
AA0
330
A7E
100
AcDbEntity
  8
4
100
AcDbVertex
100
AcDb2dVertex
 10
1335.863098593229
 20
334.5313278325482
 30
0.0
  0
VERTEX
  5
AA1
330
A7E
100
AcDbEntity
  8
4
100
AcDbVertex
100
AcDb2dVertex
 10
1335.947440890829
 20
334.5313278325482
 30
0.0
  0
VERTEX
  5
AA2
330
A7E
100
AcDbEntity
  8
4
100
AcDbVertex
100
AcDb2dVertex
 10
1336.031785089227
 20
334.5245799925482
 30
0.0
  0
VERTEX
  5
AA3
330
A7E
100
AcDbEntity
  8
4
100
AcDbVertex
100
AcDb2dVertex
 10
1336.112753466829
 20
334.5110843125482
 30
0.0
  0
VERTEX
  5
AA4
330
A7E
100
AcDbEntity
  8
4
100
AcDbVertex
100
AcDb2dVertex
 10
1336.193723745225
 20
334.497590533348
 30
0.0
  0
VERTEX
  5
AA5
330
A7E
100
AcDbEntity
  8
4
100
AcDbVertex
100
AcDb2dVertex
 10
1336.271320103627
 20
334.4807209333482
 30
0.0
  0
VERTEX
  5
AA6
330
A7E
100
AcDbEntity
  8
4
100
AcDbVertex
100
AcDb2dVertex
 10
1336.348916462026
 20
334.4571053941484
 30
0.0
  0
VERTEX
  5
AA7
330
A7E
100
AcDbEntity
  8
4
100
AcDbVertex
100
AcDb2dVertex
 10
1336.426510919626
 20
334.4301159349482
 30
0.0
  0
VERTEX
  5
AA8
330
A7E
100
AcDbEntity
  8
4
100
AcDbVertex
100
AcDb2dVertex
 10
1336.500733358027
 20
334.4031245749483
 30
0.0
  0
VERTEX
  5
AA9
330
A7E
100
AcDbEntity
  8
4
100
AcDbVertex
100
AcDb2dVertex
 10
1336.571581876427
 20
334.369387275748
 30
0.0
  0
VERTEX
  5
AAA
330
A7E
100
AcDbEntity
  8
4
100
AcDbVertex
100
AcDb2dVertex
 10
1336.642430394826
 20
334.3322760565483
 30
0.0
  0
VERTEX
  5
AAB
330
A7E
100
AcDbEntity
  8
4
100
AcDbVertex
100
AcDb2dVertex
 10
1336.709904993229
 20
334.2917928181481
 30
0.0
  0
VERTEX
  5
AAC
330
A7E
100
AcDbEntity
  8
4
100
AcDbVertex
100
AcDb2dVertex
 10
1336.777379591629
 20
334.2513076789482
 30
0.0
  0
VERTEX
  5
AAD
330
A7E
100
AcDbEntity
  8
4
100
AcDbVertex
100
AcDb2dVertex
 10
1336.841480270029
 20
334.2040746997483
 30
0.0
  0
VERTEX
  5
AAE
330
A7E
100
AcDbEntity
  8
4
100
AcDbVertex
100
AcDb2dVertex
 10
1336.902207028427
 20
334.1568436213483
 30
0.0
  0
VERTEX
  5
AAF
330
A7E
100
AcDbEntity
  8
4
100
AcDbVertex
100
AcDb2dVertex
 10
1336.962935687627
 20
334.1028628021481
 30
0.0
  0
VERTEX
  5
AB0
330
A7E
100
AcDbEntity
  8
4
100
AcDbVertex
100
AcDb2dVertex
 10
1337.020288526027
 20
334.0488838837482
 30
0.0
  0
VERTEX
  5
AB1
330
A7E
100
AcDbEntity
  8
4
100
AcDbVertex
100
AcDb2dVertex
 10
1337.070893524429
 20
333.9915291445482
 30
0.0
  0
VERTEX
  5
AB2
330
A7E
100
AcDbEntity
  8
4
100
AcDbVertex
100
AcDb2dVertex
 10
1337.124874343627
 20
333.9341763061484
 30
0.0
  0
VERTEX
  5
AB3
330
A7E
100
AcDbEntity
  8
4
100
AcDbVertex
100
AcDb2dVertex
 10
1337.172107322827
 20
333.8700756277482
 30
0.0
  0
VERTEX
  5
AB4
330
A7E
100
AcDbEntity
  8
4
100
AcDbVertex
100
AcDb2dVertex
 10
1337.215964481227
 20
333.8059749493481
 30
0.0
  0
VERTEX
  5
AB5
330
A7E
100
AcDbEntity
  8
4
100
AcDbVertex
100
AcDb2dVertex
 10
1337.259823540427
 20
333.7418742709483
 30
0.0
  0
VERTEX
  5
AB6
330
A7E
100
AcDbEntity
  8
4
100
AcDbVertex
100
AcDb2dVertex
 10
1337.296934759629
 20
333.6710257525482
 30
0.0
  0
VERTEX
  5
AB7
330
A7E
100
AcDbEntity
  8
4
100
AcDbVertex
100
AcDb2dVertex
 10
1337.334045978825
 20
333.6035511541483
 30
0.0
  0
VERTEX
  5
AB8
330
A7E
100
AcDbEntity
  8
4
100
AcDbVertex
100
AcDb2dVertex
 10
1337.367783278027
 20
333.5293287157482
 30
0.0
  0
VERTEX
  5
AB9
330
A7E
100
AcDbEntity
  8
4
100
AcDbVertex
100
AcDb2dVertex
 10
1337.394772737228
 20
333.4551062773483
 30
0.0
  0
VERTEX
  5
ABA
330
A7E
100
AcDbEntity
  8
4
100
AcDbVertex
100
AcDb2dVertex
 10
1337.421762196427
 20
333.3808838389478
 30
0.0
  0
VERTEX
  5
ABB
330
A7E
100
AcDbEntity
  8
4
100
AcDbVertex
100
AcDb2dVertex
 10
1337.442005716429
 20
333.3032874805482
 30
0.0
  0
VERTEX
  5
ABC
330
A7E
100
AcDbEntity
  8
4
100
AcDbVertex
100
AcDb2dVertex
 10
1337.462247335626
 20
333.2256930229484
 30
0.0
  0
VERTEX
  5
ABD
330
A7E
100
AcDbEntity
  8
4
100
AcDbVertex
100
AcDb2dVertex
 10
1337.475743015627
 20
333.1447227445483
 30
0.0
  0
VERTEX
  5
ABE
330
A7E
100
AcDbEntity
  8
4
100
AcDbVertex
100
AcDb2dVertex
 10
1337.485862874827
 20
333.0671263861481
 30
0.0
  0
VERTEX
  5
ABF
330
A7E
100
AcDbEntity
  8
4
100
AcDbVertex
100
AcDb2dVertex
 10
1337.492610714827
 20
332.9827840885481
 30
0.0
  0
VERTEX
  5
AC0
330
A7E
100
AcDbEntity
  8
4
100
AcDbVertex
100
AcDb2dVertex
 10
1337.492610714827
 20
332.9018138101482
 30
0.0
  0
VERTEX
  5
AC1
330
A7E
100
AcDbEntity
  8
4
100
AcDbVertex
100
AcDb2dVertex
 10
1337.958186964427
 20
332.9018138101482
 30
0.0
  0
VERTEX
  5
AC2
330
A7E
100
AcDbEntity
  8
4
100
AcDbVertex
100
AcDb2dVertex
 10
1337.958186964427
 20
332.9018138101482
 30
0.0
  0
SEQEND
  5
AC3
330
A7E
100
AcDbEntity
  8
4
  0
HATCH
  5
AC4
330
1F
100
AcDbEntity
  8
4
100
AcDbHatch
 10
0.0
 20
0.0
 30
0.0
210
0.0
220
0.0
230
1.0
  2
SOLID
 70
     1
 71
     0
 91
        2
 92
        7
 72
     0
 73
     1
 93
        4
 10
1337.725398611828
 20
332.9018141222926
 10
1337.492611029772
 20
332.9018141222926
 10
1337.492611029772
 20
316.6437944422166
 10
1337.725398611828
 20
316.6437944422166
 97
        0
 92
        7
 72
     0
 73
     1
 93
       42
 10
1337.583701822751
 20
315.9386842299033
 10
1337.701782480315
 20
316.2693100710832
 10
1337.725398611828
 20
316.6437944422166
 10
1337.492611029772
 20
316.6437944422166
 10
1337.492611029772
 20
316.5628248484575
 10
1337.485863563625
 20
316.4818552546979
 10
1337.475742364407
 20
316.400885660949
 10
1337.462247432112
 20
316.3199160671821
 10
1337.442005033671
 20
316.242320206485
 10
1337.421762635233
 20
316.1680980788879
 10
1337.394772770648
 20
316.093875951274
 10
1337.367782906063
 20
316.0196538236637
 10
1337.334045575329
 20
315.9488054291238
 10
1337.300308244596
 20
315.877957034584
 10
1337.259823447717
 20
315.8138561061893
 10
1337.219338650839
 20
315.7463814447276
 10
1337.172106387814
 20
315.6856542494048
 10
1337.124874124785
 20
315.6215533210152
 10
1337.074268128689
 20
315.5641998587735
 10
1337.020288399513
 20
315.5102201295979
 10
1336.962934937272
 20
315.4562404004271
 10
1336.905581475023
 20
315.4056344043269
 10
1336.841480546633
 20
315.3584021413018
 10
1336.777379618237
 20
315.3111698782744
 10
1336.713278689841
 20
315.2706850813953
 10
1336.645804028385
 20
315.2302002845171
 10
1336.574955633846
 20
315.1964629537828
 10
1336.500733506233
 20
315.1627256230522
 10
1336.42651137862
 20
315.1357357584659
 10
1336.352289251008
 20
315.1087458938794
 10
1336.27469339032
 20
315.0885034954393
 10
1336.193723796566
 20
315.0716348300739
 10
1336.112754202807
 20
315.0547661647076
 10
1336.031784609049
 20
315.0446449654876
 10
1335.947441282214
 20
315.0378974993415
 10
1335.863097955385
 20
315.0378974993415
 10
1335.863097955385
 20
314.8051099172861
 10
1336.237582326519
 20
314.8287260487986
 10
1336.591824299211
 20
314.946806706363
 10
1336.898834008878
 20
315.1121196269533
 10
1337.182227587031
 20
315.3482809420829
 10
1337.418388902161
 20
315.6080583887235
 97
        0
 75
     0
 76
     1
 47
0.013813
 98
        2
 10
1337.654294663627
 20
328.9544338549483
 10
1337.387310196426
 20
315.8474883637485
450
        0
451
        0
460
0.0
461
0.0
452
        0
462
0.0
453
        0
470

  0
POLYLINE
  5
AC5
330
1F
100
AcDbEntity
  8
4
100
AcDb2dPolyline
 66
     1
 10
0.0
 20
0.0
 30
0.0
  0
VERTEX
  5
AC6
330
AC5
100
AcDbEntity
  8
4
100
AcDbVertex
100
AcDb2dVertex
 10
1337.958186964427
 20
316.643794309348
 30
0.0
  0
VERTEX
  5
AC7
330
AC5
100
AcDbEntity
  8
4
100
AcDbVertex
100
AcDb2dVertex
 10
1337.958186964427
 20
332.9018138101482
 30
0.0
  0
VERTEX
  5
AC8
330
AC5
100
AcDbEntity
  8
4
100
AcDbVertex
100
AcDb2dVertex
 10
1337.492610714827
 20
332.9018138101482
 30
0.0
  0
VERTEX
  5
AC9
330
AC5
100
AcDbEntity
  8
4
100
AcDbVertex
100
AcDb2dVertex
 10
1337.492610714827
 20
316.643794309348
 30
0.0
  0
VERTEX
  5
ACA
330
AC5
100
AcDbEntity
  8
4
100
AcDbVertex
100
AcDb2dVertex
 10
1337.958186964427
 20
316.643794309348
 30
0.0
  0
VERTEX
  5
ACB
330
AC5
100
AcDbEntity
  8
4
100
AcDbVertex
100
AcDb2dVertex
 10
1337.958186964427
 20
316.643794309348
 30
0.0
  0
SEQEND
  5
ACC
330
AC5
100
AcDbEntity
  8
4
  0
POLYLINE
  5
ACD
330
1F
100
AcDbEntity
  8
4
100
AcDb2dPolyline
 66
     1
 10
0.0
 20
0.0
 30
0.0
  0
VERTEX
  5
ACE
330
ACD
100
AcDbEntity
  8
4
100
AcDbVertex
100
AcDb2dVertex
 10
1335.863098593229
 20
314.5723214773481
 30
0.0
  0
VERTEX
  5
ACF
330
ACD
100
AcDbEntity
  8
4
100
AcDbVertex
100
AcDb2dVertex
 10
1335.967684410826
 20
314.5756953973482
 30
0.0
  0
VERTEX
  5
AD0
330
ACD
100
AcDbEntity
  8
4
100
AcDbVertex
100
AcDb2dVertex
 10
1336.075642247627
 20
314.5858171573482
 30
0.0
  0
VERTEX
  5
AD1
330
ACD
100
AcDbEntity
  8
4
100
AcDbVertex
100
AcDb2dVertex
 10
1336.183601985227
 20
314.595938917348
 30
0.0
  0
VERTEX
  5
AD2
330
ACD
100
AcDbEntity
  8
4
100
AcDbVertex
100
AcDb2dVertex
 10
1336.284813882829
 20
314.6161805365482
 30
0.0
  0
VERTEX
  5
AD3
330
ACD
100
AcDbEntity
  8
4
100
AcDbVertex
100
AcDb2dVertex
 10
1336.386025780425
 20
314.6364240565481
 30
0.0
  0
VERTEX
  5
AD4
330
ACD
100
AcDbEntity
  8
4
100
AcDbVertex
100
AcDb2dVertex
 10
1336.487237678027
 20
314.6667874357482
 30
0.0
  0
VERTEX
  5
AD5
330
ACD
100
AcDbEntity
  8
4
100
AcDbVertex
100
AcDb2dVertex
 10
1336.585077556426
 20
314.7005247349481
 30
0.0
  0
VERTEX
  5
AD6
330
ACD
100
AcDbEntity
  8
4
100
AcDbVertex
100
AcDb2dVertex
 10
1336.679541614029
 20
314.7342620341483
 30
0.0
  0
VERTEX
  5
AD7
330
ACD
100
AcDbEntity
  8
4
100
AcDbVertex
100
AcDb2dVertex
 10
1336.774005671627
 20
314.7781191925481
 30
0.0
  0
VERTEX
  5
AD8
330
ACD
100
AcDbEntity
  8
4
100
AcDbVertex
100
AcDb2dVertex
 10
1336.861723790026
 20
314.8219782517478
 30
0.0
  0
VERTEX
  5
AD9
330
ACD
100
AcDbEntity
  8
4
100
AcDbVertex
100
AcDb2dVertex
 10
1336.949440007625
 20
314.8725851509482
 30
0.0
  0
VERTEX
  5
ADA
330
ACD
100
AcDbEntity
  8
4
100
AcDbVertex
100
AcDb2dVertex
 10
1337.037156225227
 20
314.926564069348
 30
0.0
  0
VERTEX
  5
ADB
330
ACD
100
AcDbEntity
  8
4
100
AcDbVertex
100
AcDb2dVertex
 10
1337.118126503627
 20
314.9839169077481
 30
0.0
  0
VERTEX
  5
ADC
330
ACD
100
AcDbEntity
  8
4
100
AcDbVertex
100
AcDb2dVertex
 10
1337.199096782027
 20
315.0446455669483
 30
0.0
  0
VERTEX
  5
ADD
330
ACD
100
AcDbEntity
  8
4
100
AcDbVertex
100
AcDb2dVertex
 10
1337.273319220427
 20
315.1121201653478
 30
0.0
  0
VERTEX
  5
ADE
330
ACD
100
AcDbEntity
  8
4
100
AcDbVertex
100
AcDb2dVertex
 10
1337.347539758026
 20
315.1795947637482
 30
0.0
  0
VERTEX
  5
ADF
330
ACD
100
AcDbEntity
  8
4
100
AcDbVertex
100
AcDb2dVertex
 10
1337.415014356426
 20
315.2504432821482
 30
0.0
  0
VERTEX
  5
AE0
330
ACD
100
AcDbEntity
  8
4
100
AcDbVertex
100
AcDb2dVertex
 10
1337.479116935626
 20
315.3280377397482
 30
0.0
  0
VERTEX
  5
AE1
330
ACD
100
AcDbEntity
  8
4
100
AcDbVertex
100
AcDb2dVertex
 10
1337.543217614026
 20
315.4056340981483
 30
0.0
  0
VERTEX
  5
AE2
330
ACD
100
AcDbEntity
  8
4
100
AcDbVertex
100
AcDb2dVertex
 10
1337.600570452427
 20
315.4866043765482
 30
0.0
  0
VERTEX
  5
AE3
330
ACD
100
AcDbEntity
  8
4
100
AcDbVertex
100
AcDb2dVertex
 10
1337.654549370825
 20
315.570946674148
 30
0.0
  0
VERTEX
  5
AE4
330
ACD
100
AcDbEntity
  8
4
100
AcDbVertex
100
AcDb2dVertex
 10
1337.705156270025
 20
315.6586647925483
 30
0.0
  0
VERTEX
  5
AE5
330
ACD
100
AcDbEntity
  8
4
100
AcDbVertex
100
AcDb2dVertex
 10
1337.752389249227
 20
315.7463810101482
 30
0.0
  0
VERTEX
  5
AE6
330
ACD
100
AcDbEntity
  8
4
100
AcDbVertex
100
AcDb2dVertex
 10
1337.792872487626
 20
315.8374730485476
 30
0.0
  0
VERTEX
  5
AE7
330
ACD
100
AcDbEntity
  8
4
100
AcDbVertex
100
AcDb2dVertex
 10
1337.829983706827
 20
315.9319371061481
 30
0.0
  0
VERTEX
  5
AE8
330
ACD
100
AcDbEntity
  8
4
100
AcDbVertex
100
AcDb2dVertex
 10
1337.863721006027
 20
316.029775083748
 30
0.0
  0
VERTEX
  5
AE9
330
ACD
100
AcDbEntity
  8
4
100
AcDbVertex
100
AcDb2dVertex
 10
1337.890712366029
 20
316.1276130613483
 30
0.0
  0
VERTEX
  5
AEA
330
ACD
100
AcDbEntity
  8
4
100
AcDbVertex
100
AcDb2dVertex
 10
1337.914327905227
 20
316.228824958948
 30
0.0
  0
VERTEX
  5
AEB
330
ACD
100
AcDbEntity
  8
4
100
AcDbVertex
100
AcDb2dVertex
 10
1337.934569524426
 20
316.3300368565482
 30
0.0
  0
VERTEX
  5
AEC
330
ACD
100
AcDbEntity
  8
4
100
AcDbVertex
100
AcDb2dVertex
 10
1337.944691284427
 20
316.4346226741482
 30
0.0
  0
VERTEX
  5
AED
330
ACD
100
AcDbEntity
  8
4
100
AcDbVertex
100
AcDb2dVertex
 10
1337.954813044429
 20
316.5392084917482
 30
0.0
  0
VERTEX
  5
AEE
330
ACD
100
AcDbEntity
  8
4
100
AcDbVertex
100
AcDb2dVertex
 10
1337.958186964427
 20
316.643794309348
 30
0.0
  0
VERTEX
  5
AEF
330
ACD
100
AcDbEntity
  8
4
100
AcDbVertex
100
AcDb2dVertex
 10
1337.492610714827
 20
316.643794309348
 30
0.0
  0
VERTEX
  5
AF0
330
ACD
100
AcDbEntity
  8
4
100
AcDbVertex
100
AcDb2dVertex
 10
1337.492610714827
 20
316.562824030948
 30
0.0
  0
VERTEX
  5
AF1
330
ACD
100
AcDbEntity
  8
4
100
AcDbVertex
100
AcDb2dVertex
 10
1337.485862874827
 20
316.4818556533482
 30
0.0
  0
VERTEX
  5
AF2
330
ACD
100
AcDbEntity
  8
4
100
AcDbVertex
100
AcDb2dVertex
 10
1337.475743015627
 20
316.4008853749482
 30
0.0
  0
VERTEX
  5
AF3
330
ACD
100
AcDbEntity
  8
4
100
AcDbVertex
100
AcDb2dVertex
 10
1337.462247335626
 20
316.3199169973481
 30
0.0
  0
VERTEX
  5
AF4
330
ACD
100
AcDbEntity
  8
4
100
AcDbVertex
100
AcDb2dVertex
 10
1337.442005716429
 20
316.2423206389483
 30
0.0
  0
VERTEX
  5
AF5
330
ACD
100
AcDbEntity
  8
4
100
AcDbVertex
100
AcDb2dVertex
 10
1337.421762196427
 20
316.168098200548
 30
0.0
  0
VERTEX
  5
AF6
330
ACD
100
AcDbEntity
  8
4
100
AcDbVertex
100
AcDb2dVertex
 10
1337.394772737228
 20
316.0938757621483
 30
0.0
  0
VERTEX
  5
AF7
330
ACD
100
AcDbEntity
  8
4
100
AcDbVertex
100
AcDb2dVertex
 10
1337.367783278027
 20
316.0196533237481
 30
0.0
  0
VERTEX
  5
AF8
330
ACD
100
AcDbEntity
  8
4
100
AcDbVertex
100
AcDb2dVertex
 10
1337.334045978825
 20
315.9488048053481
 30
0.0
  0
VERTEX
  5
AF9
330
ACD
100
AcDbEntity
  8
4
100
AcDbVertex
100
AcDb2dVertex
 10
1337.300308679627
 20
315.8779562869481
 30
0.0
  0
VERTEX
  5
AFA
330
ACD
100
AcDbEntity
  8
4
100
AcDbVertex
100
AcDb2dVertex
 10
1337.259823540427
 20
315.8138556085482
 30
0.0
  0
VERTEX
  5
AFB
330
ACD
100
AcDbEntity
  8
4
100
AcDbVertex
100
AcDb2dVertex
 10
1337.219338401227
 20
315.7463810101482
 30
0.0
  0
VERTEX
  5
AFC
330
ACD
100
AcDbEntity
  8
4
100
AcDbVertex
100
AcDb2dVertex
 10
1337.172107322827
 20
315.6856542517482
 30
0.0
  0
VERTEX
  5
AFD
330
ACD
100
AcDbEntity
  8
4
100
AcDbVertex
100
AcDb2dVertex
 10
1337.124874343627
 20
315.6215535733481
 30
0.0
  0
VERTEX
  5
AFE
330
ACD
100
AcDbEntity
  8
4
100
AcDbVertex
100
AcDb2dVertex
 10
1337.074267444427
 20
315.564200734948
 30
0.0
  0
VERTEX
  5
AFF
330
ACD
100
AcDbEntity
  8
4
100
AcDbVertex
100
AcDb2dVertex
 10
1337.020288526027
 20
315.5102199157478
 30
0.0
  0
VERTEX
  5
B00
330
ACD
100
AcDbEntity
  8
4
100
AcDbVertex
100
AcDb2dVertex
 10
1336.962935687627
 20
315.4562409973481
 30
0.0
  0
VERTEX
  5
B01
330
ACD
100
AcDbEntity
  8
4
100
AcDbVertex
100
AcDb2dVertex
 10
1336.905580948429
 20
315.4056340981483
 30
0.0
  0
VERTEX
  5
B02
330
ACD
100
AcDbEntity
  8
4
100
AcDbVertex
100
AcDb2dVertex
 10
1336.841480270029
 20
315.3584030197483
 30
0.0
  0
VERTEX
  5
B03
330
ACD
100
AcDbEntity
  8
4
100
AcDbVertex
100
AcDb2dVertex
 10
1336.777379591629
 20
315.3111700405481
 30
0.0
  0
VERTEX
  5
B04
330
ACD
100
AcDbEntity
  8
4
100
AcDbVertex
100
AcDb2dVertex
 10
1336.713278913229
 20
315.2706849013481
 30
0.0
  0
VERTEX
  5
B05
330
ACD
100
AcDbEntity
  8
4
100
AcDbVertex
100
AcDb2dVertex
 10
1336.645804314829
 20
315.2301997621479
 30
0.0
  0
VERTEX
  5
B06
330
ACD
100
AcDbEntity
  8
4
100
AcDbVertex
100
AcDb2dVertex
 10
1336.574955796427
 20
315.1964624629481
 30
0.0
  0
VERTEX
  5
B07
330
ACD
100
AcDbEntity
  8
4
100
AcDbVertex
100
AcDb2dVertex
 10
1336.500733358027
 20
315.162725163748
 30
0.0
  0
VERTEX
  5
B08
330
ACD
100
AcDbEntity
  8
4
100
AcDbVertex
100
AcDb2dVertex
 10
1336.426510919626
 20
315.1357357045481
 30
0.0
  0
VERTEX
  5
B09
330
ACD
100
AcDbEntity
  8
4
100
AcDbVertex
100
AcDb2dVertex
 10
1336.352288481226
 20
315.1087462453481
 30
0.0
  0
VERTEX
  5
B0A
330
ACD
100
AcDbEntity
  8
4
100
AcDbVertex
100
AcDb2dVertex
 10
1336.274694023625
 20
315.0885027253479
 30
0.0
  0
VERTEX
  5
B0B
330
ACD
100
AcDbEntity
  8
4
100
AcDbVertex
100
AcDb2dVertex
 10
1336.193723745225
 20
315.0716350261482
 30
0.0
  0
VERTEX
  5
B0C
330
ACD
100
AcDbEntity
  8
4
100
AcDbVertex
100
AcDb2dVertex
 10
1336.112753466829
 20
315.0547654261485
 30
0.0
  0
VERTEX
  5
B0D
330
ACD
100
AcDbEntity
  8
4
100
AcDbVertex
100
AcDb2dVertex
 10
1336.031785089227
 20
315.0446455669483
 30
0.0
  0
VERTEX
  5
B0E
330
ACD
100
AcDbEntity
  8
4
100
AcDbVertex
100
AcDb2dVertex
 10
1335.947440890829
 20
315.0378977269481
 30
0.0
  0
VERTEX
  5
B0F
330
ACD
100
AcDbEntity
  8
4
100
AcDbVertex
100
AcDb2dVertex
 10
1335.863098593229
 20
315.0378977269481
 30
0.0
  0
VERTEX
  5
B10
330
ACD
100
AcDbEntity
  8
4
100
AcDbVertex
100
AcDb2dVertex
 10
1335.863098593229
 20
314.5723214773481
 30
0.0
  0
VERTEX
  5
B11
330
ACD
100
AcDbEntity
  8
4
100
AcDbVertex
100
AcDb2dVertex
 10
1335.863098593229
 20
314.5723214773481
 30
0.0
  0
SEQEND
  5
B12
330
ACD
100
AcDbEntity
  8
4
  0
POINT
  5
B13
330
1F
100
AcDbEntity
  8
0
 60
     1
100
AcDbPoint
 10
1497.220369208409
 20
219.853871272737
 30
0.0
1001
GENIUS_GENODEF_13
1002
{
1000
HIER
1070
    10
1002
}
1002
{
1000
MANEDIT
1070
     0
1002
}
1002
{
1000
NOSEL
1070
     0
1002
}
1002
{
1000
BEHIND
1070
     0
1002
}
1002
{
1000
REACTOR
1002
}
1001
GENIUS_GENOBJ-N-CRS_13
1002
{
1000
OWNER
1000
GEN
1002
}
1001
GENIUS_GENOENT_13
1002
{
1000
MYREF
1005
B13
1002
}
1002
{
1000
GRP
1005
0
1002
}
1001
GENIUS_GENOLIS_13
1002
{
1000
ENT
1005
76C
1005
76B
1005
76A
1005
769
1002
}
  0
POINT
  5
B14
330
1F
100
AcDbEntity
  8
0
 60
     1
100
AcDbPoint
 10
1777.988731907918
 20
737.9496606299419
 30
0.0
1001
GENIUS_GENODEF_13
1002
{
1000
HIER
1070
    10
1002
}
1002
{
1000
MANEDIT
1070
     1
1002
}
1002
{
1000
NOSEL
1070
     0
1002
}
1002
{
1000
BEHIND
1070
     0
1002
}
1002
{
1000
REACTOR
1002
}
1001
GENIUS_GENOBJ-N-SEC_13
1002
{
1000
OWNER
1000
GEN
1002
}
1001
GENIUS_GENOENT_13
1002
{
1000
MYREF
1005
B14
1002
}
1002
{
1000
GRP
1005
0
1002
}
1001
GENIUS_GENOLIS_13
1002
{
1000
ENT
1005
768
1002
}
  0
POINT
  5
B15
330
1F
100
AcDbEntity
  8
0
 60
     1
100
AcDbPoint
 10
1777.988731907918
 20
737.9496606299419
 30
0.0
1001
GENIUS_GENODEF_13
1002
{
1000
HIER
1070
    10
1002
}
1002
{
1000
MANEDIT
1070
     1
1002
}
1002
{
1000
NOSEL
1070
     0
1002
}
1002
{
1000
BEHIND
1070
     0
1002
}
1002
{
1000
REACTOR
1002
}
1001
GENIUS_GENOBJ-N-SEC_13
1002
{
1000
OWNER
1000
GEN
1002
}
1001
GENIUS_GENOENT_13
1002
{
1000
MYREF
1005
B15
1002
}
1002
{
1000
GRP
1005
0
1002
}
1001
GENIUS_GENOLIS_13
1002
{
1000
ENT
1005
767
1002
}
  0
POINT
  5
B16
330
1F
100
AcDbEntity
  8
0
 60
     1
100
AcDbPoint
 10
740.6248289362723
 20
985.3071758323116
 30
0.0
1001
GENIUS_GENODEF_13
1002
{
1000
HIER
1070
    10
1002
}
1002
{
1000
MANEDIT
1070
     1
1002
}
1002
{
1000
NOSEL
1070
     0
1002
}
1002
{
1000
BEHIND
1070
     0
1002
}
1002
{
1000
REACTOR
1002
}
1001
GENIUS_GENOBJ-N-SEC_13
1002
{
1000
OWNER
1000
GEN
1002
}
1001
GENIUS_GENOENT_13
1002
{
1000
MYREF
1005
B16
1002
}
1002
{
1000
GRP
1005
0
1002
}
1001
GENIUS_GENOLIS_13
1002
{
1000
ENT
1005
867
1002
}
  0
POINT
  5
B17
330
1F
100
AcDbEntity
  8
0
 60
     1
100
AcDbPoint
 10
1473.524672404343
 20
1760.011911173547
 30
0.0
1001
GENIUS_GENODEF_13
1002
{
1000
HIER
1070
    10
1002
}
1002
{
1000
MANEDIT
1070
     1
1002
}
1002
{
1000
NOSEL
1070
     0
1002
}
1002
{
1000
BEHIND
1070
     0
1002
}
1002
{
1000
REACTOR
1002
}
1001
GENIUS_GENOBJ-N-SEC_13
1002
{
1000
OWNER
1000
GEN
1002
}
1001
GENIUS_GENOENT_13
1002
{
1000
MYREF
1005
B17
1002
}
1002
{
1000
GRP
1005
0
1002
}
1001
GENIUS_GENOLIS_13
1002
{
1000
ENT
1005
830
1002
}
  0
VIEWPORT
  5
6F
330
55
100
AcDbEntity
 67
     1
  8
0
100
AcDbViewport
 10
141.0
 20
85.0
 30
0.0
 40
384.7606204379562
 41
222.18
 68
     1
 69
     1
 12
141.0
 22
85.0
 13
0.0
 23
0.0
 14
10.0
 24
10.0
 15
10.0
 25
10.0
 16
0.0
 26
0.0
 36
1.0
 17
0.0
 27
0.0
 37
0.0
 42
50.0
 43
0.0
 44
0.0
 45
222.18
 50
0.0
 51
0.0
 72
   100
 90
    32800
  1

281
     0
 71
     1
 74
     0
110
0.0
120
0.0
130
0.0
111
1.0
121
0.0
131
0.0
112
0.0
122
1.0
132
0.0
 79
     0
146
0.0
170
     0
1001
GENIUS_GENOBJ-N-SDF_13
1002
{
1000
OWNER
1000
GEN
1002
}
1001
GENIUS_GENODEF_13
1002
{
1000
HIER
1070
     0
1002
}
1002
{
1000
MANEDIT
1070
     0
1002
}
1002
{
1000
NOSEL
1070
     0
1002
}
1002
{
1000
BEHIND
1070
     0
1002
}
1002
{
1000
OTHER
1070
     0
1002
}
1002
{
1000
REACTOR
1002
}
1001
GENIUS_GENSCREG_15
1000
PF
1040
1.0
1000
DF
1040
1.0
1000
MIN
1011
-51.38031021897808
1021
-26.09
1031
0.0
1000
MAX
1011
333.3803102189782
1021
196.09
1031
0.0
1000
FLAGS
1070
     2
  0
VIEWPORT
  5
71
330
55
100
AcDbEntity
 67
     1
  8
0
100
AcDbViewport
 10
141.0
 20
85.0
 30
0.0
 40
225.6
 41
136.0
 68
     2
 69
     2
 12
210.0
 22
148.5
 13
0.0
 23
0.0
 14
10.0
 24
10.0
 15
10.0
 25
10.0
 16
0.0
 26
0.0
 36
1.0
 17
0.0
 27
0.0
 37
0.0
 42
50.0
 43
0.0
 44
0.0
 45
302.3194029850746
 50
0.0
 51
0.0
 72
   100
 90
    32864
  1

281
     0
 71
     1
 74
     0
110
0.0
120
0.0
130
0.0
111
1.0
121
0.0
131
0.0
112
0.0
122
1.0
132
0.0
 79
     0
146
0.0
170
     0
1001
GENIUS_GENODEF_13
1002
{
1000
HIER
1070
     0
1002
}
1002
{
1000
MANEDIT
1070
     0
1002
}
1002
{
1000
NOSEL
1070
     0
1002
}
1002
{
1000
BEHIND
1070
     0
1002
}
1002
{
1000
OTHER
1070
     0
1002
}
1002
{
1000
REACTOR
1002
}
1001
GENIUS_GENOBJ-N-SDF_13
1002
{
1000
OWNER
1000
GEN
1002
}
1001
GENIUS_GENSCREG_15
1000
PF
1040
0.0
1000
DF
1040
0.0
1000
MIN
1011
28.20000000000002
1021
17.0
1031
0.0
1000
MAX
1011
253.8
1021
153.0
1031
0.0
1000
FLAGS
1070
     2
  0
ENDSEC
  0
SECTION
  2
OBJECTS
  0
DICTIONARY
  5
C
330
0
100
AcDbDictionary
281
     1
  3
ACAD_COLOR
350
F6
  3
ACAD_GROUP
350
D
  3
ACAD_LAYOUT
350
1A
  3
ACAD_MATERIAL
350
F5
  3
ACAD_MLINESTYLE
350
17
  3
ACAD_PLOTSETTINGS
350
19
  3
ACAD_PLOTSTYLENAME
350
E
  3
ACAD_TABLESTYLE
350
16F
  3
ACAD_VISUALSTYLE
350
1EE
  3
AcDbVariableDictionary
350
DA
  3
AcmDictionary
350
97
  3
AMG
350
7D
  3
AMGSNAPSETTINGS
350
71C
  0
DICTIONARY
  5
D5
330
1F
100
AcDbDictionary
280
     1
281
     1
  0
DICTIONARY
  5
F6
102
{ACAD_REACTORS
330
C
102
}
330
C
100
AcDbDictionary
281
     1
  0
DICTIONARY
  5
D
102
{ACAD_REACTORS
330
C
102
}
330
C
100
AcDbDictionary
281
     1
  0
DICTIONARY
  5
1A
102
{ACAD_REACTORS
330
C
102
}
330
C
100
AcDbDictionary
281
     1
  3
Layout1
350
51
  3
Layout2
350
56
  3
Model
350
22
  0
DICTIONARY
  5
F5
102
{ACAD_REACTORS
330
C
102
}
330
C
100
AcDbDictionary
281
     1
  3
ByBlock
350
1EC
  3
ByLayer
350
1EB
  3
Global
350
1ED
  0
DICTIONARY
  5
17
102
{ACAD_REACTORS
330
C
102
}
330
C
100
AcDbDictionary
281
     1
  3
Standard
350
18
  0
DICTIONARY
  5
19
102
{ACAD_REACTORS
330
C
102
}
330
C
100
AcDbDictionary
281
     1
  0
ACDBDICTIONARYWDFLT
  5
E
102
{ACAD_REACTORS
330
C
102
}
330
C
100
AcDbDictionary
281
     1
  3
Normal
350
F
100
AcDbDictionaryWithDefault
340
F
  0
DICTIONARY
  5
16F
102
{ACAD_REACTORS
330
C
102
}
330
C
100
AcDbDictionary
281
     1
  3
Standard
350
170
  0
DICTIONARY
  5
1EE
102
{ACAD_REACTORS
330
C
102
}
330
C
100
AcDbDictionary
281
     1
  3
2dWireframe
350
1F4
  3
3D Hidden
350
1F6
  3
3dWireframe
350
1F5
  3
Basic
350
1F3
  3
Brighten
350
1FA
  3
ColorChange
350
1FE
  3
Conceptual
350
1F7
  3
Dim
350
1F9
  3
EdgeColorOff
350
C1C
  3
Facepattern
350
1FD
  3
Flat
350
1EF
  3
FlatWithEdges
350
1F0
  3
Gouraud
350
1F1
  3
GouraudWithEdges
350
1F2
  3
JitterOff
350
C1F
  3
Linepattern
350
1FC
  3
OverhangOff
350
C22
  3
Realistic
350
1F8
  3
Thicken
350
1FB
  0
DICTIONARY
  5
DA
102
{ACAD_REACTORS
330
C
102
}
330
C
100
AcDbDictionary
281
     1
  3
CTABLESTYLE
350
18F
  3
DIMASSOC
350
DC
  3
INDEXCTL
350
DB
  0
DICTIONARY
  5
97
102
{ACAD_REACTORS
330
C
102
}
330
C
100
AcDbDictionary
281
     1
  3
AcmStdDictionary
350
9D
  3
AMDTSECTSYM_ARROWCOLOR
350
186
  0
DICTIONARY
  5
7D
102
{ACAD_REACTORS
330
C
102
}
330
C
100
AcDbDictionary
281
     1
  0
DICTIONARY
  5
71C
102
{ACAD_REACTORS
330
C
102
}
330
C
100
AcDbDictionary
281
     1
  0
LAYOUT
  5
51
102
{ACAD_REACTORS
330
1A
102
}
330
1A
100
AcDbPlotSettings
  1

  2
none_device
  4
ISO_A4_(210.00_x_297.00_MM)
  6

 40
7.5
 41
20.0
 42
7.5
 43
20.0
 44
210.0
 45
297.0
 46
0.0
 47
0.0
 48
0.0
 49
0.0
140
0.0
141
0.0
142
1.0
143
1.0
 70
   688
 72
     1
 73
     1
 74
     5
  7
ganz_fein_1.ctb
 75
    16
147
1.0
 76
     0
 77
     2
 78
   300
148
0.0
149
0.0
100
AcDbLayout
  1
Layout1
 70
     1
 71
     1
 10
-20.0
 20
-7.5
 11
277.0
 21
202.5
 12
0.0
 22
0.0
 32
0.0
 14
25.69999999999999
 24
19.5
 34
0.0
 15
231.3
 25
175.5
 35
0.0
146
0.0
 13
0.0
 23
0.0
 33
0.0
 16
1.0
 26
0.0
 36
0.0
 17
0.0
 27
1.0
 37
0.0
 76
     0
330
50
331
69
  0
LAYOUT
  5
56
102
{ACAD_REACTORS
330
1A
102
}
330
1A
100
AcDbPlotSettings
  1

  2
none_device
  4
ISO_A4_(297.00_x_210.00_MM)
  6

 40
7.5
 41
20.0
 42
7.5
 43
20.0
 44
297.0
 45
210.0
 46
0.0
 47
0.0
 48
0.0
 49
0.0
140
0.0
141
0.0
142
1.0
143
1.0
 70
   688
 72
     1
 73
     0
 74
     5
  7
ganz_fein_1.ctb
 75
    16
147
1.0
 76
     0
 77
     2
 78
   300
148
0.0
149
0.0
100
AcDbLayout
  1
Layout2
 70
     1
 71
     2
 10
-7.5
 20
-20.0
 11
289.5
 21
190.0
 12
0.0
 22
0.0
 32
0.0
 14
28.19999999999999
 24
17.0
 34
0.0
 15
253.8
 25
153.0
 35
0.0
146
0.0
 13
0.0
 23
0.0
 33
0.0
 16
1.0
 26
0.0
 36
0.0
 17
0.0
 27
1.0
 37
0.0
 76
     0
330
55
331
6F
  0
LAYOUT
  5
22
102
{ACAD_REACTORS
330
1A
102
}
330
1A
100
AcDbPlotSettings
  1

  2
Adobe PDF
  4
A4
  6

 40
3.174999952316284
 41
3.174999952316284
 42
3.175003051757812
 43
3.17498779296875
 44
209.9733276367187
 45
297.0318298339844
 46
-0.000000000000009
 47
6.163274490322868
 48
494.8431910715702
 49
246.1267574436513
140
1416.161295116368
141
920.0922254436514
142
1.0
143
3.309863785084032
 70
 11956
 72
     1
 73
     1
 74
     4
  7
ganz_fein_1.ctb
 75
     0
147
0.3021272369293624
 76
     0
 77
     2
 78
   300
148
-494.8431910715702
149
-246.1267574436513
100
AcDbLayout
  1
Model
 70
     1
 71
     0
 10
0.0
 20
0.0
 11
12.0
 21
9.0
 12
0.0
 22
0.0
 32
0.0
 14
0.0
 24
0.0
 34
0.0
 15
0.0
 25
0.0
 35
0.0
146
0.0
 13
0.0
 23
0.0
 33
0.0
 16
1.0
 26
0.0
 36
0.0
 17
0.0
 27
1.0
 37
0.0
 76
     0
330
1F
331
1E9
1001
ACAD_PSEXT
1000
Adobe PDF
1000
Adobe PDF Converter
1000
Documents\*.pdf
1000

1070
     0
  0
MATERIAL
  5
1EC
102
{ACAD_XDICTIONARY
360
C3A
102
}
102
{ACAD_REACTORS
330
F5
102
}
330
F5
100
AcDbMaterial
  1
ByBlock
  0
MATERIAL
  5
1EB
102
{ACAD_XDICTIONARY
360
C38
102
}
102
{ACAD_REACTORS
330
F5
102
}
330
F5
100
AcDbMaterial
  1
ByLayer
  0
MATERIAL
  5
1ED
102
{ACAD_XDICTIONARY
360
C3C
102
}
102
{ACAD_REACTORS
330
F5
102
}
330
F5
100
AcDbMaterial
  1
Global
  0
MLINESTYLE
  5
18
102
{ACAD_REACTORS
330
17
102
}
330
17
100
AcDbMlineStyle
  2
STANDARD
 70
     0
  3

 62
   256
 51
90.0
 52
90.0
 71
     2
 49
0.5
 62
   256
  6
BYLAYER
 49
-0.5
 62
   256
  6
BYLAYER
  0
ACDBPLACEHOLDER
  5
F
102
{ACAD_REACTORS
330
E
102
}
330
E
  0
TABLESTYLE
  5
170
102
{ACAD_XDICTIONARY
360
D0B
102
}
102
{ACAD_REACTORS
330
16F
102
}
330
16F
100
AcDbTableStyle
  3
Standard
 70
     0
 71
     0
 40
1.5
 41
1.5
280
     0
281
     0
  7
STANDARD
140
4.5
170
     2
 62
     0
 63
     7
283
     0
274
    -2
284
     1
 64
     0
275
    -2
285
     1
 65
     0
276
    -2
286
     1
 66
     0
277
    -2
287
     1
 67
     0
278
    -2
288
     1
 68
     0
279
    -2
289
     1
 69
     0
  7
STANDARD
140
6.0
170
     5
 62
     0
 63
     7
283
     0
274
    -2
284
     1
 64
     0
275
    -2
285
     1
 65
     0
276
    -2
286
     1
 66
     0
277
    -2
287
     1
 67
     0
278
    -2
288
     1
 68
     0
279
    -2
289
     1
 69
     0
  7
STANDARD
140
4.5
170
     5
 62
     0
 63
     7
283
     0
274
    -2
284
     1
 64
     0
275
    -2
285
     1
 65
     0
276
    -2
286
     1
 66
     0
277
    -2
287
     1
 67
     0
278
    -2
288
     1
 68
     0
279
    -2
289
     1
 69
     0
  0
VISUALSTYLE
  5
1F4
102
{ACAD_REACTORS
330
1EE
102
}
330
1EE
100
AcDbVisualStyle
  2
2dWireframe
 70
     4
 71
     0
 72
     2
 73
     0
 90
        0
 40
-0.6
 41
-30.0
 62
     5
 63
     7
421
 16777215
 74
     1
 91
        4
 64
     7
 65
   257
 75
     1
175
     1
 42
1.0
 92
        0
 66
   257
 43
1.0
 76
     1
 77
     6
 78
     2
 67
     7
 79
     5
170
     0
171
     0
290
     0
174
     0
 93
        1
 44
0.0
173
     0
291
     0
 45
0.0
1001
ACAD
1000
AcDbSavedByObjectVersion
1070
     0
1000
AcDbSavedByObjectVersion
1070
     0
  0
VISUALSTYLE
  5
1F6
102
{ACAD_REACTORS
330
1EE
102
}
330
1EE
100
AcDbVisualStyle
  2
3D Hidden
 70
     6
 71
     1
 72
     2
 73
     2
 90
        0
 40
-0.6
 41
-30.0
 62
     5
 63
     7
421
 16777215
 74
     2
 91
        2
 64
     7
 65
   257
 75
     2
175
     1
 42
40.0
 92
        0
 66
   257
 43
1.0
 76
     1
 77
     6
 78
     2
 67
     7
 79
     3
170
     0
171
     0
290
     0
174
     0
 93
        1
 44
0.0
173
     0
291
     0
 45
0.0
1001
ACAD
1000
AcDbSavedByObjectVersion
1070
     0
1000
AcDbSavedByObjectVersion
1070
     0
  0
VISUALSTYLE
  5
1F5
102
{ACAD_REACTORS
330
1EE
102
}
330
1EE
100
AcDbVisualStyle
  2
3dWireframe
 70
     5
 71
     0
 72
     2
 73
     0
 90
        0
 40
-0.6
 41
-30.0
 62
     5
 63
     7
421
 16777215
 74
     1
 91
        4
 64
     7
 65
   257
 75
     1
175
     1
 42
1.0
 92
        0
 66
   257
 43
1.0
 76
     1
 77
     6
 78
     2
 67
     7
 79
     5
170
     0
171
     0
290
     0
174
     0
 93
        1
 44
0.0
173
     0
291
     0
 45
0.0
1001
ACAD
1000
AcDbSavedByObjectVersion
1070
     0
1000
AcDbSavedByObjectVersion
1070
     0
  0
VISUALSTYLE
  5
1F3
102
{ACAD_REACTORS
330
1EE
102
}
330
1EE
100
AcDbVisualStyle
  2
Basic
 70
     7
 71
     1
 72
     0
 73
     1
 90
        0
 40
-0.6
 41
-30.0
 62
     5
 63
     7
421
 16777215
 74
     0
 91
        4
 64
     7
 65
   257
 75
     1
175
     1
 42
1.0
 92
        8
 66
     7
 43
1.0
 76
     1
 77
     6
 78
     2
 67
     7
 79
     5
170
     0
171
     0
290
     0
174
     0
 93
        1
 44
0.0
173
     0
291
     1
 45
0.0
1001
ACAD
1000
AcDbSavedByObjectVersion
1070
     0
1000
AcDbSavedByObjectVersion
1070
     0
  0
VISUALSTYLE
  5
1FA
102
{ACAD_REACTORS
330
1EE
102
}
330
1EE
100
AcDbVisualStyle
  2
Brighten
 70
    12
 71
     2
 72
     2
 73
     0
 90
        0
 40
-0.6
 41
-30.0
 62
     5
 63
     7
421
 16777215
 74
     1
 91
        4
 64
     7
 65
   257
 75
     1
175
     1
 42
1.0
 92
        8
 66
     7
 43
1.0
 76
     1
 77
     6
 78
     2
 67
     7
 79
     5
170
     0
171
     0
290
     0
174
     0
 93
        1
 44
50.0
173
     0
291
     1
 45
0.0
1001
ACAD
1000
AcDbSavedByObjectVersion
1070
     0
1000
AcDbSavedByObjectVersion
1070
     0
  0
VISUALSTYLE
  5
1FE
102
{ACAD_REACTORS
330
1EE
102
}
330
1EE
100
AcDbVisualStyle
  2
ColorChange
 70
    16
 71
     2
 72
     2
 73
     3
 90
        0
 40
-0.6
 41
-30.0
 62
     5
 63
     8
421
  8421504
 74
     1
 91
        4
 64
     7
 65
   257
 75
     1
175
     1
 42
1.0
 92
        8
 66
     8
424
  8421504
 43
1.0
 76
     1
 77
     6
 78
     2
 67
     7
 79
     5
170
     0
171
     0
290
     0
174
     0
 93
        1
 44
0.0
173
     0
291
     1
 45
0.0
1001
ACAD
1000
AcDbSavedByObjectVersion
1070
     0
1000
AcDbSavedByObjectVersion
1070
     0
  0
VISUALSTYLE
  5
1F7
102
{ACAD_REACTORS
330
1EE
102
}
330
1EE
100
AcDbVisualStyle
  2
Conceptual
 70
     9
 71
     3
 72
     2
 73
     0
 90
        0
 40
-0.6
 41
-30.0
 62
     5
 63
     7
421
 16777215
 74
     2
 91
        2
 64
     7
 65
   257
 75
     1
175
     1
 42
40.0
 92
        8
 66
     7
 43
1.0
 76
     1
 77
     6
 78
     2
 67
     7
 79
     3
170
     0
171
     0
290
     0
174
     0
 93
        1
 44
0.0
173
     0
291
     0
 45
0.0
1001
ACAD
1000
AcDbSavedByObjectVersion
1070
     0
1000
AcDbSavedByObjectVersion
1070
     0
  0
VISUALSTYLE
  5
1F9
102
{ACAD_REACTORS
330
1EE
102
}
330
1EE
100
AcDbVisualStyle
  2
Dim
 70
    11
 71
     2
 72
     2
 73
     0
 90
        0
 40
-0.6
 41
-30.0
 62
     5
 63
     7
421
 16777215
 74
     1
 91
        4
 64
     7
 65
   257
 75
     1
175
     1
 42
1.0
 92
        8
 66
     7
 43
1.0
 76
     1
 77
     6
 78
     2
 67
     7
 79
     5
170
     0
171
     0
290
     0
174
     0
 93
        1
 44
-50.0
173
     0
291
     1
 45
0.0
1001
ACAD
1000
AcDbSavedByObjectVersion
1070
     0
1000
AcDbSavedByObjectVersion
1070
     0
  0
VISUALSTYLE
  5
C1C
102
{ACAD_XDICTIONARY
360
C1D
102
}
102
{ACAD_REACTORS
330
1EE
102
}
330
1EE
100
AcDbVisualStyle
  2
EdgeColorOff
 70
    22
 71
     2
 72
     2
 73
     0
 90
        0
 40
-0.6
 41
-30.0
 62
     5
 63
     7
 74
     1
 91
        4
 64
     7
 65
   257
 75
     1
175
     1
 42
1.0
 92
        8
 66
     7
 43
1.0
 76
     1
 77
     6
 78
     2
 67
     7
 79
     5
170
     0
171
     0
290
     0
174
     0
 93
        1
 44
0.0
173
     0
291
     1
 45
0.0
1001
ACAD
1000
AcDbSavedByObjectVersion
1070
     0
1000
AcDbSavedByObjectVersion
1070
     0
  0
VISUALSTYLE
  5
1FD
102
{ACAD_REACTORS
330
1EE
102
}
330
1EE
100
AcDbVisualStyle
  2
Facepattern
 70
    15
 71
     2
 72
     2
 73
     0
 90
        0
 40
-0.6
 41
-30.0
 62
     5
 63
     7
421
 16777215
 74
     1
 91
        4
 64
     7
 65
   257
 75
     1
175
     1
 42
1.0
 92
        8
 66
     7
 43
1.0
 76
     1
 77
     6
 78
     2
 67
     7
 79
     5
170
     0
171
     0
290
     0
174
     0
 93
        1
 44
0.0
173
     0
291
     1
 45
0.0
1001
ACAD
1000
AcDbSavedByObjectVersion
1070
     0
1000
AcDbSavedByObjectVersion
1070
     0
  0
VISUALSTYLE
  5
1EF
102
{ACAD_REACTORS
330
1EE
102
}
330
1EE
100
AcDbVisualStyle
  2
Flat
 70
     0
 71
     2
 72
     1
 73
     1
 90
        2
 40
-0.6
 41
30.0
 62
     5
 63
     7
421
 16777215
 74
     0
 91
        4
 64
     7
 65
   257
 75
     1
175
     1
 42
1.0
 92
        8
 66
     7
 43
1.0
 76
     1
 77
     6
 78
     2
 67
     7
 79
     5
170
     0
171
     0
290
     0
174
     0
 93
       13
 44
0.0
173
     0
291
     1
 45
0.0
1001
ACAD
1000
AcDbSavedByObjectVersion
1070
     0
1000
AcDbSavedByObjectVersion
1070
     0
  0
VISUALSTYLE
  5
1F0
102
{ACAD_REACTORS
330
1EE
102
}
330
1EE
100
AcDbVisualStyle
  2
FlatWithEdges
 70
     1
 71
     2
 72
     1
 73
     1
 90
        2
 40
-0.6
 41
30.0
 62
     5
 63
     7
421
 16777215
 74
     1
 91
        4
 64
     7
 65
   257
 75
     1
175
     1
 42
1.0
 92
        0
 66
   257
 43
1.0
 76
     1
 77
     6
 78
     2
 67
     7
 79
     5
170
     0
171
     0
290
     0
174
     0
 93
       13
 44
0.0
173
     0
291
     1
 45
0.0
1001
ACAD
1000
AcDbSavedByObjectVersion
1070
     0
1000
AcDbSavedByObjectVersion
1070
     0
  0
VISUALSTYLE
  5
1F1
102
{ACAD_REACTORS
330
1EE
102
}
330
1EE
100
AcDbVisualStyle
  2
Gouraud
 70
     2
 71
     2
 72
     2
 73
     1
 90
        2
 40
-0.6
 41
30.0
 62
     5
 63
     7
421
 16777215
 74
     0
 91
        4
 64
     7
 65
   257
 75
     1
175
     1
 42
1.0
 92
        0
 66
     7
 43
1.0
 76
     1
 77
     6
 78
     2
 67
     7
 79
     5
170
     0
171
     0
290
     0
174
     0
 93
       13
 44
0.0
173
     0
291
     1
 45
0.0
1001
ACAD
1000
AcDbSavedByObjectVersion
1070
     0
1000
AcDbSavedByObjectVersion
1070
     0
  0
VISUALSTYLE
  5
1F2
102
{ACAD_REACTORS
330
1EE
102
}
330
1EE
100
AcDbVisualStyle
  2
GouraudWithEdges
 70
     3
 71
     2
 72
     2
 73
     1
 90
        2
 40
-0.6
 41
30.0
 62
     5
 63
     7
421
 16777215
 74
     1
 91
        4
 64
     7
 65
   257
 75
     1
175
     1
 42
1.0
 92
        0
 66
   257
 43
1.0
 76
     1
 77
     6
 78
     2
 67
     7
 79
     5
170
     0
171
     0
290
     0
174
     0
 93
       13
 44
0.0
173
     0
291
     1
 45
0.0
1001
ACAD
1000
AcDbSavedByObjectVersion
1070
     0
1000
AcDbSavedByObjectVersion
1070
     0
  0
VISUALSTYLE
  5
C1F
102
{ACAD_XDICTIONARY
360
C20
102
}
102
{ACAD_REACTORS
330
1EE
102
}
330
1EE
100
AcDbVisualStyle
  2
JitterOff
 70
    20
 71
     2
 72
     2
 73
     0
 90
        0
 40
-0.6
 41
-30.0
 62
     5
 63
     7
 74
     1
 91
        4
 64
     7
 65
   257
 75
     1
175
     1
 42
1.0
 92
       10
 66
     7
 43
1.0
 76
     1
 77
     6
 78
     2
 67
     7
 79
     5
170
     0
171
     0
290
     0
174
     0
 93
        1
 44
0.0
173
     0
291
     1
 45
0.0
1001
ACAD
1000
AcDbSavedByObjectVersion
1070
     0
1000
AcDbSavedByObjectVersion
1070
     0
  0
VISUALSTYLE
  5
1FC
102
{ACAD_REACTORS
330
1EE
102
}
330
1EE
100
AcDbVisualStyle
  2
Linepattern
 70
    14
 71
     2
 72
     2
 73
     0
 90
        0
 40
-0.6
 41
-30.0
 62
     5
 63
     7
421
 16777215
 74
     1
 91
        4
 64
     7
 65
   257
 75
     7
175
     7
 42
1.0
 92
        8
 66
     7
 43
1.0
 76
     1
 77
     6
 78
     2
 67
     7
 79
     5
170
     0
171
     0
290
     0
174
     0
 93
        1
 44
0.0
173
     0
291
     1
 45
0.0
1001
ACAD
1000
AcDbSavedByObjectVersion
1070
     0
1000
AcDbSavedByObjectVersion
1070
     0
  0
VISUALSTYLE
  5
C22
102
{ACAD_XDICTIONARY
360
C23
102
}
102
{ACAD_REACTORS
330
1EE
102
}
330
1EE
100
AcDbVisualStyle
  2
OverhangOff
 70
    21
 71
     2
 72
     2
 73
     0
 90
        0
 40
-0.6
 41
-30.0
 62
     5
 63
     7
 74
     1
 91
        4
 64
     7
 65
   257
 75
     1
175
     1
 42
1.0
 92
        9
 66
     7
 43
1.0
 76
     1
 77
     6
 78
     2
 67
     7
 79
     5
170
     0
171
     0
290
     0
174
     0
 93
        1
 44
0.0
173
     0
291
     1
 45
0.0
1001
ACAD
1000
AcDbSavedByObjectVersion
1070
     0
1000
AcDbSavedByObjectVersion
1070
     0
  0
VISUALSTYLE
  5
1F8
102
{ACAD_REACTORS
330
1EE
102
}
330
1EE
100
AcDbVisualStyle
  2
Realistic
 70
     8
 71
     2
 72
     2
 73
     0
 90
        0
 40
-0.6
 41
-30.0
 62
     5
 63
     7
421
 16777215
 74
     1
 91
        0
 64
     7
 65
   257
 75
     1
175
     1
 42
1.0
 92
        8
 66
     8
424
  7895160
 43
1.0
 76
     1
 77
     6
 78
     2
 67
     7
 79
     5
170
     0
171
     0
290
     0
174
     0
 93
       13
 44
0.0
173
     0
291
     0
 45
0.0
1001
ACAD
1000
AcDbSavedByObjectVersion
1070
     0
1000
AcDbSavedByObjectVersion
1070
     0
  0
VISUALSTYLE
  5
1FB
102
{ACAD_REACTORS
330
1EE
102
}
330
1EE
100
AcDbVisualStyle
  2
Thicken
 70
    13
 71
     2
 72
     2
 73
     0
 90
        0
 40
-0.6
 41
-30.0
 62
     5
 63
     7
421
 16777215
 74
     1
 91
        4
 64
     7
 65
   257
 75
     1
175
     1
 42
1.0
 92
       12
 66
     7
 43
1.0
 76
     1
 77
     6
 78
     2
 67
     7
 79
     5
170
     0
171
     0
290
     0
174
     0
 93
        1
 44
0.0
173
     0
291
     1
 45
0.0
1001
ACAD
1000
AcDbSavedByObjectVersion
1070
     0
1000
AcDbSavedByObjectVersion
1070
     0
  0
DICTIONARYVAR
  5
18F
102
{ACAD_REACTORS
330
DA
102
}
330
DA
100
DictionaryVariables
280
     0
  1
STANDARD
  0
DICTIONARYVAR
  5
DC
102
{ACAD_REACTORS
330
DA
102
}
330
DA
100
DictionaryVariables
280
     0
  1
1
  0
DICTIONARYVAR
  5
DB
102
{ACAD_REACTORS
330
DA
102
}
330
DA
100
DictionaryVariables
280
     0
  1
1
  0
DICTIONARY
  5
9D
102
{ACAD_REACTORS
330
97
102
}
330
97
100
AcDbDictionary
281
     1
  0
XRECORD
  5
186
102
{ACAD_REACTORS
330
97
102
}
330
97
100
AcDbXrecord
280
     1
 90
-1023410169
  0
DICTIONARY
  5
C3A
330
1EC
100
AcDbDictionary
280
     1
281
     1
  3
ACAD_XREC_ROUNDTRIP
360
C3B
  0
DICTIONARY
  5
C38
330
1EB
100
AcDbDictionary
280
     1
281
     1
  3
ACAD_XREC_ROUNDTRIP
360
C39
  0
DICTIONARY
  5
C3C
330
1ED
100
AcDbDictionary
280
     1
281
     1
  3
ACAD_XREC_ROUNDTRIP
360
C3D
  0
DICTIONARY
  5
D0B
330
170
100
AcDbDictionary
280
     1
281
     1
  3
ACAD_XREC_ROUNDTRIP
360
D0C
  0
DICTIONARY
  5
C1D
330
C1C
100
AcDbDictionary
280
     1
281
     1
  3
ACAD_XREC_ROUNDTRIP
360
C1E
  0
DICTIONARY
  5
C20
330
C1F
100
AcDbDictionary
280
     1
281
     1
  3
ACAD_XREC_ROUNDTRIP
360
C21
  0
DICTIONARY
  5
C23
330
C22
100
AcDbDictionary
280
     1
281
     1
  3
ACAD_XREC_ROUNDTRIP
360
C24
  0
XRECORD
  5
C3B
102
{ACAD_REACTORS
330
C3A
102
}
330
C3A
100
AcDbXrecord
280
     1
102
MATERIAL
148
0.0
149
0.0
149
0.0
 93
        0
 94
       63
282
     0
 72
     1
 77
     1
171
     1
175
     1
179
     1
273
     0
  0
XRECORD
  5
C39
102
{ACAD_REACTORS
330
C38
102
}
330
C38
100
AcDbXrecord
280
     1
102
MATERIAL
148
0.0
149
0.0
149
0.0
 93
        0
 94
       63
282
     0
 72
     1
 77
     1
171
     1
175
     1
179
     1
273
     0
  0
XRECORD
  5
C3D
102
{ACAD_REACTORS
330
C3C
102
}
330
C3C
100
AcDbXrecord
280
     1
102
MATERIAL
148
0.0
149
0.0
149
0.0
 93
        0
 94
       63
282
     0
 72
     1
 77
     1
171
     1
175
     1
179
     1
273
     0
  0
XRECORD
  5
D0C
102
{ACAD_REACTORS
330
D0B
102
}
330
D0B
100
AcDbXrecord
280
     1
102
ACAD_ROUNDTRIP_PRE2007_TABLESTYLE
 90
        4
 91
        0
  1

 92
        4
 93
        0
  2

 94
        4
 95
        0
  3

  0
XRECORD
  5
C1E
102
{ACAD_REACTORS
330
C1D
102
}
330
C1D
100
AcDbXrecord
280
     1
102
RTVSPropertyOp0
 70
     0
102
RTVSPropertyOp1
 70
     0
102
RTVSPropertyOp2
 70
     0
102
RTVSPropertyOp3
 70
     0
102
RTVSPropertyOp4
 70
     0
102
RTVSPropertyOp5
 70
     0
102
RTVSPropertyOp6
 70
     0
102
RTVSPropertyOp7
 70
     0
102
RTVSPropertyOp8
 70
     0
102
RTVSPropertyOp9
 70
     0
102
RTVSPropertyOp10
 70
     0
102
RTVSPropertyOp11
 70
     0
102
RTVSPropertyOp12
 70
     0
102
RTVSPropertyOp13
 70
     0
102
RTVSPropertyOp14
 70
     2
102
RTVSPropertyOp15
 70
     0
102
RTVSPropertyOp16
 70
     0
102
RTVSPropertyOp17
 70
     0
102
RTVSPropertyOp18
 70
     0
102
RTVSPropertyOp19
 70
     0
102
RTVSPropertyOp20
 70
     0
102
RTVSPropertyOp21
 70
     0
102
RTVSPropertyOp22
 70
     0
102
RTVSPropertyOp23
 70
     0
102
RTVSPropertyOp24
 70
     0
102
RTVSPropertyOp25
 70
     0
102
RTVSPropertyOp26
 70
     0
102
RTVSPropertyOp27
 70
     0
  0
XRECORD
  5
C21
102
{ACAD_REACTORS
330
C20
102
}
330
C20
100
AcDbXrecord
280
     1
102
RTVSPropertyOp0
 70
     0
102
RTVSPropertyOp1
 70
     0
102
RTVSPropertyOp2
 70
     0
102
RTVSPropertyOp3
 70
     0
102
RTVSPropertyOp4
 70
     0
102
RTVSPropertyOp5
 70
     0
102
RTVSPropertyOp6
 70
     0
102
RTVSPropertyOp7
 70
     0
102
RTVSPropertyOp8
 70
     0
102
RTVSPropertyOp9
 70
     0
102
RTVSPropertyOp10
 70
     0
102
RTVSPropertyOp11
 70
     0
102
RTVSPropertyOp12
 70
     0
102
RTVSPropertyOp13
 70
     0
102
RTVSPropertyOp14
 70
     2
102
RTVSPropertyOp15
 70
     0
102
RTVSPropertyOp16
 70
     0
102
RTVSPropertyOp17
 70
     0
102
RTVSPropertyOp18
 70
     0
102
RTVSPropertyOp19
 70
     0
102
RTVSPropertyOp20
 70
     0
102
RTVSPropertyOp21
 70
     0
102
RTVSPropertyOp22
 70
     0
102
RTVSPropertyOp23
 70
     0
102
RTVSPropertyOp24
 70
     0
102
RTVSPropertyOp25
 70
     0
102
RTVSPropertyOp26
 70
     0
102
RTVSPropertyOp27
 70
     0
  0
XRECORD
  5
C24
102
{ACAD_REACTORS
330
C23
102
}
330
C23
100
AcDbXrecord
280
     1
102
RTVSPropertyOp0
 70
     0
102
RTVSPropertyOp1
 70
     0
102
RTVSPropertyOp2
 70
     0
102
RTVSPropertyOp3
 70
     0
102
RTVSPropertyOp4
 70
     0
102
RTVSPropertyOp5
 70
     0
102
RTVSPropertyOp6
 70
     0
102
RTVSPropertyOp7
 70
     0
102
RTVSPropertyOp8
 70
     0
102
RTVSPropertyOp9
 70
     0
102
RTVSPropertyOp10
 70
     0
102
RTVSPropertyOp11
 70
     0
102
RTVSPropertyOp12
 70
     0
102
RTVSPropertyOp13
 70
     0
102
RTVSPropertyOp14
 70
     2
102
RTVSPropertyOp15
 70
     0
102
RTVSPropertyOp16
 70
     0
102
RTVSPropertyOp17
 70
     0
102
RTVSPropertyOp18
 70
     0
102
RTVSPropertyOp19
 70
     0
102
RTVSPropertyOp20
 70
     0
102
RTVSPropertyOp21
 70
     0
102
RTVSPropertyOp22
 70
     0
102
RTVSPropertyOp23
 70
     0
102
RTVSPropertyOp24
 70
     0
102
RTVSPropertyOp25
 70
     0
102
RTVSPropertyOp26
 70
     0
102
RTVSPropertyOp27
 70
     0
  0
ENDSEC
  0
EOF
