  0
SECTION
  2
HEADER
  9
$ACADVER
  1
AC1018
  9
$ACADMAINTVER
 70
   104
  9
$DWGCODEPAGE
  3
ANSI_1252
  9
$LASTSAVEDBY
  1
oberdoer
  9
$CUSTOMPROPERTYTAG
  1
AmdtFileType
  9
$CUSTOMPROPERTY
  1
84
  9
$INSBASE
 10
0.0
 20
0.0
 30
0.0
  9
$EXTMIN
 10
346.8792163261912
 20
247.0257444445131
 30
-0.0000000000112531
  9
$EXTMAX
 10
1114.697962039899
 20
808.6890801345131
 30
0.0000000000002922
  9
$LIMMIN
 10
0.0
 20
0.0
  9
$LIMMAX
 10
420.0
 20
297.0
  9
$ORTHOMODE
 70
     0
  9
$REGENMODE
 70
     1
  9
$FILLMODE
 70
     1
  9
$QTEXTMODE
 70
     0
  9
$MIRRTEXT
 70
     1
  9
$LTSCALE
 40
1.0
  9
$ATTMODE
 70
     1
  9
$TEXTSIZE
 40
2.5
  9
$TRACEWID
 40
1.0
  9
$TEXTSTYLE
  7
STANDARD
  9
$CLAYER
  8
0
  9
$CELTYPE
  6
ByLayer
  9
$CECOLOR
 62
   256
  9
$CELTSCALE
 40
1.0
  9
$DISPSILH
 70
     0
  9
$DIMSCALE
 40
1.0
  9
$DIMASZ
 40
2.5
  9
$DIMEXO
 40
0.0
  9
$DIMDLI
 40
10.0
  9
$DIMRND
 40
0.0
  9
$DIMDLE
 40
0.0
  9
$DIMEXE
 40
2.0
  9
$DIMTP
 40
0.1
  9
$DIMTM
 40
0.1
  9
$DIMTXT
 40
3.5
  9
$DIMCEN
 40
0.0
  9
$DIMTSZ
 40
0.0
  9
$DIMTOL
 70
     0
  9
$DIMLIM
 70
     0
  9
$DIMTIH
 70
     0
  9
$DIMTOH
 70
     0
  9
$DIMSE1
 70
     0
  9
$DIMSE2
 70
     0
  9
$DIMTAD
 70
     1
  9
$DIMZIN
 70
     8
  9
$DIMBLK
  1

  9
$DIMASO
 70
     1
  9
$DIMSHO
 70
     1
  9
$DIMPOST
  1

  9
$DIMAPOST
  1
"
  9
$DIMALT
 70
     0
  9
$DIMALTD
 70
     2
  9
$DIMALTF
 40
0.0393701
  9
$DIMLFAC
 40
1.0
  9
$DIMTOFL
 70
     1
  9
$DIMTVP
 40
0.0
  9
$DIMTIX
 70
     0
  9
$DIMSOXD
 70
     0
  9
$DIMSAH
 70
     0
  9
$DIMBLK1
  1

  9
$DIMBLK2
  1

  9
$DIMSTYLE
  2
AM_DIN
  9
$DIMCLRD
 70
   256
  9
$DIMCLRE
 70
   256
  9
$DIMCLRT
 70
     2
  9
$DIMTFAC
 40
0.71
  9
$DIMGAP
 40
1.5
  9
$DIMJUST
 70
     0
  9
$DIMSD1
 70
     0
  9
$DIMSD2
 70
     0
  9
$DIMTOLJ
 70
     0
  9
$DIMTZIN
 70
     8
  9
$DIMALTZ
 70
     0
  9
$DIMALTTZ
 70
     0
  9
$DIMUPT
 70
     0
  9
$DIMDEC
 70
     2
  9
$DIMTDEC
 70
     2
  9
$DIMALTU
 70
     2
  9
$DIMALTTD
 70
     2
  9
$DIMTXSTY
  7
STANDARD
  9
$DIMAUNIT
 70
     0
  9
$DIMADEC
 70
     0
  9
$DIMALTRND
 40
0.0
  9
$DIMAZIN
 70
     2
  9
$DIMDSEP
 70
    46
  9
$DIMATFIT
 70
     3
  9
$DIMFRAC
 70
     0
  9
$DIMLDRBLK
  1

  9
$DIMLUNIT
 70
     2
  9
$DIMLWD
 70
    -1
  9
$DIMLWE
 70
    -1
  9
$DIMTMOVE
 70
     0
  9
$LUNITS
 70
     2
  9
$LUPREC
 70
     2
  9
$SKETCHINC
 40
1.0
  9
$FILLETRAD
 40
2.5
  9
$AUNITS
 70
     0
  9
$AUPREC
 70
     0
  9
$MENU
  1
.
  9
$ELEVATION
 40
0.0
  9
$PELEVATION
 40
0.0
  9
$THICKNESS
 40
0.0
  9
$LIMCHECK
 70
     0
  9
$CHAMFERA
 40
2.5
  9
$CHAMFERB
 40
2.5
  9
$CHAMFERC
 40
20.0
  9
$CHAMFERD
 40
0.0
  9
$SKPOLY
 70
     0
  9
$TDCREATE
 40
2455484.526193935
  9
$TDUCREATE
 40
2455484.442860602
  9
$TDUPDATE
 40
2456149.637832164
  9
$TDUUPDATE
 40
2456149.554498831
  9
$TDINDWG
 40
0.0495448380
  9
$TDUSRTIMER
 40
0.0495444792
  9
$USRTIMER
 70
     1
  9
$ANGBASE
 50
0.0
  9
$ANGDIR
 70
     0
  9
$PDMODE
 70
     0
  9
$PDSIZE
 40
0.0
  9
$PLINEWID
 40
0.0
  9
$SPLFRAME
 70
     0
  9
$SPLINETYPE
 70
     6
  9
$SPLINESEGS
 70
     8
  9
$HANDSEED
  5
A1D
  9
$SURFTAB1
 70
     6
  9
$SURFTAB2
 70
     6
  9
$SURFTYPE
 70
     6
  9
$SURFU
 70
     6
  9
$SURFV
 70
     6
  9
$UCSBASE
  2

  9
$UCSNAME
  2

  9
$UCSORG
 10
0.0
 20
0.0
 30
0.0
  9
$UCSXDIR
 10
1.0
 20
0.0
 30
0.0
  9
$UCSYDIR
 10
0.0
 20
1.0
 30
0.0
  9
$UCSORTHOREF
  2

  9
$UCSORTHOVIEW
 70
     0
  9
$UCSORGTOP
 10
0.0
 20
0.0
 30
0.0
  9
$UCSORGBOTTOM
 10
0.0
 20
0.0
 30
0.0
  9
$UCSORGLEFT
 10
0.0
 20
0.0
 30
0.0
  9
$UCSORGRIGHT
 10
0.0
 20
0.0
 30
0.0
  9
$UCSORGFRONT
 10
0.0
 20
0.0
 30
0.0
  9
$UCSORGBACK
 10
0.0
 20
0.0
 30
0.0
  9
$PUCSBASE
  2

  9
$PUCSNAME
  2

  9
$PUCSORG
 10
0.0
 20
0.0
 30
0.0
  9
$PUCSXDIR
 10
1.0
 20
0.0
 30
0.0
  9
$PUCSYDIR
 10
0.0
 20
1.0
 30
0.0
  9
$PUCSORTHOREF
  2

  9
$PUCSORTHOVIEW
 70
     0
  9
$PUCSORGTOP
 10
0.0
 20
0.0
 30
0.0
  9
$PUCSORGBOTTOM
 10
0.0
 20
0.0
 30
0.0
  9
$PUCSORGLEFT
 10
0.0
 20
0.0
 30
0.0
  9
$PUCSORGRIGHT
 10
0.0
 20
0.0
 30
0.0
  9
$PUCSORGFRONT
 10
0.0
 20
0.0
 30
0.0
  9
$PUCSORGBACK
 10
0.0
 20
0.0
 30
0.0
  9
$USERI1
 70
     0
  9
$USERI2
 70
     0
  9
$USERI3
 70
     0
  9
$USERI4
 70
     0
  9
$USERI5
 70
     0
  9
$USERR1
 40
0.0
  9
$USERR2
 40
0.0
  9
$USERR3
 40
0.0
  9
$USERR4
 40
0.0
  9
$USERR5
 40
0.0
  9
$WORLDVIEW
 70
     1
  9
$SHADEDGE
 70
     3
  9
$SHADEDIF
 70
    70
  9
$TILEMODE
 70
     1
  9
$MAXACTVP
 70
    64
  9
$PINSBASE
 10
0.0
 20
0.0
 30
0.0
  9
$PLIMCHECK
 70
     0
  9
$PEXTMIN
 10
28.19999999999999
 20
17.0
 30
0.0
  9
$PEXTMAX
 10
253.8
 20
153.0
 30
0.0
  9
$PLIMMIN
 10
-7.5
 20
-20.0
  9
$PLIMMAX
 10
289.5
 20
190.0
  9
$UNITMODE
 70
     0
  9
$VISRETAIN
 70
     1
  9
$PLINEGEN
 70
     0
  9
$PSLTSCALE
 70
     1
  9
$TREEDEPTH
 70
  3020
  9
$CMLSTYLE
  2
Standard
  9
$CMLJUST
 70
     0
  9
$CMLSCALE
 40
20.0
  9
$PROXYGRAPHICS
 70
     1
  9
$MEASUREMENT
 70
     1
  9
$CELWEIGHT
370
    -1
  9
$ENDCAPS
280
     0
  9
$JOINSTYLE
280
     0
  9
$LWDISPLAY
290
     0
  9
$INSUNITS
 70
     4
  9
$HYPERLINKBASE
  1

  9
$STYLESHEET
  1
ganz_fein_1.ctb
  9
$XEDIT
290
     1
  9
$CEPSNTYPE
380
     0
  9
$PSTYLEMODE
290
     1
  9
$FINGERPRINTGUID
  2
{2085E9C1-B972-46C2-920B-9FDC633E60FD}
  9
$VERSIONGUID
  2
{64B42783-5BC8-4D75-B632-1505990C8D16}
  9
$EXTNAMES
290
     1
  9
$PSVPSCALE
 40
0.0
  9
$OLESTARTUP
290
     0
  9
$SORTENTS
280
   127
  9
$INDEXCTL
280
     0
  9
$HIDETEXT
280
     0
  9
$XCLIPFRAME
290
     0
  9
$HALOGAP
280
     0
  9
$OBSCOLOR
 70
   257
  9
$OBSLTYPE
280
     0
  9
$INTERSECTIONDISPLAY
280
     0
  9
$INTERSECTIONCOLOR
 70
   257
  9
$DIMASSOC
280
     1
  9
$PROJECTNAME
  1

  0
ENDSEC
  0
SECTION
  2
CLASSES
  0
CLASS
  1
ACDBDICTIONARYWDFLT
  2
AcDbDictionaryWithDefault
  3
ObjectDBX Classes
 90
        0
 91
        1
280
     0
281
     0
  0
CLASS
  1
ACME_DOCUMENT
  2
AcMeDbDoc
  3
AcMeServices
 90
        0
 91
        1
280
     0
281
     0
  0
CLASS
  1
AMGSETTINGSOBJ
  2
AmgSettingsObj
  3
"AcadM|Product Description: AutoCAD Mechanical|Company: Autodesk"
 90
        0
 91
        2
280
     0
281
     0
  0
CLASS
  1
ACMESCOPE
  2
AcMeScope
  3
AcMeServices
 90
        0
 91
        1
280
     0
281
     0
  0
CLASS
  1
ACMECOMMANDHISTORY
  2
AcMeCommandHistory
  3
AcMeServices
 90
        0
 91
        1
280
     0
281
     0
  0
CLASS
  1
ACIMSYSVARMAN
  2
AcImSysVarManager
  3
AcMeServices
 90
        0
 91
        5
280
     0
281
     0
  0
CLASS
  1
ACIMREALSYSVAR
  2
AcImRealSysVar
  3
AcMeServices
 90
        0
 91
        1
280
     0
281
     0
  0
CLASS
  1
ACIMINTSYSVAR
  2
AcImIntSysVar
  3
AcMeServices
 90
        0
 91
       27
280
     0
281
     0
  0
CLASS
  1
ACMEDRAWINGMAN
  2
AcMeDrawingMan
  3
AcMeServices
 90
        0
 91
        1
280
     0
281
     0
  0
CLASS
  1
ACMEVIEW
  2
AcMeView
  3
AcMeServices
 90
        0
 91
        1
280
     0
281
     0
  0
CLASS
  1
ACDBENTITYCACHE
  2
AcMeEntityCache
  3
AcMeServices
 90
        0
 91
        1
280
     0
281
     0
  0
CLASS
  1
GSMANAGER
  2
AcMeGSManager
  3
AcMeServices
 90
        0
 91
        1
280
     0
281
     0
  0
CLASS
  1
AMDTINTERNALREACTOR
  2
AmdtInternalReactor
  3
AcMeServices
 90
        0
 91
        2
280
     0
281
     0
  0
CLASS
  1
ACMESTATEMGR
  2
AcMeStateMgr
  3
AcMeServices
 90
        0
 91
        1
280
     0
281
     0
  0
CLASS
  1
ACGREFMASTER
  2
AcGrefMaster
  3
AcAttribServices
 90
        0
 91
        1
280
     0
281
     0
  0
CLASS
  1
ACME_DATABASE
  2
AcMeDbDatabase
  3
AcMeServices
 90
        0
 91
        1
280
     0
281
     0
  0
CLASS
  1
ACRFINSADJUSTERMGR
  2
AcRfInsAdjusterMgr
  3
AcMeServices
 90
        0
 91
        1
280
     0
281
     0
  0
CLASS
  1
ACGREFACADMASTER
  2
AcGrefacadMaster
  3
AcGrefServices
 90
        0
 91
        1
280
     0
281
     0
  0
CLASS
  1
AMIMASTER
  2
AmiMaster
  3
AmiServices
 90
        0
 91
        1
280
     0
281
     0
  0
CLASS
  1
ACMDATADICTIONARY
  2
AcmDataDictionary
  3
"AcmSymBB|Product Description: AutoCAD Mechanical|Company: Autodesk"
 90
        0
 91
        1
280
     0
281
     0
  0
CLASS
  1
ACMDATAENTRYBLOCK
  2
AcmDataEntryBlock
  3
"AcmSymBB|Product Description: AutoCAD Mechanical|Company: Autodesk"
 90
        0
 91
        0
280
     0
281
     0
  0
CLASS
  1
ACIMSTRSYSVAR
  2
AcImStrSysVar
  3
AcMeServices
 90
        0
 91
        5
280
     0
281
     0
  0
CLASS
  1
ACMSTANDARDDIN
  2
AcmStandardDIN
  3
"Amdt_StdImp|Product Description: AutoCAD Mechanical|Company: Autodesk"
 90
        0
 91
        1
280
     0
281
     0
  0
CLASS
  1
AMGOBJPROPCFG
  2
AmgObjPropCfg
  3
"AmgLay|Product Description: AutoCAD Mechanical|Company: Autodesk"
 90
        1
 91
        2
280
     0
281
     0
  0
CLASS
  1
AMDTEDGESTANDARDDIN
  2
AmdtEdgeStdDIN
  3
"Amdt_StdImp|Product Description: AutoCAD Mechanical|Company: Autodesk"
 90
        0
 91
        0
280
     0
281
     0
  0
CLASS
  1
ACMSURFSTANDARDDIN
  2
AcmSurfTextStdDIN
  3
"Amdt_StdImp|Product Description: AutoCAD Mechanical|Company: Autodesk"
 90
        0
 91
        1
280
     0
281
     0
  0
CLASS
  1
ACMFCFSTANDARDDIN
  2
AcmFCFStdDIN
  3
"Amdt_StdImp|Product Description: AutoCAD Mechanical|Company: Autodesk"
 90
        0
 91
        1
280
     0
281
     0
  0
CLASS
  1
ACMWELDSTANDARDDIN
  2
AcmWeldingStdDIN
  3
"Amdt_StdImp|Product Description: AutoCAD Mechanical|Company: Autodesk"
 90
        0
 91
        1
280
     0
281
     0
  0
CLASS
  1
ACMIDSTANDARDDIN
  2
AcmIdStdDIN
  3
"Amdt_StdImp|Product Description: AutoCAD Mechanical|Company: Autodesk"
 90
        0
 91
        1
280
     0
281
     0
  0
CLASS
  1
ACMDATUMSTANDARDDIN
  2
AcmDatumStdDIN
  3
"Amdt_StdImp|Product Description: AutoCAD Mechanical|Company: Autodesk"
 90
        0
 91
        1
280
     0
281
     0
  0
CLASS
  1
ACMBOMSTANDARDDIN
  2
AcmBOMStdDIN
  3
"Amdt_StdImp|Product Description: AutoCAD Mechanical|Company: Autodesk"
 90
        0
 91
        1
280
     0
281
     0
  0
CLASS
  1
ACMDETAILSTANDARDDIN
  2
AmdtDetailSymStdDIN
  3
"Amdt_StdImp|Product Description: AutoCAD Mechanical|Company: Autodesk"
 90
        0
 91
        1
280
     0
281
     0
  0
CLASS
  1
ACMSECTIONSTANDARDDIN
  2
AmdtSectionSymStdDIN
  3
"Amdt_StdImp|Product Description: AutoCAD Mechanical|Company: Autodesk"
 90
        0
 91
        1
280
     0
281
     0
  0
CLASS
  1
ACMCENTERLINESTANDARDDIN
  2
AmdtCenterLineStdDIN
  3
"Amdt_StdImp|Product Description: AutoCAD Mechanical|Company: Autodesk"
 90
        0
 91
        1
280
     0
281
     0
  0
CLASS
  1
ACMNOTESTANDARDDIN
  2
AmdtNoteStdDIN
  3
"Amdt_StdImp|Product Description: AutoCAD Mechanical|Company: Autodesk"
 90
        0
 91
        1
280
     0
281
     0
  0
CLASS
  1
ACAMGLAYSTD
  2
AcAmgLayStd
  3
"AmgLay|Product Description: AutoCAD Mechanical|Company: Autodesk"
 90
        0
 91
        2
280
     0
281
     0
  0
CLASS
  1
ACAMGDIMSTD
  2
AcAmgDimStd
  3
"AmgDim|Product Description: AutoCAD Mechanical|Company: Autodesk"
 90
        0
 91
        2
280
     0
281
     0
  0
CLASS
  1
ACAMGHOLECHARTSTDDIN
  2
AcAmgHoleChartStdDIN
  3
ACMSYMBB_MODULE_NAME
 90
        0
 91
        1
280
     0
281
     0
  0
CLASS
  1
ACAMGTITLESTD
  2
AcAmgTitleStd
  3
"AmgTitle|Product Description: AutoCAD Mechanical|Company: Autodesk"
 90
        0
 91
        2
280
     0
281
     0
  0
CLASS
  1
LAYER_INDEX
  2
AcDbLayerIndex
  3
ObjectDBX Classes
 90
        0
 91
        0
280
     0
281
     0
  0
CLASS
  1
IDBUFFER
  2
AcDbIdBuffer
  3
ObjectDBX Classes
 90
        0
 91
        0
280
     0
281
     0
  0
CLASS
  1
DICTIONARYVAR
  2
AcDbDictionaryVar
  3
ObjectDBX Classes
 90
        0
 91
        3
280
     0
281
     0
  0
CLASS
  1
AM_DRAWING_MGR
  2
AcDmDwgMgr
  3
AcMechDwgViewMgmt
 90
        0
 91
        1
280
     0
281
     0
  0
CLASS
  1
AM_DWG_DOCUMENT
  2
AcDmDwgDocument
  3
AcMechDwgViewMgmt
 90
        0
 91
        1
280
     0
281
     0
  0
CLASS
  1
AM_DWG_SHEET
  2
AcDmSheet
  3
AcMechDwgViewMgmt
 90
        0
 91
        2
280
     0
281
     0
  0
CLASS
  1
AM_VIEWDIMPARMAP
  2
AcDmViewDimParMap
  3
AcMechDwgViewMgmt
 90
        0
 91
        2
280
     0
281
     0
  0
CLASS
  1
AM_DWGMGR_NAME
  2
AcDmDwgMgrName
  3
AcMechDwgViewMgmt
 90
        0
 91
        1
280
     0
281
     0
  0
CLASS
  1
AMDTMENUSTATEMGR
  2
AmdtMenuStateMgr
  3
McadcomServices
 90
        0
 91
        1
280
     0
281
     0
  0
CLASS
  1
AMDTMCOMMENUSTATE
  2
AmdtMcomMenuState
  3
McadcomServices
 90
        0
 91
        1
280
     0
281
     0
  0
CLASS
  1
MAPIAMMOUDLE
  2
MApiAmModule
  3
MApiAmServices
 90
        0
 91
        1
280
     0
281
     0
  0
CLASS
  1
AMDTADMENUSTATE
  2
AmdtAdMenuState
  3
DesignerServices
 90
        0
 91
        1
280
     0
281
     0
  0
CLASS
  1
ADAPPL
  2
AcAdAppl
  3
DesignerServices
 90
        0
 91
        1
280
     0
281
     0
  0
CLASS
  1
DEPMGR
  2
AcAdDepMgr
  3
DesignerServices
 90
        0
 91
        1
280
     0
281
     0
  0
CLASS
  1
PARAMMGR
  2
AcAdParamMgr
  3
DesignerServices
 90
        0
 91
        1
280
     0
281
     0
  0
CLASS
  1
PARAMSCOPE
  2
AcAdParamScope
  3
DesignerServices
 90
        0
 91
        1
280
     0
281
     0
  0
CLASS
  1
NAMEDAPPL
  2
AcAdNamedAppl
  3
DesignerServices
 90
        0
 91
        1
280
     0
281
     0
  0
CLASS
  1
AMDTDMMENUSTATE
  2
AmdtDmMenuState
  3
AcMechDwgViewMgmt
 90
        0
 91
        1
280
     0
281
     0
  0
CLASS
  1
AMDTAMMENUSTATE
  2
AmdtAmMenuState
  3
DesignerAssemblies
 90
        0
 91
        1
280
     0
281
     0
  0
CLASS
  1
ACAMPROJECT
  2
AcAmProject
  3
DesignerAssemblies
 90
        0
 91
        1
280
     0
281
     0
  0
CLASS
  1
ACAMGRCOMPDEF
  2
AcAmGrCompDef
  3
DesignerAssemblies
 90
        0
 91
        1
280
     0
281
     0
  0
CLASS
  1
ACCMCONTEXT
  2
AcCmContext
  3
DesignerAssemblies
 90
        0
 91
        1
280
     0
281
     0
  0
CLASS
  1
ACAMCOMPDEF
  2
AcAmCompDef
  3
DesignerAssemblies
 90
        0
 91
        1
280
     0
281
     0
  0
CLASS
  1
ACAMCOMPDEFMGR
  2
AcAmCompDefMgr
  3
DesignerAssemblies
 90
        0
 91
        1
280
     0
281
     0
  0
CLASS
  1
AMCONTEXTMGR
  2
AcAmContextMgr
  3
DesignerAssemblies
 90
        0
 91
        1
280
     0
281
     0
  0
CLASS
  1
ACAMCONTEXTMODELER
  2
AcAmContextModeler
  3
DesignerAssemblies
 90
        0
 91
        1
280
     0
281
     0
  0
CLASS
  1
ACMTHREADLINESTANDARDDIN
  2
AmdtThreadLineStdDIN
  3
"Amdt_StdImp|Product Description: AutoCAD Mechanical|Company: Autodesk"
 90
        0
 91
        1
280
     0
281
     0
  0
CLASS
  1
CATALOGSTATE
  2
AcAmCatalogState
  3
DesignerAssemblies
 90
        0
 91
        1
280
     0
281
     0
  0
CLASS
  1
ACAMGRCOMPDEFSET
  2
AcAmGrCompDefSet
  3
DesignerAssemblies
 90
        0
 91
        1
280
     0
281
     0
  0
CLASS
  1
AMDTBROWSERDBTAB
  2
AmdtBrowserDbTab
  3
McadcomServices
 90
        0
 91
        1
280
     0
281
     0
  0
CLASS
  1
CBROWSERAPPOBJECT
  2
CBrowserAppObject
  3
McadcomServices
 90
        0
 91
        3
280
     0
281
     0
  0
CLASS
  1
DM_PLACEHOLDER
  2
AcDmSelsetPlaceholder
  3
AcMechDwgViewMgmt
 90
        0
 91
        1
280
     0
281
     0
  0
CLASS
  1
TABLESTYLE
  2
AcDbTableStyle
  3
ObjectDBX Classes
 90
     4095
 91
        1
280
     0
281
     0
  0
CLASS
  1
MATERIAL
  2
AcDbMaterial
  3
ObjectDBX Classes
 90
     1024
 91
        3
280
     0
281
     0
  0
CLASS
  1
VISUALSTYLE
  2
AcDbVisualStyle
  3
ObjectDBX Classes
 90
     4095
 91
       19
280
     0
281
     0
  0
CLASS
  1
ACRFATTGENMGR
  2
AcRfAttGeneralMgr
  3
AcAttribServices
 90
        0
 91
        0
280
     0
281
     0
  0
CLASS
  1
ACRFOBJATTMGR
  2
AcRfObjAttGroupMgr
  3
AcAttribServices
 90
        0
 91
        0
280
     0
281
     0
  0
CLASS
  1
ACRFMCADAPIATTHOLDER
  2
AcRfMCADAPIAttHolder
  3
AcAttribServices
 90
        0
 91
        0
280
     0
281
     0
  0
CLASS
  1
AMDTSYSATTR
  2
AmdtSystemAttribute
  3
AcAttribServices
 90
        0
 91
        0
280
     0
281
     0
  0
CLASS
  1
ACMTAPERSTANDARDDIN
  2
AcmTaperStdDIN
  3
"Amdt_StdImp|Product Description: AutoCAD Mechanical|Company: Autodesk"
 90
        0
 91
        1
280
     0
281
     0
  0
CLASS
  1
CAMSSTRUCTBTNSTATE
  2
StructBtnState
  3
L"DesignerAssemblies"
 90
        0
 91
        0
280
     0
281
     0
  0
CLASS
  1
ACAMGFILTERDAT
  2
AcAmgFilterDat
  3
"AcadM|Product Description: AutoCAD Mechanical|Company: Autodesk"
 90
        0
 91
        0
280
     0
281
     0
  0
CLASS
  1
AMDTEDGESTANDARDDIN13715
  2
AmdtEdgeStdDIN13715
  3
"Amdt_StdImp|Product Description: AutoCAD Mechanical|Company: Autodesk"
 90
        0
 91
        1
280
     0
281
     0
  0
CLASS
  1
AMDTNOTETEMPLATEDB
  2
AmdtNoteTemplateDB
  3
AMDT_STDIMP_MODULE_NAME
 90
        0
 91
        9
280
     0
281
     0
  0
CLASS
  1
ACMSTANDARDISO
  2
AcmStandardISO
  3
"Amdt_StdImp|Product Description: AutoCAD Mechanical|Company: Autodesk"
 90
        0
 91
        1
280
     0
281
     0
  0
CLASS
  1
AMDTEDGESTANDARDISO
  2
AmdtEdgeStdISO
  3
"Amdt_StdImp|Product Description: AutoCAD Mechanical|Company: Autodesk"
 90
        0
 91
        1
280
     0
281
     0
  0
CLASS
  1
ACMSURFSTANDARDISO
  2
AcmSurfTextStdISO
  3
"Amdt_StdImp|Product Description: AutoCAD Mechanical|Company: Autodesk"
 90
        0
 91
        1
280
     0
281
     0
  0
CLASS
  1
ACMFCFSTANDARDISO
  2
AcmFCFStdISO
  3
"Amdt_StdImp|Product Description: AutoCAD Mechanical|Company: Autodesk"
 90
        0
 91
        1
280
     0
281
     0
  0
CLASS
  1
ACMWELDSTANDARDISO
  2
AcmWeldingStdISO
  3
"Amdt_StdImp|Product Description: AutoCAD Mechanical|Company: Autodesk"
 90
        0
 91
        1
280
     0
281
     0
  0
CLASS
  1
ACMIDSTANDARDISO
  2
AcmIdStdISO
  3
"Amdt_StdImp|Product Description: AutoCAD Mechanical|Company: Autodesk"
 90
        0
 91
        1
280
     0
281
     0
  0
CLASS
  1
ACMDATUMSTANDARDISO
  2
AcmDatumStdISO
  3
"Amdt_StdImp|Product Description: AutoCAD Mechanical|Company: Autodesk"
 90
        0
 91
        1
280
     0
281
     0
  0
CLASS
  1
ACMBOMSTANDARDISO
  2
AcmBOMStdISO
  3
"Amdt_StdImp|Product Description: AutoCAD Mechanical|Company: Autodesk"
 90
        0
 91
        1
280
     0
281
     0
  0
CLASS
  1
ACMDETAILSTANDARDISO
  2
AmdtDetailSymStdISO
  3
"Amdt_StdImp|Product Description: AutoCAD Mechanical|Company: Autodesk"
 90
        0
 91
        1
280
     0
281
     0
  0
CLASS
  1
ACMSECTIONSTANDARDISO
  2
AmdtSectionSymStdISO
  3
"Amdt_StdImp|Product Description: AutoCAD Mechanical|Company: Autodesk"
 90
        0
 91
        1
280
     0
281
     0
  0
CLASS
  1
ACMCENTERLINESTANDARDISO
  2
AmdtCenterLineStdISO
  3
"Amdt_StdImp|Product Description: AutoCAD Mechanical|Company: Autodesk"
 90
        0
 91
        1
280
     0
281
     0
  0
CLASS
  1
ACMNOTESTANDARDISO
  2
AmdtNoteStdISO
  3
"Amdt_StdImp|Product Description: AutoCAD Mechanical|Company: Autodesk"
 90
        0
 91
        1
280
     0
281
     0
  0
CLASS
  1
ACAMGHOLECHARTSTDISO
  2
AcAmgHoleChartStdISO
  3
ACMSYMBB_MODULE_NAME
 90
        0
 91
        1
280
     0
281
     0
  0
CLASS
  1
ACMTHREADLINESTANDARDISO
  2
AmdtThreadLineStdISO
  3
"Amdt_StdImp|Product Description: AutoCAD Mechanical|Company: Autodesk"
 90
        0
 91
        1
280
     0
281
     0
  0
CLASS
  1
ACMTAPERSTANDARDISO
  2
AcmTaperStdISO
  3
"Amdt_StdImp|Product Description: AutoCAD Mechanical|Company: Autodesk"
 90
        0
 91
        1
280
     0
281
     0
  0
ENDSEC
  0
SECTION
  2
TABLES
  0
TABLE
  2
VPORT
  5
8
330
0
100
AcDbSymbolTable
 70
     1
  0
VPORT
  5
1E9
330
8
100
AcDbSymbolTableRecord
100
AcDbViewportTableRecord
  2
*Active
 70
     0
 10
0.0
 20
0.0
 11
1.0
 21
1.0
 12
730.788589183045
 22
527.8574122895131
 13
0.0
 23
0.0
 14
2.5
 24
2.5
 15
10.0
 25
10.0
 16
0.0
 26
0.0
 36
1.0
 17
0.0
 27
0.0
 37
0.0
 40
565.1268300519116
 41
1.845679012345679
 42
50.0
 43
0.0
 44
0.0
 50
0.0
 51
0.0
 71
     0
 72
   100
 73
     1
 74
     3
 75
     0
 76
     0
 77
     0
 78
     0
281
     0
 65
     1
110
0.0
120
0.0
130
0.0
111
1.0
121
0.0
131
0.0
112
0.0
122
1.0
132
0.0
 79
     0
146
0.0
  0
ENDTAB
  0
TABLE
  2
LTYPE
  5
5
330
0
100
AcDbSymbolTable
 70
    62
  0
LTYPE
  5
14
330
5
100
AcDbSymbolTableRecord
100
AcDbLinetypeTableRecord
  2
ByBlock
 70
     0
  3

 72
    65
 73
     0
 40
0.0
  0
LTYPE
  5
15
330
5
100
AcDbSymbolTableRecord
100
AcDbLinetypeTableRecord
  2
ByLayer
 70
     0
  3

 72
    65
 73
     0
 40
0.0
  0
LTYPE
  5
16
330
5
100
AcDbSymbolTableRecord
100
AcDbLinetypeTableRecord
  2
Continuous
 70
     0
  3
Solid line
 72
    65
 73
     0
 40
0.0
  0
LTYPE
  5
A0
330
5
100
AcDbSymbolTableRecord
100
AcDbLinetypeTableRecord
  2
AM_ISO02W050
 70
     0
  3
__ __ __ __ __ __ __ __ __ __ __ __ __ __ __
 72
    65
 73
     2
 40
7.5
 49
6.0
 74
     0
 49
-1.5
 74
     0
  0
LTYPE
  5
A1
330
5
100
AcDbSymbolTableRecord
100
AcDbLinetypeTableRecord
  2
AM_ISO08W050
 70
     0
  3
____ . ____ . ____ . ____ . ____ . ____ . ____
 72
    65
 73
     4
 40
18.0
 49
12.0
 74
     0
 49
-1.5
 74
     0
 49
3.0
 74
     0
 49
-1.5
 74
     0
  0
LTYPE
  5
A2
330
5
100
AcDbSymbolTableRecord
100
AcDbLinetypeTableRecord
  2
AM_ISO09W050
 70
     0
  3
_____ . . _____ . . _____ . . ____ .. ____
 72
    65
 73
     6
 40
22.5
 49
12.0
 74
     0
 49
-1.5
 74
     0
 49
3.0
 74
     0
 49
-1.5
 74
     0
 49
3.0
 74
     0
 49
-1.5
 74
     0
  0
LTYPE
  5
A3
330
5
100
AcDbSymbolTableRecord
100
AcDbLinetypeTableRecord
  2
Amconstr
 70
     0
  3
_______________________
 72
    65
 73
     2
 40
9999.0
 49
9999.0
 74
     0
 49
0.0
 74
     0
  0
LTYPE
  5
A4
330
5
100
AcDbSymbolTableRecord
100
AcDbLinetypeTableRecord
  2
AM_ISO08W050x2
 70
     0
  3
__ . __ . __ . __ . __ . __
 72
    65
 73
     4
 40
9.0
 49
6.0
 74
     0
 49
-0.75
 74
     0
 49
1.5
 74
     0
 49
-0.75
 74
     0
  0
LTYPE
  5
A5
330
5
100
AcDbSymbolTableRecord
100
AcDbLinetypeTableRecord
  2
AM_ISO02W050x2
 70
     0
  3
 _ _ _ _ _ _ _ _ _ _ _ _
 72
    65
 73
     2
 40
3.75
 49
3.0
 74
     0
 49
-0.75
 74
     0
  0
LTYPE
  5
A8
330
5
100
AcDbSymbolTableRecord
100
AcDbLinetypeTableRecord
  2
Amzigzag
 70
     0
  3
/\/-/\/-/\/-/\/-/\/-/\/
 72
    65
 73
     2
 40
11.0001
 49
0.0001
 74
     4
 75
   135
340
A7
 46
0.04
 50
0.0
 44
0.0
 45
0.0
 49
-11.0
 74
     0
  0
LTYPE
  5
A9
330
5
100
AcDbSymbolTableRecord
100
AcDbLinetypeTableRecord
  2
AM_DIN_F_W050
 70
     0
  3
__ __ __ __ __ __ __ __ __ __ __ __ __ __ __
 72
    65
 73
     2
 40
6.25
 49
4.75
 74
     0
 49
-1.5
 74
     0
  0
LTYPE
  5
AA
330
5
100
AcDbSymbolTableRecord
100
AcDbLinetypeTableRecord
  2
AM_DIN_G_W050
 70
     0
  3
____ . ____ . ____ . ____ . ____ . ____ . ____
 72
    65
 73
     4
 40
13.75
 49
9.75
 74
     0
 49
-1.5
 74
     0
 49
1.0
 74
     0
 49
-1.5
 74
     0
  0
LTYPE
  5
AB
330
5
100
AcDbSymbolTableRecord
100
AcDbLinetypeTableRecord
  2
AM_DIN_K_W050
 70
     0
  3
_____ . . _____ . . _____ . . ____ .. ____
 72
    65
 73
     6
 40
16.25
 49
9.75
 74
     0
 49
-1.5
 74
     0
 49
1.0
 74
     0
 49
-1.5
 74
     0
 49
1.0
 74
     0
 49
-1.5
 74
     0
  0
LTYPE
  5
AC
330
5
100
AcDbSymbolTableRecord
100
AcDbLinetypeTableRecord
  2
AM_DIN_G_W050x2
 70
     0
  3
__ . __ . __ . __ . __ . __
 72
    65
 73
     4
 40
6.875
 49
4.75
 74
     0
 49
-0.875
 74
     0
 49
0.375
 74
     0
 49
-0.875
 74
     0
  0
LTYPE
  5
AD
330
5
100
AcDbSymbolTableRecord
100
AcDbLinetypeTableRecord
  2
AM_DIN_F_W050x2
 70
     0
  3
 _ _ _ _ _ _ _ _ _ _ _ _
 72
    65
 73
     2
 40
3.125
 49
2.25
 74
     0
 49
-0.875
 74
     0
  0
LTYPE
  5
BB
330
5
100
AcDbSymbolTableRecord
100
AcDbLinetypeTableRecord
  2
ACDINWELD
 70
     0
  3
_ _ _ _ _
 72
    65
 73
     2
 40
2.0
 49
2.0
 74
     0
 49
-1.0
 74
     0
  0
LTYPE
  5
BC
330
5
100
AcDbSymbolTableRecord
100
AcDbLinetypeTableRecord
  2
ACDINTGB
 70
     0
  3
__ . . __ . .
 72
    65
 73
     6
 40
9.0
 49
4.0
 74
     0
 49
-1.0
 74
     0
 49
1.0
 74
     0
 49
-1.0
 74
     0
 49
1.0
 74
     0
 49
-1.0
 74
     0
  0
LTYPE
  5
BD
330
5
100
AcDbSymbolTableRecord
100
AcDbLinetypeTableRecord
  2
ACDINTGL
 70
     0
  3
_ _ _ _ _
 72
    65
 73
     2
 40
3.0
 49
2.0
 74
     0
 49
-1.0
 74
     0
  0
LTYPE
  5
BF
330
5
100
AcDbSymbolTableRecord
100
AcDbLinetypeTableRecord
  2
CENTER
 70
     0
  3
__ . __
 72
    65
 73
     4
 40
7.0
 49
4.0
 74
     0
 49
-1.0
 74
     0
 49
1.0
 74
     0
 49
-1.0
 74
     0
  0
LTYPE
  5
10F
330
5
100
AcDbSymbolTableRecord
100
AcDbLinetypeTableRecord
  2
HIDDEN
 70
     0
  3
Verdeckt
 72
    65
 73
     2
 40
9.525
 49
6.349999999999998
 74
     0
 49
-3.174999999999998
 74
     0
  0
LTYPE
  5
110
330
5
100
AcDbSymbolTableRecord
100
AcDbLinetypeTableRecord
  2
PHANTOM2
 70
     0
  3
Phantom (.5x) ___ _ _ ___ _ _ ___ _ _ ___ _ _
 72
    65
 73
     6
 40
31.75
 49
15.875
 74
     0
 49
-3.174999999999998
 74
     0
 49
3.174999999999998
 74
     0
 49
-3.174999999999998
 74
     0
 49
3.174999999999998
 74
     0
 49
-3.174999999999998
 74
     0
  0
LTYPE
  5
8FD
330
5
100
AcDbSymbolTableRecord
100
AcDbLinetypeTableRecord
  2
BORDER
 70
     0
  3
Border __ __ . __ __ . __ __ . __ __ . __ __ .
 72
    65
 73
     6
 40
1.75
 49
0.5
 74
     0
 49
-0.25
 74
     0
 49
0.5
 74
     0
 49
-0.25
 74
     0
 49
0.0
 74
     0
 49
-0.25
 74
     0
  0
LTYPE
  5
8FE
330
5
100
AcDbSymbolTableRecord
100
AcDbLinetypeTableRecord
  2
BORDER2
 70
     0
  3
Border (.5x) __.__.__.__.__.__.__.__.__.__.__.
 72
    65
 73
     6
 40
0.875
 49
0.25
 74
     0
 49
-0.125
 74
     0
 49
0.25
 74
     0
 49
-0.125
 74
     0
 49
0.0
 74
     0
 49
-0.125
 74
     0
  0
LTYPE
  5
8FF
330
5
100
AcDbSymbolTableRecord
100
AcDbLinetypeTableRecord
  2
BORDERX2
 70
     0
  3
Border (2x) ____  ____  .  ____  ____  .  ___
 72
    65
 73
     6
 40
3.5
 49
1.0
 74
     0
 49
-0.5
 74
     0
 49
1.0
 74
     0
 49
-0.5
 74
     0
 49
0.0
 74
     0
 49
-0.5
 74
     0
  0
LTYPE
  5
900
330
5
100
AcDbSymbolTableRecord
100
AcDbLinetypeTableRecord
  2
CENTER2
 70
     0
  3
Center (.5x) ___ _ ___ _ ___ _ ___ _ ___ _ ___
 72
    65
 73
     4
 40
1.125
 49
0.75
 74
     0
 49
-0.125
 74
     0
 49
0.125
 74
     0
 49
-0.125
 74
     0
  0
LTYPE
  5
901
330
5
100
AcDbSymbolTableRecord
100
AcDbLinetypeTableRecord
  2
CENTERX2
 70
     0
  3
Center (2x) ________  __  ________  __  _____
 72
    65
 73
     4
 40
4.0
 49
2.5
 74
     0
 49
-0.5
 74
     0
 49
0.5
 74
     0
 49
-0.5
 74
     0
  0
LTYPE
  5
902
330
5
100
AcDbSymbolTableRecord
100
AcDbLinetypeTableRecord
  2
DASHDOT
 70
     0
  3
Dash dot __ . __ . __ . __ . __ . __ . __ . __
 72
    65
 73
     4
 40
1.0
 49
0.5
 74
     0
 49
-0.25
 74
     0
 49
0.0
 74
     0
 49
-0.25
 74
     0
  0
LTYPE
  5
903
330
5
100
AcDbSymbolTableRecord
100
AcDbLinetypeTableRecord
  2
DASHDOT2
 70
     0
  3
Dash dot (.5x) _._._._._._._._._._._._._._._.
 72
    65
 73
     4
 40
0.5
 49
0.25
 74
     0
 49
-0.125
 74
     0
 49
0.0
 74
     0
 49
-0.125
 74
     0
  0
LTYPE
  5
904
330
5
100
AcDbSymbolTableRecord
100
AcDbLinetypeTableRecord
  2
DASHDOTX2
 70
     0
  3
Dash dot (2x) ____  .  ____  .  ____  .  ___
 72
    65
 73
     4
 40
2.0
 49
1.0
 74
     0
 49
-0.5
 74
     0
 49
0.0
 74
     0
 49
-0.5
 74
     0
  0
LTYPE
  5
905
330
5
100
AcDbSymbolTableRecord
100
AcDbLinetypeTableRecord
  2
DASHED
 70
     0
  3
Dashed __ __ __ __ __ __ __ __ __ __ __ __ __ _
 72
    65
 73
     2
 40
0.75
 49
0.5
 74
     0
 49
-0.25
 74
     0
  0
LTYPE
  5
906
330
5
100
AcDbSymbolTableRecord
100
AcDbLinetypeTableRecord
  2
DASHED2
 70
     0
  3
Dashed (.5x) _ _ _ _ _ _ _ _ _ _ _ _ _ _ _ _ _
 72
    65
 73
     2
 40
0.375
 49
0.25
 74
     0
 49
-0.125
 74
     0
  0
LTYPE
  5
907
330
5
100
AcDbSymbolTableRecord
100
AcDbLinetypeTableRecord
  2
DASHEDX2
 70
     0
  3
Dashed (2x) ____  ____  ____  ____  ____  ___
 72
    65
 73
     2
 40
1.5
 49
1.0
 74
     0
 49
-0.5
 74
     0
  0
LTYPE
  5
908
330
5
100
AcDbSymbolTableRecord
100
AcDbLinetypeTableRecord
  2
DIVIDE
 70
     0
  3
Divide ____ . . ____ . . ____ . . ____ . . ____
 72
    65
 73
     6
 40
1.25
 49
0.5
 74
     0
 49
-0.25
 74
     0
 49
0.0
 74
     0
 49
-0.25
 74
     0
 49
0.0
 74
     0
 49
-0.25
 74
     0
  0
LTYPE
  5
909
330
5
100
AcDbSymbolTableRecord
100
AcDbLinetypeTableRecord
  2
DIVIDE2
 70
     0
  3
Divide (.5x) __..__..__..__..__..__..__..__.._
 72
    65
 73
     6
 40
0.625
 49
0.25
 74
     0
 49
-0.125
 74
     0
 49
0.0
 74
     0
 49
-0.125
 74
     0
 49
0.0
 74
     0
 49
-0.125
 74
     0
  0
LTYPE
  5
90A
330
5
100
AcDbSymbolTableRecord
100
AcDbLinetypeTableRecord
  2
DIVIDEX2
 70
     0
  3
Divide (2x) ________  .  .  ________  .  .  _
 72
    65
 73
     6
 40
2.5
 49
1.0
 74
     0
 49
-0.5
 74
     0
 49
0.0
 74
     0
 49
-0.5
 74
     0
 49
0.0
 74
     0
 49
-0.5
 74
     0
  0
LTYPE
  5
90B
330
5
100
AcDbSymbolTableRecord
100
AcDbLinetypeTableRecord
  2
DOT
 70
     0
  3
Dot . . . . . . . . . . . . . . . . . . . . . .
 72
    65
 73
     2
 40
0.25
 49
0.0
 74
     0
 49
-0.25
 74
     0
  0
LTYPE
  5
90C
330
5
100
AcDbSymbolTableRecord
100
AcDbLinetypeTableRecord
  2
DOT2
 70
     0
  3
Dot (.5x) .....................................
 72
    65
 73
     2
 40
0.125
 49
0.0
 74
     0
 49
-0.125
 74
     0
  0
LTYPE
  5
90D
330
5
100
AcDbSymbolTableRecord
100
AcDbLinetypeTableRecord
  2
DOTX2
 70
     0
  3
Dot (2x) .  .  .  .  .  .  .  .  .  .  .  .  . 
 72
    65
 73
     2
 40
0.5
 49
0.0
 74
     0
 49
-0.5
 74
     0
  0
LTYPE
  5
90E
330
5
100
AcDbSymbolTableRecord
100
AcDbLinetypeTableRecord
  2
GAS_LINE
 70
     0
  3
Gas line ----GAS----GAS----GAS----GAS----GAS---
 72
    65
 73
     3
 40
0.95
 49
0.5
 74
     0
 49
-0.2
 74
     2
 75
     0
340
11
 46
0.1
 50
0.0
 44
-0.1
 45
-0.05
  9
GAS
 49
-0.25
 74
     0
  0
LTYPE
  5
90F
330
5
100
AcDbSymbolTableRecord
100
AcDbLinetypeTableRecord
  2
HIDDEN2
 70
     0
  3
Hidden (.5x) _ _ _ _ _ _ _ _ _ _ _ _ _ _ _ _ _
 72
    65
 73
     2
 40
0.1875
 49
0.125
 74
     0
 49
-0.0625
 74
     0
  0
LTYPE
  5
910
330
5
100
AcDbSymbolTableRecord
100
AcDbLinetypeTableRecord
  2
HIDDENX2
 70
     0
  3
Hidden (2x) ____ ____ ____ ____ ____ ____ ____
 72
    65
 73
     2
 40
0.75
 49
0.5
 74
     0
 49
-0.25
 74
     0
  0
LTYPE
  5
911
330
5
100
AcDbSymbolTableRecord
100
AcDbLinetypeTableRecord
  2
PHANTOM
 70
     0
  3
Phantom ______  __  __  ______  __  __  ______
 72
    65
 73
     6
 40
2.5
 49
1.25
 74
     0
 49
-0.25
 74
     0
 49
0.25
 74
     0
 49
-0.25
 74
     0
 49
0.25
 74
     0
 49
-0.25
 74
     0
  0
LTYPE
  5
912
330
5
100
AcDbSymbolTableRecord
100
AcDbLinetypeTableRecord
  2
PHANTOMX2
 70
     0
  3
Phantom (2x) ____________    ____    ____   _
 72
    65
 73
     6
 40
5.0
 49
2.5
 74
     0
 49
-0.5
 74
     0
 49
0.5
 74
     0
 49
-0.5
 74
     0
 49
0.5
 74
     0
 49
-0.5
 74
     0
  0
LTYPE
  5
913
330
5
100
AcDbSymbolTableRecord
100
AcDbLinetypeTableRecord
  2
ZIGZAG
 70
     0
  3
Zig zag /\/\/\/\/\/\/\/\/\/\/\/\/\/\/\/\/\/\/\/
 72
    65
 73
     4
 40
0.8001000000000001
 49
0.0001
 74
     0
 49
-0.2
 74
     4
 75
   131
340
927
 46
0.2
 50
0.0
 44
-0.2
 45
0.0
 49
-0.4
 74
     4
 75
   131
340
927
 46
0.2
 50
180.0
 44
0.2
 45
0.0
 49
-0.2
 74
     0
  0
LTYPE
  5
914
330
5
100
AcDbSymbolTableRecord
100
AcDbLinetypeTableRecord
  2
CPFLEX
 70
     0
  3
CP flex /\/\/\/\/\/\/\/\/\/\/\/\/\/\/\/\/\/\/\/
 72
    65
 73
     4
 40
0.8001000000000001
 49
0.0001
 74
     0
 49
-0.2
 74
     4
 75
   131
340
927
 46
0.2
 50
0.0
 44
-0.2
 45
0.0
 49
-0.4
 74
     4
 75
   131
340
927
 46
0.2
 50
180.0
 44
0.2
 45
0.0
 49
-0.2
 74
     0
  0
LTYPE
  5
915
330
5
100
AcDbSymbolTableRecord
100
AcDbLinetypeTableRecord
  2
CIRC
 70
     0
  3
 ----- ~ ----- ~ ---- ~ -----
 72
    65
 73
     3
 40
9.0
 49
7.0
 74
     0
 49
-1.0
 74
     2
 75
     0
340
11
 46
1.0
 50
0.0
 44
-0.3
 45
-0.6
  9
~
 49
-1.0
 74
     0
  0
LTYPE
  5
916
330
5
100
AcDbSymbolTableRecord
100
AcDbLinetypeTableRecord
  2
DN 010
 70
     0
  3
 DN10  ---- 10 ---- 10 ---- 10 ----
 72
    65
 73
     3
 40
9.0
 49
5.0
 74
     0
 49
-2.0
 74
     2
 75
     0
340
11
 46
1.0
 50
0.0
 44
-0.5
 45
-0.5
  9
10
 49
-2.0
 74
     0
  0
LTYPE
  5
917
330
5
100
AcDbSymbolTableRecord
100
AcDbLinetypeTableRecord
  2
DN 015
 70
     0
  3
 DN15  ---- 15 ---- 15 ---- 15 ----
 72
    65
 73
     3
 40
9.0
 49
5.0
 74
     0
 49
-2.0
 74
     2
 75
     0
340
11
 46
1.0
 50
0.0
 44
-0.5
 45
-0.5
  9
15
 49
-2.0
 74
     0
  0
LTYPE
  5
918
330
5
100
AcDbSymbolTableRecord
100
AcDbLinetypeTableRecord
  2
DN 020
 70
     0
  3
 DN20  ---- 20 ---- 20 ---- 20 ----
 72
    65
 73
     3
 40
9.0
 49
5.0
 74
     0
 49
-2.0
 74
     2
 75
     0
340
11
 46
1.0
 50
0.0
 44
-0.5
 45
-0.5
  9
20
 49
-2.0
 74
     0
  0
LTYPE
  5
919
330
5
100
AcDbSymbolTableRecord
100
AcDbLinetypeTableRecord
  2
DN 025
 70
     0
  3
 DN25  ---- 25 ---- 25 ---- 25 ----
 72
    65
 73
     3
 40
9.0
 49
5.0
 74
     0
 49
-2.0
 74
     2
 75
     0
340
11
 46
1.0
 50
0.0
 44
-0.5
 45
-0.5
  9
25
 49
-2.0
 74
     0
  0
LTYPE
  5
91A
330
5
100
AcDbSymbolTableRecord
100
AcDbLinetypeTableRecord
  2
DN 032
 70
     0
  3
 DN32  ---- 32 ---- 32 ---- 32 ----
 72
    65
 73
     3
 40
9.0
 49
5.0
 74
     0
 49
-2.0
 74
     2
 75
     0
340
11
 46
1.0
 50
0.0
 44
-0.5
 45
-0.5
  9
32
 49
-2.0
 74
     0
  0
LTYPE
  5
91B
330
5
100
AcDbSymbolTableRecord
100
AcDbLinetypeTableRecord
  2
DN 040
 70
     0
  3
 DN40  ---- 40 ---- 40 ---- 40 ----
 72
    65
 73
     3
 40
9.0
 49
5.0
 74
     0
 49
-2.0
 74
     2
 75
     0
340
11
 46
1.0
 50
0.0
 44
-0.5
 45
-0.5
  9
40
 49
-2.0
 74
     0
  0
LTYPE
  5
91C
330
5
100
AcDbSymbolTableRecord
100
AcDbLinetypeTableRecord
  2
DN 050
 70
     0
  3
 DN50  ---- 50 ---- 50 ---- 50 ----
 72
    65
 73
     3
 40
9.0
 49
5.0
 74
     0
 49
-2.0
 74
     2
 75
     0
340
11
 46
1.0
 50
0.0
 44
-0.5
 45
-0.5
  9
50
 49
-2.0
 74
     0
  0
LTYPE
  5
91D
330
5
100
AcDbSymbolTableRecord
100
AcDbLinetypeTableRecord
  2
DN 065
 70
     0
  3
 DN65  ---- 65 ---- 65 ---- 65 ----
 72
    65
 73
     3
 40
9.0
 49
5.0
 74
     0
 49
-2.0
 74
     2
 75
     0
340
11
 46
1.0
 50
0.0
 44
-0.5
 45
-0.5
  9
65
 49
-2.0
 74
     0
  0
LTYPE
  5
91E
330
5
100
AcDbSymbolTableRecord
100
AcDbLinetypeTableRecord
  2
DN 080
 70
     0
  3
 DN80  ---- 80 ---- 80 ---- 80 ----
 72
    65
 73
     3
 40
9.0
 49
5.0
 74
     0
 49
-2.0
 74
     2
 75
     0
340
11
 46
1.0
 50
0.0
 44
-0.5
 45
-0.5
  9
80
 49
-2.0
 74
     0
  0
LTYPE
  5
91F
330
5
100
AcDbSymbolTableRecord
100
AcDbLinetypeTableRecord
  2
DN 100
 70
     0
  3
 DN100 ---- 100 --- 100 --- 100 ---
 72
    65
 73
     3
 40
9.0
 49
5.0
 74
     0
 49
-2.0
 74
     2
 75
     0
340
11
 46
1.0
 50
0.0
 44
-1.0
 45
-0.5
  9
100
 49
-2.0
 74
     0
  0
LTYPE
  5
920
330
5
100
AcDbSymbolTableRecord
100
AcDbLinetypeTableRecord
  2
DN 125
 70
     0
  3
 DN125 ---- 125 --- 125 --- 125 ---
 72
    65
 73
     3
 40
9.0
 49
5.0
 74
     0
 49
-2.0
 74
     2
 75
     0
340
11
 46
1.0
 50
0.0
 44
-1.0
 45
-0.5
  9
125
 49
-2.0
 74
     0
  0
LTYPE
  5
921
330
5
100
AcDbSymbolTableRecord
100
AcDbLinetypeTableRecord
  2
DN 150
 70
     0
  3
 DN150 ---- 150 --- 150 --- 150 ---
 72
    65
 73
     3
 40
9.0
 49
5.0
 74
     0
 49
-2.0
 74
     2
 75
     0
340
11
 46
1.0
 50
0.0
 44
-1.0
 45
-0.5
  9
150
 49
-2.0
 74
     0
  0
LTYPE
  5
922
330
5
100
AcDbSymbolTableRecord
100
AcDbLinetypeTableRecord
  2
DN 200
 70
     0
  3
 DN200 ---- 200 --- 200 --- 200 ---
 72
    65
 73
     3
 40
9.0
 49
5.0
 74
     0
 49
-2.0
 74
     2
 75
     0
340
11
 46
1.0
 50
0.0
 44
-1.0
 45
-0.5
  9
200
 49
-2.0
 74
     0
  0
LTYPE
  5
923
330
5
100
AcDbSymbolTableRecord
100
AcDbLinetypeTableRecord
  2
DN 250
 70
     0
  3
 DN250 ---- 250 --- 250 --- 250 ---
 72
    65
 73
     3
 40
9.0
 49
5.0
 74
     0
 49
-2.0
 74
     2
 75
     0
340
11
 46
1.0
 50
0.0
 44
-1.0
 45
-0.5
  9
250
 49
-2.0
 74
     0
  0
LTYPE
  5
924
330
5
100
AcDbSymbolTableRecord
100
AcDbLinetypeTableRecord
  2
DN 300
 70
     0
  3
 DN300 ---- 300 --- 300 --- 300 ---
 72
    65
 73
     3
 40
9.0
 49
5.0
 74
     0
 49
-2.0
 74
     2
 75
     0
340
11
 46
1.0
 50
0.0
 44
-1.0
 45
-0.5
  9
300
 49
-2.0
 74
     0
  0
LTYPE
  5
9D0
330
5
100
AcDbSymbolTableRecord
100
AcDbLinetypeTableRecord
  2
ACISOWELD
 70
     0
  3
_ _ _ _ _
 72
    65
 73
     2
 40
2.0
 49
2.0
 74
     0
 49
-1.0
 74
     0
  0
LTYPE
  5
9D3
330
5
100
AcDbSymbolTableRecord
100
AcDbLinetypeTableRecord
  2
ACISOTGB
 70
     0
  3
__ . . __ . .
 72
    65
 73
     6
 40
9.0
 49
4.0
 74
     0
 49
-1.0
 74
     0
 49
1.0
 74
     0
 49
-1.0
 74
     0
 49
1.0
 74
     0
 49
-1.0
 74
     0
  0
LTYPE
  5
9D4
330
5
100
AcDbSymbolTableRecord
100
AcDbLinetypeTableRecord
  2
ACISOTGL
 70
     0
  3
_ _ _ _ _
 72
    65
 73
     2
 40
3.0
 49
2.0
 74
     0
 49
-1.0
 74
     0
  0
ENDTAB
  0
TABLE
  2
LAYER
  5
2
330
0
100
AcDbSymbolTable
 70
    11
  0
LAYER
  5
10
330
2
100
AcDbSymbolTableRecord
100
AcDbLayerTableRecord
  2
0
 70
     0
 62
     7
  6
Continuous
370
    -3
390
F
  0
LAYER
  5
F0
330
2
100
AcDbSymbolTableRecord
100
AcDbLayerTableRecord
  2
AM_5
 70
     0
 62
     3
  6
Continuous
370
    25
390
F
  0
LAYER
  5
2CC
330
2
100
AcDbSymbolTableRecord
100
AcDbLayerTableRecord
  2
AM_0
 70
     0
 62
     7
  6
Continuous
370
    50
390
F
  0
LAYER
  5
2CD
330
2
100
AcDbSymbolTableRecord
100
AcDbLayerTableRecord
  2
AM_7
 70
     0
 62
     4
  6
AM_DIN_G_W050
370
    25
390
F
  0
LAYER
  5
2CE
330
2
100
AcDbSymbolTableRecord
100
AcDbLayerTableRecord
  2
AM_6
 70
     0
 62
     2
  6
Continuous
370
    35
390
F
  0
LAYER
  5
2CF
330
2
100
AcDbSymbolTableRecord
100
AcDbLayerTableRecord
  2
AM_4
 70
     0
 62
     3
  6
Continuous
370
    25
390
F
  0
LAYER
  5
2D0
330
2
100
AcDbSymbolTableRecord
100
AcDbLayerTableRecord
  2
Defpoints
 70
     0
 62
     7
  6
Continuous
290
     0
370
    -3
390
F
  0
LAYER
  5
2D1
330
2
100
AcDbSymbolTableRecord
100
AcDbLayerTableRecord
  2
UMRISS05
 70
     0
 62
     7
  6
Continuous
370
    -3
390
F
  0
LAYER
  5
2D2
330
2
100
AcDbSymbolTableRecord
100
AcDbLayerTableRecord
  2
6
 70
     0
 62
     2
  6
Continuous
370
    -3
390
F
  0
LAYER
  5
2D3
330
2
100
AcDbSymbolTableRecord
100
AcDbLayerTableRecord
  2
4
 70
     0
 62
     3
  6
Continuous
370
    -3
390
F
  0
LAYER
  5
2D4
330
2
100
AcDbSymbolTableRecord
100
AcDbLayerTableRecord
  2
DN50-0
 70
     0
 62
     7
  6
Continuous
370
    -3
390
F
  0
ENDTAB
  0
TABLE
  2
STYLE
  5
3
330
0
100
AcDbSymbolTable
 70
    17
  0
STYLE
  5
11
330
3
100
AcDbSymbolTableRecord
100
AcDbTextStyleTableRecord
  2
STANDARD
 70
     0
 40
0.0
 41
1.0
 50
0.0
 71
     0
 42
2.5
  3
ISOCP.SHX
  4

  0
STYLE
  5
A7
330
3
100
AcDbSymbolTableRecord
100
AcDbTextStyleTableRecord
  2

 70
     1
 40
0.0
 41
1.0
 50
0.0
 71
     0
 42
2.5
  3
ltypeshp.shx
  4

  0
STYLE
  5
AE
330
3
100
AcDbSymbolTableRecord
100
AcDbTextStyleTableRecord
  2
ACDINTS
 70
     0
 40
1.0
 41
1.0
 50
0.0
 71
     0
 42
2.5
  3
isocp.shx
  4

  0
STYLE
  5
BA
330
3
100
AcDbSymbolTableRecord
100
AcDbTextStyleTableRecord
  2
ACDINGDT
 70
     0
 40
0.0
 41
1.0
 50
0.0
 71
     0
 42
2.5
  3
amgdt.shx
  4

  0
STYLE
  5
23D
330
3
100
AcDbSymbolTableRecord
100
AcDbTextStyleTableRecord
  2
USER1
 70
     0
 40
0.0
 41
1.0
 50
0.0
 71
     0
 42
2.5
  3
TXT.SHX
  4

  0
STYLE
  5
23E
330
3
100
AcDbSymbolTableRecord
100
AcDbTextStyleTableRecord
  2
USER2
 70
     0
 40
0.0
 41
1.0
 50
0.0
 71
     0
 42
2.5
  3
SIMPLEX.SHX
  4

  0
STYLE
  5
23F
330
3
100
AcDbSymbolTableRecord
100
AcDbTextStyleTableRecord
  2
USER3
 70
     0
 40
0.0
 41
1.0
 50
0.0
 71
     0
 42
2.5
  3
ITALIC.SHX
  4

  0
STYLE
  5
925
330
3
100
AcDbSymbolTableRecord
100
AcDbTextStyleTableRecord
  2
Annotative
 70
     0
 40
0.0
 41
1.0
 50
0.0
 71
     0
 42
2.5
  3
ARIAL.TTF
  4

1001
AcadAnnotative
1000
AnnotativeData
1002
{
1070
     1
1070
     1
1002
}
1001
ACAD
1000
Arial
1071
       34
  0
STYLE
  5
926
330
3
100
AcDbSymbolTableRecord
100
AcDbTextStyleTableRecord
  2
CP_TXT
 70
     0
 40
0.0
 41
1.0
 50
0.0
 71
     0
 42
2.5
  3
ROMANS.SHX
  4

  0
STYLE
  5
927
330
3
100
AcDbSymbolTableRecord
100
AcDbTextStyleTableRecord
  2

 70
     1
 40
0.0
 41
1.0
 50
0.0
 71
     0
 42
2.5
  3
LTYPESHP.SHX
  4

  0
STYLE
  5
928
330
3
100
AcDbSymbolTableRecord
100
AcDbTextStyleTableRecord
  2
CP_ATTR
 70
     0
 40
0.0
 41
1.0
 50
0.0
 71
     0
 42
0.2
  3
ROMANS.SHX
  4

  0
STYLE
  5
929
330
3
100
AcDbSymbolTableRecord
100
AcDbTextStyleTableRecord
  2
CP_TXT_IT
 70
     0
 40
0.0
 41
1.0
 50
15.0
 71
     0
 42
2.5
  3
ROMANS.SHX
  4

  0
STYLE
  5
92A
330
3
100
AcDbSymbolTableRecord
100
AcDbTextStyleTableRecord
  2
CP_TXTCON
 70
     0
 40
0.0
 41
0.8
 50
0.0
 71
     0
 42
2.5
  3
ROMANS.SHX
  4

  0
STYLE
  5
92B
330
3
100
AcDbSymbolTableRecord
100
AcDbTextStyleTableRecord
  2
CP_TXTCON_IT
 70
     0
 40
0.0
 41
0.8
 50
15.0
 71
     0
 42
2.5
  3
ROMANS.SHX
  4

  0
STYLE
  5
9CA
330
3
100
AcDbSymbolTableRecord
100
AcDbTextStyleTableRecord
  2
ACISOTS
 70
     0
 40
1.0
 41
1.0
 50
0.0
 71
     0
 42
2.5
  3
isocp.shx
  4
bigfont.shx
  0
STYLE
  5
9CE
330
3
100
AcDbSymbolTableRecord
100
AcDbTextStyleTableRecord
  2
ACISOGDT
 70
     0
 40
0.0
 41
1.0
 50
0.0
 71
     0
 42
2.5
  3
amgdt.shx
  4
bigfont.shx
  0
ENDTAB
  0
TABLE
  2
VIEW
  5
6
330
0
100
AcDbSymbolTable
 70
     0
  0
ENDTAB
  0
TABLE
  2
UCS
  5
7
330
0
100
AcDbSymbolTable
 70
     0
  0
ENDTAB
  0
TABLE
  2
APPID
  5
9
330
0
100
AcDbSymbolTable
 70
    23
  0
APPID
  5
12
330
9
100
AcDbSymbolTableRecord
100
AcDbRegAppTableRecord
  2
ACAD
 70
     0
  0
APPID
  5
82
330
9
100
AcDbSymbolTableRecord
100
AcDbRegAppTableRecord
  2
MCAD_NO_VIS
 70
     0
  0
APPID
  5
83
330
9
100
AcDbSymbolTableRecord
100
AcDbRegAppTableRecord
  2
ACAD_TEMP_GRAPHIC
 70
     0
  0
APPID
  5
94
330
9
100
AcDbSymbolTableRecord
100
AcDbRegAppTableRecord
  2
ACATTRIBSERVICES
 70
     0
  0
APPID
  5
CF
330
9
100
AcDbSymbolTableRecord
100
AcDbRegAppTableRecord
  2
GENIUS_GENSCREG_15
 70
     0
  0
APPID
  5
D0
330
9
100
AcDbSymbolTableRecord
100
AcDbRegAppTableRecord
  2
GENIUS_GENOBJ-N-SDF_13
 70
     0
  0
APPID
  5
D1
330
9
100
AcDbSymbolTableRecord
100
AcDbRegAppTableRecord
  2
GENIUS_GENODEF_13
 70
     0
  0
APPID
  5
125
330
9
100
AcDbSymbolTableRecord
100
AcDbRegAppTableRecord
  2
AD_DRAW
 70
     0
  0
APPID
  5
143
330
9
100
AcDbSymbolTableRecord
100
AcDbRegAppTableRecord
  2
DESIGNERASSEMBLIES
 70
     0
  0
APPID
  5
148
330
9
100
AcDbSymbolTableRecord
100
AcDbRegAppTableRecord
  2
ACADM_DIM_EDIT
 70
     0
  0
APPID
  5
149
330
9
100
AcDbSymbolTableRecord
100
AcDbRegAppTableRecord
  2
AMDT_DM_ADJ
 70
     0
  0
APPID
  5
2D5
330
9
100
AcDbSymbolTableRecord
100
AcDbRegAppTableRecord
  2
GENIUS_GENDTOL_13
 70
     0
  0
APPID
  5
2D6
330
9
100
AcDbSymbolTableRecord
100
AcDbRegAppTableRecord
  2
GENIUS_GENOBJ-N-FIL_13
 70
     0
  0
APPID
  5
2D7
330
9
100
AcDbSymbolTableRecord
100
AcDbRegAppTableRecord
  2
GENIUS_GENOBJ-N-CEN_13
 70
     0
  0
APPID
  5
2D8
330
9
100
AcDbSymbolTableRecord
100
AcDbRegAppTableRecord
  2
GENIUS_GENREC_14
 70
     0
  0
APPID
  5
2D9
330
9
100
AcDbSymbolTableRecord
100
AcDbRegAppTableRecord
  2
GENIUS_GENOBJ-N-REC_13
 70
     0
  0
APPID
  5
92E
330
9
100
AcDbSymbolTableRecord
100
AcDbRegAppTableRecord
  2
ACAD_PSEXT
 70
     0
  0
APPID
  5
92F
330
9
100
AcDbSymbolTableRecord
100
AcDbRegAppTableRecord
  2
AcadAnnoPO
 70
     0
  0
APPID
  5
930
330
9
100
AcDbSymbolTableRecord
100
AcDbRegAppTableRecord
  2
AcadAnnotative
 70
     0
  0
APPID
  5
931
330
9
100
AcDbSymbolTableRecord
100
AcDbRegAppTableRecord
  2
ACAD_DSTYLE_DIMJAG
 70
     0
  0
APPID
  5
932
330
9
100
AcDbSymbolTableRecord
100
AcDbRegAppTableRecord
  2
ACAD_DSTYLE_DIMTALN
 70
     0
  0
APPID
  5
933
330
9
100
AcDbSymbolTableRecord
100
AcDbRegAppTableRecord
  2
ACAD_MLEADERVER
 70
     0
  0
APPID
  5
934
330
9
100
AcDbSymbolTableRecord
100
AcDbRegAppTableRecord
  2
DCO15
 70
     0
  0
ENDTAB
  0
TABLE
  2
DIMSTYLE
  5
A
330
0
100
AcDbSymbolTable
 70
    18
100
AcDbDimStyleTable
 71
     2
340
C2
340
27
  0
DIMSTYLE
105
27
330
A
100
AcDbSymbolTableRecord
100
AcDbDimStyleTableRecord
  2
ISO-25
 70
     0
 41
2.5
 42
0.625
 43
3.75
 44
1.25
 73
     0
 74
     0
 77
     1
 78
     8
140
2.5
141
2.5
143
0.03937007874016
147
0.625
171
     3
172
     1
271
     2
272
     2
274
     3
278
    44
283
     0
284
     8
340
11
  0
DIMSTYLE
105
C2
102
{ACAD_REACTORS
330
5E5
330
5E6
330
5E7
330
5E8
102
}
330
A
100
AcDbSymbolTableRecord
100
AcDbDimStyleTableRecord
  2
AM_DIN
 70
     0
  4
"
 41
2.5
 42
1.0
 43
10.0
 44
1.0
 47
0.1
 48
0.1
 73
     0
 74
     0
 77
     1
 78
     8
 79
     2
140
3.5
141
0.0
143
0.0393701
146
0.71
147
1.5
172
     1
176
   256
177
   256
178
     2
271
     2
272
     3
274
     4
283
     0
284
     8
340
11
371
    -1
372
    -1
  0
DIMSTYLE
105
C3
330
A
100
AcDbSymbolTableRecord
100
AcDbDimStyleTableRecord
  2
AM_DIN$3
 70
     0
  4
"
 41
2.5
 42
1.0
 43
10.0
 44
1.0
 47
0.1
 48
0.1
 73
     0
 77
     1
 78
     8
 79
     2
140
3.5
141
0.0
143
0.0393701
146
0.71
147
1.5
176
   256
177
   256
178
     2
271
     2
272
     3
274
     4
283
     0
284
     8
288
     1
289
     0
340
11
371
    -1
372
    -1
  0
DIMSTYLE
105
C4
330
A
100
AcDbSymbolTableRecord
100
AcDbDimStyleTableRecord
  2
AM_DIN$4
 70
     0
  4
"
 41
2.5
 42
1.0
 43
10.0
 44
1.0
 47
0.1
 48
0.1
 73
     0
 77
     1
 78
     8
 79
     2
140
3.5
141
0.0
143
0.0393701
146
0.71
147
1.5
176
   256
177
   256
178
     2
271
     2
272
     3
274
     4
283
     0
284
     8
288
     1
289
     0
340
11
371
    -1
372
    -1
  0
DIMSTYLE
105
C5
330
A
100
AcDbSymbolTableRecord
100
AcDbDimStyleTableRecord
  2
AM_DIN$6
 70
     0
  4
"
 41
2.5
 42
1.0
 43
10.0
 44
1.0
 47
0.1
 48
0.1
 73
     0
 74
     0
 78
     8
 79
     2
140
3.5
141
0.0
143
0.0393701
146
0.71
147
1.5
172
     1
176
   256
177
   256
178
     2
271
     2
272
     3
274
     4
283
     0
284
     8
340
11
371
    -1
372
    -1
  0
DIMSTYLE
105
C6
330
A
100
AcDbSymbolTableRecord
100
AcDbDimStyleTableRecord
  2
AM_DIN$7
 70
     0
  4
"
 41
2.5
 42
1.0
 43
10.0
 44
1.0
 47
0.1
 48
0.1
 73
     0
 74
     0
 77
     1
 78
     8
 79
     2
140
5.0
141
0.0
143
0.0393701
146
0.71
147
1.5
172
     1
176
   256
177
   256
178
     2
271
     2
272
     3
274
     4
283
     0
284
     8
340
11
371
    -1
372
    -1
  0
DIMSTYLE
105
C7
330
A
100
AcDbSymbolTableRecord
100
AcDbDimStyleTableRecord
  2
AM_DIN$SF
 70
     0
  4
"
 41
2.5
 42
1.0
 43
10.0
 44
1.0
 47
0.1
 48
0.1
 73
     0
 74
     0
 75
     1
 76
     1
 77
     1
 78
     8
 79
     2
140
3.5
141
0.0
143
0.0393701
146
0.71
147
1.5
172
     1
176
   256
177
   256
178
     2
271
     2
272
     3
274
     4
283
     0
284
     8
340
11
371
    -1
372
    -1
  0
DIMSTYLE
105
CC
330
A
100
AcDbSymbolTableRecord
100
AcDbDimStyleTableRecord
  2
AM_DIN$SH
 70
     0
  4
"
 41
2.5
 42
1.0
 43
10.0
 44
1.0
 47
0.1
 48
0.1
 73
     0
 74
     0
 75
     1
 76
     1
 77
     1
 78
     8
 79
     2
140
3.5
141
0.0
143
0.0393701
144
2.0
146
0.71
147
1.5
172
     1
173
     1
176
   256
177
   256
178
     2
271
     2
272
     3
274
     4
283
     0
284
     8
340
11
343
C8
371
    -1
372
    -1
  0
DIMSTYLE
105
92C
330
A
100
AcDbSymbolTableRecord
100
AcDbDimStyleTableRecord
  2
Standard
 70
     0
340
11
  0
DIMSTYLE
105
92D
330
A
100
AcDbSymbolTableRecord
100
AcDbDimStyleTableRecord
  2
Opisowy
 70
     0
 40
0.0
 41
2.5
 42
0.625
 43
3.75
 44
1.25
 73
     0
 74
     0
 77
     1
 78
     8
140
2.5
141
2.5
143
0.03937007874016
147
0.625
171
     3
172
     1
271
     2
272
     2
274
     3
278
    44
283
     0
284
     8
340
11
1001
AcadAnnotative
1000
AnnotativeData
1002
{
1070
     1
1070
     1
1002
}
1001
ACAD_DSTYLE_DIMJAG
1070
   388
1040
1.5
1001
ACAD_DSTYLE_DIMTALN
1070
   392
1070
     0
  0
DIMSTYLE
105
9E5
330
A
100
AcDbSymbolTableRecord
100
AcDbDimStyleTableRecord
  2
AM_ISO
 70
     0
  4
"
 41
2.5
 42
1.0
 43
10.0
 44
1.0
 47
0.1
 48
0.1
 73
     0
 74
     0
 77
     1
 78
     8
 79
     2
140
3.5
141
0.0
143
0.0393701
146
0.71
147
1.5
172
     1
176
   256
177
   256
178
     2
271
     2
272
     3
274
     4
283
     0
284
     8
340
11
371
    -1
372
    -1
  0
DIMSTYLE
105
9E6
330
A
100
AcDbSymbolTableRecord
100
AcDbDimStyleTableRecord
  2
AM_ISO$3
 70
     0
  4
"
 41
2.5
 42
1.0
 43
10.0
 44
1.0
 47
0.1
 48
0.1
 73
     0
 77
     1
 78
     8
 79
     2
140
3.5
141
0.0
143
0.0393701
146
0.71
147
1.5
176
   256
177
   256
178
     2
271
     2
272
     3
274
     4
283
     0
284
     8
288
     1
289
     0
340
11
371
    -1
372
    -1
  0
DIMSTYLE
105
9E7
330
A
100
AcDbSymbolTableRecord
100
AcDbDimStyleTableRecord
  2
AM_ISO$4
 70
     0
  4
"
 41
2.5
 42
1.0
 43
10.0
 44
1.0
 47
0.1
 48
0.1
 73
     0
 77
     1
 78
     8
 79
     2
140
3.5
141
0.0
143
0.0393701
146
0.71
147
1.5
176
   256
177
   256
178
     2
271
     2
272
     3
274
     4
283
     0
284
     8
288
     1
289
     0
340
11
371
    -1
372
    -1
  0
DIMSTYLE
105
9E8
330
A
100
AcDbSymbolTableRecord
100
AcDbDimStyleTableRecord
  2
AM_ISO$6
 70
     0
  4
"
 41
2.5
 42
1.0
 43
10.0
 44
1.0
 47
0.1
 48
0.1
 73
     0
 74
     0
 78
     8
 79
     2
140
3.5
141
0.0
143
0.0393701
146
0.71
147
1.5
172
     1
176
   256
177
   256
178
     2
271
     2
272
     3
274
     4
283
     0
284
     8
340
11
371
    -1
372
    -1
  0
DIMSTYLE
105
9E9
330
A
100
AcDbSymbolTableRecord
100
AcDbDimStyleTableRecord
  2
AM_ISO$7
 70
     0
  4
"
 41
2.5
 42
1.0
 43
10.0
 44
1.0
 47
0.1
 48
0.1
 73
     0
 74
     0
 77
     1
 78
     8
 79
     2
140
5.0
141
0.0
143
0.0393701
146
0.71
147
1.5
172
     1
176
   256
177
   256
178
     2
271
     2
272
     3
274
     4
283
     0
284
     8
340
11
371
    -1
372
    -1
  0
DIMSTYLE
105
9EA
330
A
100
AcDbSymbolTableRecord
100
AcDbDimStyleTableRecord
  2
AM_ISO$SF
 70
     0
  4
"
 41
2.5
 42
1.0
 43
10.0
 44
1.0
 47
0.1
 48
0.1
 73
     0
 74
     0
 75
     1
 76
     1
 77
     1
 78
     8
 79
     2
140
3.5
141
0.0
143
0.0393701
146
0.71
147
1.5
172
     1
176
   256
177
   256
178
     2
271
     2
272
     3
274
     4
283
     0
284
     8
340
11
371
    -1
372
    -1
  0
DIMSTYLE
105
9EB
330
A
100
AcDbSymbolTableRecord
100
AcDbDimStyleTableRecord
  2
AM_ISO$SH
 70
     0
  4
"
 41
2.5
 42
1.0
 43
10.0
 44
1.0
 47
0.1
 48
0.1
 73
     0
 74
     0
 75
     1
 76
     1
 77
     1
 78
     8
 79
     2
140
3.5
141
0.0
143
0.0393701
144
2.0
146
0.71
147
1.5
172
     1
173
     1
176
   256
177
   256
178
     2
271
     2
272
     3
274
     4
283
     0
284
     8
340
11
343
C8
371
    -1
372
    -1
  0
ENDTAB
  0
TABLE
  2
BLOCK_RECORD
  5
1
330
0
100
AcDbSymbolTable
 70
     8
  0
BLOCK_RECORD
  5
1F
102
{ACAD_XDICTIONARY
360
D5
102
}
330
1
100
AcDbSymbolTableRecord
100
AcDbBlockTableRecord
  2
*Model_Space
340
22
  0
BLOCK_RECORD
  5
55
330
1
100
AcDbSymbolTableRecord
100
AcDbBlockTableRecord
  2
*Paper_Space
340
56
  0
BLOCK_RECORD
  5
50
330
1
100
AcDbSymbolTableRecord
100
AcDbBlockTableRecord
  2
*Paper_Space0
340
51
  0
BLOCK_RECORD
  5
C8
330
1
100
AcDbSymbolTableRecord
100
AcDbBlockTableRecord
  2
GENAXEH
340
0
  0
BLOCK_RECORD
  5
889
330
1
100
AcDbSymbolTableRecord
100
AcDbBlockTableRecord
  2
*D2
340
0
  0
BLOCK_RECORD
  5
896
330
1
100
AcDbSymbolTableRecord
100
AcDbBlockTableRecord
  2
*D3
340
0
  0
BLOCK_RECORD
  5
8A2
330
1
100
AcDbSymbolTableRecord
100
AcDbBlockTableRecord
  2
*D4
340
0
  0
BLOCK_RECORD
  5
8AE
330
1
100
AcDbSymbolTableRecord
100
AcDbBlockTableRecord
  2
*D5
340
0
  0
ENDTAB
  0
ENDSEC
  0
SECTION
  2
BLOCKS
  0
BLOCK
  5
20
330
1F
100
AcDbEntity
  8
0
100
AcDbBlockBegin
  2
*Model_Space
 70
     0
 10
0.0
 20
0.0
 30
0.0
  3
*Model_Space
  1

  0
ENDBLK
  5
21
330
1F
100
AcDbEntity
  8
0
100
AcDbBlockEnd
  0
BLOCK
  5
57
330
55
100
AcDbEntity
 67
     1
  8
0
100
AcDbBlockBegin
  2
*Paper_Space
 70
     0
 10
0.0
 20
0.0
 30
0.0
  3
*Paper_Space
  1

  0
ENDBLK
  5
58
330
55
100
AcDbEntity
 67
     1
  8
0
100
AcDbBlockEnd
  0
BLOCK
  5
52
330
50
100
AcDbEntity
 67
     1
  8
0
100
AcDbBlockBegin
  2
*Paper_Space0
 70
     0
 10
0.0
 20
0.0
 30
0.0
  3
*Paper_Space0
  1

  0
VIEWPORT
  5
69
330
50
100
AcDbEntity
 67
     1
  8
0
100
AcDbViewport
 10
128.5
 20
97.5
 30
0.0
 40
384.7606204379562
 41
222.18
 68
     0
 69
     0
 12
128.5
 22
97.5
 13
0.0
 23
0.0
 14
10.0
 24
10.0
 15
10.0
 25
10.0
 16
0.0
 26
0.0
 36
1.0
 17
0.0
 27
0.0
 37
0.0
 42
50.0
 43
0.0
 44
0.0
 45
222.18
 50
0.0
 51
0.0
 72
   100
 90
    32800
  1

281
     0
 71
     1
 74
     0
110
0.0
120
0.0
130
0.0
111
1.0
121
0.0
131
0.0
112
0.0
122
1.0
132
0.0
 79
     0
146
0.0
170
     0
1001
GENIUS_GENOBJ-N-SDF_13
1002
{
1000
OWNER
1000
GEN
1002
}
1001
GENIUS_GENODEF_13
1002
{
1000
HIER
1070
     0
1002
}
1002
{
1000
MANEDIT
1070
     0
1002
}
1002
{
1000
NOSEL
1070
     0
1002
}
1002
{
1000
BEHIND
1070
     0
1002
}
1002
{
1000
OTHER
1070
     0
1002
}
1002
{
1000
REACTOR
1002
}
1001
GENIUS_GENSCREG_15
1000
PF
1040
1.0
1000
DF
1040
1.0
1000
MIN
1011
-63.88031021897808
1021
-13.59
1031
0.0
1000
MAX
1011
320.8803102189782
1021
208.59
1031
0.0
1000
FLAGS
1070
     2
  0
VIEWPORT
  5
6B
330
50
100
AcDbEntity
 67
     1
  8
0
100
AcDbViewport
 10
128.5
 20
97.5
 30
0.0
 40
205.6
 41
156.0
 68
     0
 69
     0
 12
210.0
 22
148.5
 13
0.0
 23
0.0
 14
10.0
 24
10.0
 15
10.0
 25
10.0
 16
0.0
 26
0.0
 36
1.0
 17
0.0
 27
0.0
 37
0.0
 42
50.0
 43
0.0
 44
0.0
 45
322.4558219652112
 50
0.0
 51
0.0
 72
   100
 90
    32864
  1

281
     0
 71
     1
 74
     0
110
0.0
120
0.0
130
0.0
111
1.0
121
0.0
131
0.0
112
0.0
122
1.0
132
0.0
 79
     0
146
0.0
170
     0
1001
GENIUS_GENOBJ-N-SDF_13
1002
{
1000
OWNER
1000
GEN
1002
}
1001
GENIUS_GENODEF_13
1002
{
1000
HIER
1070
     0
1002
}
1002
{
1000
MANEDIT
1070
     0
1002
}
1002
{
1000
NOSEL
1070
     0
1002
}
1002
{
1000
BEHIND
1070
     0
1002
}
1002
{
1000
OTHER
1070
     0
1002
}
1002
{
1000
REACTOR
1002
}
1001
GENIUS_GENSCREG_15
1000
PF
1040
0.0
1000
DF
1040
0.0
1000
MIN
1011
25.70000000000002
1021
19.5
1031
0.0
1000
MAX
1011
231.3
1021
175.5
1031
0.0
1000
FLAGS
1070
     2
  0
ENDBLK
  5
53
330
50
100
AcDbEntity
 67
     1
  8
0
100
AcDbBlockEnd
  0
BLOCK
  5
9C3
330
C8
100
AcDbEntity
  8
0
100
AcDbBlockBegin
  2
GENAXEH
 70
     0
 10
0.0
 20
0.0
 30
0.0
  3
GENAXEH
  1

  0
LINE
  5
9C4
330
C8
100
AcDbEntity
  8
0
100
AcDbLine
 10
-1.0
 20
0.0
 30
0.0
 11
1.0
 21
0.0
 31
0.0
  0
ENDBLK
  5
9C5
330
C8
100
AcDbEntity
  8
0
100
AcDbBlockEnd
  0
BLOCK
  5
894
330
889
100
AcDbEntity
  8
0
100
AcDbBlockBegin
  2
*D2
 70
     1
 10
0.0
 20
0.0
 30
0.0
  3
*D2
  1

  0
LINE
  5
8BA
330
889
100
AcDbEntity
  8
AM_5
100
AcDbLine
 10
647.9020259443614
 20
284.4088082969664
 30
0.0
 11
647.9020259443614
 21
260.5065299954789
 31
0.0
  0
LINE
  5
8BB
330
889
100
AcDbEntity
  8
AM_5
100
AcDbLine
 10
672.8162209747365
 20
284.4088082969664
 30
0.0
 11
672.8162209747365
 21
260.5065299954789
 31
0.0
  0
LINE
  5
8BC
330
889
100
AcDbEntity
  8
AM_5
100
AcDbLine
 10
669.0662209747365
 20
263.5065299954789
 30
0.0
 11
651.6520259443614
 21
263.5065299954789
 31
0.0
  0
LINE
  5
8BD
330
889
100
AcDbEntity
  8
AM_5
100
AcDbLine
 10
647.9020259443614
 20
263.5065299954789
 30
0.0
 11
607.6270259443614
 21
263.5065299954789
 31
0.0
  0
SOLID
  5
8BE
330
889
100
AcDbEntity
  8
AM_5
100
AcDbTrace
 10
669.0662209747365
 20
264.1315299954789
 30
0.0
 11
669.0662209747365
 21
262.8815299954789
 31
0.0
 12
672.8162209747365
 22
263.5065299954789
 32
0.0
 13
672.8162209747365
 23
263.5065299954789
 33
0.0
  0
SOLID
  5
8BF
330
889
100
AcDbEntity
  8
AM_5
100
AcDbTrace
 10
651.6520259443614
 20
264.1315299954789
 30
0.0
 11
651.6520259443614
 21
262.8815299954789
 31
0.0
 12
647.9020259443614
 22
263.5065299954789
 32
0.0
 13
647.9020259443614
 23
263.5065299954789
 33
0.0
  0
MTEXT
  5
8C0
330
889
100
AcDbEntity
  8
AM_5
 62
     2
100
AcDbMText
 10
625.8895259443614
 20
273.0195467277624
 30
0.0
 40
5.25
 41
0.0
 71
     5
 72
     1
  1
EN 10226-1\PR¾
 73
     1
 44
1.0
  0
POINT
  5
8C1
330
889
100
AcDbEntity
  8
Defpoints
 62
     0
100
AcDbPoint
 10
647.9020259443614
 20
284.4088082969664
 30
0.0
  0
POINT
  5
8C2
330
889
100
AcDbEntity
  8
Defpoints
 62
     0
100
AcDbPoint
 10
672.8162209747365
 20
284.4088082969664
 30
0.0
  0
POINT
  5
8C3
330
889
100
AcDbEntity
  8
Defpoints
 62
     0
100
AcDbPoint
 10
672.8162209747365
 20
263.5065299954789
 30
0.0
  0
ENDBLK
  5
895
330
889
100
AcDbEntity
  8
0
100
AcDbBlockEnd
  0
BLOCK
  5
8A0
330
896
100
AcDbEntity
  8
0
100
AcDbBlockBegin
  2
*D3
 70
     1
 10
0.0
 20
0.0
 30
0.0
  3
*D3
  1

  0
LINE
  5
8C4
330
896
100
AcDbEntity
  8
AM_5
100
AcDbLine
 10
660.3591234595487
 20
737.9356575527703
 30
0.0
 11
499.4047378025965
 21
737.9356575527703
 31
0.0
  0
LINE
  5
8C5
330
896
100
AcDbEntity
  8
AM_5
100
AcDbLine
 10
660.3591234595482
 20
304.9356575527704
 30
0.0
 11
499.4047378025964
 21
304.9356575527704
 31
0.0
  0
LINE
  5
8C6
330
896
100
AcDbEntity
  8
AM_5
100
AcDbLine
 10
502.4047378025965
 20
734.1856575527701
 30
0.0
 11
502.4047378025963
 21
308.6856575527704
 31
0.0
  0
SOLID
  5
8C7
330
896
100
AcDbEntity
  8
AM_5
100
AcDbTrace
 10
501.7797378025965
 20
734.1856575527701
 30
0.0
 11
503.0297378025965
 21
734.1856575527701
 31
0.0
 12
502.4047378025965
 22
737.9356575527703
 32
0.0
 13
502.4047378025965
 23
737.9356575527703
 33
0.0
  0
SOLID
  5
8C8
330
896
100
AcDbEntity
  8
AM_5
100
AcDbTrace
 10
501.7797378025965
 20
308.6856575527704
 30
0.0
 11
503.0297378025964
 21
308.6856575527704
 31
0.0
 12
502.4047378025963
 22
304.9356575527704
 32
0.0
 13
502.4047378025963
 23
304.9356575527704
 33
0.0
  0
MTEXT
  5
8C9
330
896
100
AcDbEntity
  8
AM_5
 62
     2
100
AcDbMText
 10
497.5297378025963
 20
520.3733859444471
 30
0.0
 40
5.25
 41
0.0
 71
     5
 72
     1
  1
433 {}{\C2;%%p3}
 11
0.0000000000000001
 21
1.0
 31
0.0
 73
     1
 44
1.0
  0
POINT
  5
8CA
330
896
100
AcDbEntity
  8
Defpoints
 62
     0
100
AcDbPoint
 10
660.3591234595487
 20
737.9356575527703
 30
0.0
  0
POINT
  5
8CB
330
896
100
AcDbEntity
  8
Defpoints
 62
     0
100
AcDbPoint
 10
660.3591234595482
 20
304.9356575527704
 30
0.0
  0
POINT
  5
8CC
330
896
100
AcDbEntity
  8
Defpoints
 62
     0
100
AcDbPoint
 10
502.4047378025963
 20
304.9356575527704
 30
0.0
  0
ENDBLK
  5
8A1
330
896
100
AcDbEntity
  8
0
100
AcDbBlockEnd
  0
BLOCK
  5
8AC
330
8A2
100
AcDbEntity
  8
0
100
AcDbBlockBegin
  2
*D4
 70
     1
 10
0.0
 20
0.0
 30
0.0
  3
*D4
  1

  0
LINE
  5
8CD
330
8A2
100
AcDbEntity
  8
AM_5
100
AcDbLine
 10
649.16141807886
 20
283.1323534004803
 30
0.0
 11
482.0011868920323
 21
283.1323534004804
 31
0.0
  0
LINE
  5
8CE
330
8A2
100
AcDbEntity
  8
AM_5
100
AcDbLine
 10
660.3591234595487
 20
748.2703934539216
 30
0.0
 11
482.0011868920324
 21
748.2703934539216
 31
0.0
  0
LINE
  5
8CF
330
8A2
100
AcDbEntity
  8
AM_5
100
AcDbLine
 10
485.0011868920323
 20
286.8823534004804
 30
0.0
 11
485.0011868920323
 21
744.5203934539216
 31
0.0
  0
SOLID
  5
8D0
330
8A2
100
AcDbEntity
  8
AM_5
100
AcDbTrace
 10
484.3761868920323
 20
286.8823534004804
 30
0.0
 11
485.6261868920323
 21
286.8823534004804
 31
0.0
 12
485.0011868920323
 22
283.1323534004804
 32
0.0
 13
485.0011868920323
 23
283.1323534004804
 33
0.0
  0
SOLID
  5
8D1
330
8A2
100
AcDbEntity
  8
AM_5
100
AcDbTrace
 10
484.3761868920323
 20
744.5203934539216
 30
0.0
 11
485.6261868920324
 21
744.5203934539216
 31
0.0
 12
485.0011868920323
 22
748.2703934539216
 32
0.0
 13
485.0011868920323
 23
748.2703934539216
 33
0.0
  0
MTEXT
  5
8D2
330
8A2
100
AcDbEntity
  8
AM_5
 62
     2
100
AcDbMText
 10
480.1261868920323
 20
513.4752001177039
 30
0.0
 40
5.25
 41
0.0
 71
     5
 72
     1
  1
465 {}{\C2;%%p5}
 11
0.0000000000000001
 21
1.0
 31
0.0
 73
     1
 44
1.0
  0
POINT
  5
8D3
330
8A2
100
AcDbEntity
  8
Defpoints
 62
     0
100
AcDbPoint
 10
649.16141807886
 20
283.1323534004803
 30
0.0
  0
POINT
  5
8D4
330
8A2
100
AcDbEntity
  8
Defpoints
 62
     0
100
AcDbPoint
 10
660.3591234595487
 20
748.2703934539216
 30
0.0
  0
POINT
  5
8D5
330
8A2
100
AcDbEntity
  8
Defpoints
 62
     0
100
AcDbPoint
 10
485.0011868920323
 20
748.2703934539216
 30
0.0
  0
ENDBLK
  5
8AD
330
8A2
100
AcDbEntity
  8
0
100
AcDbBlockEnd
  0
BLOCK
  5
8B8
330
8AE
100
AcDbEntity
  8
0
100
AcDbBlockBegin
  2
*D5
 70
     1
 10
0.0
 20
0.0
 30
0.0
  3
*D5
  1

  0
LINE
  5
8D6
330
8AE
100
AcDbEntity
  8
AM_5
100
AcDbLine
 10
520.3591234616369
 20
656.2095486174306
 30
0.0
 11
520.3591234616369
 21
623.8811682859011
 31
0.0
  0
LINE
  5
8D7
330
8AE
100
AcDbEntity
  8
AM_5
100
AcDbLine
 10
800.3591234574605
 20
656.2095486174306
 30
0.0
 11
800.3591234574605
 21
623.8811682859011
 31
0.0
  0
LINE
  5
8D8
330
8AE
100
AcDbEntity
  8
AM_5
100
AcDbLine
 10
524.1091234616369
 20
626.8811682859011
 30
0.0
 11
796.6091234574605
 21
626.8811682859011
 31
0.0
  0
SOLID
  5
8D9
330
8AE
100
AcDbEntity
  8
AM_5
100
AcDbTrace
 10
524.1091234616369
 20
627.5061682859011
 30
0.0
 11
524.1091234616369
 21
626.2561682859011
 31
0.0
 12
520.3591234616369
 22
626.8811682859011
 32
0.0
 13
520.3591234616369
 23
626.8811682859011
 33
0.0
  0
SOLID
  5
8DA
330
8AE
100
AcDbEntity
  8
AM_5
100
AcDbTrace
 10
796.6091234574605
 20
627.5061682859011
 30
0.0
 11
796.6091234574605
 21
626.2561682859011
 31
0.0
 12
800.3591234574605
 22
626.8811682859011
 32
0.0
 13
800.3591234574605
 23
626.8811682859011
 33
0.0
  0
MTEXT
  5
8DB
330
8AE
100
AcDbEntity
  8
AM_5
 62
     2
100
AcDbMText
 10
633.1642559409001
 20
631.7566850181846
 30
0.0
 40
5.25
 41
0.0
 71
     5
 72
     1
  1
ø280
 73
     1
 44
1.0
  0
POINT
  5
8DC
330
8AE
100
AcDbEntity
  8
Defpoints
 62
     0
100
AcDbPoint
 10
520.3591234616369
 20
656.2095486174306
 30
0.0
  0
POINT
  5
8DD
330
8AE
100
AcDbEntity
  8
Defpoints
 62
     0
100
AcDbPoint
 10
800.3591234574605
 20
656.2095486174306
 30
0.0
  0
POINT
  5
8DE
330
8AE
100
AcDbEntity
  8
Defpoints
 62
     0
100
AcDbPoint
 10
800.3591234574605
 20
626.8811682859011
 30
0.0
  0
ENDBLK
  5
8B9
330
8AE
100
AcDbEntity
  8
0
100
AcDbBlockEnd
  0
ENDSEC
  0
SECTION
  2
ENTITIES
  0
ARC
  5
5B8
330
1F
100
AcDbEntity
  8
AM_0
100
AcDbCircle
 10
660.3591234595487
 20
531.9356575527701
 30
0.0
 40
206.0
100
AcDbArc
 50
90.0
 51
124.0557977416248
  0
ARC
  5
5B9
330
1F
100
AcDbEntity
  8
AM_0
100
AcDbCircle
 10
660.3591234595487
 20
531.9356575527701
 30
0.0
 40
206.0
100
AcDbArc
 50
55.94420225837512
 51
90.0
  0
LINE
  5
5BA
330
1F
100
AcDbEntity
  8
AM_7
100
AcDbLine
 10
660.3591234595487
 20
761.142020479435
 30
0.0
 11
660.3591234595483
 21
269.6074914376591
 31
0.0
1001
GENIUS_GENOBJ-N-CEN_13
1002
{
1000
OWNER
1000
GEN
1002
}
1001
GENIUS_GENODEF_13
1002
{
1000
HIER
1070
     0
1002
}
1002
{
1000
MANEDIT
1070
     0
1002
}
1002
{
1000
NOSEL
1070
     0
1002
}
1002
{
1000
BEHIND
1070
     0
1002
}
1002
{
1000
OTHER
1070
     0
1002
}
1002
{
1000
REACTOR
1002
}
  0
ARC
  5
5BB
330
1F
100
AcDbEntity
  8
AM_0
100
AcDbCircle
 10
660.3591234595487
 20
510.9356575527701
 30
0.0
 40
206.0
100
AcDbArc
 50
235.9442022583751
 51
267.4959893095176
  0
LINE
  5
5BC
330
1F
100
AcDbEntity
  8
AM_0
100
AcDbLine
 10
520.359123461636
 20
524.9356575527692
 30
0.0
 11
520.359123461636
 21
505.5258274965184
 31
0.0
  0
ARC
  5
5BD
330
1F
100
AcDbEntity
  8
AM_0
100
AcDbCircle
 10
576.359123461636
 20
386.6617664881119
 30
0.0
 40
56.0
100
AcDbArc
 50
180.0
 51
235.9442022583751
1001
GENIUS_GENODEF_13
1002
{
1000
HIER
1070
     0
1002
}
1002
{
1000
MANEDIT
1070
     0
1002
}
1002
{
1000
NOSEL
1070
     0
1002
}
1002
{
1000
BEHIND
1070
     0
1002
}
1002
{
1000
OTHER
1070
     0
1002
}
1002
{
1000
REACTOR
1002
}
1001
GENIUS_GENOBJ-N-FIL_13
1002
{
1000
OWNER
1000
GEN
1002
}
  0
ARC
  5
5BE
330
1F
100
AcDbEntity
  8
AM_0
100
AcDbCircle
 10
517.8591234616369
 20
494.3454876090203
 30
0.0
 40
2.5
100
AcDbArc
 50
0.0
 51
48.18968510422956
1001
GENIUS_GENODEF_13
1002
{
1000
HIER
1070
     0
1002
}
1002
{
1000
MANEDIT
1070
     0
1002
}
1002
{
1000
NOSEL
1070
     0
1002
}
1002
{
1000
BEHIND
1070
     0
1002
}
1002
{
1000
OTHER
1070
     0
1002
}
1002
{
1000
REACTOR
1002
}
1001
GENIUS_GENOBJ-N-FIL_13
1002
{
1000
OWNER
1000
GEN
1002
}
  0
ARC
  5
5BF
330
1F
100
AcDbEntity
  8
AM_0
100
AcDbCircle
 10
517.8591234616351
 20
505.5258274965193
 30
0.0
 40
2.5
100
AcDbArc
 50
311.810314895798
 51
0.0
1001
GENIUS_GENOBJ-N-FIL_13
1002
{
1000
OWNER
1000
GEN
1002
}
1001
GENIUS_GENODEF_13
1002
{
1000
HIER
1070
     0
1002
}
1002
{
1000
MANEDIT
1070
     0
1002
}
1002
{
1000
NOSEL
1070
     0
1002
}
1002
{
1000
BEHIND
1070
     0
1002
}
1002
{
1000
OTHER
1070
     0
1002
}
1002
{
1000
REACTOR
1002
}
  0
ARC
  5
5C0
330
1F
100
AcDbEntity
  8
AM_0
100
AcDbCircle
 10
522.8591234616351
 20
499.9356575527703
 30
0.0
 40
5.0
100
AcDbArc
 50
131.8103148957704
 51
228.1896851042296
  0
LINE
  5
5C1
330
1F
100
AcDbEntity
  8
AM_0
100
AcDbLine
 10
520.359123461636
 20
494.3454876090185
 30
0.0
 11
520.359123461636
 21
386.6617664881128
 31
0.0
  0
ARC
  5
5C2
330
1F
100
AcDbEntity
  8
AM_0
100
AcDbCircle
 10
576.3591234616369
 20
656.2095486174297
 30
0.0
 40
56.0
100
AcDbArc
 50
124.0557977416167
 51
180.0
1001
GENIUS_GENODEF_13
1002
{
1000
HIER
1070
     0
1002
}
1002
{
1000
MANEDIT
1070
     0
1002
}
1002
{
1000
NOSEL
1070
     0
1002
}
1002
{
1000
BEHIND
1070
     0
1002
}
1002
{
1000
OTHER
1070
     0
1002
}
1002
{
1000
REACTOR
1002
}
1001
GENIUS_GENOBJ-N-FIL_13
1002
{
1000
OWNER
1000
GEN
1002
}
  0
LINE
  5
5C3
330
1F
100
AcDbEntity
  8
AM_0
100
AcDbLine
 10
520.3591234616369
 20
656.2095486174306
 30
0.0
 11
520.3591234616369
 21
527.5036067451976
 31
0.0
  0
LINE
  5
5C4
330
1F
100
AcDbEntity
  8
AM_0
100
AcDbLine
 10
520.359123461636
 20
524.9356575527692
 30
0.0
 11
521.359123461636
 21
524.9356575527692
 31
0.0
  0
ARC
  5
5C5
330
1F
100
AcDbEntity
  8
AM_0
100
AcDbCircle
 10
522.3591234616351
 20
527.5036067451976
 30
0.0
 40
2.0
100
AcDbArc
 50
180.0
 51
209.9999999999961
1001
GENIUS_GENOBJ-N-FIL_13
1002
{
1000
OWNER
1000
GEN
1002
}
1001
GENIUS_GENODEF_13
1002
{
1000
HIER
1070
     0
1002
}
1002
{
1000
MANEDIT
1070
     0
1002
}
1002
{
1000
NOSEL
1070
     0
1002
}
1002
{
1000
BEHIND
1070
     0
1002
}
1002
{
1000
OTHER
1070
     0
1002
}
1002
{
1000
REACTOR
1002
}
  0
LINE
  5
5C6
330
1F
100
AcDbEntity
  8
AM_0
100
AcDbLine
 10
521.225148865421
 20
525.4677083603366
 30
0.0
 11
520.627072654067
 21
526.5036067451967
 31
0.0
  0
ARC
  5
5C7
330
1F
100
AcDbEntity
  8
AM_0
100
AcDbCircle
 10
520.3591234616351
 20
524.9677083603377
 30
0.0
 40
1.0
100
AcDbArc
 50
0.0
 51
29.99999999999609
1001
GENIUS_GENOBJ-N-FIL_13
1002
{
1000
OWNER
1000
GEN
1002
}
1001
GENIUS_GENODEF_13
1002
{
1000
HIER
1070
     0
1002
}
1002
{
1000
MANEDIT
1070
     0
1002
}
1002
{
1000
NOSEL
1070
     0
1002
}
1002
{
1000
BEHIND
1070
     0
1002
}
1002
{
1000
OTHER
1070
     0
1002
}
1002
{
1000
REACTOR
1002
}
  0
LINE
  5
5C8
330
1F
100
AcDbEntity
  8
AM_6
100
AcDbLine
 10
660.3591234595483
 20
495.6055305338471
 30
0.0
 11
798.3591234574605
 21
495.6055305338471
 31
0.0
  0
LINE
  5
5C9
330
1F
100
AcDbEntity
  8
AM_6
100
AcDbLine
 10
660.3591234595485
 20
504.2657845716916
 30
0.0
 11
798.3591234574605
 21
504.2657845716916
 31
0.0
  0
LINE
  5
5CA
330
1F
100
AcDbEntity
  8
AM_0
100
AcDbLine
 10
660.3591234595485
 20
524.9356575527698
 30
0.0
 11
800.3591234574605
 21
524.9356575527692
 31
0.0
  0
ARC
  5
5CB
330
1F
100
AcDbEntity
  8
AM_0
100
AcDbCircle
 10
660.3591234595487
 20
510.9356575527701
 30
0.0
 40
206.0
100
AcDbArc
 50
272.5040106904824
 51
304.0557977416249
  0
LINE
  5
5CC
330
1F
100
AcDbEntity
  8
AM_0
100
AcDbLine
 10
800.3591234574605
 20
524.9356575527692
 30
0.0
 11
800.3591234574605
 21
505.5258274965184
 31
0.0
  0
ARC
  5
5CD
330
1F
100
AcDbEntity
  8
AM_0
100
AcDbCircle
 10
744.3591234574605
 20
386.661766488111
 30
0.0
 40
56.0
100
AcDbArc
 50
304.0557977416167
 51
0.0
1001
GENIUS_GENODEF_13
1002
{
1000
HIER
1070
     0
1002
}
1002
{
1000
MANEDIT
1070
     0
1002
}
1002
{
1000
NOSEL
1070
     0
1002
}
1002
{
1000
BEHIND
1070
     0
1002
}
1002
{
1000
OTHER
1070
     0
1002
}
1002
{
1000
REACTOR
1002
}
1001
GENIUS_GENOBJ-N-FIL_13
1002
{
1000
OWNER
1000
GEN
1002
}
  0
ARC
  5
5CE
330
1F
100
AcDbEntity
  8
AM_0
100
AcDbCircle
 10
802.8591234574605
 20
494.3454876090203
 30
0.0
 40
2.5
100
AcDbArc
 50
131.8103148957704
 51
180.0
1001
GENIUS_GENODEF_13
1002
{
1000
HIER
1070
     0
1002
}
1002
{
1000
MANEDIT
1070
     0
1002
}
1002
{
1000
NOSEL
1070
     0
1002
}
1002
{
1000
BEHIND
1070
     0
1002
}
1002
{
1000
OTHER
1070
     0
1002
}
1002
{
1000
REACTOR
1002
}
1001
GENIUS_GENOBJ-N-FIL_13
1002
{
1000
OWNER
1000
GEN
1002
}
  0
ARC
  5
5CF
330
1F
100
AcDbEntity
  8
AM_0
100
AcDbCircle
 10
802.8591234574605
 20
505.5258274965193
 30
0.0
 40
2.5
100
AcDbArc
 50
180.0
 51
228.189685104202
1001
GENIUS_GENOBJ-N-FIL_13
1002
{
1000
OWNER
1000
GEN
1002
}
1001
GENIUS_GENODEF_13
1002
{
1000
HIER
1070
     0
1002
}
1002
{
1000
MANEDIT
1070
     0
1002
}
1002
{
1000
NOSEL
1070
     0
1002
}
1002
{
1000
BEHIND
1070
     0
1002
}
1002
{
1000
OTHER
1070
     0
1002
}
1002
{
1000
REACTOR
1002
}
  0
ARC
  5
5D0
330
1F
100
AcDbEntity
  8
AM_0
100
AcDbCircle
 10
797.8591234574605
 20
499.9356575527703
 30
0.0
 40
5.0
100
AcDbArc
 50
311.8103148957704
 51
48.18968510422956
  0
LINE
  5
5D1
330
1F
100
AcDbEntity
  8
AM_0
100
AcDbLine
 10
800.3591234574605
 20
494.3454876090185
 30
0.0
 11
800.3591234574605
 21
386.661766488111
 31
0.0
  0
ARC
  5
5D2
330
1F
100
AcDbEntity
  8
AM_0
100
AcDbCircle
 10
744.3591234574605
 20
656.2095486174297
 30
0.0
 40
56.0
100
AcDbArc
 50
0.0
 51
55.94420225838326
1001
GENIUS_GENODEF_13
1002
{
1000
HIER
1070
     0
1002
}
1002
{
1000
MANEDIT
1070
     0
1002
}
1002
{
1000
NOSEL
1070
     0
1002
}
1002
{
1000
BEHIND
1070
     0
1002
}
1002
{
1000
OTHER
1070
     0
1002
}
1002
{
1000
REACTOR
1002
}
1001
GENIUS_GENOBJ-N-FIL_13
1002
{
1000
OWNER
1000
GEN
1002
}
  0
LINE
  5
5D3
330
1F
100
AcDbEntity
  8
AM_0
100
AcDbLine
 10
800.3591234574605
 20
656.2095486174306
 30
0.0
 11
800.3591234574605
 21
527.5036067451976
 31
0.0
  0
LINE
  5
5D4
330
1F
100
AcDbEntity
  8
AM_0
100
AcDbLine
 10
799.4930980536763
 20
525.4677083603366
 30
0.0
 11
800.0911742650306
 21
526.5036067451967
 31
0.0
  0
ARC
  5
5D5
330
1F
100
AcDbEntity
  8
AM_0
100
AcDbCircle
 10
800.3591234574605
 20
524.9677083603377
 30
0.0
 40
1.0
100
AcDbArc
 50
150.0000000000039
 51
180.0
1001
GENIUS_GENOBJ-N-FIL_13
1002
{
1000
OWNER
1000
GEN
1002
}
1001
GENIUS_GENODEF_13
1002
{
1000
HIER
1070
     0
1002
}
1002
{
1000
MANEDIT
1070
     0
1002
}
1002
{
1000
NOSEL
1070
     0
1002
}
1002
{
1000
BEHIND
1070
     0
1002
}
1002
{
1000
OTHER
1070
     0
1002
}
1002
{
1000
REACTOR
1002
}
  0
ARC
  5
5D6
330
1F
100
AcDbEntity
  8
AM_0
100
AcDbCircle
 10
798.3591234574605
 20
527.5036067451976
 30
0.0
 40
2.0
100
AcDbArc
 50
330.0000000000039
 51
0.0
1001
GENIUS_GENOBJ-N-FIL_13
1002
{
1000
OWNER
1000
GEN
1002
}
1001
GENIUS_GENODEF_13
1002
{
1000
HIER
1070
     0
1002
}
1002
{
1000
MANEDIT
1070
     0
1002
}
1002
{
1000
NOSEL
1070
     0
1002
}
1002
{
1000
BEHIND
1070
     0
1002
}
1002
{
1000
OTHER
1070
     0
1002
}
1002
{
1000
REACTOR
1002
}
  0
LINE
  5
5D7
330
1F
100
AcDbEntity
  8
AM_0
100
AcDbLine
 10
799.3591234574605
 20
524.9677083603377
 30
0.0
 11
799.3591234574605
 21
524.9356575527692
 31
0.0
  0
LINE
  5
5D8
330
1F
100
AcDbEntity
  8
AM_4
100
AcDbLine
 10
799.2415667060448
 20
526.9677083603311
 30
0.0
 11
660.3591234595485
 21
526.9677083603315
 31
0.0
  0
LINE
  5
5D9
330
1F
100
AcDbEntity
  8
AM_0
100
AcDbLine
 10
671.5568288402378
 20
283.1323534004804
 30
0.0
 11
649.1614180788602
 21
283.1323534004804
 31
0.0
  0
LINE
  5
5DA
330
1F
100
AcDbEntity
  8
AM_0
100
AcDbLine
 10
674.262977238888
 20
305.1323534004804
 30
0.0
 11
646.4552696802098
 21
305.1323534004804
 31
0.0
  0
LINE
  5
5DB
330
1F
100
AcDbEntity
  8
AM_0
100
AcDbLine
 10
647.9020259443614
 20
284.4088082969664
 30
0.0
 11
646.4552696802098
 21
300.0038097930854
 31
0.0
  0
LINE
  5
5DC
330
1F
100
AcDbEntity
  8
AM_4
100
AcDbLine
 10
647.9120502940618
 20
296.7238899664652
 30
0.0
 11
649.1614180788602
 21
283.1323534004804
 31
0.0
  0
LINE
  5
5DD
330
1F
100
AcDbEntity
  8
AM_0
100
AcDbLine
 10
649.1614180788602
 20
283.1323534004804
 30
0.0
 11
647.9020259443614
 21
284.4088082969664
 31
0.0
  0
LINE
  5
5DE
330
1F
100
AcDbEntity
  8
AM_0
100
AcDbLine
 10
646.4552696802098
 20
300.0038097930854
 30
0.0
 11
646.4552696802098
 21
305.1323534004804
 31
0.0
  0
LINE
  5
5DF
330
1F
100
AcDbEntity
  8
AM_4
100
AcDbLine
 10
647.9120502940618
 20
296.7238899664652
 30
0.0
 11
646.5399460085409
 21
299.0910593182952
 31
0.0
  0
LINE
  5
5E0
330
1F
100
AcDbEntity
  8
AM_4
100
AcDbLine
 10
672.8061966250361
 20
296.7238899664652
 30
0.0
 11
671.5568288402378
 21
283.1323534004804
 31
0.0
  0
LINE
  5
5E1
330
1F
100
AcDbEntity
  8
AM_0
100
AcDbLine
 10
672.8162209747365
 20
284.4088082969664
 30
0.0
 11
674.262977238888
 21
300.0038097930854
 31
0.0
  0
LINE
  5
5E2
330
1F
100
AcDbEntity
  8
AM_0
100
AcDbLine
 10
671.5568288402378
 20
283.1323534004804
 30
0.0
 11
672.8162209747365
 21
284.4088082969664
 31
0.0
  0
LINE
  5
5E3
330
1F
100
AcDbEntity
  8
AM_0
100
AcDbLine
 10
674.262977238888
 20
300.0038097930854
 30
0.0
 11
674.262977238888
 21
305.1323534004804
 31
0.0
  0
LINE
  5
5E4
330
1F
100
AcDbEntity
  8
AM_4
100
AcDbLine
 10
672.8061966250361
 20
296.7238899664652
 30
0.0
 11
674.178300910557
 21
299.0910593182952
 31
0.0
  0
DIMENSION
  5
5E5
330
1F
100
AcDbEntity
  8
AM_5
100
AcDbDimension
  2
*D2
 10
672.8162209747365
 20
263.5065299954789
 30
0.0
 11
625.8895259443614
 21
263.5065299954789
 31
0.0
 70
   160
  1
EN 10226-1\PR¾
 71
     5
 42
24.91419503037514
  3
AM_DIN
100
AcDbAlignedDimension
 13
647.9020259443614
 23
284.4088082969664
 33
0.0
 14
672.8162209747365
 24
284.4088082969664
 34
0.0
100
AcDbRotatedDimension
1001
ACAD
1000
DSTYLE
1002
{
1070
    40
1040
1.5
1002
}
  0
DIMENSION
  5
5E6
330
1F
100
AcDbEntity
  8
AM_5
100
AcDbDimension
  2
*D3
 10
502.4047378025963
 20
304.9356575527704
 30
0.0
 11
502.4047378025963
 21
520.3733859444471
 31
0.0
 70
   160
  1
<> {}{\C2;%%p3}
 71
     5
 42
432.9999999999999
  3
AM_DIN
100
AcDbAlignedDimension
 13
660.3591234595487
 23
737.9356575527703
 33
0.0
 14
660.3591234595483
 24
304.9356575527704
 34
0.0
 50
90.0
100
AcDbRotatedDimension
1001
GENIUS_GENDTOL_13
1000
TolPm
1000

1000
{$3%%p$P}
1040
256.0
1001
ACAD
1000
DSTYLE
1002
{
1070
    40
1040
1.5
1070
    47
1040
3.0
1070
    48
1040
3.0
1002
}
  0
DIMENSION
  5
5E7
330
1F
100
AcDbEntity
  8
AM_5
100
AcDbDimension
  2
*D4
 10
485.0011868920323
 20
748.2703934539216
 30
0.0
 11
485.0011868920323
 21
513.4752001177039
 31
0.0
 70
   160
  1
465 {}{\C2;%%p5}
 71
     5
 42
465.1380400534413
  3
AM_DIN
100
AcDbAlignedDimension
 13
649.1614180788602
 23
283.1323534004804
 33
0.0
 14
660.3591234595487
 24
748.2703934539216
 34
0.0
 50
90.0
100
AcDbRotatedDimension
1001
ACAD
1000
DSTYLE
1002
{
1070
    40
1040
1.5
1070
    47
1040
5.0
1070
    48
1040
5.0
1070
   271
1070
     0
1002
}
1001
GENIUS_GENDTOL_13
1000
TolPm
1000

1000
{$3%%p$P}
1040
465.0
  0
DIMENSION
  5
5E8
330
1F
100
AcDbEntity
  8
AM_5
100
AcDbDimension
  2
*D5
 10
800.3591234574605
 20
626.8811682859011
 30
0.0
 11
633.1642559409001
 21
626.8811682859011
 31
0.0
 70
   160
  1
ø<>
 71
     5
 42
279.9999999958236
  3
AM_DIN
100
AcDbAlignedDimension
 13
520.3591234616369
 23
656.2095486174306
 33
0.0
 14
800.3591234574605
 24
656.2095486174306
 34
0.0
100
AcDbRotatedDimension
1001
ACAD
1000
DSTYLE
1002
{
1070
    40
1040
1.5
1002
}
  0
LINE
  5
5E9
330
1F
100
AcDbEntity
  8
UMRISS05
100
AcDbLine
 10
655.4605207363993
 20
746.7469818392632
 30
0.0
 11
665.3190698827675
 21
746.7469818392632
 31
0.0
  0
LINE
  5
5EA
330
1F
100
AcDbEntity
  8
UMRISS05
100
AcDbLine
 10
655.4605207363993
 20
737.9181706006055
 30
0.0
 11
655.4605207363993
 21
746.7469818392632
 31
0.0
  0
LINE
  5
5F0
330
1F
100
AcDbEntity
  8
UMRISS05
100
AcDbLine
 10
655.4605207363993
 20
737.9181706006055
 30
0.0
 11
656.4763938945225
 21
737.918170600605
 31
0.0
  0
ARC
  5
5F1
330
1F
100
AcDbEntity
  8
UMRISS05
100
AcDbCircle
 10
660.3125609791905
 20
746.731819911104
 30
0.0
 40
1.539277951260048
100
AcDbArc
 50
0.5643740561916709
 51
179.4356259438083
  0
LINE
  5
5F2
330
1F
100
AcDbEntity
  8
UMRISS05
100
AcDbLine
 10
665.3190698827675
 20
746.7469818392632
 30
0.0
 11
665.3190698827675
 21
737.918170600605
 31
0.0
  0
LINE
  5
5F3
330
1F
100
AcDbEntity
  8
UMRISS05
100
AcDbLine
 10
664.1763939185848
 20
737.918170600605
 30
0.0
 11
665.3190698827675
 21
737.918170600605
 31
0.0
  0
LINE
  5
5F4
330
1F
100
AcDbEntity
  8
AM_6
100
AcDbLine
 10
660.3591234595445
 20
495.6055305338471
 30
0.0
 11
522.3591234616324
 21
495.6055305338447
 31
0.0
  0
LINE
  5
5F5
330
1F
100
AcDbEntity
  8
AM_6
100
AcDbLine
 10
660.3591234595444
 20
504.2657845716916
 30
0.0
 11
522.359123461632
 21
504.2657845716893
 31
0.0
  0
LINE
  5
5F6
330
1F
100
AcDbEntity
  8
AM_0
100
AcDbLine
 10
660.3591234595438
 20
524.9356575527698
 30
0.0
 11
520.3591234616319
 21
524.9356575527671
 31
0.0
  0
LINE
  5
5F7
330
1F
100
AcDbEntity
  8
AM_4
100
AcDbLine
 10
521.4766802130475
 20
526.9677083603288
 30
0.0
 11
660.3591234595438
 21
526.9677083603315
 31
0.0
  0
LINE
  5
5F8
330
1F
100
AcDbEntity
  8
0
100
AcDbLine
 10
646.4552696802098
 20
300.0038097930854
 30
0.0
 11
674.262977238888
 21
300.0038097930854
 31
0.0
  0
LINE
  5
5F9
330
1F
100
AcDbEntity
  8
0
100
AcDbLine
 10
647.9020259443614
 20
284.4088082969664
 30
0.0
 11
672.8162209747365
 21
284.4088082969664
 31
0.0
  0
LWPOLYLINE
  5
5FA
330
1F
100
AcDbEntity
  8
0
100
AcDbPolyline
 90
        4
 70
     1
 43
0.0
 10
346.9202865705328
 20
247.0508430628256
 10
1114.685373274531
 20
247.0508430628256
 10
1114.685373274531
 20
808.6887330628256
 10
346.9202865705328
 20
808.6887330628256
1001
GENIUS_GENREC_14
1002
{
1000
PYDIR
1011
346.9202865705328
1021
808.6887330628256
1031
0.0
1002
}
1002
{
1000
PXDIR
1011
1114.685373274531
1021
247.0508430628256
1031
0.0
1002
}
1002
{
1000
PORI
1011
346.9202865705328
1021
247.0508430628256
1031
0.0
1002
}
1002
{
1000
PINS
1011
346.9202865705328
1021
247.0508430628256
1031
0.0
1002
}
1002
{
1000
PINS2
1011
1114.685373274531
1021
808.6887330628256
1031
0.0
1002
}
1002
{
1000
C
1070
     1
1002
}
1001
GENIUS_GENODEF_13
1002
{
1000
HIER
1070
     0
1002
}
1002
{
1000
MANEDIT
1070
     0
1002
}
1002
{
1000
NOSEL
1070
     0
1002
}
1002
{
1000
BEHIND
1070
     0
1002
}
1002
{
1000
OTHER
1070
     0
1002
}
1002
{
1000
REACTOR
1002
}
1001
GENIUS_GENOBJ-N-REC_13
1002
{
1000
OWNER
1000
GEN
1002
}
  0
TEXT
  5
5FB
330
1F
100
AcDbEntity
  8
6
100
AcDbText
 10
985.6448931532449
 20
295.4355398909064
 30
0.0
 40
5.702399999999999
  1
Reflex Winkelmann GmbH
 41
0.95
 72
     1
 11
1025.732765153245
 21
295.4355398909064
 31
0.0
100
AcDbText
  0
TEXT
  5
5FC
330
1F
100
AcDbEntity
  8
0
100
AcDbText
 10
891.3710248492456
 20
299.3155558109063
 30
0.0
 40
7.919999999999999
  1
reflex NG
100
AcDbText
  0
TEXT
  5
5FD
330
1F
100
AcDbEntity
  8
0
100
AcDbText
 10
852.3418509292483
 20
314.3635558109063
 30
0.0
 40
7.919999999999999
  1
Druckausdehnungsgefäß
100
AcDbText
  0
TEXT
  5
5FE
330
1F
100
AcDbEntity
  8
DN50-0
100
AcDbText
 10
884.5222571212454
 20
283.5283251869063
 30
0.0
 40
7.919999999999999
  1
25 l  - 6 bar
100
AcDbText
  0
POLYLINE
  5
5FF
330
1F
100
AcDbEntity
  8
4
100
AcDb2dPolyline
 66
     1
 10
0.0
 20
0.0
 30
0.0
  0
VERTEX
  5
600
330
5FF
100
AcDbEntity
  8
4
100
AcDbVertex
100
AcDb2dVertex
 10
1026.045541793246
 20
318.5918553149065
 30
0.0
  0
VERTEX
  5
601
330
5FF
100
AcDbEntity
  8
4
100
AcDbVertex
100
AcDb2dVertex
 10
1026.045541793246
 20
307.5248860829059
 30
0.0
  0
VERTEX
  5
602
330
5FF
100
AcDbEntity
  8
4
100
AcDbVertex
100
AcDb2dVertex
 10
1028.629540001247
 20
307.5248860829059
 30
0.0
  0
VERTEX
  5
603
330
5FF
100
AcDbEntity
  8
4
100
AcDbVertex
100
AcDb2dVertex
 10
1028.629540001247
 20
318.5918553149065
 30
0.0
  0
VERTEX
  5
604
330
5FF
100
AcDbEntity
  8
4
100
AcDbVertex
100
AcDb2dVertex
 10
1026.045541793246
 20
318.5918553149065
 30
0.0
  0
VERTEX
  5
605
330
5FF
100
AcDbEntity
  8
4
100
AcDbVertex
100
AcDb2dVertex
 10
1026.045541793246
 20
318.5918553149065
 30
0.0
  0
SEQEND
  5
606
330
5FF
100
AcDbEntity
  8
4
  0
TEXT
  5
607
330
1F
100
AcDbEntity
  8
6
100
AcDbText
 10
1004.8986500706
 20
287.4352738589061
 30
0.0
 40
5.702399999999999
  1
59227 Ahlen
 72
     1
 11
1025.825711105247
 21
287.4352738589061
 31
0.0
100
AcDbText
  0
POLYLINE
  5
608
330
1F
100
AcDbEntity
  8
4
100
AcDb2dPolyline
 66
     1
 10
0.0
 20
0.0
 30
0.0
  0
VERTEX
  5
609
330
608
100
AcDbEntity
  8
4
100
AcDbVertex
100
AcDb2dVertex
 10
1006.205818241247
 20
304.0888130909063
 30
0.0
  0
VERTEX
  5
60A
330
608
100
AcDbEntity
  8
4
100
AcDbVertex
100
AcDb2dVertex
 10
1047.770209505249
 20
304.0888130909063
 30
0.0
  0
VERTEX
  5
60B
330
608
100
AcDbEntity
  8
4
100
AcDbVertex
100
AcDb2dVertex
 10
1047.770209505249
 20
304.4767932989063
 30
0.0
  0
VERTEX
  5
60C
330
608
100
AcDbEntity
  8
4
100
AcDbVertex
100
AcDb2dVertex
 10
1006.205818241247
 20
304.4767932989063
 30
0.0
  0
VERTEX
  5
60D
330
608
100
AcDbEntity
  8
4
100
AcDbVertex
100
AcDb2dVertex
 10
1006.205818241247
 20
304.0888130909063
 30
0.0
  0
VERTEX
  5
60E
330
608
100
AcDbEntity
  8
4
100
AcDbVertex
100
AcDb2dVertex
 10
1006.205818241247
 20
304.0888130909063
 30
0.0
  0
SEQEND
  5
60F
330
608
100
AcDbEntity
  8
4
  0
POLYLINE
  5
610
330
1F
100
AcDbEntity
  8
4
100
AcDb2dPolyline
 66
     1
 10
0.0
 20
0.0
 30
0.0
  0
VERTEX
  5
611
330
610
100
AcDbEntity
  8
4
100
AcDbVertex
100
AcDb2dVertex
 10
1047.770209505249
 20
321.1092970109063
 30
0.0
  0
VERTEX
  5
612
330
610
100
AcDbEntity
  8
4
100
AcDbVertex
100
AcDb2dVertex
 10
1006.205818241247
 20
321.1092970109063
 30
0.0
  0
VERTEX
  5
613
330
610
100
AcDbEntity
  8
4
100
AcDbVertex
100
AcDb2dVertex
 10
1006.205818241247
 20
320.7213183869063
 30
0.0
  0
VERTEX
  5
614
330
610
100
AcDbEntity
  8
4
100
AcDbVertex
100
AcDb2dVertex
 10
1047.770209505249
 20
320.7213183869063
 30
0.0
  0
VERTEX
  5
615
330
610
100
AcDbEntity
  8
4
100
AcDbVertex
100
AcDb2dVertex
 10
1047.770209505249
 20
321.1092970109063
 30
0.0
  0
VERTEX
  5
616
330
610
100
AcDbEntity
  8
4
100
AcDbVertex
100
AcDb2dVertex
 10
1047.770209505249
 20
321.1092970109063
 30
0.0
  0
SEQEND
  5
617
330
610
100
AcDbEntity
  8
4
  0
POLYLINE
  5
618
330
1F
100
AcDbEntity
  8
4
100
AcDb2dPolyline
 66
     1
 10
0.0
 20
0.0
 30
0.0
  0
VERTEX
  5
619
330
618
100
AcDbEntity
  8
4
100
AcDbVertex
100
AcDb2dVertex
 10
1006.205818241247
 20
320.9153076989065
 30
0.0
  0
VERTEX
  5
61A
330
618
100
AcDbEntity
  8
4
100
AcDbVertex
100
AcDb2dVertex
 10
1047.770209505249
 20
320.9153076989065
 30
0.0
  0
VERTEX
  5
61B
330
618
100
AcDbEntity
  8
4
100
AcDbVertex
100
AcDb2dVertex
 10
1048.082279681247
 20
320.8759468829063
 30
0.0
  0
VERTEX
  5
61C
330
618
100
AcDbEntity
  8
4
100
AcDbVertex
100
AcDb2dVertex
 10
1048.377480257247
 20
320.7972268349064
 30
0.0
  0
VERTEX
  5
61D
330
618
100
AcDbEntity
  8
4
100
AcDbVertex
100
AcDb2dVertex
 10
1048.633321601247
 20
320.6397867389063
 30
0.0
  0
VERTEX
  5
61E
330
618
100
AcDbEntity
  8
4
100
AcDbVertex
100
AcDb2dVertex
 10
1048.869483329247
 20
320.4626654429064
 30
0.0
  0
VERTEX
  5
61F
330
618
100
AcDbEntity
  8
4
100
AcDbVertex
100
AcDb2dVertex
 10
1049.066284241249
 20
320.2265037149065
 30
0.0
  0
VERTEX
  5
620
330
618
100
AcDbEntity
  8
4
100
AcDbVertex
100
AcDb2dVertex
 10
1049.204046305247
 20
319.9706623709066
 30
0.0
  0
VERTEX
  5
621
330
618
100
AcDbEntity
  8
4
100
AcDbVertex
100
AcDb2dVertex
 10
1049.302445969246
 20
319.6754602109063
 30
0.0
  0
VERTEX
  5
622
330
618
100
AcDbEntity
  8
4
100
AcDbVertex
100
AcDb2dVertex
 10
1049.322125585246
 20
319.3633900349063
 30
0.0
  0
VERTEX
  5
623
330
618
100
AcDbEntity
  8
4
100
AcDbVertex
100
AcDb2dVertex
 10
1049.322125585246
 20
305.8150404509062
 30
0.0
  0
VERTEX
  5
624
330
618
100
AcDbEntity
  8
4
100
AcDbVertex
100
AcDb2dVertex
 10
1049.302445969246
 20
305.5029702749063
 30
0.0
  0
VERTEX
  5
625
330
618
100
AcDbEntity
  8
4
100
AcDbVertex
100
AcDb2dVertex
 10
1049.204046305247
 20
305.2274493149062
 30
0.0
  0
VERTEX
  5
626
330
618
100
AcDbEntity
  8
4
100
AcDbVertex
100
AcDb2dVertex
 10
1049.066284241249
 20
304.9519267709062
 30
0.0
  0
VERTEX
  5
627
330
618
100
AcDbEntity
  8
4
100
AcDbVertex
100
AcDb2dVertex
 10
1048.869483329247
 20
304.7354462429064
 30
0.0
  0
VERTEX
  5
628
330
618
100
AcDbEntity
  8
4
100
AcDbVertex
100
AcDb2dVertex
 10
1048.633321601247
 20
304.5386453309061
 30
0.0
  0
VERTEX
  5
629
330
618
100
AcDbEntity
  8
4
100
AcDbVertex
100
AcDb2dVertex
 10
1048.377480257247
 20
304.4008848509065
 30
0.0
  0
VERTEX
  5
62A
330
618
100
AcDbEntity
  8
4
100
AcDbVertex
100
AcDb2dVertex
 10
1048.082279681247
 20
304.3024836029062
 30
0.0
  0
VERTEX
  5
62B
330
618
100
AcDbEntity
  8
4
100
AcDbVertex
100
AcDb2dVertex
 10
1047.770209505249
 20
304.2828039869062
 30
0.0
  0
VERTEX
  5
62C
330
618
100
AcDbEntity
  8
4
100
AcDbVertex
100
AcDb2dVertex
 10
1006.205818241247
 20
304.2828039869062
 30
0.0
  0
VERTEX
  5
62D
330
618
100
AcDbEntity
  8
4
100
AcDbVertex
100
AcDb2dVertex
 10
1005.893746481248
 20
304.3024836029062
 30
0.0
  0
VERTEX
  5
62E
330
618
100
AcDbEntity
  8
4
100
AcDbVertex
100
AcDb2dVertex
 10
1005.618225521247
 20
304.4008848509065
 30
0.0
  0
VERTEX
  5
62F
330
618
100
AcDbEntity
  8
4
100
AcDbVertex
100
AcDb2dVertex
 10
1005.342704561247
 20
304.5386453309061
 30
0.0
  0
VERTEX
  5
630
330
618
100
AcDbEntity
  8
4
100
AcDbVertex
100
AcDb2dVertex
 10
1005.126222449247
 20
304.7354462429064
 30
0.0
  0
VERTEX
  5
631
330
618
100
AcDbEntity
  8
4
100
AcDbVertex
100
AcDb2dVertex
 10
1004.929421537246
 20
304.9519267709062
 30
0.0
  0
VERTEX
  5
632
330
618
100
AcDbEntity
  8
4
100
AcDbVertex
100
AcDb2dVertex
 10
1004.791661057246
 20
305.2274493149062
 30
0.0
  0
VERTEX
  5
633
330
618
100
AcDbEntity
  8
4
100
AcDbVertex
100
AcDb2dVertex
 10
1004.693259809247
 20
305.5029702749063
 30
0.0
  0
VERTEX
  5
634
330
618
100
AcDbEntity
  8
4
100
AcDbVertex
100
AcDb2dVertex
 10
1004.653900577247
 20
305.8150404509062
 30
0.0
  0
VERTEX
  5
635
330
618
100
AcDbEntity
  8
4
100
AcDbVertex
100
AcDb2dVertex
 10
1004.653900577247
 20
319.3633900349063
 30
0.0
  0
VERTEX
  5
636
330
618
100
AcDbEntity
  8
4
100
AcDbVertex
100
AcDb2dVertex
 10
1004.693259809247
 20
319.6754602109063
 30
0.0
  0
VERTEX
  5
637
330
618
100
AcDbEntity
  8
4
100
AcDbVertex
100
AcDb2dVertex
 10
1004.791661057246
 20
319.9706623709066
 30
0.0
  0
VERTEX
  5
638
330
618
100
AcDbEntity
  8
4
100
AcDbVertex
100
AcDb2dVertex
 10
1004.929421537246
 20
320.2265037149065
 30
0.0
  0
VERTEX
  5
639
330
618
100
AcDbEntity
  8
4
100
AcDbVertex
100
AcDb2dVertex
 10
1005.126222449247
 20
320.4626654429064
 30
0.0
  0
VERTEX
  5
63A
330
618
100
AcDbEntity
  8
4
100
AcDbVertex
100
AcDb2dVertex
 10
1005.342704561247
 20
320.6397867389063
 30
0.0
  0
VERTEX
  5
63B
330
618
100
AcDbEntity
  8
4
100
AcDbVertex
100
AcDb2dVertex
 10
1005.618225521247
 20
320.7972268349064
 30
0.0
  0
VERTEX
  5
63C
330
618
100
AcDbEntity
  8
4
100
AcDbVertex
100
AcDb2dVertex
 10
1005.893746481248
 20
320.8759468829063
 30
0.0
  0
VERTEX
  5
63D
330
618
100
AcDbEntity
  8
4
100
AcDbVertex
100
AcDb2dVertex
 10
1006.205818241247
 20
320.9153076989065
 30
0.0
  0
VERTEX
  5
63E
330
618
100
AcDbEntity
  8
4
100
AcDbVertex
100
AcDb2dVertex
 10
1006.205818241247
 20
320.9153076989065
 30
0.0
  0
SEQEND
  5
63F
330
618
100
AcDbEntity
  8
4
  0
HATCH
  5
640
330
1F
100
AcDbEntity
  8
4
100
AcDbHatch
 10
0.0
 20
0.0
 30
0.0
210
0.0
220
0.0
230
1.0
  2
SOLID
 70
     1
 71
     0
 91
       13
 92
        7
 72
     0
 73
     1
 93
        4
 10
1004.847889949063
 20
319.3633902950268
 10
1004.653900297352
 20
319.3633902950268
 10
1004.653900297352
 20
305.8150405616301
 10
1004.847889949063
 20
305.8150405616301
 97
        0
 92
        7
 72
     0
 73
     1
 93
        4
 10
1047.770208973712
 20
304.4767931092342
 10
1006.205817511057
 20
304.4767931092342
 10
1006.205817511057
 20
304.2828034575214
 10
1047.770208973712
 20
304.2828034575214
 97
        0
 92
        7
 72
     0
 73
     1
 93
        4
 10
1047.770208973712
 20
320.9153075087295
 10
1006.205817511057
 20
320.9153075087295
 10
1006.205817511057
 20
320.721317857017
 10
1047.770208973712
 20
320.721317857017
 97
        0
 92
        7
 72
     0
 73
     1
 93
        4
 10
1049.516115839128
 20
319.3633902950268
 10
1049.322126187414
 20
319.3633902950268
 10
1049.322126187414
 20
305.8150405616301
 10
1049.516115839128
 20
305.8150405616301
 97
        0
 92
        7
 72
     0
 73
     1
 93
       42
 10
1005.618225667461
 20
320.7972268511657
 10
1005.893747201778
 20
320.8759472895421
 10
1006.205817511057
 20
320.9153075087295
 10
1006.205817511055
 20
321.1092971604427
 10
1006.118662739998
 20
321.1064857162152
 10
1006.031507968938
 20
321.098051383532
 10
1005.944353197875
 20
321.0868056066209
 10
1005.857198426816
 20
321.0727483854818
 10
1005.772855099986
 20
321.0530682758883
 10
1005.691323217382
 20
321.0277652778392
 10
1005.609791334775
 20
320.9996508355611
 10
1005.5310708964
 20
320.968724949057
 10
1005.455161902254
 20
320.9349876183236
 10
1005.379252908105
 20
320.8956273991371
 10
1005.306155358183
 20
320.8534557357203
 10
1005.235869252501
 20
320.8056611838486
 10
1005.168394591025
 20
320.7578666319782
 10
1005.100919929563
 20
320.7044491916499
 10
1005.036256712322
 20
320.6510317513245
 10
1004.977216383541
 20
320.591991422541
 10
1004.918176054755
 20
320.5301396495298
 10
1004.864758614433
 20
320.4682878765237
 10
1004.811341174104
 20
320.4008132150581
 10
1004.763546622233
 20
320.3333385535886
 10
1004.715752070361
 20
320.2630524478968
 10
1004.673580406946
 20
320.1899548979747
 10
1004.634220187759
 20
320.1140459038293
 10
1004.600482857028
 20
320.0381369096839
 10
1004.569556970521
 20
319.9594164713069
 10
1004.541442528244
 20
319.8778845886971
 10
1004.516139530194
 20
319.7963527060946
 10
1004.496459420601
 20
319.7120093792654
 10
1004.48240219946
 20
319.6248546082038
 10
1004.471156422552
 20
319.5376998371433
 10
1004.462722089869
 20
319.450545066087
 10
1004.459910645639
 20
319.3633902950268
 10
1004.653900297352
 20
319.3633902950268
 10
1004.693260516541
 20
319.6754606043035
 10
1004.79166106451
 20
319.9706622482143
 10
1004.929421831671
 20
320.2265036729386
 10
1005.126222927611
 20
320.4626649880662
 10
1005.342704133145
 20
320.6397859744134
 97
        0
 92
        7
 72
     0
 73
     1
 93
       42
 10
1005.682888884699
 20
320.6144829763637
 10
1005.744740657709
 20
320.636974530185
 10
1005.806592430719
 20
320.6594660840074
 10
1005.871255647957
 20
320.6791461936012
 10
1005.935918865195
 20
320.6932034147389
 10
1006.003393526659
 20
320.7072606358784
 10
1006.070868188126
 20
320.7156949685622
 10
1006.138342849592
 20
320.721317857017
 10
1006.205817511057
 20
320.721317857017
 10
1006.205817511055
 20
320.9153075087302
 10
1005.893747201778
 20
320.8759472895421
 10
1005.618225667461
 20
320.7972268511653
 10
1005.342704133145
 20
320.639785974413
 10
1005.12622292761
 20
320.4626649880653
 10
1004.92942183167
 20
320.226503672938
 10
1004.791661064511
 20
319.9706622482153
 10
1004.693260516541
 20
319.6754606043035
 10
1004.653900297352
 20
319.3633902950268
 10
1004.847889949063
 20
319.3633902950268
 10
1004.847889949063
 20
319.4308649564935
 10
1004.853512837522
 20
319.4983396179581
 10
1004.861947170204
 20
319.5658142794225
 10
1004.876004391339
 20
319.6332889408953
 10
1004.890061612481
 20
319.6979521581265
 10
1004.909741722078
 20
319.7598039311425
 10
1004.92942183167
 20
319.8244671483734
 10
1004.954724829721
 20
319.8863189213832
 10
1004.982839271998
 20
319.9453592501635
 10
1005.013765158501
 20
320.0043995789471
 10
1005.047502489233
 20
320.0606284635021
 10
1005.081239819966
 20
320.1168573480567
 10
1005.120600039159
 20
320.1702747883893
 10
1005.159960258342
 20
320.2208807844848
 10
1005.204943365985
 20
320.2714867805797
 10
1005.24992647363
 20
320.3192813324526
 10
1005.2977210255
 20
320.364264440095
 10
1005.348327021601
 20
320.4064361035118
 10
1005.398933017699
 20
320.4486077669283
 10
1005.452350458026
 20
320.4879679861158
 10
1005.50857934258
 20
320.5217053168486
 10
1005.564808227135
 20
320.5554426475814
 10
1005.623848555918
 20
320.5863685340862
 97
        0
 92
        7
 72
     0
 73
     1
 93
        4
 10
1047.770208973712
 20
304.2828034575214
 10
1006.205817511057
 20
304.2828034575214
 10
1006.205817511057
 20
304.0888138058079
 10
1047.770208973712
 20
304.0888138058079
 97
        0
 92
       22
 72
     0
 73
     1
 93
       42
 10
1049.066284762692
 20
304.9519271837189
 10
1049.20404552985
 20
305.2274487180357
 10
1049.30244607782
 20
305.5029702523526
 10
1049.322126187414
 20
305.8150405616301
 10
1049.128136535701
 20
305.8150405616301
 10
1049.128136535701
 20
305.7475659001636
 10
1049.122513647245
 20
305.6800912386969
 10
1049.114079314563
 20
305.6126165772329
 10
1049.102833537651
 20
305.5451419157683
 10
1049.085964872283
 20
305.480478698516
 10
1049.069096206919
 20
305.4186269255214
 10
1049.046604653098
 20
305.3567751525113
 10
1049.024113099277
 20
305.2949233795027
 10
1048.995998656998
 20
305.2358830507194
 10
1048.967884214721
 20
305.1768427219363
 10
1048.934146883989
 20
305.1234252816075
 10
1048.900409553257
 20
305.067196397056
 10
1048.861049334069
 20
305.0165904009536
 10
1048.821689114878
 20
304.963172960629
 10
1048.779517451465
 20
304.9153784087609
 10
1048.734534343818
 20
304.8703953011145
 10
1048.686739791951
 20
304.8254121934722
 10
1048.638945240077
 20
304.7832405300554
 10
1048.585527799753
 20
304.7438803108678
 10
1048.532110359422
 20
304.7045200916783
 10
1048.478692919092
 20
304.6707827609457
 10
1048.422464034545
 20
304.6370454302139
 10
1048.363423705763
 20
304.6089309879353
 10
1048.301571932752
 20
304.5808165456599
 10
1048.239720159741
 20
304.5583249918379
 10
1048.177868386731
 20
304.5358334380158
 10
1048.113205169491
 20
304.518964772649
 10
1048.045730508029
 20
304.5049075515113
 10
1047.978255846564
 20
304.4908503303726
 10
1047.910781185098
 20
304.4824159976893
 10
1047.840495079403
 20
304.4767931092342
 10
1047.770208973712
 20
304.4767931092342
 10
1047.770208973712
 20
304.2828034575214
 10
1048.08227928299
 20
304.3024835671151
 10
1048.3774809269
 20
304.4008841150855
 10
1048.633322351623
 20
304.5386448822441
 10
1048.86948366675
 20
304.7354459781853
 97
        0
 92
        7
 72
     0
 73
     1
 93
       42
 10
1049.116890758789
 20
304.7185773128187
 10
1049.170308199119
 20
304.7832405300564
 10
1049.218102750989
 20
304.8507151915198
 10
1049.263085858633
 20
304.9210012972145
 10
1049.305257522048
 20
304.994098847131
 10
1049.344617741236
 20
305.0671963970572
 10
1049.378355071969
 20
305.1431053912025
 10
1049.409280958475
 20
305.2218258295801
 10
1049.437395400752
 20
305.3033577121865
 10
1049.459886954573
 20
305.384889594784
 10
1049.479567064168
 20
305.4692329216221
 10
1049.496435729533
 20
305.5535762484512
 10
1049.504870062216
 20
305.6407310195111
 10
1049.513304394898
 20
305.727885790572
 10
1049.516115839128
 20
305.8150405616301
 10
1049.322126187414
 20
305.8150405616301
 10
1049.30244607782
 20
305.5029702523532
 10
1049.20404552985
 20
305.2274487180351
 10
1049.066284762692
 20
304.9519271837191
 10
1048.86948366675
 20
304.7354459781836
 10
1048.633322351623
 20
304.5386448822438
 10
1048.377480926897
 20
304.4008841150849
 10
1048.08227928299
 20
304.3024835671151
 10
1047.770208973712
 20
304.2828034575214
 10
1047.770208973712
 20
304.0888138058079
 10
1047.857363744771
 20
304.0916252500359
 10
1047.947329960057
 20
304.1000595827191
 10
1048.037296175344
 20
304.1084939154026
 10
1048.121639502177
 20
304.1253625807688
 10
1048.205982829008
 20
304.1422312461345
 10
1048.290326155841
 20
304.1675342441845
 10
1048.371858038434
 20
304.1956486864614
 10
1048.450578476819
 20
304.2237631287385
 10
1048.529298915192
 20
304.2603119036974
 10
1048.602396465119
 20
304.296860678661
 10
1048.675494015037
 20
304.3390323420755
 10
1048.748591564959
 20
304.3840154497183
 10
1048.816066226421
 20
304.4318100015896
 10
1048.883540887888
 20
304.4824159976893
 10
1048.9453926609
 20
304.5386448822441
 10
1049.007244433908
 20
304.5948737667989
 10
1049.063473318467
 20
304.6539140955809
 97
        0
 92
        7
 72
     0
 73
     1
 93
       42
 10
1048.86948366675
 20
320.4626649880662
 10
1048.633322351623
 20
320.6397859744125
 10
1048.377480926897
 20
320.7972268511657
 10
1048.08227928299
 20
320.8759472895421
 10
1047.770208973712
 20
320.9153075087302
 10
1047.770208973712
 20
320.721317857017
 10
1047.840495079403
 20
320.721317857017
 10
1047.910781185098
 20
320.7156949685622
 10
1047.978255846564
 20
320.7044491916503
 10
1048.045730508029
 20
320.6932034147402
 10
1048.110393725267
 20
320.6791461936012
 10
1048.175056942503
 20
320.6594660840067
 10
1048.239720159741
 20
320.636974530185
 10
1048.301571932749
 20
320.6144829763637
 10
1048.360612261533
 20
320.5863685340862
 10
1048.419652590314
 20
320.5554426475814
 10
1048.475881474871
 20
320.5217053168486
 10
1048.532110359426
 20
320.4879679861158
 10
1048.585527799748
 20
320.4486077669283
 10
1048.636133795849
 20
320.4092475477391
 10
1048.686739791948
 20
320.3642644400964
 10
1048.734534343822
 20
320.3192813324522
 10
1048.776706007235
 20
320.271486780583
 10
1048.821689114878
 20
320.2236922287102
 10
1048.861049334069
 20
320.1702747883838
 10
1048.897598109028
 20
320.1168573480567
 10
1048.934146883987
 20
320.0634399077294
 10
1048.965072770493
 20
320.0043995789477
 10
1048.995998656998
 20
319.9481706943919
 10
1049.024113099277
 20
319.8863189213819
 10
1049.046604653098
 20
319.8244671483734
 10
1049.069096206919
 20
319.7626153753617
 10
1049.085964872285
 20
319.6979521581265
 10
1049.102833537651
 20
319.6332889408879
 10
1049.114079314561
 20
319.565814279427
 10
1049.122513647245
 20
319.5011510621883
 10
1049.128136535701
 20
319.4308649564925
 10
1049.128136535701
 20
319.3633902950268
 10
1049.322126187414
 20
319.3633902950268
 10
1049.30244607782
 20
319.6754606043046
 10
1049.20404552985
 20
319.9706622482143
 10
1049.066284762692
 20
320.226503672938
 97
        0
 92
        7
 72
     0
 73
     1
 93
       42
 10
1048.948204105125
 20
320.6482203070976
 10
1048.883540887891
 20
320.7044491916499
 10
1048.818877670652
 20
320.7578666319782
 10
1048.748591564959
 20
320.8056611838489
 10
1048.678305459265
 20
320.8534557357203
 10
1048.605207909344
 20
320.8956273991361
 10
1048.529298915197
 20
320.9349876183236
 10
1048.453389921049
 20
320.9687249490565
 10
1048.371858038445
 20
320.9996508355614
 10
1048.290326155841
 20
321.0277652778387
 10
1048.208794273236
 20
321.0530682758883
 10
1048.121639502176
 20
321.0727483854822
 10
1048.037296175344
 20
321.0868056066209
 10
1047.947329960057
 20
321.098051383532
 10
1047.860175188998
 20
321.1064857162152
 10
1047.770208973712
 20
321.1092971604427
 10
1047.770208973712
 20
320.9153075087295
 10
1048.08227928299
 20
320.8759472895416
 10
1048.377480926897
 20
320.7972268511657
 10
1048.633322351623
 20
320.639785974413
 10
1048.86948366675
 20
320.4626649880662
 10
1049.066284762692
 20
320.226503672938
 10
1049.20404552985
 20
319.9706622482143
 10
1049.30244607782
 20
319.6754606043035
 10
1049.322126187414
 20
319.3633902950268
 10
1049.516115839128
 20
319.3633902950268
 10
1049.513304394898
 20
319.4505450660856
 10
1049.504870062216
 20
319.5376998371458
 10
1049.496435729533
 20
319.6248546082046
 10
1049.479567064165
 20
319.709197935044
 10
1049.459886954573
 20
319.7935412618696
 10
1049.437395400751
 20
319.8750731444724
 10
1049.409280958474
 20
319.9566050270745
 10
1049.378355071969
 20
320.0353254654515
 10
1049.344617741236
 20
320.1140459038293
 10
1049.305257522048
 20
320.1871434537498
 10
1049.265897302859
 20
320.2602410036702
 10
1049.218102750989
 20
320.3333385535911
 10
1049.170308199115
 20
320.4008132150554
 10
1049.11970220302
 20
320.4682878765217
 10
1049.063473318467
 20
320.5301396495321
 10
1049.007244433909
 20
320.591991422541
 97
        0
 92
       23
 72
     0
 73
     1
 93
       42
 10
1005.24992647363
 20
304.8703953011147
 10
1005.202131921757
 20
304.9181898529863
 10
1005.159960258345
 20
304.9659844048565
 10
1005.120600039157
 20
305.016590400957
 10
1005.081239819966
 20
305.0700078412829
 10
1005.044691045005
 20
305.1234252816113
 10
1005.010953714271
 20
305.1796541661647
 10
1004.982839271998
 20
305.2386944949434
 10
1004.954724829718
 20
305.2949233795004
 10
1004.92942183167
 20
305.3567751525144
 10
1004.906930277849
 20
305.4186269255203
 10
1004.890061612481
 20
305.4832901427604
 10
1004.876004391342
 20
305.5479533599966
 10
1004.861947170207
 20
305.6126165772329
 10
1004.853512837521
 20
305.6800912386988
 10
1004.847889949063
 20
305.7475659001657
 10
1004.847889949063
 20
305.8150405616301
 10
1004.653900297352
 20
305.8150405616301
 10
1004.693260516541
 20
305.5029702523518
 10
1004.79166106451
 20
305.2274487180369
 10
1004.92942183167
 20
304.9519271837191
 10
1005.126222927608
 20
304.735445978185
 10
1005.342704133145
 20
304.5386448822441
 10
1005.618225667461
 20
304.4008841150855
 10
1005.893747201778
 20
304.3024835671151
 10
1006.205817511055
 20
304.2828034575214
 10
1006.205817511057
 20
304.4767931092342
 10
1006.138342849592
 20
304.4767931092342
 10
1006.068056743899
 20
304.4824159976893
 10
1006.000582082432
 20
304.4908503303726
 10
1005.935918865193
 20
304.5020961072832
 10
1005.871255647957
 20
304.5189647726495
 10
1005.806592430719
 20
304.5358334380158
 10
1005.744740657709
 20
304.5583249918379
 10
1005.682888884699
 20
304.5808165456599
 10
1005.62103711169
 20
304.6089309879367
 10
1005.564808227135
 20
304.6370454302148
 10
1005.505767898353
 20
304.6707827609467
 10
1005.452350458026
 20
304.7073315359074
 10
1005.396121573471
 20
304.7438803108678
 10
1005.34551557737
 20
304.7832405300554
 10
1005.294909581271
 20
304.8254121934716
 97
        0
 92
        7
 72
     0
 73
     1
 93
       42
 10
1005.126222927608
 20
304.7354459781853
 10
1004.92942183167
 20
304.9519271837191
 10
1004.79166106451
 20
305.2274487180369
 10
1004.693260516541
 20
305.5029702523523
 10
1004.653900297352
 20
305.8150405616301
 10
1004.459910645639
 20
305.8150405616301
 10
1004.462722089869
 20
305.7278857905716
 10
1004.471156422552
 20
305.6407310195095
 10
1004.48240219946
 20
305.5535762484512
 10
1004.496459420601
 20
305.4692329216195
 10
1004.516139530195
 20
305.3848895947861
 10
1004.541442528244
 20
305.3033577121839
 10
1004.569556970521
 20
305.2218258295826
 10
1004.600482857025
 20
305.1431053912057
 10
1004.637031631988
 20
305.0671963970511
 10
1004.676391851172
 20
304.9912874029081
 10
1004.718563514592
 20
304.9210012972107
 10
1004.763546622233
 20
304.8507151915198
 10
1004.811341174104
 20
304.7832405300564
 10
1004.864758614432
 20
304.7185773128195
 10
1004.920987498983
 20
304.6539140955809
 10
1004.977216383542
 20
304.5948737667989
 10
1005.039068156551
 20
304.5386448822455
 10
1005.103731373789
 20
304.4824159976883
 10
1005.168394591028
 20
304.4318100015908
 10
1005.23586925249
 20
304.3840154497195
 10
1005.308966802407
 20
304.3390323420764
 10
1005.379252908105
 20
304.2968606786602
 10
1005.455161902254
 20
304.2603119036993
 10
1005.533882340629
 20
304.223763128739
 10
1005.612602779001
 20
304.1956486864638
 10
1005.694134661609
 20
304.1675342441839
 10
1005.775666544215
 20
304.1422312461345
 10
1005.860009871043
 20
304.1253625807688
 10
1005.944353197878
 20
304.1084939154026
 10
1006.031507968935
 20
304.1000595827191
 10
1006.118662739995
 20
304.0916252500359
 10
1006.205817511057
 20
304.0888138058079
 10
1006.205817511055
 20
304.2828034575214
 10
1005.893747201778
 20
304.3024835671151
 10
1005.618225667461
 20
304.4008841150852
 10
1005.342704133145
 20
304.5386448822441
 97
        0
 75
     0
 76
     1
 47
0.02498
 98
       13
 10
1004.727819521246
 20
314.2467263069067
 10
1013.419951409246
 20
304.3276406909067
 10
1023.496676705248
 20
320.7825558269064
 10
1049.419234289246
 20
314.9387537309067
 10
1005.024985841247
 20
320.6314026269067
 10
1005.337928801246
 20
320.5867132349065
 10
1032.877157969247
 20
304.1856841949068
 10
1048.837393073247
 20
304.9007160509067
 10
1049.060927153246
 20
304.6772690909066
 10
1048.837393073247
 20
320.4079540829065
 10
1048.926806705247
 20
320.6314026269067
 10
1005.159103121247
 20
304.8113372669064
 10
1005.114397889246
 20
304.5878887229065
450
        0
451
        0
460
0.0
461
0.0
452
        0
462
0.0
453
        0
470

  0
HATCH
  5
641
330
1F
100
AcDbEntity
  8
4
100
AcDbHatch
 10
0.0
 20
0.0
 30
0.0
210
0.0
220
0.0
230
1.0
  2
SOLID
 70
     1
 71
     0
 91
        3
 92
        7
 72
     0
 73
     1
 93
        4
 10
1047.770208973712
 20
321.1092971604427
 10
1006.205817511057
 20
321.1092971604427
 10
1006.205817511057
 20
320.9153075087295
 10
1047.770208973712
 20
320.9153075087295
 97
        0
 92
        7
 72
     0
 73
     1
 93
        4
 10
1004.653900297352
 20
319.3633902950268
 10
1004.459910645639
 20
319.3633902950268
 10
1004.459910645639
 20
305.8150405616301
 10
1004.653900297352
 20
305.8150405616301
 97
        0
 92
        7
 72
     0
 73
     1
 93
       42
 10
1005.013765158499
 20
320.0043995789459
 10
1005.047502489233
 20
320.0606284635021
 10
1005.081239819966
 20
320.1168573480567
 10
1005.120600039159
 20
320.1702747883893
 10
1005.159960258342
 20
320.2208807844848
 10
1005.204943365985
 20
320.2714867805797
 10
1005.24992647363
 20
320.3192813324526
 10
1005.2977210255
 20
320.364264440095
 10
1005.348327021601
 20
320.4064361035118
 10
1005.398933017699
 20
320.4486077669283
 10
1005.452350458026
 20
320.4879679861158
 10
1005.50857934258
 20
320.5217053168486
 10
1005.564808227135
 20
320.5554426475814
 10
1005.623848555918
 20
320.5863685340862
 10
1005.682888884699
 20
320.6144829763637
 10
1005.744740657709
 20
320.636974530185
 10
1005.806592430719
 20
320.6594660840074
 10
1005.871255647957
 20
320.6791461936012
 10
1005.935918865195
 20
320.6932034147389
 10
1006.003393526659
 20
320.7072606358784
 10
1006.070868188126
 20
320.7156949685622
 10
1006.138342849592
 20
320.721317857017
 10
1006.205817511057
 20
320.721317857017
 10
1006.205817511055
 20
320.9153075087302
 10
1005.893747201778
 20
320.8759472895421
 10
1005.618225667461
 20
320.7972268511653
 10
1005.342704133145
 20
320.639785974413
 10
1005.12622292761
 20
320.4626649880653
 10
1004.92942183167
 20
320.226503672938
 10
1004.791661064511
 20
319.9706622482153
 10
1004.693260516541
 20
319.6754606043035
 10
1004.653900297352
 20
319.3633902950268
 10
1004.847889949063
 20
319.3633902950268
 10
1004.847889949063
 20
319.4308649564935
 10
1004.853512837522
 20
319.4983396179581
 10
1004.861947170204
 20
319.5658142794225
 10
1004.876004391339
 20
319.6332889408953
 10
1004.890061612481
 20
319.6979521581265
 10
1004.909741722078
 20
319.7598039311425
 10
1004.92942183167
 20
319.8244671483734
 10
1004.954724829721
 20
319.8863189213832
 10
1004.982839271998
 20
319.9453592501635
 97
        0
 75
     0
 76
     1
 47
0.005631
 98
        3
 10
1008.350981921245
 20
320.9834624669066
 10
1004.531218193247
 20
319.0289743709064
 10
1004.853731681246
 20
319.9457682269066
450
        0
451
        0
460
0.0
461
0.0
452
        0
462
0.0
453
        0
470

  0
LWPOLYLINE
  5
642
330
1F
100
AcDbEntity
  8
4
100
AcDbPolyline
 90
        9
 70
     0
 43
0.0
 10
1004.847889889247
 20
305.8150404509062
 10
1004.847889889247
 20
319.3633900349063
 42
-0.4142140000000003
 10
1006.205818241246
 20
320.7213183869063
 10
1047.770209505249
 20
320.7213183869063
 42
-0.4142140000000003
 10
1049.128136273247
 20
319.3633900349063
 10
1049.128136273247
 20
305.8150404509062
 42
-0.387993
 10
1047.910781585247
 20
304.4824164989064
 10
1006.205818241246
 20
304.4767932989063
 42
-0.3805719999999999
 10
1004.853513089247
 20
305.6800915709064
 42
-0.058238
  0
LWPOLYLINE
  5
643
330
1F
100
AcDbEntity
  8
4
100
AcDbPolyline
 90
        9
 70
     0
 43
0.0
 10
1004.459911265247
 20
305.8150404509062
 10
1004.459911265247
 20
319.3633900349063
 42
-0.4142140000000003
 10
1006.205818241246
 20
321.1092970109063
 10
1047.770209505249
 20
321.1092970109063
 42
-0.4142140000000003
 10
1049.516116481247
 20
319.3633900349063
 10
1049.516116481247
 20
305.8150404509062
 42
-0.391099
 10
1047.927229841247
 20
304.094439458906
 10
1006.205870513247
 20
304.0888130909063
 42
-0.3805719999999999
 10
1004.468155985246
 20
305.6350536989063
 42
-0.3805719999999999
  0
LWPOLYLINE
  5
644
330
1F
100
AcDbEntity
  8
4
100
AcDbPolyline
 90
        9
 70
     1
 43
0.7156068480000001
 10
1004.817714689246
 20
305.8150404509062
 10
1004.817714689246
 20
319.3633900349063
 42
-0.4142140000000003
 10
1006.205818241246
 20
320.7514935869062
 10
1047.770209505249
 20
320.7514935869062
 42
-0.4142140000000003
 10
1049.158313057247
 20
319.3633900349063
 10
1049.158313057247
 20
305.8150404509062
 42
-0.388281
 10
1047.912139073249
 20
304.4522397149064
 10
1006.205821409246
 20
304.4466180989064
 42
-0.3805719999999999
 10
1004.823540641247
 20
305.6765877629064
 42
-0.037159
  0
HATCH
  5
645
330
1F
100
AcDbEntity
  8
4
100
AcDbHatch
 10
0.0
 20
0.0
 30
0.0
210
0.0
220
0.0
230
1.0
  2
SOLID
 70
     1
 71
     0
 91
        8
 92
        7
 72
     0
 73
     1
 93
       23
 10
1011.912130820612
 20
312.5868913007989
 10
1011.963299105556
 20
312.8683168679935
 10
1012.065635675446
 20
313.0729900077718
 10
1012.219140530277
 20
313.2264948626046
 10
1012.372645385112
 20
313.3544155749669
 10
1012.679655094778
 20
313.4311680023834
 10
1012.833159949614
 20
313.4567521448559
 10
1013.11458551681
 20
313.4567521448561
 10
1013.11458551681
 20
315.5765810925589
 10
1012.193556387805
 20
315.5765810925589
 10
1011.681873538363
 20
315.5509969500871
 10
1011.246943116334
 20
315.4998286651424
 10
1010.888765121718
 20
315.3719079527815
 10
1010.556171269581
 20
315.2439872404197
 10
1010.303984722352
 20
315.0648982431156
 10
1010.073727440105
 20
314.8858092458089
 10
1009.8946384428
 20
314.6811361060301
 10
1009.741133587964
 20
314.476462966251
 10
1009.562044590659
 20
314.0451874217181
 10
1009.459708020768
 20
313.6870094271074
 10
1009.434123878298
 20
313.3544155749683
 10
1009.434123878298
 20
307.4993018263111
 10
1011.912130820612
 20
307.4993018263111
 97
        0
 92
        7
 72
     0
 73
     1
 93
       54
 10
1021.012775785749
 20
312.9962375803551
 10
1020.782518503501
 20
313.5079204298009
 10
1020.44992465136
 20
314.0196032792469
 10
1020.066162514278
 20
314.4508788237784
 10
1019.580063807304
 20
314.8602251033353
 10
1019.042796815385
 20
315.1928189554749
 10
1018.454361538525
 20
315.4486603801977
 10
1017.818412854212
 20
315.6277493775038
 10
1017.153225149932
 20
315.6789176624483
 10
1016.66712644296
 20
315.6533335199755
 10
1016.23219602093
 20
315.5765810925595
 10
1015.822849741376
 20
315.4742445226704
 10
1015.439087604292
 20
315.320739667836
 10
1015.08090960968
 20
315.1416506705296
 10
1014.773899900012
 20
314.9369775307527
 10
1014.492474332816
 20
314.6811361060294
 10
1014.211048765621
 20
314.4252946813079
 10
1013.984446360867
 20
314.1475239916089
 10
1013.805357363563
 20
313.8405142819399
 10
1013.626268366255
 20
313.5079204297992
 10
1013.498347653893
 20
313.1753265776624
 10
1013.319258656589
 20
312.4845547309094
 10
1013.242506229171
 20
311.7681987416866
 10
1013.268090371643
 20
311.2309317497696
 10
1013.34484279906
 20
310.7484879202899
 10
1013.472763511421
 20
310.2879733557904
 10
1013.651852508727
 20
309.8530429337598
 10
1013.856525648507
 20
309.4692807966761
 10
1014.086782930754
 20
309.1111028020657
 10
1014.364553620453
 20
308.7785089499263
 10
1014.671563330121
 20
308.4714992402576
 10
1015.029741324732
 20
308.2156578155351
 10
1015.387919319343
 20
308.0109846757582
 10
1015.771681456431
 20
307.8063115359784
 10
1016.155443593515
 20
307.6528066811445
 10
1016.590374015546
 20
307.5504701112546
 10
1016.999720295099
 20
307.4481335413663
 10
1017.434650717128
 20
307.3969652564222
 10
1017.865926261664
 20
307.3969652564222
 10
1018.454361538525
 20
307.4225493988949
 10
1018.991628530441
 20
307.4993018263111
 10
1019.452143094942
 20
307.6016383962007
 10
1019.861489374501
 20
307.7295591085621
 10
1020.424340508889
 20
307.9854005332846
 10
1020.603429506193
 20
308.0877371031736
 10
1020.603429506193
 20
310.5949830654568
 10
1020.040578371803
 20
310.211220928373
 10
1019.477727237415
 20
309.9042112187054
 10
1018.838123675605
 20
309.6739539364542
 10
1018.531113965941
 20
309.5972015090381
 10
1018.224104256275
 20
309.5716173665655
 10
1017.716076284324
 20
309.5716173665655
 10
1017.357898289712
 20
309.6483697939823
 10
1017.204393434878
 20
309.6739539364546
 97
        0
 92
       22
 72
     0
 73
     1
 93
       15
 10
1015.669344886541
 20
311.1541793223508
 10
1015.592592459124
 20
311.3332683196571
 10
1015.541424174181
 20
311.5379414594296
 10
1015.490255889235
 20
311.7937828841583
 10
1015.515840031708
 20
312.1007925938253
 10
1015.592592459124
 20
312.4333864459652
 10
1015.771681456431
 20
312.7915644405772
 10
1016.078691166097
 20
313.1497424351887
 10
1016.436869160708
 20
313.4055838599112
 10
1016.820631297794
 20
313.5335045722725
 10
1017.178809292406
 20
313.5590887147454
 10
1017.485819002073
 20
313.5079204298009
 10
1017.767244569268
 20
313.431168002384
 10
1017.968262831551
 20
313.3288314324945
 10
1018.147351828857
 20
313.226494862606
 97
        0
 92
        7
 72
     0
 73
     1
 93
       27
 10
1024.028049719983
 20
312.9962375803551
 10
1025.128167846292
 20
312.9962375803551
 10
1025.128167846292
 20
314.9113933882802
 10
1024.028049719983
 20
314.9113933882802
 10
1024.028049719983
 20
315.7556700898644
 10
1024.079218004928
 20
316.0370956570597
 10
1024.181554574818
 20
316.2417687968385
 10
1024.335059429654
 20
316.3952736516719
 10
1024.488564284486
 20
316.5231943640335
 10
1024.821158136625
 20
316.5999467914501
 10
1024.949078848985
 20
316.6255309339228
 10
1025.226849538686
 20
316.6255309339228
 10
1025.226849538686
 20
318.5918550267916
 10
1024.30947528718
 20
318.5918550267921
 10
1023.823376580206
 20
318.5662708843198
 10
1023.388446158178
 20
318.4895184569024
 10
1023.004684021097
 20
318.3615977445427
 10
1022.672090168954
 20
318.2336770321803
 10
1022.416248744229
 20
318.0545880348742
 10
1022.185991461981
 20
317.8791539150651
 10
1022.006902464674
 20
317.674480775286
 10
1021.878981752312
 20
317.4698076355091
 10
1021.674308612534
 20
317.060461355952
 10
1021.571972042645
 20
316.6766992188668
 10
1021.546387900172
 20
316.3441053667254
 10
1021.546387900172
 20
307.5248859687838
 10
1024.028049719983
 20
307.5248859687838
 97
        0
 92
        7
 72
     0
 73
     1
 93
        4
 10
1028.629540487497
 20
318.5918550267916
 10
1026.045542097799
 20
318.5918550267921
 10
1026.045542097799
 20
307.5248859687838
 10
1028.629540487497
 20
307.5248859687838
 97
        0
 92
        7
 72
     0
 73
     1
 93
       54
 10
1037.086927013334
 20
312.9962375803551
 10
1036.856669731085
 20
313.5079204298009
 10
1036.524075878944
 20
314.0196032792462
 10
1036.140313741861
 20
314.4508788237788
 10
1035.657869912381
 20
314.860225103336
 10
1035.120602920465
 20
315.1928189554749
 10
1034.532167643601
 20
315.4486603801977
 10
1033.892564081796
 20
315.6277493775038
 10
1033.227376377515
 20
315.6789176624481
 10
1032.741277670543
 20
315.6533335199764
 10
1032.310002126009
 20
315.5765810925595
 10
1031.900655846454
 20
315.4742445226694
 10
1031.516893709368
 20
315.320739667836
 10
1031.158715714758
 20
315.1416506705296
 10
1030.851706005089
 20
314.9369775307515
 10
1030.570280437895
 20
314.6811361060294
 10
1030.288854870699
 20
314.4252946813068
 10
1030.084181730924
 20
314.1475239916078
 10
1029.879508591145
 20
313.8405142819405
 10
1029.700419593836
 20
313.5079204298009
 10
1029.572498881476
 20
313.1753265776617
 10
1029.393409884169
 20
312.4845547309101
 10
1029.316657456752
 20
311.7681987416854
 10
1029.342241599227
 20
311.2309317497684
 10
1029.418994026641
 20
310.7484879202913
 10
1029.546914739004
 20
310.2879733557904
 10
1029.726003736309
 20
309.8530429337604
 10
1029.93067687609
 20
309.4692807966731
 10
1030.160934158339
 20
309.1111028020646
 10
1030.442359725533
 20
308.7785089499258
 10
1030.774953577674
 20
308.4714992402579
 10
1031.107547429814
 20
308.2156578155349
 10
1031.465725424424
 20
308.0109846757567
 10
1031.849487561511
 20
307.8063115359784
 10
1032.233249698592
 20
307.6528066811445
 10
1032.664525243128
 20
307.5504701112546
 10
1033.073871522682
 20
307.4481335413671
 10
1033.508801944712
 20
307.3969652564222
 10
1033.943732366737
 20
307.3969652564222
 10
1034.532167643601
 20
307.4225493988944
 10
1035.069434635519
 20
307.4993018263111
 10
1035.555533342493
 20
307.6016383961997
 10
1035.939295479578
 20
307.7295591085619
 10
1036.498491736471
 20
307.9854005332846
 10
1036.677580733778
 20
308.0877371031736
 10
1036.677580733778
 20
310.5949830654565
 10
1036.114729599387
 20
310.2112209283733
 10
1035.555533342493
 20
309.9042112187053
 10
1034.915929780686
 20
309.6739539364546
 10
1034.608920071018
 20
309.5972015090381
 10
1034.301910361351
 20
309.5716173665655
 10
1033.790227511907
 20
309.5716173665655
 10
1033.432049517294
 20
309.6483697939827
 10
1033.27854466246
 20
309.6739539364546
 97
        0
 92
       22
 72
     0
 73
     1
 93
       15
 10
1031.568061994314
 20
311.7937828841583
 10
1031.593646136786
 20
312.1007925938253
 10
1031.670398564204
 20
312.4333864459651
 10
1031.849487561508
 20
312.7915644405756
 10
1032.156497271176
 20
313.1497424351882
 10
1032.511020388292
 20
313.4055838599112
 10
1032.894782525377
 20
313.5335045722734
 10
1033.25296051999
 20
313.5590887147454
 10
1033.559970229655
 20
313.5079204298009
 10
1033.841395796851
 20
313.431168002384
 10
1034.04606893663
 20
313.3288314324939
 10
1034.225157933935
 20
313.226494862606
 10
1031.747150991618
 20
311.1541793223509
 10
1031.670398564204
 20
311.3332683196561
 10
1031.619230279259
 20
311.5379414594301
 97
        0
 92
        7
 72
     0
 73
     1
 93
       66
 10
1043.65474187372
 20
311.5379414594352
 10
1043.450068733939
 20
311.6658621717971
 10
1043.274634614131
 20
311.7681987416854
 10
1043.629157731245
 20
311.9984560239365
 10
1043.884999155968
 20
312.3054657336017
 10
1044.089672295746
 20
312.6380595857435
 10
1044.217593008109
 20
312.9706534378829
 10
1044.319929577997
 20
313.5335045722725
 10
1044.319929577997
 20
313.7893459969955
 10
1044.319929577997
 20
315.4998286651424
 10
1041.918675063099
 20
315.4998286651424
 10
1041.918675063099
 20
314.0451874217196
 10
1041.893090920626
 20
313.8660984244135
 10
1041.790754350738
 20
313.5079204298017
 10
1041.688417780849
 20
313.3288314324945
 10
1041.509328783542
 20
313.1497424351882
 10
1041.253487358818
 20
313.0218217228269
 10
1040.946477649152
 20
312.9962375803551
 10
1040.639467939483
 20
313.0218217228275
 10
1040.383626514762
 20
313.1497424351887
 10
1040.230121659929
 20
313.3032472900227
 10
1040.12778509004
 20
313.5079204298009
 10
1040.05103266262
 20
313.8660984244135
 10
1040.05103266262
 20
314.0196032792462
 10
1040.05103266262
 20
315.4998286651424
 10
1037.59860986278
 20
315.4998286651424
 10
1037.59860986278
 20
313.7637618545229
 10
1037.649778147724
 20
313.2264948626064
 10
1037.777698860084
 20
312.8171485830504
 10
1037.931203714921
 20
312.4589705884367
 10
1038.135876854697
 20
312.2031291637161
 10
1038.340549994477
 20
311.9984560239359
 10
1038.49405484931
 20
311.8705353115745
 10
1038.673143846615
 20
311.7681987416854
 10
1038.442886564366
 20
311.6658621717971
 10
1038.263797567061
 20
311.5379414594355
 10
1037.982371999863
 20
311.230931749769
 10
1037.752114717613
 20
310.8727537551556
 10
1037.624194005251
 20
310.5182306380406
 10
1037.521857435363
 20
310.1856367859012
 10
1037.470689150419
 20
309.9042112187047
 10
1037.445105007946
 20
309.6483697939814
 10
1037.445105007946
 20
307.5248859687838
 10
1039.999864377677
 20
307.5248859687838
 10
1039.999864377677
 20
309.4692807966773
 10
1040.025448520149
 20
309.6739539364577
 10
1040.051032662623
 20
309.8530429337604
 10
1040.102200947567
 20
310.0833002160115
 10
1040.230121659929
 20
310.287973355789
 10
1040.409210657235
 20
310.4926464955676
 10
1040.665052081958
 20
310.6205672079293
 10
1041.023230076569
 20
310.6717354928739
 10
1041.35582392871
 20
310.620567207929
 10
1041.611665353432
 20
310.4926464955676
 10
1041.765170208264
 20
310.2879733557898
 10
1041.867506778154
 20
310.0577160735402
 10
1041.918675063099
 20
309.853042933759
 10
1041.944259205572
 20
309.6483697939827
 10
1041.944259205572
 20
309.4692807966768
 10
1041.944259205572
 20
307.5248859687838
 10
1044.47343443283
 20
307.5248859687838
 10
1044.47343443283
 20
309.6739539364561
 10
1044.422266147887
 20
310.2368050708452
 10
1044.268761293053
 20
310.697319635345
 10
1044.089672295746
 20
311.0518427524626
 10
1043.859415013495
 20
311.3332683196571
 97
        0
 75
     0
 76
     1
 47
0.04298
 98
        8
 10
1010.802480113247
 20
312.1810778429067
 10
1015.902377201247
 20
309.8820016349067
 10
1015.902377201247
 20
309.8820016349067
 10
1022.902237937247
 20
310.8815990909065
 10
1027.502145425245
 20
311.3813970269066
 10
1030.602082529246
 20
311.8811965469068
 10
1030.602082529246
 20
311.8811965469068
 10
1039.401905825246
 20
311.4813585149065
450
        0
451
        0
460
0.0
461
0.0
452
        0
462
0.0
453
        0
470

  0
POLYLINE
  5
646
330
1F
100
AcDbEntity
  8
4
100
AcDb2dPolyline
 66
     1
 10
0.0
 20
0.0
 30
0.0
  0
VERTEX
  5
647
330
646
100
AcDbEntity
  8
4
100
AcDbVertex
100
AcDb2dVertex
 10
1011.912130721248
 20
312.5868907229063
 30
0.0
  0
VERTEX
  5
648
330
646
100
AcDbEntity
  8
4
100
AcDbVertex
100
AcDb2dVertex
 10
1011.963298673246
 20
312.8683168349064
 30
0.0
  0
VERTEX
  5
649
330
646
100
AcDbEntity
  8
4
100
AcDbVertex
100
AcDb2dVertex
 10
1012.065636161247
 20
313.0729902269062
 30
0.0
  0
VERTEX
  5
64A
330
646
100
AcDbEntity
  8
4
100
AcDbVertex
100
AcDb2dVertex
 10
1012.219140017246
 20
313.2264940829062
 30
0.0
  0
VERTEX
  5
64B
330
646
100
AcDbEntity
  8
4
100
AcDbVertex
100
AcDb2dVertex
 10
1012.372645457247
 20
313.3544163389063
 30
0.0
  0
VERTEX
  5
64C
330
646
100
AcDbEntity
  8
4
100
AcDbVertex
100
AcDb2dVertex
 10
1012.679654753247
 20
313.4311674749063
 30
0.0
  0
VERTEX
  5
64D
330
646
100
AcDbEntity
  8
4
100
AcDbVertex
100
AcDb2dVertex
 10
1012.833160193247
 20
313.4567522429064
 30
0.0
  0
VERTEX
  5
64E
330
646
100
AcDbEntity
  8
4
100
AcDbVertex
100
AcDb2dVertex
 10
1013.114586305246
 20
313.4567522429064
 30
0.0
  0
VERTEX
  5
64F
330
646
100
AcDbEntity
  8
4
100
AcDbVertex
100
AcDb2dVertex
 10
1013.114586305246
 20
315.5765814269063
 30
0.0
  0
VERTEX
  5
650
330
646
100
AcDbEntity
  8
4
100
AcDbVertex
100
AcDb2dVertex
 10
1012.193556833247
 20
315.5765814269063
 30
0.0
  0
VERTEX
  5
651
330
646
100
AcDbEntity
  8
4
100
AcDbVertex
100
AcDb2dVertex
 10
1011.681874145246
 20
315.5509966589063
 30
0.0
  0
VERTEX
  5
652
330
646
100
AcDbEntity
  8
4
100
AcDbVertex
100
AcDb2dVertex
 10
1011.246942593247
 20
315.4998287069066
 30
0.0
  0
VERTEX
  5
653
330
646
100
AcDbEntity
  8
4
100
AcDbVertex
100
AcDb2dVertex
 10
1010.888765345246
 20
315.3719080349064
 30
0.0
  0
VERTEX
  5
654
330
646
100
AcDbEntity
  8
4
100
AcDbVertex
100
AcDb2dVertex
 10
1010.556171281247
 20
315.2439873629065
 30
0.0
  0
VERTEX
  5
655
330
646
100
AcDbEntity
  8
4
100
AcDbVertex
100
AcDb2dVertex
 10
1010.303984225247
 20
315.0648987389063
 30
0.0
  0
VERTEX
  5
656
330
646
100
AcDbEntity
  8
4
100
AcDbVertex
100
AcDb2dVertex
 10
1010.073727649247
 20
314.8858085309062
 30
0.0
  0
VERTEX
  5
657
330
646
100
AcDbEntity
  8
4
100
AcDbVertex
100
AcDb2dVertex
 10
1009.894639025247
 20
314.6811367229063
 30
0.0
  0
VERTEX
  5
658
330
646
100
AcDbEntity
  8
4
100
AcDbVertex
100
AcDb2dVertex
 10
1009.741133585247
 20
314.4764633309063
 30
0.0
  0
VERTEX
  5
659
330
646
100
AcDbEntity
  8
4
100
AcDbVertex
100
AcDb2dVertex
 10
1009.562044961247
 20
314.0451876509063
 30
0.0
  0
VERTEX
  5
65A
330
646
100
AcDbEntity
  8
4
100
AcDbVertex
100
AcDb2dVertex
 10
1009.459707473246
 20
313.6870088189063
 30
0.0
  0
VERTEX
  5
65B
330
646
100
AcDbEntity
  8
4
100
AcDbVertex
100
AcDb2dVertex
 10
1009.434124289247
 20
313.3544163389063
 30
0.0
  0
VERTEX
  5
65C
330
646
100
AcDbEntity
  8
4
100
AcDbVertex
100
AcDb2dVertex
 10
1009.434124289247
 20
307.4993013149064
 30
0.0
  0
VERTEX
  5
65D
330
646
100
AcDbEntity
  8
4
100
AcDbVertex
100
AcDb2dVertex
 10
1011.912130721248
 20
307.4993013149064
 30
0.0
  0
VERTEX
  5
65E
330
646
100
AcDbEntity
  8
4
100
AcDbVertex
100
AcDb2dVertex
 10
1011.912130721248
 20
312.5868907229063
 30
0.0
  0
VERTEX
  5
65F
330
646
100
AcDbEntity
  8
4
100
AcDbVertex
100
AcDb2dVertex
 10
1011.912130721248
 20
312.5868907229063
 30
0.0
  0
SEQEND
  5
660
330
646
100
AcDbEntity
  8
4
  0
POLYLINE
  5
661
330
1F
100
AcDbEntity
  8
4
100
AcDb2dPolyline
 66
     1
 10
0.0
 20
0.0
 30
0.0
  0
VERTEX
  5
662
330
661
100
AcDbEntity
  8
4
100
AcDbVertex
100
AcDb2dVertex
 10
1006.205818241247
 20
321.1092970109063
 30
0.0
  0
VERTEX
  5
663
330
661
100
AcDbEntity
  8
4
100
AcDbVertex
100
AcDb2dVertex
 10
1006.118663393247
 20
321.1064854109064
 30
0.0
  0
VERTEX
  5
664
330
661
100
AcDbEntity
  8
4
100
AcDbVertex
100
AcDb2dVertex
 10
1006.031508545247
 20
321.0980506109063
 30
0.0
  0
VERTEX
  5
665
330
661
100
AcDbEntity
  8
4
100
AcDbVertex
100
AcDb2dVertex
 10
1005.944353697247
 20
321.0868057949064
 30
0.0
  0
VERTEX
  5
666
330
661
100
AcDbEntity
  8
4
100
AcDbVertex
100
AcDb2dVertex
 10
1005.857198849247
 20
321.0727477949063
 30
0.0
  0
VERTEX
  5
667
330
661
100
AcDbEntity
  8
4
100
AcDbVertex
100
AcDb2dVertex
 10
1005.772855601247
 20
321.0530681789064
 30
0.0
  0
VERTEX
  5
668
330
661
100
AcDbEntity
  8
4
100
AcDbVertex
100
AcDb2dVertex
 10
1005.691323953247
 20
321.0277653629064
 30
0.0
  0
VERTEX
  5
669
330
661
100
AcDbEntity
  8
4
100
AcDbVertex
100
AcDb2dVertex
 10
1005.609790721247
 20
320.9996509469063
 30
0.0
  0
VERTEX
  5
66A
330
661
100
AcDbEntity
  8
4
100
AcDbVertex
100
AcDb2dVertex
 10
1005.531070673247
 20
320.9687249309063
 30
0.0
  0
VERTEX
  5
66B
330
661
100
AcDbEntity
  8
4
100
AcDbVertex
100
AcDb2dVertex
 10
1005.455162225247
 20
320.9349873149063
 30
0.0
  0
VERTEX
  5
66C
330
661
100
AcDbEntity
  8
4
100
AcDbVertex
100
AcDb2dVertex
 10
1005.379252193246
 20
320.8956280829064
 30
0.0
  0
VERTEX
  5
66D
330
661
100
AcDbEntity
  8
4
100
AcDbVertex
100
AcDb2dVertex
 10
1005.306155345246
 20
320.8534556669064
 30
0.0
  0
VERTEX
  5
66E
330
661
100
AcDbEntity
  8
4
100
AcDbVertex
100
AcDb2dVertex
 10
1005.235868513247
 20
320.8056616349064
 30
0.0
  0
VERTEX
  5
66F
330
661
100
AcDbEntity
  8
4
100
AcDbVertex
100
AcDb2dVertex
 10
1005.168394865247
 20
320.7578660189063
 30
0.0
  0
VERTEX
  5
670
330
661
100
AcDbEntity
  8
4
100
AcDbVertex
100
AcDb2dVertex
 10
1005.100919633247
 20
320.7044487869064
 30
0.0
  0
VERTEX
  5
671
330
661
100
AcDbEntity
  8
4
100
AcDbVertex
100
AcDb2dVertex
 10
1005.036256001246
 20
320.6510315549063
 30
0.0
  0
VERTEX
  5
672
330
661
100
AcDbEntity
  8
4
100
AcDbVertex
100
AcDb2dVertex
 10
1004.977217153247
 20
320.5919911229062
 30
0.0
  0
VERTEX
  5
673
330
661
100
AcDbEntity
  8
4
100
AcDbVertex
100
AcDb2dVertex
 10
1004.918176721247
 20
320.5301390909064
 30
0.0
  0
VERTEX
  5
674
330
661
100
AcDbEntity
  8
4
100
AcDbVertex
100
AcDb2dVertex
 10
1004.864757905247
 20
320.4682886429065
 30
0.0
  0
VERTEX
  5
675
330
661
100
AcDbEntity
  8
4
100
AcDbVertex
100
AcDb2dVertex
 10
1004.811340673247
 20
320.400813410906
 30
0.0
  0
VERTEX
  5
676
330
661
100
AcDbEntity
  8
4
100
AcDbVertex
100
AcDb2dVertex
 10
1004.763546641246
 20
320.3333381789066
 30
0.0
  0
VERTEX
  5
677
330
661
100
AcDbEntity
  8
4
100
AcDbVertex
100
AcDb2dVertex
 10
1004.715752609247
 20
320.2630529309062
 30
0.0
  0
VERTEX
  5
678
330
661
100
AcDbEntity
  8
4
100
AcDbVertex
100
AcDb2dVertex
 10
1004.673580193247
 20
320.1899544989065
 30
0.0
  0
VERTEX
  5
679
330
661
100
AcDbEntity
  8
4
100
AcDbVertex
100
AcDb2dVertex
 10
1004.634220961247
 20
320.1140460509062
 30
0.0
  0
VERTEX
  5
67A
330
661
100
AcDbEntity
  8
4
100
AcDbVertex
100
AcDb2dVertex
 10
1004.600483345247
 20
320.0381376029061
 30
0.0
  0
VERTEX
  5
67B
330
661
100
AcDbEntity
  8
4
100
AcDbVertex
100
AcDb2dVertex
 10
1004.569557329246
 20
319.9594159709064
 30
0.0
  0
VERTEX
  5
67C
330
661
100
AcDbEntity
  8
4
100
AcDbVertex
100
AcDb2dVertex
 10
1004.541442913247
 20
319.8778843229061
 30
0.0
  0
VERTEX
  5
67D
330
661
100
AcDbEntity
  8
4
100
AcDbVertex
100
AcDb2dVertex
 10
1004.516140097247
 20
319.7963526749064
 30
0.0
  0
VERTEX
  5
67E
330
661
100
AcDbEntity
  8
4
100
AcDbVertex
100
AcDb2dVertex
 10
1004.496458897246
 20
319.712009426906
 30
0.0
  0
VERTEX
  5
67F
330
661
100
AcDbEntity
  8
4
100
AcDbVertex
100
AcDb2dVertex
 10
1004.482402481245
 20
319.6248545789064
 30
0.0
  0
VERTEX
  5
680
330
661
100
AcDbEntity
  8
4
100
AcDbVertex
100
AcDb2dVertex
 10
1004.471156081247
 20
319.5376997309063
 30
0.0
  0
VERTEX
  5
681
330
661
100
AcDbEntity
  8
4
100
AcDbVertex
100
AcDb2dVertex
 10
1004.462722865246
 20
319.4505448829064
 30
0.0
  0
VERTEX
  5
682
330
661
100
AcDbEntity
  8
4
100
AcDbVertex
100
AcDb2dVertex
 10
1004.459911265247
 20
319.3633900349063
 30
0.0
  0
VERTEX
  5
683
330
661
100
AcDbEntity
  8
4
100
AcDbVertex
100
AcDb2dVertex
 10
1004.847889889247
 20
319.3633900349063
 30
0.0
  0
VERTEX
  5
684
330
661
100
AcDbEntity
  8
4
100
AcDbVertex
100
AcDb2dVertex
 10
1004.847889889247
 20
319.4308652669063
 30
0.0
  0
VERTEX
  5
685
330
661
100
AcDbEntity
  8
4
100
AcDbVertex
100
AcDb2dVertex
 10
1004.853513089247
 20
319.4983389149064
 30
0.0
  0
VERTEX
  5
686
330
661
100
AcDbEntity
  8
4
100
AcDbVertex
100
AcDb2dVertex
 10
1004.861947889247
 20
319.5658141469064
 30
0.0
  0
VERTEX
  5
687
330
661
100
AcDbEntity
  8
4
100
AcDbVertex
100
AcDb2dVertex
 10
1004.876004305248
 20
319.6332893789065
 30
0.0
  0
VERTEX
  5
688
330
661
100
AcDbEntity
  8
4
100
AcDbVertex
100
AcDb2dVertex
 10
1004.890062305246
 20
319.6979514269064
 30
0.0
  0
VERTEX
  5
689
330
661
100
AcDbEntity
  8
4
100
AcDbVertex
100
AcDb2dVertex
 10
1004.909741921247
 20
319.7598034589063
 30
0.0
  0
VERTEX
  5
68A
330
661
100
AcDbEntity
  8
4
100
AcDbVertex
100
AcDb2dVertex
 10
1004.929421537246
 20
319.8244670909064
 30
0.0
  0
VERTEX
  5
68B
330
661
100
AcDbEntity
  8
4
100
AcDbVertex
100
AcDb2dVertex
 10
1004.954724353247
 20
319.8863191229063
 30
0.0
  0
VERTEX
  5
68C
330
661
100
AcDbEntity
  8
4
100
AcDbVertex
100
AcDb2dVertex
 10
1004.982838769247
 20
319.9453595549064
 30
0.0
  0
VERTEX
  5
68D
330
661
100
AcDbEntity
  8
4
100
AcDbVertex
100
AcDb2dVertex
 10
1005.013764785247
 20
320.0043999869064
 30
0.0
  0
VERTEX
  5
68E
330
661
100
AcDbEntity
  8
4
100
AcDbVertex
100
AcDb2dVertex
 10
1005.047502401247
 20
320.0606288189064
 30
0.0
  0
VERTEX
  5
68F
330
661
100
AcDbEntity
  8
4
100
AcDbVertex
100
AcDb2dVertex
 10
1005.081240017247
 20
320.1168576509062
 30
0.0
  0
VERTEX
  5
690
330
661
100
AcDbEntity
  8
4
100
AcDbVertex
100
AcDb2dVertex
 10
1005.120599249248
 20
320.1702748829064
 30
0.0
  0
VERTEX
  5
691
330
661
100
AcDbEntity
  8
4
100
AcDbVertex
100
AcDb2dVertex
 10
1005.159960065247
 20
320.2208805149064
 30
0.0
  0
VERTEX
  5
692
330
661
100
AcDbEntity
  8
4
100
AcDbVertex
100
AcDb2dVertex
 10
1005.204944081245
 20
320.2714861469063
 30
0.0
  0
VERTEX
  5
693
330
661
100
AcDbEntity
  8
4
100
AcDbVertex
100
AcDb2dVertex
 10
1005.249926513247
 20
320.3192817629064
 30
0.0
  0
VERTEX
  5
694
330
661
100
AcDbEntity
  8
4
100
AcDbVertex
100
AcDb2dVertex
 10
1005.297720545246
 20
320.3642641949063
 30
0.0
  0
VERTEX
  5
695
330
661
100
AcDbEntity
  8
4
100
AcDbVertex
100
AcDb2dVertex
 10
1005.348327761247
 20
320.4064366109063
 30
0.0
  0
VERTEX
  5
696
330
661
100
AcDbEntity
  8
4
100
AcDbVertex
100
AcDb2dVertex
 10
1005.398933393246
 20
320.4486074429063
 30
0.0
  0
VERTEX
  5
697
330
661
100
AcDbEntity
  8
4
100
AcDbVertex
100
AcDb2dVertex
 10
1005.452350625246
 20
320.4879682589063
 30
0.0
  0
VERTEX
  5
698
330
661
100
AcDbEntity
  8
4
100
AcDbVertex
100
AcDb2dVertex
 10
1005.508579457247
 20
320.5217058749063
 30
0.0
  0
VERTEX
  5
699
330
661
100
AcDbEntity
  8
4
100
AcDbVertex
100
AcDb2dVertex
 10
1005.564808289247
 20
320.5554419069064
 30
0.0
  0
VERTEX
  5
69A
330
661
100
AcDbEntity
  8
4
100
AcDbVertex
100
AcDb2dVertex
 10
1005.623848721247
 20
320.5863679229064
 30
0.0
  0
VERTEX
  5
69B
330
661
100
AcDbEntity
  8
4
100
AcDbVertex
100
AcDb2dVertex
 10
1005.682889153246
 20
320.6144823389065
 30
0.0
  0
VERTEX
  5
69C
330
661
100
AcDbEntity
  8
4
100
AcDbVertex
100
AcDb2dVertex
 10
1005.744741185247
 20
320.6369751389063
 30
0.0
  0
VERTEX
  5
69D
330
661
100
AcDbEntity
  8
4
100
AcDbVertex
100
AcDb2dVertex
 10
1005.806593217247
 20
320.6594663549065
 30
0.0
  0
VERTEX
  5
69E
330
661
100
AcDbEntity
  8
4
100
AcDbVertex
100
AcDb2dVertex
 10
1005.871255265246
 20
320.6791459709062
 30
0.0
  0
VERTEX
  5
69F
330
661
100
AcDbEntity
  8
4
100
AcDbVertex
100
AcDb2dVertex
 10
1005.935918897246
 20
320.6932039709062
 30
0.0
  0
VERTEX
  5
6A0
330
661
100
AcDbEntity
  8
4
100
AcDbVertex
100
AcDb2dVertex
 10
1006.003394129247
 20
320.7072603869062
 30
0.0
  0
VERTEX
  5
6A1
330
661
100
AcDbEntity
  8
4
100
AcDbVertex
100
AcDb2dVertex
 10
1006.070867777247
 20
320.7156951869064
 30
0.0
  0
VERTEX
  5
6A2
330
661
100
AcDbEntity
  8
4
100
AcDbVertex
100
AcDb2dVertex
 10
1006.138343009247
 20
320.7213183869063
 30
0.0
  0
VERTEX
  5
6A3
330
661
100
AcDbEntity
  8
4
100
AcDbVertex
100
AcDb2dVertex
 10
1006.205818241247
 20
320.7213183869063
 30
0.0
  0
VERTEX
  5
6A4
330
661
100
AcDbEntity
  8
4
100
AcDbVertex
100
AcDb2dVertex
 10
1006.205818241247
 20
321.1092970109063
 30
0.0
  0
VERTEX
  5
6A5
330
661
100
AcDbEntity
  8
4
100
AcDbVertex
100
AcDb2dVertex
 10
1006.205818241247
 20
321.1092970109063
 30
0.0
  0
SEQEND
  5
6A6
330
661
100
AcDbEntity
  8
4
  0
POLYLINE
  5
6A7
330
1F
100
AcDbEntity
  8
4
100
AcDb2dPolyline
 66
     1
 10
0.0
 20
0.0
 30
0.0
  0
VERTEX
  5
6A8
330
6A7
100
AcDbEntity
  8
4
100
AcDbVertex
100
AcDb2dVertex
 10
1004.459911265247
 20
319.3633900349063
 30
0.0
  0
VERTEX
  5
6A9
330
6A7
100
AcDbEntity
  8
4
100
AcDbVertex
100
AcDb2dVertex
 10
1004.459911265247
 20
305.8150404509062
 30
0.0
  0
VERTEX
  5
6AA
330
6A7
100
AcDbEntity
  8
4
100
AcDbVertex
100
AcDb2dVertex
 10
1004.847889889247
 20
305.8150404509062
 30
0.0
  0
VERTEX
  5
6AB
330
6A7
100
AcDbEntity
  8
4
100
AcDbVertex
100
AcDb2dVertex
 10
1004.847889889247
 20
319.3633900349063
 30
0.0
  0
VERTEX
  5
6AC
330
6A7
100
AcDbEntity
  8
4
100
AcDbVertex
100
AcDb2dVertex
 10
1004.459911265247
 20
319.3633900349063
 30
0.0
  0
VERTEX
  5
6AD
330
6A7
100
AcDbEntity
  8
4
100
AcDbVertex
100
AcDb2dVertex
 10
1004.459911265247
 20
319.3633900349063
 30
0.0
  0
SEQEND
  5
6AE
330
6A7
100
AcDbEntity
  8
4
  0
POLYLINE
  5
6AF
330
1F
100
AcDbEntity
  8
4
100
AcDb2dPolyline
 66
     1
 10
0.0
 20
0.0
 30
0.0
  0
VERTEX
  5
6B0
330
6AF
100
AcDbEntity
  8
4
100
AcDbVertex
100
AcDb2dVertex
 10
1004.459911265247
 20
305.8150404509062
 30
0.0
  0
VERTEX
  5
6B1
330
6AF
100
AcDbEntity
  8
4
100
AcDbVertex
100
AcDb2dVertex
 10
1004.462722865246
 20
305.7278856029065
 30
0.0
  0
VERTEX
  5
6B2
330
6AF
100
AcDbEntity
  8
4
100
AcDbVertex
100
AcDb2dVertex
 10
1004.471156081247
 20
305.6407307549064
 30
0.0
  0
VERTEX
  5
6B3
330
6AF
100
AcDbEntity
  8
4
100
AcDbVertex
100
AcDb2dVertex
 10
1004.482402481245
 20
305.5535759069064
 30
0.0
  0
VERTEX
  5
6B4
330
6AF
100
AcDbEntity
  8
4
100
AcDbVertex
100
AcDb2dVertex
 10
1004.496458897246
 20
305.4692326589063
 30
0.0
  0
VERTEX
  5
6B5
330
6AF
100
AcDbEntity
  8
4
100
AcDbVertex
100
AcDb2dVertex
 10
1004.516140097247
 20
305.3848894109064
 30
0.0
  0
VERTEX
  5
6B6
330
6AF
100
AcDbEntity
  8
4
100
AcDbVertex
100
AcDb2dVertex
 10
1004.541442913247
 20
305.3033577629063
 30
0.0
  0
VERTEX
  5
6B7
330
6AF
100
AcDbEntity
  8
4
100
AcDbVertex
100
AcDb2dVertex
 10
1004.569557329246
 20
305.2218261149063
 30
0.0
  0
VERTEX
  5
6B8
330
6AF
100
AcDbEntity
  8
4
100
AcDbVertex
100
AcDb2dVertex
 10
1004.600483345247
 20
305.143106066906
 30
0.0
  0
VERTEX
  5
6B9
330
6AF
100
AcDbEntity
  8
4
100
AcDbVertex
100
AcDb2dVertex
 10
1004.637030977247
 20
305.0671960349064
 30
0.0
  0
VERTEX
  5
6BA
330
6AF
100
AcDbEntity
  8
4
100
AcDbVertex
100
AcDb2dVertex
 10
1004.676391793246
 20
304.9912875869064
 30
0.0
  0
VERTEX
  5
6BB
330
6AF
100
AcDbEntity
  8
4
100
AcDbVertex
100
AcDb2dVertex
 10
1004.718564209247
 20
304.9210007549064
 30
0.0
  0
VERTEX
  5
6BC
330
6AF
100
AcDbEntity
  8
4
100
AcDbVertex
100
AcDb2dVertex
 10
1004.763546641246
 20
304.8507155069064
 30
0.0
  0
VERTEX
  5
6BD
330
6AF
100
AcDbEntity
  8
4
100
AcDbVertex
100
AcDb2dVertex
 10
1004.811340673247
 20
304.7832402749063
 30
0.0
  0
VERTEX
  5
6BE
330
6AF
100
AcDbEntity
  8
4
100
AcDbVertex
100
AcDb2dVertex
 10
1004.864757905247
 20
304.7185766429064
 30
0.0
  0
VERTEX
  5
6BF
330
6AF
100
AcDbEntity
  8
4
100
AcDbVertex
100
AcDb2dVertex
 10
1004.920986737247
 20
304.6539145949064
 30
0.0
  0
VERTEX
  5
6C0
330
6AF
100
AcDbEntity
  8
4
100
AcDbVertex
100
AcDb2dVertex
 10
1004.977217153247
 20
304.5948741629064
 30
0.0
  0
VERTEX
  5
6C1
330
6AF
100
AcDbEntity
  8
4
100
AcDbVertex
100
AcDb2dVertex
 10
1005.039067601247
 20
304.5386453309061
 30
0.0
  0
VERTEX
  5
6C2
330
6AF
100
AcDbEntity
  8
4
100
AcDbVertex
100
AcDb2dVertex
 10
1005.103731233246
 20
304.4824164989064
 30
0.0
  0
VERTEX
  5
6C3
330
6AF
100
AcDbEntity
  8
4
100
AcDbVertex
100
AcDb2dVertex
 10
1005.168394865247
 20
304.4318092829063
 30
0.0
  0
VERTEX
  5
6C4
330
6AF
100
AcDbEntity
  8
4
100
AcDbVertex
100
AcDb2dVertex
 10
1005.235868513247
 20
304.3840152509063
 30
0.0
  0
VERTEX
  5
6C5
330
6AF
100
AcDbEntity
  8
4
100
AcDbVertex
100
AcDb2dVertex
 10
1005.308966945249
 20
304.3390328189064
 30
0.0
  0
VERTEX
  5
6C6
330
6AF
100
AcDbEntity
  8
4
100
AcDbVertex
100
AcDb2dVertex
 10
1005.379252193246
 20
304.2968604029061
 30
0.0
  0
VERTEX
  5
6C7
330
6AF
100
AcDbEntity
  8
4
100
AcDbVertex
100
AcDb2dVertex
 10
1005.455162225247
 20
304.2603111869063
 30
0.0
  0
VERTEX
  5
6C8
330
6AF
100
AcDbEntity
  8
4
100
AcDbVertex
100
AcDb2dVertex
 10
1005.533882273246
 20
304.2237635549065
 30
0.0
  0
VERTEX
  5
6C9
330
6AF
100
AcDbEntity
  8
4
100
AcDbVertex
100
AcDb2dVertex
 10
1005.612602321245
 20
304.1956491389063
 30
0.0
  0
VERTEX
  5
6CA
330
6AF
100
AcDbEntity
  8
4
100
AcDbVertex
100
AcDb2dVertex
 10
1005.694133969247
 20
304.1675347229063
 30
0.0
  0
VERTEX
  5
6CB
330
6AF
100
AcDbEntity
  8
4
100
AcDbVertex
100
AcDb2dVertex
 10
1005.775667201245
 20
304.1422319069064
 30
0.0
  0
VERTEX
  5
6CC
330
6AF
100
AcDbEntity
  8
4
100
AcDbVertex
100
AcDb2dVertex
 10
1005.860010449247
 20
304.1253623069064
 30
0.0
  0
VERTEX
  5
6CD
330
6AF
100
AcDbEntity
  8
4
100
AcDbVertex
100
AcDb2dVertex
 10
1005.944353697247
 20
304.1084942909062
 30
0.0
  0
VERTEX
  5
6CE
330
6AF
100
AcDbEntity
  8
4
100
AcDbVertex
100
AcDb2dVertex
 10
1006.031508545247
 20
304.1000594909064
 30
0.0
  0
VERTEX
  5
6CF
330
6AF
100
AcDbEntity
  8
4
100
AcDbVertex
100
AcDb2dVertex
 10
1006.118663393247
 20
304.0916246909064
 30
0.0
  0
VERTEX
  5
6D0
330
6AF
100
AcDbEntity
  8
4
100
AcDbVertex
100
AcDb2dVertex
 10
1006.205818241247
 20
304.0888130909063
 30
0.0
  0
VERTEX
  5
6D1
330
6AF
100
AcDbEntity
  8
4
100
AcDbVertex
100
AcDb2dVertex
 10
1006.205818241247
 20
304.4767932989063
 30
0.0
  0
VERTEX
  5
6D2
330
6AF
100
AcDbEntity
  8
4
100
AcDbVertex
100
AcDb2dVertex
 10
1006.138343009247
 20
304.4767932989063
 30
0.0
  0
VERTEX
  5
6D3
330
6AF
100
AcDbEntity
  8
4
100
AcDbVertex
100
AcDb2dVertex
 10
1006.068056177245
 20
304.4824164989064
 30
0.0
  0
VERTEX
  5
6D4
330
6AF
100
AcDbEntity
  8
4
100
AcDbVertex
100
AcDb2dVertex
 10
1006.000582529247
 20
304.4908497149066
 30
0.0
  0
VERTEX
  5
6D5
330
6AF
100
AcDbEntity
  8
4
100
AcDbVertex
100
AcDb2dVertex
 10
1005.935918897246
 20
304.5020961149067
 30
0.0
  0
VERTEX
  5
6D6
330
6AF
100
AcDbEntity
  8
4
100
AcDbVertex
100
AcDb2dVertex
 10
1005.871255265246
 20
304.5189641309061
 30
0.0
  0
VERTEX
  5
6D7
330
6AF
100
AcDbEntity
  8
4
100
AcDbVertex
100
AcDb2dVertex
 10
1005.806593217247
 20
304.5358337309064
 30
0.0
  0
VERTEX
  5
6D8
330
6AF
100
AcDbEntity
  8
4
100
AcDbVertex
100
AcDb2dVertex
 10
1005.744741185247
 20
304.5583249469063
 30
0.0
  0
VERTEX
  5
6D9
330
6AF
100
AcDbEntity
  8
4
100
AcDbVertex
100
AcDb2dVertex
 10
1005.682889153246
 20
304.5808161629063
 30
0.0
  0
VERTEX
  5
6DA
330
6AF
100
AcDbEntity
  8
4
100
AcDbVertex
100
AcDb2dVertex
 10
1005.621037121247
 20
304.6089305789063
 30
0.0
  0
VERTEX
  5
6DB
330
6AF
100
AcDbEntity
  8
4
100
AcDbVertex
100
AcDb2dVertex
 10
1005.564808289247
 20
304.6370449949061
 30
0.0
  0
VERTEX
  5
6DC
330
6AF
100
AcDbEntity
  8
4
100
AcDbVertex
100
AcDb2dVertex
 10
1005.505767857247
 20
304.6707826109064
 30
0.0
  0
VERTEX
  5
6DD
330
6AF
100
AcDbEntity
  8
4
100
AcDbVertex
100
AcDb2dVertex
 10
1005.452350625246
 20
304.7073318269063
 30
0.0
  0
VERTEX
  5
6DE
330
6AF
100
AcDbEntity
  8
4
100
AcDbVertex
100
AcDb2dVertex
 10
1005.396121793247
 20
304.7438810429064
 30
0.0
  0
VERTEX
  5
6DF
330
6AF
100
AcDbEntity
  8
4
100
AcDbVertex
100
AcDb2dVertex
 10
1005.345516161247
 20
304.7832402749063
 30
0.0
  0
VERTEX
  5
6E0
330
6AF
100
AcDbEntity
  8
4
100
AcDbVertex
100
AcDb2dVertex
 10
1005.294908945247
 20
304.8254126909063
 30
0.0
  0
VERTEX
  5
6E1
330
6AF
100
AcDbEntity
  8
4
100
AcDbVertex
100
AcDb2dVertex
 10
1005.249926513247
 20
304.8703951229061
 30
0.0
  0
VERTEX
  5
6E2
330
6AF
100
AcDbEntity
  8
4
100
AcDbVertex
100
AcDb2dVertex
 10
1005.202132481245
 20
304.9181891549062
 30
0.0
  0
VERTEX
  5
6E3
330
6AF
100
AcDbEntity
  8
4
100
AcDbVertex
100
AcDb2dVertex
 10
1005.159960065247
 20
304.9659847709063
 30
0.0
  0
VERTEX
  5
6E4
330
6AF
100
AcDbEntity
  8
4
100
AcDbVertex
100
AcDb2dVertex
 10
1005.120599249248
 20
305.0165904029065
 30
0.0
  0
VERTEX
  5
6E5
330
6AF
100
AcDbEntity
  8
4
100
AcDbVertex
100
AcDb2dVertex
 10
1005.081240017247
 20
305.0700076349063
 30
0.0
  0
VERTEX
  5
6E6
330
6AF
100
AcDbEntity
  8
4
100
AcDbVertex
100
AcDb2dVertex
 10
1005.044690801247
 20
305.1234248669064
 30
0.0
  0
VERTEX
  5
6E7
330
6AF
100
AcDbEntity
  8
4
100
AcDbVertex
100
AcDb2dVertex
 10
1005.010953185246
 20
305.1796536989062
 30
0.0
  0
VERTEX
  5
6E8
330
6AF
100
AcDbEntity
  8
4
100
AcDbVertex
100
AcDb2dVertex
 10
1004.982838769247
 20
305.2386941309063
 30
0.0
  0
VERTEX
  5
6E9
330
6AF
100
AcDbEntity
  8
4
100
AcDbVertex
100
AcDb2dVertex
 10
1004.954724353247
 20
305.2949229629063
 30
0.0
  0
VERTEX
  5
6EA
330
6AF
100
AcDbEntity
  8
4
100
AcDbVertex
100
AcDb2dVertex
 10
1004.929421537246
 20
305.3567749949063
 30
0.0
  0
VERTEX
  5
6EB
330
6AF
100
AcDbEntity
  8
4
100
AcDbVertex
100
AcDb2dVertex
 10
1004.906930321246
 20
305.4186270269063
 30
0.0
  0
VERTEX
  5
6EC
330
6AF
100
AcDbEntity
  8
4
100
AcDbVertex
100
AcDb2dVertex
 10
1004.890062305246
 20
305.4832906589061
 30
0.0
  0
VERTEX
  5
6ED
330
6AF
100
AcDbEntity
  8
4
100
AcDbVertex
100
AcDb2dVertex
 10
1004.876004305248
 20
305.5479527069064
 30
0.0
  0
VERTEX
  5
6EE
330
6AF
100
AcDbEntity
  8
4
100
AcDbVertex
100
AcDb2dVertex
 10
1004.861947889247
 20
305.6126163389064
 30
0.0
  0
VERTEX
  5
6EF
330
6AF
100
AcDbEntity
  8
4
100
AcDbVertex
100
AcDb2dVertex
 10
1004.853513089247
 20
305.6800915709064
 30
0.0
  0
VERTEX
  5
6F0
330
6AF
100
AcDbEntity
  8
4
100
AcDbVertex
100
AcDb2dVertex
 10
1004.847889889247
 20
305.7475652189062
 30
0.0
  0
VERTEX
  5
6F1
330
6AF
100
AcDbEntity
  8
4
100
AcDbVertex
100
AcDb2dVertex
 10
1004.847889889247
 20
305.8150404509062
 30
0.0
  0
VERTEX
  5
6F2
330
6AF
100
AcDbEntity
  8
4
100
AcDbVertex
100
AcDb2dVertex
 10
1004.459911265247
 20
305.8150404509062
 30
0.0
  0
VERTEX
  5
6F3
330
6AF
100
AcDbEntity
  8
4
100
AcDbVertex
100
AcDb2dVertex
 10
1004.459911265247
 20
305.8150404509062
 30
0.0
  0
SEQEND
  5
6F4
330
6AF
100
AcDbEntity
  8
4
  0
POLYLINE
  5
6F5
330
1F
100
AcDbEntity
  8
4
100
AcDb2dPolyline
 66
     1
 10
0.0
 20
0.0
 30
0.0
  0
VERTEX
  5
6F6
330
6F5
100
AcDbEntity
  8
4
100
AcDbVertex
100
AcDb2dVertex
 10
1020.603429425246
 20
310.5949837949061
 30
0.0
  0
VERTEX
  5
6F7
330
6F5
100
AcDbEntity
  8
4
100
AcDbVertex
100
AcDb2dVertex
 10
1020.603429425246
 20
308.0877367229062
 30
0.0
  0
VERTEX
  5
6F8
330
6F5
100
AcDbEntity
  8
4
100
AcDbVertex
100
AcDb2dVertex
 10
1020.424340801247
 20
307.9854008189062
 30
0.0
  0
VERTEX
  5
6F9
330
6F5
100
AcDbEntity
  8
4
100
AcDbVertex
100
AcDb2dVertex
 10
1019.861490161247
 20
307.7295594749062
 30
0.0
  0
VERTEX
  5
6FA
330
6F5
100
AcDbEntity
  8
4
100
AcDbVertex
100
AcDb2dVertex
 10
1019.452143377247
 20
307.6016388029064
 30
0.0
  0
VERTEX
  5
6FB
330
6F5
100
AcDbEntity
  8
4
100
AcDbVertex
100
AcDb2dVertex
 10
1018.991628641247
 20
307.4993013149064
 30
0.0
  0
VERTEX
  5
6FC
330
6F5
100
AcDbEntity
  8
4
100
AcDbVertex
100
AcDb2dVertex
 10
1018.454361185247
 20
307.4225501789064
 30
0.0
  0
VERTEX
  5
6FD
330
6F5
100
AcDbEntity
  8
4
100
AcDbVertex
100
AcDb2dVertex
 10
1017.865925777247
 20
307.3969654109062
 30
0.0
  0
VERTEX
  5
6FE
330
6F5
100
AcDbEntity
  8
4
100
AcDbVertex
100
AcDb2dVertex
 10
1017.434650097247
 20
307.3969654109062
 30
0.0
  0
VERTEX
  5
6FF
330
6F5
100
AcDbEntity
  8
4
100
AcDbVertex
100
AcDb2dVertex
 10
1016.999720129245
 20
307.4481333629064
 30
0.0
  0
VERTEX
  5
700
330
6F5
100
AcDbEntity
  8
4
100
AcDbVertex
100
AcDb2dVertex
 10
1016.590373345247
 20
307.5504708509063
 30
0.0
  0
VERTEX
  5
701
330
6F5
100
AcDbEntity
  8
4
100
AcDbVertex
100
AcDb2dVertex
 10
1016.155443377246
 20
307.6528067549063
 30
0.0
  0
VERTEX
  5
702
330
6F5
100
AcDbEntity
  8
4
100
AcDbVertex
100
AcDb2dVertex
 10
1015.771681361246
 20
307.8063121949063
 30
0.0
  0
VERTEX
  5
703
330
6F5
100
AcDbEntity
  8
4
100
AcDbVertex
100
AcDb2dVertex
 10
1015.387919345247
 20
308.0109840029064
 30
0.0
  0
VERTEX
  5
704
330
6F5
100
AcDbEntity
  8
4
100
AcDbVertex
100
AcDb2dVertex
 10
1015.029742097247
 20
308.2156573949065
 30
0.0
  0
VERTEX
  5
705
330
6F5
100
AcDbEntity
  8
4
100
AcDbVertex
100
AcDb2dVertex
 10
1014.671563265247
 20
308.4714987389062
 30
0.0
  0
VERTEX
  5
706
330
6F5
100
AcDbEntity
  8
4
100
AcDbVertex
100
AcDb2dVertex
 10
1014.364553969247
 20
308.7785096189062
 30
0.0
  0
VERTEX
  5
707
330
6F5
100
AcDbEntity
  8
4
100
AcDbVertex
100
AcDb2dVertex
 10
1014.086782145247
 20
309.1111020989061
 30
0.0
  0
VERTEX
  5
708
330
6F5
100
AcDbEntity
  8
4
100
AcDbVertex
100
AcDb2dVertex
 10
1013.856525569247
 20
309.4692809309064
 30
0.0
  0
VERTEX
  5
709
330
6F5
100
AcDbEntity
  8
4
100
AcDbVertex
100
AcDb2dVertex
 10
1013.651852177247
 20
309.8530429469064
 30
0.0
  0
VERTEX
  5
70A
330
6F5
100
AcDbEntity
  8
4
100
AcDbVertex
100
AcDb2dVertex
 10
1013.472763553247
 20
310.2879729149063
 30
0.0
  0
VERTEX
  5
70B
330
6F5
100
AcDbEntity
  8
4
100
AcDbVertex
100
AcDb2dVertex
 10
1013.344842881246
 20
310.7484876509064
 30
0.0
  0
VERTEX
  5
70C
330
6F5
100
AcDbEntity
  8
4
100
AcDbVertex
100
AcDb2dVertex
 10
1013.268090161247
 20
311.2309312829063
 30
0.0
  0
VERTEX
  5
70D
330
6F5
100
AcDbEntity
  8
4
100
AcDbVertex
100
AcDb2dVertex
 10
1013.242506977247
 20
311.7681987389061
 30
0.0
  0
VERTEX
  5
70E
330
6F5
100
AcDbEntity
  8
4
100
AcDbVertex
100
AcDb2dVertex
 10
1013.319258113247
 20
312.4845548189064
 30
0.0
  0
VERTEX
  5
70F
330
6F5
100
AcDbEntity
  8
4
100
AcDbVertex
100
AcDb2dVertex
 10
1013.498348321247
 20
313.1753261309063
 30
0.0
  0
VERTEX
  5
710
330
6F5
100
AcDbEntity
  8
4
100
AcDbVertex
100
AcDb2dVertex
 10
1013.626268993247
 20
313.5079201949061
 30
0.0
  0
VERTEX
  5
711
330
6F5
100
AcDbEntity
  8
4
100
AcDbVertex
100
AcDb2dVertex
 10
1013.805357617247
 20
313.8405142589062
 30
0.0
  0
VERTEX
  5
712
330
6F5
100
AcDbEntity
  8
4
100
AcDbVertex
100
AcDb2dVertex
 10
1013.984446241247
 20
314.1475235549064
 30
0.0
  0
VERTEX
  5
713
330
6F5
100
AcDbEntity
  8
4
100
AcDbVertex
100
AcDb2dVertex
 10
1014.211048529247
 20
314.4252953789063
 30
0.0
  0
VERTEX
  5
714
330
6F5
100
AcDbEntity
  8
4
100
AcDbVertex
100
AcDb2dVertex
 10
1014.492474641247
 20
314.6811367229063
 30
0.0
  0
VERTEX
  5
715
330
6F5
100
AcDbEntity
  8
4
100
AcDbVertex
100
AcDb2dVertex
 10
1014.773899169247
 20
314.9369780669062
 30
0.0
  0
VERTEX
  5
716
330
6F5
100
AcDbEntity
  8
4
100
AcDbVertex
100
AcDb2dVertex
 10
1015.080910049247
 20
315.1416514589064
 30
0.0
  0
VERTEX
  5
717
330
6F5
100
AcDbEntity
  8
4
100
AcDbVertex
100
AcDb2dVertex
 10
1015.439087297246
 20
315.3207400829062
 30
0.0
  0
VERTEX
  5
718
330
6F5
100
AcDbEntity
  8
4
100
AcDbVertex
100
AcDb2dVertex
 10
1015.822849313247
 20
315.4742439389062
 30
0.0
  0
VERTEX
  5
719
330
6F5
100
AcDbEntity
  8
4
100
AcDbVertex
100
AcDb2dVertex
 10
1016.232196097247
 20
315.5765814269063
 30
0.0
  0
VERTEX
  5
71A
330
6F5
100
AcDbEntity
  8
4
100
AcDbVertex
100
AcDb2dVertex
 10
1016.667126065246
 20
315.6533341469063
 30
0.0
  0
VERTEX
  5
71B
330
6F5
100
AcDbEntity
  8
4
100
AcDbVertex
100
AcDb2dVertex
 10
1017.153225569249
 20
315.6789173309063
 30
0.0
  0
VERTEX
  5
71C
330
6F5
100
AcDbEntity
  8
4
100
AcDbVertex
100
AcDb2dVertex
 10
1017.818412113246
 20
315.6277493789064
 30
0.0
  0
VERTEX
  5
71D
330
6F5
100
AcDbEntity
  8
4
100
AcDbVertex
100
AcDb2dVertex
 10
1018.454361185247
 20
315.4486607549064
 30
0.0
  0
VERTEX
  5
71E
330
6F5
100
AcDbEntity
  8
4
100
AcDbVertex
100
AcDb2dVertex
 10
1019.042796593246
 20
315.1928194109063
 30
0.0
  0
VERTEX
  5
71F
330
6F5
100
AcDbEntity
  8
4
100
AcDbVertex
100
AcDb2dVertex
 10
1019.580064049246
 20
314.8602253469064
 30
0.0
  0
VERTEX
  5
720
330
6F5
100
AcDbEntity
  8
4
100
AcDbVertex
100
AcDb2dVertex
 10
1020.066161969247
 20
314.4508785629063
 30
0.0
  0
VERTEX
  5
721
330
6F5
100
AcDbEntity
  8
4
100
AcDbVertex
100
AcDb2dVertex
 10
1020.449923985247
 20
314.0196028829063
 30
0.0
  0
VERTEX
  5
722
330
6F5
100
AcDbEntity
  8
4
100
AcDbVertex
100
AcDb2dVertex
 10
1020.782518049247
 20
313.5079201949061
 30
0.0
  0
VERTEX
  5
723
330
6F5
100
AcDbEntity
  8
4
100
AcDbVertex
100
AcDb2dVertex
 10
1021.012776209247
 20
312.9962375069064
 30
0.0
  0
VERTEX
  5
724
330
6F5
100
AcDbEntity
  8
4
100
AcDbVertex
100
AcDb2dVertex
 10
1017.204393521247
 20
309.6739543229063
 30
0.0
  0
VERTEX
  5
725
330
6F5
100
AcDbEntity
  8
4
100
AcDbVertex
100
AcDb2dVertex
 10
1017.357898961246
 20
309.6483695549064
 30
0.0
  0
VERTEX
  5
726
330
6F5
100
AcDbEntity
  8
4
100
AcDbVertex
100
AcDb2dVertex
 10
1017.716076209247
 20
309.5716168349063
 30
0.0
  0
VERTEX
  5
727
330
6F5
100
AcDbEntity
  8
4
100
AcDbVertex
100
AcDb2dVertex
 10
1018.224104609247
 20
309.5716168349063
 30
0.0
  0
VERTEX
  5
728
330
6F5
100
AcDbEntity
  8
4
100
AcDbVertex
100
AcDb2dVertex
 10
1018.531113905247
 20
309.5972016029064
 30
0.0
  0
VERTEX
  5
729
330
6F5
100
AcDbEntity
  8
4
100
AcDbVertex
100
AcDb2dVertex
 10
1018.838123201247
 20
309.6739543229063
 30
0.0
  0
VERTEX
  5
72A
330
6F5
100
AcDbEntity
  8
4
100
AcDbVertex
100
AcDb2dVertex
 10
1019.477726561246
 20
309.9042108989064
 30
0.0
  0
VERTEX
  5
72B
330
6F5
100
AcDbEntity
  8
4
100
AcDbVertex
100
AcDb2dVertex
 10
1020.040578785247
 20
310.2112201949063
 30
0.0
  0
VERTEX
  5
72C
330
6F5
100
AcDbEntity
  8
4
100
AcDbVertex
100
AcDb2dVertex
 10
1020.603429425246
 20
310.5949837949061
 30
0.0
  0
VERTEX
  5
72D
330
6F5
100
AcDbEntity
  8
4
100
AcDbVertex
100
AcDb2dVertex
 10
1020.603429425246
 20
310.5949837949061
 30
0.0
  0
SEQEND
  5
72E
330
6F5
100
AcDbEntity
  8
4
  0
POLYLINE
  5
72F
330
1F
100
AcDbEntity
  8
4
100
AcDb2dPolyline
 66
     1
 10
0.0
 20
0.0
 30
0.0
  0
VERTEX
  5
730
330
72F
100
AcDbEntity
  8
4
100
AcDbVertex
100
AcDb2dVertex
 10
1015.669345457247
 20
311.1541785629065
 30
0.0
  0
VERTEX
  5
731
330
72F
100
AcDbEntity
  8
4
100
AcDbVertex
100
AcDb2dVertex
 10
1018.147351889246
 20
313.2264940829062
 30
0.0
  0
VERTEX
  5
732
330
72F
100
AcDbEntity
  8
4
100
AcDbVertex
100
AcDb2dVertex
 10
1017.968263265246
 20
313.3288315709064
 30
0.0
  0
VERTEX
  5
733
330
72F
100
AcDbEntity
  8
4
100
AcDbVertex
100
AcDb2dVertex
 10
1017.767244161246
 20
313.4311674749063
 30
0.0
  0
VERTEX
  5
734
330
72F
100
AcDbEntity
  8
4
100
AcDbVertex
100
AcDb2dVertex
 10
1017.485819633247
 20
313.5079201949061
 30
0.0
  0
VERTEX
  5
735
330
72F
100
AcDbEntity
  8
4
100
AcDbVertex
100
AcDb2dVertex
 10
1017.178808753246
 20
313.5590881469064
 30
0.0
  0
VERTEX
  5
736
330
72F
100
AcDbEntity
  8
4
100
AcDbVertex
100
AcDb2dVertex
 10
1016.820631505247
 20
313.5335049629063
 30
0.0
  0
VERTEX
  5
737
330
72F
100
AcDbEntity
  8
4
100
AcDbVertex
100
AcDb2dVertex
 10
1016.436869489246
 20
313.4055842909063
 30
0.0
  0
VERTEX
  5
738
330
72F
100
AcDbEntity
  8
4
100
AcDbVertex
100
AcDb2dVertex
 10
1016.078690657247
 20
313.1497429469062
 30
0.0
  0
VERTEX
  5
739
330
72F
100
AcDbEntity
  8
4
100
AcDbVertex
100
AcDb2dVertex
 10
1015.771681361246
 20
312.791564114906
 30
0.0
  0
VERTEX
  5
73A
330
72F
100
AcDbEntity
  8
4
100
AcDbVertex
100
AcDb2dVertex
 10
1015.592592737246
 20
312.4333868669064
 30
0.0
  0
VERTEX
  5
73B
330
72F
100
AcDbEntity
  8
4
100
AcDbVertex
100
AcDb2dVertex
 10
1015.515840017247
 20
312.1007928029064
 30
0.0
  0
VERTEX
  5
73C
330
72F
100
AcDbEntity
  8
4
100
AcDbVertex
100
AcDb2dVertex
 10
1015.490255249247
 20
311.7937835069063
 30
0.0
  0
VERTEX
  5
73D
330
72F
100
AcDbEntity
  8
4
100
AcDbVertex
100
AcDb2dVertex
 10
1015.541424785246
 20
311.5379421629064
 30
0.0
  0
VERTEX
  5
73E
330
72F
100
AcDbEntity
  8
4
100
AcDbVertex
100
AcDb2dVertex
 10
1015.592592737246
 20
311.3332687709063
 30
0.0
  0
VERTEX
  5
73F
330
72F
100
AcDbEntity
  8
4
100
AcDbVertex
100
AcDb2dVertex
 10
1015.669345457247
 20
311.1541785629065
 30
0.0
  0
VERTEX
  5
740
330
72F
100
AcDbEntity
  8
4
100
AcDbVertex
100
AcDb2dVertex
 10
1015.669345457247
 20
311.1541785629065
 30
0.0
  0
SEQEND
  5
741
330
72F
100
AcDbEntity
  8
4
  0
POLYLINE
  5
742
330
1F
100
AcDbEntity
  8
4
100
AcDb2dPolyline
 66
     1
 10
0.0
 20
0.0
 30
0.0
  0
VERTEX
  5
743
330
742
100
AcDbEntity
  8
4
100
AcDbVertex
100
AcDb2dVertex
 10
1021.546387793247
 20
307.5248860829059
 30
0.0
  0
VERTEX
  5
744
330
742
100
AcDbEntity
  8
4
100
AcDbVertex
100
AcDb2dVertex
 10
1021.546387793247
 20
316.3441054589061
 30
0.0
  0
VERTEX
  5
745
330
742
100
AcDbEntity
  8
4
100
AcDbVertex
100
AcDb2dVertex
 10
1021.571972561247
 20
316.6766995229064
 30
0.0
  0
VERTEX
  5
746
330
742
100
AcDbEntity
  8
4
100
AcDbVertex
100
AcDb2dVertex
 10
1021.674308465247
 20
317.0604615389063
 30
0.0
  0
VERTEX
  5
747
330
742
100
AcDbEntity
  8
4
100
AcDbVertex
100
AcDb2dVertex
 10
1021.878981857247
 20
317.4698083229064
 30
0.0
  0
VERTEX
  5
748
330
742
100
AcDbEntity
  8
4
100
AcDbVertex
100
AcDb2dVertex
 10
1022.006902529246
 20
317.6744801309063
 30
0.0
  0
VERTEX
  5
749
330
742
100
AcDbEntity
  8
4
100
AcDbVertex
100
AcDb2dVertex
 10
1022.185991153246
 20
317.8791535229063
 30
0.0
  0
VERTEX
  5
74A
330
742
100
AcDbEntity
  8
4
100
AcDbVertex
100
AcDb2dVertex
 10
1022.416249313247
 20
318.0545878589063
 30
0.0
  0
VERTEX
  5
74B
330
742
100
AcDbEntity
  8
4
100
AcDbVertex
100
AcDb2dVertex
 10
1022.672090657247
 20
318.2336764829063
 30
0.0
  0
VERTEX
  5
74C
330
742
100
AcDbEntity
  8
4
100
AcDbVertex
100
AcDb2dVertex
 10
1023.004684721247
 20
318.3615971549063
 30
0.0
  0
VERTEX
  5
74D
330
742
100
AcDbEntity
  8
4
100
AcDbVertex
100
AcDb2dVertex
 10
1023.388446737249
 20
318.4895178269064
 30
0.0
  0
VERTEX
  5
74E
330
742
100
AcDbEntity
  8
4
100
AcDbVertex
100
AcDb2dVertex
 10
1023.823376705248
 20
318.5662705469062
 30
0.0
  0
VERTEX
  5
74F
330
742
100
AcDbEntity
  8
4
100
AcDbVertex
100
AcDb2dVertex
 10
1024.309474625247
 20
318.5918553149065
 30
0.0
  0
VERTEX
  5
750
330
742
100
AcDbEntity
  8
4
100
AcDbVertex
100
AcDb2dVertex
 10
1025.226849809246
 20
318.5918553149065
 30
0.0
  0
VERTEX
  5
751
330
742
100
AcDbEntity
  8
4
100
AcDbVertex
100
AcDb2dVertex
 10
1025.226849809246
 20
316.6255315709063
 30
0.0
  0
VERTEX
  5
752
330
742
100
AcDbEntity
  8
4
100
AcDbVertex
100
AcDb2dVertex
 10
1024.949079569247
 20
316.6255315709063
 30
0.0
  0
VERTEX
  5
753
330
742
100
AcDbEntity
  8
4
100
AcDbVertex
100
AcDb2dVertex
 10
1024.821158897247
 20
316.5999468029061
 30
0.0
  0
VERTEX
  5
754
330
742
100
AcDbEntity
  8
4
100
AcDbVertex
100
AcDb2dVertex
 10
1024.488564833246
 20
316.5231940829063
 30
0.0
  0
VERTEX
  5
755
330
742
100
AcDbEntity
  8
4
100
AcDbVertex
100
AcDb2dVertex
 10
1024.335059393247
 20
316.3952734109064
 30
0.0
  0
VERTEX
  5
756
330
742
100
AcDbEntity
  8
4
100
AcDbVertex
100
AcDb2dVertex
 10
1024.181553953247
 20
316.2417695549063
 30
0.0
  0
VERTEX
  5
757
330
742
100
AcDbEntity
  8
4
100
AcDbVertex
100
AcDb2dVertex
 10
1024.079218049247
 20
316.0370961629063
 30
0.0
  0
VERTEX
  5
758
330
742
100
AcDbEntity
  8
4
100
AcDbVertex
100
AcDb2dVertex
 10
1024.028050097245
 20
315.7556700509065
 30
0.0
  0
VERTEX
  5
759
330
742
100
AcDbEntity
  8
4
100
AcDbVertex
100
AcDb2dVertex
 10
1024.028050097245
 20
314.9113932989064
 30
0.0
  0
VERTEX
  5
75A
330
742
100
AcDbEntity
  8
4
100
AcDbVertex
100
AcDb2dVertex
 10
1025.128168193246
 20
314.9113932989064
 30
0.0
  0
VERTEX
  5
75B
330
742
100
AcDbEntity
  8
4
100
AcDbVertex
100
AcDb2dVertex
 10
1025.128168193246
 20
312.9962375069064
 30
0.0
  0
VERTEX
  5
75C
330
742
100
AcDbEntity
  8
4
100
AcDbVertex
100
AcDb2dVertex
 10
1024.028050097245
 20
312.9962375069064
 30
0.0
  0
VERTEX
  5
75D
330
742
100
AcDbEntity
  8
4
100
AcDbVertex
100
AcDb2dVertex
 10
1024.028050097245
 20
307.5248860829059
 30
0.0
  0
VERTEX
  5
75E
330
742
100
AcDbEntity
  8
4
100
AcDbVertex
100
AcDb2dVertex
 10
1021.546387793247
 20
307.5248860829059
 30
0.0
  0
VERTEX
  5
75F
330
742
100
AcDbEntity
  8
4
100
AcDbVertex
100
AcDb2dVertex
 10
1021.546387793247
 20
307.5248860829059
 30
0.0
  0
SEQEND
  5
760
330
742
100
AcDbEntity
  8
4
  0
POLYLINE
  5
761
330
1F
100
AcDbEntity
  8
4
100
AcDb2dPolyline
 66
     1
 10
0.0
 20
0.0
 30
0.0
  0
VERTEX
  5
762
330
761
100
AcDbEntity
  8
4
100
AcDbVertex
100
AcDb2dVertex
 10
1037.598610529247
 20
315.4998287069066
 30
0.0
  0
VERTEX
  5
763
330
761
100
AcDbEntity
  8
4
100
AcDbVertex
100
AcDb2dVertex
 10
1040.051032193247
 20
315.4998287069066
 30
0.0
  0
VERTEX
  5
764
330
761
100
AcDbEntity
  8
4
100
AcDbVertex
100
AcDb2dVertex
 10
1040.051032193247
 20
314.0196028829063
 30
0.0
  0
VERTEX
  5
765
330
761
100
AcDbEntity
  8
4
100
AcDbVertex
100
AcDb2dVertex
 10
1040.051032193247
 20
313.8660990269063
 30
0.0
  0
VERTEX
  5
766
330
761
100
AcDbEntity
  8
4
100
AcDbVertex
100
AcDb2dVertex
 10
1040.127784913247
 20
313.5079201949061
 30
0.0
  0
VERTEX
  5
767
330
761
100
AcDbEntity
  8
4
100
AcDbVertex
100
AcDb2dVertex
 10
1040.230122401247
 20
313.3032468029063
 30
0.0
  0
VERTEX
  5
768
330
761
100
AcDbEntity
  8
4
100
AcDbVertex
100
AcDb2dVertex
 10
1040.383626257247
 20
313.1497429469062
 30
0.0
  0
VERTEX
  5
769
330
761
100
AcDbEntity
  8
4
100
AcDbVertex
100
AcDb2dVertex
 10
1040.639467601246
 20
313.0218222749063
 30
0.0
  0
VERTEX
  5
76A
330
761
100
AcDbEntity
  8
4
100
AcDbVertex
100
AcDb2dVertex
 10
1040.946476897247
 20
312.9962375069064
 30
0.0
  0
VERTEX
  5
76B
330
761
100
AcDbEntity
  8
4
100
AcDbVertex
100
AcDb2dVertex
 10
1041.253487777249
 20
313.0218222749063
 30
0.0
  0
VERTEX
  5
76C
330
761
100
AcDbEntity
  8
4
100
AcDbVertex
100
AcDb2dVertex
 10
1041.509329121247
 20
313.1497429469062
 30
0.0
  0
VERTEX
  5
76D
330
761
100
AcDbEntity
  8
4
100
AcDbVertex
100
AcDb2dVertex
 10
1041.688417745247
 20
313.3288315709064
 30
0.0
  0
VERTEX
  5
76E
330
761
100
AcDbEntity
  8
4
100
AcDbVertex
100
AcDb2dVertex
 10
1041.790753649247
 20
313.5079201949061
 30
0.0
  0
VERTEX
  5
76F
330
761
100
AcDbEntity
  8
4
100
AcDbVertex
100
AcDb2dVertex
 10
1041.893091137247
 20
313.8660990269063
 30
0.0
  0
VERTEX
  5
770
330
761
100
AcDbEntity
  8
4
100
AcDbVertex
100
AcDb2dVertex
 10
1041.918674321247
 20
314.0451876509063
 30
0.0
  0
VERTEX
  5
771
330
761
100
AcDbEntity
  8
4
100
AcDbVertex
100
AcDb2dVertex
 10
1041.918674321247
 20
315.4998287069066
 30
0.0
  0
VERTEX
  5
772
330
761
100
AcDbEntity
  8
4
100
AcDbVertex
100
AcDb2dVertex
 10
1044.319929617246
 20
315.4998287069066
 30
0.0
  0
VERTEX
  5
773
330
761
100
AcDbEntity
  8
4
100
AcDbVertex
100
AcDb2dVertex
 10
1044.319929617246
 20
313.7893463069064
 30
0.0
  0
VERTEX
  5
774
330
761
100
AcDbEntity
  8
4
100
AcDbVertex
100
AcDb2dVertex
 10
1044.319929617246
 20
313.5335049629063
 30
0.0
  0
VERTEX
  5
775
330
761
100
AcDbEntity
  8
4
100
AcDbVertex
100
AcDb2dVertex
 10
1044.217593713247
 20
312.9706527389063
 30
0.0
  0
VERTEX
  5
776
330
761
100
AcDbEntity
  8
4
100
AcDbVertex
100
AcDb2dVertex
 10
1044.089673041246
 20
312.6380602589064
 30
0.0
  0
VERTEX
  5
777
330
761
100
AcDbEntity
  8
4
100
AcDbVertex
100
AcDb2dVertex
 10
1043.884999649246
 20
312.3054661949063
 30
0.0
  0
VERTEX
  5
778
330
761
100
AcDbEntity
  8
4
100
AcDbVertex
100
AcDb2dVertex
 10
1043.629158305247
 20
311.9984553149063
 30
0.0
  0
VERTEX
  5
779
330
761
100
AcDbEntity
  8
4
100
AcDbVertex
100
AcDb2dVertex
 10
1043.274635345247
 20
311.7681987389061
 30
0.0
  0
VERTEX
  5
77A
330
761
100
AcDbEntity
  8
4
100
AcDbVertex
100
AcDb2dVertex
 10
1043.450068097247
 20
311.6658628349063
 30
0.0
  0
VERTEX
  5
77B
330
761
100
AcDbEntity
  8
4
100
AcDbVertex
100
AcDb2dVertex
 10
1043.654741489247
 20
311.5379421629064
 30
0.0
  0
VERTEX
  5
77C
330
761
100
AcDbEntity
  8
4
100
AcDbVertex
100
AcDb2dVertex
 10
1043.859414881247
 20
311.3332687709063
 30
0.0
  0
VERTEX
  5
77D
330
761
100
AcDbEntity
  8
4
100
AcDbVertex
100
AcDb2dVertex
 10
1044.089673041246
 20
311.0518426589063
 30
0.0
  0
VERTEX
  5
77E
330
761
100
AcDbEntity
  8
4
100
AcDbVertex
100
AcDb2dVertex
 10
1044.268761665247
 20
310.6973196989064
 30
0.0
  0
VERTEX
  5
77F
330
761
100
AcDbEntity
  8
4
100
AcDbVertex
100
AcDb2dVertex
 10
1044.422265521249
 20
310.2368049629064
 30
0.0
  0
VERTEX
  5
780
330
761
100
AcDbEntity
  8
4
100
AcDbVertex
100
AcDb2dVertex
 10
1044.473435057247
 20
309.6739543229063
 30
0.0
  0
VERTEX
  5
781
330
761
100
AcDbEntity
  8
4
100
AcDbVertex
100
AcDb2dVertex
 10
1044.473435057247
 20
307.5248860829059
 30
0.0
  0
VERTEX
  5
782
330
761
100
AcDbEntity
  8
4
100
AcDbVertex
100
AcDb2dVertex
 10
1041.944259089246
 20
307.5248860829059
 30
0.0
  0
VERTEX
  5
783
330
761
100
AcDbEntity
  8
4
100
AcDbVertex
100
AcDb2dVertex
 10
1041.944259089246
 20
309.4692809309064
 30
0.0
  0
VERTEX
  5
784
330
761
100
AcDbEntity
  8
4
100
AcDbVertex
100
AcDb2dVertex
 10
1041.944259089246
 20
309.6483695549064
 30
0.0
  0
VERTEX
  5
785
330
761
100
AcDbEntity
  8
4
100
AcDbVertex
100
AcDb2dVertex
 10
1041.918674321247
 20
309.8530429469064
 30
0.0
  0
VERTEX
  5
786
330
761
100
AcDbEntity
  8
4
100
AcDbVertex
100
AcDb2dVertex
 10
1041.867506369247
 20
310.0577163389063
 30
0.0
  0
VERTEX
  5
787
330
761
100
AcDbEntity
  8
4
100
AcDbVertex
100
AcDb2dVertex
 10
1041.765170465247
 20
310.2879729149063
 30
0.0
  0
VERTEX
  5
788
330
761
100
AcDbEntity
  8
4
100
AcDbVertex
100
AcDb2dVertex
 10
1041.611665025246
 20
310.4926463069064
 30
0.0
  0
VERTEX
  5
789
330
761
100
AcDbEntity
  8
4
100
AcDbVertex
100
AcDb2dVertex
 10
1041.355823681246
 20
310.6205669789065
 30
0.0
  0
VERTEX
  5
78A
330
761
100
AcDbEntity
  8
4
100
AcDbVertex
100
AcDb2dVertex
 10
1041.023229617247
 20
310.6717349309063
 30
0.0
  0
VERTEX
  5
78B
330
761
100
AcDbEntity
  8
4
100
AcDbVertex
100
AcDb2dVertex
 10
1040.665052369247
 20
310.6205669789065
 30
0.0
  0
VERTEX
  5
78C
330
761
100
AcDbEntity
  8
4
100
AcDbVertex
100
AcDb2dVertex
 10
1040.409211025247
 20
310.4926463069064
 30
0.0
  0
VERTEX
  5
78D
330
761
100
AcDbEntity
  8
4
100
AcDbVertex
100
AcDb2dVertex
 10
1040.230122401247
 20
310.2879729149063
 30
0.0
  0
VERTEX
  5
78E
330
761
100
AcDbEntity
  8
4
100
AcDbVertex
100
AcDb2dVertex
 10
1040.102201729246
 20
310.083299522906
 30
0.0
  0
VERTEX
  5
78F
330
761
100
AcDbEntity
  8
4
100
AcDbVertex
100
AcDb2dVertex
 10
1040.051032193247
 20
309.8530429469064
 30
0.0
  0
VERTEX
  5
790
330
761
100
AcDbEntity
  8
4
100
AcDbVertex
100
AcDb2dVertex
 10
1040.025449009247
 20
309.6739543229063
 30
0.0
  0
VERTEX
  5
791
330
761
100
AcDbEntity
  8
4
100
AcDbVertex
100
AcDb2dVertex
 10
1039.999864241247
 20
309.4692809309064
 30
0.0
  0
VERTEX
  5
792
330
761
100
AcDbEntity
  8
4
100
AcDbVertex
100
AcDb2dVertex
 10
1039.999864241247
 20
307.5248860829059
 30
0.0
  0
VERTEX
  5
793
330
761
100
AcDbEntity
  8
4
100
AcDbVertex
100
AcDb2dVertex
 10
1037.445105089247
 20
307.5248860829059
 30
0.0
  0
VERTEX
  5
794
330
761
100
AcDbEntity
  8
4
100
AcDbVertex
100
AcDb2dVertex
 10
1037.445105089247
 20
309.6483695549064
 30
0.0
  0
VERTEX
  5
795
330
761
100
AcDbEntity
  8
4
100
AcDbVertex
100
AcDb2dVertex
 10
1037.470689857248
 20
309.9042108989064
 30
0.0
  0
VERTEX
  5
796
330
761
100
AcDbEntity
  8
4
100
AcDbVertex
100
AcDb2dVertex
 10
1037.521857809247
 20
310.1856370109061
 30
0.0
  0
VERTEX
  5
797
330
761
100
AcDbEntity
  8
4
100
AcDbVertex
100
AcDb2dVertex
 10
1037.624193713247
 20
310.5182310749063
 30
0.0
  0
VERTEX
  5
798
330
761
100
AcDbEntity
  8
4
100
AcDbVertex
100
AcDb2dVertex
 10
1037.752114385247
 20
310.8727540349063
 30
0.0
  0
VERTEX
  5
799
330
761
100
AcDbEntity
  8
4
100
AcDbVertex
100
AcDb2dVertex
 10
1037.982372545247
 20
311.2309312829063
 30
0.0
  0
VERTEX
  5
79A
330
761
100
AcDbEntity
  8
4
100
AcDbVertex
100
AcDb2dVertex
 10
1038.263797073246
 20
311.5379421629064
 30
0.0
  0
VERTEX
  5
79B
330
761
100
AcDbEntity
  8
4
100
AcDbVertex
100
AcDb2dVertex
 10
1038.442887281247
 20
311.6658628349063
 30
0.0
  0
VERTEX
  5
79C
330
761
100
AcDbEntity
  8
4
100
AcDbVertex
100
AcDb2dVertex
 10
1038.673143857247
 20
311.7681987389061
 30
0.0
  0
VERTEX
  5
79D
330
761
100
AcDbEntity
  8
4
100
AcDbVertex
100
AcDb2dVertex
 10
1038.494055233247
 20
311.8705346429063
 30
0.0
  0
VERTEX
  5
79E
330
761
100
AcDbEntity
  8
4
100
AcDbVertex
100
AcDb2dVertex
 10
1038.340549793246
 20
311.9984553149063
 30
0.0
  0
VERTEX
  5
79F
330
761
100
AcDbEntity
  8
4
100
AcDbVertex
100
AcDb2dVertex
 10
1038.135876401246
 20
312.2031287069063
 30
0.0
  0
VERTEX
  5
7A0
330
761
100
AcDbEntity
  8
4
100
AcDbVertex
100
AcDb2dVertex
 10
1037.931203009248
 20
312.4589700509063
 30
0.0
  0
VERTEX
  5
7A1
330
761
100
AcDbEntity
  8
4
100
AcDbVertex
100
AcDb2dVertex
 10
1037.777699153247
 20
312.8171488829062
 30
0.0
  0
VERTEX
  5
7A2
330
761
100
AcDbEntity
  8
4
100
AcDbVertex
100
AcDb2dVertex
 10
1037.649778481249
 20
313.2264940829062
 30
0.0
  0
VERTEX
  5
7A3
330
761
100
AcDbEntity
  8
4
100
AcDbVertex
100
AcDb2dVertex
 10
1037.598610529247
 20
313.7637615389061
 30
0.0
  0
VERTEX
  5
7A4
330
761
100
AcDbEntity
  8
4
100
AcDbVertex
100
AcDb2dVertex
 10
1037.598610529247
 20
315.4998287069066
 30
0.0
  0
VERTEX
  5
7A5
330
761
100
AcDbEntity
  8
4
100
AcDbVertex
100
AcDb2dVertex
 10
1037.598610529247
 20
315.4998287069066
 30
0.0
  0
SEQEND
  5
7A6
330
761
100
AcDbEntity
  8
4
  0
POLYLINE
  5
7A7
330
1F
100
AcDbEntity
  8
4
100
AcDb2dPolyline
 66
     1
 10
0.0
 20
0.0
 30
0.0
  0
VERTEX
  5
7A8
330
7A7
100
AcDbEntity
  8
4
100
AcDbVertex
100
AcDb2dVertex
 10
1036.677581057247
 20
310.5949837949061
 30
0.0
  0
VERTEX
  5
7A9
330
7A7
100
AcDbEntity
  8
4
100
AcDbVertex
100
AcDb2dVertex
 10
1036.677581057247
 20
308.0877367229062
 30
0.0
  0
VERTEX
  5
7AA
330
7A7
100
AcDbEntity
  8
4
100
AcDbVertex
100
AcDb2dVertex
 10
1036.498492433247
 20
307.9854008189062
 30
0.0
  0
VERTEX
  5
7AB
330
7A7
100
AcDbEntity
  8
4
100
AcDbVertex
100
AcDb2dVertex
 10
1035.939296081247
 20
307.7295594749062
 30
0.0
  0
VERTEX
  5
7AC
330
7A7
100
AcDbEntity
  8
4
100
AcDbVertex
100
AcDb2dVertex
 10
1035.555534065246
 20
307.6016388029064
 30
0.0
  0
VERTEX
  5
7AD
330
7A7
100
AcDbEntity
  8
4
100
AcDbVertex
100
AcDb2dVertex
 10
1035.069434561246
 20
307.4993013149064
 30
0.0
  0
VERTEX
  5
7AE
330
7A7
100
AcDbEntity
  8
4
100
AcDbVertex
100
AcDb2dVertex
 10
1034.532167105247
 20
307.4225501789064
 30
0.0
  0
VERTEX
  5
7AF
330
7A7
100
AcDbEntity
  8
4
100
AcDbVertex
100
AcDb2dVertex
 10
1033.943731697247
 20
307.3969654109062
 30
0.0
  0
VERTEX
  5
7B0
330
7A7
100
AcDbEntity
  8
4
100
AcDbVertex
100
AcDb2dVertex
 10
1033.508801729248
 20
307.3969654109062
 30
0.0
  0
VERTEX
  5
7B1
330
7A7
100
AcDbEntity
  8
4
100
AcDbVertex
100
AcDb2dVertex
 10
1033.073871761246
 20
307.4481333629064
 30
0.0
  0
VERTEX
  5
7B2
330
7A7
100
AcDbEntity
  8
4
100
AcDbVertex
100
AcDb2dVertex
 10
1032.664524977247
 20
307.5504708509063
 30
0.0
  0
VERTEX
  5
7B3
330
7A7
100
AcDbEntity
  8
4
100
AcDbVertex
100
AcDb2dVertex
 10
1032.233249297247
 20
307.6528067549063
 30
0.0
  0
VERTEX
  5
7B4
330
7A7
100
AcDbEntity
  8
4
100
AcDbVertex
100
AcDb2dVertex
 10
1031.849487281246
 20
307.8063121949063
 30
0.0
  0
VERTEX
  5
7B5
330
7A7
100
AcDbEntity
  8
4
100
AcDbVertex
100
AcDb2dVertex
 10
1031.465725265247
 20
308.0109840029064
 30
0.0
  0
VERTEX
  5
7B6
330
7A7
100
AcDbEntity
  8
4
100
AcDbVertex
100
AcDb2dVertex
 10
1031.107548017247
 20
308.2156573949065
 30
0.0
  0
VERTEX
  5
7B7
330
7A7
100
AcDbEntity
  8
4
100
AcDbVertex
100
AcDb2dVertex
 10
1030.774953953246
 20
308.4714987389062
 30
0.0
  0
VERTEX
  5
7B8
330
7A7
100
AcDbEntity
  8
4
100
AcDbVertex
100
AcDb2dVertex
 10
1030.442359889247
 20
308.7785096189062
 30
0.0
  0
VERTEX
  5
7B9
330
7A7
100
AcDbEntity
  8
4
100
AcDbVertex
100
AcDb2dVertex
 10
1030.160933777248
 20
309.1111020989061
 30
0.0
  0
VERTEX
  5
7BA
330
7A7
100
AcDbEntity
  8
4
100
AcDbVertex
100
AcDb2dVertex
 10
1029.930677201247
 20
309.4692809309064
 30
0.0
  0
VERTEX
  5
7BB
330
7A7
100
AcDbEntity
  8
4
100
AcDbVertex
100
AcDb2dVertex
 10
1029.726003809247
 20
309.8530429469064
 30
0.0
  0
VERTEX
  5
7BC
330
7A7
100
AcDbEntity
  8
4
100
AcDbVertex
100
AcDb2dVertex
 10
1029.546915185247
 20
310.2879729149063
 30
0.0
  0
VERTEX
  5
7BD
330
7A7
100
AcDbEntity
  8
4
100
AcDbVertex
100
AcDb2dVertex
 10
1029.418994513247
 20
310.7484876509064
 30
0.0
  0
VERTEX
  5
7BE
330
7A7
100
AcDbEntity
  8
4
100
AcDbVertex
100
AcDb2dVertex
 10
1029.342241793246
 20
311.2309312829063
 30
0.0
  0
VERTEX
  5
7BF
330
7A7
100
AcDbEntity
  8
4
100
AcDbVertex
100
AcDb2dVertex
 10
1029.316657025246
 20
311.7681987389061
 30
0.0
  0
VERTEX
  5
7C0
330
7A7
100
AcDbEntity
  8
4
100
AcDbVertex
100
AcDb2dVertex
 10
1029.393409745247
 20
312.4845548189064
 30
0.0
  0
VERTEX
  5
7C1
330
7A7
100
AcDbEntity
  8
4
100
AcDbVertex
100
AcDb2dVertex
 10
1029.572498369247
 20
313.1753261309063
 30
0.0
  0
VERTEX
  5
7C2
330
7A7
100
AcDbEntity
  8
4
100
AcDbVertex
100
AcDb2dVertex
 10
1029.700419041245
 20
313.5079201949061
 30
0.0
  0
VERTEX
  5
7C3
330
7A7
100
AcDbEntity
  8
4
100
AcDbVertex
100
AcDb2dVertex
 10
1029.879509249246
 20
313.8405142589062
 30
0.0
  0
VERTEX
  5
7C4
330
7A7
100
AcDbEntity
  8
4
100
AcDbVertex
100
AcDb2dVertex
 10
1030.084181057248
 20
314.1475235549064
 30
0.0
  0
VERTEX
  5
7C5
330
7A7
100
AcDbEntity
  8
4
100
AcDbVertex
100
AcDb2dVertex
 10
1030.288854449247
 20
314.4252953789063
 30
0.0
  0
VERTEX
  5
7C6
330
7A7
100
AcDbEntity
  8
4
100
AcDbVertex
100
AcDb2dVertex
 10
1030.570280561247
 20
314.6811367229063
 30
0.0
  0
VERTEX
  5
7C7
330
7A7
100
AcDbEntity
  8
4
100
AcDbVertex
100
AcDb2dVertex
 10
1030.851706673247
 20
314.9369780669062
 30
0.0
  0
VERTEX
  5
7C8
330
7A7
100
AcDbEntity
  8
4
100
AcDbVertex
100
AcDb2dVertex
 10
1031.158715969247
 20
315.1416514589064
 30
0.0
  0
VERTEX
  5
7C9
330
7A7
100
AcDbEntity
  8
4
100
AcDbVertex
100
AcDb2dVertex
 10
1031.516893217247
 20
315.3207400829062
 30
0.0
  0
VERTEX
  5
7CA
330
7A7
100
AcDbEntity
  8
4
100
AcDbVertex
100
AcDb2dVertex
 10
1031.900655233249
 20
315.4742439389062
 30
0.0
  0
VERTEX
  5
7CB
330
7A7
100
AcDbEntity
  8
4
100
AcDbVertex
100
AcDb2dVertex
 10
1032.310002017247
 20
315.5765814269063
 30
0.0
  0
VERTEX
  5
7CC
330
7A7
100
AcDbEntity
  8
4
100
AcDbVertex
100
AcDb2dVertex
 10
1032.741277697247
 20
315.6533341469063
 30
0.0
  0
VERTEX
  5
7CD
330
7A7
100
AcDbEntity
  8
4
100
AcDbVertex
100
AcDb2dVertex
 10
1033.227375617247
 20
315.6789173309063
 30
0.0
  0
VERTEX
  5
7CE
330
7A7
100
AcDbEntity
  8
4
100
AcDbVertex
100
AcDb2dVertex
 10
1033.892563745246
 20
315.6277493789064
 30
0.0
  0
VERTEX
  5
7CF
330
7A7
100
AcDbEntity
  8
4
100
AcDbVertex
100
AcDb2dVertex
 10
1034.532167105247
 20
315.4486607549064
 30
0.0
  0
VERTEX
  5
7D0
330
7A7
100
AcDbEntity
  8
4
100
AcDbVertex
100
AcDb2dVertex
 10
1035.120602513246
 20
315.1928194109063
 30
0.0
  0
VERTEX
  5
7D1
330
7A7
100
AcDbEntity
  8
4
100
AcDbVertex
100
AcDb2dVertex
 10
1035.657869969247
 20
314.8602253469064
 30
0.0
  0
VERTEX
  5
7D2
330
7A7
100
AcDbEntity
  8
4
100
AcDbVertex
100
AcDb2dVertex
 10
1036.140313601247
 20
314.4508785629063
 30
0.0
  0
VERTEX
  5
7D3
330
7A7
100
AcDbEntity
  8
4
100
AcDbVertex
100
AcDb2dVertex
 10
1036.524075617246
 20
314.0196028829063
 30
0.0
  0
VERTEX
  5
7D4
330
7A7
100
AcDbEntity
  8
4
100
AcDbVertex
100
AcDb2dVertex
 10
1036.856669681247
 20
313.5079201949061
 30
0.0
  0
VERTEX
  5
7D5
330
7A7
100
AcDbEntity
  8
4
100
AcDbVertex
100
AcDb2dVertex
 10
1037.086926257247
 20
312.9962375069064
 30
0.0
  0
VERTEX
  5
7D6
330
7A7
100
AcDbEntity
  8
4
100
AcDbVertex
100
AcDb2dVertex
 10
1033.278545153246
 20
309.6739543229063
 30
0.0
  0
VERTEX
  5
7D7
330
7A7
100
AcDbEntity
  8
4
100
AcDbVertex
100
AcDb2dVertex
 10
1033.432049009247
 20
309.6483695549064
 30
0.0
  0
VERTEX
  5
7D8
330
7A7
100
AcDbEntity
  8
4
100
AcDbVertex
100
AcDb2dVertex
 10
1033.790227841247
 20
309.5716168349063
 30
0.0
  0
VERTEX
  5
7D9
330
7A7
100
AcDbEntity
  8
4
100
AcDbVertex
100
AcDb2dVertex
 10
1034.301910529247
 20
309.5716168349063
 30
0.0
  0
VERTEX
  5
7DA
330
7A7
100
AcDbEntity
  8
4
100
AcDbVertex
100
AcDb2dVertex
 10
1034.608919825247
 20
309.5972016029064
 30
0.0
  0
VERTEX
  5
7DB
330
7A7
100
AcDbEntity
  8
4
100
AcDbVertex
100
AcDb2dVertex
 10
1034.915929121247
 20
309.6739543229063
 30
0.0
  0
VERTEX
  5
7DC
330
7A7
100
AcDbEntity
  8
4
100
AcDbVertex
100
AcDb2dVertex
 10
1035.555534065246
 20
309.9042108989064
 30
0.0
  0
VERTEX
  5
7DD
330
7A7
100
AcDbEntity
  8
4
100
AcDbVertex
100
AcDb2dVertex
 10
1036.114728833247
 20
310.2112201949063
 30
0.0
  0
VERTEX
  5
7DE
330
7A7
100
AcDbEntity
  8
4
100
AcDbVertex
100
AcDb2dVertex
 10
1036.677581057247
 20
310.5949837949061
 30
0.0
  0
VERTEX
  5
7DF
330
7A7
100
AcDbEntity
  8
4
100
AcDbVertex
100
AcDb2dVertex
 10
1036.677581057247
 20
310.5949837949061
 30
0.0
  0
SEQEND
  5
7E0
330
7A7
100
AcDbEntity
  8
4
  0
POLYLINE
  5
7E1
330
1F
100
AcDbEntity
  8
4
100
AcDb2dPolyline
 66
     1
 10
0.0
 20
0.0
 30
0.0
  0
VERTEX
  5
7E2
330
7E1
100
AcDbEntity
  8
4
100
AcDbVertex
100
AcDb2dVertex
 10
1031.747151377247
 20
311.1541785629065
 30
0.0
  0
VERTEX
  5
7E3
330
7E1
100
AcDbEntity
  8
4
100
AcDbVertex
100
AcDb2dVertex
 10
1034.225157809249
 20
313.2264940829062
 30
0.0
  0
VERTEX
  5
7E4
330
7E1
100
AcDbEntity
  8
4
100
AcDbVertex
100
AcDb2dVertex
 10
1034.046069185246
 20
313.3288315709064
 30
0.0
  0
VERTEX
  5
7E5
330
7E1
100
AcDbEntity
  8
4
100
AcDbVertex
100
AcDb2dVertex
 10
1033.841395793247
 20
313.4311674749063
 30
0.0
  0
VERTEX
  5
7E6
330
7E1
100
AcDbEntity
  8
4
100
AcDbVertex
100
AcDb2dVertex
 10
1033.559969681246
 20
313.5079201949061
 30
0.0
  0
VERTEX
  5
7E7
330
7E1
100
AcDbEntity
  8
4
100
AcDbVertex
100
AcDb2dVertex
 10
1033.252960385246
 20
313.5590881469064
 30
0.0
  0
VERTEX
  5
7E8
330
7E1
100
AcDbEntity
  8
4
100
AcDbVertex
100
AcDb2dVertex
 10
1032.894783137247
 20
313.5335049629063
 30
0.0
  0
VERTEX
  5
7E9
330
7E1
100
AcDbEntity
  8
4
100
AcDbVertex
100
AcDb2dVertex
 10
1032.511021121247
 20
313.4055842909063
 30
0.0
  0
VERTEX
  5
7EA
330
7E1
100
AcDbEntity
  8
4
100
AcDbVertex
100
AcDb2dVertex
 10
1032.156496577246
 20
313.1497429469062
 30
0.0
  0
VERTEX
  5
7EB
330
7E1
100
AcDbEntity
  8
4
100
AcDbVertex
100
AcDb2dVertex
 10
1031.849487281246
 20
312.791564114906
 30
0.0
  0
VERTEX
  5
7EC
330
7E1
100
AcDbEntity
  8
4
100
AcDbVertex
100
AcDb2dVertex
 10
1031.670398657246
 20
312.4333868669064
 30
0.0
  0
VERTEX
  5
7ED
330
7E1
100
AcDbEntity
  8
4
100
AcDbVertex
100
AcDb2dVertex
 10
1031.593645937247
 20
312.1007928029064
 30
0.0
  0
VERTEX
  5
7EE
330
7E1
100
AcDbEntity
  8
4
100
AcDbVertex
100
AcDb2dVertex
 10
1031.568062753247
 20
311.7937835069063
 30
0.0
  0
VERTEX
  5
7EF
330
7E1
100
AcDbEntity
  8
4
100
AcDbVertex
100
AcDb2dVertex
 10
1031.619230705246
 20
311.5379421629064
 30
0.0
  0
VERTEX
  5
7F0
330
7E1
100
AcDbEntity
  8
4
100
AcDbVertex
100
AcDb2dVertex
 10
1031.670398657246
 20
311.3332687709063
 30
0.0
  0
VERTEX
  5
7F1
330
7E1
100
AcDbEntity
  8
4
100
AcDbVertex
100
AcDb2dVertex
 10
1031.747151377247
 20
311.1541785629065
 30
0.0
  0
VERTEX
  5
7F2
330
7E1
100
AcDbEntity
  8
4
100
AcDbVertex
100
AcDb2dVertex
 10
1031.747151377247
 20
311.1541785629065
 30
0.0
  0
SEQEND
  5
7F3
330
7E1
100
AcDbEntity
  8
4
  0
POLYLINE
  5
7F4
330
1F
100
AcDbEntity
  8
4
100
AcDb2dPolyline
 66
     1
 10
0.0
 20
0.0
 30
0.0
  0
VERTEX
  5
7F5
330
7F4
100
AcDbEntity
  8
4
100
AcDbVertex
100
AcDb2dVertex
 10
1049.516116481247
 20
319.3633900349063
 30
0.0
  0
VERTEX
  5
7F6
330
7F4
100
AcDbEntity
  8
4
100
AcDbVertex
100
AcDb2dVertex
 10
1049.513304881249
 20
319.4505448829064
 30
0.0
  0
VERTEX
  5
7F7
330
7F4
100
AcDbEntity
  8
4
100
AcDbVertex
100
AcDb2dVertex
 10
1049.504870081247
 20
319.5376997309063
 30
0.0
  0
VERTEX
  5
7F8
330
7F4
100
AcDbEntity
  8
4
100
AcDbVertex
100
AcDb2dVertex
 10
1049.496435281246
 20
319.6248545789064
 30
0.0
  0
VERTEX
  5
7F9
330
7F4
100
AcDbEntity
  8
4
100
AcDbVertex
100
AcDb2dVertex
 10
1049.479567265247
 20
319.7091978269066
 30
0.0
  0
VERTEX
  5
7FA
330
7F4
100
AcDbEntity
  8
4
100
AcDbVertex
100
AcDb2dVertex
 10
1049.459887649248
 20
319.793541074906
 30
0.0
  0
VERTEX
  5
7FB
330
7F4
100
AcDbEntity
  8
4
100
AcDbVertex
100
AcDb2dVertex
 10
1049.437394849247
 20
319.8750727229064
 30
0.0
  0
VERTEX
  5
7FC
330
7F4
100
AcDbEntity
  8
4
100
AcDbVertex
100
AcDb2dVertex
 10
1049.409280433247
 20
319.9566043709066
 30
0.0
  0
VERTEX
  5
7FD
330
7F4
100
AcDbEntity
  8
4
100
AcDbVertex
100
AcDb2dVertex
 10
1049.378354417246
 20
320.0353260029063
 30
0.0
  0
VERTEX
  5
7FE
330
7F4
100
AcDbEntity
  8
4
100
AcDbVertex
100
AcDb2dVertex
 10
1049.344618385247
 20
320.1140460509062
 30
0.0
  0
VERTEX
  5
7FF
330
7F4
100
AcDbEntity
  8
4
100
AcDbVertex
100
AcDb2dVertex
 10
1049.305257569245
 20
320.1871428989063
 30
0.0
  0
VERTEX
  5
800
330
7F4
100
AcDbEntity
  8
4
100
AcDbVertex
100
AcDb2dVertex
 10
1049.265896753248
 20
320.2602413309064
 30
0.0
  0
VERTEX
  5
801
330
7F4
100
AcDbEntity
  8
4
100
AcDbVertex
100
AcDb2dVertex
 10
1049.218102721247
 20
320.3333381789066
 30
0.0
  0
VERTEX
  5
802
330
7F4
100
AcDbEntity
  8
4
100
AcDbVertex
100
AcDb2dVertex
 10
1049.170308689246
 20
320.400813410906
 30
0.0
  0
VERTEX
  5
803
330
7F4
100
AcDbEntity
  8
4
100
AcDbVertex
100
AcDb2dVertex
 10
1049.119701473248
 20
320.4682886429065
 30
0.0
  0
VERTEX
  5
804
330
7F4
100
AcDbEntity
  8
4
100
AcDbVertex
100
AcDb2dVertex
 10
1049.063472641246
 20
320.5301390909064
 30
0.0
  0
VERTEX
  5
805
330
7F4
100
AcDbEntity
  8
4
100
AcDbVertex
100
AcDb2dVertex
 10
1049.007243809246
 20
320.5919911229062
 30
0.0
  0
VERTEX
  5
806
330
7F4
100
AcDbEntity
  8
4
100
AcDbVertex
100
AcDb2dVertex
 10
1048.948203377246
 20
320.6482199549064
 30
0.0
  0
VERTEX
  5
807
330
7F4
100
AcDbEntity
  8
4
100
AcDbVertex
100
AcDb2dVertex
 10
1048.883541329247
 20
320.7044487869064
 30
0.0
  0
VERTEX
  5
808
330
7F4
100
AcDbEntity
  8
4
100
AcDbVertex
100
AcDb2dVertex
 10
1048.818877697248
 20
320.7578660189063
 30
0.0
  0
VERTEX
  5
809
330
7F4
100
AcDbEntity
  8
4
100
AcDbVertex
100
AcDb2dVertex
 10
1048.748590865247
 20
320.8056616349064
 30
0.0
  0
VERTEX
  5
80A
330
7F4
100
AcDbEntity
  8
4
100
AcDbVertex
100
AcDb2dVertex
 10
1048.678305617248
 20
320.8534556669064
 30
0.0
  0
VERTEX
  5
80B
330
7F4
100
AcDbEntity
  8
4
100
AcDbVertex
100
AcDb2dVertex
 10
1048.605207185247
 20
320.8956280829064
 30
0.0
  0
VERTEX
  5
80C
330
7F4
100
AcDbEntity
  8
4
100
AcDbVertex
100
AcDb2dVertex
 10
1048.529298737247
 20
320.9349873149063
 30
0.0
  0
VERTEX
  5
80D
330
7F4
100
AcDbEntity
  8
4
100
AcDbVertex
100
AcDb2dVertex
 10
1048.453390289246
 20
320.9687249309063
 30
0.0
  0
VERTEX
  5
80E
330
7F4
100
AcDbEntity
  8
4
100
AcDbVertex
100
AcDb2dVertex
 10
1048.371858641246
 20
320.9996509469063
 30
0.0
  0
VERTEX
  5
80F
330
7F4
100
AcDbEntity
  8
4
100
AcDbVertex
100
AcDb2dVertex
 10
1048.290325409247
 20
321.0277653629064
 30
0.0
  0
VERTEX
  5
810
330
7F4
100
AcDbEntity
  8
4
100
AcDbVertex
100
AcDb2dVertex
 10
1048.208793761247
 20
321.0530681789064
 30
0.0
  0
VERTEX
  5
811
330
7F4
100
AcDbEntity
  8
4
100
AcDbVertex
100
AcDb2dVertex
 10
1048.121638913249
 20
321.0727477949063
 30
0.0
  0
VERTEX
  5
812
330
7F4
100
AcDbEntity
  8
4
100
AcDbVertex
100
AcDb2dVertex
 10
1048.037295665247
 20
321.0868057949064
 30
0.0
  0
VERTEX
  5
813
330
7F4
100
AcDbEntity
  8
4
100
AcDbVertex
100
AcDb2dVertex
 10
1047.947329217247
 20
321.0980506109063
 30
0.0
  0
VERTEX
  5
814
330
7F4
100
AcDbEntity
  8
4
100
AcDbVertex
100
AcDb2dVertex
 10
1047.860175953247
 20
321.1064854109064
 30
0.0
  0
VERTEX
  5
815
330
7F4
100
AcDbEntity
  8
4
100
AcDbVertex
100
AcDb2dVertex
 10
1047.770209505249
 20
321.1092970109063
 30
0.0
  0
VERTEX
  5
816
330
7F4
100
AcDbEntity
  8
4
100
AcDbVertex
100
AcDb2dVertex
 10
1047.770209505249
 20
320.7213183869063
 30
0.0
  0
VERTEX
  5
817
330
7F4
100
AcDbEntity
  8
4
100
AcDbVertex
100
AcDb2dVertex
 10
1047.840494753249
 20
320.7213183869063
 30
0.0
  0
VERTEX
  5
818
330
7F4
100
AcDbEntity
  8
4
100
AcDbVertex
100
AcDb2dVertex
 10
1047.910781585247
 20
320.7156951869064
 30
0.0
  0
VERTEX
  5
819
330
7F4
100
AcDbEntity
  8
4
100
AcDbVertex
100
AcDb2dVertex
 10
1047.978255233249
 20
320.7044487869064
 30
0.0
  0
VERTEX
  5
81A
330
7F4
100
AcDbEntity
  8
4
100
AcDbVertex
100
AcDb2dVertex
 10
1048.045730465245
 20
320.6932039709062
 30
0.0
  0
VERTEX
  5
81B
330
7F4
100
AcDbEntity
  8
4
100
AcDbVertex
100
AcDb2dVertex
 10
1048.110394097247
 20
320.6791459709062
 30
0.0
  0
VERTEX
  5
81C
330
7F4
100
AcDbEntity
  8
4
100
AcDbVertex
100
AcDb2dVertex
 10
1048.175057729246
 20
320.6594663549065
 30
0.0
  0
VERTEX
  5
81D
330
7F4
100
AcDbEntity
  8
4
100
AcDbVertex
100
AcDb2dVertex
 10
1048.239719777247
 20
320.6369751389063
 30
0.0
  0
VERTEX
  5
81E
330
7F4
100
AcDbEntity
  8
4
100
AcDbVertex
100
AcDb2dVertex
 10
1048.301571809247
 20
320.6144823389065
 30
0.0
  0
VERTEX
  5
81F
330
7F4
100
AcDbEntity
  8
4
100
AcDbVertex
100
AcDb2dVertex
 10
1048.360612241247
 20
320.5863679229064
 30
0.0
  0
VERTEX
  5
820
330
7F4
100
AcDbEntity
  8
4
100
AcDbVertex
100
AcDb2dVertex
 10
1048.419652673246
 20
320.5554419069064
 30
0.0
  0
VERTEX
  5
821
330
7F4
100
AcDbEntity
  8
4
100
AcDbVertex
100
AcDb2dVertex
 10
1048.475881505248
 20
320.5217058749063
 30
0.0
  0
VERTEX
  5
822
330
7F4
100
AcDbEntity
  8
4
100
AcDbVertex
100
AcDb2dVertex
 10
1048.532110337248
 20
320.4879682589063
 30
0.0
  0
VERTEX
  5
823
330
7F4
100
AcDbEntity
  8
4
100
AcDbVertex
100
AcDb2dVertex
 10
1048.585527569248
 20
320.4486074429063
 30
0.0
  0
VERTEX
  5
824
330
7F4
100
AcDbEntity
  8
4
100
AcDbVertex
100
AcDb2dVertex
 10
1048.636133201247
 20
320.4092482109064
 30
0.0
  0
VERTEX
  5
825
330
7F4
100
AcDbEntity
  8
4
100
AcDbVertex
100
AcDb2dVertex
 10
1048.686740417247
 20
320.3642641949063
 30
0.0
  0
VERTEX
  5
826
330
7F4
100
AcDbEntity
  8
4
100
AcDbVertex
100
AcDb2dVertex
 10
1048.734534449246
 20
320.3192817629064
 30
0.0
  0
VERTEX
  5
827
330
7F4
100
AcDbEntity
  8
4
100
AcDbVertex
100
AcDb2dVertex
 10
1048.776705281248
 20
320.2714861469063
 30
0.0
  0
VERTEX
  5
828
330
7F4
100
AcDbEntity
  8
4
100
AcDbVertex
100
AcDb2dVertex
 10
1048.821689297247
 20
320.2236921149066
 30
0.0
  0
VERTEX
  5
829
330
7F4
100
AcDbEntity
  8
4
100
AcDbVertex
100
AcDb2dVertex
 10
1048.861050113247
 20
320.1702748829064
 30
0.0
  0
VERTEX
  5
82A
330
7F4
100
AcDbEntity
  8
4
100
AcDbVertex
100
AcDb2dVertex
 10
1048.897597745247
 20
320.1168576509062
 30
0.0
  0
VERTEX
  5
82B
330
7F4
100
AcDbEntity
  8
4
100
AcDbVertex
100
AcDb2dVertex
 10
1048.934146961247
 20
320.0634404189063
 30
0.0
  0
VERTEX
  5
82C
330
7F4
100
AcDbEntity
  8
4
100
AcDbVertex
100
AcDb2dVertex
 10
1048.965072977249
 20
320.0043999869064
 30
0.0
  0
VERTEX
  5
82D
330
7F4
100
AcDbEntity
  8
4
100
AcDbVertex
100
AcDb2dVertex
 10
1048.995998993246
 20
319.9481711549064
 30
0.0
  0
VERTEX
  5
82E
330
7F4
100
AcDbEntity
  8
4
100
AcDbVertex
100
AcDb2dVertex
 10
1049.024113409247
 20
319.8863191229063
 30
0.0
  0
VERTEX
  5
82F
330
7F4
100
AcDbEntity
  8
4
100
AcDbVertex
100
AcDb2dVertex
 10
1049.046604625247
 20
319.8244670909064
 30
0.0
  0
VERTEX
  5
830
330
7F4
100
AcDbEntity
  8
4
100
AcDbVertex
100
AcDb2dVertex
 10
1049.069095841247
 20
319.7626150589061
 30
0.0
  0
VERTEX
  5
831
330
7F4
100
AcDbEntity
  8
4
100
AcDbVertex
100
AcDb2dVertex
 10
1049.085965441249
 20
319.6979514269064
 30
0.0
  0
VERTEX
  5
832
330
7F4
100
AcDbEntity
  8
4
100
AcDbVertex
100
AcDb2dVertex
 10
1049.102833457246
 20
319.6332893789065
 30
0.0
  0
VERTEX
  5
833
330
7F4
100
AcDbEntity
  8
4
100
AcDbVertex
100
AcDb2dVertex
 10
1049.114079857247
 20
319.5658141469064
 30
0.0
  0
VERTEX
  5
834
330
7F4
100
AcDbEntity
  8
4
100
AcDbVertex
100
AcDb2dVertex
 10
1049.122513073247
 20
319.5011505149063
 30
0.0
  0
VERTEX
  5
835
330
7F4
100
AcDbEntity
  8
4
100
AcDbVertex
100
AcDb2dVertex
 10
1049.128136273247
 20
319.4308652669063
 30
0.0
  0
VERTEX
  5
836
330
7F4
100
AcDbEntity
  8
4
100
AcDbVertex
100
AcDb2dVertex
 10
1049.128136273247
 20
319.3633900349063
 30
0.0
  0
VERTEX
  5
837
330
7F4
100
AcDbEntity
  8
4
100
AcDbVertex
100
AcDb2dVertex
 10
1049.516116481247
 20
319.3633900349063
 30
0.0
  0
VERTEX
  5
838
330
7F4
100
AcDbEntity
  8
4
100
AcDbVertex
100
AcDb2dVertex
 10
1049.516116481247
 20
319.3633900349063
 30
0.0
  0
SEQEND
  5
839
330
7F4
100
AcDbEntity
  8
4
  0
HATCH
  5
83A
330
1F
100
AcDbEntity
  8
4
100
AcDbHatch
 10
0.0
 20
0.0
 30
0.0
210
0.0
220
0.0
230
1.0
  2
SOLID
 70
     1
 71
     0
 91
        2
 92
        7
 72
     0
 73
     1
 93
        4
 10
1049.322126187414
 20
319.3633902950268
 10
1049.128136535701
 20
319.3633902950268
 10
1049.128136535701
 20
305.8150405616301
 10
1049.322126187414
 20
305.8150405616301
 97
        0
 92
        7
 72
     0
 73
     1
 93
       42
 10
1049.20404552985
 20
305.2274487180358
 10
1049.30244607782
 20
305.5029702523523
 10
1049.322126187414
 20
305.8150405616301
 10
1049.128136535701
 20
305.8150405616301
 10
1049.128136535701
 20
305.7475659001642
 10
1049.122513647245
 20
305.6800912386979
 10
1049.114079314563
 20
305.6126165772405
 10
1049.102833537651
 20
305.545141915768
 10
1049.085964872284
 20
305.4804786985205
 10
1049.069096206919
 20
305.4186269255229
 10
1049.046604653098
 20
305.3567751525113
 10
1049.024113099277
 20
305.2949233795027
 10
1048.995998656998
 20
305.2358830507194
 10
1048.967884214721
 20
305.1768427219363
 10
1048.934146883989
 20
305.1234252816075
 10
1048.900409553257
 20
305.067196397056
 10
1048.861049334069
 20
305.0165904009536
 10
1048.821689114878
 20
304.963172960629
 10
1048.779517451465
 20
304.9153784087609
 10
1048.734534343818
 20
304.8703953011145
 10
1048.686739791951
 20
304.8254121934722
 10
1048.638945240077
 20
304.7832405300554
 10
1048.585527799753
 20
304.7438803108678
 10
1048.532110359422
 20
304.7045200916783
 10
1048.478692919092
 20
304.6707827609457
 10
1048.422464034545
 20
304.6370454302139
 10
1048.363423705763
 20
304.6089309879353
 10
1048.301571932752
 20
304.5808165456599
 10
1048.239720159741
 20
304.5583249918379
 10
1048.177868386731
 20
304.5358334380158
 10
1048.113205169491
 20
304.518964772649
 10
1048.045730508029
 20
304.5049075515113
 10
1047.978255846564
 20
304.4908503303726
 10
1047.910781185098
 20
304.4824159976893
 10
1047.840495079403
 20
304.4767931092342
 10
1047.770208973712
 20
304.4767931092342
 10
1047.770208973712
 20
304.2828034575214
 10
1048.08227928299
 20
304.3024835671151
 10
1048.3774809269
 20
304.4008841150855
 10
1048.633322351623
 20
304.5386448822441
 10
1048.86948366675
 20
304.7354459781853
 10
1049.066284762692
 20
304.9519271837191
 97
        0
 75
     0
 76
     1
 47
0.013813
 98
        2
 10
1049.262872897247
 20
316.0739067389065
 10
1049.040385841246
 20
305.1514521629067
450
        0
451
        0
460
0.0
461
0.0
452
        0
462
0.0
453
        0
470

  0
POLYLINE
  5
83B
330
1F
100
AcDbEntity
  8
4
100
AcDb2dPolyline
 66
     1
 10
0.0
 20
0.0
 30
0.0
  0
VERTEX
  5
83C
330
83B
100
AcDbEntity
  8
4
100
AcDbVertex
100
AcDb2dVertex
 10
1049.516116481247
 20
305.8150404509062
 30
0.0
  0
VERTEX
  5
83D
330
83B
100
AcDbEntity
  8
4
100
AcDbVertex
100
AcDb2dVertex
 10
1049.516116481247
 20
319.3633900349063
 30
0.0
  0
VERTEX
  5
83E
330
83B
100
AcDbEntity
  8
4
100
AcDbVertex
100
AcDb2dVertex
 10
1049.128136273247
 20
319.3633900349063
 30
0.0
  0
VERTEX
  5
83F
330
83B
100
AcDbEntity
  8
4
100
AcDbVertex
100
AcDb2dVertex
 10
1049.128136273247
 20
305.8150404509062
 30
0.0
  0
VERTEX
  5
840
330
83B
100
AcDbEntity
  8
4
100
AcDbVertex
100
AcDb2dVertex
 10
1049.516116481247
 20
305.8150404509062
 30
0.0
  0
VERTEX
  5
841
330
83B
100
AcDbEntity
  8
4
100
AcDbVertex
100
AcDb2dVertex
 10
1049.516116481247
 20
305.8150404509062
 30
0.0
  0
SEQEND
  5
842
330
83B
100
AcDbEntity
  8
4
  0
POLYLINE
  5
843
330
1F
100
AcDbEntity
  8
4
100
AcDb2dPolyline
 66
     1
 10
0.0
 20
0.0
 30
0.0
  0
VERTEX
  5
844
330
843
100
AcDbEntity
  8
4
100
AcDbVertex
100
AcDb2dVertex
 10
1047.770209505249
 20
304.0888130909063
 30
0.0
  0
VERTEX
  5
845
330
843
100
AcDbEntity
  8
4
100
AcDbVertex
100
AcDb2dVertex
 10
1047.857364353246
 20
304.0916246909064
 30
0.0
  0
VERTEX
  5
846
330
843
100
AcDbEntity
  8
4
100
AcDbVertex
100
AcDb2dVertex
 10
1047.947329217247
 20
304.1000594909064
 30
0.0
  0
VERTEX
  5
847
330
843
100
AcDbEntity
  8
4
100
AcDbVertex
100
AcDb2dVertex
 10
1048.037295665247
 20
304.1084942909062
 30
0.0
  0
VERTEX
  5
848
330
843
100
AcDbEntity
  8
4
100
AcDbVertex
100
AcDb2dVertex
 10
1048.121638913249
 20
304.1253623069064
 30
0.0
  0
VERTEX
  5
849
330
843
100
AcDbEntity
  8
4
100
AcDbVertex
100
AcDb2dVertex
 10
1048.205982161245
 20
304.1422319069064
 30
0.0
  0
VERTEX
  5
84A
330
843
100
AcDbEntity
  8
4
100
AcDbVertex
100
AcDb2dVertex
 10
1048.290325409247
 20
304.1675347229063
 30
0.0
  0
VERTEX
  5
84B
330
843
100
AcDbEntity
  8
4
100
AcDbVertex
100
AcDb2dVertex
 10
1048.371858641246
 20
304.1956491389063
 30
0.0
  0
VERTEX
  5
84C
330
843
100
AcDbEntity
  8
4
100
AcDbVertex
100
AcDb2dVertex
 10
1048.450578689248
 20
304.2237635549065
 30
0.0
  0
VERTEX
  5
84D
330
843
100
AcDbEntity
  8
4
100
AcDbVertex
100
AcDb2dVertex
 10
1048.529298737247
 20
304.2603111869063
 30
0.0
  0
VERTEX
  5
84E
330
843
100
AcDbEntity
  8
4
100
AcDbVertex
100
AcDb2dVertex
 10
1048.602397169246
 20
304.2968604029061
 30
0.0
  0
VERTEX
  5
84F
330
843
100
AcDbEntity
  8
4
100
AcDbVertex
100
AcDb2dVertex
 10
1048.675494017246
 20
304.3390328189064
 30
0.0
  0
VERTEX
  5
850
330
843
100
AcDbEntity
  8
4
100
AcDbVertex
100
AcDb2dVertex
 10
1048.748590865247
 20
304.3840152509063
 30
0.0
  0
VERTEX
  5
851
330
843
100
AcDbEntity
  8
4
100
AcDbVertex
100
AcDb2dVertex
 10
1048.816066097247
 20
304.4318092829063
 30
0.0
  0
VERTEX
  5
852
330
843
100
AcDbEntity
  8
4
100
AcDbVertex
100
AcDb2dVertex
 10
1048.883541329247
 20
304.4824164989064
 30
0.0
  0
VERTEX
  5
853
330
843
100
AcDbEntity
  8
4
100
AcDbVertex
100
AcDb2dVertex
 10
1048.945393361247
 20
304.5386453309061
 30
0.0
  0
VERTEX
  5
854
330
843
100
AcDbEntity
  8
4
100
AcDbVertex
100
AcDb2dVertex
 10
1049.007243809246
 20
304.5948741629064
 30
0.0
  0
VERTEX
  5
855
330
843
100
AcDbEntity
  8
4
100
AcDbVertex
100
AcDb2dVertex
 10
1049.063472641246
 20
304.6539145949064
 30
0.0
  0
VERTEX
  5
856
330
843
100
AcDbEntity
  8
4
100
AcDbVertex
100
AcDb2dVertex
 10
1049.116891457246
 20
304.7185766429064
 30
0.0
  0
VERTEX
  5
857
330
843
100
AcDbEntity
  8
4
100
AcDbVertex
100
AcDb2dVertex
 10
1049.170308689246
 20
304.7832402749063
 30
0.0
  0
VERTEX
  5
858
330
843
100
AcDbEntity
  8
4
100
AcDbVertex
100
AcDb2dVertex
 10
1049.218102721247
 20
304.8507155069064
 30
0.0
  0
VERTEX
  5
859
330
843
100
AcDbEntity
  8
4
100
AcDbVertex
100
AcDb2dVertex
 10
1049.263085153245
 20
304.9210007549064
 30
0.0
  0
VERTEX
  5
85A
330
843
100
AcDbEntity
  8
4
100
AcDbVertex
100
AcDb2dVertex
 10
1049.305257569245
 20
304.9940991869064
 30
0.0
  0
VERTEX
  5
85B
330
843
100
AcDbEntity
  8
4
100
AcDbVertex
100
AcDb2dVertex
 10
1049.344618385247
 20
305.0671960349064
 30
0.0
  0
VERTEX
  5
85C
330
843
100
AcDbEntity
  8
4
100
AcDbVertex
100
AcDb2dVertex
 10
1049.378354417246
 20
305.143106066906
 30
0.0
  0
VERTEX
  5
85D
330
843
100
AcDbEntity
  8
4
100
AcDbVertex
100
AcDb2dVertex
 10
1049.409280433247
 20
305.2218261149063
 30
0.0
  0
VERTEX
  5
85E
330
843
100
AcDbEntity
  8
4
100
AcDbVertex
100
AcDb2dVertex
 10
1049.437394849247
 20
305.3033577629063
 30
0.0
  0
VERTEX
  5
85F
330
843
100
AcDbEntity
  8
4
100
AcDbVertex
100
AcDb2dVertex
 10
1049.459887649248
 20
305.3848894109064
 30
0.0
  0
VERTEX
  5
860
330
843
100
AcDbEntity
  8
4
100
AcDbVertex
100
AcDb2dVertex
 10
1049.479567265247
 20
305.4692326589063
 30
0.0
  0
VERTEX
  5
861
330
843
100
AcDbEntity
  8
4
100
AcDbVertex
100
AcDb2dVertex
 10
1049.496435281246
 20
305.5535759069064
 30
0.0
  0
VERTEX
  5
862
330
843
100
AcDbEntity
  8
4
100
AcDbVertex
100
AcDb2dVertex
 10
1049.504870081247
 20
305.6407307549064
 30
0.0
  0
VERTEX
  5
863
330
843
100
AcDbEntity
  8
4
100
AcDbVertex
100
AcDb2dVertex
 10
1049.513304881249
 20
305.7278856029065
 30
0.0
  0
VERTEX
  5
864
330
843
100
AcDbEntity
  8
4
100
AcDbVertex
100
AcDb2dVertex
 10
1049.516116481247
 20
305.8150404509062
 30
0.0
  0
VERTEX
  5
865
330
843
100
AcDbEntity
  8
4
100
AcDbVertex
100
AcDb2dVertex
 10
1049.128136273247
 20
305.8150404509062
 30
0.0
  0
VERTEX
  5
866
330
843
100
AcDbEntity
  8
4
100
AcDbVertex
100
AcDb2dVertex
 10
1049.128136273247
 20
305.7475652189062
 30
0.0
  0
VERTEX
  5
867
330
843
100
AcDbEntity
  8
4
100
AcDbVertex
100
AcDb2dVertex
 10
1049.122513073247
 20
305.6800915709064
 30
0.0
  0
VERTEX
  5
868
330
843
100
AcDbEntity
  8
4
100
AcDbVertex
100
AcDb2dVertex
 10
1049.114079857247
 20
305.6126163389064
 30
0.0
  0
VERTEX
  5
869
330
843
100
AcDbEntity
  8
4
100
AcDbVertex
100
AcDb2dVertex
 10
1049.102833457246
 20
305.5451426909063
 30
0.0
  0
VERTEX
  5
86A
330
843
100
AcDbEntity
  8
4
100
AcDbVertex
100
AcDb2dVertex
 10
1049.085965441249
 20
305.4804790589064
 30
0.0
  0
VERTEX
  5
86B
330
843
100
AcDbEntity
  8
4
100
AcDbVertex
100
AcDb2dVertex
 10
1049.069095841247
 20
305.4186270269063
 30
0.0
  0
VERTEX
  5
86C
330
843
100
AcDbEntity
  8
4
100
AcDbVertex
100
AcDb2dVertex
 10
1049.046604625247
 20
305.3567749949063
 30
0.0
  0
VERTEX
  5
86D
330
843
100
AcDbEntity
  8
4
100
AcDbVertex
100
AcDb2dVertex
 10
1049.024113409247
 20
305.2949229629063
 30
0.0
  0
VERTEX
  5
86E
330
843
100
AcDbEntity
  8
4
100
AcDbVertex
100
AcDb2dVertex
 10
1048.995998993246
 20
305.2358825309064
 30
0.0
  0
VERTEX
  5
86F
330
843
100
AcDbEntity
  8
4
100
AcDbVertex
100
AcDb2dVertex
 10
1048.967884577247
 20
305.1768420989063
 30
0.0
  0
VERTEX
  5
870
330
843
100
AcDbEntity
  8
4
100
AcDbVertex
100
AcDb2dVertex
 10
1048.934146961247
 20
305.1234248669064
 30
0.0
  0
VERTEX
  5
871
330
843
100
AcDbEntity
  8
4
100
AcDbVertex
100
AcDb2dVertex
 10
1048.900409345247
 20
305.0671960349064
 30
0.0
  0
VERTEX
  5
872
330
843
100
AcDbEntity
  8
4
100
AcDbVertex
100
AcDb2dVertex
 10
1048.861050113247
 20
305.0165904029065
 30
0.0
  0
VERTEX
  5
873
330
843
100
AcDbEntity
  8
4
100
AcDbVertex
100
AcDb2dVertex
 10
1048.821689297247
 20
304.9631731709063
 30
0.0
  0
VERTEX
  5
874
330
843
100
AcDbEntity
  8
4
100
AcDbVertex
100
AcDb2dVertex
 10
1048.779516881247
 20
304.9153791389063
 30
0.0
  0
VERTEX
  5
875
330
843
100
AcDbEntity
  8
4
100
AcDbVertex
100
AcDb2dVertex
 10
1048.734534449246
 20
304.8703951229061
 30
0.0
  0
VERTEX
  5
876
330
843
100
AcDbEntity
  8
4
100
AcDbVertex
100
AcDb2dVertex
 10
1048.686740417247
 20
304.8254126909063
 30
0.0
  0
VERTEX
  5
877
330
843
100
AcDbEntity
  8
4
100
AcDbVertex
100
AcDb2dVertex
 10
1048.638944801249
 20
304.7832402749063
 30
0.0
  0
VERTEX
  5
878
330
843
100
AcDbEntity
  8
4
100
AcDbVertex
100
AcDb2dVertex
 10
1048.585527569248
 20
304.7438810429064
 30
0.0
  0
VERTEX
  5
879
330
843
100
AcDbEntity
  8
4
100
AcDbVertex
100
AcDb2dVertex
 10
1048.532110337248
 20
304.7045202269064
 30
0.0
  0
VERTEX
  5
87A
330
843
100
AcDbEntity
  8
4
100
AcDbVertex
100
AcDb2dVertex
 10
1048.478693105249
 20
304.6707826109064
 30
0.0
  0
VERTEX
  5
87B
330
843
100
AcDbEntity
  8
4
100
AcDbVertex
100
AcDb2dVertex
 10
1048.422464273249
 20
304.6370449949061
 30
0.0
  0
VERTEX
  5
87C
330
843
100
AcDbEntity
  8
4
100
AcDbVertex
100
AcDb2dVertex
 10
1048.363423841247
 20
304.6089305789063
 30
0.0
  0
VERTEX
  5
87D
330
843
100
AcDbEntity
  8
4
100
AcDbVertex
100
AcDb2dVertex
 10
1048.301571809247
 20
304.5808161629063
 30
0.0
  0
VERTEX
  5
87E
330
843
100
AcDbEntity
  8
4
100
AcDbVertex
100
AcDb2dVertex
 10
1048.239719777247
 20
304.5583249469063
 30
0.0
  0
VERTEX
  5
87F
330
843
100
AcDbEntity
  8
4
100
AcDbVertex
100
AcDb2dVertex
 10
1048.177867745246
 20
304.5358337309064
 30
0.0
  0
VERTEX
  5
880
330
843
100
AcDbEntity
  8
4
100
AcDbVertex
100
AcDb2dVertex
 10
1048.113205697245
 20
304.5189641309061
 30
0.0
  0
VERTEX
  5
881
330
843
100
AcDbEntity
  8
4
100
AcDbVertex
100
AcDb2dVertex
 10
1048.045730465245
 20
304.5049077149064
 30
0.0
  0
VERTEX
  5
882
330
843
100
AcDbEntity
  8
4
100
AcDbVertex
100
AcDb2dVertex
 10
1047.978255233249
 20
304.4908497149066
 30
0.0
  0
VERTEX
  5
883
330
843
100
AcDbEntity
  8
4
100
AcDbVertex
100
AcDb2dVertex
 10
1047.910781585247
 20
304.4824164989064
 30
0.0
  0
VERTEX
  5
884
330
843
100
AcDbEntity
  8
4
100
AcDbVertex
100
AcDb2dVertex
 10
1047.840494753249
 20
304.4767932989063
 30
0.0
  0
VERTEX
  5
885
330
843
100
AcDbEntity
  8
4
100
AcDbVertex
100
AcDb2dVertex
 10
1047.770209505249
 20
304.4767932989063
 30
0.0
  0
VERTEX
  5
886
330
843
100
AcDbEntity
  8
4
100
AcDbVertex
100
AcDb2dVertex
 10
1047.770209505249
 20
304.0888130909063
 30
0.0
  0
VERTEX
  5
887
330
843
100
AcDbEntity
  8
4
100
AcDbVertex
100
AcDb2dVertex
 10
1047.770209505249
 20
304.0888130909063
 30
0.0
  0
SEQEND
  5
888
330
843
100
AcDbEntity
  8
4
  0
VIEWPORT
  5
6F
330
55
100
AcDbEntity
 67
     1
  8
0
100
AcDbViewport
 10
141.0
 20
85.0
 30
0.0
 40
384.7606204379562
 41
222.18
 68
     1
 69
     1
 12
141.0
 22
85.0
 13
0.0
 23
0.0
 14
10.0
 24
10.0
 15
10.0
 25
10.0
 16
0.0
 26
0.0
 36
1.0
 17
0.0
 27
0.0
 37
0.0
 42
50.0
 43
0.0
 44
0.0
 45
222.18
 50
0.0
 51
0.0
 72
   100
 90
    32800
  1

281
     0
 71
     1
 74
     0
110
0.0
120
0.0
130
0.0
111
1.0
121
0.0
131
0.0
112
0.0
122
1.0
132
0.0
 79
     0
146
0.0
170
     0
1001
GENIUS_GENOBJ-N-SDF_13
1002
{
1000
OWNER
1000
GEN
1002
}
1001
GENIUS_GENODEF_13
1002
{
1000
HIER
1070
     0
1002
}
1002
{
1000
MANEDIT
1070
     0
1002
}
1002
{
1000
NOSEL
1070
     0
1002
}
1002
{
1000
BEHIND
1070
     0
1002
}
1002
{
1000
OTHER
1070
     0
1002
}
1002
{
1000
REACTOR
1002
}
1001
GENIUS_GENSCREG_15
1000
PF
1040
1.0
1000
DF
1040
1.0
1000
MIN
1011
-51.38031021897808
1021
-26.09
1031
0.0
1000
MAX
1011
333.3803102189782
1021
196.09
1031
0.0
1000
FLAGS
1070
     2
  0
VIEWPORT
  5
71
330
55
100
AcDbEntity
 67
     1
  8
0
100
AcDbViewport
 10
141.0
 20
85.0
 30
0.0
 40
225.6
 41
136.0
 68
     2
 69
     2
 12
210.0
 22
148.5
 13
0.0
 23
0.0
 14
10.0
 24
10.0
 15
10.0
 25
10.0
 16
0.0
 26
0.0
 36
1.0
 17
0.0
 27
0.0
 37
0.0
 42
50.0
 43
0.0
 44
0.0
 45
302.3194029850746
 50
0.0
 51
0.0
 72
   100
 90
    32864
  1

281
     0
 71
     1
 74
     0
110
0.0
120
0.0
130
0.0
111
1.0
121
0.0
131
0.0
112
0.0
122
1.0
132
0.0
 79
     0
146
0.0
170
     0
1001
GENIUS_GENODEF_13
1002
{
1000
HIER
1070
     0
1002
}
1002
{
1000
MANEDIT
1070
     0
1002
}
1002
{
1000
NOSEL
1070
     0
1002
}
1002
{
1000
BEHIND
1070
     0
1002
}
1002
{
1000
OTHER
1070
     0
1002
}
1002
{
1000
REACTOR
1002
}
1001
GENIUS_GENOBJ-N-SDF_13
1002
{
1000
OWNER
1000
GEN
1002
}
1001
GENIUS_GENSCREG_15
1000
PF
1040
0.0
1000
DF
1040
0.0
1000
MIN
1011
28.20000000000002
1021
17.0
1031
0.0
1000
MAX
1011
253.8
1021
153.0
1031
0.0
1000
FLAGS
1070
     2
  0
ENDSEC
  0
SECTION
  2
OBJECTS
  0
DICTIONARY
  5
C
330
0
100
AcDbDictionary
281
     1
  3
ACAD_COLOR
350
F6
  3
ACAD_GROUP
350
D
  3
ACAD_LAYOUT
350
1A
  3
ACAD_MATERIAL
350
F5
  3
ACAD_MLINESTYLE
350
17
  3
ACAD_PLOTSETTINGS
350
19
  3
ACAD_PLOTSTYLENAME
350
E
  3
ACAD_TABLESTYLE
350
16F
  3
ACAD_VISUALSTYLE
350
1EE
  3
AcDbVariableDictionary
350
DA
  3
AcmDictionary
350
97
  3
AMG
350
7D
  3
AMGSNAPSETTINGS
350
5B0
  0
DICTIONARY
  5
D5
330
1F
100
AcDbDictionary
280
     1
281
     1
  0
DICTIONARY
  5
F6
102
{ACAD_REACTORS
330
C
102
}
330
C
100
AcDbDictionary
281
     1
  0
DICTIONARY
  5
D
102
{ACAD_REACTORS
330
C
102
}
330
C
100
AcDbDictionary
281
     1
  0
DICTIONARY
  5
1A
102
{ACAD_REACTORS
330
C
102
}
330
C
100
AcDbDictionary
281
     1
  3
Layout1
350
51
  3
Layout2
350
56
  3
Model
350
22
  0
DICTIONARY
  5
F5
102
{ACAD_REACTORS
330
C
102
}
330
C
100
AcDbDictionary
281
     1
  3
ByBlock
350
1EC
  3
ByLayer
350
1EB
  3
Global
350
1ED
  0
DICTIONARY
  5
17
102
{ACAD_REACTORS
330
C
102
}
330
C
100
AcDbDictionary
281
     1
  3
Standard
350
18
  0
DICTIONARY
  5
19
102
{ACAD_REACTORS
330
C
102
}
330
C
100
AcDbDictionary
281
     1
  0
ACDBDICTIONARYWDFLT
  5
E
102
{ACAD_REACTORS
330
C
102
}
330
C
100
AcDbDictionary
281
     1
  3
Normal
350
F
100
AcDbDictionaryWithDefault
340
F
  0
DICTIONARY
  5
16F
102
{ACAD_REACTORS
330
C
102
}
330
C
100
AcDbDictionary
281
     1
  3
Standard
350
170
  0
DICTIONARY
  5
1EE
102
{ACAD_REACTORS
330
C
102
}
330
C
100
AcDbDictionary
281
     1
  3
2dWireframe
350
1F4
  3
3D Hidden
350
1F6
  3
3dWireframe
350
1F5
  3
Basic
350
1F3
  3
Brighten
350
1FA
  3
ColorChange
350
1FE
  3
Conceptual
350
1F7
  3
Dim
350
1F9
  3
EdgeColorOff
350
935
  3
Facepattern
350
1FD
  3
Flat
350
1EF
  3
FlatWithEdges
350
1F0
  3
Gouraud
350
1F1
  3
GouraudWithEdges
350
1F2
  3
JitterOff
350
938
  3
Linepattern
350
1FC
  3
OverhangOff
350
93B
  3
Realistic
350
1F8
  3
Thicken
350
1FB
  0
DICTIONARY
  5
DA
102
{ACAD_REACTORS
330
C
102
}
330
C
100
AcDbDictionary
281
     1
  3
CTABLESTYLE
350
18F
  3
DIMASSOC
350
DC
  3
INDEXCTL
350
DB
  0
DICTIONARY
  5
97
102
{ACAD_REACTORS
330
C
102
}
330
C
100
AcDbDictionary
281
     1
  3
AcmStdDictionary
350
9D
  3
AMDTSECTSYM_ARROWCOLOR
350
186
  0
DICTIONARY
  5
7D
102
{ACAD_REACTORS
330
C
102
}
330
C
100
AcDbDictionary
281
     1
  0
DICTIONARY
  5
5B0
102
{ACAD_REACTORS
330
C
102
}
330
C
100
AcDbDictionary
281
     1
  0
LAYOUT
  5
51
102
{ACAD_REACTORS
330
1A
102
}
330
1A
100
AcDbPlotSettings
  1

  2
none_device
  4
ISO_A4_(210.00_x_297.00_MM)
  6

 40
7.5
 41
20.0
 42
7.5
 43
20.0
 44
210.0
 45
297.0
 46
0.0
 47
0.0
 48
0.0
 49
0.0
140
0.0
141
0.0
142
1.0
143
1.0
 70
   688
 72
     1
 73
     1
 74
     5
  7
ganz_fein_1.ctb
 75
    16
147
1.0
 76
     0
 77
     2
 78
   300
148
0.0
149
0.0
100
AcDbLayout
  1
Layout1
 70
     1
 71
     1
 10
-20.0
 20
-7.5
 11
277.0
 21
202.5
 12
0.0
 22
0.0
 32
0.0
 14
25.69999999999999
 24
19.5
 34
0.0
 15
231.3
 25
175.5
 35
0.0
146
0.0
 13
0.0
 23
0.0
 33
0.0
 16
1.0
 26
0.0
 36
0.0
 17
0.0
 27
1.0
 37
0.0
 76
     0
330
50
331
69
  0
LAYOUT
  5
56
102
{ACAD_REACTORS
330
1A
102
}
330
1A
100
AcDbPlotSettings
  1

  2
none_device
  4
ISO_A4_(297.00_x_210.00_MM)
  6

 40
7.5
 41
20.0
 42
7.5
 43
20.0
 44
297.0
 45
210.0
 46
0.0
 47
0.0
 48
0.0
 49
0.0
140
0.0
141
0.0
142
1.0
143
1.0
 70
   688
 72
     1
 73
     0
 74
     5
  7
ganz_fein_1.ctb
 75
    16
147
1.0
 76
     0
 77
     2
 78
   300
148
0.0
149
0.0
100
AcDbLayout
  1
Layout2
 70
     1
 71
     2
 10
-7.5
 20
-20.0
 11
289.5
 21
190.0
 12
0.0
 22
0.0
 32
0.0
 14
28.19999999999999
 24
17.0
 34
0.0
 15
253.8
 25
153.0
 35
0.0
146
0.0
 13
0.0
 23
0.0
 33
0.0
 16
1.0
 26
0.0
 36
0.0
 17
0.0
 27
1.0
 37
0.0
 76
     0
330
55
331
6F
  0
LAYOUT
  5
22
102
{ACAD_REACTORS
330
1A
102
}
330
1A
100
AcDbPlotSettings
  1

  2
Adobe PDF
  4
A4
  6

 40
3.174999952316284
 41
3.174999952316284
 42
3.175003051757812
 43
3.17498779296875
 44
209.9733276367187
 45
297.0318298339844
 46
0.0000000000000022
 47
6.163274490322844
 48
346.9202865705328
 49
247.0508430628256
140
1114.685373274531
141
808.6887330628256
142
1.0
143
2.75821982090336
 70
 11956
 72
     1
 73
     1
 74
     4
  7
ganz_fein_1.ctb
 75
     0
147
0.3625526843152349
 76
     0
 77
     2
 78
   300
148
-346.9202865705328
149
-247.0508430628256
100
AcDbLayout
  1
Model
 70
     1
 71
     0
 10
0.0
 20
0.0
 11
12.0
 21
9.0
 12
0.0
 22
0.0
 32
0.0
 14
0.0
 24
0.0
 34
0.0
 15
0.0
 25
0.0
 35
0.0
146
0.0
 13
0.0
 23
0.0
 33
0.0
 16
1.0
 26
0.0
 36
0.0
 17
0.0
 27
1.0
 37
0.0
 76
     0
330
1F
331
1E9
1001
ACAD_PSEXT
1000
Adobe PDF
1000
Adobe PDF Converter
1000
Documents\*.pdf
1000

1070
     0
  0
MATERIAL
  5
1EC
102
{ACAD_XDICTIONARY
360
94C
102
}
102
{ACAD_REACTORS
330
F5
102
}
330
F5
100
AcDbMaterial
  1
ByBlock
  0
MATERIAL
  5
1EB
102
{ACAD_XDICTIONARY
360
94A
102
}
102
{ACAD_REACTORS
330
F5
102
}
330
F5
100
AcDbMaterial
  1
ByLayer
  0
MATERIAL
  5
1ED
102
{ACAD_XDICTIONARY
360
94E
102
}
102
{ACAD_REACTORS
330
F5
102
}
330
F5
100
AcDbMaterial
  1
Global
  0
MLINESTYLE
  5
18
102
{ACAD_REACTORS
330
17
102
}
330
17
100
AcDbMlineStyle
  2
STANDARD
 70
     0
  3

 62
   256
 51
90.0
 52
90.0
 71
     2
 49
0.5
 62
   256
  6
BYLAYER
 49
-0.5
 62
   256
  6
BYLAYER
  0
ACDBPLACEHOLDER
  5
F
102
{ACAD_REACTORS
330
E
102
}
330
E
  0
TABLESTYLE
  5
170
102
{ACAD_XDICTIONARY
360
A1B
102
}
102
{ACAD_REACTORS
330
16F
102
}
330
16F
100
AcDbTableStyle
  3
Standard
 70
     0
 71
     0
 40
1.5
 41
1.5
280
     0
281
     0
  7
STANDARD
140
4.5
170
     2
 62
     0
 63
     7
283
     0
274
    -2
284
     1
 64
     0
275
    -2
285
     1
 65
     0
276
    -2
286
     1
 66
     0
277
    -2
287
     1
 67
     0
278
    -2
288
     1
 68
     0
279
    -2
289
     1
 69
     0
  7
STANDARD
140
6.0
170
     5
 62
     0
 63
     7
283
     0
274
    -2
284
     1
 64
     0
275
    -2
285
     1
 65
     0
276
    -2
286
     1
 66
     0
277
    -2
287
     1
 67
     0
278
    -2
288
     1
 68
     0
279
    -2
289
     1
 69
     0
  7
STANDARD
140
4.5
170
     5
 62
     0
 63
     7
283
     0
274
    -2
284
     1
 64
     0
275
    -2
285
     1
 65
     0
276
    -2
286
     1
 66
     0
277
    -2
287
     1
 67
     0
278
    -2
288
     1
 68
     0
279
    -2
289
     1
 69
     0
  0
VISUALSTYLE
  5
1F4
102
{ACAD_REACTORS
330
1EE
102
}
330
1EE
100
AcDbVisualStyle
  2
2dWireframe
 70
     4
 71
     0
 72
     2
 73
     0
 90
        0
 40
-0.6
 41
-30.0
 62
     5
 63
     7
421
 16777215
 74
     1
 91
        4
 64
     7
 65
   257
 75
     1
175
     1
 42
1.0
 92
        0
 66
   257
 43
1.0
 76
     1
 77
     6
 78
     2
 67
     7
 79
     5
170
     0
171
     0
290
     0
174
     0
 93
        1
 44
0.0
173
     0
291
     0
 45
0.0
1001
ACAD
1000
AcDbSavedByObjectVersion
1070
     0
1000
AcDbSavedByObjectVersion
1070
     0
  0
VISUALSTYLE
  5
1F6
102
{ACAD_REACTORS
330
1EE
102
}
330
1EE
100
AcDbVisualStyle
  2
3D Hidden
 70
     6
 71
     1
 72
     2
 73
     2
 90
        0
 40
-0.6
 41
-30.0
 62
     5
 63
     7
421
 16777215
 74
     2
 91
        2
 64
     7
 65
   257
 75
     2
175
     1
 42
40.0
 92
        0
 66
   257
 43
1.0
 76
     1
 77
     6
 78
     2
 67
     7
 79
     3
170
     0
171
     0
290
     0
174
     0
 93
        1
 44
0.0
173
     0
291
     0
 45
0.0
1001
ACAD
1000
AcDbSavedByObjectVersion
1070
     0
1000
AcDbSavedByObjectVersion
1070
     0
  0
VISUALSTYLE
  5
1F5
102
{ACAD_REACTORS
330
1EE
102
}
330
1EE
100
AcDbVisualStyle
  2
3dWireframe
 70
     5
 71
     0
 72
     2
 73
     0
 90
        0
 40
-0.6
 41
-30.0
 62
     5
 63
     7
421
 16777215
 74
     1
 91
        4
 64
     7
 65
   257
 75
     1
175
     1
 42
1.0
 92
        0
 66
   257
 43
1.0
 76
     1
 77
     6
 78
     2
 67
     7
 79
     5
170
     0
171
     0
290
     0
174
     0
 93
        1
 44
0.0
173
     0
291
     0
 45
0.0
1001
ACAD
1000
AcDbSavedByObjectVersion
1070
     0
1000
AcDbSavedByObjectVersion
1070
     0
  0
VISUALSTYLE
  5
1F3
102
{ACAD_REACTORS
330
1EE
102
}
330
1EE
100
AcDbVisualStyle
  2
Basic
 70
     7
 71
     1
 72
     0
 73
     1
 90
        0
 40
-0.6
 41
-30.0
 62
     5
 63
     7
421
 16777215
 74
     0
 91
        4
 64
     7
 65
   257
 75
     1
175
     1
 42
1.0
 92
        8
 66
     7
 43
1.0
 76
     1
 77
     6
 78
     2
 67
     7
 79
     5
170
     0
171
     0
290
     0
174
     0
 93
        1
 44
0.0
173
     0
291
     1
 45
0.0
1001
ACAD
1000
AcDbSavedByObjectVersion
1070
     0
1000
AcDbSavedByObjectVersion
1070
     0
  0
VISUALSTYLE
  5
1FA
102
{ACAD_REACTORS
330
1EE
102
}
330
1EE
100
AcDbVisualStyle
  2
Brighten
 70
    12
 71
     2
 72
     2
 73
     0
 90
        0
 40
-0.6
 41
-30.0
 62
     5
 63
     7
421
 16777215
 74
     1
 91
        4
 64
     7
 65
   257
 75
     1
175
     1
 42
1.0
 92
        8
 66
     7
 43
1.0
 76
     1
 77
     6
 78
     2
 67
     7
 79
     5
170
     0
171
     0
290
     0
174
     0
 93
        1
 44
50.0
173
     0
291
     1
 45
0.0
1001
ACAD
1000
AcDbSavedByObjectVersion
1070
     0
1000
AcDbSavedByObjectVersion
1070
     0
  0
VISUALSTYLE
  5
1FE
102
{ACAD_REACTORS
330
1EE
102
}
330
1EE
100
AcDbVisualStyle
  2
ColorChange
 70
    16
 71
     2
 72
     2
 73
     3
 90
        0
 40
-0.6
 41
-30.0
 62
     5
 63
     8
421
  8421504
 74
     1
 91
        4
 64
     7
 65
   257
 75
     1
175
     1
 42
1.0
 92
        8
 66
     8
424
  8421504
 43
1.0
 76
     1
 77
     6
 78
     2
 67
     7
 79
     5
170
     0
171
     0
290
     0
174
     0
 93
        1
 44
0.0
173
     0
291
     1
 45
0.0
1001
ACAD
1000
AcDbSavedByObjectVersion
1070
     0
1000
AcDbSavedByObjectVersion
1070
     0
  0
VISUALSTYLE
  5
1F7
102
{ACAD_REACTORS
330
1EE
102
}
330
1EE
100
AcDbVisualStyle
  2
Conceptual
 70
     9
 71
     3
 72
     2
 73
     0
 90
        0
 40
-0.6
 41
-30.0
 62
     5
 63
     7
421
 16777215
 74
     2
 91
        2
 64
     7
 65
   257
 75
     1
175
     1
 42
40.0
 92
        8
 66
     7
 43
1.0
 76
     1
 77
     6
 78
     2
 67
     7
 79
     3
170
     0
171
     0
290
     0
174
     0
 93
        1
 44
0.0
173
     0
291
     0
 45
0.0
1001
ACAD
1000
AcDbSavedByObjectVersion
1070
     0
1000
AcDbSavedByObjectVersion
1070
     0
  0
VISUALSTYLE
  5
1F9
102
{ACAD_REACTORS
330
1EE
102
}
330
1EE
100
AcDbVisualStyle
  2
Dim
 70
    11
 71
     2
 72
     2
 73
     0
 90
        0
 40
-0.6
 41
-30.0
 62
     5
 63
     7
421
 16777215
 74
     1
 91
        4
 64
     7
 65
   257
 75
     1
175
     1
 42
1.0
 92
        8
 66
     7
 43
1.0
 76
     1
 77
     6
 78
     2
 67
     7
 79
     5
170
     0
171
     0
290
     0
174
     0
 93
        1
 44
-50.0
173
     0
291
     1
 45
0.0
1001
ACAD
1000
AcDbSavedByObjectVersion
1070
     0
1000
AcDbSavedByObjectVersion
1070
     0
  0
VISUALSTYLE
  5
935
102
{ACAD_XDICTIONARY
360
936
102
}
102
{ACAD_REACTORS
330
1EE
102
}
330
1EE
100
AcDbVisualStyle
  2
EdgeColorOff
 70
    22
 71
     2
 72
     2
 73
     0
 90
        0
 40
-0.6
 41
-30.0
 62
     5
 63
     7
 74
     1
 91
        4
 64
     7
 65
   257
 75
     1
175
     1
 42
1.0
 92
        8
 66
     7
 43
1.0
 76
     1
 77
     6
 78
     2
 67
     7
 79
     5
170
     0
171
     0
290
     0
174
     0
 93
        1
 44
0.0
173
     0
291
     1
 45
0.0
1001
ACAD
1000
AcDbSavedByObjectVersion
1070
     0
1000
AcDbSavedByObjectVersion
1070
     0
  0
VISUALSTYLE
  5
1FD
102
{ACAD_REACTORS
330
1EE
102
}
330
1EE
100
AcDbVisualStyle
  2
Facepattern
 70
    15
 71
     2
 72
     2
 73
     0
 90
        0
 40
-0.6
 41
-30.0
 62
     5
 63
     7
421
 16777215
 74
     1
 91
        4
 64
     7
 65
   257
 75
     1
175
     1
 42
1.0
 92
        8
 66
     7
 43
1.0
 76
     1
 77
     6
 78
     2
 67
     7
 79
     5
170
     0
171
     0
290
     0
174
     0
 93
        1
 44
0.0
173
     0
291
     1
 45
0.0
1001
ACAD
1000
AcDbSavedByObjectVersion
1070
     0
1000
AcDbSavedByObjectVersion
1070
     0
  0
VISUALSTYLE
  5
1EF
102
{ACAD_REACTORS
330
1EE
102
}
330
1EE
100
AcDbVisualStyle
  2
Flat
 70
     0
 71
     2
 72
     1
 73
     1
 90
        2
 40
-0.6
 41
30.0
 62
     5
 63
     7
421
 16777215
 74
     0
 91
        4
 64
     7
 65
   257
 75
     1
175
     1
 42
1.0
 92
        8
 66
     7
 43
1.0
 76
     1
 77
     6
 78
     2
 67
     7
 79
     5
170
     0
171
     0
290
     0
174
     0
 93
       13
 44
0.0
173
     0
291
     1
 45
0.0
1001
ACAD
1000
AcDbSavedByObjectVersion
1070
     0
1000
AcDbSavedByObjectVersion
1070
     0
  0
VISUALSTYLE
  5
1F0
102
{ACAD_REACTORS
330
1EE
102
}
330
1EE
100
AcDbVisualStyle
  2
FlatWithEdges
 70
     1
 71
     2
 72
     1
 73
     1
 90
        2
 40
-0.6
 41
30.0
 62
     5
 63
     7
421
 16777215
 74
     1
 91
        4
 64
     7
 65
   257
 75
     1
175
     1
 42
1.0
 92
        0
 66
   257
 43
1.0
 76
     1
 77
     6
 78
     2
 67
     7
 79
     5
170
     0
171
     0
290
     0
174
     0
 93
       13
 44
0.0
173
     0
291
     1
 45
0.0
1001
ACAD
1000
AcDbSavedByObjectVersion
1070
     0
1000
AcDbSavedByObjectVersion
1070
     0
  0
VISUALSTYLE
  5
1F1
102
{ACAD_REACTORS
330
1EE
102
}
330
1EE
100
AcDbVisualStyle
  2
Gouraud
 70
     2
 71
     2
 72
     2
 73
     1
 90
        2
 40
-0.6
 41
30.0
 62
     5
 63
     7
421
 16777215
 74
     0
 91
        4
 64
     7
 65
   257
 75
     1
175
     1
 42
1.0
 92
        0
 66
     7
 43
1.0
 76
     1
 77
     6
 78
     2
 67
     7
 79
     5
170
     0
171
     0
290
     0
174
     0
 93
       13
 44
0.0
173
     0
291
     1
 45
0.0
1001
ACAD
1000
AcDbSavedByObjectVersion
1070
     0
1000
AcDbSavedByObjectVersion
1070
     0
  0
VISUALSTYLE
  5
1F2
102
{ACAD_REACTORS
330
1EE
102
}
330
1EE
100
AcDbVisualStyle
  2
GouraudWithEdges
 70
     3
 71
     2
 72
     2
 73
     1
 90
        2
 40
-0.6
 41
30.0
 62
     5
 63
     7
421
 16777215
 74
     1
 91
        4
 64
     7
 65
   257
 75
     1
175
     1
 42
1.0
 92
        0
 66
   257
 43
1.0
 76
     1
 77
     6
 78
     2
 67
     7
 79
     5
170
     0
171
     0
290
     0
174
     0
 93
       13
 44
0.0
173
     0
291
     1
 45
0.0
1001
ACAD
1000
AcDbSavedByObjectVersion
1070
     0
1000
AcDbSavedByObjectVersion
1070
     0
  0
VISUALSTYLE
  5
938
102
{ACAD_XDICTIONARY
360
939
102
}
102
{ACAD_REACTORS
330
1EE
102
}
330
1EE
100
AcDbVisualStyle
  2
JitterOff
 70
    20
 71
     2
 72
     2
 73
     0
 90
        0
 40
-0.6
 41
-30.0
 62
     5
 63
     7
 74
     1
 91
        4
 64
     7
 65
   257
 75
     1
175
     1
 42
1.0
 92
       10
 66
     7
 43
1.0
 76
     1
 77
     6
 78
     2
 67
     7
 79
     5
170
     0
171
     0
290
     0
174
     0
 93
        1
 44
0.0
173
     0
291
     1
 45
0.0
1001
ACAD
1000
AcDbSavedByObjectVersion
1070
     0
1000
AcDbSavedByObjectVersion
1070
     0
  0
VISUALSTYLE
  5
1FC
102
{ACAD_REACTORS
330
1EE
102
}
330
1EE
100
AcDbVisualStyle
  2
Linepattern
 70
    14
 71
     2
 72
     2
 73
     0
 90
        0
 40
-0.6
 41
-30.0
 62
     5
 63
     7
421
 16777215
 74
     1
 91
        4
 64
     7
 65
   257
 75
     7
175
     7
 42
1.0
 92
        8
 66
     7
 43
1.0
 76
     1
 77
     6
 78
     2
 67
     7
 79
     5
170
     0
171
     0
290
     0
174
     0
 93
        1
 44
0.0
173
     0
291
     1
 45
0.0
1001
ACAD
1000
AcDbSavedByObjectVersion
1070
     0
1000
AcDbSavedByObjectVersion
1070
     0
  0
VISUALSTYLE
  5
93B
102
{ACAD_XDICTIONARY
360
93C
102
}
102
{ACAD_REACTORS
330
1EE
102
}
330
1EE
100
AcDbVisualStyle
  2
OverhangOff
 70
    21
 71
     2
 72
     2
 73
     0
 90
        0
 40
-0.6
 41
-30.0
 62
     5
 63
     7
 74
     1
 91
        4
 64
     7
 65
   257
 75
     1
175
     1
 42
1.0
 92
        9
 66
     7
 43
1.0
 76
     1
 77
     6
 78
     2
 67
     7
 79
     5
170
     0
171
     0
290
     0
174
     0
 93
        1
 44
0.0
173
     0
291
     1
 45
0.0
1001
ACAD
1000
AcDbSavedByObjectVersion
1070
     0
1000
AcDbSavedByObjectVersion
1070
     0
  0
VISUALSTYLE
  5
1F8
102
{ACAD_REACTORS
330
1EE
102
}
330
1EE
100
AcDbVisualStyle
  2
Realistic
 70
     8
 71
     2
 72
     2
 73
     0
 90
        0
 40
-0.6
 41
-30.0
 62
     5
 63
     7
421
 16777215
 74
     1
 91
        0
 64
     7
 65
   257
 75
     1
175
     1
 42
1.0
 92
        8
 66
     8
424
  7895160
 43
1.0
 76
     1
 77
     6
 78
     2
 67
     7
 79
     5
170
     0
171
     0
290
     0
174
     0
 93
       13
 44
0.0
173
     0
291
     0
 45
0.0
1001
ACAD
1000
AcDbSavedByObjectVersion
1070
     0
1000
AcDbSavedByObjectVersion
1070
     0
  0
VISUALSTYLE
  5
1FB
102
{ACAD_REACTORS
330
1EE
102
}
330
1EE
100
AcDbVisualStyle
  2
Thicken
 70
    13
 71
     2
 72
     2
 73
     0
 90
        0
 40
-0.6
 41
-30.0
 62
     5
 63
     7
421
 16777215
 74
     1
 91
        4
 64
     7
 65
   257
 75
     1
175
     1
 42
1.0
 92
       12
 66
     7
 43
1.0
 76
     1
 77
     6
 78
     2
 67
     7
 79
     5
170
     0
171
     0
290
     0
174
     0
 93
        1
 44
0.0
173
     0
291
     1
 45
0.0
1001
ACAD
1000
AcDbSavedByObjectVersion
1070
     0
1000
AcDbSavedByObjectVersion
1070
     0
  0
DICTIONARYVAR
  5
18F
102
{ACAD_REACTORS
330
DA
102
}
330
DA
100
DictionaryVariables
280
     0
  1
STANDARD
  0
DICTIONARYVAR
  5
DC
102
{ACAD_REACTORS
330
DA
102
}
330
DA
100
DictionaryVariables
280
     0
  1
1
  0
DICTIONARYVAR
  5
DB
102
{ACAD_REACTORS
330
DA
102
}
330
DA
100
DictionaryVariables
280
     0
  1
1
  0
DICTIONARY
  5
9D
102
{ACAD_REACTORS
330
97
102
}
330
97
100
AcDbDictionary
281
     1
  0
XRECORD
  5
186
102
{ACAD_REACTORS
330
97
102
}
330
97
100
AcDbXrecord
280
     1
 90
-1023410169
  0
DICTIONARY
  5
94C
330
1EC
100
AcDbDictionary
280
     1
281
     1
  3
ACAD_XREC_ROUNDTRIP
360
94D
  0
DICTIONARY
  5
94A
330
1EB
100
AcDbDictionary
280
     1
281
     1
  3
ACAD_XREC_ROUNDTRIP
360
94B
  0
DICTIONARY
  5
94E
330
1ED
100
AcDbDictionary
280
     1
281
     1
  3
ACAD_XREC_ROUNDTRIP
360
94F
  0
DICTIONARY
  5
A1B
330
170
100
AcDbDictionary
280
     1
281
     1
  3
ACAD_XREC_ROUNDTRIP
360
A1C
  0
DICTIONARY
  5
936
330
935
100
AcDbDictionary
280
     1
281
     1
  3
ACAD_XREC_ROUNDTRIP
360
937
  0
DICTIONARY
  5
939
330
938
100
AcDbDictionary
280
     1
281
     1
  3
ACAD_XREC_ROUNDTRIP
360
93A
  0
DICTIONARY
  5
93C
330
93B
100
AcDbDictionary
280
     1
281
     1
  3
ACAD_XREC_ROUNDTRIP
360
93D
  0
XRECORD
  5
94D
102
{ACAD_REACTORS
330
94C
102
}
330
94C
100
AcDbXrecord
280
     1
102
MATERIAL
148
0.0
149
0.0
149
0.0
 93
        0
 94
       63
282
     0
 72
     1
 77
     1
171
     1
175
     1
179
     1
273
     0
  0
XRECORD
  5
94B
102
{ACAD_REACTORS
330
94A
102
}
330
94A
100
AcDbXrecord
280
     1
102
MATERIAL
148
0.0
149
0.0
149
0.0
 93
        0
 94
       63
282
     0
 72
     1
 77
     1
171
     1
175
     1
179
     1
273
     0
  0
XRECORD
  5
94F
102
{ACAD_REACTORS
330
94E
102
}
330
94E
100
AcDbXrecord
280
     1
102
MATERIAL
148
0.0
149
0.0
149
0.0
 93
        0
 94
       63
282
     0
 72
     1
 77
     1
171
     1
175
     1
179
     1
273
     0
  0
XRECORD
  5
A1C
102
{ACAD_REACTORS
330
A1B
102
}
330
A1B
100
AcDbXrecord
280
     1
102
ACAD_ROUNDTRIP_PRE2007_TABLESTYLE
 90
        4
 91
        0
  1

 92
        4
 93
        0
  2

 94
        4
 95
        0
  3

  0
XRECORD
  5
937
102
{ACAD_REACTORS
330
936
102
}
330
936
100
AcDbXrecord
280
     1
102
RTVSPropertyOp0
 70
     0
102
RTVSPropertyOp1
 70
     0
102
RTVSPropertyOp2
 70
     0
102
RTVSPropertyOp3
 70
     0
102
RTVSPropertyOp4
 70
     0
102
RTVSPropertyOp5
 70
     0
102
RTVSPropertyOp6
 70
     0
102
RTVSPropertyOp7
 70
     0
102
RTVSPropertyOp8
 70
     0
102
RTVSPropertyOp9
 70
     0
102
RTVSPropertyOp10
 70
     0
102
RTVSPropertyOp11
 70
     0
102
RTVSPropertyOp12
 70
     0
102
RTVSPropertyOp13
 70
     0
102
RTVSPropertyOp14
 70
     2
102
RTVSPropertyOp15
 70
     0
102
RTVSPropertyOp16
 70
     0
102
RTVSPropertyOp17
 70
     0
102
RTVSPropertyOp18
 70
     0
102
RTVSPropertyOp19
 70
     0
102
RTVSPropertyOp20
 70
     0
102
RTVSPropertyOp21
 70
     0
102
RTVSPropertyOp22
 70
     0
102
RTVSPropertyOp23
 70
     0
102
RTVSPropertyOp24
 70
     0
102
RTVSPropertyOp25
 70
     0
102
RTVSPropertyOp26
 70
     0
102
RTVSPropertyOp27
 70
     0
  0
XRECORD
  5
93A
102
{ACAD_REACTORS
330
939
102
}
330
939
100
AcDbXrecord
280
     1
102
RTVSPropertyOp0
 70
     0
102
RTVSPropertyOp1
 70
     0
102
RTVSPropertyOp2
 70
     0
102
RTVSPropertyOp3
 70
     0
102
RTVSPropertyOp4
 70
     0
102
RTVSPropertyOp5
 70
     0
102
RTVSPropertyOp6
 70
     0
102
RTVSPropertyOp7
 70
     0
102
RTVSPropertyOp8
 70
     0
102
RTVSPropertyOp9
 70
     0
102
RTVSPropertyOp10
 70
     0
102
RTVSPropertyOp11
 70
     0
102
RTVSPropertyOp12
 70
     0
102
RTVSPropertyOp13
 70
     0
102
RTVSPropertyOp14
 70
     2
102
RTVSPropertyOp15
 70
     0
102
RTVSPropertyOp16
 70
     0
102
RTVSPropertyOp17
 70
     0
102
RTVSPropertyOp18
 70
     0
102
RTVSPropertyOp19
 70
     0
102
RTVSPropertyOp20
 70
     0
102
RTVSPropertyOp21
 70
     0
102
RTVSPropertyOp22
 70
     0
102
RTVSPropertyOp23
 70
     0
102
RTVSPropertyOp24
 70
     0
102
RTVSPropertyOp25
 70
     0
102
RTVSPropertyOp26
 70
     0
102
RTVSPropertyOp27
 70
     0
  0
XRECORD
  5
93D
102
{ACAD_REACTORS
330
93C
102
}
330
93C
100
AcDbXrecord
280
     1
102
RTVSPropertyOp0
 70
     0
102
RTVSPropertyOp1
 70
     0
102
RTVSPropertyOp2
 70
     0
102
RTVSPropertyOp3
 70
     0
102
RTVSPropertyOp4
 70
     0
102
RTVSPropertyOp5
 70
     0
102
RTVSPropertyOp6
 70
     0
102
RTVSPropertyOp7
 70
     0
102
RTVSPropertyOp8
 70
     0
102
RTVSPropertyOp9
 70
     0
102
RTVSPropertyOp10
 70
     0
102
RTVSPropertyOp11
 70
     0
102
RTVSPropertyOp12
 70
     0
102
RTVSPropertyOp13
 70
     0
102
RTVSPropertyOp14
 70
     2
102
RTVSPropertyOp15
 70
     0
102
RTVSPropertyOp16
 70
     0
102
RTVSPropertyOp17
 70
     0
102
RTVSPropertyOp18
 70
     0
102
RTVSPropertyOp19
 70
     0
102
RTVSPropertyOp20
 70
     0
102
RTVSPropertyOp21
 70
     0
102
RTVSPropertyOp22
 70
     0
102
RTVSPropertyOp23
 70
     0
102
RTVSPropertyOp24
 70
     0
102
RTVSPropertyOp25
 70
     0
102
RTVSPropertyOp26
 70
     0
102
RTVSPropertyOp27
 70
     0
  0
ENDSEC
  0
EOF
