  0
SECTION
  2
HEADER
  9
$ACADVER
  1
AC1018
  9
$ACADMAINTVER
 70
   104
  9
$DWGCODEPAGE
  3
ANSI_1252
  9
$LASTSAVEDBY
  1
oberdoer
  9
$CUSTOMPROPERTYTAG
  1
AmdtFileType
  9
$CUSTOMPROPERTY
  1
84
  9
$INSBASE
 10
0.0
 20
0.0
 30
0.0
  9
$EXTMIN
 10
491.988987482989
 20
303.4062592696402
 30
-0.0000000000112531
  9
$EXTMAX
 10
1073.715005675456
 20
728.9068956904107
 30
0.0000000000002922
  9
$LIMMIN
 10
0.0
 20
0.0
  9
$LIMMAX
 10
420.0
 20
297.0
  9
$ORTHOMODE
 70
     0
  9
$REGENMODE
 70
     1
  9
$FILLMODE
 70
     1
  9
$QTEXTMODE
 70
     0
  9
$MIRRTEXT
 70
     1
  9
$LTSCALE
 40
1.0
  9
$ATTMODE
 70
     1
  9
$TEXTSIZE
 40
2.5
  9
$TRACEWID
 40
1.0
  9
$TEXTSTYLE
  7
STANDARD
  9
$CLAYER
  8
0
  9
$CELTYPE
  6
ByLayer
  9
$CECOLOR
 62
   256
  9
$CELTSCALE
 40
1.0
  9
$DISPSILH
 70
     0
  9
$DIMSCALE
 40
1.0
  9
$DIMASZ
 40
2.5
  9
$DIMEXO
 40
0.0
  9
$DIMDLI
 40
10.0
  9
$DIMRND
 40
0.0
  9
$DIMDLE
 40
0.0
  9
$DIMEXE
 40
2.0
  9
$DIMTP
 40
0.1
  9
$DIMTM
 40
0.1
  9
$DIMTXT
 40
3.5
  9
$DIMCEN
 40
0.0
  9
$DIMTSZ
 40
0.0
  9
$DIMTOL
 70
     0
  9
$DIMLIM
 70
     0
  9
$DIMTIH
 70
     0
  9
$DIMTOH
 70
     0
  9
$DIMSE1
 70
     0
  9
$DIMSE2
 70
     0
  9
$DIMTAD
 70
     1
  9
$DIMZIN
 70
     8
  9
$DIMBLK
  1

  9
$DIMASO
 70
     1
  9
$DIMSHO
 70
     1
  9
$DIMPOST
  1

  9
$DIMAPOST
  1
"
  9
$DIMALT
 70
     0
  9
$DIMALTD
 70
     2
  9
$DIMALTF
 40
0.0393701
  9
$DIMLFAC
 40
1.0
  9
$DIMTOFL
 70
     1
  9
$DIMTVP
 40
0.0
  9
$DIMTIX
 70
     0
  9
$DIMSOXD
 70
     0
  9
$DIMSAH
 70
     0
  9
$DIMBLK1
  1

  9
$DIMBLK2
  1

  9
$DIMSTYLE
  2
AM_DIN
  9
$DIMCLRD
 70
   256
  9
$DIMCLRE
 70
   256
  9
$DIMCLRT
 70
     2
  9
$DIMTFAC
 40
0.71
  9
$DIMGAP
 40
1.5
  9
$DIMJUST
 70
     0
  9
$DIMSD1
 70
     0
  9
$DIMSD2
 70
     0
  9
$DIMTOLJ
 70
     0
  9
$DIMTZIN
 70
     8
  9
$DIMALTZ
 70
     0
  9
$DIMALTTZ
 70
     0
  9
$DIMUPT
 70
     0
  9
$DIMDEC
 70
     2
  9
$DIMTDEC
 70
     2
  9
$DIMALTU
 70
     2
  9
$DIMALTTD
 70
     2
  9
$DIMTXSTY
  7
STANDARD
  9
$DIMAUNIT
 70
     0
  9
$DIMADEC
 70
     0
  9
$DIMALTRND
 40
0.0
  9
$DIMAZIN
 70
     2
  9
$DIMDSEP
 70
    46
  9
$DIMATFIT
 70
     3
  9
$DIMFRAC
 70
     0
  9
$DIMLDRBLK
  1

  9
$DIMLUNIT
 70
     2
  9
$DIMLWD
 70
    -1
  9
$DIMLWE
 70
    -1
  9
$DIMTMOVE
 70
     0
  9
$LUNITS
 70
     2
  9
$LUPREC
 70
     2
  9
$SKETCHINC
 40
1.0
  9
$FILLETRAD
 40
2.5
  9
$AUNITS
 70
     0
  9
$AUPREC
 70
     0
  9
$MENU
  1
.
  9
$ELEVATION
 40
0.0
  9
$PELEVATION
 40
0.0
  9
$THICKNESS
 40
0.0
  9
$LIMCHECK
 70
     0
  9
$CHAMFERA
 40
2.5
  9
$CHAMFERB
 40
2.5
  9
$CHAMFERC
 40
20.0
  9
$CHAMFERD
 40
0.0
  9
$SKPOLY
 70
     0
  9
$TDCREATE
 40
2455484.520981435
  9
$TDUCREATE
 40
2455484.437648102
  9
$TDUPDATE
 40
2456149.634349595
  9
$TDUUPDATE
 40
2456149.551016262
  9
$TDINDWG
 40
0.0524085185
  9
$TDUSRTIMER
 40
0.0524081597
  9
$USRTIMER
 70
     1
  9
$ANGBASE
 50
0.0
  9
$ANGDIR
 70
     0
  9
$PDMODE
 70
     0
  9
$PDSIZE
 40
0.0
  9
$PLINEWID
 40
0.0
  9
$SPLFRAME
 70
     0
  9
$SPLINETYPE
 70
     6
  9
$SPLINESEGS
 70
     8
  9
$HANDSEED
  5
A2F
  9
$SURFTAB1
 70
     6
  9
$SURFTAB2
 70
     6
  9
$SURFTYPE
 70
     6
  9
$SURFU
 70
     6
  9
$SURFV
 70
     6
  9
$UCSBASE
  2

  9
$UCSNAME
  2

  9
$UCSORG
 10
0.0
 20
0.0
 30
0.0
  9
$UCSXDIR
 10
1.0
 20
0.0
 30
0.0
  9
$UCSYDIR
 10
0.0
 20
1.0
 30
0.0
  9
$UCSORTHOREF
  2

  9
$UCSORTHOVIEW
 70
     0
  9
$UCSORGTOP
 10
0.0
 20
0.0
 30
0.0
  9
$UCSORGBOTTOM
 10
0.0
 20
0.0
 30
0.0
  9
$UCSORGLEFT
 10
0.0
 20
0.0
 30
0.0
  9
$UCSORGRIGHT
 10
0.0
 20
0.0
 30
0.0
  9
$UCSORGFRONT
 10
0.0
 20
0.0
 30
0.0
  9
$UCSORGBACK
 10
0.0
 20
0.0
 30
0.0
  9
$PUCSBASE
  2

  9
$PUCSNAME
  2

  9
$PUCSORG
 10
0.0
 20
0.0
 30
0.0
  9
$PUCSXDIR
 10
1.0
 20
0.0
 30
0.0
  9
$PUCSYDIR
 10
0.0
 20
1.0
 30
0.0
  9
$PUCSORTHOREF
  2

  9
$PUCSORTHOVIEW
 70
     0
  9
$PUCSORGTOP
 10
0.0
 20
0.0
 30
0.0
  9
$PUCSORGBOTTOM
 10
0.0
 20
0.0
 30
0.0
  9
$PUCSORGLEFT
 10
0.0
 20
0.0
 30
0.0
  9
$PUCSORGRIGHT
 10
0.0
 20
0.0
 30
0.0
  9
$PUCSORGFRONT
 10
0.0
 20
0.0
 30
0.0
  9
$PUCSORGBACK
 10
0.0
 20
0.0
 30
0.0
  9
$USERI1
 70
     0
  9
$USERI2
 70
     0
  9
$USERI3
 70
     0
  9
$USERI4
 70
     0
  9
$USERI5
 70
     0
  9
$USERR1
 40
0.0
  9
$USERR2
 40
0.0
  9
$USERR3
 40
0.0
  9
$USERR4
 40
0.0
  9
$USERR5
 40
0.0
  9
$WORLDVIEW
 70
     1
  9
$SHADEDGE
 70
     3
  9
$SHADEDIF
 70
    70
  9
$TILEMODE
 70
     1
  9
$MAXACTVP
 70
    64
  9
$PINSBASE
 10
0.0
 20
0.0
 30
0.0
  9
$PLIMCHECK
 70
     0
  9
$PEXTMIN
 10
28.19999999999999
 20
17.0
 30
0.0
  9
$PEXTMAX
 10
253.8
 20
153.0
 30
0.0
  9
$PLIMMIN
 10
-7.5
 20
-20.0
  9
$PLIMMAX
 10
289.5
 20
190.0
  9
$UNITMODE
 70
     0
  9
$VISRETAIN
 70
     1
  9
$PLINEGEN
 70
     0
  9
$PSLTSCALE
 70
     1
  9
$TREEDEPTH
 70
  3020
  9
$CMLSTYLE
  2
Standard
  9
$CMLJUST
 70
     0
  9
$CMLSCALE
 40
20.0
  9
$PROXYGRAPHICS
 70
     1
  9
$MEASUREMENT
 70
     1
  9
$CELWEIGHT
370
    -1
  9
$ENDCAPS
280
     0
  9
$JOINSTYLE
280
     0
  9
$LWDISPLAY
290
     0
  9
$INSUNITS
 70
     4
  9
$HYPERLINKBASE
  1

  9
$STYLESHEET
  1
ganz_fein_1.ctb
  9
$XEDIT
290
     1
  9
$CEPSNTYPE
380
     0
  9
$PSTYLEMODE
290
     1
  9
$FINGERPRINTGUID
  2
{FB0A97CB-33A0-4452-AE5D-CA930E0C8CAF}
  9
$VERSIONGUID
  2
{DBCEC155-4E16-4800-A979-3BBB0D1C2694}
  9
$EXTNAMES
290
     1
  9
$PSVPSCALE
 40
0.0
  9
$OLESTARTUP
290
     0
  9
$SORTENTS
280
   127
  9
$INDEXCTL
280
     0
  9
$HIDETEXT
280
     0
  9
$XCLIPFRAME
290
     0
  9
$HALOGAP
280
     0
  9
$OBSCOLOR
 70
   257
  9
$OBSLTYPE
280
     0
  9
$INTERSECTIONDISPLAY
280
     0
  9
$INTERSECTIONCOLOR
 70
   257
  9
$DIMASSOC
280
     1
  9
$PROJECTNAME
  1

  0
ENDSEC
  0
SECTION
  2
CLASSES
  0
CLASS
  1
ACDBDICTIONARYWDFLT
  2
AcDbDictionaryWithDefault
  3
ObjectDBX Classes
 90
        0
 91
        1
280
     0
281
     0
  0
CLASS
  1
ACME_DOCUMENT
  2
AcMeDbDoc
  3
AcMeServices
 90
        0
 91
        1
280
     0
281
     0
  0
CLASS
  1
AMGSETTINGSOBJ
  2
AmgSettingsObj
  3
"AcadM|Product Description: AutoCAD Mechanical|Company: Autodesk"
 90
        0
 91
        2
280
     0
281
     0
  0
CLASS
  1
ACMESCOPE
  2
AcMeScope
  3
AcMeServices
 90
        0
 91
        1
280
     0
281
     0
  0
CLASS
  1
ACMECOMMANDHISTORY
  2
AcMeCommandHistory
  3
AcMeServices
 90
        0
 91
        1
280
     0
281
     0
  0
CLASS
  1
ACIMSYSVARMAN
  2
AcImSysVarManager
  3
AcMeServices
 90
        0
 91
        5
280
     0
281
     0
  0
CLASS
  1
ACIMREALSYSVAR
  2
AcImRealSysVar
  3
AcMeServices
 90
        0
 91
        1
280
     0
281
     0
  0
CLASS
  1
ACIMINTSYSVAR
  2
AcImIntSysVar
  3
AcMeServices
 90
        0
 91
       27
280
     0
281
     0
  0
CLASS
  1
ACMEDRAWINGMAN
  2
AcMeDrawingMan
  3
AcMeServices
 90
        0
 91
        1
280
     0
281
     0
  0
CLASS
  1
ACMEVIEW
  2
AcMeView
  3
AcMeServices
 90
        0
 91
        1
280
     0
281
     0
  0
CLASS
  1
ACDBENTITYCACHE
  2
AcMeEntityCache
  3
AcMeServices
 90
        0
 91
        1
280
     0
281
     0
  0
CLASS
  1
GSMANAGER
  2
AcMeGSManager
  3
AcMeServices
 90
        0
 91
        1
280
     0
281
     0
  0
CLASS
  1
AMDTINTERNALREACTOR
  2
AmdtInternalReactor
  3
AcMeServices
 90
        0
 91
        2
280
     0
281
     0
  0
CLASS
  1
ACMESTATEMGR
  2
AcMeStateMgr
  3
AcMeServices
 90
        0
 91
        1
280
     0
281
     0
  0
CLASS
  1
ACGREFMASTER
  2
AcGrefMaster
  3
AcAttribServices
 90
        0
 91
        1
280
     0
281
     0
  0
CLASS
  1
ACME_DATABASE
  2
AcMeDbDatabase
  3
AcMeServices
 90
        0
 91
        1
280
     0
281
     0
  0
CLASS
  1
ACRFINSADJUSTERMGR
  2
AcRfInsAdjusterMgr
  3
AcMeServices
 90
        0
 91
        1
280
     0
281
     0
  0
CLASS
  1
ACGREFACADMASTER
  2
AcGrefacadMaster
  3
AcGrefServices
 90
        0
 91
        1
280
     0
281
     0
  0
CLASS
  1
AMIMASTER
  2
AmiMaster
  3
AmiServices
 90
        0
 91
        1
280
     0
281
     0
  0
CLASS
  1
ACMDATADICTIONARY
  2
AcmDataDictionary
  3
"AcmSymBB|Product Description: AutoCAD Mechanical|Company: Autodesk"
 90
        0
 91
        1
280
     0
281
     0
  0
CLASS
  1
ACMDATAENTRYBLOCK
  2
AcmDataEntryBlock
  3
"AcmSymBB|Product Description: AutoCAD Mechanical|Company: Autodesk"
 90
        0
 91
        0
280
     0
281
     0
  0
CLASS
  1
ACIMSTRSYSVAR
  2
AcImStrSysVar
  3
AcMeServices
 90
        0
 91
        5
280
     0
281
     0
  0
CLASS
  1
ACMSTANDARDDIN
  2
AcmStandardDIN
  3
"Amdt_StdImp|Product Description: AutoCAD Mechanical|Company: Autodesk"
 90
        0
 91
        1
280
     0
281
     0
  0
CLASS
  1
AMGOBJPROPCFG
  2
AmgObjPropCfg
  3
"AmgLay|Product Description: AutoCAD Mechanical|Company: Autodesk"
 90
        1
 91
        2
280
     0
281
     0
  0
CLASS
  1
AMDTEDGESTANDARDDIN
  2
AmdtEdgeStdDIN
  3
"Amdt_StdImp|Product Description: AutoCAD Mechanical|Company: Autodesk"
 90
        0
 91
        0
280
     0
281
     0
  0
CLASS
  1
ACMSURFSTANDARDDIN
  2
AcmSurfTextStdDIN
  3
"Amdt_StdImp|Product Description: AutoCAD Mechanical|Company: Autodesk"
 90
        0
 91
        1
280
     0
281
     0
  0
CLASS
  1
ACMFCFSTANDARDDIN
  2
AcmFCFStdDIN
  3
"Amdt_StdImp|Product Description: AutoCAD Mechanical|Company: Autodesk"
 90
        0
 91
        1
280
     0
281
     0
  0
CLASS
  1
ACMWELDSTANDARDDIN
  2
AcmWeldingStdDIN
  3
"Amdt_StdImp|Product Description: AutoCAD Mechanical|Company: Autodesk"
 90
        0
 91
        1
280
     0
281
     0
  0
CLASS
  1
ACMIDSTANDARDDIN
  2
AcmIdStdDIN
  3
"Amdt_StdImp|Product Description: AutoCAD Mechanical|Company: Autodesk"
 90
        0
 91
        1
280
     0
281
     0
  0
CLASS
  1
ACMDATUMSTANDARDDIN
  2
AcmDatumStdDIN
  3
"Amdt_StdImp|Product Description: AutoCAD Mechanical|Company: Autodesk"
 90
        0
 91
        1
280
     0
281
     0
  0
CLASS
  1
ACMBOMSTANDARDDIN
  2
AcmBOMStdDIN
  3
"Amdt_StdImp|Product Description: AutoCAD Mechanical|Company: Autodesk"
 90
        0
 91
        1
280
     0
281
     0
  0
CLASS
  1
ACMDETAILSTANDARDDIN
  2
AmdtDetailSymStdDIN
  3
"Amdt_StdImp|Product Description: AutoCAD Mechanical|Company: Autodesk"
 90
        0
 91
        1
280
     0
281
     0
  0
CLASS
  1
ACMSECTIONSTANDARDDIN
  2
AmdtSectionSymStdDIN
  3
"Amdt_StdImp|Product Description: AutoCAD Mechanical|Company: Autodesk"
 90
        0
 91
        1
280
     0
281
     0
  0
CLASS
  1
ACMCENTERLINESTANDARDDIN
  2
AmdtCenterLineStdDIN
  3
"Amdt_StdImp|Product Description: AutoCAD Mechanical|Company: Autodesk"
 90
        0
 91
        1
280
     0
281
     0
  0
CLASS
  1
ACMNOTESTANDARDDIN
  2
AmdtNoteStdDIN
  3
"Amdt_StdImp|Product Description: AutoCAD Mechanical|Company: Autodesk"
 90
        0
 91
        1
280
     0
281
     0
  0
CLASS
  1
ACAMGLAYSTD
  2
AcAmgLayStd
  3
"AmgLay|Product Description: AutoCAD Mechanical|Company: Autodesk"
 90
        0
 91
        2
280
     0
281
     0
  0
CLASS
  1
ACAMGDIMSTD
  2
AcAmgDimStd
  3
"AmgDim|Product Description: AutoCAD Mechanical|Company: Autodesk"
 90
        0
 91
        2
280
     0
281
     0
  0
CLASS
  1
ACAMGHOLECHARTSTDDIN
  2
AcAmgHoleChartStdDIN
  3
ACMSYMBB_MODULE_NAME
 90
        0
 91
        1
280
     0
281
     0
  0
CLASS
  1
ACAMGTITLESTD
  2
AcAmgTitleStd
  3
"AmgTitle|Product Description: AutoCAD Mechanical|Company: Autodesk"
 90
        0
 91
        2
280
     0
281
     0
  0
CLASS
  1
LAYER_INDEX
  2
AcDbLayerIndex
  3
ObjectDBX Classes
 90
        0
 91
        0
280
     0
281
     0
  0
CLASS
  1
IDBUFFER
  2
AcDbIdBuffer
  3
ObjectDBX Classes
 90
        0
 91
        0
280
     0
281
     0
  0
CLASS
  1
DICTIONARYVAR
  2
AcDbDictionaryVar
  3
ObjectDBX Classes
 90
        0
 91
        3
280
     0
281
     0
  0
CLASS
  1
AM_DRAWING_MGR
  2
AcDmDwgMgr
  3
AcMechDwgViewMgmt
 90
        0
 91
        1
280
     0
281
     0
  0
CLASS
  1
AM_DWG_DOCUMENT
  2
AcDmDwgDocument
  3
AcMechDwgViewMgmt
 90
        0
 91
        1
280
     0
281
     0
  0
CLASS
  1
AM_DWG_SHEET
  2
AcDmSheet
  3
AcMechDwgViewMgmt
 90
        0
 91
        2
280
     0
281
     0
  0
CLASS
  1
AM_VIEWDIMPARMAP
  2
AcDmViewDimParMap
  3
AcMechDwgViewMgmt
 90
        0
 91
        2
280
     0
281
     0
  0
CLASS
  1
AM_DWGMGR_NAME
  2
AcDmDwgMgrName
  3
AcMechDwgViewMgmt
 90
        0
 91
        1
280
     0
281
     0
  0
CLASS
  1
AMDTMENUSTATEMGR
  2
AmdtMenuStateMgr
  3
McadcomServices
 90
        0
 91
        1
280
     0
281
     0
  0
CLASS
  1
AMDTMCOMMENUSTATE
  2
AmdtMcomMenuState
  3
McadcomServices
 90
        0
 91
        1
280
     0
281
     0
  0
CLASS
  1
MAPIAMMOUDLE
  2
MApiAmModule
  3
MApiAmServices
 90
        0
 91
        1
280
     0
281
     0
  0
CLASS
  1
AMDTADMENUSTATE
  2
AmdtAdMenuState
  3
DesignerServices
 90
        0
 91
        1
280
     0
281
     0
  0
CLASS
  1
ADAPPL
  2
AcAdAppl
  3
DesignerServices
 90
        0
 91
        1
280
     0
281
     0
  0
CLASS
  1
DEPMGR
  2
AcAdDepMgr
  3
DesignerServices
 90
        0
 91
        1
280
     0
281
     0
  0
CLASS
  1
PARAMMGR
  2
AcAdParamMgr
  3
DesignerServices
 90
        0
 91
        1
280
     0
281
     0
  0
CLASS
  1
PARAMSCOPE
  2
AcAdParamScope
  3
DesignerServices
 90
        0
 91
        1
280
     0
281
     0
  0
CLASS
  1
NAMEDAPPL
  2
AcAdNamedAppl
  3
DesignerServices
 90
        0
 91
        1
280
     0
281
     0
  0
CLASS
  1
AMDTDMMENUSTATE
  2
AmdtDmMenuState
  3
AcMechDwgViewMgmt
 90
        0
 91
        1
280
     0
281
     0
  0
CLASS
  1
AMDTAMMENUSTATE
  2
AmdtAmMenuState
  3
DesignerAssemblies
 90
        0
 91
        1
280
     0
281
     0
  0
CLASS
  1
ACAMPROJECT
  2
AcAmProject
  3
DesignerAssemblies
 90
        0
 91
        1
280
     0
281
     0
  0
CLASS
  1
ACAMGRCOMPDEF
  2
AcAmGrCompDef
  3
DesignerAssemblies
 90
        0
 91
        1
280
     0
281
     0
  0
CLASS
  1
ACCMCONTEXT
  2
AcCmContext
  3
DesignerAssemblies
 90
        0
 91
        1
280
     0
281
     0
  0
CLASS
  1
ACAMCOMPDEF
  2
AcAmCompDef
  3
DesignerAssemblies
 90
        0
 91
        1
280
     0
281
     0
  0
CLASS
  1
ACAMCOMPDEFMGR
  2
AcAmCompDefMgr
  3
DesignerAssemblies
 90
        0
 91
        1
280
     0
281
     0
  0
CLASS
  1
AMCONTEXTMGR
  2
AcAmContextMgr
  3
DesignerAssemblies
 90
        0
 91
        1
280
     0
281
     0
  0
CLASS
  1
ACAMCONTEXTMODELER
  2
AcAmContextModeler
  3
DesignerAssemblies
 90
        0
 91
        1
280
     0
281
     0
  0
CLASS
  1
ACMTHREADLINESTANDARDDIN
  2
AmdtThreadLineStdDIN
  3
"Amdt_StdImp|Product Description: AutoCAD Mechanical|Company: Autodesk"
 90
        0
 91
        1
280
     0
281
     0
  0
CLASS
  1
CATALOGSTATE
  2
AcAmCatalogState
  3
DesignerAssemblies
 90
        0
 91
        1
280
     0
281
     0
  0
CLASS
  1
ACAMGRCOMPDEFSET
  2
AcAmGrCompDefSet
  3
DesignerAssemblies
 90
        0
 91
        1
280
     0
281
     0
  0
CLASS
  1
AMDTBROWSERDBTAB
  2
AmdtBrowserDbTab
  3
McadcomServices
 90
        0
 91
        1
280
     0
281
     0
  0
CLASS
  1
CBROWSERAPPOBJECT
  2
CBrowserAppObject
  3
McadcomServices
 90
        0
 91
        3
280
     0
281
     0
  0
CLASS
  1
DM_PLACEHOLDER
  2
AcDmSelsetPlaceholder
  3
AcMechDwgViewMgmt
 90
        0
 91
        1
280
     0
281
     0
  0
CLASS
  1
TABLESTYLE
  2
AcDbTableStyle
  3
ObjectDBX Classes
 90
     4095
 91
        1
280
     0
281
     0
  0
CLASS
  1
MATERIAL
  2
AcDbMaterial
  3
ObjectDBX Classes
 90
     1024
 91
        3
280
     0
281
     0
  0
CLASS
  1
VISUALSTYLE
  2
AcDbVisualStyle
  3
ObjectDBX Classes
 90
     4095
 91
       19
280
     0
281
     0
  0
CLASS
  1
ACRFATTGENMGR
  2
AcRfAttGeneralMgr
  3
AcAttribServices
 90
        0
 91
        0
280
     0
281
     0
  0
CLASS
  1
ACRFOBJATTMGR
  2
AcRfObjAttGroupMgr
  3
AcAttribServices
 90
        0
 91
        0
280
     0
281
     0
  0
CLASS
  1
ACRFMCADAPIATTHOLDER
  2
AcRfMCADAPIAttHolder
  3
AcAttribServices
 90
        0
 91
        0
280
     0
281
     0
  0
CLASS
  1
AMDTSYSATTR
  2
AmdtSystemAttribute
  3
AcAttribServices
 90
        0
 91
        0
280
     0
281
     0
  0
CLASS
  1
ACMTAPERSTANDARDDIN
  2
AcmTaperStdDIN
  3
"Amdt_StdImp|Product Description: AutoCAD Mechanical|Company: Autodesk"
 90
        0
 91
        1
280
     0
281
     0
  0
CLASS
  1
CAMSSTRUCTBTNSTATE
  2
StructBtnState
  3
L"DesignerAssemblies"
 90
        0
 91
        0
280
     0
281
     0
  0
CLASS
  1
ACAMGFILTERDAT
  2
AcAmgFilterDat
  3
"AcadM|Product Description: AutoCAD Mechanical|Company: Autodesk"
 90
        0
 91
        0
280
     0
281
     0
  0
CLASS
  1
AMDTEDGESTANDARDDIN13715
  2
AmdtEdgeStdDIN13715
  3
"Amdt_StdImp|Product Description: AutoCAD Mechanical|Company: Autodesk"
 90
        0
 91
        1
280
     0
281
     0
  0
CLASS
  1
AMDTNOTETEMPLATEDB
  2
AmdtNoteTemplateDB
  3
AMDT_STDIMP_MODULE_NAME
 90
        0
 91
        9
280
     0
281
     0
  0
CLASS
  1
ACMSTANDARDISO
  2
AcmStandardISO
  3
"Amdt_StdImp|Product Description: AutoCAD Mechanical|Company: Autodesk"
 90
        0
 91
        1
280
     0
281
     0
  0
CLASS
  1
AMDTEDGESTANDARDISO
  2
AmdtEdgeStdISO
  3
"Amdt_StdImp|Product Description: AutoCAD Mechanical|Company: Autodesk"
 90
        0
 91
        1
280
     0
281
     0
  0
CLASS
  1
ACMSURFSTANDARDISO
  2
AcmSurfTextStdISO
  3
"Amdt_StdImp|Product Description: AutoCAD Mechanical|Company: Autodesk"
 90
        0
 91
        1
280
     0
281
     0
  0
CLASS
  1
ACMFCFSTANDARDISO
  2
AcmFCFStdISO
  3
"Amdt_StdImp|Product Description: AutoCAD Mechanical|Company: Autodesk"
 90
        0
 91
        1
280
     0
281
     0
  0
CLASS
  1
ACMWELDSTANDARDISO
  2
AcmWeldingStdISO
  3
"Amdt_StdImp|Product Description: AutoCAD Mechanical|Company: Autodesk"
 90
        0
 91
        1
280
     0
281
     0
  0
CLASS
  1
ACMIDSTANDARDISO
  2
AcmIdStdISO
  3
"Amdt_StdImp|Product Description: AutoCAD Mechanical|Company: Autodesk"
 90
        0
 91
        1
280
     0
281
     0
  0
CLASS
  1
ACMDATUMSTANDARDISO
  2
AcmDatumStdISO
  3
"Amdt_StdImp|Product Description: AutoCAD Mechanical|Company: Autodesk"
 90
        0
 91
        1
280
     0
281
     0
  0
CLASS
  1
ACMBOMSTANDARDISO
  2
AcmBOMStdISO
  3
"Amdt_StdImp|Product Description: AutoCAD Mechanical|Company: Autodesk"
 90
        0
 91
        1
280
     0
281
     0
  0
CLASS
  1
ACMDETAILSTANDARDISO
  2
AmdtDetailSymStdISO
  3
"Amdt_StdImp|Product Description: AutoCAD Mechanical|Company: Autodesk"
 90
        0
 91
        1
280
     0
281
     0
  0
CLASS
  1
ACMSECTIONSTANDARDISO
  2
AmdtSectionSymStdISO
  3
"Amdt_StdImp|Product Description: AutoCAD Mechanical|Company: Autodesk"
 90
        0
 91
        1
280
     0
281
     0
  0
CLASS
  1
ACMCENTERLINESTANDARDISO
  2
AmdtCenterLineStdISO
  3
"Amdt_StdImp|Product Description: AutoCAD Mechanical|Company: Autodesk"
 90
        0
 91
        1
280
     0
281
     0
  0
CLASS
  1
ACMNOTESTANDARDISO
  2
AmdtNoteStdISO
  3
"Amdt_StdImp|Product Description: AutoCAD Mechanical|Company: Autodesk"
 90
        0
 91
        1
280
     0
281
     0
  0
CLASS
  1
ACAMGHOLECHARTSTDISO
  2
AcAmgHoleChartStdISO
  3
ACMSYMBB_MODULE_NAME
 90
        0
 91
        1
280
     0
281
     0
  0
CLASS
  1
ACMTHREADLINESTANDARDISO
  2
AmdtThreadLineStdISO
  3
"Amdt_StdImp|Product Description: AutoCAD Mechanical|Company: Autodesk"
 90
        0
 91
        1
280
     0
281
     0
  0
CLASS
  1
ACMTAPERSTANDARDISO
  2
AcmTaperStdISO
  3
"Amdt_StdImp|Product Description: AutoCAD Mechanical|Company: Autodesk"
 90
        0
 91
        1
280
     0
281
     0
  0
ENDSEC
  0
SECTION
  2
TABLES
  0
TABLE
  2
VPORT
  5
8
330
0
100
AcDbSymbolTable
 70
     1
  0
VPORT
  5
1E9
330
8
100
AcDbSymbolTableRecord
100
AcDbViewportTableRecord
  2
*Active
 70
     0
 10
0.0
 20
0.0
 11
1.0
 21
1.0
 12
782.8519965792225
 22
516.1565774800254
 13
0.0
 23
0.0
 14
2.5
 24
2.5
 15
10.0
 25
10.0
 16
0.0
 26
0.0
 36
1.0
 17
0.0
 27
0.0
 37
0.0
 40
428.1244841273733
 41
1.845679012345678
 42
50.0
 43
0.0
 44
0.0
 50
0.0
 51
0.0
 71
     0
 72
   100
 73
     1
 74
     3
 75
     0
 76
     0
 77
     0
 78
     0
281
     0
 65
     1
110
0.0
120
0.0
130
0.0
111
1.0
121
0.0
131
0.0
112
0.0
122
1.0
132
0.0
 79
     0
146
0.0
  0
ENDTAB
  0
TABLE
  2
LTYPE
  5
5
330
0
100
AcDbSymbolTable
 70
    62
  0
LTYPE
  5
14
330
5
100
AcDbSymbolTableRecord
100
AcDbLinetypeTableRecord
  2
ByBlock
 70
     0
  3

 72
    65
 73
     0
 40
0.0
  0
LTYPE
  5
15
330
5
100
AcDbSymbolTableRecord
100
AcDbLinetypeTableRecord
  2
ByLayer
 70
     0
  3

 72
    65
 73
     0
 40
0.0
  0
LTYPE
  5
16
330
5
100
AcDbSymbolTableRecord
100
AcDbLinetypeTableRecord
  2
Continuous
 70
     0
  3
Solid line
 72
    65
 73
     0
 40
0.0
  0
LTYPE
  5
A0
330
5
100
AcDbSymbolTableRecord
100
AcDbLinetypeTableRecord
  2
AM_ISO02W050
 70
     0
  3
__ __ __ __ __ __ __ __ __ __ __ __ __ __ __
 72
    65
 73
     2
 40
7.5
 49
6.0
 74
     0
 49
-1.5
 74
     0
  0
LTYPE
  5
A1
330
5
100
AcDbSymbolTableRecord
100
AcDbLinetypeTableRecord
  2
AM_ISO08W050
 70
     0
  3
____ . ____ . ____ . ____ . ____ . ____ . ____
 72
    65
 73
     4
 40
18.0
 49
12.0
 74
     0
 49
-1.5
 74
     0
 49
3.0
 74
     0
 49
-1.5
 74
     0
  0
LTYPE
  5
A2
330
5
100
AcDbSymbolTableRecord
100
AcDbLinetypeTableRecord
  2
AM_ISO09W050
 70
     0
  3
_____ . . _____ . . _____ . . ____ .. ____
 72
    65
 73
     6
 40
22.5
 49
12.0
 74
     0
 49
-1.5
 74
     0
 49
3.0
 74
     0
 49
-1.5
 74
     0
 49
3.0
 74
     0
 49
-1.5
 74
     0
  0
LTYPE
  5
A3
330
5
100
AcDbSymbolTableRecord
100
AcDbLinetypeTableRecord
  2
Amconstr
 70
     0
  3
_______________________
 72
    65
 73
     2
 40
9999.0
 49
9999.0
 74
     0
 49
0.0
 74
     0
  0
LTYPE
  5
A4
330
5
100
AcDbSymbolTableRecord
100
AcDbLinetypeTableRecord
  2
AM_ISO08W050x2
 70
     0
  3
__ . __ . __ . __ . __ . __
 72
    65
 73
     4
 40
9.0
 49
6.0
 74
     0
 49
-0.75
 74
     0
 49
1.5
 74
     0
 49
-0.75
 74
     0
  0
LTYPE
  5
A5
330
5
100
AcDbSymbolTableRecord
100
AcDbLinetypeTableRecord
  2
AM_ISO02W050x2
 70
     0
  3
 _ _ _ _ _ _ _ _ _ _ _ _
 72
    65
 73
     2
 40
3.75
 49
3.0
 74
     0
 49
-0.75
 74
     0
  0
LTYPE
  5
A8
330
5
100
AcDbSymbolTableRecord
100
AcDbLinetypeTableRecord
  2
Amzigzag
 70
     0
  3
/\/-/\/-/\/-/\/-/\/-/\/
 72
    65
 73
     2
 40
11.0001
 49
0.0001
 74
     4
 75
   135
340
A7
 46
0.04
 50
0.0
 44
0.0
 45
0.0
 49
-11.0
 74
     0
  0
LTYPE
  5
A9
330
5
100
AcDbSymbolTableRecord
100
AcDbLinetypeTableRecord
  2
AM_DIN_F_W050
 70
     0
  3
__ __ __ __ __ __ __ __ __ __ __ __ __ __ __
 72
    65
 73
     2
 40
6.25
 49
4.75
 74
     0
 49
-1.5
 74
     0
  0
LTYPE
  5
AA
330
5
100
AcDbSymbolTableRecord
100
AcDbLinetypeTableRecord
  2
AM_DIN_G_W050
 70
     0
  3
____ . ____ . ____ . ____ . ____ . ____ . ____
 72
    65
 73
     4
 40
13.75
 49
9.75
 74
     0
 49
-1.5
 74
     0
 49
1.0
 74
     0
 49
-1.5
 74
     0
  0
LTYPE
  5
AB
330
5
100
AcDbSymbolTableRecord
100
AcDbLinetypeTableRecord
  2
AM_DIN_K_W050
 70
     0
  3
_____ . . _____ . . _____ . . ____ .. ____
 72
    65
 73
     6
 40
16.25
 49
9.75
 74
     0
 49
-1.5
 74
     0
 49
1.0
 74
     0
 49
-1.5
 74
     0
 49
1.0
 74
     0
 49
-1.5
 74
     0
  0
LTYPE
  5
AC
330
5
100
AcDbSymbolTableRecord
100
AcDbLinetypeTableRecord
  2
AM_DIN_G_W050x2
 70
     0
  3
__ . __ . __ . __ . __ . __
 72
    65
 73
     4
 40
6.875
 49
4.75
 74
     0
 49
-0.875
 74
     0
 49
0.375
 74
     0
 49
-0.875
 74
     0
  0
LTYPE
  5
AD
330
5
100
AcDbSymbolTableRecord
100
AcDbLinetypeTableRecord
  2
AM_DIN_F_W050x2
 70
     0
  3
 _ _ _ _ _ _ _ _ _ _ _ _
 72
    65
 73
     2
 40
3.125
 49
2.25
 74
     0
 49
-0.875
 74
     0
  0
LTYPE
  5
BB
330
5
100
AcDbSymbolTableRecord
100
AcDbLinetypeTableRecord
  2
ACDINWELD
 70
     0
  3
_ _ _ _ _
 72
    65
 73
     2
 40
2.0
 49
2.0
 74
     0
 49
-1.0
 74
     0
  0
LTYPE
  5
BC
330
5
100
AcDbSymbolTableRecord
100
AcDbLinetypeTableRecord
  2
ACDINTGB
 70
     0
  3
__ . . __ . .
 72
    65
 73
     6
 40
9.0
 49
4.0
 74
     0
 49
-1.0
 74
     0
 49
1.0
 74
     0
 49
-1.0
 74
     0
 49
1.0
 74
     0
 49
-1.0
 74
     0
  0
LTYPE
  5
BD
330
5
100
AcDbSymbolTableRecord
100
AcDbLinetypeTableRecord
  2
ACDINTGL
 70
     0
  3
_ _ _ _ _
 72
    65
 73
     2
 40
3.0
 49
2.0
 74
     0
 49
-1.0
 74
     0
  0
LTYPE
  5
BF
330
5
100
AcDbSymbolTableRecord
100
AcDbLinetypeTableRecord
  2
CENTER
 70
     0
  3
__ . __
 72
    65
 73
     4
 40
7.0
 49
4.0
 74
     0
 49
-1.0
 74
     0
 49
1.0
 74
     0
 49
-1.0
 74
     0
  0
LTYPE
  5
10F
330
5
100
AcDbSymbolTableRecord
100
AcDbLinetypeTableRecord
  2
HIDDEN
 70
     0
  3
Verdeckt
 72
    65
 73
     2
 40
9.525
 49
6.349999999999998
 74
     0
 49
-3.174999999999998
 74
     0
  0
LTYPE
  5
110
330
5
100
AcDbSymbolTableRecord
100
AcDbLinetypeTableRecord
  2
PHANTOM2
 70
     0
  3
Phantom (.5x) ___ _ _ ___ _ _ ___ _ _ ___ _ _
 72
    65
 73
     6
 40
31.75
 49
15.875
 74
     0
 49
-3.174999999999998
 74
     0
 49
3.174999999999998
 74
     0
 49
-3.174999999999998
 74
     0
 49
3.174999999999998
 74
     0
 49
-3.174999999999998
 74
     0
  0
LTYPE
  5
905
330
5
100
AcDbSymbolTableRecord
100
AcDbLinetypeTableRecord
  2
BORDER
 70
     0
  3
Border __ __ . __ __ . __ __ . __ __ . __ __ .
 72
    65
 73
     6
 40
1.75
 49
0.5
 74
     0
 49
-0.25
 74
     0
 49
0.5
 74
     0
 49
-0.25
 74
     0
 49
0.0
 74
     0
 49
-0.25
 74
     0
  0
LTYPE
  5
906
330
5
100
AcDbSymbolTableRecord
100
AcDbLinetypeTableRecord
  2
BORDER2
 70
     0
  3
Border (.5x) __.__.__.__.__.__.__.__.__.__.__.
 72
    65
 73
     6
 40
0.875
 49
0.25
 74
     0
 49
-0.125
 74
     0
 49
0.25
 74
     0
 49
-0.125
 74
     0
 49
0.0
 74
     0
 49
-0.125
 74
     0
  0
LTYPE
  5
907
330
5
100
AcDbSymbolTableRecord
100
AcDbLinetypeTableRecord
  2
BORDERX2
 70
     0
  3
Border (2x) ____  ____  .  ____  ____  .  ___
 72
    65
 73
     6
 40
3.5
 49
1.0
 74
     0
 49
-0.5
 74
     0
 49
1.0
 74
     0
 49
-0.5
 74
     0
 49
0.0
 74
     0
 49
-0.5
 74
     0
  0
LTYPE
  5
908
330
5
100
AcDbSymbolTableRecord
100
AcDbLinetypeTableRecord
  2
CENTER2
 70
     0
  3
Center (.5x) ___ _ ___ _ ___ _ ___ _ ___ _ ___
 72
    65
 73
     4
 40
1.125
 49
0.75
 74
     0
 49
-0.125
 74
     0
 49
0.125
 74
     0
 49
-0.125
 74
     0
  0
LTYPE
  5
909
330
5
100
AcDbSymbolTableRecord
100
AcDbLinetypeTableRecord
  2
CENTERX2
 70
     0
  3
Center (2x) ________  __  ________  __  _____
 72
    65
 73
     4
 40
4.0
 49
2.5
 74
     0
 49
-0.5
 74
     0
 49
0.5
 74
     0
 49
-0.5
 74
     0
  0
LTYPE
  5
90A
330
5
100
AcDbSymbolTableRecord
100
AcDbLinetypeTableRecord
  2
DASHDOT
 70
     0
  3
Dash dot __ . __ . __ . __ . __ . __ . __ . __
 72
    65
 73
     4
 40
1.0
 49
0.5
 74
     0
 49
-0.25
 74
     0
 49
0.0
 74
     0
 49
-0.25
 74
     0
  0
LTYPE
  5
90B
330
5
100
AcDbSymbolTableRecord
100
AcDbLinetypeTableRecord
  2
DASHDOT2
 70
     0
  3
Dash dot (.5x) _._._._._._._._._._._._._._._.
 72
    65
 73
     4
 40
0.5
 49
0.25
 74
     0
 49
-0.125
 74
     0
 49
0.0
 74
     0
 49
-0.125
 74
     0
  0
LTYPE
  5
90C
330
5
100
AcDbSymbolTableRecord
100
AcDbLinetypeTableRecord
  2
DASHDOTX2
 70
     0
  3
Dash dot (2x) ____  .  ____  .  ____  .  ___
 72
    65
 73
     4
 40
2.0
 49
1.0
 74
     0
 49
-0.5
 74
     0
 49
0.0
 74
     0
 49
-0.5
 74
     0
  0
LTYPE
  5
90D
330
5
100
AcDbSymbolTableRecord
100
AcDbLinetypeTableRecord
  2
DASHED
 70
     0
  3
Dashed __ __ __ __ __ __ __ __ __ __ __ __ __ _
 72
    65
 73
     2
 40
0.75
 49
0.5
 74
     0
 49
-0.25
 74
     0
  0
LTYPE
  5
90E
330
5
100
AcDbSymbolTableRecord
100
AcDbLinetypeTableRecord
  2
DASHED2
 70
     0
  3
Dashed (.5x) _ _ _ _ _ _ _ _ _ _ _ _ _ _ _ _ _
 72
    65
 73
     2
 40
0.375
 49
0.25
 74
     0
 49
-0.125
 74
     0
  0
LTYPE
  5
90F
330
5
100
AcDbSymbolTableRecord
100
AcDbLinetypeTableRecord
  2
DASHEDX2
 70
     0
  3
Dashed (2x) ____  ____  ____  ____  ____  ___
 72
    65
 73
     2
 40
1.5
 49
1.0
 74
     0
 49
-0.5
 74
     0
  0
LTYPE
  5
910
330
5
100
AcDbSymbolTableRecord
100
AcDbLinetypeTableRecord
  2
DIVIDE
 70
     0
  3
Divide ____ . . ____ . . ____ . . ____ . . ____
 72
    65
 73
     6
 40
1.25
 49
0.5
 74
     0
 49
-0.25
 74
     0
 49
0.0
 74
     0
 49
-0.25
 74
     0
 49
0.0
 74
     0
 49
-0.25
 74
     0
  0
LTYPE
  5
911
330
5
100
AcDbSymbolTableRecord
100
AcDbLinetypeTableRecord
  2
DIVIDE2
 70
     0
  3
Divide (.5x) __..__..__..__..__..__..__..__.._
 72
    65
 73
     6
 40
0.625
 49
0.25
 74
     0
 49
-0.125
 74
     0
 49
0.0
 74
     0
 49
-0.125
 74
     0
 49
0.0
 74
     0
 49
-0.125
 74
     0
  0
LTYPE
  5
912
330
5
100
AcDbSymbolTableRecord
100
AcDbLinetypeTableRecord
  2
DIVIDEX2
 70
     0
  3
Divide (2x) ________  .  .  ________  .  .  _
 72
    65
 73
     6
 40
2.5
 49
1.0
 74
     0
 49
-0.5
 74
     0
 49
0.0
 74
     0
 49
-0.5
 74
     0
 49
0.0
 74
     0
 49
-0.5
 74
     0
  0
LTYPE
  5
913
330
5
100
AcDbSymbolTableRecord
100
AcDbLinetypeTableRecord
  2
DOT
 70
     0
  3
Dot . . . . . . . . . . . . . . . . . . . . . .
 72
    65
 73
     2
 40
0.25
 49
0.0
 74
     0
 49
-0.25
 74
     0
  0
LTYPE
  5
914
330
5
100
AcDbSymbolTableRecord
100
AcDbLinetypeTableRecord
  2
DOT2
 70
     0
  3
Dot (.5x) .....................................
 72
    65
 73
     2
 40
0.125
 49
0.0
 74
     0
 49
-0.125
 74
     0
  0
LTYPE
  5
915
330
5
100
AcDbSymbolTableRecord
100
AcDbLinetypeTableRecord
  2
DOTX2
 70
     0
  3
Dot (2x) .  .  .  .  .  .  .  .  .  .  .  .  . 
 72
    65
 73
     2
 40
0.5
 49
0.0
 74
     0
 49
-0.5
 74
     0
  0
LTYPE
  5
916
330
5
100
AcDbSymbolTableRecord
100
AcDbLinetypeTableRecord
  2
GAS_LINE
 70
     0
  3
Gas line ----GAS----GAS----GAS----GAS----GAS---
 72
    65
 73
     3
 40
0.95
 49
0.5
 74
     0
 49
-0.2
 74
     2
 75
     0
340
11
 46
0.1
 50
0.0
 44
-0.1
 45
-0.05
  9
GAS
 49
-0.25
 74
     0
  0
LTYPE
  5
917
330
5
100
AcDbSymbolTableRecord
100
AcDbLinetypeTableRecord
  2
HIDDEN2
 70
     0
  3
Hidden (.5x) _ _ _ _ _ _ _ _ _ _ _ _ _ _ _ _ _
 72
    65
 73
     2
 40
0.1875
 49
0.125
 74
     0
 49
-0.0625
 74
     0
  0
LTYPE
  5
918
330
5
100
AcDbSymbolTableRecord
100
AcDbLinetypeTableRecord
  2
HIDDENX2
 70
     0
  3
Hidden (2x) ____ ____ ____ ____ ____ ____ ____
 72
    65
 73
     2
 40
0.75
 49
0.5
 74
     0
 49
-0.25
 74
     0
  0
LTYPE
  5
919
330
5
100
AcDbSymbolTableRecord
100
AcDbLinetypeTableRecord
  2
PHANTOM
 70
     0
  3
Phantom ______  __  __  ______  __  __  ______
 72
    65
 73
     6
 40
2.5
 49
1.25
 74
     0
 49
-0.25
 74
     0
 49
0.25
 74
     0
 49
-0.25
 74
     0
 49
0.25
 74
     0
 49
-0.25
 74
     0
  0
LTYPE
  5
91A
330
5
100
AcDbSymbolTableRecord
100
AcDbLinetypeTableRecord
  2
PHANTOMX2
 70
     0
  3
Phantom (2x) ____________    ____    ____   _
 72
    65
 73
     6
 40
5.0
 49
2.5
 74
     0
 49
-0.5
 74
     0
 49
0.5
 74
     0
 49
-0.5
 74
     0
 49
0.5
 74
     0
 49
-0.5
 74
     0
  0
LTYPE
  5
91B
330
5
100
AcDbSymbolTableRecord
100
AcDbLinetypeTableRecord
  2
ZIGZAG
 70
     0
  3
Zig zag /\/\/\/\/\/\/\/\/\/\/\/\/\/\/\/\/\/\/\/
 72
    65
 73
     4
 40
0.8001000000000001
 49
0.0001
 74
     0
 49
-0.2
 74
     4
 75
   131
340
92F
 46
0.2
 50
0.0
 44
-0.2
 45
0.0
 49
-0.4
 74
     4
 75
   131
340
92F
 46
0.2
 50
180.0
 44
0.2
 45
0.0
 49
-0.2
 74
     0
  0
LTYPE
  5
91C
330
5
100
AcDbSymbolTableRecord
100
AcDbLinetypeTableRecord
  2
CPFLEX
 70
     0
  3
CP flex /\/\/\/\/\/\/\/\/\/\/\/\/\/\/\/\/\/\/\/
 72
    65
 73
     4
 40
0.8001000000000001
 49
0.0001
 74
     0
 49
-0.2
 74
     4
 75
   131
340
92F
 46
0.2
 50
0.0
 44
-0.2
 45
0.0
 49
-0.4
 74
     4
 75
   131
340
92F
 46
0.2
 50
180.0
 44
0.2
 45
0.0
 49
-0.2
 74
     0
  0
LTYPE
  5
91D
330
5
100
AcDbSymbolTableRecord
100
AcDbLinetypeTableRecord
  2
CIRC
 70
     0
  3
 ----- ~ ----- ~ ---- ~ -----
 72
    65
 73
     3
 40
9.0
 49
7.0
 74
     0
 49
-1.0
 74
     2
 75
     0
340
11
 46
1.0
 50
0.0
 44
-0.3
 45
-0.6
  9
~
 49
-1.0
 74
     0
  0
LTYPE
  5
91E
330
5
100
AcDbSymbolTableRecord
100
AcDbLinetypeTableRecord
  2
DN 010
 70
     0
  3
 DN10  ---- 10 ---- 10 ---- 10 ----
 72
    65
 73
     3
 40
9.0
 49
5.0
 74
     0
 49
-2.0
 74
     2
 75
     0
340
11
 46
1.0
 50
0.0
 44
-0.5
 45
-0.5
  9
10
 49
-2.0
 74
     0
  0
LTYPE
  5
91F
330
5
100
AcDbSymbolTableRecord
100
AcDbLinetypeTableRecord
  2
DN 015
 70
     0
  3
 DN15  ---- 15 ---- 15 ---- 15 ----
 72
    65
 73
     3
 40
9.0
 49
5.0
 74
     0
 49
-2.0
 74
     2
 75
     0
340
11
 46
1.0
 50
0.0
 44
-0.5
 45
-0.5
  9
15
 49
-2.0
 74
     0
  0
LTYPE
  5
920
330
5
100
AcDbSymbolTableRecord
100
AcDbLinetypeTableRecord
  2
DN 020
 70
     0
  3
 DN20  ---- 20 ---- 20 ---- 20 ----
 72
    65
 73
     3
 40
9.0
 49
5.0
 74
     0
 49
-2.0
 74
     2
 75
     0
340
11
 46
1.0
 50
0.0
 44
-0.5
 45
-0.5
  9
20
 49
-2.0
 74
     0
  0
LTYPE
  5
921
330
5
100
AcDbSymbolTableRecord
100
AcDbLinetypeTableRecord
  2
DN 025
 70
     0
  3
 DN25  ---- 25 ---- 25 ---- 25 ----
 72
    65
 73
     3
 40
9.0
 49
5.0
 74
     0
 49
-2.0
 74
     2
 75
     0
340
11
 46
1.0
 50
0.0
 44
-0.5
 45
-0.5
  9
25
 49
-2.0
 74
     0
  0
LTYPE
  5
922
330
5
100
AcDbSymbolTableRecord
100
AcDbLinetypeTableRecord
  2
DN 032
 70
     0
  3
 DN32  ---- 32 ---- 32 ---- 32 ----
 72
    65
 73
     3
 40
9.0
 49
5.0
 74
     0
 49
-2.0
 74
     2
 75
     0
340
11
 46
1.0
 50
0.0
 44
-0.5
 45
-0.5
  9
32
 49
-2.0
 74
     0
  0
LTYPE
  5
923
330
5
100
AcDbSymbolTableRecord
100
AcDbLinetypeTableRecord
  2
DN 040
 70
     0
  3
 DN40  ---- 40 ---- 40 ---- 40 ----
 72
    65
 73
     3
 40
9.0
 49
5.0
 74
     0
 49
-2.0
 74
     2
 75
     0
340
11
 46
1.0
 50
0.0
 44
-0.5
 45
-0.5
  9
40
 49
-2.0
 74
     0
  0
LTYPE
  5
924
330
5
100
AcDbSymbolTableRecord
100
AcDbLinetypeTableRecord
  2
DN 050
 70
     0
  3
 DN50  ---- 50 ---- 50 ---- 50 ----
 72
    65
 73
     3
 40
9.0
 49
5.0
 74
     0
 49
-2.0
 74
     2
 75
     0
340
11
 46
1.0
 50
0.0
 44
-0.5
 45
-0.5
  9
50
 49
-2.0
 74
     0
  0
LTYPE
  5
925
330
5
100
AcDbSymbolTableRecord
100
AcDbLinetypeTableRecord
  2
DN 065
 70
     0
  3
 DN65  ---- 65 ---- 65 ---- 65 ----
 72
    65
 73
     3
 40
9.0
 49
5.0
 74
     0
 49
-2.0
 74
     2
 75
     0
340
11
 46
1.0
 50
0.0
 44
-0.5
 45
-0.5
  9
65
 49
-2.0
 74
     0
  0
LTYPE
  5
926
330
5
100
AcDbSymbolTableRecord
100
AcDbLinetypeTableRecord
  2
DN 080
 70
     0
  3
 DN80  ---- 80 ---- 80 ---- 80 ----
 72
    65
 73
     3
 40
9.0
 49
5.0
 74
     0
 49
-2.0
 74
     2
 75
     0
340
11
 46
1.0
 50
0.0
 44
-0.5
 45
-0.5
  9
80
 49
-2.0
 74
     0
  0
LTYPE
  5
927
330
5
100
AcDbSymbolTableRecord
100
AcDbLinetypeTableRecord
  2
DN 100
 70
     0
  3
 DN100 ---- 100 --- 100 --- 100 ---
 72
    65
 73
     3
 40
9.0
 49
5.0
 74
     0
 49
-2.0
 74
     2
 75
     0
340
11
 46
1.0
 50
0.0
 44
-1.0
 45
-0.5
  9
100
 49
-2.0
 74
     0
  0
LTYPE
  5
928
330
5
100
AcDbSymbolTableRecord
100
AcDbLinetypeTableRecord
  2
DN 125
 70
     0
  3
 DN125 ---- 125 --- 125 --- 125 ---
 72
    65
 73
     3
 40
9.0
 49
5.0
 74
     0
 49
-2.0
 74
     2
 75
     0
340
11
 46
1.0
 50
0.0
 44
-1.0
 45
-0.5
  9
125
 49
-2.0
 74
     0
  0
LTYPE
  5
929
330
5
100
AcDbSymbolTableRecord
100
AcDbLinetypeTableRecord
  2
DN 150
 70
     0
  3
 DN150 ---- 150 --- 150 --- 150 ---
 72
    65
 73
     3
 40
9.0
 49
5.0
 74
     0
 49
-2.0
 74
     2
 75
     0
340
11
 46
1.0
 50
0.0
 44
-1.0
 45
-0.5
  9
150
 49
-2.0
 74
     0
  0
LTYPE
  5
92A
330
5
100
AcDbSymbolTableRecord
100
AcDbLinetypeTableRecord
  2
DN 200
 70
     0
  3
 DN200 ---- 200 --- 200 --- 200 ---
 72
    65
 73
     3
 40
9.0
 49
5.0
 74
     0
 49
-2.0
 74
     2
 75
     0
340
11
 46
1.0
 50
0.0
 44
-1.0
 45
-0.5
  9
200
 49
-2.0
 74
     0
  0
LTYPE
  5
92B
330
5
100
AcDbSymbolTableRecord
100
AcDbLinetypeTableRecord
  2
DN 250
 70
     0
  3
 DN250 ---- 250 --- 250 --- 250 ---
 72
    65
 73
     3
 40
9.0
 49
5.0
 74
     0
 49
-2.0
 74
     2
 75
     0
340
11
 46
1.0
 50
0.0
 44
-1.0
 45
-0.5
  9
250
 49
-2.0
 74
     0
  0
LTYPE
  5
92C
330
5
100
AcDbSymbolTableRecord
100
AcDbLinetypeTableRecord
  2
DN 300
 70
     0
  3
 DN300 ---- 300 --- 300 --- 300 ---
 72
    65
 73
     3
 40
9.0
 49
5.0
 74
     0
 49
-2.0
 74
     2
 75
     0
340
11
 46
1.0
 50
0.0
 44
-1.0
 45
-0.5
  9
300
 49
-2.0
 74
     0
  0
LTYPE
  5
9D8
330
5
100
AcDbSymbolTableRecord
100
AcDbLinetypeTableRecord
  2
ACISOWELD
 70
     0
  3
_ _ _ _ _
 72
    65
 73
     2
 40
2.0
 49
2.0
 74
     0
 49
-1.0
 74
     0
  0
LTYPE
  5
9DB
330
5
100
AcDbSymbolTableRecord
100
AcDbLinetypeTableRecord
  2
ACISOTGB
 70
     0
  3
__ . . __ . .
 72
    65
 73
     6
 40
9.0
 49
4.0
 74
     0
 49
-1.0
 74
     0
 49
1.0
 74
     0
 49
-1.0
 74
     0
 49
1.0
 74
     0
 49
-1.0
 74
     0
  0
LTYPE
  5
9DC
330
5
100
AcDbSymbolTableRecord
100
AcDbLinetypeTableRecord
  2
ACISOTGL
 70
     0
  3
_ _ _ _ _
 72
    65
 73
     2
 40
3.0
 49
2.0
 74
     0
 49
-1.0
 74
     0
  0
ENDTAB
  0
TABLE
  2
LAYER
  5
2
330
0
100
AcDbSymbolTable
 70
    12
  0
LAYER
  5
10
330
2
100
AcDbSymbolTableRecord
100
AcDbLayerTableRecord
  2
0
 70
     0
 62
     7
  6
Continuous
370
    -3
390
F
  0
LAYER
  5
F0
330
2
100
AcDbSymbolTableRecord
100
AcDbLayerTableRecord
  2
AM_5
 70
     0
 62
     3
  6
Continuous
370
    25
390
F
  0
LAYER
  5
2CC
330
2
100
AcDbSymbolTableRecord
100
AcDbLayerTableRecord
  2
AM_0
 70
     0
 62
     7
  6
Continuous
370
    50
390
F
  0
LAYER
  5
2CD
330
2
100
AcDbSymbolTableRecord
100
AcDbLayerTableRecord
  2
AM_7
 70
     0
 62
     4
  6
AM_DIN_G_W050
370
    25
390
F
  0
LAYER
  5
2CE
330
2
100
AcDbSymbolTableRecord
100
AcDbLayerTableRecord
  2
AM_6
 70
     0
 62
     2
  6
Continuous
370
    35
390
F
  0
LAYER
  5
2CF
330
2
100
AcDbSymbolTableRecord
100
AcDbLayerTableRecord
  2
AM_4
 70
     0
 62
     3
  6
Continuous
370
    25
390
F
  0
LAYER
  5
2D0
330
2
100
AcDbSymbolTableRecord
100
AcDbLayerTableRecord
  2
Defpoints
 70
     0
 62
     7
  6
Continuous
290
     0
370
    -3
390
F
  0
LAYER
  5
2D1
330
2
100
AcDbSymbolTableRecord
100
AcDbLayerTableRecord
  2
UMRISS05
 70
     0
 62
     7
  6
Continuous
370
    -3
390
F
  0
LAYER
  5
2D2
330
2
100
AcDbSymbolTableRecord
100
AcDbLayerTableRecord
  2
6
 70
     0
 62
     2
  6
Continuous
370
    -3
390
F
  0
LAYER
  5
2D3
330
2
100
AcDbSymbolTableRecord
100
AcDbLayerTableRecord
  2
OBERTEIL
 70
     0
 62
     7
  6
Continuous
370
    -3
390
F
  0
LAYER
  5
2D4
330
2
100
AcDbSymbolTableRecord
100
AcDbLayerTableRecord
  2
4
 70
     0
 62
     3
  6
Continuous
370
    -3
390
F
  0
LAYER
  5
2D5
330
2
100
AcDbSymbolTableRecord
100
AcDbLayerTableRecord
  2
DN50-0
 70
     0
 62
     7
  6
Continuous
370
    -3
390
F
  0
ENDTAB
  0
TABLE
  2
STYLE
  5
3
330
0
100
AcDbSymbolTable
 70
    17
  0
STYLE
  5
11
330
3
100
AcDbSymbolTableRecord
100
AcDbTextStyleTableRecord
  2
STANDARD
 70
     0
 40
0.0
 41
1.0
 50
0.0
 71
     0
 42
2.5
  3
ISOCP.SHX
  4

  0
STYLE
  5
A7
330
3
100
AcDbSymbolTableRecord
100
AcDbTextStyleTableRecord
  2

 70
     1
 40
0.0
 41
1.0
 50
0.0
 71
     0
 42
2.5
  3
ltypeshp.shx
  4

  0
STYLE
  5
AE
330
3
100
AcDbSymbolTableRecord
100
AcDbTextStyleTableRecord
  2
ACDINTS
 70
     0
 40
1.0
 41
1.0
 50
0.0
 71
     0
 42
2.5
  3
isocp.shx
  4

  0
STYLE
  5
BA
330
3
100
AcDbSymbolTableRecord
100
AcDbTextStyleTableRecord
  2
ACDINGDT
 70
     0
 40
0.0
 41
1.0
 50
0.0
 71
     0
 42
2.5
  3
amgdt.shx
  4

  0
STYLE
  5
23D
330
3
100
AcDbSymbolTableRecord
100
AcDbTextStyleTableRecord
  2
USER1
 70
     0
 40
0.0
 41
1.0
 50
0.0
 71
     0
 42
2.5
  3
TXT.SHX
  4

  0
STYLE
  5
23E
330
3
100
AcDbSymbolTableRecord
100
AcDbTextStyleTableRecord
  2
USER2
 70
     0
 40
0.0
 41
1.0
 50
0.0
 71
     0
 42
2.5
  3
SIMPLEX.SHX
  4

  0
STYLE
  5
23F
330
3
100
AcDbSymbolTableRecord
100
AcDbTextStyleTableRecord
  2
USER3
 70
     0
 40
0.0
 41
1.0
 50
0.0
 71
     0
 42
2.5
  3
ITALIC.SHX
  4

  0
STYLE
  5
92D
330
3
100
AcDbSymbolTableRecord
100
AcDbTextStyleTableRecord
  2
Annotative
 70
     0
 40
0.0
 41
1.0
 50
0.0
 71
     0
 42
2.5
  3
ARIAL.TTF
  4

1001
AcadAnnotative
1000
AnnotativeData
1002
{
1070
     1
1070
     1
1002
}
1001
ACAD
1000
Arial
1071
       34
  0
STYLE
  5
92E
330
3
100
AcDbSymbolTableRecord
100
AcDbTextStyleTableRecord
  2
CP_TXT
 70
     0
 40
0.0
 41
1.0
 50
0.0
 71
     0
 42
2.5
  3
ROMANS.SHX
  4

  0
STYLE
  5
92F
330
3
100
AcDbSymbolTableRecord
100
AcDbTextStyleTableRecord
  2

 70
     1
 40
0.0
 41
1.0
 50
0.0
 71
     0
 42
2.5
  3
LTYPESHP.SHX
  4

  0
STYLE
  5
930
330
3
100
AcDbSymbolTableRecord
100
AcDbTextStyleTableRecord
  2
CP_ATTR
 70
     0
 40
0.0
 41
1.0
 50
0.0
 71
     0
 42
0.2
  3
ROMANS.SHX
  4

  0
STYLE
  5
931
330
3
100
AcDbSymbolTableRecord
100
AcDbTextStyleTableRecord
  2
CP_TXT_IT
 70
     0
 40
0.0
 41
1.0
 50
15.0
 71
     0
 42
2.5
  3
ROMANS.SHX
  4

  0
STYLE
  5
932
330
3
100
AcDbSymbolTableRecord
100
AcDbTextStyleTableRecord
  2
CP_TXTCON
 70
     0
 40
0.0
 41
0.8
 50
0.0
 71
     0
 42
2.5
  3
ROMANS.SHX
  4

  0
STYLE
  5
933
330
3
100
AcDbSymbolTableRecord
100
AcDbTextStyleTableRecord
  2
CP_TXTCON_IT
 70
     0
 40
0.0
 41
0.8
 50
15.0
 71
     0
 42
2.5
  3
ROMANS.SHX
  4

  0
STYLE
  5
9D2
330
3
100
AcDbSymbolTableRecord
100
AcDbTextStyleTableRecord
  2
ACISOTS
 70
     0
 40
1.0
 41
1.0
 50
0.0
 71
     0
 42
2.5
  3
isocp.shx
  4
bigfont.shx
  0
STYLE
  5
9D6
330
3
100
AcDbSymbolTableRecord
100
AcDbTextStyleTableRecord
  2
ACISOGDT
 70
     0
 40
0.0
 41
1.0
 50
0.0
 71
     0
 42
2.5
  3
amgdt.shx
  4
bigfont.shx
  0
ENDTAB
  0
TABLE
  2
VIEW
  5
6
330
0
100
AcDbSymbolTable
 70
     0
  0
ENDTAB
  0
TABLE
  2
UCS
  5
7
330
0
100
AcDbSymbolTable
 70
     0
  0
ENDTAB
  0
TABLE
  2
APPID
  5
9
330
0
100
AcDbSymbolTable
 70
    23
  0
APPID
  5
12
330
9
100
AcDbSymbolTableRecord
100
AcDbRegAppTableRecord
  2
ACAD
 70
     0
  0
APPID
  5
82
330
9
100
AcDbSymbolTableRecord
100
AcDbRegAppTableRecord
  2
MCAD_NO_VIS
 70
     0
  0
APPID
  5
83
330
9
100
AcDbSymbolTableRecord
100
AcDbRegAppTableRecord
  2
ACAD_TEMP_GRAPHIC
 70
     0
  0
APPID
  5
94
330
9
100
AcDbSymbolTableRecord
100
AcDbRegAppTableRecord
  2
ACATTRIBSERVICES
 70
     0
  0
APPID
  5
CF
330
9
100
AcDbSymbolTableRecord
100
AcDbRegAppTableRecord
  2
GENIUS_GENSCREG_15
 70
     0
  0
APPID
  5
D0
330
9
100
AcDbSymbolTableRecord
100
AcDbRegAppTableRecord
  2
GENIUS_GENOBJ-N-SDF_13
 70
     0
  0
APPID
  5
D1
330
9
100
AcDbSymbolTableRecord
100
AcDbRegAppTableRecord
  2
GENIUS_GENODEF_13
 70
     0
  0
APPID
  5
125
330
9
100
AcDbSymbolTableRecord
100
AcDbRegAppTableRecord
  2
AD_DRAW
 70
     0
  0
APPID
  5
143
330
9
100
AcDbSymbolTableRecord
100
AcDbRegAppTableRecord
  2
DESIGNERASSEMBLIES
 70
     0
  0
APPID
  5
148
330
9
100
AcDbSymbolTableRecord
100
AcDbRegAppTableRecord
  2
ACADM_DIM_EDIT
 70
     0
  0
APPID
  5
149
330
9
100
AcDbSymbolTableRecord
100
AcDbRegAppTableRecord
  2
AMDT_DM_ADJ
 70
     0
  0
APPID
  5
2D7
330
9
100
AcDbSymbolTableRecord
100
AcDbRegAppTableRecord
  2
GENIUS_GENDTOL_13
 70
     0
  0
APPID
  5
2D8
330
9
100
AcDbSymbolTableRecord
100
AcDbRegAppTableRecord
  2
GENIUS_GENOBJ-N-FIL_13
 70
     0
  0
APPID
  5
2D9
330
9
100
AcDbSymbolTableRecord
100
AcDbRegAppTableRecord
  2
GENIUS_GENOBJ-N-CEN_13
 70
     0
  0
APPID
  5
2DA
330
9
100
AcDbSymbolTableRecord
100
AcDbRegAppTableRecord
  2
GENIUS_GENREC_14
 70
     0
  0
APPID
  5
2DB
330
9
100
AcDbSymbolTableRecord
100
AcDbRegAppTableRecord
  2
GENIUS_GENOBJ-N-REC_13
 70
     0
  0
APPID
  5
936
330
9
100
AcDbSymbolTableRecord
100
AcDbRegAppTableRecord
  2
ACAD_PSEXT
 70
     0
  0
APPID
  5
937
330
9
100
AcDbSymbolTableRecord
100
AcDbRegAppTableRecord
  2
AcadAnnoPO
 70
     0
  0
APPID
  5
938
330
9
100
AcDbSymbolTableRecord
100
AcDbRegAppTableRecord
  2
AcadAnnotative
 70
     0
  0
APPID
  5
939
330
9
100
AcDbSymbolTableRecord
100
AcDbRegAppTableRecord
  2
ACAD_DSTYLE_DIMJAG
 70
     0
  0
APPID
  5
93A
330
9
100
AcDbSymbolTableRecord
100
AcDbRegAppTableRecord
  2
ACAD_DSTYLE_DIMTALN
 70
     0
  0
APPID
  5
93B
330
9
100
AcDbSymbolTableRecord
100
AcDbRegAppTableRecord
  2
ACAD_MLEADERVER
 70
     0
  0
APPID
  5
93C
330
9
100
AcDbSymbolTableRecord
100
AcDbRegAppTableRecord
  2
DCO15
 70
     0
  0
ENDTAB
  0
TABLE
  2
DIMSTYLE
  5
A
330
0
100
AcDbSymbolTable
 70
    19
100
AcDbDimStyleTable
 71
     2
340
C2
340
27
  0
DIMSTYLE
105
27
330
A
100
AcDbSymbolTableRecord
100
AcDbDimStyleTableRecord
  2
ISO-25
 70
     0
 41
2.5
 42
0.625
 43
3.75
 44
1.25
 73
     0
 74
     0
 77
     1
 78
     8
140
2.5
141
2.5
143
0.03937007874016
147
0.625
171
     3
172
     1
271
     2
272
     2
274
     3
278
    44
283
     0
284
     8
340
11
  0
DIMSTYLE
105
C2
102
{ACAD_REACTORS
330
5EC
330
5ED
330
5EE
102
}
330
A
100
AcDbSymbolTableRecord
100
AcDbDimStyleTableRecord
  2
AM_DIN
 70
     0
  4
"
 41
2.5
 42
1.0
 43
10.0
 44
1.0
 47
0.1
 48
0.1
 73
     0
 74
     0
 77
     1
 78
     8
 79
     2
140
3.5
141
0.0
143
0.0393701
146
0.71
147
1.5
172
     1
176
   256
177
   256
178
     2
271
     2
272
     3
274
     4
283
     0
284
     8
340
11
371
    -1
372
    -1
  0
DIMSTYLE
105
C3
330
A
100
AcDbSymbolTableRecord
100
AcDbDimStyleTableRecord
  2
AM_DIN$3
 70
     0
  4
"
 41
2.5
 42
1.0
 43
10.0
 44
1.0
 47
0.1
 48
0.1
 73
     0
 77
     1
 78
     8
 79
     2
140
3.5
141
0.0
143
0.0393701
146
0.71
147
1.5
176
   256
177
   256
178
     2
271
     2
272
     3
274
     4
283
     0
284
     8
288
     1
289
     0
340
11
371
    -1
372
    -1
  0
DIMSTYLE
105
C4
330
A
100
AcDbSymbolTableRecord
100
AcDbDimStyleTableRecord
  2
AM_DIN$4
 70
     0
  4
"
 41
2.5
 42
1.0
 43
10.0
 44
1.0
 47
0.1
 48
0.1
 73
     0
 77
     1
 78
     8
 79
     2
140
3.5
141
0.0
143
0.0393701
146
0.71
147
1.5
176
   256
177
   256
178
     2
271
     2
272
     3
274
     4
283
     0
284
     8
288
     1
289
     0
340
11
371
    -1
372
    -1
  0
DIMSTYLE
105
C5
330
A
100
AcDbSymbolTableRecord
100
AcDbDimStyleTableRecord
  2
AM_DIN$6
 70
     0
  4
"
 41
2.5
 42
1.0
 43
10.0
 44
1.0
 47
0.1
 48
0.1
 73
     0
 74
     0
 78
     8
 79
     2
140
3.5
141
0.0
143
0.0393701
146
0.71
147
1.5
172
     1
176
   256
177
   256
178
     2
271
     2
272
     3
274
     4
283
     0
284
     8
340
11
371
    -1
372
    -1
  0
DIMSTYLE
105
C6
330
A
100
AcDbSymbolTableRecord
100
AcDbDimStyleTableRecord
  2
AM_DIN$7
 70
     0
  4
"
 41
2.5
 42
1.0
 43
10.0
 44
1.0
 47
0.1
 48
0.1
 73
     0
 74
     0
 77
     1
 78
     8
 79
     2
140
5.0
141
0.0
143
0.0393701
146
0.71
147
1.5
172
     1
176
   256
177
   256
178
     2
271
     2
272
     3
274
     4
283
     0
284
     8
340
11
371
    -1
372
    -1
  0
DIMSTYLE
105
C7
330
A
100
AcDbSymbolTableRecord
100
AcDbDimStyleTableRecord
  2
AM_DIN$SF
 70
     0
  4
"
 41
2.5
 42
1.0
 43
10.0
 44
1.0
 47
0.1
 48
0.1
 73
     0
 74
     0
 75
     1
 76
     1
 77
     1
 78
     8
 79
     2
140
3.5
141
0.0
143
0.0393701
146
0.71
147
1.5
172
     1
176
   256
177
   256
178
     2
271
     2
272
     3
274
     4
283
     0
284
     8
340
11
371
    -1
372
    -1
  0
DIMSTYLE
105
CC
330
A
100
AcDbSymbolTableRecord
100
AcDbDimStyleTableRecord
  2
AM_DIN$SH
 70
     0
  4
"
 41
2.5
 42
1.0
 43
10.0
 44
1.0
 47
0.1
 48
0.1
 73
     0
 74
     0
 75
     1
 76
     1
 77
     1
 78
     8
 79
     2
140
3.5
141
0.0
143
0.0393701
144
2.0
146
0.71
147
1.5
172
     1
173
     1
176
   256
177
   256
178
     2
271
     2
272
     3
274
     4
283
     0
284
     8
340
11
343
C8
371
    -1
372
    -1
  0
DIMSTYLE
105
2D6
102
{ACAD_REACTORS
330
5EF
102
}
330
A
100
AcDbSymbolTableRecord
100
AcDbDimStyleTableRecord
  2
AM_DIN$0
 70
     0
  4
"
 40
1.5
 41
2.5
 42
1.0
 43
10.0
 44
1.0
 47
0.1
 48
0.1
 73
     0
 74
     0
 77
     1
 78
     8
 79
     2
140
3.5
141
0.0
143
0.0393701
146
0.71
147
1.5
172
     1
176
   256
177
   256
178
     2
271
     2
272
     3
283
     0
284
     8
340
11
371
    -1
372
    -1
  0
DIMSTYLE
105
934
330
A
100
AcDbSymbolTableRecord
100
AcDbDimStyleTableRecord
  2
Standard
 70
     0
340
11
  0
DIMSTYLE
105
935
330
A
100
AcDbSymbolTableRecord
100
AcDbDimStyleTableRecord
  2
Opisowy
 70
     0
 40
0.0
 41
2.5
 42
0.625
 43
3.75
 44
1.25
 73
     0
 74
     0
 77
     1
 78
     8
140
2.5
141
2.5
143
0.03937007874016
147
0.625
171
     3
172
     1
271
     2
272
     2
274
     3
278
    44
283
     0
284
     8
340
11
1001
AcadAnnotative
1000
AnnotativeData
1002
{
1070
     1
1070
     1
1002
}
1001
ACAD_DSTYLE_DIMJAG
1070
   388
1040
1.5
1001
ACAD_DSTYLE_DIMTALN
1070
   392
1070
     0
  0
DIMSTYLE
105
9ED
330
A
100
AcDbSymbolTableRecord
100
AcDbDimStyleTableRecord
  2
AM_ISO
 70
     0
  4
"
 41
2.5
 42
1.0
 43
10.0
 44
1.0
 47
0.1
 48
0.1
 73
     0
 74
     0
 77
     1
 78
     8
 79
     2
140
3.5
141
0.0
143
0.0393701
146
0.71
147
1.5
172
     1
176
   256
177
   256
178
     2
271
     2
272
     3
274
     4
283
     0
284
     8
340
11
371
    -1
372
    -1
  0
DIMSTYLE
105
9EE
330
A
100
AcDbSymbolTableRecord
100
AcDbDimStyleTableRecord
  2
AM_ISO$3
 70
     0
  4
"
 41
2.5
 42
1.0
 43
10.0
 44
1.0
 47
0.1
 48
0.1
 73
     0
 77
     1
 78
     8
 79
     2
140
3.5
141
0.0
143
0.0393701
146
0.71
147
1.5
176
   256
177
   256
178
     2
271
     2
272
     3
274
     4
283
     0
284
     8
288
     1
289
     0
340
11
371
    -1
372
    -1
  0
DIMSTYLE
105
9EF
330
A
100
AcDbSymbolTableRecord
100
AcDbDimStyleTableRecord
  2
AM_ISO$4
 70
     0
  4
"
 41
2.5
 42
1.0
 43
10.0
 44
1.0
 47
0.1
 48
0.1
 73
     0
 77
     1
 78
     8
 79
     2
140
3.5
141
0.0
143
0.0393701
146
0.71
147
1.5
176
   256
177
   256
178
     2
271
     2
272
     3
274
     4
283
     0
284
     8
288
     1
289
     0
340
11
371
    -1
372
    -1
  0
DIMSTYLE
105
9F0
330
A
100
AcDbSymbolTableRecord
100
AcDbDimStyleTableRecord
  2
AM_ISO$6
 70
     0
  4
"
 41
2.5
 42
1.0
 43
10.0
 44
1.0
 47
0.1
 48
0.1
 73
     0
 74
     0
 78
     8
 79
     2
140
3.5
141
0.0
143
0.0393701
146
0.71
147
1.5
172
     1
176
   256
177
   256
178
     2
271
     2
272
     3
274
     4
283
     0
284
     8
340
11
371
    -1
372
    -1
  0
DIMSTYLE
105
9F1
330
A
100
AcDbSymbolTableRecord
100
AcDbDimStyleTableRecord
  2
AM_ISO$7
 70
     0
  4
"
 41
2.5
 42
1.0
 43
10.0
 44
1.0
 47
0.1
 48
0.1
 73
     0
 74
     0
 77
     1
 78
     8
 79
     2
140
5.0
141
0.0
143
0.0393701
146
0.71
147
1.5
172
     1
176
   256
177
   256
178
     2
271
     2
272
     3
274
     4
283
     0
284
     8
340
11
371
    -1
372
    -1
  0
DIMSTYLE
105
9F2
330
A
100
AcDbSymbolTableRecord
100
AcDbDimStyleTableRecord
  2
AM_ISO$SF
 70
     0
  4
"
 41
2.5
 42
1.0
 43
10.0
 44
1.0
 47
0.1
 48
0.1
 73
     0
 74
     0
 75
     1
 76
     1
 77
     1
 78
     8
 79
     2
140
3.5
141
0.0
143
0.0393701
146
0.71
147
1.5
172
     1
176
   256
177
   256
178
     2
271
     2
272
     3
274
     4
283
     0
284
     8
340
11
371
    -1
372
    -1
  0
DIMSTYLE
105
9F3
330
A
100
AcDbSymbolTableRecord
100
AcDbDimStyleTableRecord
  2
AM_ISO$SH
 70
     0
  4
"
 41
2.5
 42
1.0
 43
10.0
 44
1.0
 47
0.1
 48
0.1
 73
     0
 74
     0
 75
     1
 76
     1
 77
     1
 78
     8
 79
     2
140
3.5
141
0.0
143
0.0393701
144
2.0
146
0.71
147
1.5
172
     1
173
     1
176
   256
177
   256
178
     2
271
     2
272
     3
274
     4
283
     0
284
     8
340
11
343
C8
371
    -1
372
    -1
  0
ENDTAB
  0
TABLE
  2
BLOCK_RECORD
  5
1
330
0
100
AcDbSymbolTable
 70
     8
  0
BLOCK_RECORD
  5
1F
102
{ACAD_XDICTIONARY
360
D5
102
}
330
1
100
AcDbSymbolTableRecord
100
AcDbBlockTableRecord
  2
*Model_Space
340
22
  0
BLOCK_RECORD
  5
55
330
1
100
AcDbSymbolTableRecord
100
AcDbBlockTableRecord
  2
*Paper_Space
340
56
  0
BLOCK_RECORD
  5
50
330
1
100
AcDbSymbolTableRecord
100
AcDbBlockTableRecord
  2
*Paper_Space0
340
51
  0
BLOCK_RECORD
  5
C8
330
1
100
AcDbSymbolTableRecord
100
AcDbBlockTableRecord
  2
GENAXEH
340
0
  0
BLOCK_RECORD
  5
891
330
1
100
AcDbSymbolTableRecord
100
AcDbBlockTableRecord
  2
*D2
340
0
  0
BLOCK_RECORD
  5
89E
330
1
100
AcDbSymbolTableRecord
100
AcDbBlockTableRecord
  2
*D3
340
0
  0
BLOCK_RECORD
  5
8AA
330
1
100
AcDbSymbolTableRecord
100
AcDbBlockTableRecord
  2
*D4
340
0
  0
BLOCK_RECORD
  5
8B6
330
1
100
AcDbSymbolTableRecord
100
AcDbBlockTableRecord
  2
*D5
340
0
  0
ENDTAB
  0
ENDSEC
  0
SECTION
  2
BLOCKS
  0
BLOCK
  5
20
330
1F
100
AcDbEntity
  8
0
100
AcDbBlockBegin
  2
*Model_Space
 70
     0
 10
0.0
 20
0.0
 30
0.0
  3
*Model_Space
  1

  0
ENDBLK
  5
21
330
1F
100
AcDbEntity
  8
0
100
AcDbBlockEnd
  0
BLOCK
  5
57
330
55
100
AcDbEntity
 67
     1
  8
0
100
AcDbBlockBegin
  2
*Paper_Space
 70
     0
 10
0.0
 20
0.0
 30
0.0
  3
*Paper_Space
  1

  0
ENDBLK
  5
58
330
55
100
AcDbEntity
 67
     1
  8
0
100
AcDbBlockEnd
  0
BLOCK
  5
52
330
50
100
AcDbEntity
 67
     1
  8
0
100
AcDbBlockBegin
  2
*Paper_Space0
 70
     0
 10
0.0
 20
0.0
 30
0.0
  3
*Paper_Space0
  1

  0
VIEWPORT
  5
69
330
50
100
AcDbEntity
 67
     1
  8
0
100
AcDbViewport
 10
128.5
 20
97.5
 30
0.0
 40
384.7606204379562
 41
222.18
 68
     0
 69
     0
 12
128.5
 22
97.5
 13
0.0
 23
0.0
 14
10.0
 24
10.0
 15
10.0
 25
10.0
 16
0.0
 26
0.0
 36
1.0
 17
0.0
 27
0.0
 37
0.0
 42
50.0
 43
0.0
 44
0.0
 45
222.18
 50
0.0
 51
0.0
 72
   100
 90
    32800
  1

281
     0
 71
     1
 74
     0
110
0.0
120
0.0
130
0.0
111
1.0
121
0.0
131
0.0
112
0.0
122
1.0
132
0.0
 79
     0
146
0.0
170
     0
1001
GENIUS_GENOBJ-N-SDF_13
1002
{
1000
OWNER
1000
GEN
1002
}
1001
GENIUS_GENODEF_13
1002
{
1000
HIER
1070
     0
1002
}
1002
{
1000
MANEDIT
1070
     0
1002
}
1002
{
1000
NOSEL
1070
     0
1002
}
1002
{
1000
BEHIND
1070
     0
1002
}
1002
{
1000
OTHER
1070
     0
1002
}
1002
{
1000
REACTOR
1002
}
1001
GENIUS_GENSCREG_15
1000
PF
1040
1.0
1000
DF
1040
1.0
1000
MIN
1011
-63.88031021897808
1021
-13.59
1031
0.0
1000
MAX
1011
320.8803102189782
1021
208.59
1031
0.0
1000
FLAGS
1070
     2
  0
VIEWPORT
  5
6B
330
50
100
AcDbEntity
 67
     1
  8
0
100
AcDbViewport
 10
128.5
 20
97.5
 30
0.0
 40
205.6
 41
156.0
 68
     0
 69
     0
 12
210.0
 22
148.5
 13
0.0
 23
0.0
 14
10.0
 24
10.0
 15
10.0
 25
10.0
 16
0.0
 26
0.0
 36
1.0
 17
0.0
 27
0.0
 37
0.0
 42
50.0
 43
0.0
 44
0.0
 45
322.4558219652112
 50
0.0
 51
0.0
 72
   100
 90
    32864
  1

281
     0
 71
     1
 74
     0
110
0.0
120
0.0
130
0.0
111
1.0
121
0.0
131
0.0
112
0.0
122
1.0
132
0.0
 79
     0
146
0.0
170
     0
1001
GENIUS_GENOBJ-N-SDF_13
1002
{
1000
OWNER
1000
GEN
1002
}
1001
GENIUS_GENODEF_13
1002
{
1000
HIER
1070
     0
1002
}
1002
{
1000
MANEDIT
1070
     0
1002
}
1002
{
1000
NOSEL
1070
     0
1002
}
1002
{
1000
BEHIND
1070
     0
1002
}
1002
{
1000
OTHER
1070
     0
1002
}
1002
{
1000
REACTOR
1002
}
1001
GENIUS_GENSCREG_15
1000
PF
1040
0.0
1000
DF
1040
0.0
1000
MIN
1011
25.70000000000002
1021
19.5
1031
0.0
1000
MAX
1011
231.3
1021
175.5
1031
0.0
1000
FLAGS
1070
     2
  0
ENDBLK
  5
53
330
50
100
AcDbEntity
 67
     1
  8
0
100
AcDbBlockEnd
  0
BLOCK
  5
9CB
330
C8
100
AcDbEntity
  8
0
100
AcDbBlockBegin
  2
GENAXEH
 70
     0
 10
0.0
 20
0.0
 30
0.0
  3
GENAXEH
  1

  0
LINE
  5
9CC
330
C8
100
AcDbEntity
  8
0
100
AcDbLine
 10
-1.0
 20
0.0
 30
0.0
 11
1.0
 21
0.0
 31
0.0
  0
ENDBLK
  5
9CD
330
C8
100
AcDbEntity
  8
0
100
AcDbBlockEnd
  0
BLOCK
  5
89C
330
891
100
AcDbEntity
  8
0
100
AcDbBlockBegin
  2
*D2
 70
     1
 10
0.0
 20
0.0
 30
0.0
  3
*D2
  1

  0
LINE
  5
A23
330
891
100
AcDbEntity
  8
AM_5
100
AcDbLine
 10
726.6886746526231
 20
334.0916760188804
 30
0.0
 11
726.6886746526231
 21
313.1944618766565
 31
0.0
  0
LINE
  5
A24
330
891
100
AcDbEntity
  8
AM_5
100
AcDbLine
 10
751.6028696829983
 20
334.0916760188804
 30
0.0
 11
751.6028696829983
 21
313.1944618766565
 31
0.0
  0
LINE
  5
A25
330
891
100
AcDbEntity
  8
AM_5
100
AcDbLine
 10
729.1886746526231
 20
314.1944618766565
 30
0.0
 11
749.1028696829983
 21
314.1944618766565
 31
0.0
  0
LINE
  5
A26
330
891
100
AcDbEntity
  8
AM_5
100
AcDbLine
 10
751.6028696829983
 20
314.1944618766565
 30
0.0
 11
812.1076143418509
 21
314.1944618766565
 31
0.0
  0
SOLID
  5
A27
330
891
100
AcDbEntity
  8
AM_5
100
AcDbTrace
 10
729.1886746526231
 20
314.6111285433232
 30
0.0
 11
729.1886746526231
 21
313.7777952099898
 31
0.0
 12
726.6886746526231
 22
314.1944618766565
 32
0.0
 13
726.6886746526231
 23
314.1944618766565
 33
0.0
  0
SOLID
  5
A28
330
891
100
AcDbEntity
  8
AM_5
100
AcDbTrace
 10
749.1028696829983
 20
314.6111285433232
 30
0.0
 11
749.1028696829983
 21
313.7777952099898
 31
0.0
 12
751.6028696829983
 22
314.1944618766565
 32
0.0
 13
751.6028696829983
 23
314.1944618766565
 33
0.0
  0
MTEXT
  5
A29
330
891
100
AcDbEntity
  8
AM_5
 62
     2
100
AcDbMText
 10
795.3576143418509
 20
322.6116206693074
 30
0.0
 40
5.0
 41
0.0
 71
     5
 72
     1
  1
EN 10226-1\PR¾
 73
     1
 44
1.0
  0
POINT
  5
A2A
330
891
100
AcDbEntity
  8
Defpoints
 62
     0
100
AcDbPoint
 10
726.6886746526231
 20
335.0916760188804
 30
0.0
  0
POINT
  5
A2B
330
891
100
AcDbEntity
  8
Defpoints
 62
     0
100
AcDbPoint
 10
751.6028696829983
 20
335.0916760188804
 30
0.0
  0
POINT
  5
A2C
330
891
100
AcDbEntity
  8
Defpoints
 62
     0
100
AcDbPoint
 10
751.6028696829983
 20
314.1944618766565
 30
0.0
  0
ENDBLK
  5
89D
330
891
100
AcDbEntity
  8
0
100
AcDbBlockEnd
  0
BLOCK
  5
8A8
330
89E
100
AcDbEntity
  8
0
100
AcDbBlockBegin
  2
*D3
 70
     1
 10
0.0
 20
0.0
 30
0.0
  3
*D3
  1

  0
LINE
  5
8CC
330
89E
100
AcDbEntity
  8
AM_5
100
AcDbLine
 10
724.2317324148086
 20
668.0748257351308
 30
0.0
 11
586.8725106167934
 21
668.0748257351308
 31
0.0
  0
LINE
  5
8CD
330
89E
100
AcDbEntity
  8
AM_5
100
AcDbLine
 10
739.14577216781
 20
355.6185252746843
 30
0.0
 11
586.8725106167934
 21
355.6185252746844
 31
0.0
  0
LINE
  5
8CE
330
89E
100
AcDbEntity
  8
AM_5
100
AcDbLine
 10
588.8725106167933
 20
665.5748257351308
 30
0.0
 11
588.8725106167933
 21
358.1185252746844
 31
0.0
  0
SOLID
  5
8CF
330
89E
100
AcDbEntity
  8
AM_5
100
AcDbTrace
 10
588.4558439501268
 20
665.5748257351308
 30
0.0
 11
589.28917728346
 21
665.5748257351308
 31
0.0
 12
588.8725106167933
 22
668.0748257351308
 32
0.0
 13
588.8725106167933
 23
668.0748257351308
 33
0.0
  0
SOLID
  5
8D0
330
89E
100
AcDbEntity
  8
AM_5
100
AcDbTrace
 10
588.4558439501268
 20
358.1185252746844
 30
0.0
 11
589.28917728346
 21
358.1185252746844
 31
0.0
 12
588.8725106167933
 22
355.6185252746844
 32
0.0
 13
588.8725106167933
 23
355.6185252746844
 33
0.0
  0
MTEXT
  5
8D1
330
89E
100
AcDbEntity
  8
AM_5
 62
     2
100
AcDbMText
 10
584.8720184908089
 20
513.3787504593595
 30
0.0
 40
5.0
 41
0.0
 71
     5
 72
     1
  1
312.5 {}{\C2;%%p3}
 11
0.0000000000000001
 21
1.0
 31
0.0
 73
     1
 44
1.0
  0
POINT
  5
8D2
330
89E
100
AcDbEntity
  8
Defpoints
 62
     0
100
AcDbPoint
 10
724.2317324148086
 20
668.0748257351308
 30
0.0
  0
POINT
  5
8D3
330
89E
100
AcDbEntity
  8
Defpoints
 62
     0
100
AcDbPoint
 10
739.14577216781
 20
355.6185252746843
 30
0.0
  0
POINT
  5
8D4
330
89E
100
AcDbEntity
  8
Defpoints
 62
     0
100
AcDbPoint
 10
588.8725106167933
 20
355.6185252746844
 30
0.0
  0
ENDBLK
  5
8A9
330
89E
100
AcDbEntity
  8
0
100
AcDbBlockEnd
  0
BLOCK
  5
8B4
330
8AA
100
AcDbEntity
  8
0
100
AcDbBlockBegin
  2
*D4
 70
     1
 10
0.0
 20
0.0
 30
0.0
  3
*D4
  1

  0
LINE
  5
8D5
330
8AA
100
AcDbEntity
  8
AM_5
100
AcDbLine
 10
727.9480667871219
 20
333.8152211223943
 30
0.0
 11
573.0500909260093
 21
333.8152211223944
 31
0.0
  0
LINE
  5
8D6
330
8AA
100
AcDbEntity
  8
AM_5
100
AcDbLine
 10
739.1457721678103
 20
678.9532611758357
 30
0.0
 11
573.0500909260093
 21
678.9532611758357
 31
0.0
  0
LINE
  5
8D7
330
8AA
100
AcDbEntity
  8
AM_5
100
AcDbLine
 10
575.0500909260091
 20
336.3152211223944
 30
0.0
 11
575.0500909260091
 21
676.4532611758355
 31
0.0
  0
SOLID
  5
8D8
330
8AA
100
AcDbEntity
  8
AM_5
100
AcDbTrace
 10
574.6334242593426
 20
336.3152211223944
 30
0.0
 11
575.4667575926759
 21
336.3152211223944
 31
0.0
 12
575.0500909260091
 22
333.8152211223944
 32
0.0
 13
575.0500909260091
 23
333.8152211223944
 33
0.0
  0
SOLID
  5
8D9
330
8AA
100
AcDbEntity
  8
AM_5
100
AcDbTrace
 10
574.6334242593426
 20
676.4532611758355
 30
0.0
 11
575.4667575926759
 21
676.4532611758355
 31
0.0
 12
575.0500909260091
 22
678.9532611758357
 32
0.0
 13
575.0500909260091
 23
678.9532611758357
 33
0.0
  0
MTEXT
  5
8DA
330
8AA
100
AcDbEntity
  8
AM_5
 62
     2
100
AcDbMText
 10
571.0500909260091
 20
505.5851268334604
 30
0.0
 40
5.0
 41
0.0
 71
     5
 72
     1
  1
345{}{\C2;%%p5}
 11
0.0000000000000001
 21
1.0
 31
0.0
 73
     1
 44
1.0
  0
POINT
  5
8DB
330
8AA
100
AcDbEntity
  8
Defpoints
 62
     0
100
AcDbPoint
 10
727.9480667871219
 20
333.8152211223943
 30
0.0
  0
POINT
  5
8DC
330
8AA
100
AcDbEntity
  8
Defpoints
 62
     0
100
AcDbPoint
 10
739.1457721678103
 20
678.9532611758357
 30
0.0
  0
POINT
  5
8DD
330
8AA
100
AcDbEntity
  8
Defpoints
 62
     0
100
AcDbPoint
 10
575.0500909260091
 20
678.9532611758357
 30
0.0
  0
ENDBLK
  5
8B5
330
8AA
100
AcDbEntity
  8
0
100
AcDbBlockEnd
  0
BLOCK
  5
8C0
330
8B6
100
AcDbEntity
  8
0
100
AcDbBlockBegin
  2
*D5
 70
     1
 10
0.0
 20
0.0
 30
0.0
  3
*D5
  1

  0
LINE
  5
8DE
330
8B6
100
AcDbEntity
  8
AM_5
100
AcDbLine
 10
599.1457721698987
 20
586.8924163393447
 30
0.0
 11
599.1457721698987
 21
549.9974039229482
 31
0.0
  0
LINE
  5
8DF
330
8B6
100
AcDbEntity
  8
AM_5
100
AcDbLine
 10
879.1457721657222
 20
586.8924163393447
 30
0.0
 11
879.1457721657222
 21
549.9974039229482
 31
0.0
  0
LINE
  5
8E0
330
8B6
100
AcDbEntity
  8
AM_5
100
AcDbLine
 10
601.6457721698985
 20
550.9974039229482
 30
0.0
 11
876.6457721657223
 21
550.9974039229482
 31
0.0
  0
SOLID
  5
8E1
330
8B6
100
AcDbEntity
  8
AM_5
100
AcDbTrace
 10
601.6457721698985
 20
551.4140705896148
 30
0.0
 11
601.6457721698985
 21
550.5807372562816
 31
0.0
 12
599.1457721698987
 22
550.9974039229482
 32
0.0
 13
599.1457721698987
 23
550.9974039229482
 33
0.0
  0
SOLID
  5
8E2
330
8B6
100
AcDbEntity
  8
AM_5
100
AcDbTrace
 10
876.6457721657223
 20
551.4140705896148
 30
0.0
 11
876.6457721657223
 21
550.5807372562816
 31
0.0
 12
879.1457721657222
 22
550.9974039229482
 32
0.0
 13
879.1457721657222
 23
550.9974039229482
 33
0.0
  0
MTEXT
  5
8E3
330
8B6
100
AcDbEntity
  8
AM_5
 62
     2
100
AcDbMText
 10
668.6184005302052
 20
554.1978960489325
 30
0.0
 40
5.0
 41
0.0
 71
     5
 72
     1
  1
ø280
 73
     1
 44
1.0
  0
POINT
  5
8E4
330
8B6
100
AcDbEntity
  8
Defpoints
 62
     0
100
AcDbPoint
 10
599.1457721698987
 20
586.8924163393447
 30
0.0
  0
POINT
  5
8E5
330
8B6
100
AcDbEntity
  8
Defpoints
 62
     0
100
AcDbPoint
 10
879.1457721657222
 20
586.8924163393447
 30
0.0
  0
POINT
  5
8E6
330
8B6
100
AcDbEntity
  8
Defpoints
 62
     0
100
AcDbPoint
 10
879.1457721657222
 20
550.9974039229482
 30
0.0
  0
ENDBLK
  5
8C1
330
8B6
100
AcDbEntity
  8
0
100
AcDbBlockEnd
  0
ENDSEC
  0
SECTION
  2
ENTITIES
  0
ARC
  5
5BD
330
1F
100
AcDbEntity
  8
AM_0
100
AcDbCircle
 10
739.1457721678103
 20
462.6185252746843
 30
0.0
 40
206.0
100
AcDbArc
 50
94.16517727894682
 51
124.0557977416203
  0
ARC
  5
5BE
330
1F
100
AcDbEntity
  8
AM_0
100
AcDbCircle
 10
739.1978235432818
 20
462.7225195557485
 30
0.0
 40
205.8846932913526
100
AcDbArc
 50
55.93999655860537
 51
85.87871169590941
  0
LINE
  5
5BF
330
1F
100
AcDbEntity
  8
AM_7
100
AcDbLine
 10
739.1457721678103
 20
689.5162127535526
 30
0.0
 11
739.14577216781
 21
322.9816837117767
 31
0.0
1001
GENIUS_GENOBJ-N-CEN_13
1002
{
1000
OWNER
1000
GEN
1002
}
1001
GENIUS_GENODEF_13
1002
{
1000
HIER
1070
     0
1002
}
1002
{
1000
MANEDIT
1070
     0
1002
}
1002
{
1000
NOSEL
1070
     0
1002
}
1002
{
1000
BEHIND
1070
     0
1002
}
1002
{
1000
OTHER
1070
     0
1002
}
1002
{
1000
REACTOR
1002
}
  0
ARC
  5
5C0
330
1F
100
AcDbEntity
  8
AM_0
100
AcDbCircle
 10
739.1457721678103
 20
561.6185252746843
 30
0.0
 40
206.0
100
AcDbArc
 50
235.9442022583796
 51
267.4959893095242
  0
LINE
  5
5C1
330
1F
100
AcDbEntity
  8
AM_0
100
AcDbLine
 10
599.1457721698978
 20
515.6185252746833
 30
0.0
 11
599.1457721698978
 21
496.2086952184325
 31
0.0
  0
ARC
  5
5C2
330
1F
100
AcDbEntity
  8
AM_0
100
AcDbCircle
 10
655.1457721698977
 20
437.3446342100257
 30
0.0
 40
56.0
100
AcDbArc
 50
180.0
 51
235.9442022583796
1001
GENIUS_GENODEF_13
1002
{
1000
HIER
1070
     0
1002
}
1002
{
1000
MANEDIT
1070
     0
1002
}
1002
{
1000
NOSEL
1070
     0
1002
}
1002
{
1000
BEHIND
1070
     0
1002
}
1002
{
1000
OTHER
1070
     0
1002
}
1002
{
1000
REACTOR
1002
}
1001
GENIUS_GENOBJ-N-FIL_13
1002
{
1000
OWNER
1000
GEN
1002
}
  0
ARC
  5
5C3
330
1F
100
AcDbEntity
  8
AM_0
100
AcDbCircle
 10
596.6457721698986
 20
485.0283553309344
 30
0.0
 40
2.5
100
AcDbArc
 50
0.0
 51
48.18968510422956
1001
GENIUS_GENODEF_13
1002
{
1000
HIER
1070
     0
1002
}
1002
{
1000
MANEDIT
1070
     0
1002
}
1002
{
1000
NOSEL
1070
     0
1002
}
1002
{
1000
BEHIND
1070
     0
1002
}
1002
{
1000
OTHER
1070
     0
1002
}
1002
{
1000
REACTOR
1002
}
1001
GENIUS_GENOBJ-N-FIL_13
1002
{
1000
OWNER
1000
GEN
1002
}
  0
ARC
  5
5C4
330
1F
100
AcDbEntity
  8
AM_0
100
AcDbCircle
 10
596.6457721698969
 20
496.2086952184334
 30
0.0
 40
2.5
100
AcDbArc
 50
311.810314895798
 51
0.0
1001
GENIUS_GENOBJ-N-FIL_13
1002
{
1000
OWNER
1000
GEN
1002
}
1001
GENIUS_GENODEF_13
1002
{
1000
HIER
1070
     0
1002
}
1002
{
1000
MANEDIT
1070
     0
1002
}
1002
{
1000
NOSEL
1070
     0
1002
}
1002
{
1000
BEHIND
1070
     0
1002
}
1002
{
1000
OTHER
1070
     0
1002
}
1002
{
1000
REACTOR
1002
}
  0
ARC
  5
5C5
330
1F
100
AcDbEntity
  8
AM_0
100
AcDbCircle
 10
601.6457721698968
 20
490.6185252746843
 30
0.0
 40
5.0
100
AcDbArc
 50
131.8103148957704
 51
228.1896851042296
  0
LINE
  5
5C6
330
1F
100
AcDbEntity
  8
AM_0
100
AcDbLine
 10
599.1457721698978
 20
485.0283553309325
 30
0.0
 11
599.1457721698978
 21
437.3446342100266
 31
0.0
  0
ARC
  5
5C7
330
1F
100
AcDbEntity
  8
AM_0
100
AcDbCircle
 10
655.1457721698985
 20
586.8924163393437
 30
0.0
 40
56.0
100
AcDbArc
 50
124.0557977416203
 51
180.0
1001
GENIUS_GENODEF_13
1002
{
1000
HIER
1070
     0
1002
}
1002
{
1000
MANEDIT
1070
     0
1002
}
1002
{
1000
NOSEL
1070
     0
1002
}
1002
{
1000
BEHIND
1070
     0
1002
}
1002
{
1000
OTHER
1070
     0
1002
}
1002
{
1000
REACTOR
1002
}
1001
GENIUS_GENOBJ-N-FIL_13
1002
{
1000
OWNER
1000
GEN
1002
}
  0
LINE
  5
5C8
330
1F
100
AcDbEntity
  8
AM_0
100
AcDbLine
 10
599.1457721698987
 20
586.8924163393447
 30
0.0
 11
599.1457721698987
 21
518.1864744671116
 31
0.0
  0
LINE
  5
5C9
330
1F
100
AcDbEntity
  8
AM_0
100
AcDbLine
 10
599.1457721698978
 20
515.6185252746833
 30
0.0
 11
600.1457721698978
 21
515.6185252746833
 31
0.0
  0
ARC
  5
5CA
330
1F
100
AcDbEntity
  8
AM_0
100
AcDbCircle
 10
601.1457721698969
 20
518.1864744671116
 30
0.0
 40
2.0
100
AcDbArc
 50
180.0
 51
209.9999999999961
1001
GENIUS_GENOBJ-N-FIL_13
1002
{
1000
OWNER
1000
GEN
1002
}
1001
GENIUS_GENODEF_13
1002
{
1000
HIER
1070
     0
1002
}
1002
{
1000
MANEDIT
1070
     0
1002
}
1002
{
1000
NOSEL
1070
     0
1002
}
1002
{
1000
BEHIND
1070
     0
1002
}
1002
{
1000
OTHER
1070
     0
1002
}
1002
{
1000
REACTOR
1002
}
  0
LINE
  5
5CB
330
1F
100
AcDbEntity
  8
AM_0
100
AcDbLine
 10
600.0117975736826
 20
516.1505760822508
 30
0.0
 11
599.4137213623287
 21
517.1864744671109
 31
0.0
  0
ARC
  5
5CC
330
1F
100
AcDbEntity
  8
AM_0
100
AcDbCircle
 10
599.1457721698967
 20
515.6505760822517
 30
0.0
 40
1.0
100
AcDbArc
 50
0.0
 51
29.99999999999609
1001
GENIUS_GENOBJ-N-FIL_13
1002
{
1000
OWNER
1000
GEN
1002
}
1001
GENIUS_GENODEF_13
1002
{
1000
HIER
1070
     0
1002
}
1002
{
1000
MANEDIT
1070
     0
1002
}
1002
{
1000
NOSEL
1070
     0
1002
}
1002
{
1000
BEHIND
1070
     0
1002
}
1002
{
1000
OTHER
1070
     0
1002
}
1002
{
1000
REACTOR
1002
}
  0
LINE
  5
5CD
330
1F
100
AcDbEntity
  8
AM_6
100
AcDbLine
 10
739.1457721678101
 20
486.2883982557612
 30
0.0
 11
877.1457721657222
 21
486.2883982557612
 31
0.0
  0
LINE
  5
5CE
330
1F
100
AcDbEntity
  8
AM_6
100
AcDbLine
 10
739.1457721678101
 20
494.9486522936054
 30
0.0
 11
877.1457721657222
 21
494.9486522936056
 31
0.0
  0
LINE
  5
5CF
330
1F
100
AcDbEntity
  8
AM_0
100
AcDbLine
 10
739.1457721678101
 20
515.6185252746836
 30
0.0
 11
879.1457721657222
 21
515.6185252746833
 31
0.0
  0
ARC
  5
5D0
330
1F
100
AcDbEntity
  8
AM_0
100
AcDbCircle
 10
739.1457721678103
 20
561.6185252746843
 30
0.0
 40
206.0
100
AcDbArc
 50
272.5040106904759
 51
304.0557977416203
  0
LINE
  5
5D1
330
1F
100
AcDbEntity
  8
AM_0
100
AcDbLine
 10
879.1457721657222
 20
515.6185252746833
 30
0.0
 11
879.1457721657222
 21
496.2086952184325
 31
0.0
  0
ARC
  5
5D2
330
1F
100
AcDbEntity
  8
AM_0
100
AcDbCircle
 10
823.1457721657223
 20
437.3446342100248
 30
0.0
 40
56.0
100
AcDbArc
 50
304.0557977416203
 51
0.0
1001
GENIUS_GENODEF_13
1002
{
1000
HIER
1070
     0
1002
}
1002
{
1000
MANEDIT
1070
     0
1002
}
1002
{
1000
NOSEL
1070
     0
1002
}
1002
{
1000
BEHIND
1070
     0
1002
}
1002
{
1000
OTHER
1070
     0
1002
}
1002
{
1000
REACTOR
1002
}
1001
GENIUS_GENOBJ-N-FIL_13
1002
{
1000
OWNER
1000
GEN
1002
}
  0
ARC
  5
5D3
330
1F
100
AcDbEntity
  8
AM_0
100
AcDbCircle
 10
881.6457721657222
 20
485.0283553309344
 30
0.0
 40
2.5
100
AcDbArc
 50
131.8103148957704
 51
180.0
1001
GENIUS_GENODEF_13
1002
{
1000
HIER
1070
     0
1002
}
1002
{
1000
MANEDIT
1070
     0
1002
}
1002
{
1000
NOSEL
1070
     0
1002
}
1002
{
1000
BEHIND
1070
     0
1002
}
1002
{
1000
OTHER
1070
     0
1002
}
1002
{
1000
REACTOR
1002
}
1001
GENIUS_GENOBJ-N-FIL_13
1002
{
1000
OWNER
1000
GEN
1002
}
  0
ARC
  5
5D4
330
1F
100
AcDbEntity
  8
AM_0
100
AcDbCircle
 10
881.6457721657222
 20
496.2086952184334
 30
0.0
 40
2.5
100
AcDbArc
 50
180.0
 51
228.189685104202
1001
GENIUS_GENOBJ-N-FIL_13
1002
{
1000
OWNER
1000
GEN
1002
}
1001
GENIUS_GENODEF_13
1002
{
1000
HIER
1070
     0
1002
}
1002
{
1000
MANEDIT
1070
     0
1002
}
1002
{
1000
NOSEL
1070
     0
1002
}
1002
{
1000
BEHIND
1070
     0
1002
}
1002
{
1000
OTHER
1070
     0
1002
}
1002
{
1000
REACTOR
1002
}
  0
ARC
  5
5D5
330
1F
100
AcDbEntity
  8
AM_0
100
AcDbCircle
 10
876.6457721657223
 20
490.6185252746843
 30
0.0
 40
5.0
100
AcDbArc
 50
311.8103148957704
 51
48.18968510422956
  0
LINE
  5
5D6
330
1F
100
AcDbEntity
  8
AM_0
100
AcDbLine
 10
879.1457721657222
 20
485.0283553309325
 30
0.0
 11
879.1457721657222
 21
437.3446342100248
 31
0.0
  0
ARC
  5
5D7
330
1F
100
AcDbEntity
  8
AM_0
100
AcDbCircle
 10
823.1457721657223
 20
586.8924163393437
 30
0.0
 40
56.0
100
AcDbArc
 50
0.0
 51
55.94420225837964
1001
GENIUS_GENODEF_13
1002
{
1000
HIER
1070
     0
1002
}
1002
{
1000
MANEDIT
1070
     0
1002
}
1002
{
1000
NOSEL
1070
     0
1002
}
1002
{
1000
BEHIND
1070
     0
1002
}
1002
{
1000
OTHER
1070
     0
1002
}
1002
{
1000
REACTOR
1002
}
1001
GENIUS_GENOBJ-N-FIL_13
1002
{
1000
OWNER
1000
GEN
1002
}
  0
LINE
  5
5D8
330
1F
100
AcDbEntity
  8
AM_0
100
AcDbLine
 10
879.1457721657222
 20
586.8924163393447
 30
0.0
 11
879.1457721657222
 21
518.1864744671116
 31
0.0
  0
LINE
  5
5D9
330
1F
100
AcDbEntity
  8
AM_0
100
AcDbLine
 10
878.2797467619381
 20
516.1505760822508
 30
0.0
 11
878.8778229732923
 21
517.1864744671109
 31
0.0
  0
ARC
  5
5DA
330
1F
100
AcDbEntity
  8
AM_0
100
AcDbCircle
 10
879.1457721657222
 20
515.6505760822517
 30
0.0
 40
1.0
100
AcDbArc
 50
150.0000000000039
 51
180.0
1001
GENIUS_GENOBJ-N-FIL_13
1002
{
1000
OWNER
1000
GEN
1002
}
1001
GENIUS_GENODEF_13
1002
{
1000
HIER
1070
     0
1002
}
1002
{
1000
MANEDIT
1070
     0
1002
}
1002
{
1000
NOSEL
1070
     0
1002
}
1002
{
1000
BEHIND
1070
     0
1002
}
1002
{
1000
OTHER
1070
     0
1002
}
1002
{
1000
REACTOR
1002
}
  0
ARC
  5
5DB
330
1F
100
AcDbEntity
  8
AM_0
100
AcDbCircle
 10
877.1457721657222
 20
518.1864744671116
 30
0.0
 40
2.0
100
AcDbArc
 50
330.0000000000039
 51
0.0
1001
GENIUS_GENOBJ-N-FIL_13
1002
{
1000
OWNER
1000
GEN
1002
}
1001
GENIUS_GENODEF_13
1002
{
1000
HIER
1070
     0
1002
}
1002
{
1000
MANEDIT
1070
     0
1002
}
1002
{
1000
NOSEL
1070
     0
1002
}
1002
{
1000
BEHIND
1070
     0
1002
}
1002
{
1000
OTHER
1070
     0
1002
}
1002
{
1000
REACTOR
1002
}
  0
LINE
  5
5DC
330
1F
100
AcDbEntity
  8
AM_0
100
AcDbLine
 10
878.1457721657222
 20
515.6505760822517
 30
0.0
 11
878.1457721657222
 21
515.6185252746833
 31
0.0
  0
LINE
  5
5DD
330
1F
100
AcDbEntity
  8
AM_4
100
AcDbLine
 10
878.0282154143067
 20
517.6505760822451
 30
0.0
 11
739.1457721678101
 21
517.6505760822452
 31
0.0
  0
LINE
  5
5DE
330
1F
100
AcDbEntity
  8
AM_0
100
AcDbLine
 10
750.3434775484995
 20
333.8152211223944
 30
0.0
 11
727.9480667871219
 21
333.8152211223944
 31
0.0
  0
LINE
  5
5DF
330
1F
100
AcDbEntity
  8
AM_0
100
AcDbLine
 10
753.0496259471499
 20
355.8152211223943
 30
0.0
 11
725.2419183884715
 21
355.8152211223943
 31
0.0
  0
LINE
  5
5E0
330
1F
100
AcDbEntity
  8
AM_0
100
AcDbLine
 10
729.5957721678107
 20
355.8152211223943
 30
0.0
 11
729.5957721678107
 21
333.8152211223944
 31
0.0
  0
LINE
  5
5E1
330
1F
100
AcDbEntity
  8
AM_0
100
AcDbLine
 10
726.6886746526231
 20
335.0916760188804
 30
0.0
 11
725.2419183884715
 21
350.6866775149994
 31
0.0
  0
LINE
  5
5E2
330
1F
100
AcDbEntity
  8
AM_4
100
AcDbLine
 10
726.6986990023236
 20
347.4067576883792
 30
0.0
 11
727.9480667871219
 21
333.8152211223944
 31
0.0
  0
LINE
  5
5E3
330
1F
100
AcDbEntity
  8
AM_0
100
AcDbLine
 10
727.9480667871219
 20
333.8152211223944
 30
0.0
 11
726.6886746526231
 21
335.0916760188804
 31
0.0
  0
LINE
  5
5E4
330
1F
100
AcDbEntity
  8
AM_0
100
AcDbLine
 10
725.2419183884715
 20
350.6866775149994
 30
0.0
 11
725.2419183884715
 21
355.8152211223943
 31
0.0
  0
LINE
  5
5E5
330
1F
100
AcDbEntity
  8
AM_4
100
AcDbLine
 10
726.6986990023236
 20
347.4067576883792
 30
0.0
 11
725.3265947168025
 21
349.7739270402091
 31
0.0
  0
LINE
  5
5E6
330
1F
100
AcDbEntity
  8
AM_4
100
AcDbLine
 10
751.5928453332977
 20
347.4067576883792
 30
0.0
 11
750.3434775484995
 21
333.8152211223944
 31
0.0
  0
LINE
  5
5E7
330
1F
100
AcDbEntity
  8
AM_0
100
AcDbLine
 10
751.6028696829983
 20
335.0916760188804
 30
0.0
 11
753.0496259471499
 21
350.6866775149994
 31
0.0
  0
LWPOLYLINE
  5
5E8
330
1F
100
AcDbEntity
  8
AM_0
100
AcDbPolyline
 90
        2
 70
     0
 43
0.0
 10
748.6957721678106
 20
355.8152211223943
 10
748.6957721678106
 20
333.8152211223944
  0
LINE
  5
5E9
330
1F
100
AcDbEntity
  8
AM_0
100
AcDbLine
 10
750.3434775484995
 20
333.8152211223944
 30
0.0
 11
751.6028696829983
 21
335.0916760188804
 31
0.0
  0
LINE
  5
5EA
330
1F
100
AcDbEntity
  8
AM_0
100
AcDbLine
 10
753.0496259471499
 20
350.6866775149994
 30
0.0
 11
753.0496259471499
 21
355.8152211223943
 31
0.0
  0
LINE
  5
5EB
330
1F
100
AcDbEntity
  8
AM_4
100
AcDbLine
 10
751.5928453332977
 20
347.4067576883792
 30
0.0
 11
752.9649496188186
 21
349.7739270402091
 31
0.0
  0
DIMENSION
  5
5EC
330
1F
100
AcDbEntity
  8
AM_5
100
AcDbDimension
  2
*D2
 10
751.6028696829983
 20
314.1944618766565
 30
0.0
 11
795.3576143418509
 21
314.1944618766565
 31
0.0
 70
   160
  1
EN 10226-1\PR¾
 71
     5
 42
24.91419503037514
  3
AM_DIN
100
AcDbAlignedDimension
 13
726.6886746526231
 23
335.0916760188804
 33
0.0
 14
751.6028696829983
 24
335.0916760188804
 34
0.0
100
AcDbRotatedDimension
1001
ACAD
1000
DSTYLE
1002
{
1070
   140
1040
5.0
1002
}
  0
DIMENSION
  5
5ED
330
1F
100
AcDbEntity
  8
AM_5
100
AcDbDimension
  2
*D3
 10
588.8725106167933
 20
355.6185252746844
 30
0.0
 11
588.8725106167933
 21
513.3787504593595
 31
0.0
 70
   160
  1
<> {}{\C2;%%p3}
 71
     5
 42
312.4563004604465
  3
AM_DIN
100
AcDbAlignedDimension
 13
724.2317324148086
 23
668.0748257351308
 33
0.0
 14
739.14577216781
 24
355.6185252746844
 34
0.0
 50
90.0
100
AcDbRotatedDimension
1001
ACAD
1000
DSTYLE
1002
{
1070
   286
1070
     0
1070
   284
1070
     8
1070
   274
1070
     2
1070
   272
1070
     2
1070
    47
1040
3.0
1070
    48
1040
3.0
1070
   140
1040
5.0
1070
   271
1070
     1
1002
}
1001
GENIUS_GENDTOL_13
1000
TolPm
1000

1000
{$3%%p$P}
1040
312.5
  0
DIMENSION
  5
5EE
330
1F
100
AcDbEntity
  8
AM_5
100
AcDbDimension
  2
*D4
 10
575.0500909260091
 20
678.9532611758357
 30
0.0
 11
575.0500909260091
 21
505.5851268334604
 31
0.0
 70
   160
  1
345{}{\C2;%%p5}
 71
     5
 42
345.1380400534413
  3
AM_DIN
100
AcDbAlignedDimension
 13
727.9480667871219
 23
333.8152211223944
 33
0.0
 14
739.1457721678103
 24
678.9532611758357
 34
0.0
 50
90.0
100
AcDbRotatedDimension
1001
GENIUS_GENDTOL_13
1000
TolPm
1000

1000
{$3%%p$P}
1040
345.0
1001
ACAD
1000
DSTYLE
1002
{
1070
   140
1040
5.0
1070
    47
1040
5.0
1070
    48
1040
5.0
1070
   271
1070
     0
1002
}
  0
DIMENSION
  5
5EF
330
1F
100
AcDbEntity
  8
AM_5
100
AcDbDimension
  2
*D5
 10
879.1457721657222
 20
550.9974039229482
 30
0.0
 11
668.6184005302052
 21
550.9974039229482
 31
0.0
 70
   160
  1
ø280
 71
     5
 42
279.9999999958236
  3
AM_DIN$0
100
AcDbAlignedDimension
 13
599.1457721698987
 23
586.8924163393447
 33
0.0
 14
879.1457721657222
 24
586.8924163393447
 34
0.0
100
AcDbRotatedDimension
1001
ACAD
1000
DSTYLE
1002
{
1070
   140
1040
5.0
1070
    40
1040
1.0
1070
    42
1040
0.0
1070
   147
1040
0.7
1070
   271
1070
     1
1070
   272
1070
     2
1002
}
  0
LINE
  5
5F0
330
1F
100
AcDbEntity
  8
UMRISS05
100
AcDbLine
 10
734.247169444661
 20
677.4298495611771
 30
0.0
 11
744.1057185910292
 21
677.4298495611771
 31
0.0
  0
LINE
  5
5F1
330
1F
100
AcDbEntity
  8
UMRISS05
100
AcDbLine
 10
734.247169444661
 20
668.6010383225196
 30
0.0
 11
734.247169444661
 21
677.4298495611771
 31
0.0
  0
LINE
  5
5F2
330
1F
100
AcDbEntity
  8
OBERTEIL
100
AcDbLine
 10
724.2317324148086
 20
668.0748257351308
 30
0.0
 11
735.2630426027842
 21
668.0748257351308
 31
0.0
  0
LINE
  5
5F3
330
1F
100
AcDbEntity
  8
UMRISS05
100
AcDbLine
 10
734.247169444661
 20
668.6010383225196
 30
0.0
 11
735.2630426027842
 21
668.6010383225191
 31
0.0
  0
ARC
  5
5F4
330
1F
100
AcDbEntity
  8
UMRISS05
100
AcDbCircle
 10
739.0992096874522
 20
677.414687633018
 30
0.0
 40
1.539277951260048
100
AcDbArc
 50
0.5643740561916709
 51
179.4356259438083
  0
LINE
  5
5F5
330
1F
100
AcDbEntity
  8
UMRISS05
100
AcDbLine
 10
744.1057185910292
 20
677.4298495611771
 30
0.0
 11
744.1057185910292
 21
668.6010383225191
 31
0.0
  0
LINE
  5
5F6
330
1F
100
AcDbEntity
  8
OBERTEIL
100
AcDbLine
 10
742.9630426268466
 20
668.0748257351308
 30
0.0
 11
753.9943528148229
 21
668.0748257351308
 31
0.0
  0
LINE
  5
5F7
330
1F
100
AcDbEntity
  8
UMRISS05
100
AcDbLine
 10
742.9630426268466
 20
668.6010383225191
 30
0.0
 11
744.1057185910292
 21
668.6010383225191
 31
0.0
  0
LINE
  5
5F8
330
1F
100
AcDbEntity
  8
0
100
AcDbLine
 10
725.2419183884715
 20
350.6866775149994
 30
0.0
 11
753.0496259471499
 21
350.6866775149994
 31
0.0
  0
LINE
  5
5F9
330
1F
100
AcDbEntity
  8
0
100
AcDbLine
 10
726.6886746526231
 20
335.0916760188804
 30
0.0
 11
751.6028696829983
 21
335.0916760188804
 31
0.0
  0
LINE
  5
5FA
330
1F
100
AcDbEntity
  8
AM_6
100
AcDbLine
 10
739.1457721677985
 20
486.2883982557612
 30
0.0
 11
601.1457721698866
 21
486.2883982557501
 31
0.0
  0
LINE
  5
5FB
330
1F
100
AcDbEntity
  8
AM_6
100
AcDbLine
 10
739.145772167798
 20
494.9486522936054
 30
0.0
 11
601.1457721698858
 21
494.9486522935944
 31
0.0
  0
LINE
  5
5FC
330
1F
100
AcDbEntity
  8
AM_0
100
AcDbLine
 10
739.1457721677961
 20
515.6185252746836
 30
0.0
 11
599.1457721698842
 21
515.6185252746722
 31
0.0
  0
LINE
  5
5FD
330
1F
100
AcDbEntity
  8
AM_4
100
AcDbLine
 10
600.2633289212996
 20
517.6505760822339
 30
0.0
 11
739.145772167796
 21
517.6505760822452
 31
0.0
  0
LINE
  5
5FE
330
1F
100
AcDbEntity
  8
0
100
AcDbLine
 10
742.9630426268466
 20
668.6010383225191
 30
0.0
 11
742.9630426268466
 21
668.0748257351308
 31
0.0
  0
LINE
  5
5FF
330
1F
100
AcDbEntity
  8
0
100
AcDbLine
 10
735.2630426027842
 20
668.0748257351308
 30
0.0
 11
735.2630426027842
 21
668.6010383225191
 31
0.0
  0
LINE
  5
600
330
1F
100
AcDbEntity
  8
0
100
AcDbLine
 10
742.9630426268466
 20
668.0748257351308
 30
0.0
 11
735.2630426027842
 21
668.0748257351308
 31
0.0
  0
LINE
  5
601
330
1F
100
AcDbEntity
  8
0
100
AcDbLine
 10
735.2630426027842
 20
668.6010383225191
 30
0.0
 11
742.9630426268466
 21
668.6010383225191
 31
0.0
  0
LWPOLYLINE
  5
602
330
1F
100
AcDbEntity
  8
0
100
AcDbPolyline
 90
        4
 70
     1
 43
0.0
 10
492.0696383764286
 20
303.4201191910605
 10
1073.709855576427
 20
303.4201191910605
 10
1073.709855576427
 20
728.9033691910604
 10
492.0696383764286
 20
728.9033691910604
1001
GENIUS_GENREC_14
1002
{
1000
PYDIR
1011
492.0696383764286
1021
728.9033691910604
1031
0.0
1002
}
1002
{
1000
PXDIR
1011
1073.709855576427
1021
303.4201191910605
1031
0.0
1002
}
1002
{
1000
PORI
1011
492.0696383764286
1021
303.4201191910605
1031
0.0
1002
}
1002
{
1000
PINS
1011
492.0696383764286
1021
303.4201191910605
1031
0.0
1002
}
1002
{
1000
PINS2
1011
1073.709855576427
1021
728.9033691910604
1031
0.0
1002
}
1002
{
1000
C
1070
     1
1002
}
1001
GENIUS_GENODEF_13
1002
{
1000
HIER
1070
     0
1002
}
1002
{
1000
MANEDIT
1070
     0
1002
}
1002
{
1000
NOSEL
1070
     0
1002
}
1002
{
1000
BEHIND
1070
     0
1002
}
1002
{
1000
OTHER
1070
     0
1002
}
1002
{
1000
REACTOR
1002
}
1001
GENIUS_GENOBJ-N-REC_13
1002
{
1000
OWNER
1000
GEN
1002
}
  0
TEXT
  5
603
330
1F
100
AcDbEntity
  8
6
100
AcDbText
 10
975.951916090606
 20
340.0751925456671
 30
0.0
 40
4.32
  1
Reflex Winkelmann GmbH
 41
0.95
 72
     1
 11
1006.321516090606
 21
340.0751925456671
 31
0.0
100
AcDbText
  0
TEXT
  5
604
330
1F
100
AcDbEntity
  8
0
100
AcDbText
 10
904.5323188906055
 20
343.0145985456672
 30
0.0
 40
6.0
  1
reflex NG
100
AcDbText
  0
TEXT
  5
605
330
1F
100
AcDbEntity
  8
0
100
AcDbText
 10
874.9647628906075
 20
354.414598545667
 30
0.0
 40
6.0
  1
Druckausdehnungsgefäß
100
AcDbText
  0
TEXT
  5
606
330
1F
100
AcDbEntity
  8
DN50-0
100
AcDbText
 10
899.3438584906055
 20
331.0545753456672
 30
0.0
 40
6.0
  1
18 l  - 6 bar
100
AcDbText
  0
POLYLINE
  5
607
330
1F
100
AcDbEntity
  8
4
100
AcDb2dPolyline
 66
     1
 10
0.0
 20
0.0
 30
0.0
  0
VERTEX
  5
608
330
607
100
AcDbEntity
  8
4
100
AcDbVertex
100
AcDb2dVertex
 10
1006.558468090605
 20
357.6178557456673
 30
0.0
  0
VERTEX
  5
609
330
607
100
AcDbEntity
  8
4
100
AcDbVertex
100
AcDb2dVertex
 10
1006.558468090605
 20
349.2337881456668
 30
0.0
  0
VERTEX
  5
60A
330
607
100
AcDbEntity
  8
4
100
AcDbVertex
100
AcDb2dVertex
 10
1008.516042490607
 20
349.2337881456668
 30
0.0
  0
VERTEX
  5
60B
330
607
100
AcDbEntity
  8
4
100
AcDbVertex
100
AcDb2dVertex
 10
1008.516042490607
 20
357.6178557456673
 30
0.0
  0
VERTEX
  5
60C
330
607
100
AcDbEntity
  8
4
100
AcDbVertex
100
AcDb2dVertex
 10
1006.558468090605
 20
357.6178557456673
 30
0.0
  0
VERTEX
  5
60D
330
607
100
AcDbEntity
  8
4
100
AcDbVertex
100
AcDb2dVertex
 10
1006.558468090605
 20
357.6178557456673
 30
0.0
  0
SEQEND
  5
60E
330
607
100
AcDbEntity
  8
4
  0
TEXT
  5
60F
330
1F
100
AcDbEntity
  8
6
100
AcDbText
 10
990.5380955734498
 20
334.0143849456669
 30
0.0
 40
4.32
  1
59227 Ahlen
 72
     1
 11
1006.391929690606
 21
334.0143849456669
 31
0.0
100
AcDbText
  0
POLYLINE
  5
610
330
1F
100
AcDbEntity
  8
4
100
AcDb2dPolyline
 66
     1
 10
0.0
 20
0.0
 30
0.0
  0
VERTEX
  5
611
330
610
100
AcDbEntity
  8
4
100
AcDbVertex
100
AcDb2dVertex
 10
991.5283744906066
 20
346.630702545667
 30
0.0
  0
VERTEX
  5
612
330
610
100
AcDbEntity
  8
4
100
AcDbVertex
100
AcDb2dVertex
 10
1023.016549690608
 20
346.630702545667
 30
0.0
  0
VERTEX
  5
613
330
610
100
AcDbEntity
  8
4
100
AcDbVertex
100
AcDb2dVertex
 10
1023.016549690608
 20
346.9246269456672
 30
0.0
  0
VERTEX
  5
614
330
610
100
AcDbEntity
  8
4
100
AcDbVertex
100
AcDb2dVertex
 10
991.5283744906066
 20
346.9246269456672
 30
0.0
  0
VERTEX
  5
615
330
610
100
AcDbEntity
  8
4
100
AcDbVertex
100
AcDb2dVertex
 10
991.5283744906066
 20
346.630702545667
 30
0.0
  0
VERTEX
  5
616
330
610
100
AcDbEntity
  8
4
100
AcDbVertex
100
AcDb2dVertex
 10
991.5283744906066
 20
346.630702545667
 30
0.0
  0
SEQEND
  5
617
330
610
100
AcDbEntity
  8
4
  0
POLYLINE
  5
618
330
1F
100
AcDbEntity
  8
4
100
AcDb2dPolyline
 66
     1
 10
0.0
 20
0.0
 30
0.0
  0
VERTEX
  5
619
330
618
100
AcDbEntity
  8
4
100
AcDbVertex
100
AcDb2dVertex
 10
1023.016549690608
 20
359.5250085456671
 30
0.0
  0
VERTEX
  5
61A
330
618
100
AcDbEntity
  8
4
100
AcDbVertex
100
AcDb2dVertex
 10
991.5283744906066
 20
359.5250085456671
 30
0.0
  0
VERTEX
  5
61B
330
618
100
AcDbEntity
  8
4
100
AcDbVertex
100
AcDb2dVertex
 10
991.5283744906066
 20
359.2310853456671
 30
0.0
  0
VERTEX
  5
61C
330
618
100
AcDbEntity
  8
4
100
AcDbVertex
100
AcDb2dVertex
 10
1023.016549690608
 20
359.2310853456671
 30
0.0
  0
VERTEX
  5
61D
330
618
100
AcDbEntity
  8
4
100
AcDbVertex
100
AcDb2dVertex
 10
1023.016549690608
 20
359.5250085456671
 30
0.0
  0
VERTEX
  5
61E
330
618
100
AcDbEntity
  8
4
100
AcDbVertex
100
AcDb2dVertex
 10
1023.016549690608
 20
359.5250085456671
 30
0.0
  0
SEQEND
  5
61F
330
618
100
AcDbEntity
  8
4
  0
POLYLINE
  5
620
330
1F
100
AcDbEntity
  8
4
100
AcDb2dPolyline
 66
     1
 10
0.0
 20
0.0
 30
0.0
  0
VERTEX
  5
621
330
620
100
AcDbEntity
  8
4
100
AcDbVertex
100
AcDb2dVertex
 10
991.5283744906066
 20
359.3780469456673
 30
0.0
  0
VERTEX
  5
622
330
620
100
AcDbEntity
  8
4
100
AcDbVertex
100
AcDb2dVertex
 10
1023.016549690608
 20
359.3780469456673
 30
0.0
  0
VERTEX
  5
623
330
620
100
AcDbEntity
  8
4
100
AcDbVertex
100
AcDb2dVertex
 10
1023.252966490606
 20
359.3482281456671
 30
0.0
  0
VERTEX
  5
624
330
620
100
AcDbEntity
  8
4
100
AcDbVertex
100
AcDb2dVertex
 10
1023.476603290606
 20
359.2885917456671
 30
0.0
  0
VERTEX
  5
625
330
620
100
AcDbEntity
  8
4
100
AcDbVertex
100
AcDb2dVertex
 10
1023.670422490607
 20
359.1693189456671
 30
0.0
  0
VERTEX
  5
626
330
620
100
AcDbEntity
  8
4
100
AcDbVertex
100
AcDb2dVertex
 10
1023.849332890607
 20
359.0351361456671
 30
0.0
  0
VERTEX
  5
627
330
620
100
AcDbEntity
  8
4
100
AcDbVertex
100
AcDb2dVertex
 10
1023.998424490607
 20
358.8562257456672
 30
0.0
  0
VERTEX
  5
628
330
620
100
AcDbEntity
  8
4
100
AcDbVertex
100
AcDb2dVertex
 10
1024.102789690607
 20
358.6624065456673
 30
0.0
  0
VERTEX
  5
629
330
620
100
AcDbEntity
  8
4
100
AcDbVertex
100
AcDb2dVertex
 10
1024.177334890605
 20
358.4387685456672
 30
0.0
  0
VERTEX
  5
62A
330
620
100
AcDbEntity
  8
4
100
AcDbVertex
100
AcDb2dVertex
 10
1024.192243690605
 20
358.2023517456672
 30
0.0
  0
VERTEX
  5
62B
330
620
100
AcDbEntity
  8
4
100
AcDbVertex
100
AcDb2dVertex
 10
1024.192243690605
 20
347.938450545667
 30
0.0
  0
VERTEX
  5
62C
330
620
100
AcDbEntity
  8
4
100
AcDbVertex
100
AcDb2dVertex
 10
1024.177334890605
 20
347.7020337456669
 30
0.0
  0
VERTEX
  5
62D
330
620
100
AcDbEntity
  8
4
100
AcDbVertex
100
AcDb2dVertex
 10
1024.102789690607
 20
347.493305745667
 30
0.0
  0
VERTEX
  5
62E
330
620
100
AcDbEntity
  8
4
100
AcDbVertex
100
AcDb2dVertex
 10
1023.998424490607
 20
347.284576545667
 30
0.0
  0
VERTEX
  5
62F
330
620
100
AcDbEntity
  8
4
100
AcDbVertex
100
AcDb2dVertex
 10
1023.849332890607
 20
347.1205761456671
 30
0.0
  0
VERTEX
  5
630
330
620
100
AcDbEntity
  8
4
100
AcDbVertex
100
AcDb2dVertex
 10
1023.670422490607
 20
346.9714845456669
 30
0.0
  0
VERTEX
  5
631
330
620
100
AcDbEntity
  8
4
100
AcDbVertex
100
AcDb2dVertex
 10
1023.476603290606
 20
346.8671205456671
 30
0.0
  0
VERTEX
  5
632
330
620
100
AcDbEntity
  8
4
100
AcDbVertex
100
AcDb2dVertex
 10
1023.252966490606
 20
346.7925741456669
 30
0.0
  0
VERTEX
  5
633
330
620
100
AcDbEntity
  8
4
100
AcDbVertex
100
AcDb2dVertex
 10
1023.016549690608
 20
346.777665345667
 30
0.0
  0
VERTEX
  5
634
330
620
100
AcDbEntity
  8
4
100
AcDbVertex
100
AcDb2dVertex
 10
991.5283744906066
 20
346.777665345667
 30
0.0
  0
VERTEX
  5
635
330
620
100
AcDbEntity
  8
4
100
AcDbVertex
100
AcDb2dVertex
 10
991.2919564906076
 20
346.7925741456669
 30
0.0
  0
VERTEX
  5
636
330
620
100
AcDbEntity
  8
4
100
AcDbVertex
100
AcDb2dVertex
 10
991.0832284906064
 20
346.8671205456671
 30
0.0
  0
VERTEX
  5
637
330
620
100
AcDbEntity
  8
4
100
AcDbVertex
100
AcDb2dVertex
 10
990.8745004906066
 20
346.9714845456669
 30
0.0
  0
VERTEX
  5
638
330
620
100
AcDbEntity
  8
4
100
AcDbVertex
100
AcDb2dVertex
 10
990.7104988906063
 20
347.1205761456671
 30
0.0
  0
VERTEX
  5
639
330
620
100
AcDbEntity
  8
4
100
AcDbVertex
100
AcDb2dVertex
 10
990.5614072906056
 20
347.284576545667
 30
0.0
  0
VERTEX
  5
63A
330
620
100
AcDbEntity
  8
4
100
AcDbVertex
100
AcDb2dVertex
 10
990.4570432906055
 20
347.493305745667
 30
0.0
  0
VERTEX
  5
63B
330
620
100
AcDbEntity
  8
4
100
AcDbVertex
100
AcDb2dVertex
 10
990.3824968906066
 20
347.7020337456669
 30
0.0
  0
VERTEX
  5
63C
330
620
100
AcDbEntity
  8
4
100
AcDbVertex
100
AcDb2dVertex
 10
990.3526792906063
 20
347.938450545667
 30
0.0
  0
VERTEX
  5
63D
330
620
100
AcDbEntity
  8
4
100
AcDbVertex
100
AcDb2dVertex
 10
990.3526792906063
 20
358.2023517456672
 30
0.0
  0
VERTEX
  5
63E
330
620
100
AcDbEntity
  8
4
100
AcDbVertex
100
AcDb2dVertex
 10
990.3824968906066
 20
358.4387685456672
 30
0.0
  0
VERTEX
  5
63F
330
620
100
AcDbEntity
  8
4
100
AcDbVertex
100
AcDb2dVertex
 10
990.4570432906055
 20
358.6624065456673
 30
0.0
  0
VERTEX
  5
640
330
620
100
AcDbEntity
  8
4
100
AcDbVertex
100
AcDb2dVertex
 10
990.5614072906056
 20
358.8562257456672
 30
0.0
  0
VERTEX
  5
641
330
620
100
AcDbEntity
  8
4
100
AcDbVertex
100
AcDb2dVertex
 10
990.7104988906063
 20
359.0351361456671
 30
0.0
  0
VERTEX
  5
642
330
620
100
AcDbEntity
  8
4
100
AcDbVertex
100
AcDb2dVertex
 10
990.8745004906066
 20
359.1693189456671
 30
0.0
  0
VERTEX
  5
643
330
620
100
AcDbEntity
  8
4
100
AcDbVertex
100
AcDb2dVertex
 10
991.0832284906064
 20
359.2885917456671
 30
0.0
  0
VERTEX
  5
644
330
620
100
AcDbEntity
  8
4
100
AcDbVertex
100
AcDb2dVertex
 10
991.2919564906076
 20
359.3482281456671
 30
0.0
  0
VERTEX
  5
645
330
620
100
AcDbEntity
  8
4
100
AcDbVertex
100
AcDb2dVertex
 10
991.5283744906066
 20
359.3780469456673
 30
0.0
  0
VERTEX
  5
646
330
620
100
AcDbEntity
  8
4
100
AcDbVertex
100
AcDb2dVertex
 10
991.5283744906066
 20
359.3780469456673
 30
0.0
  0
SEQEND
  5
647
330
620
100
AcDbEntity
  8
4
  0
HATCH
  5
648
330
1F
100
AcDbEntity
  8
4
100
AcDbHatch
 10
0.0
 20
0.0
 30
0.0
210
0.0
220
0.0
230
1.0
  2
SOLID
 70
     1
 71
     0
 91
       13
 92
        7
 72
     0
 73
     1
 93
        4
 10
990.4996409359215
 20
358.2023519427279
 10
990.3526790785647
 20
358.2023519427279
 10
990.3526790785647
 20
347.9384506295488
 10
990.4996409359215
 20
347.9384506295488
 97
        0
 92
        7
 72
     0
 73
     1
 93
        4
 10
1023.016549287928
 20
346.9246268019761
 10
991.5283739374316
 20
346.9246268019761
 10
991.5283739374316
 20
346.7776649446179
 10
1023.016549287928
 20
346.7776649446179
 97
        0
 92
        7
 72
     0
 73
     1
 93
        4
 10
1023.016549287928
 20
359.3780468015938
 10
991.5283739374316
 20
359.3780468015938
 10
991.5283739374316
 20
359.2310849442358
 10
1023.016549287928
 20
359.2310849442358
 97
        0
 92
        7
 72
     0
 73
     1
 93
        4
 10
1024.339206004152
 20
358.2023519427279
 10
1024.192244146794
 20
358.2023519427279
 10
1024.192244146794
 20
347.9384506295488
 10
1024.339206004152
 20
347.9384506295488
 97
        0
 92
        7
 72
     0
 73
     1
 93
       42
 10
991.0832286013743
 20
359.2885917579847
 10
991.2919570364636
 20
359.3482284537245
 10
991.5283739374316
 20
359.3780468015938
 10
991.5283739374306
 20
359.5250086589522
 10
991.4623475957208
 20
359.5228787769616
 10
991.3963212540084
 20
359.5164891309894
 10
991.3302949122948
 20
359.5079696030266
 10
991.2642685705835
 20
359.4973201930728
 10
991.2003721108638
 20
359.4824110191383
 10
991.1386055331323
 20
359.4632420812223
 10
991.0768389554007
 20
359.4419432613146
 10
991.017202259662
 20
359.4185145594177
 10
990.9596954459143
 20
359.3929559755287
 10
990.9021886321655
 20
359.3631376276601
 10
990.8468117004066
 20
359.3311893977989
 10
990.7935646506478
 20
359.2949814039567
 10
990.7424474828628
 20
359.2587734101154
 10
990.6913303150874
 20
359.218305652291
 10
990.6423430292996
 20
359.1778378944689
 10
990.5976155074956
 20
359.1331103726631
 10
990.5528879856886
 20
359.0862529688668
 10
990.5124202278685
 20
359.0393955650743
 10
990.4719524700436
 20
358.9882783972973
 10
990.4357444762025
 20
358.9371612295173
 10
990.3995364823597
 20
358.8839141797508
 10
990.3675882524995
 20
358.8285372479916
 10
990.3377699046307
 20
358.7710304342451
 10
990.3122113207434
 20
358.7135236204986
 10
990.2887826188443
 20
358.6538869247584
 10
990.2674837989378
 20
358.5921203470238
 10
990.2483148610206
 20
358.5303537692944
 10
990.2334056870866
 20
358.4664573095754
 10
990.2227562771315
 20
358.4004309678622
 10
990.2142367491707
 20
358.3344046261497
 10
990.2078471031984
 20
358.2683782844403
 10
990.2057172212064
 20
358.2023519427279
 10
990.3526790785647
 20
358.2023519427279
 10
990.3824974264354
 20
358.4387688436953
 10
990.4570432961088
 20
358.6624064527188
 10
990.5614075136547
 20
358.8562257138733
 10
990.7104992530035
 20
359.0351358010912
 10
990.8745001662865
 20
359.1693183665059
 97
        0
 92
        7
 72
     0
 73
     1
 93
       42
 10
991.1322158871604
 20
359.1501494285894
 10
991.1790732909564
 20
359.1671884845147
 10
991.2259306947516
 20
359.1842275404407
 10
991.2749179805384
 20
359.1991367143754
 10
991.3239052663243
 20
359.2097861243281
 10
991.3750224341008
 20
359.2204355342823
 10
991.4261396018783
 20
359.2268251802549
 10
991.4772567696555
 20
359.2310849442358
 10
991.5283739374316
 20
359.2310849442358
 10
991.5283739374306
 20
359.3780468015943
 10
991.2919570364636
 20
359.3482284537245
 10
991.0832286013743
 20
359.2885917579845
 10
990.8745001662865
 20
359.1693183665055
 10
990.7104992530028
 20
359.0351358010907
 10
990.5614075136538
 20
358.8562257138729
 10
990.4570432961095
 20
358.6624064527194
 10
990.3824974264354
 20
358.4387688436953
 10
990.3526790785647
 20
358.2023519427279
 10
990.4996409359215
 20
358.2023519427279
 10
990.4996409359215
 20
358.2534691105059
 10
990.5039006999055
 20
358.3045862782821
 10
990.5102903458766
 20
358.355703446058
 10
990.5209397558277
 20
358.4068206138406
 10
990.5315891657835
 20
358.4558078996216
 10
990.5464983397207
 20
358.5026653034218
 10
990.5614075136538
 20
358.5516525892028
 10
990.5805764515715
 20
358.5985099929982
 10
990.6018752714787
 20
358.6432375148013
 10
990.6253039733742
 20
358.687965036607
 10
990.6508625572623
 20
358.7305626764214
 10
990.6764211411516
 20
358.7731603162355
 10
990.7062394890246
 20
358.8136280740633
 10
990.7360578368903
 20
358.8519659498933
 10
990.7701359487417
 20
358.8903038257226
 10
990.8042140605935
 20
358.9265118195659
 10
990.8404220544346
 20
358.9605899314162
 10
990.8787599302687
 20
358.9925381612774
 10
990.9170978061009
 20
359.0244863911383
 10
990.9575655639235
 20
359.0543047390076
 10
991.0001632037376
 20
359.0798633228962
 10
991.0427608435519
 20
359.1054219067847
 10
991.0874883653574
 20
359.1288506086822
 97
        0
 92
        7
 72
     0
 73
     1
 93
        4
 10
1023.016549287928
 20
346.7776649446179
 10
991.5283739374316
 20
346.7776649446179
 10
991.5283739374316
 20
346.6307030872592
 10
1023.016549287928
 20
346.6307030872592
 97
        0
 92
       22
 72
     0
 73
     1
 93
       42
 10
1023.99842488564
 20
347.2845768584039
 10
1024.102789103185
 20
347.4933052934924
 10
1024.177334972858
 20
347.7020337285809
 10
1024.192244146794
 20
347.9384506295488
 10
1024.045282289435
 20
347.9384506295488
 10
1024.045282289435
 20
347.8873334617712
 10
1024.041022525454
 20
347.8362162939934
 10
1024.034632879483
 20
347.7850991262175
 10
1024.026113351518
 20
347.7339819584413
 10
1024.013334059573
 20
347.6849946726442
 10
1024.00055476763
 20
347.6381372688603
 10
1023.983515711705
 20
347.5912798650648
 10
1023.96647665578
 20
347.5444224612705
 10
1023.945177835873
 20
347.4996949394649
 10
1023.923879015965
 20
347.4549674176595
 10
1023.898320432077
 20
347.4144996598347
 10
1023.872761848189
 20
347.3719020200229
 10
1023.84294350032
 20
347.3335641441877
 10
1023.813125152448
 20
347.2930963863661
 10
1023.78117692259
 20
347.2568883925266
 10
1023.747098810737
 20
347.2228102806733
 10
1023.710890816898
 20
347.188732168823
 10
1023.674682823054
 20
347.1567839389618
 10
1023.634215065231
 20
347.1269655910924
 10
1023.593747307405
 20
347.0971472432216
 10
1023.553279549581
 20
347.0715886593333
 10
1023.510681909771
 20
347.0460300754456
 10
1023.465954387967
 20
347.0247312555376
 10
1023.41909698417
 20
347.003432435632
 10
1023.372239580374
 20
346.9863933797061
 10
1023.325382176579
 20
346.9693543237803
 10
1023.276394890791
 20
346.956575031836
 10
1023.225277723017
 20
346.945925621883
 10
1023.174160555241
 20
346.9352762119294
 10
1023.123043387464
 20
346.9288865659573
 10
1023.069796337694
 20
346.9246268019761
 10
1023.016549287928
 20
346.9246268019761
 10
1023.016549287928
 20
346.7776649446179
 10
1023.252966188897
 20
346.7925741185525
 10
1023.476603797919
 20
346.8671199882272
 10
1023.670423059073
 20
346.9714842057713
 10
1023.849333146291
 20
347.1205759451208
 97
        0
 92
        7
 72
     0
 73
     1
 93
       42
 10
1024.036762761471
 20
347.1077966531764
 10
1024.077230519297
 20
347.1567839389626
 10
1024.113438513139
 20
347.2079011067379
 10
1024.147516624989
 20
347.2611481565067
 10
1024.179464854849
 20
347.3165250882616
 10
1024.209283202719
 20
347.3719020200238
 10
1024.234841786608
 20
347.4294088337703
 10
1024.258270488506
 20
347.4890455295108
 10
1024.279569308414
 20
347.5508121072431
 10
1024.296608364338
 20
347.6125786849684
 10
1024.311517538274
 20
347.676475144694
 10
1024.324296830217
 20
347.7403716044133
 10
1024.330686476189
 20
347.8063979461253
 10
1024.33707612216
 20
347.8724242878382
 10
1024.339206004152
 20
347.9384506295488
 10
1024.192244146794
 20
347.9384506295488
 10
1024.177334972858
 20
347.7020337285814
 10
1024.102789103185
 20
347.493305293492
 10
1023.99842488564
 20
347.2845768584041
 10
1023.849333146291
 20
347.1205759451195
 10
1023.670423059073
 20
346.9714842057711
 10
1023.476603797917
 20
346.8671199882265
 10
1023.252966188897
 20
346.7925741185525
 10
1023.016549287928
 20
346.7776649446179
 10
1023.016549287928
 20
346.6307030872592
 10
1023.08257562964
 20
346.6328329692502
 10
1023.150731853341
 20
346.6392226152222
 10
1023.218888077044
 20
346.6456122611945
 10
1023.282784536766
 20
346.6583915531385
 10
1023.346680996485
 20
346.6711708450825
 10
1023.410577456208
 20
346.6903397829991
 10
1023.472344033929
 20
346.7116386029058
 10
1023.531980729676
 20
346.7329374228127
 10
1023.591617425414
 20
346.7606258886906
 10
1023.646994357177
 20
346.788314354572
 10
1023.702371288932
 20
346.8202625844315
 10
1023.757748220692
 20
346.8543406962822
 10
1023.808865388466
 20
346.8905486901241
 10
1023.859982556243
 20
346.9288865659573
 10
1023.906839960041
 20
346.9714842057713
 10
1023.953697363835
 20
347.0140818455857
 10
1023.996295003652
 20
347.0588093673904
 97
        0
 92
        7
 72
     0
 73
     1
 93
       42
 10
1023.849333146291
 20
359.0351358010912
 10
1023.670423059073
 20
359.1693183665051
 10
1023.476603797917
 20
359.2885917579847
 10
1023.252966188897
 20
359.3482284537245
 10
1023.016549287928
 20
359.3780468015943
 10
1023.016549287928
 20
359.2310849442358
 10
1023.069796337694
 20
359.2310849442358
 10
1023.123043387464
 20
359.2268251802549
 10
1023.174160555241
 20
359.2183056522913
 10
1023.225277723017
 20
359.2097861243291
 10
1023.274265008804
 20
359.1991367143754
 10
1023.323252294589
 20
359.1842275404402
 10
1023.372239580374
 20
359.1671884845147
 10
1023.419096984168
 20
359.1501494285894
 10
1023.463824505975
 20
359.1288506086822
 10
1023.508552027778
 20
359.1054219067847
 10
1023.551149667595
 20
359.0798633228962
 10
1023.593747307409
 20
359.0543047390076
 10
1023.634215065229
 20
359.0244863911383
 10
1023.672552941062
 20
358.9946680432678
 10
1023.710890816895
 20
358.9605899314171
 10
1023.747098810739
 20
358.9265118195655
 10
1023.779047040598
 20
358.8903038257253
 10
1023.813125152448
 20
358.8540958318822
 10
1023.84294350032
 20
358.8136280740591
 10
1023.870631966198
 20
358.7731603162355
 10
1023.898320432077
 20
358.7326925584119
 10
1023.921749133975
 20
358.6879650366075
 10
1023.945177835873
 20
358.6453673967924
 10
1023.96647665578
 20
358.598509992997
 10
1023.983515711705
 20
358.5516525892028
 10
1024.00055476763
 20
358.5047951854061
 10
1024.013334059574
 20
358.4558078996216
 10
1024.026113351518
 20
358.406820613835
 10
1024.03463287948
 20
358.3557034460616
 10
1024.041022525454
 20
358.3067161602747
 10
1024.045282289435
 20
358.2534691105051
 10
1024.045282289435
 20
358.2023519427279
 10
1024.192244146794
 20
358.2023519427279
 10
1024.177334972858
 20
358.4387688436961
 10
1024.102789103185
 20
358.6624064527188
 10
1023.99842488564
 20
358.8562257138729
 97
        0
 92
        7
 72
     0
 73
     1
 93
       42
 10
1023.908969842029
 20
359.1757080124785
 10
1023.859982556245
 20
359.218305652291
 10
1023.810995270459
 20
359.2587734101154
 10
1023.757748220692
 20
359.2949814039569
 10
1023.704501170923
 20
359.3311893977989
 10
1023.649124239164
 20
359.3631376276594
 10
1023.591617425417
 20
359.3929559755287
 10
1023.534110611668
 20
359.4185145594173
 10
1023.472344033939
 20
359.4419432613149
 10
1023.410577456208
 20
359.4632420812218
 10
1023.348810878477
 20
359.4824110191383
 10
1023.282784536764
 20
359.4973201930732
 10
1023.218888077044
 20
359.5079696030266
 10
1023.150731853341
 20
359.5164891309894
 10
1023.08470551163
 20
359.5228787769616
 10
1023.016549287928
 20
359.5250086589522
 10
1023.016549287928
 20
359.3780468015938
 10
1023.252966188897
 20
359.3482284537241
 10
1023.476603797917
 20
359.2885917579847
 10
1023.670423059073
 20
359.1693183665055
 10
1023.849333146291
 20
359.0351358010912
 10
1023.99842488564
 20
358.8562257138729
 10
1024.102789103185
 20
358.6624064527188
 10
1024.177334972858
 20
358.4387688436953
 10
1024.192244146794
 20
358.2023519427279
 10
1024.339206004152
 20
358.2023519427279
 10
1024.33707612216
 20
358.2683782844393
 10
1024.330686476189
 20
358.3344046261516
 10
1024.324296830217
 20
358.4004309678627
 10
1024.311517538271
 20
358.4643274275897
 10
1024.296608364338
 20
358.5282238873059
 10
1024.279569308413
 20
358.5899904650353
 10
1024.258270488505
 20
358.6517570427643
 10
1024.234841786608
 20
358.7113937385043
 10
1024.209283202719
 20
358.7710304342451
 10
1024.179464854849
 20
358.826407366003
 10
1024.149646506979
 20
358.8817842977609
 10
1024.113438513139
 20
358.9371612295193
 10
1024.077230519295
 20
358.9882783972953
 10
1024.038892643464
 20
359.0393955650725
 10
1023.996295003652
 20
359.0862529688684
 10
1023.953697363836
 20
359.1331103726631
 97
        0
 92
       23
 72
     0
 73
     1
 93
       42
 10
990.8042140605935
 20
347.2228102806735
 10
990.7680060667503
 20
347.2590182745154
 10
990.7360578368928
 20
347.2952262683565
 10
990.7062394890225
 20
347.3335641441904
 10
990.6764211411516
 20
347.374031902013
 10
990.6487326752715
 20
347.4144996598375
 10
990.6231740913824
 20
347.4570972996506
 10
990.6018752714787
 20
347.5018248214528
 10
990.5805764515696
 20
347.5444224612685
 10
990.5614075136538
 20
347.5912798650671
 10
990.5443684577296
 20
347.6381372688596
 10
990.5315891657835
 20
347.6871245546475
 10
990.5209397558307
 20
347.7361118404323
 10
990.5102903458784
 20
347.7850991262175
 10
990.5039006999047
 20
347.8362162939947
 10
990.4996409359215
 20
347.8873334617728
 10
990.4996409359215
 20
347.9384506295488
 10
990.3526790785647
 20
347.9384506295488
 10
990.3824974264354
 20
347.7020337285804
 10
990.4570432961088
 20
347.4933052934933
 10
990.5614075136538
 20
347.2845768584041
 10
990.7104992530014
 20
347.1205759451206
 10
990.8745001662865
 20
346.9714842057713
 10
991.0832286013743
 20
346.8671199882272
 10
991.2919570364636
 20
346.7925741185525
 10
991.5283739374306
 20
346.7776649446179
 10
991.5283739374316
 20
346.9246268019761
 10
991.4772567696555
 20
346.9246268019761
 10
991.4240097198888
 20
346.9288865659573
 10
991.3728925521107
 20
346.9352762119294
 10
991.3239052663227
 20
346.9437957398921
 10
991.2749179805384
 20
346.9565750318361
 10
991.2259306947516
 20
346.9693543237803
 10
991.1790732909564
 20
346.9863933797061
 10
991.1322158871604
 20
347.003432435632
 10
991.0853584833663
 20
347.0247312555387
 10
991.0427608435519
 20
347.0460300754463
 10
990.9980333217474
 20
347.0715886593339
 10
990.9575655639235
 20
347.0992771252134
 10
990.9149679241098
 20
347.1269655910924
 10
990.8766300482756
 20
347.1567839389618
 10
990.8382921724426
 20
347.1887321688225
 97
        0
 92
        7
 72
     0
 73
     1
 93
       42
 10
990.7104992530014
 20
347.1205759451208
 10
990.5614075136538
 20
347.2845768584041
 10
990.4570432961088
 20
347.4933052934933
 10
990.3824974264354
 20
347.7020337285808
 10
990.3526790785647
 20
347.9384506295488
 10
990.2057172212064
 20
347.9384506295488
 10
990.2078471031984
 20
347.8724242878378
 10
990.2142367491707
 20
347.806397946124
 10
990.2227562771315
 20
347.7403716044133
 10
990.2334056870866
 20
347.6764751446922
 10
990.2483148610215
 20
347.61257868497
 10
990.2674837989378
 20
347.550812107241
 10
990.2887826188443
 20
347.4890455295128
 10
990.3122113207416
 20
347.4294088337727
 10
990.3398997866228
 20
347.3719020200193
 10
990.3697181344899
 20
347.3143952062747
 10
990.4016663643526
 20
347.2611481565038
 10
990.4357444762025
 20
347.2079011067379
 10
990.4719524700436
 20
347.1567839389626
 10
990.5124202278678
 20
347.1077966531772
 10
990.5550178676795
 20
347.0588093673904
 10
990.5976155074963
 20
347.0140818455857
 10
990.6444729112916
 20
346.9714842057725
 10
990.6934601970775
 20
346.9288865659565
 10
990.7424474828646
 20
346.8905486901252
 10
990.7935646506386
 20
346.8543406962831
 10
990.8489415823945
 20
346.8202625844323
 10
990.9021886321655
 20
346.7883143545716
 10
990.9596954459143
 20
346.7606258886922
 10
991.019332141654
 20
346.7329374228132
 10
991.0789688373895
 20
346.7116386029076
 10
991.1407354151235
 20
346.6903397829987
 10
991.2025019928547
 20
346.6711708450825
 10
991.2663984525735
 20
346.6583915531385
 10
991.3302949122963
 20
346.6456122611945
 10
991.3963212540068
 20
346.6392226152222
 10
991.4623475957183
 20
346.6328329692502
 10
991.5283739374316
 20
346.6307030872592
 10
991.5283739374306
 20
346.7776649446179
 10
991.2919570364636
 20
346.7925741185525
 10
991.0832286013743
 20
346.8671199882269
 10
990.8745001662865
 20
346.9714842057713
 97
        0
 75
     0
 76
     1
 47
0.02498
 98
       13
 10
990.4086784906056
 20
354.3260913456674
 10
996.9936268906055
 20
346.8116325456673
 10
1004.627509690606
 20
359.2774773456672
 10
1024.265810890605
 20
354.8503545456674
 10
990.6338044906068
 20
359.1629673456674
 10
990.8708824906055
 20
359.1291117456673
 10
1011.733934890607
 20
346.7040897456674
 10
1023.825022090607
 20
347.2457805456674
 10
1023.994366090606
 20
347.0765025456675
 10
1023.825022090607
 20
358.9936881456673
 10
1023.892759690606
 20
359.1629673456674
 10
990.7354084906067
 20
347.1780693456673
 10
990.7015408906056
 20
347.0087901456673
450
        0
451
        0
460
0.0
461
0.0
452
        0
462
0.0
453
        0
470

  0
HATCH
  5
649
330
1F
100
AcDbEntity
  8
4
100
AcDbHatch
 10
0.0
 20
0.0
 30
0.0
210
0.0
220
0.0
230
1.0
  2
SOLID
 70
     1
 71
     0
 91
        3
 92
        7
 72
     0
 73
     1
 93
        4
 10
1023.016549287928
 20
359.5250086589522
 10
991.5283739374316
 20
359.5250086589522
 10
991.5283739374316
 20
359.3780468015938
 10
1023.016549287928
 20
359.3780468015938
 97
        0
 92
        7
 72
     0
 73
     1
 93
        4
 10
990.3526790785647
 20
358.2023519427279
 10
990.2057172212064
 20
358.2023519427279
 10
990.2057172212064
 20
347.9384506295488
 10
990.3526790785647
 20
347.9384506295488
 97
        0
 92
        7
 72
     0
 73
     1
 93
       42
 10
990.6253039733735
 20
358.6879650366063
 10
990.6508625572623
 20
358.7305626764214
 10
990.6764211411516
 20
358.7731603162355
 10
990.7062394890246
 20
358.8136280740633
 10
990.7360578368903
 20
358.8519659498933
 10
990.7701359487417
 20
358.8903038257226
 10
990.8042140605935
 20
358.9265118195659
 10
990.8404220544346
 20
358.9605899314162
 10
990.8787599302687
 20
358.9925381612774
 10
990.9170978061009
 20
359.0244863911383
 10
990.9575655639235
 20
359.0543047390076
 10
991.0001632037376
 20
359.0798633228962
 10
991.0427608435519
 20
359.1054219067847
 10
991.0874883653574
 20
359.1288506086822
 10
991.1322158871604
 20
359.1501494285894
 10
991.1790732909564
 20
359.1671884845147
 10
991.2259306947516
 20
359.1842275404407
 10
991.2749179805384
 20
359.1991367143754
 10
991.3239052663243
 20
359.2097861243281
 10
991.3750224341008
 20
359.2204355342823
 10
991.4261396018783
 20
359.2268251802549
 10
991.4772567696555
 20
359.2310849442358
 10
991.5283739374316
 20
359.2310849442358
 10
991.5283739374306
 20
359.3780468015943
 10
991.2919570364636
 20
359.3482284537245
 10
991.0832286013743
 20
359.2885917579845
 10
990.8745001662865
 20
359.1693183665055
 10
990.7104992530028
 20
359.0351358010907
 10
990.5614075136538
 20
358.8562257138729
 10
990.4570432961095
 20
358.6624064527194
 10
990.3824974264354
 20
358.4387688436953
 10
990.3526790785647
 20
358.2023519427279
 10
990.4996409359215
 20
358.2023519427279
 10
990.4996409359215
 20
358.2534691105059
 10
990.5039006999055
 20
358.3045862782821
 10
990.5102903458766
 20
358.355703446058
 10
990.5209397558277
 20
358.4068206138406
 10
990.5315891657835
 20
358.4558078996216
 10
990.5464983397207
 20
358.5026653034218
 10
990.5614075136538
 20
358.5516525892028
 10
990.5805764515715
 20
358.5985099929982
 10
990.6018752714787
 20
358.6432375148013
 97
        0
 75
     0
 76
     1
 47
0.005631
 98
        3
 10
993.1534984906054
 20
359.4296793456674
 10
990.2597380906064
 20
357.9490065456673
 10
990.5040664906056
 20
358.6435473456673
450
        0
451
        0
460
0.0
461
0.0
452
        0
462
0.0
453
        0
470

  0
LWPOLYLINE
  5
64A
330
1F
100
AcDbEntity
  8
4
100
AcDbPolyline
 90
        9
 70
     0
 43
0.0
 10
990.4996408906065
 20
347.938450545667
 10
990.4996408906065
 20
358.2023517456672
 42
-0.4142140000000003
 10
991.5283744906057
 20
359.231085345667
 10
1023.016549690608
 20
359.231085345667
 42
-0.4142140000000003
 10
1024.045282090607
 20
358.2023517456672
 10
1024.045282090607
 20
347.938450545667
 42
-0.387993
 10
1023.123043690606
 20
346.9288869456672
 10
991.5283744906057
 20
346.9246269456672
 42
-0.3805719999999999
 10
990.5039008906069
 20
347.8362165456671
 42
-0.058238
  0
LWPOLYLINE
  5
64B
330
1F
100
AcDbEntity
  8
4
100
AcDbPolyline
 90
        9
 70
     0
 43
0.0
 10
990.2057176906067
 20
347.938450545667
 10
990.2057176906067
 20
358.2023517456672
 42
-0.4142140000000003
 10
991.5283744906057
 20
359.5250085456671
 10
1023.016549690608
 20
359.5250085456671
 42
-0.4142140000000003
 10
1024.339206490607
 20
358.2023517456672
 10
1024.339206490607
 20
347.938450545667
 42
-0.391099
 10
1023.135504490606
 20
346.6349649456668
 10
991.5284140906068
 20
346.630702545667
 42
-0.3805719999999999
 10
990.2119636906055
 20
347.8020969456672
 42
-0.3805719999999999
  0
LWPOLYLINE
  5
64C
330
1F
100
AcDbEntity
  8
4
100
AcDbPolyline
 90
        9
 70
     1
 43
0.5421264
 10
990.4767808906056
 20
347.938450545667
 10
990.4767808906056
 20
358.2023517456672
 42
-0.4142140000000003
 10
991.5283744906057
 20
359.2539453456671
 10
1023.016549690608
 20
359.2539453456671
 42
-0.4142140000000003
 10
1024.068143290606
 20
358.2023517456672
 10
1024.068143290606
 20
347.938450545667
 42
-0.388281
 10
1023.124072090608
 20
346.9060257456671
 10
991.5283768906059
 20
346.9017669456671
 42
-0.3805719999999999
 10
990.4811944906066
 20
347.8335621456671
 42
-0.037159
  0
HATCH
  5
64D
330
1F
100
AcDbEntity
  8
4
100
AcDbHatch
 10
0.0
 20
0.0
 30
0.0
210
0.0
220
0.0
230
1.0
  2
SOLID
 70
     1
 71
     0
 91
        8
 92
        7
 72
     0
 73
     1
 93
       23
 10
995.8513385658827
 20
353.0686405834645
 10
995.8901024181139
 20
353.2818417707332
 10
995.9676301225757
 20
353.4368971796561
 10
996.0839216792658
 20
353.5531887363476
 10
996.2002132359586
 20
353.6500983669251
 10
996.4327963493426
 20
353.708244145271
 10
996.5490879060364
 20
353.7276260713864
 10
996.7622890933055
 20
353.7276260713867
 10
996.7622890933055
 20
355.3335570923736
 10
996.0645397531504
 20
355.3335570923736
 10
995.6769012308456
 20
355.3141751662587
 10
995.3474084868846
 20
355.2754113140277
 10
995.0760615212667
 20
355.1785016834513
 10
994.8240964817683
 20
355.0815920528741
 10
994.6330460672005
 20
354.9459185700679
 10
994.4586087321654
 20
354.8102450872598
 10
994.3229352493588
 20
354.6551896783366
 10
994.2066436926646
 20
354.5001342694132
 10
994.0709702098576
 20
354.1734103720395
 10
993.9934425053955
 20
353.9020634064256
 10
993.9740605792817
 20
353.6500983669261
 10
993.9740605792817
 20
349.214406133095
 10
995.8513385658827
 20
349.214406133095
 97
        0
 92
        7
 72
     0
 73
     1
 93
       54
 10
1002.745766569774
 20
353.3787514013101
 10
1002.571329234739
 20
353.7663899236175
 10
1002.319364195238
 20
354.1540284459251
 10
1002.028635303509
 20
354.4807523432975
 10
1001.660378707316
 20
354.7908631611437
 10
1001.253358258893
 20
355.0428282006433
 10
1000.807573958241
 20
355.2366474617969
 10
1000.325794651943
 20
355.3723209446046
 10
999.8218645729435
 20
355.4110847968353
 10
999.4536079767524
 20
355.3917028707195
 10
999.1241152327903
 20
355.3335570923742
 10
998.8140044149464
 20
355.2560293879125
 10
998.5232755232166
 20
355.1397378312199
 10
998.2519285576016
 20
355.004064348412
 10
998.0193454442169
 20
354.8490089394901
 10
997.8061442569467
 20
354.655189678336
 10
997.5929430696776
 20
354.4613704171835
 10
997.4212745812277
 20
354.2509380765023
 10
997.2856010984216
 20
354.0183549631168
 10
997.1499276156125
 20
353.7663899236163
 10
997.0530179850355
 20
353.5144248841186
 10
996.9173445022288
 20
352.9911128790027
 10
996.8591987238824
 20
352.4484189477734
 10
996.8785806499974
 20
352.0413984993514
 10
996.9367264283434
 20
351.6759107497456
 10
997.0336360589206
 20
351.3270360796702
 10
997.1693095417274
 20
350.9975433357074
 10
997.3243649506514
 20
350.7068144439775
 10
997.4988022856875
 20
350.4354674783637
 10
997.7092346263686
 20
350.1835024388641
 10
997.9418177397535
 20
349.9509193254787
 10
998.2131647053675
 20
349.7571000643252
 10
998.4845116709827
 20
349.6020446554034
 10
998.7752405627155
 20
349.4469892464793
 10
999.0659694544458
 20
349.330697689787
 10
999.3954621984087
 20
349.2531699853249
 10
999.7055730162529
 20
349.175642280864
 10
1000.035065760213
 20
349.1368784286337
 10
1000.361789657589
 20
349.1368784286337
 10
1000.807573958241
 20
349.1562603547493
 10
1001.214594406662
 20
349.214406133095
 10
1001.563469076739
 20
349.2919338375568
 10
1001.873579894586
 20
349.3888434681335
 10
1002.299982269122
 20
349.5826627292871
 10
1002.43565575193
 20
349.6601904337484
 10
1002.43565575193
 20
351.5596191930538
 10
1002.009253377391
 20
351.2688903013235
 10
1001.582851002855
 20
351.0363071879392
 10
1001.098302849969
 20
350.8618698529004
 10
1000.865719736586
 20
350.8037240745549
 10
1000.633136623203
 20
350.7843421484391
 10
1000.248266947483
 20
350.7843421484391
 10
999.9769199818675
 20
350.8424879267853
 10
999.8606284251756
 20
350.8618698529007
 97
        0
 92
       22
 72
     0
 73
     1
 93
       15
 10
998.6977128582536
 20
351.9832527210039
 10
998.6395670799076
 20
352.1189262038117
 10
998.6008032276776
 20
352.2739816127303
 10
998.5620393754455
 20
352.4678008738883
 10
998.5814213015615
 20
352.7003839872723
 10
998.6395670799076
 20
352.9523490267723
 10
998.7752405627155
 20
353.2236959923875
 10
999.0078236760984
 20
353.4950429580023
 10
999.2791706417134
 20
353.6888622191556
 10
999.5698995334448
 20
353.7857718497324
 10
999.8412464990607
 20
353.8051537758481
 10
1000.073829612445
 20
353.7663899236175
 10
1000.287030799714
 20
353.7082441452714
 10
1000.439317362048
 20
353.6307164408098
 10
1000.574990844857
 20
353.5531887363486
 97
        0
 92
        7
 72
     0
 73
     1
 93
       27
 10
1005.0300650048
 20
353.3787514013101
 10
1005.863487827761
 20
353.3787514013101
 10
1005.863487827761
 20
354.8296270133746
 10
1005.0300650048
 20
354.8296270133746
 10
1005.0300650048
 20
355.4692305751808
 10
1005.068828857031
 20
355.68243176245
 10
1005.146356561494
 20
355.8374871713734
 10
1005.262648118187
 20
355.9537787280653
 10
1005.378939674878
 20
356.0506883586423
 10
1005.630904714377
 20
356.1088341369881
 10
1005.727814344953
 20
356.1282160631038
 10
1005.938246685635
 20
356.1282160631038
 10
1005.938246685635
 20
357.6178555273984
 10
1005.24326619207
 20
357.6178555273988
 10
1004.875009595878
 20
357.5984736012834
 10
1004.545516851917
 20
357.5403278229368
 10
1004.254787960189
 20
357.4434181923613
 10
1004.002822920687
 20
357.3465085617838
 10
1003.809003659532
 20
357.2108350789762
 10
1003.634566324496
 20
357.0779304427571
 10
1003.498892841687
 20
356.9228750338336
 10
1003.40198321111
 20
356.7678196249116
 10
1003.246927802188
 20
356.4577088070655
 10
1003.169400097726
 20
356.1669799153341
 10
1003.150018171611
 20
355.915014875833
 10
1003.150018171611
 20
349.2337880592105
 10
1005.0300650048
 20
349.2337880592105
 97
        0
 92
        7
 72
     0
 73
     1
 93
        4
 10
1008.516042858977
 20
357.6178555273984
 10
1006.558468321328
 20
357.6178555273988
 10
1006.558468321328
 20
349.2337880592105
 10
1008.516042858977
 20
349.2337880592105
 97
        0
 92
        7
 72
     0
 73
     1
 93
       54
 10
1014.9231538634
 20
353.3787514013101
 10
1014.748716528362
 20
353.7663899236175
 10
1014.496751488861
 20
354.1540284459244
 10
1014.206022597131
 20
354.4807523432977
 10
1013.840534847525
 20
354.790863161144
 10
1013.433514399104
 20
355.0428282006433
 10
1012.98773009845
 20
355.2366474617969
 10
1012.503181945568
 20
355.3723209446046
 10
1011.999251866568
 20
355.4110847968352
 10
1011.630995270376
 20
355.3917028707202
 10
1011.304271373002
 20
355.3335570923739
 10
1010.994160555156
 20
355.2560293879119
 10
1010.703431663425
 20
355.1397378312199
 10
1010.432084697812
 20
355.004064348412
 10
1010.199501584426
 20
354.8490089394892
 10
1009.986300397157
 20
354.655189678336
 10
1009.773099209889
 20
354.4613704171825
 10
1009.618043800967
 20
354.2509380765017
 10
1009.462988392044
 20
354.0183549631172
 10
1009.327314909234
 20
353.7663899236177
 10
1009.230405278658
 20
353.5144248841182
 10
1009.09473179585
 20
352.9911128790033
 10
1009.036586017504
 20
352.4484189477725
 10
1009.055967943621
 20
352.0413984993504
 10
1009.114113721966
 20
351.6759107497466
 10
1009.211023352544
 20
351.3270360796702
 10
1009.346696835351
 20
350.9975433357082
 10
1009.501752244275
 20
350.7068144439754
 10
1009.676189579312
 20
350.4354674783628
 10
1009.889390766581
 20
350.1835024388636
 10
1010.141355806081
 20
349.9509193254789
 10
1010.393320845581
 20
349.7571000643251
 10
1010.664667811196
 20
349.6020446554023
 10
1010.955396702927
 20
349.4469892464793
 10
1011.246125594656
 20
349.330697689787
 10
1011.572849492031
 20
349.2531699853249
 10
1011.882960309875
 20
349.1756422808645
 10
1012.212453053838
 20
349.1368784286337
 10
1012.541945797796
 20
349.1368784286337
 10
1012.98773009845
 20
349.156260354749
 10
1013.394750546874
 20
349.214406133095
 10
1013.763007143065
 20
349.2919338375562
 10
1014.053736034797
 20
349.3888434681334
 10
1014.477369562746
 20
349.5826627292871
 10
1014.613043045553
 20
349.6601904337484
 10
1014.613043045553
 20
351.5596191930537
 10
1014.186640671016
 20
351.2688903013239
 10
1013.763007143065
 20
351.036307187939
 10
1013.278458990182
 20
350.8618698529007
 10
1013.045875876796
 20
350.8037240745549
 10
1012.813292763412
 20
350.7843421484391
 10
1012.425654241106
 20
350.7843421484391
 10
1012.15430727549
 20
350.8424879267856
 10
1012.038015718798
 20
350.8618698529007
 97
        0
 92
       22
 72
     0
 73
     1
 93
       15
 10
1010.742195515657
 20
352.4678008738883
 10
1010.761577441772
 20
352.7003839872723
 10
1010.81972322012
 20
352.9523490267721
 10
1010.955396702926
 20
353.2236959923862
 10
1011.187979816311
 20
353.4950429580019
 10
1011.456557935338
 20
353.6888622191558
 10
1011.747286827068
 20
353.7857718497329
 10
1012.018633792684
 20
353.8051537758481
 10
1012.251216906068
 20
353.7663899236175
 10
1012.464418093337
 20
353.7082441452714
 10
1012.61947350226
 20
353.6307164408093
 10
1012.755146985067
 20
353.5531887363486
 10
1010.877868998463
 20
351.983252721004
 10
1010.81972322012
 20
352.1189262038109
 10
1010.780959367888
 20
352.2739816127306
 97
        0
 92
        7
 72
     0
 73
     1
 93
       66
 10
1019.898771181874
 20
352.2739816127344
 10
1019.743715772948
 20
352.3708912433116
 10
1019.61081113673
 20
352.4484189477725
 10
1019.879389255756
 20
352.622856282811
 10
1020.073208516911
 20
352.855439396194
 10
1020.228263925833
 20
353.1074044356953
 10
1020.325173556411
 20
353.3593694751948
 10
1020.402701260871
 20
353.7857718497324
 10
1020.402701260871
 20
353.9795911108861
 10
1020.402701260871
 20
355.2754113140277
 10
1018.583569052616
 20
355.2754113140277
 10
1018.583569052616
 20
354.1734103720408
 10
1018.564187126499
 20
354.037736889233
 10
1018.486659422039
 20
353.7663899236181
 10
1018.409131717578
 20
353.6307164408098
 10
1018.273458234769
 20
353.4950429580019
 10
1018.079638973616
 20
353.3981333274252
 10
1017.847055860232
 20
353.3787514013101
 10
1017.614472746846
 20
353.3981333274256
 10
1017.420653485693
 20
353.4950429580023
 10
1017.304361929002
 20
353.6113345146945
 10
1017.226834224541
 20
353.7663899236175
 10
1017.168688446193
 20
354.037736889233
 10
1017.168688446193
 20
354.1540284459244
 10
1017.168688446193
 20
355.2754113140277
 10
1015.310792385707
 20
355.2754113140277
 10
1015.310792385707
 20
353.9602091847705
 10
1015.349556237938
 20
353.553188736349
 10
1015.446465868513
 20
353.2430779185035
 10
1015.562757425208
 20
352.9717309528871
 10
1015.717812834128
 20
352.777911691735
 10
1015.872868243053
 20
352.6228562828108
 10
1015.989159799745
 20
352.5259466522339
 10
1016.124833282551
 20
352.4484189477725
 10
1015.950395947515
 20
352.3708912433116
 10
1015.814722464707
 20
352.2739816127347
 10
1015.601521277436
 20
352.0413984993509
 10
1015.427083942398
 20
351.7700515337348
 10
1015.330174311821
 20
351.5014734147081
 10
1015.252646607361
 20
351.2495083752088
 10
1015.21388275513
 20
351.0363071879385
 10
1015.194500829015
 20
350.8424879267846
 10
1015.194500829015
 20
349.2337880592105
 10
1017.129924593963
 20
349.2337880592105
 10
1017.129924593963
 20
350.7068144439784
 10
1017.149306520078
 20
350.861869852903
 10
1017.168688446194
 20
350.9975433357082
 10
1017.207452298424
 20
351.1719806707468
 10
1017.304361929002
 20
351.3270360796692
 10
1017.440035411809
 20
351.4820914885923
 10
1017.633854672963
 20
351.5790011191694
 10
1017.905201638578
 20
351.6177649714001
 10
1018.157166678078
 20
351.5790011191691
 10
1018.350985939232
 20
351.4820914885923
 10
1018.467277495923
 20
351.3270360796695
 10
1018.544805200384
 20
351.1525987446321
 10
1018.583569052616
 20
350.997543335707
 10
1018.602950978731
 20
350.8424879267856
 10
1018.602950978731
 20
350.7068144439781
 10
1018.602950978731
 20
349.2337880592105
 10
1020.518992817563
 20
349.2337880592105
 10
1020.518992817563
 20
350.8618698529017
 10
1020.480228965334
 20
351.288272227439
 10
1020.363937408641
 20
351.6371468975147
 10
1020.228263925832
 20
351.9057250165429
 10
1020.053826590795
 20
352.1189262038117
 97
        0
 75
     0
 76
     1
 47
0.04298
 98
        8
 10
995.0106940906067
 20
352.7612061456673
 10
998.8742524906067
 20
351.0194817456674
 10
998.8742524906067
 20
351.0194817456674
 10
1004.177177290606
 20
351.7767525456673
 10
1007.661955690605
 20
352.1553873456673
 10
1010.010392890606
 20
352.5340233456674
 10
1010.010392890606
 20
352.5340233456674
 10
1016.676925690606
 20
352.2311157456673
450
        0
451
        0
460
0.0
461
0.0
452
        0
462
0.0
453
        0
470

  0
POLYLINE
  5
64E
330
1F
100
AcDbEntity
  8
4
100
AcDb2dPolyline
 66
     1
 10
0.0
 20
0.0
 30
0.0
  0
VERTEX
  5
64F
330
64E
100
AcDbEntity
  8
4
100
AcDbVertex
100
AcDb2dVertex
 10
995.8513384906074
 20
353.068640145667
 30
0.0
  0
VERTEX
  5
650
330
64E
100
AcDbEntity
  8
4
100
AcDbVertex
100
AcDb2dVertex
 10
995.8901020906058
 20
353.2818417456673
 30
0.0
  0
VERTEX
  5
651
330
64E
100
AcDbEntity
  8
4
100
AcDbVertex
100
AcDb2dVertex
 10
995.9676304906068
 20
353.436897345667
 30
0.0
  0
VERTEX
  5
652
330
64E
100
AcDbEntity
  8
4
100
AcDbVertex
100
AcDb2dVertex
 10
996.0839212906064
 20
353.553188145667
 30
0.0
  0
VERTEX
  5
653
330
64E
100
AcDbEntity
  8
4
100
AcDbVertex
100
AcDb2dVertex
 10
996.2002132906066
 20
353.650098945667
 30
0.0
  0
VERTEX
  5
654
330
64E
100
AcDbEntity
  8
4
100
AcDbVertex
100
AcDb2dVertex
 10
996.4327960906068
 20
353.7082437456671
 30
0.0
  0
VERTEX
  5
655
330
64E
100
AcDbEntity
  8
4
100
AcDbVertex
100
AcDb2dVertex
 10
996.5490880906063
 20
353.7276261456671
 30
0.0
  0
VERTEX
  5
656
330
64E
100
AcDbEntity
  8
4
100
AcDbVertex
100
AcDb2dVertex
 10
996.7622896906055
 20
353.7276261456671
 30
0.0
  0
VERTEX
  5
657
330
64E
100
AcDbEntity
  8
4
100
AcDbVertex
100
AcDb2dVertex
 10
996.7622896906055
 20
355.3335573456671
 30
0.0
  0
VERTEX
  5
658
330
64E
100
AcDbEntity
  8
4
100
AcDbVertex
100
AcDb2dVertex
 10
996.0645400906065
 20
355.3335573456671
 30
0.0
  0
VERTEX
  5
659
330
64E
100
AcDbEntity
  8
4
100
AcDbVertex
100
AcDb2dVertex
 10
995.6769016906058
 20
355.3141749456671
 30
0.0
  0
VERTEX
  5
65A
330
64E
100
AcDbEntity
  8
4
100
AcDbVertex
100
AcDb2dVertex
 10
995.3474080906064
 20
355.2754113456672
 30
0.0
  0
VERTEX
  5
65B
330
64E
100
AcDbEntity
  8
4
100
AcDbVertex
100
AcDb2dVertex
 10
995.0760616906055
 20
355.1785017456672
 30
0.0
  0
VERTEX
  5
65C
330
64E
100
AcDbEntity
  8
4
100
AcDbVertex
100
AcDb2dVertex
 10
994.8240964906064
 20
355.0815921456672
 30
0.0
  0
VERTEX
  5
65D
330
64E
100
AcDbEntity
  8
4
100
AcDbVertex
100
AcDb2dVertex
 10
994.6330456906068
 20
354.9459189456672
 30
0.0
  0
VERTEX
  5
65E
330
64E
100
AcDbEntity
  8
4
100
AcDbVertex
100
AcDb2dVertex
 10
994.4586088906063
 20
354.810244545667
 30
0.0
  0
VERTEX
  5
65F
330
64E
100
AcDbEntity
  8
4
100
AcDbVertex
100
AcDb2dVertex
 10
994.3229356906066
 20
354.6551901456671
 30
0.0
  0
VERTEX
  5
660
330
64E
100
AcDbEntity
  8
4
100
AcDbVertex
100
AcDb2dVertex
 10
994.2066436906069
 20
354.5001345456671
 30
0.0
  0
VERTEX
  5
661
330
64E
100
AcDbEntity
  8
4
100
AcDbVertex
100
AcDb2dVertex
 10
994.0709704906064
 20
354.1734105456671
 30
0.0
  0
VERTEX
  5
662
330
64E
100
AcDbEntity
  8
4
100
AcDbVertex
100
AcDb2dVertex
 10
993.9934420906068
 20
353.9020629456671
 30
0.0
  0
VERTEX
  5
663
330
64E
100
AcDbEntity
  8
4
100
AcDbVertex
100
AcDb2dVertex
 10
993.9740608906063
 20
353.650098945667
 30
0.0
  0
VERTEX
  5
664
330
64E
100
AcDbEntity
  8
4
100
AcDbVertex
100
AcDb2dVertex
 10
993.9740608906063
 20
349.2144057456672
 30
0.0
  0
VERTEX
  5
665
330
64E
100
AcDbEntity
  8
4
100
AcDbVertex
100
AcDb2dVertex
 10
995.8513384906074
 20
349.2144057456672
 30
0.0
  0
VERTEX
  5
666
330
64E
100
AcDbEntity
  8
4
100
AcDbVertex
100
AcDb2dVertex
 10
995.8513384906074
 20
353.068640145667
 30
0.0
  0
VERTEX
  5
667
330
64E
100
AcDbEntity
  8
4
100
AcDbVertex
100
AcDb2dVertex
 10
995.8513384906074
 20
353.068640145667
 30
0.0
  0
SEQEND
  5
668
330
64E
100
AcDbEntity
  8
4
  0
POLYLINE
  5
669
330
1F
100
AcDbEntity
  8
4
100
AcDb2dPolyline
 66
     1
 10
0.0
 20
0.0
 30
0.0
  0
VERTEX
  5
66A
330
669
100
AcDbEntity
  8
4
100
AcDbVertex
100
AcDb2dVertex
 10
991.5283744906066
 20
359.5250085456671
 30
0.0
  0
VERTEX
  5
66B
330
669
100
AcDbEntity
  8
4
100
AcDbVertex
100
AcDb2dVertex
 10
991.4623480906069
 20
359.5228785456671
 30
0.0
  0
VERTEX
  5
66C
330
669
100
AcDbEntity
  8
4
100
AcDbVertex
100
AcDb2dVertex
 10
991.3963216906065
 20
359.5164885456672
 30
0.0
  0
VERTEX
  5
66D
330
669
100
AcDbEntity
  8
4
100
AcDbVertex
100
AcDb2dVertex
 10
991.3302952906066
 20
359.5079697456672
 30
0.0
  0
VERTEX
  5
66E
330
669
100
AcDbEntity
  8
4
100
AcDbVertex
100
AcDb2dVertex
 10
991.2642688906064
 20
359.4973197456671
 30
0.0
  0
VERTEX
  5
66F
330
669
100
AcDbEntity
  8
4
100
AcDbVertex
100
AcDb2dVertex
 10
991.2003724906064
 20
359.4824109456671
 30
0.0
  0
VERTEX
  5
670
330
669
100
AcDbEntity
  8
4
100
AcDbVertex
100
AcDb2dVertex
 10
991.1386060906067
 20
359.463242145667
 30
0.0
  0
VERTEX
  5
671
330
669
100
AcDbEntity
  8
4
100
AcDbVertex
100
AcDb2dVertex
 10
991.0768384906067
 20
359.4419433456671
 30
0.0
  0
VERTEX
  5
672
330
669
100
AcDbEntity
  8
4
100
AcDbVertex
100
AcDb2dVertex
 10
991.0172020906069
 20
359.4185145456669
 30
0.0
  0
VERTEX
  5
673
330
669
100
AcDbEntity
  8
4
100
AcDbVertex
100
AcDb2dVertex
 10
990.9596956906069
 20
359.3929557456672
 30
0.0
  0
VERTEX
  5
674
330
669
100
AcDbEntity
  8
4
100
AcDbVertex
100
AcDb2dVertex
 10
990.9021880906053
 20
359.363138145667
 30
0.0
  0
VERTEX
  5
675
330
669
100
AcDbEntity
  8
4
100
AcDbVertex
100
AcDb2dVertex
 10
990.846811690606
 20
359.331189345667
 30
0.0
  0
VERTEX
  5
676
330
669
100
AcDbEntity
  8
4
100
AcDbVertex
100
AcDb2dVertex
 10
990.7935640906067
 20
359.294981745667
 30
0.0
  0
VERTEX
  5
677
330
669
100
AcDbEntity
  8
4
100
AcDbVertex
100
AcDb2dVertex
 10
990.7424476906063
 20
359.2587729456671
 30
0.0
  0
VERTEX
  5
678
330
669
100
AcDbEntity
  8
4
100
AcDbVertex
100
AcDb2dVertex
 10
990.6913300906063
 20
359.218305345667
 30
0.0
  0
VERTEX
  5
679
330
669
100
AcDbEntity
  8
4
100
AcDbVertex
100
AcDb2dVertex
 10
990.6423424906057
 20
359.177837745667
 30
0.0
  0
VERTEX
  5
67A
330
669
100
AcDbEntity
  8
4
100
AcDbVertex
100
AcDb2dVertex
 10
990.5976160906067
 20
359.133110145667
 30
0.0
  0
VERTEX
  5
67B
330
669
100
AcDbEntity
  8
4
100
AcDbVertex
100
AcDb2dVertex
 10
990.5528884906068
 20
359.0862525456671
 30
0.0
  0
VERTEX
  5
67C
330
669
100
AcDbEntity
  8
4
100
AcDbVertex
100
AcDb2dVertex
 10
990.5124196906063
 20
359.0393961456673
 30
0.0
  0
VERTEX
  5
67D
330
669
100
AcDbEntity
  8
4
100
AcDbVertex
100
AcDb2dVertex
 10
990.4719520906066
 20
358.9882785456669
 30
0.0
  0
VERTEX
  5
67E
330
669
100
AcDbEntity
  8
4
100
AcDbVertex
100
AcDb2dVertex
 10
990.4357444906056
 20
358.9371609456672
 30
0.0
  0
VERTEX
  5
67F
330
669
100
AcDbEntity
  8
4
100
AcDbVertex
100
AcDb2dVertex
 10
990.3995368906064
 20
358.883914545667
 30
0.0
  0
VERTEX
  5
680
330
669
100
AcDbEntity
  8
4
100
AcDbVertex
100
AcDb2dVertex
 10
990.3675880906067
 20
358.8285369456673
 30
0.0
  0
VERTEX
  5
681
330
669
100
AcDbEntity
  8
4
100
AcDbVertex
100
AcDb2dVertex
 10
990.3377704906068
 20
358.771030545667
 30
0.0
  0
VERTEX
  5
682
330
669
100
AcDbEntity
  8
4
100
AcDbVertex
100
AcDb2dVertex
 10
990.3122116906068
 20
358.7135241456669
 30
0.0
  0
VERTEX
  5
683
330
669
100
AcDbEntity
  8
4
100
AcDbVertex
100
AcDb2dVertex
 10
990.2887828906058
 20
358.653886545667
 30
0.0
  0
VERTEX
  5
684
330
669
100
AcDbEntity
  8
4
100
AcDbVertex
100
AcDb2dVertex
 10
990.2674840906067
 20
358.5921201456669
 30
0.0
  0
VERTEX
  5
685
330
669
100
AcDbEntity
  8
4
100
AcDbVertex
100
AcDb2dVertex
 10
990.2483152906068
 20
358.5303537456671
 30
0.0
  0
VERTEX
  5
686
330
669
100
AcDbEntity
  8
4
100
AcDbVertex
100
AcDb2dVertex
 10
990.2334052906056
 20
358.4664573456668
 30
0.0
  0
VERTEX
  5
687
330
669
100
AcDbEntity
  8
4
100
AcDbVertex
100
AcDb2dVertex
 10
990.2227564906059
 20
358.4004309456671
 30
0.0
  0
VERTEX
  5
688
330
669
100
AcDbEntity
  8
4
100
AcDbVertex
100
AcDb2dVertex
 10
990.2142364906064
 20
358.3344045456669
 30
0.0
  0
VERTEX
  5
689
330
669
100
AcDbEntity
  8
4
100
AcDbVertex
100
AcDb2dVertex
 10
990.2078476906055
 20
358.2683781456671
 30
0.0
  0
VERTEX
  5
68A
330
669
100
AcDbEntity
  8
4
100
AcDbVertex
100
AcDb2dVertex
 10
990.2057176906067
 20
358.2023517456672
 30
0.0
  0
VERTEX
  5
68B
330
669
100
AcDbEntity
  8
4
100
AcDbVertex
100
AcDb2dVertex
 10
990.4996408906065
 20
358.2023517456672
 30
0.0
  0
VERTEX
  5
68C
330
669
100
AcDbEntity
  8
4
100
AcDbVertex
100
AcDb2dVertex
 10
990.4996408906065
 20
358.2534693456669
 30
0.0
  0
VERTEX
  5
68D
330
669
100
AcDbEntity
  8
4
100
AcDbVertex
100
AcDb2dVertex
 10
990.5039008906069
 20
358.3045857456672
 30
0.0
  0
VERTEX
  5
68E
330
669
100
AcDbEntity
  8
4
100
AcDbVertex
100
AcDb2dVertex
 10
990.5102908906068
 20
358.3557033456671
 30
0.0
  0
VERTEX
  5
68F
330
669
100
AcDbEntity
  8
4
100
AcDbVertex
100
AcDb2dVertex
 10
990.5209396906077
 20
358.4068209456674
 30
0.0
  0
VERTEX
  5
690
330
669
100
AcDbEntity
  8
4
100
AcDbVertex
100
AcDb2dVertex
 10
990.5315896906056
 20
358.4558073456672
 30
0.0
  0
VERTEX
  5
691
330
669
100
AcDbEntity
  8
4
100
AcDbVertex
100
AcDb2dVertex
 10
990.5464984906068
 20
358.5026649456671
 30
0.0
  0
VERTEX
  5
692
330
669
100
AcDbEntity
  8
4
100
AcDbVertex
100
AcDb2dVertex
 10
990.5614072906056
 20
358.5516525456671
 30
0.0
  0
VERTEX
  5
693
330
669
100
AcDbEntity
  8
4
100
AcDbVertex
100
AcDb2dVertex
 10
990.5805760906066
 20
358.5985101456671
 30
0.0
  0
VERTEX
  5
694
330
669
100
AcDbEntity
  8
4
100
AcDbVertex
100
AcDb2dVertex
 10
990.6018748906063
 20
358.6432377456671
 30
0.0
  0
VERTEX
  5
695
330
669
100
AcDbEntity
  8
4
100
AcDbVertex
100
AcDb2dVertex
 10
990.6253036906067
 20
358.6879653456671
 30
0.0
  0
VERTEX
  5
696
330
669
100
AcDbEntity
  8
4
100
AcDbVertex
100
AcDb2dVertex
 10
990.6508624906066
 20
358.730562945667
 30
0.0
  0
VERTEX
  5
697
330
669
100
AcDbEntity
  8
4
100
AcDbVertex
100
AcDb2dVertex
 10
990.6764212906066
 20
358.7731605456671
 30
0.0
  0
VERTEX
  5
698
330
669
100
AcDbEntity
  8
4
100
AcDbVertex
100
AcDb2dVertex
 10
990.7062388906075
 20
358.8136281456672
 30
0.0
  0
VERTEX
  5
699
330
669
100
AcDbEntity
  8
4
100
AcDbVertex
100
AcDb2dVertex
 10
990.7360576906063
 20
358.8519657456672
 30
0.0
  0
VERTEX
  5
69A
330
669
100
AcDbEntity
  8
4
100
AcDbVertex
100
AcDb2dVertex
 10
990.7701364906058
 20
358.890303345667
 30
0.0
  0
VERTEX
  5
69B
330
669
100
AcDbEntity
  8
4
100
AcDbVertex
100
AcDb2dVertex
 10
990.8042140906063
 20
358.9265121456672
 30
0.0
  0
VERTEX
  5
69C
330
669
100
AcDbEntity
  8
4
100
AcDbVertex
100
AcDb2dVertex
 10
990.8404216906058
 20
358.960589745667
 30
0.0
  0
VERTEX
  5
69D
330
669
100
AcDbEntity
  8
4
100
AcDbVertex
100
AcDb2dVertex
 10
990.8787604906066
 20
358.9925385456671
 30
0.0
  0
VERTEX
  5
69E
330
669
100
AcDbEntity
  8
4
100
AcDbVertex
100
AcDb2dVertex
 10
990.9170980906058
 20
359.024486145667
 30
0.0
  0
VERTEX
  5
69F
330
669
100
AcDbEntity
  8
4
100
AcDbVertex
100
AcDb2dVertex
 10
990.9575656906056
 20
359.0543049456671
 30
0.0
  0
VERTEX
  5
6A0
330
669
100
AcDbEntity
  8
4
100
AcDbVertex
100
AcDb2dVertex
 10
991.0001632906066
 20
359.0798637456671
 30
0.0
  0
VERTEX
  5
6A1
330
669
100
AcDbEntity
  8
4
100
AcDbVertex
100
AcDb2dVertex
 10
991.0427608906068
 20
359.1054213456672
 30
0.0
  0
VERTEX
  5
6A2
330
669
100
AcDbEntity
  8
4
100
AcDbVertex
100
AcDb2dVertex
 10
991.0874884906068
 20
359.128850145667
 30
0.0
  0
VERTEX
  5
6A3
330
669
100
AcDbEntity
  8
4
100
AcDbVertex
100
AcDb2dVertex
 10
991.1322160906067
 20
359.1501489456671
 30
0.0
  0
VERTEX
  5
6A4
330
669
100
AcDbEntity
  8
4
100
AcDbVertex
100
AcDb2dVertex
 10
991.1790736906066
 20
359.167188945667
 30
0.0
  0
VERTEX
  5
6A5
330
669
100
AcDbEntity
  8
4
100
AcDbVertex
100
AcDb2dVertex
 10
991.2259312906064
 20
359.1842277456673
 30
0.0
  0
VERTEX
  5
6A6
330
669
100
AcDbEntity
  8
4
100
AcDbVertex
100
AcDb2dVertex
 10
991.2749176906055
 20
359.1991365456672
 30
0.0
  0
VERTEX
  5
6A7
330
669
100
AcDbEntity
  8
4
100
AcDbVertex
100
AcDb2dVertex
 10
991.323905290606
 20
359.209786545667
 30
0.0
  0
VERTEX
  5
6A8
330
669
100
AcDbEntity
  8
4
100
AcDbVertex
100
AcDb2dVertex
 10
991.3750228906067
 20
359.220435345667
 30
0.0
  0
VERTEX
  5
6A9
330
669
100
AcDbEntity
  8
4
100
AcDbVertex
100
AcDb2dVertex
 10
991.4261392906066
 20
359.2268253456672
 30
0.0
  0
VERTEX
  5
6AA
330
669
100
AcDbEntity
  8
4
100
AcDbVertex
100
AcDb2dVertex
 10
991.4772568906066
 20
359.2310853456671
 30
0.0
  0
VERTEX
  5
6AB
330
669
100
AcDbEntity
  8
4
100
AcDbVertex
100
AcDb2dVertex
 10
991.5283744906066
 20
359.2310853456671
 30
0.0
  0
VERTEX
  5
6AC
330
669
100
AcDbEntity
  8
4
100
AcDbVertex
100
AcDb2dVertex
 10
991.5283744906066
 20
359.5250085456671
 30
0.0
  0
VERTEX
  5
6AD
330
669
100
AcDbEntity
  8
4
100
AcDbVertex
100
AcDb2dVertex
 10
991.5283744906066
 20
359.5250085456671
 30
0.0
  0
SEQEND
  5
6AE
330
669
100
AcDbEntity
  8
4
  0
POLYLINE
  5
6AF
330
1F
100
AcDbEntity
  8
4
100
AcDb2dPolyline
 66
     1
 10
0.0
 20
0.0
 30
0.0
  0
VERTEX
  5
6B0
330
6AF
100
AcDbEntity
  8
4
100
AcDbVertex
100
AcDb2dVertex
 10
990.2057176906067
 20
358.2023517456672
 30
0.0
  0
VERTEX
  5
6B1
330
6AF
100
AcDbEntity
  8
4
100
AcDbVertex
100
AcDb2dVertex
 10
990.2057176906067
 20
347.938450545667
 30
0.0
  0
VERTEX
  5
6B2
330
6AF
100
AcDbEntity
  8
4
100
AcDbVertex
100
AcDb2dVertex
 10
990.4996408906065
 20
347.938450545667
 30
0.0
  0
VERTEX
  5
6B3
330
6AF
100
AcDbEntity
  8
4
100
AcDbVertex
100
AcDb2dVertex
 10
990.4996408906065
 20
358.2023517456672
 30
0.0
  0
VERTEX
  5
6B4
330
6AF
100
AcDbEntity
  8
4
100
AcDbVertex
100
AcDb2dVertex
 10
990.2057176906067
 20
358.2023517456672
 30
0.0
  0
VERTEX
  5
6B5
330
6AF
100
AcDbEntity
  8
4
100
AcDbVertex
100
AcDb2dVertex
 10
990.2057176906067
 20
358.2023517456672
 30
0.0
  0
SEQEND
  5
6B6
330
6AF
100
AcDbEntity
  8
4
  0
POLYLINE
  5
6B7
330
1F
100
AcDbEntity
  8
4
100
AcDb2dPolyline
 66
     1
 10
0.0
 20
0.0
 30
0.0
  0
VERTEX
  5
6B8
330
6B7
100
AcDbEntity
  8
4
100
AcDbVertex
100
AcDb2dVertex
 10
990.2057176906067
 20
347.938450545667
 30
0.0
  0
VERTEX
  5
6B9
330
6B7
100
AcDbEntity
  8
4
100
AcDbVertex
100
AcDb2dVertex
 10
990.2078476906055
 20
347.872424145667
 30
0.0
  0
VERTEX
  5
6BA
330
6B7
100
AcDbEntity
  8
4
100
AcDbVertex
100
AcDb2dVertex
 10
990.2142364906064
 20
347.8063977456671
 30
0.0
  0
VERTEX
  5
6BB
330
6B7
100
AcDbEntity
  8
4
100
AcDbVertex
100
AcDb2dVertex
 10
990.2227564906059
 20
347.7403713456671
 30
0.0
  0
VERTEX
  5
6BC
330
6B7
100
AcDbEntity
  8
4
100
AcDbVertex
100
AcDb2dVertex
 10
990.2334052906056
 20
347.6764749456669
 30
0.0
  0
VERTEX
  5
6BD
330
6B7
100
AcDbEntity
  8
4
100
AcDbVertex
100
AcDb2dVertex
 10
990.2483152906068
 20
347.6125785456671
 30
0.0
  0
VERTEX
  5
6BE
330
6B7
100
AcDbEntity
  8
4
100
AcDbVertex
100
AcDb2dVertex
 10
990.2674840906067
 20
347.5508121456672
 30
0.0
  0
VERTEX
  5
6BF
330
6B7
100
AcDbEntity
  8
4
100
AcDbVertex
100
AcDb2dVertex
 10
990.2887828906058
 20
347.4890457456671
 30
0.0
  0
VERTEX
  5
6C0
330
6B7
100
AcDbEntity
  8
4
100
AcDbVertex
100
AcDb2dVertex
 10
990.3122116906068
 20
347.4294093456668
 30
0.0
  0
VERTEX
  5
6C1
330
6B7
100
AcDbEntity
  8
4
100
AcDbVertex
100
AcDb2dVertex
 10
990.3398992906064
 20
347.3719017456672
 30
0.0
  0
VERTEX
  5
6C2
330
6B7
100
AcDbEntity
  8
4
100
AcDbVertex
100
AcDb2dVertex
 10
990.369718090606
 20
347.3143953456672
 30
0.0
  0
VERTEX
  5
6C3
330
6B7
100
AcDbEntity
  8
4
100
AcDbVertex
100
AcDb2dVertex
 10
990.4016668906066
 20
347.2611477456671
 30
0.0
  0
VERTEX
  5
6C4
330
6B7
100
AcDbEntity
  8
4
100
AcDbVertex
100
AcDb2dVertex
 10
990.4357444906056
 20
347.207901345667
 30
0.0
  0
VERTEX
  5
6C5
330
6B7
100
AcDbEntity
  8
4
100
AcDbVertex
100
AcDb2dVertex
 10
990.4719520906066
 20
347.156783745667
 30
0.0
  0
VERTEX
  5
6C6
330
6B7
100
AcDbEntity
  8
4
100
AcDbVertex
100
AcDb2dVertex
 10
990.5124196906063
 20
347.1077961456672
 30
0.0
  0
VERTEX
  5
6C7
330
6B7
100
AcDbEntity
  8
4
100
AcDbVertex
100
AcDb2dVertex
 10
990.5550172906066
 20
347.0588097456671
 30
0.0
  0
VERTEX
  5
6C8
330
6B7
100
AcDbEntity
  8
4
100
AcDbVertex
100
AcDb2dVertex
 10
990.5976160906067
 20
347.014082145667
 30
0.0
  0
VERTEX
  5
6C9
330
6B7
100
AcDbEntity
  8
4
100
AcDbVertex
100
AcDb2dVertex
 10
990.6444724906066
 20
346.9714845456669
 30
0.0
  0
VERTEX
  5
6CA
330
6B7
100
AcDbEntity
  8
4
100
AcDbVertex
100
AcDb2dVertex
 10
990.6934600906057
 20
346.9288869456672
 30
0.0
  0
VERTEX
  5
6CB
330
6B7
100
AcDbEntity
  8
4
100
AcDbVertex
100
AcDb2dVertex
 10
990.7424476906063
 20
346.8905481456672
 30
0.0
  0
VERTEX
  5
6CC
330
6B7
100
AcDbEntity
  8
4
100
AcDbVertex
100
AcDb2dVertex
 10
990.7935640906067
 20
346.8543405456672
 30
0.0
  0
VERTEX
  5
6CD
330
6B7
100
AcDbEntity
  8
4
100
AcDbVertex
100
AcDb2dVertex
 10
990.8489416906077
 20
346.8202629456671
 30
0.0
  0
VERTEX
  5
6CE
330
6B7
100
AcDbEntity
  8
4
100
AcDbVertex
100
AcDb2dVertex
 10
990.9021880906053
 20
346.7883141456669
 30
0.0
  0
VERTEX
  5
6CF
330
6B7
100
AcDbEntity
  8
4
100
AcDbVertex
100
AcDb2dVertex
 10
990.9596956906069
 20
346.7606253456671
 30
0.0
  0
VERTEX
  5
6D0
330
6B7
100
AcDbEntity
  8
4
100
AcDbVertex
100
AcDb2dVertex
 10
991.0193320906058
 20
346.7329377456672
 30
0.0
  0
VERTEX
  5
6D1
330
6B7
100
AcDbEntity
  8
4
100
AcDbVertex
100
AcDb2dVertex
 10
991.0789684906056
 20
346.7116389456672
 30
0.0
  0
VERTEX
  5
6D2
330
6B7
100
AcDbEntity
  8
4
100
AcDbVertex
100
AcDb2dVertex
 10
991.1407348906063
 20
346.6903401456672
 30
0.0
  0
VERTEX
  5
6D3
330
6B7
100
AcDbEntity
  8
4
100
AcDbVertex
100
AcDb2dVertex
 10
991.2025024906059
 20
346.6711713456671
 30
0.0
  0
VERTEX
  5
6D4
330
6B7
100
AcDbEntity
  8
4
100
AcDbVertex
100
AcDb2dVertex
 10
991.2663988906068
 20
346.6583913456671
 30
0.0
  0
VERTEX
  5
6D5
330
6B7
100
AcDbEntity
  8
4
100
AcDbVertex
100
AcDb2dVertex
 10
991.3302952906066
 20
346.645612545667
 30
0.0
  0
VERTEX
  5
6D6
330
6B7
100
AcDbEntity
  8
4
100
AcDbVertex
100
AcDb2dVertex
 10
991.3963216906065
 20
346.6392225456671
 30
0.0
  0
VERTEX
  5
6D7
330
6B7
100
AcDbEntity
  8
4
100
AcDbVertex
100
AcDb2dVertex
 10
991.4623480906069
 20
346.6328325456672
 30
0.0
  0
VERTEX
  5
6D8
330
6B7
100
AcDbEntity
  8
4
100
AcDbVertex
100
AcDb2dVertex
 10
991.5283744906066
 20
346.630702545667
 30
0.0
  0
VERTEX
  5
6D9
330
6B7
100
AcDbEntity
  8
4
100
AcDbVertex
100
AcDb2dVertex
 10
991.5283744906066
 20
346.9246269456672
 30
0.0
  0
VERTEX
  5
6DA
330
6B7
100
AcDbEntity
  8
4
100
AcDbVertex
100
AcDb2dVertex
 10
991.4772568906066
 20
346.9246269456672
 30
0.0
  0
VERTEX
  5
6DB
330
6B7
100
AcDbEntity
  8
4
100
AcDbVertex
100
AcDb2dVertex
 10
991.4240092906052
 20
346.9288869456672
 30
0.0
  0
VERTEX
  5
6DC
330
6B7
100
AcDbEntity
  8
4
100
AcDbVertex
100
AcDb2dVertex
 10
991.3728928906067
 20
346.9352757456673
 30
0.0
  0
VERTEX
  5
6DD
330
6B7
100
AcDbEntity
  8
4
100
AcDbVertex
100
AcDb2dVertex
 10
991.323905290606
 20
346.9437957456673
 30
0.0
  0
VERTEX
  5
6DE
330
6B7
100
AcDbEntity
  8
4
100
AcDbVertex
100
AcDb2dVertex
 10
991.2749176906055
 20
346.9565745456669
 30
0.0
  0
VERTEX
  5
6DF
330
6B7
100
AcDbEntity
  8
4
100
AcDbVertex
100
AcDb2dVertex
 10
991.2259312906064
 20
346.9693545456672
 30
0.0
  0
VERTEX
  5
6E0
330
6B7
100
AcDbEntity
  8
4
100
AcDbVertex
100
AcDb2dVertex
 10
991.1790736906066
 20
346.9863933456669
 30
0.0
  0
VERTEX
  5
6E1
330
6B7
100
AcDbEntity
  8
4
100
AcDbVertex
100
AcDb2dVertex
 10
991.1322160906067
 20
347.0034321456671
 30
0.0
  0
VERTEX
  5
6E2
330
6B7
100
AcDbEntity
  8
4
100
AcDbVertex
100
AcDb2dVertex
 10
991.0853584906064
 20
347.0247309456671
 30
0.0
  0
VERTEX
  5
6E3
330
6B7
100
AcDbEntity
  8
4
100
AcDbVertex
100
AcDb2dVertex
 10
991.0427608906068
 20
347.0460297456669
 30
0.0
  0
VERTEX
  5
6E4
330
6B7
100
AcDbEntity
  8
4
100
AcDbVertex
100
AcDb2dVertex
 10
990.9980332906068
 20
347.0715885456672
 30
0.0
  0
VERTEX
  5
6E5
330
6B7
100
AcDbEntity
  8
4
100
AcDbVertex
100
AcDb2dVertex
 10
990.9575656906056
 20
347.0992773456671
 30
0.0
  0
VERTEX
  5
6E6
330
6B7
100
AcDbEntity
  8
4
100
AcDbVertex
100
AcDb2dVertex
 10
990.9149680906066
 20
347.1269661456672
 30
0.0
  0
VERTEX
  5
6E7
330
6B7
100
AcDbEntity
  8
4
100
AcDbVertex
100
AcDb2dVertex
 10
990.8766304906068
 20
347.156783745667
 30
0.0
  0
VERTEX
  5
6E8
330
6B7
100
AcDbEntity
  8
4
100
AcDbVertex
100
AcDb2dVertex
 10
990.8382916906067
 20
347.1887325456672
 30
0.0
  0
VERTEX
  5
6E9
330
6B7
100
AcDbEntity
  8
4
100
AcDbVertex
100
AcDb2dVertex
 10
990.8042140906063
 20
347.2228101456669
 30
0.0
  0
VERTEX
  5
6EA
330
6B7
100
AcDbEntity
  8
4
100
AcDbVertex
100
AcDb2dVertex
 10
990.7680064906056
 20
347.259017745667
 30
0.0
  0
VERTEX
  5
6EB
330
6B7
100
AcDbEntity
  8
4
100
AcDbVertex
100
AcDb2dVertex
 10
990.7360576906063
 20
347.2952265456671
 30
0.0
  0
VERTEX
  5
6EC
330
6B7
100
AcDbEntity
  8
4
100
AcDbVertex
100
AcDb2dVertex
 10
990.7062388906075
 20
347.333564145667
 30
0.0
  0
VERTEX
  5
6ED
330
6B7
100
AcDbEntity
  8
4
100
AcDbVertex
100
AcDb2dVertex
 10
990.6764212906066
 20
347.3740317456672
 30
0.0
  0
VERTEX
  5
6EE
330
6B7
100
AcDbEntity
  8
4
100
AcDbVertex
100
AcDb2dVertex
 10
990.6487324906068
 20
347.4144993456671
 30
0.0
  0
VERTEX
  5
6EF
330
6B7
100
AcDbEntity
  8
4
100
AcDbVertex
100
AcDb2dVertex
 10
990.6231736906059
 20
347.4570969456672
 30
0.0
  0
VERTEX
  5
6F0
330
6B7
100
AcDbEntity
  8
4
100
AcDbVertex
100
AcDb2dVertex
 10
990.6018748906063
 20
347.501824545667
 30
0.0
  0
VERTEX
  5
6F1
330
6B7
100
AcDbEntity
  8
4
100
AcDbVertex
100
AcDb2dVertex
 10
990.5805760906066
 20
347.5444221456671
 30
0.0
  0
VERTEX
  5
6F2
330
6B7
100
AcDbEntity
  8
4
100
AcDbVertex
100
AcDb2dVertex
 10
990.5614072906056
 20
347.5912797456671
 30
0.0
  0
VERTEX
  5
6F3
330
6B7
100
AcDbEntity
  8
4
100
AcDbVertex
100
AcDb2dVertex
 10
990.5443684906057
 20
347.6381373456671
 30
0.0
  0
VERTEX
  5
6F4
330
6B7
100
AcDbEntity
  8
4
100
AcDbVertex
100
AcDb2dVertex
 10
990.5315896906056
 20
347.6871249456669
 30
0.0
  0
VERTEX
  5
6F5
330
6B7
100
AcDbEntity
  8
4
100
AcDbVertex
100
AcDb2dVertex
 10
990.5209396906077
 20
347.7361113456671
 30
0.0
  0
VERTEX
  5
6F6
330
6B7
100
AcDbEntity
  8
4
100
AcDbVertex
100
AcDb2dVertex
 10
990.5102908906068
 20
347.7850989456671
 30
0.0
  0
VERTEX
  5
6F7
330
6B7
100
AcDbEntity
  8
4
100
AcDbVertex
100
AcDb2dVertex
 10
990.5039008906069
 20
347.8362165456671
 30
0.0
  0
VERTEX
  5
6F8
330
6B7
100
AcDbEntity
  8
4
100
AcDbVertex
100
AcDb2dVertex
 10
990.4996408906065
 20
347.887332945667
 30
0.0
  0
VERTEX
  5
6F9
330
6B7
100
AcDbEntity
  8
4
100
AcDbVertex
100
AcDb2dVertex
 10
990.4996408906065
 20
347.938450545667
 30
0.0
  0
VERTEX
  5
6FA
330
6B7
100
AcDbEntity
  8
4
100
AcDbVertex
100
AcDb2dVertex
 10
990.2057176906067
 20
347.938450545667
 30
0.0
  0
VERTEX
  5
6FB
330
6B7
100
AcDbEntity
  8
4
100
AcDbVertex
100
AcDb2dVertex
 10
990.2057176906067
 20
347.938450545667
 30
0.0
  0
SEQEND
  5
6FC
330
6B7
100
AcDbEntity
  8
4
  0
POLYLINE
  5
6FD
330
1F
100
AcDbEntity
  8
4
100
AcDb2dPolyline
 66
     1
 10
0.0
 20
0.0
 30
0.0
  0
VERTEX
  5
6FE
330
6FD
100
AcDbEntity
  8
4
100
AcDbVertex
100
AcDb2dVertex
 10
1002.435655690605
 20
351.5596197456669
 30
0.0
  0
VERTEX
  5
6FF
330
6FD
100
AcDbEntity
  8
4
100
AcDbVertex
100
AcDb2dVertex
 10
1002.435655690605
 20
349.6601901456669
 30
0.0
  0
VERTEX
  5
700
330
6FD
100
AcDbEntity
  8
4
100
AcDbVertex
100
AcDb2dVertex
 10
1002.299982490606
 20
349.582662945667
 30
0.0
  0
VERTEX
  5
701
330
6FD
100
AcDbEntity
  8
4
100
AcDbVertex
100
AcDb2dVertex
 10
1001.873580490606
 20
349.388843745667
 30
0.0
  0
VERTEX
  5
702
330
6FD
100
AcDbEntity
  8
4
100
AcDbVertex
100
AcDb2dVertex
 10
1001.563469290607
 20
349.2919341456672
 30
0.0
  0
VERTEX
  5
703
330
6FD
100
AcDbEntity
  8
4
100
AcDbVertex
100
AcDb2dVertex
 10
1001.214594490607
 20
349.2144057456672
 30
0.0
  0
VERTEX
  5
704
330
6FD
100
AcDbEntity
  8
4
100
AcDbVertex
100
AcDb2dVertex
 10
1000.807573690607
 20
349.1562609456672
 30
0.0
  0
VERTEX
  5
705
330
6FD
100
AcDbEntity
  8
4
100
AcDbVertex
100
AcDb2dVertex
 10
1000.361789290606
 20
349.136878545667
 30
0.0
  0
VERTEX
  5
706
330
6FD
100
AcDbEntity
  8
4
100
AcDbVertex
100
AcDb2dVertex
 10
1000.035065290606
 20
349.136878545667
 30
0.0
  0
VERTEX
  5
707
330
6FD
100
AcDbEntity
  8
4
100
AcDbVertex
100
AcDb2dVertex
 10
999.7055728906056
 20
349.1756421456671
 30
0.0
  0
VERTEX
  5
708
330
6FD
100
AcDbEntity
  8
4
100
AcDbVertex
100
AcDb2dVertex
 10
999.3954616906064
 20
349.253170545667
 30
0.0
  0
VERTEX
  5
709
330
6FD
100
AcDbEntity
  8
4
100
AcDbVertex
100
AcDb2dVertex
 10
999.0659692906058
 20
349.3306977456671
 30
0.0
  0
VERTEX
  5
70A
330
6FD
100
AcDbEntity
  8
4
100
AcDbVertex
100
AcDb2dVertex
 10
998.7752404906055
 20
349.4469897456671
 30
0.0
  0
VERTEX
  5
70B
330
6FD
100
AcDbEntity
  8
4
100
AcDbVertex
100
AcDb2dVertex
 10
998.4845116906063
 20
349.6020441456671
 30
0.0
  0
VERTEX
  5
70C
330
6FD
100
AcDbEntity
  8
4
100
AcDbVertex
100
AcDb2dVertex
 10
998.2131652906064
 20
349.7570997456673
 30
0.0
  0
VERTEX
  5
70D
330
6FD
100
AcDbEntity
  8
4
100
AcDbVertex
100
AcDb2dVertex
 10
997.9418176906069
 20
349.950918945667
 30
0.0
  0
VERTEX
  5
70E
330
6FD
100
AcDbEntity
  8
4
100
AcDbVertex
100
AcDb2dVertex
 10
997.7092348906063
 20
350.1835029456671
 30
0.0
  0
VERTEX
  5
70F
330
6FD
100
AcDbEntity
  8
4
100
AcDbVertex
100
AcDb2dVertex
 10
997.4988016906065
 20
350.435466945667
 30
0.0
  0
VERTEX
  5
710
330
6FD
100
AcDbEntity
  8
4
100
AcDbVertex
100
AcDb2dVertex
 10
997.3243648906066
 20
350.7068145456671
 30
0.0
  0
VERTEX
  5
711
330
6FD
100
AcDbEntity
  8
4
100
AcDbVertex
100
AcDb2dVertex
 10
997.1693092906066
 20
350.9975433456672
 30
0.0
  0
VERTEX
  5
712
330
6FD
100
AcDbEntity
  8
4
100
AcDbVertex
100
AcDb2dVertex
 10
997.0336360906063
 20
351.327035745667
 30
0.0
  0
VERTEX
  5
713
330
6FD
100
AcDbEntity
  8
4
100
AcDbVertex
100
AcDb2dVertex
 10
996.9367264906056
 20
351.6759105456671
 30
0.0
  0
VERTEX
  5
714
330
6FD
100
AcDbEntity
  8
4
100
AcDbVertex
100
AcDb2dVertex
 10
996.8785804906069
 20
352.0413981456671
 30
0.0
  0
VERTEX
  5
715
330
6FD
100
AcDbEntity
  8
4
100
AcDbVertex
100
AcDb2dVertex
 10
996.8591992906064
 20
352.4484189456669
 30
0.0
  0
VERTEX
  5
716
330
6FD
100
AcDbEntity
  8
4
100
AcDbVertex
100
AcDb2dVertex
 10
996.9173440906068
 20
352.9911129456672
 30
0.0
  0
VERTEX
  5
717
330
6FD
100
AcDbEntity
  8
4
100
AcDbVertex
100
AcDb2dVertex
 10
997.0530184906067
 20
353.5144245456671
 30
0.0
  0
VERTEX
  5
718
330
6FD
100
AcDbEntity
  8
4
100
AcDbVertex
100
AcDb2dVertex
 10
997.1499280906066
 20
353.7663897456669
 30
0.0
  0
VERTEX
  5
719
330
6FD
100
AcDbEntity
  8
4
100
AcDbVertex
100
AcDb2dVertex
 10
997.2856012906063
 20
354.018354945667
 30
0.0
  0
VERTEX
  5
71A
330
6FD
100
AcDbEntity
  8
4
100
AcDbVertex
100
AcDb2dVertex
 10
997.4212744906063
 20
354.2509377456672
 30
0.0
  0
VERTEX
  5
71B
330
6FD
100
AcDbEntity
  8
4
100
AcDbVertex
100
AcDb2dVertex
 10
997.5929428906068
 20
354.4613709456672
 30
0.0
  0
VERTEX
  5
71C
330
6FD
100
AcDbEntity
  8
4
100
AcDbVertex
100
AcDb2dVertex
 10
997.8061444906067
 20
354.6551901456671
 30
0.0
  0
VERTEX
  5
71D
330
6FD
100
AcDbEntity
  8
4
100
AcDbVertex
100
AcDb2dVertex
 10
998.0193448906067
 20
354.8490093456671
 30
0.0
  0
VERTEX
  5
71E
330
6FD
100
AcDbEntity
  8
4
100
AcDbVertex
100
AcDb2dVertex
 10
998.2519288906065
 20
355.004064945667
 30
0.0
  0
VERTEX
  5
71F
330
6FD
100
AcDbEntity
  8
4
100
AcDbVertex
100
AcDb2dVertex
 10
998.5232752906055
 20
355.1397381456672
 30
0.0
  0
VERTEX
  5
720
330
6FD
100
AcDbEntity
  8
4
100
AcDbVertex
100
AcDb2dVertex
 10
998.8140040906067
 20
355.256028945667
 30
0.0
  0
VERTEX
  5
721
330
6FD
100
AcDbEntity
  8
4
100
AcDbVertex
100
AcDb2dVertex
 10
999.1241152906066
 20
355.3335573456671
 30
0.0
  0
VERTEX
  5
722
330
6FD
100
AcDbEntity
  8
4
100
AcDbVertex
100
AcDb2dVertex
 10
999.4536076906058
 20
355.391703345667
 30
0.0
  0
VERTEX
  5
723
330
6FD
100
AcDbEntity
  8
4
100
AcDbVertex
100
AcDb2dVertex
 10
999.8218648906075
 20
355.411084545667
 30
0.0
  0
VERTEX
  5
724
330
6FD
100
AcDbEntity
  8
4
100
AcDbVertex
100
AcDb2dVertex
 10
1000.325794090606
 20
355.3723209456671
 30
0.0
  0
VERTEX
  5
725
330
6FD
100
AcDbEntity
  8
4
100
AcDbVertex
100
AcDb2dVertex
 10
1000.807573690607
 20
355.2366477456671
 30
0.0
  0
VERTEX
  5
726
330
6FD
100
AcDbEntity
  8
4
100
AcDbVertex
100
AcDb2dVertex
 10
1001.253358090606
 20
355.0428285456671
 30
0.0
  0
VERTEX
  5
727
330
6FD
100
AcDbEntity
  8
4
100
AcDbVertex
100
AcDb2dVertex
 10
1001.660378890605
 20
354.7908633456672
 30
0.0
  0
VERTEX
  5
728
330
6FD
100
AcDbEntity
  8
4
100
AcDbVertex
100
AcDb2dVertex
 10
1002.028634890607
 20
354.4807521456672
 30
0.0
  0
VERTEX
  5
729
330
6FD
100
AcDbEntity
  8
4
100
AcDbVertex
100
AcDb2dVertex
 10
1002.319363690606
 20
354.1540281456669
 30
0.0
  0
VERTEX
  5
72A
330
6FD
100
AcDbEntity
  8
4
100
AcDbVertex
100
AcDb2dVertex
 10
1002.571328890606
 20
353.7663897456669
 30
0.0
  0
VERTEX
  5
72B
330
6FD
100
AcDbEntity
  8
4
100
AcDbVertex
100
AcDb2dVertex
 10
1002.745766890606
 20
353.3787513456671
 30
0.0
  0
VERTEX
  5
72C
330
6FD
100
AcDbEntity
  8
4
100
AcDbVertex
100
AcDb2dVertex
 10
999.8606284906063
 20
350.8618701456669
 30
0.0
  0
VERTEX
  5
72D
330
6FD
100
AcDbEntity
  8
4
100
AcDbVertex
100
AcDb2dVertex
 10
999.9769204906058
 20
350.842487745667
 30
0.0
  0
VERTEX
  5
72E
330
6FD
100
AcDbEntity
  8
4
100
AcDbVertex
100
AcDb2dVertex
 10
1000.248266890606
 20
350.7843417456672
 30
0.0
  0
VERTEX
  5
72F
330
6FD
100
AcDbEntity
  8
4
100
AcDbVertex
100
AcDb2dVertex
 10
1000.633136890606
 20
350.7843417456672
 30
0.0
  0
VERTEX
  5
730
330
6FD
100
AcDbEntity
  8
4
100
AcDbVertex
100
AcDb2dVertex
 10
1000.865719690607
 20
350.8037241456672
 30
0.0
  0
VERTEX
  5
731
330
6FD
100
AcDbEntity
  8
4
100
AcDbVertex
100
AcDb2dVertex
 10
1001.098302490606
 20
350.8618701456669
 30
0.0
  0
VERTEX
  5
732
330
6FD
100
AcDbEntity
  8
4
100
AcDbVertex
100
AcDb2dVertex
 10
1001.582850490605
 20
351.036306945667
 30
0.0
  0
VERTEX
  5
733
330
6FD
100
AcDbEntity
  8
4
100
AcDbVertex
100
AcDb2dVertex
 10
1002.009253690606
 20
351.2688897456672
 30
0.0
  0
VERTEX
  5
734
330
6FD
100
AcDbEntity
  8
4
100
AcDbVertex
100
AcDb2dVertex
 10
1002.435655690605
 20
351.5596197456669
 30
0.0
  0
VERTEX
  5
735
330
6FD
100
AcDbEntity
  8
4
100
AcDbVertex
100
AcDb2dVertex
 10
1002.435655690605
 20
351.5596197456669
 30
0.0
  0
SEQEND
  5
736
330
6FD
100
AcDbEntity
  8
4
  0
POLYLINE
  5
737
330
1F
100
AcDbEntity
  8
4
100
AcDb2dPolyline
 66
     1
 10
0.0
 20
0.0
 30
0.0
  0
VERTEX
  5
738
330
737
100
AcDbEntity
  8
4
100
AcDbVertex
100
AcDb2dVertex
 10
998.6977132906066
 20
351.9832521456673
 30
0.0
  0
VERTEX
  5
739
330
737
100
AcDbEntity
  8
4
100
AcDbVertex
100
AcDb2dVertex
 10
1000.574990890606
 20
353.553188145667
 30
0.0
  0
VERTEX
  5
73A
330
737
100
AcDbEntity
  8
4
100
AcDbVertex
100
AcDb2dVertex
 10
1000.439317690606
 20
353.6307165456671
 30
0.0
  0
VERTEX
  5
73B
330
737
100
AcDbEntity
  8
4
100
AcDbVertex
100
AcDb2dVertex
 10
1000.287030490605
 20
353.7082437456671
 30
0.0
  0
VERTEX
  5
73C
330
737
100
AcDbEntity
  8
4
100
AcDbVertex
100
AcDb2dVertex
 10
1000.073830090606
 20
353.7663897456669
 30
0.0
  0
VERTEX
  5
73D
330
737
100
AcDbEntity
  8
4
100
AcDbVertex
100
AcDb2dVertex
 10
999.8412460906067
 20
353.8051533456672
 30
0.0
  0
VERTEX
  5
73E
330
737
100
AcDbEntity
  8
4
100
AcDbVertex
100
AcDb2dVertex
 10
999.5698996906064
 20
353.7857721456671
 30
0.0
  0
VERTEX
  5
73F
330
737
100
AcDbEntity
  8
4
100
AcDbVertex
100
AcDb2dVertex
 10
999.2791708906059
 20
353.6888625456672
 30
0.0
  0
VERTEX
  5
740
330
737
100
AcDbEntity
  8
4
100
AcDbVertex
100
AcDb2dVertex
 10
999.0078232906064
 20
353.4950433456672
 30
0.0
  0
VERTEX
  5
741
330
737
100
AcDbEntity
  8
4
100
AcDbVertex
100
AcDb2dVertex
 10
998.7752404906055
 20
353.2236957456669
 30
0.0
  0
VERTEX
  5
742
330
737
100
AcDbEntity
  8
4
100
AcDbVertex
100
AcDb2dVertex
 10
998.6395672906056
 20
352.9523493456669
 30
0.0
  0
VERTEX
  5
743
330
737
100
AcDbEntity
  8
4
100
AcDbVertex
100
AcDb2dVertex
 10
998.5814212906069
 20
352.7003841456671
 30
0.0
  0
VERTEX
  5
744
330
737
100
AcDbEntity
  8
4
100
AcDbVertex
100
AcDb2dVertex
 10
998.5620388906063
 20
352.4678013456672
 30
0.0
  0
VERTEX
  5
745
330
737
100
AcDbEntity
  8
4
100
AcDbVertex
100
AcDb2dVertex
 10
998.6008036906056
 20
352.2739821456672
 30
0.0
  0
VERTEX
  5
746
330
737
100
AcDbEntity
  8
4
100
AcDbVertex
100
AcDb2dVertex
 10
998.6395672906056
 20
352.1189265456672
 30
0.0
  0
VERTEX
  5
747
330
737
100
AcDbEntity
  8
4
100
AcDbVertex
100
AcDb2dVertex
 10
998.6977132906066
 20
351.9832521456673
 30
0.0
  0
VERTEX
  5
748
330
737
100
AcDbEntity
  8
4
100
AcDbVertex
100
AcDb2dVertex
 10
998.6977132906066
 20
351.9832521456673
 30
0.0
  0
SEQEND
  5
749
330
737
100
AcDbEntity
  8
4
  0
POLYLINE
  5
74A
330
1F
100
AcDbEntity
  8
4
100
AcDb2dPolyline
 66
     1
 10
0.0
 20
0.0
 30
0.0
  0
VERTEX
  5
74B
330
74A
100
AcDbEntity
  8
4
100
AcDbVertex
100
AcDb2dVertex
 10
1003.150018090606
 20
349.2337881456668
 30
0.0
  0
VERTEX
  5
74C
330
74A
100
AcDbEntity
  8
4
100
AcDbVertex
100
AcDb2dVertex
 10
1003.150018090606
 20
355.9150149456669
 30
0.0
  0
VERTEX
  5
74D
330
74A
100
AcDbEntity
  8
4
100
AcDbVertex
100
AcDb2dVertex
 10
1003.169400490606
 20
356.1669801456671
 30
0.0
  0
VERTEX
  5
74E
330
74A
100
AcDbEntity
  8
4
100
AcDbVertex
100
AcDb2dVertex
 10
1003.246927690606
 20
356.4577089456671
 30
0.0
  0
VERTEX
  5
74F
330
74A
100
AcDbEntity
  8
4
100
AcDbVertex
100
AcDb2dVertex
 10
1003.401983290606
 20
356.7678201456672
 30
0.0
  0
VERTEX
  5
750
330
74A
100
AcDbEntity
  8
4
100
AcDbVertex
100
AcDb2dVertex
 10
1003.498892890605
 20
356.922874545667
 30
0.0
  0
VERTEX
  5
751
330
74A
100
AcDbEntity
  8
4
100
AcDbVertex
100
AcDb2dVertex
 10
1003.634566090605
 20
357.0779301456671
 30
0.0
  0
VERTEX
  5
752
330
74A
100
AcDbEntity
  8
4
100
AcDbVertex
100
AcDb2dVertex
 10
1003.809004090606
 20
357.2108349456669
 30
0.0
  0
VERTEX
  5
753
330
74A
100
AcDbEntity
  8
4
100
AcDbVertex
100
AcDb2dVertex
 10
1004.002823290607
 20
357.3465081456672
 30
0.0
  0
VERTEX
  5
754
330
74A
100
AcDbEntity
  8
4
100
AcDbVertex
100
AcDb2dVertex
 10
1004.254788490607
 20
357.4434177456671
 30
0.0
  0
VERTEX
  5
755
330
74A
100
AcDbEntity
  8
4
100
AcDbVertex
100
AcDb2dVertex
 10
1004.545517290607
 20
357.5403273456672
 30
0.0
  0
VERTEX
  5
756
330
74A
100
AcDbEntity
  8
4
100
AcDbVertex
100
AcDb2dVertex
 10
1004.875009690607
 20
357.5984733456671
 30
0.0
  0
VERTEX
  5
757
330
74A
100
AcDbEntity
  8
4
100
AcDbVertex
100
AcDb2dVertex
 10
1005.243265690606
 20
357.6178557456673
 30
0.0
  0
VERTEX
  5
758
330
74A
100
AcDbEntity
  8
4
100
AcDbVertex
100
AcDb2dVertex
 10
1005.938246890606
 20
357.6178557456673
 30
0.0
  0
VERTEX
  5
759
330
74A
100
AcDbEntity
  8
4
100
AcDbVertex
100
AcDb2dVertex
 10
1005.938246890606
 20
356.1282165456672
 30
0.0
  0
VERTEX
  5
75A
330
74A
100
AcDbEntity
  8
4
100
AcDbVertex
100
AcDb2dVertex
 10
1005.727814890607
 20
356.1282165456672
 30
0.0
  0
VERTEX
  5
75B
330
74A
100
AcDbEntity
  8
4
100
AcDbVertex
100
AcDb2dVertex
 10
1005.630905290606
 20
356.1088341456669
 30
0.0
  0
VERTEX
  5
75C
330
74A
100
AcDbEntity
  8
4
100
AcDbVertex
100
AcDb2dVertex
 10
1005.378940090605
 20
356.050688145667
 30
0.0
  0
VERTEX
  5
75D
330
74A
100
AcDbEntity
  8
4
100
AcDbVertex
100
AcDb2dVertex
 10
1005.262648090607
 20
355.953778545667
 30
0.0
  0
VERTEX
  5
75E
330
74A
100
AcDbEntity
  8
4
100
AcDbVertex
100
AcDb2dVertex
 10
1005.146356090606
 20
355.8374877456671
 30
0.0
  0
VERTEX
  5
75F
330
74A
100
AcDbEntity
  8
4
100
AcDbVertex
100
AcDb2dVertex
 10
1005.068828890606
 20
355.6824321456671
 30
0.0
  0
VERTEX
  5
760
330
74A
100
AcDbEntity
  8
4
100
AcDbVertex
100
AcDb2dVertex
 10
1005.030065290605
 20
355.4692305456673
 30
0.0
  0
VERTEX
  5
761
330
74A
100
AcDbEntity
  8
4
100
AcDbVertex
100
AcDb2dVertex
 10
1005.030065290605
 20
354.829626945667
 30
0.0
  0
VERTEX
  5
762
330
74A
100
AcDbEntity
  8
4
100
AcDbVertex
100
AcDb2dVertex
 10
1005.863488090606
 20
354.829626945667
 30
0.0
  0
VERTEX
  5
763
330
74A
100
AcDbEntity
  8
4
100
AcDbVertex
100
AcDb2dVertex
 10
1005.863488090606
 20
353.3787513456671
 30
0.0
  0
VERTEX
  5
764
330
74A
100
AcDbEntity
  8
4
100
AcDbVertex
100
AcDb2dVertex
 10
1005.030065290605
 20
353.3787513456671
 30
0.0
  0
VERTEX
  5
765
330
74A
100
AcDbEntity
  8
4
100
AcDbVertex
100
AcDb2dVertex
 10
1005.030065290605
 20
349.2337881456668
 30
0.0
  0
VERTEX
  5
766
330
74A
100
AcDbEntity
  8
4
100
AcDbVertex
100
AcDb2dVertex
 10
1003.150018090606
 20
349.2337881456668
 30
0.0
  0
VERTEX
  5
767
330
74A
100
AcDbEntity
  8
4
100
AcDbVertex
100
AcDb2dVertex
 10
1003.150018090606
 20
349.2337881456668
 30
0.0
  0
SEQEND
  5
768
330
74A
100
AcDbEntity
  8
4
  0
POLYLINE
  5
769
330
1F
100
AcDbEntity
  8
4
100
AcDb2dPolyline
 66
     1
 10
0.0
 20
0.0
 30
0.0
  0
VERTEX
  5
76A
330
769
100
AcDbEntity
  8
4
100
AcDbVertex
100
AcDb2dVertex
 10
1015.310792890607
 20
355.2754113456672
 30
0.0
  0
VERTEX
  5
76B
330
769
100
AcDbEntity
  8
4
100
AcDbVertex
100
AcDb2dVertex
 10
1017.168688090606
 20
355.2754113456672
 30
0.0
  0
VERTEX
  5
76C
330
769
100
AcDbEntity
  8
4
100
AcDbVertex
100
AcDb2dVertex
 10
1017.168688090606
 20
354.1540281456669
 30
0.0
  0
VERTEX
  5
76D
330
769
100
AcDbEntity
  8
4
100
AcDbVertex
100
AcDb2dVertex
 10
1017.168688090606
 20
354.0377373456669
 30
0.0
  0
VERTEX
  5
76E
330
769
100
AcDbEntity
  8
4
100
AcDbVertex
100
AcDb2dVertex
 10
1017.226834090607
 20
353.7663897456669
 30
0.0
  0
VERTEX
  5
76F
330
769
100
AcDbEntity
  8
4
100
AcDbVertex
100
AcDb2dVertex
 10
1017.304362490606
 20
353.6113341456672
 30
0.0
  0
VERTEX
  5
770
330
769
100
AcDbEntity
  8
4
100
AcDbVertex
100
AcDb2dVertex
 10
1017.420653290606
 20
353.4950433456672
 30
0.0
  0
VERTEX
  5
771
330
769
100
AcDbEntity
  8
4
100
AcDbVertex
100
AcDb2dVertex
 10
1017.614472490605
 20
353.398133745667
 30
0.0
  0
VERTEX
  5
772
330
769
100
AcDbEntity
  8
4
100
AcDbVertex
100
AcDb2dVertex
 10
1017.847055290606
 20
353.3787513456671
 30
0.0
  0
VERTEX
  5
773
330
769
100
AcDbEntity
  8
4
100
AcDbVertex
100
AcDb2dVertex
 10
1018.079639290607
 20
353.398133745667
 30
0.0
  0
VERTEX
  5
774
330
769
100
AcDbEntity
  8
4
100
AcDbVertex
100
AcDb2dVertex
 10
1018.273458490607
 20
353.4950433456672
 30
0.0
  0
VERTEX
  5
775
330
769
100
AcDbEntity
  8
4
100
AcDbVertex
100
AcDb2dVertex
 10
1018.409131690606
 20
353.6307165456671
 30
0.0
  0
VERTEX
  5
776
330
769
100
AcDbEntity
  8
4
100
AcDbVertex
100
AcDb2dVertex
 10
1018.486658890607
 20
353.7663897456669
 30
0.0
  0
VERTEX
  5
777
330
769
100
AcDbEntity
  8
4
100
AcDbVertex
100
AcDb2dVertex
 10
1018.564187290606
 20
354.0377373456669
 30
0.0
  0
VERTEX
  5
778
330
769
100
AcDbEntity
  8
4
100
AcDbVertex
100
AcDb2dVertex
 10
1018.583568490607
 20
354.1734105456671
 30
0.0
  0
VERTEX
  5
779
330
769
100
AcDbEntity
  8
4
100
AcDbVertex
100
AcDb2dVertex
 10
1018.583568490607
 20
355.2754113456672
 30
0.0
  0
VERTEX
  5
77A
330
769
100
AcDbEntity
  8
4
100
AcDbVertex
100
AcDb2dVertex
 10
1020.402701290605
 20
355.2754113456672
 30
0.0
  0
VERTEX
  5
77B
330
769
100
AcDbEntity
  8
4
100
AcDbVertex
100
AcDb2dVertex
 10
1020.402701290605
 20
353.9795913456671
 30
0.0
  0
VERTEX
  5
77C
330
769
100
AcDbEntity
  8
4
100
AcDbVertex
100
AcDb2dVertex
 10
1020.402701290605
 20
353.7857721456671
 30
0.0
  0
VERTEX
  5
77D
330
769
100
AcDbEntity
  8
4
100
AcDbVertex
100
AcDb2dVertex
 10
1020.325174090607
 20
353.3593689456671
 30
0.0
  0
VERTEX
  5
77E
330
769
100
AcDbEntity
  8
4
100
AcDbVertex
100
AcDb2dVertex
 10
1020.228264490605
 20
353.1074049456671
 30
0.0
  0
VERTEX
  5
77F
330
769
100
AcDbEntity
  8
4
100
AcDbVertex
100
AcDb2dVertex
 10
1020.073208890607
 20
352.8554397456669
 30
0.0
  0
VERTEX
  5
780
330
769
100
AcDbEntity
  8
4
100
AcDbVertex
100
AcDb2dVertex
 10
1019.879389690606
 20
352.6228557456672
 30
0.0
  0
VERTEX
  5
781
330
769
100
AcDbEntity
  8
4
100
AcDbVertex
100
AcDb2dVertex
 10
1019.610811690607
 20
352.4484189456669
 30
0.0
  0
VERTEX
  5
782
330
769
100
AcDbEntity
  8
4
100
AcDbVertex
100
AcDb2dVertex
 10
1019.743715290606
 20
352.3708917456672
 30
0.0
  0
VERTEX
  5
783
330
769
100
AcDbEntity
  8
4
100
AcDbVertex
100
AcDb2dVertex
 10
1019.898770890607
 20
352.2739821456672
 30
0.0
  0
VERTEX
  5
784
330
769
100
AcDbEntity
  8
4
100
AcDbVertex
100
AcDb2dVertex
 10
1020.053826490606
 20
352.1189265456672
 30
0.0
  0
VERTEX
  5
785
330
769
100
AcDbEntity
  8
4
100
AcDbVertex
100
AcDb2dVertex
 10
1020.228264490605
 20
351.905724945667
 30
0.0
  0
VERTEX
  5
786
330
769
100
AcDbEntity
  8
4
100
AcDbVertex
100
AcDb2dVertex
 10
1020.363937690606
 20
351.6371469456672
 30
0.0
  0
VERTEX
  5
787
330
769
100
AcDbEntity
  8
4
100
AcDbVertex
100
AcDb2dVertex
 10
1020.480228490607
 20
351.2882721456671
 30
0.0
  0
VERTEX
  5
788
330
769
100
AcDbEntity
  8
4
100
AcDbVertex
100
AcDb2dVertex
 10
1020.518993290606
 20
350.8618701456669
 30
0.0
  0
VERTEX
  5
789
330
769
100
AcDbEntity
  8
4
100
AcDbVertex
100
AcDb2dVertex
 10
1020.518993290606
 20
349.2337881456668
 30
0.0
  0
VERTEX
  5
78A
330
769
100
AcDbEntity
  8
4
100
AcDbVertex
100
AcDb2dVertex
 10
1018.602950890605
 20
349.2337881456668
 30
0.0
  0
VERTEX
  5
78B
330
769
100
AcDbEntity
  8
4
100
AcDbVertex
100
AcDb2dVertex
 10
1018.602950890605
 20
350.7068145456671
 30
0.0
  0
VERTEX
  5
78C
330
769
100
AcDbEntity
  8
4
100
AcDbVertex
100
AcDb2dVertex
 10
1018.602950890605
 20
350.842487745667
 30
0.0
  0
VERTEX
  5
78D
330
769
100
AcDbEntity
  8
4
100
AcDbVertex
100
AcDb2dVertex
 10
1018.583568490607
 20
350.9975433456672
 30
0.0
  0
VERTEX
  5
78E
330
769
100
AcDbEntity
  8
4
100
AcDbVertex
100
AcDb2dVertex
 10
1018.544804890606
 20
351.1525989456671
 30
0.0
  0
VERTEX
  5
78F
330
769
100
AcDbEntity
  8
4
100
AcDbVertex
100
AcDb2dVertex
 10
1018.467277690606
 20
351.327035745667
 30
0.0
  0
VERTEX
  5
790
330
769
100
AcDbEntity
  8
4
100
AcDbVertex
100
AcDb2dVertex
 10
1018.350985690605
 20
351.4820913456671
 30
0.0
  0
VERTEX
  5
791
330
769
100
AcDbEntity
  8
4
100
AcDbVertex
100
AcDb2dVertex
 10
1018.157166490605
 20
351.5790009456673
 30
0.0
  0
VERTEX
  5
792
330
769
100
AcDbEntity
  8
4
100
AcDbVertex
100
AcDb2dVertex
 10
1017.905201290606
 20
351.6177645456671
 30
0.0
  0
VERTEX
  5
793
330
769
100
AcDbEntity
  8
4
100
AcDbVertex
100
AcDb2dVertex
 10
1017.633854890606
 20
351.5790009456673
 30
0.0
  0
VERTEX
  5
794
330
769
100
AcDbEntity
  8
4
100
AcDbVertex
100
AcDb2dVertex
 10
1017.440035690606
 20
351.4820913456671
 30
0.0
  0
VERTEX
  5
795
330
769
100
AcDbEntity
  8
4
100
AcDbVertex
100
AcDb2dVertex
 10
1017.304362490606
 20
351.327035745667
 30
0.0
  0
VERTEX
  5
796
330
769
100
AcDbEntity
  8
4
100
AcDbVertex
100
AcDb2dVertex
 10
1017.207452890606
 20
351.1719801456668
 30
0.0
  0
VERTEX
  5
797
330
769
100
AcDbEntity
  8
4
100
AcDbVertex
100
AcDb2dVertex
 10
1017.168688090606
 20
350.9975433456672
 30
0.0
  0
VERTEX
  5
798
330
769
100
AcDbEntity
  8
4
100
AcDbVertex
100
AcDb2dVertex
 10
1017.149306890607
 20
350.8618701456669
 30
0.0
  0
VERTEX
  5
799
330
769
100
AcDbEntity
  8
4
100
AcDbVertex
100
AcDb2dVertex
 10
1017.129924490606
 20
350.7068145456671
 30
0.0
  0
VERTEX
  5
79A
330
769
100
AcDbEntity
  8
4
100
AcDbVertex
100
AcDb2dVertex
 10
1017.129924490606
 20
349.2337881456668
 30
0.0
  0
VERTEX
  5
79B
330
769
100
AcDbEntity
  8
4
100
AcDbVertex
100
AcDb2dVertex
 10
1015.194500890606
 20
349.2337881456668
 30
0.0
  0
VERTEX
  5
79C
330
769
100
AcDbEntity
  8
4
100
AcDbVertex
100
AcDb2dVertex
 10
1015.194500890606
 20
350.842487745667
 30
0.0
  0
VERTEX
  5
79D
330
769
100
AcDbEntity
  8
4
100
AcDbVertex
100
AcDb2dVertex
 10
1015.213883290608
 20
351.036306945667
 30
0.0
  0
VERTEX
  5
79E
330
769
100
AcDbEntity
  8
4
100
AcDbVertex
100
AcDb2dVertex
 10
1015.252646890606
 20
351.249508545667
 30
0.0
  0
VERTEX
  5
79F
330
769
100
AcDbEntity
  8
4
100
AcDbVertex
100
AcDb2dVertex
 10
1015.330174090606
 20
351.5014737456671
 30
0.0
  0
VERTEX
  5
7A0
330
769
100
AcDbEntity
  8
4
100
AcDbVertex
100
AcDb2dVertex
 10
1015.427083690607
 20
351.7700517456671
 30
0.0
  0
VERTEX
  5
7A1
330
769
100
AcDbEntity
  8
4
100
AcDbVertex
100
AcDb2dVertex
 10
1015.601521690607
 20
352.0413981456671
 30
0.0
  0
VERTEX
  5
7A2
330
769
100
AcDbEntity
  8
4
100
AcDbVertex
100
AcDb2dVertex
 10
1015.814722090605
 20
352.2739821456672
 30
0.0
  0
VERTEX
  5
7A3
330
769
100
AcDbEntity
  8
4
100
AcDbVertex
100
AcDb2dVertex
 10
1015.950396490607
 20
352.3708917456672
 30
0.0
  0
VERTEX
  5
7A4
330
769
100
AcDbEntity
  8
4
100
AcDbVertex
100
AcDb2dVertex
 10
1016.124833290607
 20
352.4484189456669
 30
0.0
  0
VERTEX
  5
7A5
330
769
100
AcDbEntity
  8
4
100
AcDbVertex
100
AcDb2dVertex
 10
1015.989160090606
 20
352.5259461456672
 30
0.0
  0
VERTEX
  5
7A6
330
769
100
AcDbEntity
  8
4
100
AcDbVertex
100
AcDb2dVertex
 10
1015.872868090606
 20
352.6228557456672
 30
0.0
  0
VERTEX
  5
7A7
330
769
100
AcDbEntity
  8
4
100
AcDbVertex
100
AcDb2dVertex
 10
1015.717812490605
 20
352.777911345667
 30
0.0
  0
VERTEX
  5
7A8
330
769
100
AcDbEntity
  8
4
100
AcDbVertex
100
AcDb2dVertex
 10
1015.562756890608
 20
352.9717305456672
 30
0.0
  0
VERTEX
  5
7A9
330
769
100
AcDbEntity
  8
4
100
AcDbVertex
100
AcDb2dVertex
 10
1015.446466090607
 20
353.243078145667
 30
0.0
  0
VERTEX
  5
7AA
330
769
100
AcDbEntity
  8
4
100
AcDbVertex
100
AcDb2dVertex
 10
1015.349556490608
 20
353.553188145667
 30
0.0
  0
VERTEX
  5
7AB
330
769
100
AcDbEntity
  8
4
100
AcDbVertex
100
AcDb2dVertex
 10
1015.310792890607
 20
353.9602089456669
 30
0.0
  0
VERTEX
  5
7AC
330
769
100
AcDbEntity
  8
4
100
AcDbVertex
100
AcDb2dVertex
 10
1015.310792890607
 20
355.2754113456672
 30
0.0
  0
VERTEX
  5
7AD
330
769
100
AcDbEntity
  8
4
100
AcDbVertex
100
AcDb2dVertex
 10
1015.310792890607
 20
355.2754113456672
 30
0.0
  0
SEQEND
  5
7AE
330
769
100
AcDbEntity
  8
4
  0
POLYLINE
  5
7AF
330
1F
100
AcDbEntity
  8
4
100
AcDb2dPolyline
 66
     1
 10
0.0
 20
0.0
 30
0.0
  0
VERTEX
  5
7B0
330
7AF
100
AcDbEntity
  8
4
100
AcDbVertex
100
AcDb2dVertex
 10
1014.613043290607
 20
351.5596197456669
 30
0.0
  0
VERTEX
  5
7B1
330
7AF
100
AcDbEntity
  8
4
100
AcDbVertex
100
AcDb2dVertex
 10
1014.613043290607
 20
349.6601901456669
 30
0.0
  0
VERTEX
  5
7B2
330
7AF
100
AcDbEntity
  8
4
100
AcDbVertex
100
AcDb2dVertex
 10
1014.477370090607
 20
349.582662945667
 30
0.0
  0
VERTEX
  5
7B3
330
7AF
100
AcDbEntity
  8
4
100
AcDbVertex
100
AcDb2dVertex
 10
1014.053736490606
 20
349.388843745667
 30
0.0
  0
VERTEX
  5
7B4
330
7AF
100
AcDbEntity
  8
4
100
AcDbVertex
100
AcDb2dVertex
 10
1013.763007690605
 20
349.2919341456672
 30
0.0
  0
VERTEX
  5
7B5
330
7AF
100
AcDbEntity
  8
4
100
AcDbVertex
100
AcDb2dVertex
 10
1013.394750490606
 20
349.2144057456672
 30
0.0
  0
VERTEX
  5
7B6
330
7AF
100
AcDbEntity
  8
4
100
AcDbVertex
100
AcDb2dVertex
 10
1012.987729690607
 20
349.1562609456672
 30
0.0
  0
VERTEX
  5
7B7
330
7AF
100
AcDbEntity
  8
4
100
AcDbVertex
100
AcDb2dVertex
 10
1012.541945290606
 20
349.136878545667
 30
0.0
  0
VERTEX
  5
7B8
330
7AF
100
AcDbEntity
  8
4
100
AcDbVertex
100
AcDb2dVertex
 10
1012.212452890608
 20
349.136878545667
 30
0.0
  0
VERTEX
  5
7B9
330
7AF
100
AcDbEntity
  8
4
100
AcDbVertex
100
AcDb2dVertex
 10
1011.882960490605
 20
349.1756421456671
 30
0.0
  0
VERTEX
  5
7BA
330
7AF
100
AcDbEntity
  8
4
100
AcDbVertex
100
AcDb2dVertex
 10
1011.572849290606
 20
349.253170545667
 30
0.0
  0
VERTEX
  5
7BB
330
7AF
100
AcDbEntity
  8
4
100
AcDbVertex
100
AcDb2dVertex
 10
1011.246125290606
 20
349.3306977456671
 30
0.0
  0
VERTEX
  5
7BC
330
7AF
100
AcDbEntity
  8
4
100
AcDbVertex
100
AcDb2dVertex
 10
1010.955396490605
 20
349.4469897456671
 30
0.0
  0
VERTEX
  5
7BD
330
7AF
100
AcDbEntity
  8
4
100
AcDbVertex
100
AcDb2dVertex
 10
1010.664667690607
 20
349.6020441456671
 30
0.0
  0
VERTEX
  5
7BE
330
7AF
100
AcDbEntity
  8
4
100
AcDbVertex
100
AcDb2dVertex
 10
1010.393321290606
 20
349.7570997456673
 30
0.0
  0
VERTEX
  5
7BF
330
7AF
100
AcDbEntity
  8
4
100
AcDbVertex
100
AcDb2dVertex
 10
1010.141356090605
 20
349.950918945667
 30
0.0
  0
VERTEX
  5
7C0
330
7AF
100
AcDbEntity
  8
4
100
AcDbVertex
100
AcDb2dVertex
 10
1009.889390890607
 20
350.1835029456671
 30
0.0
  0
VERTEX
  5
7C1
330
7AF
100
AcDbEntity
  8
4
100
AcDbVertex
100
AcDb2dVertex
 10
1009.676189290607
 20
350.435466945667
 30
0.0
  0
VERTEX
  5
7C2
330
7AF
100
AcDbEntity
  8
4
100
AcDbVertex
100
AcDb2dVertex
 10
1009.501752490607
 20
350.7068145456671
 30
0.0
  0
VERTEX
  5
7C3
330
7AF
100
AcDbEntity
  8
4
100
AcDbVertex
100
AcDb2dVertex
 10
1009.346696890606
 20
350.9975433456672
 30
0.0
  0
VERTEX
  5
7C4
330
7AF
100
AcDbEntity
  8
4
100
AcDbVertex
100
AcDb2dVertex
 10
1009.211023690606
 20
351.327035745667
 30
0.0
  0
VERTEX
  5
7C5
330
7AF
100
AcDbEntity
  8
4
100
AcDbVertex
100
AcDb2dVertex
 10
1009.114114090607
 20
351.6759105456671
 30
0.0
  0
VERTEX
  5
7C6
330
7AF
100
AcDbEntity
  8
4
100
AcDbVertex
100
AcDb2dVertex
 10
1009.055968090605
 20
352.0413981456671
 30
0.0
  0
VERTEX
  5
7C7
330
7AF
100
AcDbEntity
  8
4
100
AcDbVertex
100
AcDb2dVertex
 10
1009.036585690606
 20
352.4484189456669
 30
0.0
  0
VERTEX
  5
7C8
330
7AF
100
AcDbEntity
  8
4
100
AcDbVertex
100
AcDb2dVertex
 10
1009.094731690606
 20
352.9911129456672
 30
0.0
  0
VERTEX
  5
7C9
330
7AF
100
AcDbEntity
  8
4
100
AcDbVertex
100
AcDb2dVertex
 10
1009.230404890606
 20
353.5144245456671
 30
0.0
  0
VERTEX
  5
7CA
330
7AF
100
AcDbEntity
  8
4
100
AcDbVertex
100
AcDb2dVertex
 10
1009.327314490606
 20
353.7663897456669
 30
0.0
  0
VERTEX
  5
7CB
330
7AF
100
AcDbEntity
  8
4
100
AcDbVertex
100
AcDb2dVertex
 10
1009.462988890607
 20
354.018354945667
 30
0.0
  0
VERTEX
  5
7CC
330
7AF
100
AcDbEntity
  8
4
100
AcDbVertex
100
AcDb2dVertex
 10
1009.618043290608
 20
354.2509377456672
 30
0.0
  0
VERTEX
  5
7CD
330
7AF
100
AcDbEntity
  8
4
100
AcDbVertex
100
AcDb2dVertex
 10
1009.773098890607
 20
354.4613709456672
 30
0.0
  0
VERTEX
  5
7CE
330
7AF
100
AcDbEntity
  8
4
100
AcDbVertex
100
AcDb2dVertex
 10
1009.986300490607
 20
354.6551901456671
 30
0.0
  0
VERTEX
  5
7CF
330
7AF
100
AcDbEntity
  8
4
100
AcDbVertex
100
AcDb2dVertex
 10
1010.199502090607
 20
354.8490093456671
 30
0.0
  0
VERTEX
  5
7D0
330
7AF
100
AcDbEntity
  8
4
100
AcDbVertex
100
AcDb2dVertex
 10
1010.432084890606
 20
355.004064945667
 30
0.0
  0
VERTEX
  5
7D1
330
7AF
100
AcDbEntity
  8
4
100
AcDbVertex
100
AcDb2dVertex
 10
1010.703431290607
 20
355.1397381456672
 30
0.0
  0
VERTEX
  5
7D2
330
7AF
100
AcDbEntity
  8
4
100
AcDbVertex
100
AcDb2dVertex
 10
1010.994160090607
 20
355.256028945667
 30
0.0
  0
VERTEX
  5
7D3
330
7AF
100
AcDbEntity
  8
4
100
AcDbVertex
100
AcDb2dVertex
 10
1011.304271290606
 20
355.3335573456671
 30
0.0
  0
VERTEX
  5
7D4
330
7AF
100
AcDbEntity
  8
4
100
AcDbVertex
100
AcDb2dVertex
 10
1011.630995290606
 20
355.391703345667
 30
0.0
  0
VERTEX
  5
7D5
330
7AF
100
AcDbEntity
  8
4
100
AcDbVertex
100
AcDb2dVertex
 10
1011.999251290607
 20
355.411084545667
 30
0.0
  0
VERTEX
  5
7D6
330
7AF
100
AcDbEntity
  8
4
100
AcDbVertex
100
AcDb2dVertex
 10
1012.503181690605
 20
355.3723209456671
 30
0.0
  0
VERTEX
  5
7D7
330
7AF
100
AcDbEntity
  8
4
100
AcDbVertex
100
AcDb2dVertex
 10
1012.987729690607
 20
355.2366477456671
 30
0.0
  0
VERTEX
  5
7D8
330
7AF
100
AcDbEntity
  8
4
100
AcDbVertex
100
AcDb2dVertex
 10
1013.433514090606
 20
355.0428285456671
 30
0.0
  0
VERTEX
  5
7D9
330
7AF
100
AcDbEntity
  8
4
100
AcDbVertex
100
AcDb2dVertex
 10
1013.840534890606
 20
354.7908633456672
 30
0.0
  0
VERTEX
  5
7DA
330
7AF
100
AcDbEntity
  8
4
100
AcDbVertex
100
AcDb2dVertex
 10
1014.206022490606
 20
354.4807521456672
 30
0.0
  0
VERTEX
  5
7DB
330
7AF
100
AcDbEntity
  8
4
100
AcDbVertex
100
AcDb2dVertex
 10
1014.496751290606
 20
354.1540281456669
 30
0.0
  0
VERTEX
  5
7DC
330
7AF
100
AcDbEntity
  8
4
100
AcDbVertex
100
AcDb2dVertex
 10
1014.748716490607
 20
353.7663897456669
 30
0.0
  0
VERTEX
  5
7DD
330
7AF
100
AcDbEntity
  8
4
100
AcDbVertex
100
AcDb2dVertex
 10
1014.923153290607
 20
353.3787513456671
 30
0.0
  0
VERTEX
  5
7DE
330
7AF
100
AcDbEntity
  8
4
100
AcDbVertex
100
AcDb2dVertex
 10
1012.038016090606
 20
350.8618701456669
 30
0.0
  0
VERTEX
  5
7DF
330
7AF
100
AcDbEntity
  8
4
100
AcDbVertex
100
AcDb2dVertex
 10
1012.154306890606
 20
350.842487745667
 30
0.0
  0
VERTEX
  5
7E0
330
7AF
100
AcDbEntity
  8
4
100
AcDbVertex
100
AcDb2dVertex
 10
1012.425654490607
 20
350.7843417456672
 30
0.0
  0
VERTEX
  5
7E1
330
7AF
100
AcDbEntity
  8
4
100
AcDbVertex
100
AcDb2dVertex
 10
1012.813292890607
 20
350.7843417456672
 30
0.0
  0
VERTEX
  5
7E2
330
7AF
100
AcDbEntity
  8
4
100
AcDbVertex
100
AcDb2dVertex
 10
1013.045875690606
 20
350.8037241456672
 30
0.0
  0
VERTEX
  5
7E3
330
7AF
100
AcDbEntity
  8
4
100
AcDbVertex
100
AcDb2dVertex
 10
1013.278458490606
 20
350.8618701456669
 30
0.0
  0
VERTEX
  5
7E4
330
7AF
100
AcDbEntity
  8
4
100
AcDbVertex
100
AcDb2dVertex
 10
1013.763007690605
 20
351.036306945667
 30
0.0
  0
VERTEX
  5
7E5
330
7AF
100
AcDbEntity
  8
4
100
AcDbVertex
100
AcDb2dVertex
 10
1014.186640090606
 20
351.2688897456672
 30
0.0
  0
VERTEX
  5
7E6
330
7AF
100
AcDbEntity
  8
4
100
AcDbVertex
100
AcDb2dVertex
 10
1014.613043290607
 20
351.5596197456669
 30
0.0
  0
VERTEX
  5
7E7
330
7AF
100
AcDbEntity
  8
4
100
AcDbVertex
100
AcDb2dVertex
 10
1014.613043290607
 20
351.5596197456669
 30
0.0
  0
SEQEND
  5
7E8
330
7AF
100
AcDbEntity
  8
4
  0
POLYLINE
  5
7E9
330
1F
100
AcDbEntity
  8
4
100
AcDb2dPolyline
 66
     1
 10
0.0
 20
0.0
 30
0.0
  0
VERTEX
  5
7EA
330
7E9
100
AcDbEntity
  8
4
100
AcDbVertex
100
AcDb2dVertex
 10
1010.877869290606
 20
351.9832521456673
 30
0.0
  0
VERTEX
  5
7EB
330
7E9
100
AcDbEntity
  8
4
100
AcDbVertex
100
AcDb2dVertex
 10
1012.755146890608
 20
353.553188145667
 30
0.0
  0
VERTEX
  5
7EC
330
7E9
100
AcDbEntity
  8
4
100
AcDbVertex
100
AcDb2dVertex
 10
1012.619473690606
 20
353.6307165456671
 30
0.0
  0
VERTEX
  5
7ED
330
7E9
100
AcDbEntity
  8
4
100
AcDbVertex
100
AcDb2dVertex
 10
1012.464418090607
 20
353.7082437456671
 30
0.0
  0
VERTEX
  5
7EE
330
7E9
100
AcDbEntity
  8
4
100
AcDbVertex
100
AcDb2dVertex
 10
1012.251216490606
 20
353.7663897456669
 30
0.0
  0
VERTEX
  5
7EF
330
7E9
100
AcDbEntity
  8
4
100
AcDbVertex
100
AcDb2dVertex
 10
1012.018633690605
 20
353.8051533456672
 30
0.0
  0
VERTEX
  5
7F0
330
7E9
100
AcDbEntity
  8
4
100
AcDbVertex
100
AcDb2dVertex
 10
1011.747287290607
 20
353.7857721456671
 30
0.0
  0
VERTEX
  5
7F1
330
7E9
100
AcDbEntity
  8
4
100
AcDbVertex
100
AcDb2dVertex
 10
1011.456558490606
 20
353.6888625456672
 30
0.0
  0
VERTEX
  5
7F2
330
7E9
100
AcDbEntity
  8
4
100
AcDbVertex
100
AcDb2dVertex
 10
1011.187979290607
 20
353.4950433456672
 30
0.0
  0
VERTEX
  5
7F3
330
7E9
100
AcDbEntity
  8
4
100
AcDbVertex
100
AcDb2dVertex
 10
1010.955396490605
 20
353.2236957456669
 30
0.0
  0
VERTEX
  5
7F4
330
7E9
100
AcDbEntity
  8
4
100
AcDbVertex
100
AcDb2dVertex
 10
1010.819723290605
 20
352.9523493456669
 30
0.0
  0
VERTEX
  5
7F5
330
7E9
100
AcDbEntity
  8
4
100
AcDbVertex
100
AcDb2dVertex
 10
1010.761577290607
 20
352.7003841456671
 30
0.0
  0
VERTEX
  5
7F6
330
7E9
100
AcDbEntity
  8
4
100
AcDbVertex
100
AcDb2dVertex
 10
1010.742196090606
 20
352.4678013456672
 30
0.0
  0
VERTEX
  5
7F7
330
7E9
100
AcDbEntity
  8
4
100
AcDbVertex
100
AcDb2dVertex
 10
1010.780959690605
 20
352.2739821456672
 30
0.0
  0
VERTEX
  5
7F8
330
7E9
100
AcDbEntity
  8
4
100
AcDbVertex
100
AcDb2dVertex
 10
1010.819723290605
 20
352.1189265456672
 30
0.0
  0
VERTEX
  5
7F9
330
7E9
100
AcDbEntity
  8
4
100
AcDbVertex
100
AcDb2dVertex
 10
1010.877869290606
 20
351.9832521456673
 30
0.0
  0
VERTEX
  5
7FA
330
7E9
100
AcDbEntity
  8
4
100
AcDbVertex
100
AcDb2dVertex
 10
1010.877869290606
 20
351.9832521456673
 30
0.0
  0
SEQEND
  5
7FB
330
7E9
100
AcDbEntity
  8
4
  0
POLYLINE
  5
7FC
330
1F
100
AcDbEntity
  8
4
100
AcDb2dPolyline
 66
     1
 10
0.0
 20
0.0
 30
0.0
  0
VERTEX
  5
7FD
330
7FC
100
AcDbEntity
  8
4
100
AcDbVertex
100
AcDb2dVertex
 10
1024.339206490607
 20
358.2023517456672
 30
0.0
  0
VERTEX
  5
7FE
330
7FC
100
AcDbEntity
  8
4
100
AcDbVertex
100
AcDb2dVertex
 10
1024.337076490608
 20
358.2683781456671
 30
0.0
  0
VERTEX
  5
7FF
330
7FC
100
AcDbEntity
  8
4
100
AcDbVertex
100
AcDb2dVertex
 10
1024.330686490606
 20
358.3344045456669
 30
0.0
  0
VERTEX
  5
800
330
7FC
100
AcDbEntity
  8
4
100
AcDbVertex
100
AcDb2dVertex
 10
1024.324296490605
 20
358.4004309456671
 30
0.0
  0
VERTEX
  5
801
330
7FC
100
AcDbEntity
  8
4
100
AcDbVertex
100
AcDb2dVertex
 10
1024.311517690606
 20
358.4643273456673
 30
0.0
  0
VERTEX
  5
802
330
7FC
100
AcDbEntity
  8
4
100
AcDbVertex
100
AcDb2dVertex
 10
1024.296608890607
 20
358.5282237456669
 30
0.0
  0
VERTEX
  5
803
330
7FC
100
AcDbEntity
  8
4
100
AcDbVertex
100
AcDb2dVertex
 10
1024.279568890606
 20
358.589990145667
 30
0.0
  0
VERTEX
  5
804
330
7FC
100
AcDbEntity
  8
4
100
AcDbVertex
100
AcDb2dVertex
 10
1024.258270090606
 20
358.6517565456673
 30
0.0
  0
VERTEX
  5
805
330
7FC
100
AcDbEntity
  8
4
100
AcDbVertex
100
AcDb2dVertex
 10
1024.234841290605
 20
358.7113941456672
 30
0.0
  0
VERTEX
  5
806
330
7FC
100
AcDbEntity
  8
4
100
AcDbVertex
100
AcDb2dVertex
 10
1024.209283690606
 20
358.771030545667
 30
0.0
  0
VERTEX
  5
807
330
7FC
100
AcDbEntity
  8
4
100
AcDbVertex
100
AcDb2dVertex
 10
1024.179464890605
 20
358.8264069456671
 30
0.0
  0
VERTEX
  5
808
330
7FC
100
AcDbEntity
  8
4
100
AcDbVertex
100
AcDb2dVertex
 10
1024.149646090607
 20
358.8817845456671
 30
0.0
  0
VERTEX
  5
809
330
7FC
100
AcDbEntity
  8
4
100
AcDbVertex
100
AcDb2dVertex
 10
1024.113438490606
 20
358.9371609456672
 30
0.0
  0
VERTEX
  5
80A
330
7FC
100
AcDbEntity
  8
4
100
AcDbVertex
100
AcDb2dVertex
 10
1024.077230890605
 20
358.9882785456669
 30
0.0
  0
VERTEX
  5
80B
330
7FC
100
AcDbEntity
  8
4
100
AcDbVertex
100
AcDb2dVertex
 10
1024.038892090608
 20
359.0393961456673
 30
0.0
  0
VERTEX
  5
80C
330
7FC
100
AcDbEntity
  8
4
100
AcDbVertex
100
AcDb2dVertex
 10
1023.996294490606
 20
359.0862525456671
 30
0.0
  0
VERTEX
  5
80D
330
7FC
100
AcDbEntity
  8
4
100
AcDbVertex
100
AcDb2dVertex
 10
1023.953696890606
 20
359.133110145667
 30
0.0
  0
VERTEX
  5
80E
330
7FC
100
AcDbEntity
  8
4
100
AcDbVertex
100
AcDb2dVertex
 10
1023.908969290606
 20
359.1757077456671
 30
0.0
  0
VERTEX
  5
80F
330
7FC
100
AcDbEntity
  8
4
100
AcDbVertex
100
AcDb2dVertex
 10
1023.859982890606
 20
359.218305345667
 30
0.0
  0
VERTEX
  5
810
330
7FC
100
AcDbEntity
  8
4
100
AcDbVertex
100
AcDb2dVertex
 10
1023.810995290608
 20
359.2587729456671
 30
0.0
  0
VERTEX
  5
811
330
7FC
100
AcDbEntity
  8
4
100
AcDbVertex
100
AcDb2dVertex
 10
1023.757747690606
 20
359.294981745667
 30
0.0
  0
VERTEX
  5
812
330
7FC
100
AcDbEntity
  8
4
100
AcDbVertex
100
AcDb2dVertex
 10
1023.704501290607
 20
359.331189345667
 30
0.0
  0
VERTEX
  5
813
330
7FC
100
AcDbEntity
  8
4
100
AcDbVertex
100
AcDb2dVertex
 10
1023.649123690606
 20
359.363138145667
 30
0.0
  0
VERTEX
  5
814
330
7FC
100
AcDbEntity
  8
4
100
AcDbVertex
100
AcDb2dVertex
 10
1023.591617290606
 20
359.3929557456672
 30
0.0
  0
VERTEX
  5
815
330
7FC
100
AcDbEntity
  8
4
100
AcDbVertex
100
AcDb2dVertex
 10
1023.534110890605
 20
359.4185145456669
 30
0.0
  0
VERTEX
  5
816
330
7FC
100
AcDbEntity
  8
4
100
AcDbVertex
100
AcDb2dVertex
 10
1023.472344490605
 20
359.4419433456671
 30
0.0
  0
VERTEX
  5
817
330
7FC
100
AcDbEntity
  8
4
100
AcDbVertex
100
AcDb2dVertex
 10
1023.410576890606
 20
359.463242145667
 30
0.0
  0
VERTEX
  5
818
330
7FC
100
AcDbEntity
  8
4
100
AcDbVertex
100
AcDb2dVertex
 10
1023.348810490606
 20
359.4824109456671
 30
0.0
  0
VERTEX
  5
819
330
7FC
100
AcDbEntity
  8
4
100
AcDbVertex
100
AcDb2dVertex
 10
1023.282784090608
 20
359.4973197456671
 30
0.0
  0
VERTEX
  5
81A
330
7FC
100
AcDbEntity
  8
4
100
AcDbVertex
100
AcDb2dVertex
 10
1023.218887690607
 20
359.5079697456672
 30
0.0
  0
VERTEX
  5
81B
330
7FC
100
AcDbEntity
  8
4
100
AcDbVertex
100
AcDb2dVertex
 10
1023.150731290606
 20
359.5164885456672
 30
0.0
  0
VERTEX
  5
81C
330
7FC
100
AcDbEntity
  8
4
100
AcDbVertex
100
AcDb2dVertex
 10
1023.084706090606
 20
359.5228785456671
 30
0.0
  0
VERTEX
  5
81D
330
7FC
100
AcDbEntity
  8
4
100
AcDbVertex
100
AcDb2dVertex
 10
1023.016549690608
 20
359.5250085456671
 30
0.0
  0
VERTEX
  5
81E
330
7FC
100
AcDbEntity
  8
4
100
AcDbVertex
100
AcDb2dVertex
 10
1023.016549690608
 20
359.2310853456671
 30
0.0
  0
VERTEX
  5
81F
330
7FC
100
AcDbEntity
  8
4
100
AcDbVertex
100
AcDb2dVertex
 10
1023.069796090607
 20
359.2310853456671
 30
0.0
  0
VERTEX
  5
820
330
7FC
100
AcDbEntity
  8
4
100
AcDbVertex
100
AcDb2dVertex
 10
1023.123043690606
 20
359.2268253456672
 30
0.0
  0
VERTEX
  5
821
330
7FC
100
AcDbEntity
  8
4
100
AcDbVertex
100
AcDb2dVertex
 10
1023.174160090608
 20
359.218305345667
 30
0.0
  0
VERTEX
  5
822
330
7FC
100
AcDbEntity
  8
4
100
AcDbVertex
100
AcDb2dVertex
 10
1023.225277690605
 20
359.209786545667
 30
0.0
  0
VERTEX
  5
823
330
7FC
100
AcDbEntity
  8
4
100
AcDbVertex
100
AcDb2dVertex
 10
1023.274265290606
 20
359.1991365456672
 30
0.0
  0
VERTEX
  5
824
330
7FC
100
AcDbEntity
  8
4
100
AcDbVertex
100
AcDb2dVertex
 10
1023.323252890605
 20
359.1842277456673
 30
0.0
  0
VERTEX
  5
825
330
7FC
100
AcDbEntity
  8
4
100
AcDbVertex
100
AcDb2dVertex
 10
1023.372239290607
 20
359.167188945667
 30
0.0
  0
VERTEX
  5
826
330
7FC
100
AcDbEntity
  8
4
100
AcDbVertex
100
AcDb2dVertex
 10
1023.419096890606
 20
359.1501489456671
 30
0.0
  0
VERTEX
  5
827
330
7FC
100
AcDbEntity
  8
4
100
AcDbVertex
100
AcDb2dVertex
 10
1023.463824490606
 20
359.128850145667
 30
0.0
  0
VERTEX
  5
828
330
7FC
100
AcDbEntity
  8
4
100
AcDbVertex
100
AcDb2dVertex
 10
1023.508552090605
 20
359.1054213456672
 30
0.0
  0
VERTEX
  5
829
330
7FC
100
AcDbEntity
  8
4
100
AcDbVertex
100
AcDb2dVertex
 10
1023.551149690608
 20
359.0798637456671
 30
0.0
  0
VERTEX
  5
82A
330
7FC
100
AcDbEntity
  8
4
100
AcDbVertex
100
AcDb2dVertex
 10
1023.593747290608
 20
359.0543049456671
 30
0.0
  0
VERTEX
  5
82B
330
7FC
100
AcDbEntity
  8
4
100
AcDbVertex
100
AcDb2dVertex
 10
1023.634214890607
 20
359.024486145667
 30
0.0
  0
VERTEX
  5
82C
330
7FC
100
AcDbEntity
  8
4
100
AcDbVertex
100
AcDb2dVertex
 10
1023.672552490606
 20
358.9946685456671
 30
0.0
  0
VERTEX
  5
82D
330
7FC
100
AcDbEntity
  8
4
100
AcDbVertex
100
AcDb2dVertex
 10
1023.710891290606
 20
358.960589745667
 30
0.0
  0
VERTEX
  5
82E
330
7FC
100
AcDbEntity
  8
4
100
AcDbVertex
100
AcDb2dVertex
 10
1023.747098890607
 20
358.9265121456672
 30
0.0
  0
VERTEX
  5
82F
330
7FC
100
AcDbEntity
  8
4
100
AcDbVertex
100
AcDb2dVertex
 10
1023.779046490608
 20
358.890303345667
 30
0.0
  0
VERTEX
  5
830
330
7FC
100
AcDbEntity
  8
4
100
AcDbVertex
100
AcDb2dVertex
 10
1023.813125290606
 20
358.8540957456673
 30
0.0
  0
VERTEX
  5
831
330
7FC
100
AcDbEntity
  8
4
100
AcDbVertex
100
AcDb2dVertex
 10
1023.842944090607
 20
358.8136281456672
 30
0.0
  0
VERTEX
  5
832
330
7FC
100
AcDbEntity
  8
4
100
AcDbVertex
100
AcDb2dVertex
 10
1023.870631690606
 20
358.7731605456671
 30
0.0
  0
VERTEX
  5
833
330
7FC
100
AcDbEntity
  8
4
100
AcDbVertex
100
AcDb2dVertex
 10
1023.898320490606
 20
358.7326929456672
 30
0.0
  0
VERTEX
  5
834
330
7FC
100
AcDbEntity
  8
4
100
AcDbVertex
100
AcDb2dVertex
 10
1023.921749290607
 20
358.6879653456671
 30
0.0
  0
VERTEX
  5
835
330
7FC
100
AcDbEntity
  8
4
100
AcDbVertex
100
AcDb2dVertex
 10
1023.945178090606
 20
358.6453677456671
 30
0.0
  0
VERTEX
  5
836
330
7FC
100
AcDbEntity
  8
4
100
AcDbVertex
100
AcDb2dVertex
 10
1023.966476890606
 20
358.5985101456671
 30
0.0
  0
VERTEX
  5
837
330
7FC
100
AcDbEntity
  8
4
100
AcDbVertex
100
AcDb2dVertex
 10
1023.983515690606
 20
358.5516525456671
 30
0.0
  0
VERTEX
  5
838
330
7FC
100
AcDbEntity
  8
4
100
AcDbVertex
100
AcDb2dVertex
 10
1024.000554490607
 20
358.5047949456669
 30
0.0
  0
VERTEX
  5
839
330
7FC
100
AcDbEntity
  8
4
100
AcDbVertex
100
AcDb2dVertex
 10
1024.013334490608
 20
358.4558073456672
 30
0.0
  0
VERTEX
  5
83A
330
7FC
100
AcDbEntity
  8
4
100
AcDbVertex
100
AcDb2dVertex
 10
1024.026113290605
 20
358.4068209456674
 30
0.0
  0
VERTEX
  5
83B
330
7FC
100
AcDbEntity
  8
4
100
AcDbVertex
100
AcDb2dVertex
 10
1024.034633290606
 20
358.3557033456671
 30
0.0
  0
VERTEX
  5
83C
330
7FC
100
AcDbEntity
  8
4
100
AcDbVertex
100
AcDb2dVertex
 10
1024.041022090607
 20
358.306715745667
 30
0.0
  0
VERTEX
  5
83D
330
7FC
100
AcDbEntity
  8
4
100
AcDbVertex
100
AcDb2dVertex
 10
1024.045282090607
 20
358.2534693456669
 30
0.0
  0
VERTEX
  5
83E
330
7FC
100
AcDbEntity
  8
4
100
AcDbVertex
100
AcDb2dVertex
 10
1024.045282090607
 20
358.2023517456672
 30
0.0
  0
VERTEX
  5
83F
330
7FC
100
AcDbEntity
  8
4
100
AcDbVertex
100
AcDb2dVertex
 10
1024.339206490607
 20
358.2023517456672
 30
0.0
  0
VERTEX
  5
840
330
7FC
100
AcDbEntity
  8
4
100
AcDbVertex
100
AcDb2dVertex
 10
1024.339206490607
 20
358.2023517456672
 30
0.0
  0
SEQEND
  5
841
330
7FC
100
AcDbEntity
  8
4
  0
HATCH
  5
842
330
1F
100
AcDbEntity
  8
4
100
AcDbHatch
 10
0.0
 20
0.0
 30
0.0
210
0.0
220
0.0
230
1.0
  2
SOLID
 70
     1
 71
     0
 91
        2
 92
        7
 72
     0
 73
     1
 93
        4
 10
1024.192244146794
 20
358.2023519427279
 10
1024.045282289435
 20
358.2023519427279
 10
1024.045282289435
 20
347.9384506295488
 10
1024.192244146794
 20
347.9384506295488
 97
        0
 92
        7
 72
     0
 73
     1
 93
       42
 10
1024.102789103185
 20
347.4933052934925
 10
1024.177334972858
 20
347.7020337285808
 10
1024.192244146794
 20
347.9384506295488
 10
1024.045282289435
 20
347.9384506295488
 10
1024.045282289435
 20
347.8873334617714
 10
1024.041022525454
 20
347.836216293994
 10
1024.034632879483
 20
347.7850991262234
 10
1024.026113351518
 20
347.7339819584411
 10
1024.013334059574
 20
347.6849946726475
 10
1024.00055476763
 20
347.6381372688615
 10
1023.983515711705
 20
347.5912798650648
 10
1023.96647665578
 20
347.5444224612705
 10
1023.945177835873
 20
347.4996949394649
 10
1023.923879015965
 20
347.4549674176595
 10
1023.898320432077
 20
347.4144996598347
 10
1023.872761848189
 20
347.3719020200229
 10
1023.84294350032
 20
347.3335641441877
 10
1023.813125152448
 20
347.2930963863661
 10
1023.78117692259
 20
347.2568883925266
 10
1023.747098810737
 20
347.2228102806733
 10
1023.710890816898
 20
347.188732168823
 10
1023.674682823054
 20
347.1567839389618
 10
1023.634215065231
 20
347.1269655910924
 10
1023.593747307405
 20
347.0971472432216
 10
1023.553279549581
 20
347.0715886593333
 10
1023.510681909771
 20
347.0460300754456
 10
1023.465954387967
 20
347.0247312555376
 10
1023.41909698417
 20
347.003432435632
 10
1023.372239580374
 20
346.9863933797061
 10
1023.325382176579
 20
346.9693543237803
 10
1023.276394890791
 20
346.956575031836
 10
1023.225277723017
 20
346.945925621883
 10
1023.174160555241
 20
346.9352762119294
 10
1023.123043387464
 20
346.9288865659573
 10
1023.069796337694
 20
346.9246268019761
 10
1023.016549287928
 20
346.9246268019761
 10
1023.016549287928
 20
346.7776649446179
 10
1023.252966188897
 20
346.7925741185525
 10
1023.476603797919
 20
346.8671199882272
 10
1023.670423059073
 20
346.9714842057713
 10
1023.849333146291
 20
347.1205759451208
 10
1023.99842488564
 20
347.2845768584041
 97
        0
 75
     0
 76
     1
 47
0.013813
 98
        2
 10
1024.147355290606
 20
355.7103189456673
 10
1023.978804490605
 20
347.4357321456674
450
        0
451
        0
460
0.0
461
0.0
452
        0
462
0.0
453
        0
470

  0
POLYLINE
  5
843
330
1F
100
AcDbEntity
  8
4
100
AcDb2dPolyline
 66
     1
 10
0.0
 20
0.0
 30
0.0
  0
VERTEX
  5
844
330
843
100
AcDbEntity
  8
4
100
AcDbVertex
100
AcDb2dVertex
 10
1024.339206490607
 20
347.938450545667
 30
0.0
  0
VERTEX
  5
845
330
843
100
AcDbEntity
  8
4
100
AcDbVertex
100
AcDb2dVertex
 10
1024.339206490607
 20
358.2023517456672
 30
0.0
  0
VERTEX
  5
846
330
843
100
AcDbEntity
  8
4
100
AcDbVertex
100
AcDb2dVertex
 10
1024.045282090607
 20
358.2023517456672
 30
0.0
  0
VERTEX
  5
847
330
843
100
AcDbEntity
  8
4
100
AcDbVertex
100
AcDb2dVertex
 10
1024.045282090607
 20
347.938450545667
 30
0.0
  0
VERTEX
  5
848
330
843
100
AcDbEntity
  8
4
100
AcDbVertex
100
AcDb2dVertex
 10
1024.339206490607
 20
347.938450545667
 30
0.0
  0
VERTEX
  5
849
330
843
100
AcDbEntity
  8
4
100
AcDbVertex
100
AcDb2dVertex
 10
1024.339206490607
 20
347.938450545667
 30
0.0
  0
SEQEND
  5
84A
330
843
100
AcDbEntity
  8
4
  0
POLYLINE
  5
84B
330
1F
100
AcDbEntity
  8
4
100
AcDb2dPolyline
 66
     1
 10
0.0
 20
0.0
 30
0.0
  0
VERTEX
  5
84C
330
84B
100
AcDbEntity
  8
4
100
AcDbVertex
100
AcDb2dVertex
 10
1023.016549690608
 20
346.630702545667
 30
0.0
  0
VERTEX
  5
84D
330
84B
100
AcDbEntity
  8
4
100
AcDbVertex
100
AcDb2dVertex
 10
1023.082576090605
 20
346.6328325456672
 30
0.0
  0
VERTEX
  5
84E
330
84B
100
AcDbEntity
  8
4
100
AcDbVertex
100
AcDb2dVertex
 10
1023.150731290606
 20
346.6392225456671
 30
0.0
  0
VERTEX
  5
84F
330
84B
100
AcDbEntity
  8
4
100
AcDbVertex
100
AcDb2dVertex
 10
1023.218887690607
 20
346.645612545667
 30
0.0
  0
VERTEX
  5
850
330
84B
100
AcDbEntity
  8
4
100
AcDbVertex
100
AcDb2dVertex
 10
1023.282784090608
 20
346.6583913456671
 30
0.0
  0
VERTEX
  5
851
330
84B
100
AcDbEntity
  8
4
100
AcDbVertex
100
AcDb2dVertex
 10
1023.346680490606
 20
346.6711713456671
 30
0.0
  0
VERTEX
  5
852
330
84B
100
AcDbEntity
  8
4
100
AcDbVertex
100
AcDb2dVertex
 10
1023.410576890606
 20
346.6903401456672
 30
0.0
  0
VERTEX
  5
853
330
84B
100
AcDbEntity
  8
4
100
AcDbVertex
100
AcDb2dVertex
 10
1023.472344490605
 20
346.7116389456672
 30
0.0
  0
VERTEX
  5
854
330
84B
100
AcDbEntity
  8
4
100
AcDbVertex
100
AcDb2dVertex
 10
1023.531980890608
 20
346.7329377456672
 30
0.0
  0
VERTEX
  5
855
330
84B
100
AcDbEntity
  8
4
100
AcDbVertex
100
AcDb2dVertex
 10
1023.591617290606
 20
346.7606253456671
 30
0.0
  0
VERTEX
  5
856
330
84B
100
AcDbEntity
  8
4
100
AcDbVertex
100
AcDb2dVertex
 10
1023.646994890606
 20
346.7883141456669
 30
0.0
  0
VERTEX
  5
857
330
84B
100
AcDbEntity
  8
4
100
AcDbVertex
100
AcDb2dVertex
 10
1023.702371290605
 20
346.8202629456671
 30
0.0
  0
VERTEX
  5
858
330
84B
100
AcDbEntity
  8
4
100
AcDbVertex
100
AcDb2dVertex
 10
1023.757747690606
 20
346.8543405456672
 30
0.0
  0
VERTEX
  5
859
330
84B
100
AcDbEntity
  8
4
100
AcDbVertex
100
AcDb2dVertex
 10
1023.808865290606
 20
346.8905481456672
 30
0.0
  0
VERTEX
  5
85A
330
84B
100
AcDbEntity
  8
4
100
AcDbVertex
100
AcDb2dVertex
 10
1023.859982890606
 20
346.9288869456672
 30
0.0
  0
VERTEX
  5
85B
330
84B
100
AcDbEntity
  8
4
100
AcDbVertex
100
AcDb2dVertex
 10
1023.906840490607
 20
346.9714845456669
 30
0.0
  0
VERTEX
  5
85C
330
84B
100
AcDbEntity
  8
4
100
AcDbVertex
100
AcDb2dVertex
 10
1023.953696890606
 20
347.014082145667
 30
0.0
  0
VERTEX
  5
85D
330
84B
100
AcDbEntity
  8
4
100
AcDbVertex
100
AcDb2dVertex
 10
1023.996294490606
 20
347.0588097456671
 30
0.0
  0
VERTEX
  5
85E
330
84B
100
AcDbEntity
  8
4
100
AcDbVertex
100
AcDb2dVertex
 10
1024.036763290606
 20
347.1077961456672
 30
0.0
  0
VERTEX
  5
85F
330
84B
100
AcDbEntity
  8
4
100
AcDbVertex
100
AcDb2dVertex
 10
1024.077230890605
 20
347.156783745667
 30
0.0
  0
VERTEX
  5
860
330
84B
100
AcDbEntity
  8
4
100
AcDbVertex
100
AcDb2dVertex
 10
1024.113438490606
 20
347.207901345667
 30
0.0
  0
VERTEX
  5
861
330
84B
100
AcDbEntity
  8
4
100
AcDbVertex
100
AcDb2dVertex
 10
1024.147516090605
 20
347.2611477456671
 30
0.0
  0
VERTEX
  5
862
330
84B
100
AcDbEntity
  8
4
100
AcDbVertex
100
AcDb2dVertex
 10
1024.179464890605
 20
347.3165253456672
 30
0.0
  0
VERTEX
  5
863
330
84B
100
AcDbEntity
  8
4
100
AcDbVertex
100
AcDb2dVertex
 10
1024.209283690606
 20
347.3719017456672
 30
0.0
  0
VERTEX
  5
864
330
84B
100
AcDbEntity
  8
4
100
AcDbVertex
100
AcDb2dVertex
 10
1024.234841290605
 20
347.4294093456668
 30
0.0
  0
VERTEX
  5
865
330
84B
100
AcDbEntity
  8
4
100
AcDbVertex
100
AcDb2dVertex
 10
1024.258270090606
 20
347.4890457456671
 30
0.0
  0
VERTEX
  5
866
330
84B
100
AcDbEntity
  8
4
100
AcDbVertex
100
AcDb2dVertex
 10
1024.279568890606
 20
347.5508121456672
 30
0.0
  0
VERTEX
  5
867
330
84B
100
AcDbEntity
  8
4
100
AcDbVertex
100
AcDb2dVertex
 10
1024.296608890607
 20
347.6125785456671
 30
0.0
  0
VERTEX
  5
868
330
84B
100
AcDbEntity
  8
4
100
AcDbVertex
100
AcDb2dVertex
 10
1024.311517690606
 20
347.6764749456669
 30
0.0
  0
VERTEX
  5
869
330
84B
100
AcDbEntity
  8
4
100
AcDbVertex
100
AcDb2dVertex
 10
1024.324296490605
 20
347.7403713456671
 30
0.0
  0
VERTEX
  5
86A
330
84B
100
AcDbEntity
  8
4
100
AcDbVertex
100
AcDb2dVertex
 10
1024.330686490606
 20
347.8063977456671
 30
0.0
  0
VERTEX
  5
86B
330
84B
100
AcDbEntity
  8
4
100
AcDbVertex
100
AcDb2dVertex
 10
1024.337076490608
 20
347.872424145667
 30
0.0
  0
VERTEX
  5
86C
330
84B
100
AcDbEntity
  8
4
100
AcDbVertex
100
AcDb2dVertex
 10
1024.339206490607
 20
347.938450545667
 30
0.0
  0
VERTEX
  5
86D
330
84B
100
AcDbEntity
  8
4
100
AcDbVertex
100
AcDb2dVertex
 10
1024.045282090607
 20
347.938450545667
 30
0.0
  0
VERTEX
  5
86E
330
84B
100
AcDbEntity
  8
4
100
AcDbVertex
100
AcDb2dVertex
 10
1024.045282090607
 20
347.887332945667
 30
0.0
  0
VERTEX
  5
86F
330
84B
100
AcDbEntity
  8
4
100
AcDbVertex
100
AcDb2dVertex
 10
1024.041022090607
 20
347.8362165456671
 30
0.0
  0
VERTEX
  5
870
330
84B
100
AcDbEntity
  8
4
100
AcDbVertex
100
AcDb2dVertex
 10
1024.034633290606
 20
347.7850989456671
 30
0.0
  0
VERTEX
  5
871
330
84B
100
AcDbEntity
  8
4
100
AcDbVertex
100
AcDb2dVertex
 10
1024.026113290605
 20
347.7339825456671
 30
0.0
  0
VERTEX
  5
872
330
84B
100
AcDbEntity
  8
4
100
AcDbVertex
100
AcDb2dVertex
 10
1024.013334490608
 20
347.6849949456672
 30
0.0
  0
VERTEX
  5
873
330
84B
100
AcDbEntity
  8
4
100
AcDbVertex
100
AcDb2dVertex
 10
1024.000554490607
 20
347.6381373456671
 30
0.0
  0
VERTEX
  5
874
330
84B
100
AcDbEntity
  8
4
100
AcDbVertex
100
AcDb2dVertex
 10
1023.983515690606
 20
347.5912797456671
 30
0.0
  0
VERTEX
  5
875
330
84B
100
AcDbEntity
  8
4
100
AcDbVertex
100
AcDb2dVertex
 10
1023.966476890606
 20
347.5444221456671
 30
0.0
  0
VERTEX
  5
876
330
84B
100
AcDbEntity
  8
4
100
AcDbVertex
100
AcDb2dVertex
 10
1023.945178090606
 20
347.4996945456672
 30
0.0
  0
VERTEX
  5
877
330
84B
100
AcDbEntity
  8
4
100
AcDbVertex
100
AcDb2dVertex
 10
1023.923879290606
 20
347.4549669456671
 30
0.0
  0
VERTEX
  5
878
330
84B
100
AcDbEntity
  8
4
100
AcDbVertex
100
AcDb2dVertex
 10
1023.898320490606
 20
347.4144993456671
 30
0.0
  0
VERTEX
  5
879
330
84B
100
AcDbEntity
  8
4
100
AcDbVertex
100
AcDb2dVertex
 10
1023.872761690606
 20
347.3719017456672
 30
0.0
  0
VERTEX
  5
87A
330
84B
100
AcDbEntity
  8
4
100
AcDbVertex
100
AcDb2dVertex
 10
1023.842944090607
 20
347.333564145667
 30
0.0
  0
VERTEX
  5
87B
330
84B
100
AcDbEntity
  8
4
100
AcDbVertex
100
AcDb2dVertex
 10
1023.813125290606
 20
347.2930965456671
 30
0.0
  0
VERTEX
  5
87C
330
84B
100
AcDbEntity
  8
4
100
AcDbVertex
100
AcDb2dVertex
 10
1023.781176490606
 20
347.2568889456671
 30
0.0
  0
VERTEX
  5
87D
330
84B
100
AcDbEntity
  8
4
100
AcDbVertex
100
AcDb2dVertex
 10
1023.747098890607
 20
347.2228101456669
 30
0.0
  0
VERTEX
  5
87E
330
84B
100
AcDbEntity
  8
4
100
AcDbVertex
100
AcDb2dVertex
 10
1023.710891290606
 20
347.1887325456672
 30
0.0
  0
VERTEX
  5
87F
330
84B
100
AcDbEntity
  8
4
100
AcDbVertex
100
AcDb2dVertex
 10
1023.674682490607
 20
347.156783745667
 30
0.0
  0
VERTEX
  5
880
330
84B
100
AcDbEntity
  8
4
100
AcDbVertex
100
AcDb2dVertex
 10
1023.634214890607
 20
347.1269661456672
 30
0.0
  0
VERTEX
  5
881
330
84B
100
AcDbEntity
  8
4
100
AcDbVertex
100
AcDb2dVertex
 10
1023.593747290608
 20
347.0971473456672
 30
0.0
  0
VERTEX
  5
882
330
84B
100
AcDbEntity
  8
4
100
AcDbVertex
100
AcDb2dVertex
 10
1023.553279690607
 20
347.0715885456672
 30
0.0
  0
VERTEX
  5
883
330
84B
100
AcDbEntity
  8
4
100
AcDbVertex
100
AcDb2dVertex
 10
1023.510682090608
 20
347.0460297456669
 30
0.0
  0
VERTEX
  5
884
330
84B
100
AcDbEntity
  8
4
100
AcDbVertex
100
AcDb2dVertex
 10
1023.465954490606
 20
347.0247309456671
 30
0.0
  0
VERTEX
  5
885
330
84B
100
AcDbEntity
  8
4
100
AcDbVertex
100
AcDb2dVertex
 10
1023.419096890606
 20
347.0034321456671
 30
0.0
  0
VERTEX
  5
886
330
84B
100
AcDbEntity
  8
4
100
AcDbVertex
100
AcDb2dVertex
 10
1023.372239290607
 20
346.9863933456669
 30
0.0
  0
VERTEX
  5
887
330
84B
100
AcDbEntity
  8
4
100
AcDbVertex
100
AcDb2dVertex
 10
1023.325381690605
 20
346.9693545456672
 30
0.0
  0
VERTEX
  5
888
330
84B
100
AcDbEntity
  8
4
100
AcDbVertex
100
AcDb2dVertex
 10
1023.276395290605
 20
346.9565745456669
 30
0.0
  0
VERTEX
  5
889
330
84B
100
AcDbEntity
  8
4
100
AcDbVertex
100
AcDb2dVertex
 10
1023.225277690605
 20
346.9459257456671
 30
0.0
  0
VERTEX
  5
88A
330
84B
100
AcDbEntity
  8
4
100
AcDbVertex
100
AcDb2dVertex
 10
1023.174160090608
 20
346.9352757456673
 30
0.0
  0
VERTEX
  5
88B
330
84B
100
AcDbEntity
  8
4
100
AcDbVertex
100
AcDb2dVertex
 10
1023.123043690606
 20
346.9288869456672
 30
0.0
  0
VERTEX
  5
88C
330
84B
100
AcDbEntity
  8
4
100
AcDbVertex
100
AcDb2dVertex
 10
1023.069796090607
 20
346.9246269456672
 30
0.0
  0
VERTEX
  5
88D
330
84B
100
AcDbEntity
  8
4
100
AcDbVertex
100
AcDb2dVertex
 10
1023.016549690608
 20
346.9246269456672
 30
0.0
  0
VERTEX
  5
88E
330
84B
100
AcDbEntity
  8
4
100
AcDbVertex
100
AcDb2dVertex
 10
1023.016549690608
 20
346.630702545667
 30
0.0
  0
VERTEX
  5
88F
330
84B
100
AcDbEntity
  8
4
100
AcDbVertex
100
AcDb2dVertex
 10
1023.016549690608
 20
346.630702545667
 30
0.0
  0
SEQEND
  5
890
330
84B
100
AcDbEntity
  8
4
  0
VIEWPORT
  5
6F
330
55
100
AcDbEntity
 67
     1
  8
0
100
AcDbViewport
 10
141.0
 20
85.0
 30
0.0
 40
384.7606204379562
 41
222.18
 68
     1
 69
     1
 12
141.0
 22
85.0
 13
0.0
 23
0.0
 14
10.0
 24
10.0
 15
10.0
 25
10.0
 16
0.0
 26
0.0
 36
1.0
 17
0.0
 27
0.0
 37
0.0
 42
50.0
 43
0.0
 44
0.0
 45
222.18
 50
0.0
 51
0.0
 72
   100
 90
    32800
  1

281
     0
 71
     1
 74
     0
110
0.0
120
0.0
130
0.0
111
1.0
121
0.0
131
0.0
112
0.0
122
1.0
132
0.0
 79
     0
146
0.0
170
     0
1001
GENIUS_GENOBJ-N-SDF_13
1002
{
1000
OWNER
1000
GEN
1002
}
1001
GENIUS_GENODEF_13
1002
{
1000
HIER
1070
     0
1002
}
1002
{
1000
MANEDIT
1070
     0
1002
}
1002
{
1000
NOSEL
1070
     0
1002
}
1002
{
1000
BEHIND
1070
     0
1002
}
1002
{
1000
OTHER
1070
     0
1002
}
1002
{
1000
REACTOR
1002
}
1001
GENIUS_GENSCREG_15
1000
PF
1040
1.0
1000
DF
1040
1.0
1000
MIN
1011
-51.38031021897808
1021
-26.09
1031
0.0
1000
MAX
1011
333.3803102189782
1021
196.09
1031
0.0
1000
FLAGS
1070
     2
  0
VIEWPORT
  5
71
330
55
100
AcDbEntity
 67
     1
  8
0
100
AcDbViewport
 10
141.0
 20
85.0
 30
0.0
 40
225.6
 41
136.0
 68
     2
 69
     2
 12
210.0
 22
148.5
 13
0.0
 23
0.0
 14
10.0
 24
10.0
 15
10.0
 25
10.0
 16
0.0
 26
0.0
 36
1.0
 17
0.0
 27
0.0
 37
0.0
 42
50.0
 43
0.0
 44
0.0
 45
302.3194029850746
 50
0.0
 51
0.0
 72
   100
 90
    32864
  1

281
     0
 71
     1
 74
     0
110
0.0
120
0.0
130
0.0
111
1.0
121
0.0
131
0.0
112
0.0
122
1.0
132
0.0
 79
     0
146
0.0
170
     0
1001
GENIUS_GENODEF_13
1002
{
1000
HIER
1070
     0
1002
}
1002
{
1000
MANEDIT
1070
     0
1002
}
1002
{
1000
NOSEL
1070
     0
1002
}
1002
{
1000
BEHIND
1070
     0
1002
}
1002
{
1000
OTHER
1070
     0
1002
}
1002
{
1000
REACTOR
1002
}
1001
GENIUS_GENOBJ-N-SDF_13
1002
{
1000
OWNER
1000
GEN
1002
}
1001
GENIUS_GENSCREG_15
1000
PF
1040
0.0
1000
DF
1040
0.0
1000
MIN
1011
28.20000000000002
1021
17.0
1031
0.0
1000
MAX
1011
253.8
1021
153.0
1031
0.0
1000
FLAGS
1070
     2
  0
ENDSEC
  0
SECTION
  2
OBJECTS
  0
DICTIONARY
  5
C
330
0
100
AcDbDictionary
281
     1
  3
ACAD_COLOR
350
F6
  3
ACAD_GROUP
350
D
  3
ACAD_LAYOUT
350
1A
  3
ACAD_MATERIAL
350
F5
  3
ACAD_MLINESTYLE
350
17
  3
ACAD_PLOTSETTINGS
350
19
  3
ACAD_PLOTSTYLENAME
350
E
  3
ACAD_TABLESTYLE
350
16F
  3
ACAD_VISUALSTYLE
350
1EE
  3
AcDbVariableDictionary
350
DA
  3
AcmDictionary
350
97
  3
AMG
350
7D
  3
AMGSNAPSETTINGS
350
5B5
  0
DICTIONARY
  5
D5
330
1F
100
AcDbDictionary
280
     1
281
     1
  0
DICTIONARY
  5
F6
102
{ACAD_REACTORS
330
C
102
}
330
C
100
AcDbDictionary
281
     1
  0
DICTIONARY
  5
D
102
{ACAD_REACTORS
330
C
102
}
330
C
100
AcDbDictionary
281
     1
  0
DICTIONARY
  5
1A
102
{ACAD_REACTORS
330
C
102
}
330
C
100
AcDbDictionary
281
     1
  3
Layout1
350
51
  3
Layout2
350
56
  3
Model
350
22
  0
DICTIONARY
  5
F5
102
{ACAD_REACTORS
330
C
102
}
330
C
100
AcDbDictionary
281
     1
  3
ByBlock
350
1EC
  3
ByLayer
350
1EB
  3
Global
350
1ED
  0
DICTIONARY
  5
17
102
{ACAD_REACTORS
330
C
102
}
330
C
100
AcDbDictionary
281
     1
  3
Standard
350
18
  0
DICTIONARY
  5
19
102
{ACAD_REACTORS
330
C
102
}
330
C
100
AcDbDictionary
281
     1
  0
ACDBDICTIONARYWDFLT
  5
E
102
{ACAD_REACTORS
330
C
102
}
330
C
100
AcDbDictionary
281
     1
  3
Normal
350
F
100
AcDbDictionaryWithDefault
340
F
  0
DICTIONARY
  5
16F
102
{ACAD_REACTORS
330
C
102
}
330
C
100
AcDbDictionary
281
     1
  3
Standard
350
170
  0
DICTIONARY
  5
1EE
102
{ACAD_REACTORS
330
C
102
}
330
C
100
AcDbDictionary
281
     1
  3
2dWireframe
350
1F4
  3
3D Hidden
350
1F6
  3
3dWireframe
350
1F5
  3
Basic
350
1F3
  3
Brighten
350
1FA
  3
ColorChange
350
1FE
  3
Conceptual
350
1F7
  3
Dim
350
1F9
  3
EdgeColorOff
350
93D
  3
Facepattern
350
1FD
  3
Flat
350
1EF
  3
FlatWithEdges
350
1F0
  3
Gouraud
350
1F1
  3
GouraudWithEdges
350
1F2
  3
JitterOff
350
940
  3
Linepattern
350
1FC
  3
OverhangOff
350
943
  3
Realistic
350
1F8
  3
Thicken
350
1FB
  0
DICTIONARY
  5
DA
102
{ACAD_REACTORS
330
C
102
}
330
C
100
AcDbDictionary
281
     1
  3
CTABLESTYLE
350
18F
  3
DIMASSOC
350
DC
  3
INDEXCTL
350
DB
  0
DICTIONARY
  5
97
102
{ACAD_REACTORS
330
C
102
}
330
C
100
AcDbDictionary
281
     1
  3
AcmStdDictionary
350
9D
  3
AMDTSECTSYM_ARROWCOLOR
350
186
  0
DICTIONARY
  5
7D
102
{ACAD_REACTORS
330
C
102
}
330
C
100
AcDbDictionary
281
     1
  0
DICTIONARY
  5
5B5
102
{ACAD_REACTORS
330
C
102
}
330
C
100
AcDbDictionary
281
     1
  0
LAYOUT
  5
51
102
{ACAD_REACTORS
330
1A
102
}
330
1A
100
AcDbPlotSettings
  1

  2
none_device
  4
ISO_A4_(210.00_x_297.00_MM)
  6

 40
7.5
 41
20.0
 42
7.5
 43
20.0
 44
210.0
 45
297.0
 46
0.0
 47
0.0
 48
0.0
 49
0.0
140
0.0
141
0.0
142
1.0
143
1.0
 70
   688
 72
     1
 73
     1
 74
     5
  7
ganz_fein_1.ctb
 75
    16
147
1.0
 76
     0
 77
     2
 78
   300
148
0.0
149
0.0
100
AcDbLayout
  1
Layout1
 70
     1
 71
     1
 10
-20.0
 20
-7.5
 11
277.0
 21
202.5
 12
0.0
 22
0.0
 32
0.0
 14
25.69999999999999
 24
19.5
 34
0.0
 15
231.3
 25
175.5
 35
0.0
146
0.0
 13
0.0
 23
0.0
 33
0.0
 16
1.0
 26
0.0
 36
0.0
 17
0.0
 27
1.0
 37
0.0
 76
     0
330
50
331
69
  0
LAYOUT
  5
56
102
{ACAD_REACTORS
330
1A
102
}
330
1A
100
AcDbPlotSettings
  1

  2
none_device
  4
ISO_A4_(297.00_x_210.00_MM)
  6

 40
7.5
 41
20.0
 42
7.5
 43
20.0
 44
297.0
 45
210.0
 46
0.0
 47
0.0
 48
0.0
 49
0.0
140
0.0
141
0.0
142
1.0
143
1.0
 70
   688
 72
     1
 73
     0
 74
     5
  7
ganz_fein_1.ctb
 75
    16
147
1.0
 76
     0
 77
     2
 78
   300
148
0.0
149
0.0
100
AcDbLayout
  1
Layout2
 70
     1
 71
     2
 10
-7.5
 20
-20.0
 11
289.5
 21
190.0
 12
0.0
 22
0.0
 32
0.0
 14
28.19999999999999
 24
17.0
 34
0.0
 15
253.8
 25
153.0
 35
0.0
146
0.0
 13
0.0
 23
0.0
 33
0.0
 16
1.0
 26
0.0
 36
0.0
 17
0.0
 27
1.0
 37
0.0
 76
     0
330
55
331
6F
  0
LAYOUT
  5
22
102
{ACAD_REACTORS
330
1A
102
}
330
1A
100
AcDbPlotSettings
  1

  2
Adobe PDF
  4
A4
  6

 40
3.174999952316284
 41
3.174999952316284
 42
3.175003051757812
 43
3.17498779296875
 44
209.9733276367187
 45
297.0318298339844
 46
-0.0000000000000048
 47
6.163274490322883
 48
492.0696383764286
 49
303.4201191910605
140
1073.709855576427
141
728.9033691910604
142
1.0
143
2.089560470381333
 70
 11956
 72
     1
 73
     1
 74
     4
  7
ganz_fein_1.ctb
 75
     0
147
0.4785695432961103
 76
     0
 77
     2
 78
   300
148
-492.0696383764286
149
-303.4201191910605
100
AcDbLayout
  1
Model
 70
     1
 71
     0
 10
0.0
 20
0.0
 11
12.0
 21
9.0
 12
0.0
 22
0.0
 32
0.0
 14
0.0
 24
0.0
 34
0.0
 15
0.0
 25
0.0
 35
0.0
146
0.0
 13
0.0
 23
0.0
 33
0.0
 16
1.0
 26
0.0
 36
0.0
 17
0.0
 27
1.0
 37
0.0
 76
     0
330
1F
331
1E9
1001
ACAD_PSEXT
1000
Adobe PDF
1000
Adobe PDF Converter
1000
Documents\*.pdf
1000

1070
     0
  0
MATERIAL
  5
1EC
102
{ACAD_XDICTIONARY
360
954
102
}
102
{ACAD_REACTORS
330
F5
102
}
330
F5
100
AcDbMaterial
  1
ByBlock
  0
MATERIAL
  5
1EB
102
{ACAD_XDICTIONARY
360
952
102
}
102
{ACAD_REACTORS
330
F5
102
}
330
F5
100
AcDbMaterial
  1
ByLayer
  0
MATERIAL
  5
1ED
102
{ACAD_XDICTIONARY
360
956
102
}
102
{ACAD_REACTORS
330
F5
102
}
330
F5
100
AcDbMaterial
  1
Global
  0
MLINESTYLE
  5
18
102
{ACAD_REACTORS
330
17
102
}
330
17
100
AcDbMlineStyle
  2
STANDARD
 70
     0
  3

 62
   256
 51
90.0
 52
90.0
 71
     2
 49
0.5
 62
   256
  6
BYLAYER
 49
-0.5
 62
   256
  6
BYLAYER
  0
ACDBPLACEHOLDER
  5
F
102
{ACAD_REACTORS
330
E
102
}
330
E
  0
TABLESTYLE
  5
170
102
{ACAD_XDICTIONARY
360
A2D
102
}
102
{ACAD_REACTORS
330
16F
102
}
330
16F
100
AcDbTableStyle
  3
Standard
 70
     0
 71
     0
 40
1.5
 41
1.5
280
     0
281
     0
  7
STANDARD
140
4.5
170
     2
 62
     0
 63
     7
283
     0
274
    -2
284
     1
 64
     0
275
    -2
285
     1
 65
     0
276
    -2
286
     1
 66
     0
277
    -2
287
     1
 67
     0
278
    -2
288
     1
 68
     0
279
    -2
289
     1
 69
     0
  7
STANDARD
140
6.0
170
     5
 62
     0
 63
     7
283
     0
274
    -2
284
     1
 64
     0
275
    -2
285
     1
 65
     0
276
    -2
286
     1
 66
     0
277
    -2
287
     1
 67
     0
278
    -2
288
     1
 68
     0
279
    -2
289
     1
 69
     0
  7
STANDARD
140
4.5
170
     5
 62
     0
 63
     7
283
     0
274
    -2
284
     1
 64
     0
275
    -2
285
     1
 65
     0
276
    -2
286
     1
 66
     0
277
    -2
287
     1
 67
     0
278
    -2
288
     1
 68
     0
279
    -2
289
     1
 69
     0
  0
VISUALSTYLE
  5
1F4
102
{ACAD_REACTORS
330
1EE
102
}
330
1EE
100
AcDbVisualStyle
  2
2dWireframe
 70
     4
 71
     0
 72
     2
 73
     0
 90
        0
 40
-0.6
 41
-30.0
 62
     5
 63
     7
421
 16777215
 74
     1
 91
        4
 64
     7
 65
   257
 75
     1
175
     1
 42
1.0
 92
        0
 66
   257
 43
1.0
 76
     1
 77
     6
 78
     2
 67
     7
 79
     5
170
     0
171
     0
290
     0
174
     0
 93
        1
 44
0.0
173
     0
291
     0
 45
0.0
1001
ACAD
1000
AcDbSavedByObjectVersion
1070
     0
1000
AcDbSavedByObjectVersion
1070
     0
  0
VISUALSTYLE
  5
1F6
102
{ACAD_REACTORS
330
1EE
102
}
330
1EE
100
AcDbVisualStyle
  2
3D Hidden
 70
     6
 71
     1
 72
     2
 73
     2
 90
        0
 40
-0.6
 41
-30.0
 62
     5
 63
     7
421
 16777215
 74
     2
 91
        2
 64
     7
 65
   257
 75
     2
175
     1
 42
40.0
 92
        0
 66
   257
 43
1.0
 76
     1
 77
     6
 78
     2
 67
     7
 79
     3
170
     0
171
     0
290
     0
174
     0
 93
        1
 44
0.0
173
     0
291
     0
 45
0.0
1001
ACAD
1000
AcDbSavedByObjectVersion
1070
     0
1000
AcDbSavedByObjectVersion
1070
     0
  0
VISUALSTYLE
  5
1F5
102
{ACAD_REACTORS
330
1EE
102
}
330
1EE
100
AcDbVisualStyle
  2
3dWireframe
 70
     5
 71
     0
 72
     2
 73
     0
 90
        0
 40
-0.6
 41
-30.0
 62
     5
 63
     7
421
 16777215
 74
     1
 91
        4
 64
     7
 65
   257
 75
     1
175
     1
 42
1.0
 92
        0
 66
   257
 43
1.0
 76
     1
 77
     6
 78
     2
 67
     7
 79
     5
170
     0
171
     0
290
     0
174
     0
 93
        1
 44
0.0
173
     0
291
     0
 45
0.0
1001
ACAD
1000
AcDbSavedByObjectVersion
1070
     0
1000
AcDbSavedByObjectVersion
1070
     0
  0
VISUALSTYLE
  5
1F3
102
{ACAD_REACTORS
330
1EE
102
}
330
1EE
100
AcDbVisualStyle
  2
Basic
 70
     7
 71
     1
 72
     0
 73
     1
 90
        0
 40
-0.6
 41
-30.0
 62
     5
 63
     7
421
 16777215
 74
     0
 91
        4
 64
     7
 65
   257
 75
     1
175
     1
 42
1.0
 92
        8
 66
     7
 43
1.0
 76
     1
 77
     6
 78
     2
 67
     7
 79
     5
170
     0
171
     0
290
     0
174
     0
 93
        1
 44
0.0
173
     0
291
     1
 45
0.0
1001
ACAD
1000
AcDbSavedByObjectVersion
1070
     0
1000
AcDbSavedByObjectVersion
1070
     0
  0
VISUALSTYLE
  5
1FA
102
{ACAD_REACTORS
330
1EE
102
}
330
1EE
100
AcDbVisualStyle
  2
Brighten
 70
    12
 71
     2
 72
     2
 73
     0
 90
        0
 40
-0.6
 41
-30.0
 62
     5
 63
     7
421
 16777215
 74
     1
 91
        4
 64
     7
 65
   257
 75
     1
175
     1
 42
1.0
 92
        8
 66
     7
 43
1.0
 76
     1
 77
     6
 78
     2
 67
     7
 79
     5
170
     0
171
     0
290
     0
174
     0
 93
        1
 44
50.0
173
     0
291
     1
 45
0.0
1001
ACAD
1000
AcDbSavedByObjectVersion
1070
     0
1000
AcDbSavedByObjectVersion
1070
     0
  0
VISUALSTYLE
  5
1FE
102
{ACAD_REACTORS
330
1EE
102
}
330
1EE
100
AcDbVisualStyle
  2
ColorChange
 70
    16
 71
     2
 72
     2
 73
     3
 90
        0
 40
-0.6
 41
-30.0
 62
     5
 63
     8
421
  8421504
 74
     1
 91
        4
 64
     7
 65
   257
 75
     1
175
     1
 42
1.0
 92
        8
 66
     8
424
  8421504
 43
1.0
 76
     1
 77
     6
 78
     2
 67
     7
 79
     5
170
     0
171
     0
290
     0
174
     0
 93
        1
 44
0.0
173
     0
291
     1
 45
0.0
1001
ACAD
1000
AcDbSavedByObjectVersion
1070
     0
1000
AcDbSavedByObjectVersion
1070
     0
  0
VISUALSTYLE
  5
1F7
102
{ACAD_REACTORS
330
1EE
102
}
330
1EE
100
AcDbVisualStyle
  2
Conceptual
 70
     9
 71
     3
 72
     2
 73
     0
 90
        0
 40
-0.6
 41
-30.0
 62
     5
 63
     7
421
 16777215
 74
     2
 91
        2
 64
     7
 65
   257
 75
     1
175
     1
 42
40.0
 92
        8
 66
     7
 43
1.0
 76
     1
 77
     6
 78
     2
 67
     7
 79
     3
170
     0
171
     0
290
     0
174
     0
 93
        1
 44
0.0
173
     0
291
     0
 45
0.0
1001
ACAD
1000
AcDbSavedByObjectVersion
1070
     0
1000
AcDbSavedByObjectVersion
1070
     0
  0
VISUALSTYLE
  5
1F9
102
{ACAD_REACTORS
330
1EE
102
}
330
1EE
100
AcDbVisualStyle
  2
Dim
 70
    11
 71
     2
 72
     2
 73
     0
 90
        0
 40
-0.6
 41
-30.0
 62
     5
 63
     7
421
 16777215
 74
     1
 91
        4
 64
     7
 65
   257
 75
     1
175
     1
 42
1.0
 92
        8
 66
     7
 43
1.0
 76
     1
 77
     6
 78
     2
 67
     7
 79
     5
170
     0
171
     0
290
     0
174
     0
 93
        1
 44
-50.0
173
     0
291
     1
 45
0.0
1001
ACAD
1000
AcDbSavedByObjectVersion
1070
     0
1000
AcDbSavedByObjectVersion
1070
     0
  0
VISUALSTYLE
  5
93D
102
{ACAD_XDICTIONARY
360
93E
102
}
102
{ACAD_REACTORS
330
1EE
102
}
330
1EE
100
AcDbVisualStyle
  2
EdgeColorOff
 70
    22
 71
     2
 72
     2
 73
     0
 90
        0
 40
-0.6
 41
-30.0
 62
     5
 63
     7
 74
     1
 91
        4
 64
     7
 65
   257
 75
     1
175
     1
 42
1.0
 92
        8
 66
     7
 43
1.0
 76
     1
 77
     6
 78
     2
 67
     7
 79
     5
170
     0
171
     0
290
     0
174
     0
 93
        1
 44
0.0
173
     0
291
     1
 45
0.0
1001
ACAD
1000
AcDbSavedByObjectVersion
1070
     0
1000
AcDbSavedByObjectVersion
1070
     0
  0
VISUALSTYLE
  5
1FD
102
{ACAD_REACTORS
330
1EE
102
}
330
1EE
100
AcDbVisualStyle
  2
Facepattern
 70
    15
 71
     2
 72
     2
 73
     0
 90
        0
 40
-0.6
 41
-30.0
 62
     5
 63
     7
421
 16777215
 74
     1
 91
        4
 64
     7
 65
   257
 75
     1
175
     1
 42
1.0
 92
        8
 66
     7
 43
1.0
 76
     1
 77
     6
 78
     2
 67
     7
 79
     5
170
     0
171
     0
290
     0
174
     0
 93
        1
 44
0.0
173
     0
291
     1
 45
0.0
1001
ACAD
1000
AcDbSavedByObjectVersion
1070
     0
1000
AcDbSavedByObjectVersion
1070
     0
  0
VISUALSTYLE
  5
1EF
102
{ACAD_REACTORS
330
1EE
102
}
330
1EE
100
AcDbVisualStyle
  2
Flat
 70
     0
 71
     2
 72
     1
 73
     1
 90
        2
 40
-0.6
 41
30.0
 62
     5
 63
     7
421
 16777215
 74
     0
 91
        4
 64
     7
 65
   257
 75
     1
175
     1
 42
1.0
 92
        8
 66
     7
 43
1.0
 76
     1
 77
     6
 78
     2
 67
     7
 79
     5
170
     0
171
     0
290
     0
174
     0
 93
       13
 44
0.0
173
     0
291
     1
 45
0.0
1001
ACAD
1000
AcDbSavedByObjectVersion
1070
     0
1000
AcDbSavedByObjectVersion
1070
     0
  0
VISUALSTYLE
  5
1F0
102
{ACAD_REACTORS
330
1EE
102
}
330
1EE
100
AcDbVisualStyle
  2
FlatWithEdges
 70
     1
 71
     2
 72
     1
 73
     1
 90
        2
 40
-0.6
 41
30.0
 62
     5
 63
     7
421
 16777215
 74
     1
 91
        4
 64
     7
 65
   257
 75
     1
175
     1
 42
1.0
 92
        0
 66
   257
 43
1.0
 76
     1
 77
     6
 78
     2
 67
     7
 79
     5
170
     0
171
     0
290
     0
174
     0
 93
       13
 44
0.0
173
     0
291
     1
 45
0.0
1001
ACAD
1000
AcDbSavedByObjectVersion
1070
     0
1000
AcDbSavedByObjectVersion
1070
     0
  0
VISUALSTYLE
  5
1F1
102
{ACAD_REACTORS
330
1EE
102
}
330
1EE
100
AcDbVisualStyle
  2
Gouraud
 70
     2
 71
     2
 72
     2
 73
     1
 90
        2
 40
-0.6
 41
30.0
 62
     5
 63
     7
421
 16777215
 74
     0
 91
        4
 64
     7
 65
   257
 75
     1
175
     1
 42
1.0
 92
        0
 66
     7
 43
1.0
 76
     1
 77
     6
 78
     2
 67
     7
 79
     5
170
     0
171
     0
290
     0
174
     0
 93
       13
 44
0.0
173
     0
291
     1
 45
0.0
1001
ACAD
1000
AcDbSavedByObjectVersion
1070
     0
1000
AcDbSavedByObjectVersion
1070
     0
  0
VISUALSTYLE
  5
1F2
102
{ACAD_REACTORS
330
1EE
102
}
330
1EE
100
AcDbVisualStyle
  2
GouraudWithEdges
 70
     3
 71
     2
 72
     2
 73
     1
 90
        2
 40
-0.6
 41
30.0
 62
     5
 63
     7
421
 16777215
 74
     1
 91
        4
 64
     7
 65
   257
 75
     1
175
     1
 42
1.0
 92
        0
 66
   257
 43
1.0
 76
     1
 77
     6
 78
     2
 67
     7
 79
     5
170
     0
171
     0
290
     0
174
     0
 93
       13
 44
0.0
173
     0
291
     1
 45
0.0
1001
ACAD
1000
AcDbSavedByObjectVersion
1070
     0
1000
AcDbSavedByObjectVersion
1070
     0
  0
VISUALSTYLE
  5
940
102
{ACAD_XDICTIONARY
360
941
102
}
102
{ACAD_REACTORS
330
1EE
102
}
330
1EE
100
AcDbVisualStyle
  2
JitterOff
 70
    20
 71
     2
 72
     2
 73
     0
 90
        0
 40
-0.6
 41
-30.0
 62
     5
 63
     7
 74
     1
 91
        4
 64
     7
 65
   257
 75
     1
175
     1
 42
1.0
 92
       10
 66
     7
 43
1.0
 76
     1
 77
     6
 78
     2
 67
     7
 79
     5
170
     0
171
     0
290
     0
174
     0
 93
        1
 44
0.0
173
     0
291
     1
 45
0.0
1001
ACAD
1000
AcDbSavedByObjectVersion
1070
     0
1000
AcDbSavedByObjectVersion
1070
     0
  0
VISUALSTYLE
  5
1FC
102
{ACAD_REACTORS
330
1EE
102
}
330
1EE
100
AcDbVisualStyle
  2
Linepattern
 70
    14
 71
     2
 72
     2
 73
     0
 90
        0
 40
-0.6
 41
-30.0
 62
     5
 63
     7
421
 16777215
 74
     1
 91
        4
 64
     7
 65
   257
 75
     7
175
     7
 42
1.0
 92
        8
 66
     7
 43
1.0
 76
     1
 77
     6
 78
     2
 67
     7
 79
     5
170
     0
171
     0
290
     0
174
     0
 93
        1
 44
0.0
173
     0
291
     1
 45
0.0
1001
ACAD
1000
AcDbSavedByObjectVersion
1070
     0
1000
AcDbSavedByObjectVersion
1070
     0
  0
VISUALSTYLE
  5
943
102
{ACAD_XDICTIONARY
360
944
102
}
102
{ACAD_REACTORS
330
1EE
102
}
330
1EE
100
AcDbVisualStyle
  2
OverhangOff
 70
    21
 71
     2
 72
     2
 73
     0
 90
        0
 40
-0.6
 41
-30.0
 62
     5
 63
     7
 74
     1
 91
        4
 64
     7
 65
   257
 75
     1
175
     1
 42
1.0
 92
        9
 66
     7
 43
1.0
 76
     1
 77
     6
 78
     2
 67
     7
 79
     5
170
     0
171
     0
290
     0
174
     0
 93
        1
 44
0.0
173
     0
291
     1
 45
0.0
1001
ACAD
1000
AcDbSavedByObjectVersion
1070
     0
1000
AcDbSavedByObjectVersion
1070
     0
  0
VISUALSTYLE
  5
1F8
102
{ACAD_REACTORS
330
1EE
102
}
330
1EE
100
AcDbVisualStyle
  2
Realistic
 70
     8
 71
     2
 72
     2
 73
     0
 90
        0
 40
-0.6
 41
-30.0
 62
     5
 63
     7
421
 16777215
 74
     1
 91
        0
 64
     7
 65
   257
 75
     1
175
     1
 42
1.0
 92
        8
 66
     8
424
  7895160
 43
1.0
 76
     1
 77
     6
 78
     2
 67
     7
 79
     5
170
     0
171
     0
290
     0
174
     0
 93
       13
 44
0.0
173
     0
291
     0
 45
0.0
1001
ACAD
1000
AcDbSavedByObjectVersion
1070
     0
1000
AcDbSavedByObjectVersion
1070
     0
  0
VISUALSTYLE
  5
1FB
102
{ACAD_REACTORS
330
1EE
102
}
330
1EE
100
AcDbVisualStyle
  2
Thicken
 70
    13
 71
     2
 72
     2
 73
     0
 90
        0
 40
-0.6
 41
-30.0
 62
     5
 63
     7
421
 16777215
 74
     1
 91
        4
 64
     7
 65
   257
 75
     1
175
     1
 42
1.0
 92
       12
 66
     7
 43
1.0
 76
     1
 77
     6
 78
     2
 67
     7
 79
     5
170
     0
171
     0
290
     0
174
     0
 93
        1
 44
0.0
173
     0
291
     1
 45
0.0
1001
ACAD
1000
AcDbSavedByObjectVersion
1070
     0
1000
AcDbSavedByObjectVersion
1070
     0
  0
DICTIONARYVAR
  5
18F
102
{ACAD_REACTORS
330
DA
102
}
330
DA
100
DictionaryVariables
280
     0
  1
STANDARD
  0
DICTIONARYVAR
  5
DC
102
{ACAD_REACTORS
330
DA
102
}
330
DA
100
DictionaryVariables
280
     0
  1
1
  0
DICTIONARYVAR
  5
DB
102
{ACAD_REACTORS
330
DA
102
}
330
DA
100
DictionaryVariables
280
     0
  1
1
  0
DICTIONARY
  5
9D
102
{ACAD_REACTORS
330
97
102
}
330
97
100
AcDbDictionary
281
     1
  0
XRECORD
  5
186
102
{ACAD_REACTORS
330
97
102
}
330
97
100
AcDbXrecord
280
     1
 90
-1023410169
  0
DICTIONARY
  5
954
330
1EC
100
AcDbDictionary
280
     1
281
     1
  3
ACAD_XREC_ROUNDTRIP
360
955
  0
DICTIONARY
  5
952
330
1EB
100
AcDbDictionary
280
     1
281
     1
  3
ACAD_XREC_ROUNDTRIP
360
953
  0
DICTIONARY
  5
956
330
1ED
100
AcDbDictionary
280
     1
281
     1
  3
ACAD_XREC_ROUNDTRIP
360
957
  0
DICTIONARY
  5
A2D
330
170
100
AcDbDictionary
280
     1
281
     1
  3
ACAD_XREC_ROUNDTRIP
360
A2E
  0
DICTIONARY
  5
93E
330
93D
100
AcDbDictionary
280
     1
281
     1
  3
ACAD_XREC_ROUNDTRIP
360
93F
  0
DICTIONARY
  5
941
330
940
100
AcDbDictionary
280
     1
281
     1
  3
ACAD_XREC_ROUNDTRIP
360
942
  0
DICTIONARY
  5
944
330
943
100
AcDbDictionary
280
     1
281
     1
  3
ACAD_XREC_ROUNDTRIP
360
945
  0
XRECORD
  5
955
102
{ACAD_REACTORS
330
954
102
}
330
954
100
AcDbXrecord
280
     1
102
MATERIAL
148
0.0
149
0.0
149
0.0
 93
        0
 94
       63
282
     0
 72
     1
 77
     1
171
     1
175
     1
179
     1
273
     0
  0
XRECORD
  5
953
102
{ACAD_REACTORS
330
952
102
}
330
952
100
AcDbXrecord
280
     1
102
MATERIAL
148
0.0
149
0.0
149
0.0
 93
        0
 94
       63
282
     0
 72
     1
 77
     1
171
     1
175
     1
179
     1
273
     0
  0
XRECORD
  5
957
102
{ACAD_REACTORS
330
956
102
}
330
956
100
AcDbXrecord
280
     1
102
MATERIAL
148
0.0
149
0.0
149
0.0
 93
        0
 94
       63
282
     0
 72
     1
 77
     1
171
     1
175
     1
179
     1
273
     0
  0
XRECORD
  5
A2E
102
{ACAD_REACTORS
330
A2D
102
}
330
A2D
100
AcDbXrecord
280
     1
102
ACAD_ROUNDTRIP_PRE2007_TABLESTYLE
 90
        4
 91
        0
  1

 92
        4
 93
        0
  2

 94
        4
 95
        0
  3

  0
XRECORD
  5
93F
102
{ACAD_REACTORS
330
93E
102
}
330
93E
100
AcDbXrecord
280
     1
102
RTVSPropertyOp0
 70
     0
102
RTVSPropertyOp1
 70
     0
102
RTVSPropertyOp2
 70
     0
102
RTVSPropertyOp3
 70
     0
102
RTVSPropertyOp4
 70
     0
102
RTVSPropertyOp5
 70
     0
102
RTVSPropertyOp6
 70
     0
102
RTVSPropertyOp7
 70
     0
102
RTVSPropertyOp8
 70
     0
102
RTVSPropertyOp9
 70
     0
102
RTVSPropertyOp10
 70
     0
102
RTVSPropertyOp11
 70
     0
102
RTVSPropertyOp12
 70
     0
102
RTVSPropertyOp13
 70
     0
102
RTVSPropertyOp14
 70
     2
102
RTVSPropertyOp15
 70
     0
102
RTVSPropertyOp16
 70
     0
102
RTVSPropertyOp17
 70
     0
102
RTVSPropertyOp18
 70
     0
102
RTVSPropertyOp19
 70
     0
102
RTVSPropertyOp20
 70
     0
102
RTVSPropertyOp21
 70
     0
102
RTVSPropertyOp22
 70
     0
102
RTVSPropertyOp23
 70
     0
102
RTVSPropertyOp24
 70
     0
102
RTVSPropertyOp25
 70
     0
102
RTVSPropertyOp26
 70
     0
102
RTVSPropertyOp27
 70
     0
  0
XRECORD
  5
942
102
{ACAD_REACTORS
330
941
102
}
330
941
100
AcDbXrecord
280
     1
102
RTVSPropertyOp0
 70
     0
102
RTVSPropertyOp1
 70
     0
102
RTVSPropertyOp2
 70
     0
102
RTVSPropertyOp3
 70
     0
102
RTVSPropertyOp4
 70
     0
102
RTVSPropertyOp5
 70
     0
102
RTVSPropertyOp6
 70
     0
102
RTVSPropertyOp7
 70
     0
102
RTVSPropertyOp8
 70
     0
102
RTVSPropertyOp9
 70
     0
102
RTVSPropertyOp10
 70
     0
102
RTVSPropertyOp11
 70
     0
102
RTVSPropertyOp12
 70
     0
102
RTVSPropertyOp13
 70
     0
102
RTVSPropertyOp14
 70
     2
102
RTVSPropertyOp15
 70
     0
102
RTVSPropertyOp16
 70
     0
102
RTVSPropertyOp17
 70
     0
102
RTVSPropertyOp18
 70
     0
102
RTVSPropertyOp19
 70
     0
102
RTVSPropertyOp20
 70
     0
102
RTVSPropertyOp21
 70
     0
102
RTVSPropertyOp22
 70
     0
102
RTVSPropertyOp23
 70
     0
102
RTVSPropertyOp24
 70
     0
102
RTVSPropertyOp25
 70
     0
102
RTVSPropertyOp26
 70
     0
102
RTVSPropertyOp27
 70
     0
  0
XRECORD
  5
945
102
{ACAD_REACTORS
330
944
102
}
330
944
100
AcDbXrecord
280
     1
102
RTVSPropertyOp0
 70
     0
102
RTVSPropertyOp1
 70
     0
102
RTVSPropertyOp2
 70
     0
102
RTVSPropertyOp3
 70
     0
102
RTVSPropertyOp4
 70
     0
102
RTVSPropertyOp5
 70
     0
102
RTVSPropertyOp6
 70
     0
102
RTVSPropertyOp7
 70
     0
102
RTVSPropertyOp8
 70
     0
102
RTVSPropertyOp9
 70
     0
102
RTVSPropertyOp10
 70
     0
102
RTVSPropertyOp11
 70
     0
102
RTVSPropertyOp12
 70
     0
102
RTVSPropertyOp13
 70
     0
102
RTVSPropertyOp14
 70
     2
102
RTVSPropertyOp15
 70
     0
102
RTVSPropertyOp16
 70
     0
102
RTVSPropertyOp17
 70
     0
102
RTVSPropertyOp18
 70
     0
102
RTVSPropertyOp19
 70
     0
102
RTVSPropertyOp20
 70
     0
102
RTVSPropertyOp21
 70
     0
102
RTVSPropertyOp22
 70
     0
102
RTVSPropertyOp23
 70
     0
102
RTVSPropertyOp24
 70
     0
102
RTVSPropertyOp25
 70
     0
102
RTVSPropertyOp26
 70
     0
102
RTVSPropertyOp27
 70
     0
  0
ENDSEC
  0
EOF
