  0
SECTION
  2
HEADER
  9
$ACADVER
  1
AC1018
  9
$ACADMAINTVER
 70
   104
  9
$DWGCODEPAGE
  3
ANSI_1252
  9
$LASTSAVEDBY
  1
oberdoer
  9
$CUSTOMPROPERTYTAG
  1
AmdtFileType
  9
$CUSTOMPROPERTY
  1
84
  9
$INSBASE
 10
0.0
 20
0.0
 30
0.0
  9
$EXTMIN
 10
335.7901522899443
 20
235.0283261793866
 30
-0.0000000000112531
  9
$EXTMAX
 10
820.5435137008974
 20
589.6446185010622
 30
0.0000000000002922
  9
$LIMMIN
 10
0.0
 20
0.0
  9
$LIMMAX
 10
420.0
 20
297.0
  9
$ORTHOMODE
 70
     0
  9
$REGENMODE
 70
     1
  9
$FILLMODE
 70
     1
  9
$QTEXTMODE
 70
     0
  9
$MIRRTEXT
 70
     1
  9
$LTSCALE
 40
1.0
  9
$ATTMODE
 70
     1
  9
$TEXTSIZE
 40
2.5
  9
$TRACEWID
 40
1.0
  9
$TEXTSTYLE
  7
STANDARD
  9
$CLAYER
  8
0
  9
$CELTYPE
  6
ByLayer
  9
$CECOLOR
 62
   256
  9
$CELTSCALE
 40
1.0
  9
$DISPSILH
 70
     0
  9
$DIMSCALE
 40
1.0
  9
$DIMASZ
 40
2.5
  9
$DIMEXO
 40
0.0
  9
$DIMDLI
 40
10.0
  9
$DIMRND
 40
0.0
  9
$DIMDLE
 40
0.0
  9
$DIMEXE
 40
2.0
  9
$DIMTP
 40
0.1
  9
$DIMTM
 40
0.1
  9
$DIMTXT
 40
3.5
  9
$DIMCEN
 40
0.0
  9
$DIMTSZ
 40
0.0
  9
$DIMTOL
 70
     0
  9
$DIMLIM
 70
     0
  9
$DIMTIH
 70
     0
  9
$DIMTOH
 70
     0
  9
$DIMSE1
 70
     0
  9
$DIMSE2
 70
     0
  9
$DIMTAD
 70
     1
  9
$DIMZIN
 70
     8
  9
$DIMBLK
  1

  9
$DIMASO
 70
     1
  9
$DIMSHO
 70
     1
  9
$DIMPOST
  1

  9
$DIMAPOST
  1
"
  9
$DIMALT
 70
     0
  9
$DIMALTD
 70
     2
  9
$DIMALTF
 40
0.0393701
  9
$DIMLFAC
 40
1.0
  9
$DIMTOFL
 70
     1
  9
$DIMTVP
 40
0.0
  9
$DIMTIX
 70
     0
  9
$DIMSOXD
 70
     0
  9
$DIMSAH
 70
     0
  9
$DIMBLK1
  1

  9
$DIMBLK2
  1

  9
$DIMSTYLE
  2
AM_DIN
  9
$DIMCLRD
 70
   256
  9
$DIMCLRE
 70
   256
  9
$DIMCLRT
 70
     2
  9
$DIMTFAC
 40
0.71
  9
$DIMGAP
 40
1.5
  9
$DIMJUST
 70
     0
  9
$DIMSD1
 70
     0
  9
$DIMSD2
 70
     0
  9
$DIMTOLJ
 70
     0
  9
$DIMTZIN
 70
     8
  9
$DIMALTZ
 70
     0
  9
$DIMALTTZ
 70
     0
  9
$DIMUPT
 70
     0
  9
$DIMDEC
 70
     2
  9
$DIMTDEC
 70
     2
  9
$DIMALTU
 70
     2
  9
$DIMALTTD
 70
     2
  9
$DIMTXSTY
  7
STANDARD
  9
$DIMAUNIT
 70
     0
  9
$DIMADEC
 70
     0
  9
$DIMALTRND
 40
0.0
  9
$DIMAZIN
 70
     2
  9
$DIMDSEP
 70
    46
  9
$DIMATFIT
 70
     3
  9
$DIMFRAC
 70
     0
  9
$DIMLDRBLK
  1

  9
$DIMLUNIT
 70
     2
  9
$DIMLWD
 70
    -1
  9
$DIMLWE
 70
    -1
  9
$DIMTMOVE
 70
     0
  9
$LUNITS
 70
     2
  9
$LUPREC
 70
     2
  9
$SKETCHINC
 40
1.0
  9
$FILLETRAD
 40
2.5
  9
$AUNITS
 70
     0
  9
$AUPREC
 70
     0
  9
$MENU
  1
.
  9
$ELEVATION
 40
0.0
  9
$PELEVATION
 40
0.0
  9
$THICKNESS
 40
0.0
  9
$LIMCHECK
 70
     0
  9
$CHAMFERA
 40
2.5
  9
$CHAMFERB
 40
2.5
  9
$CHAMFERC
 40
20.0
  9
$CHAMFERD
 40
0.0
  9
$SKPOLY
 70
     0
  9
$TDCREATE
 40
2455484.516961076
  9
$TDUCREATE
 40
2455484.433627743
  9
$TDUPDATE
 40
2456149.625021794
  9
$TDUUPDATE
 40
2456149.541688461
  9
$TDINDWG
 40
0.0525499074
  9
$TDUSRTIMER
 40
0.0525495486
  9
$USRTIMER
 70
     1
  9
$ANGBASE
 50
0.0
  9
$ANGDIR
 70
     0
  9
$PDMODE
 70
     0
  9
$PDSIZE
 40
0.0
  9
$PLINEWID
 40
0.0
  9
$SPLFRAME
 70
     0
  9
$SPLINETYPE
 70
     6
  9
$SPLINESEGS
 70
     8
  9
$HANDSEED
  5
A15
  9
$SURFTAB1
 70
     6
  9
$SURFTAB2
 70
     6
  9
$SURFTYPE
 70
     6
  9
$SURFU
 70
     6
  9
$SURFV
 70
     6
  9
$UCSBASE
  2

  9
$UCSNAME
  2

  9
$UCSORG
 10
0.0
 20
0.0
 30
0.0
  9
$UCSXDIR
 10
1.0
 20
0.0
 30
0.0
  9
$UCSYDIR
 10
0.0
 20
1.0
 30
0.0
  9
$UCSORTHOREF
  2

  9
$UCSORTHOVIEW
 70
     0
  9
$UCSORGTOP
 10
0.0
 20
0.0
 30
0.0
  9
$UCSORGBOTTOM
 10
0.0
 20
0.0
 30
0.0
  9
$UCSORGLEFT
 10
0.0
 20
0.0
 30
0.0
  9
$UCSORGRIGHT
 10
0.0
 20
0.0
 30
0.0
  9
$UCSORGFRONT
 10
0.0
 20
0.0
 30
0.0
  9
$UCSORGBACK
 10
0.0
 20
0.0
 30
0.0
  9
$PUCSBASE
  2

  9
$PUCSNAME
  2

  9
$PUCSORG
 10
0.0
 20
0.0
 30
0.0
  9
$PUCSXDIR
 10
1.0
 20
0.0
 30
0.0
  9
$PUCSYDIR
 10
0.0
 20
1.0
 30
0.0
  9
$PUCSORTHOREF
  2

  9
$PUCSORTHOVIEW
 70
     0
  9
$PUCSORGTOP
 10
0.0
 20
0.0
 30
0.0
  9
$PUCSORGBOTTOM
 10
0.0
 20
0.0
 30
0.0
  9
$PUCSORGLEFT
 10
0.0
 20
0.0
 30
0.0
  9
$PUCSORGRIGHT
 10
0.0
 20
0.0
 30
0.0
  9
$PUCSORGFRONT
 10
0.0
 20
0.0
 30
0.0
  9
$PUCSORGBACK
 10
0.0
 20
0.0
 30
0.0
  9
$USERI1
 70
     0
  9
$USERI2
 70
     0
  9
$USERI3
 70
     0
  9
$USERI4
 70
     0
  9
$USERI5
 70
     0
  9
$USERR1
 40
0.0
  9
$USERR2
 40
0.0
  9
$USERR3
 40
0.0
  9
$USERR4
 40
0.0
  9
$USERR5
 40
0.0
  9
$WORLDVIEW
 70
     1
  9
$SHADEDGE
 70
     3
  9
$SHADEDIF
 70
    70
  9
$TILEMODE
 70
     1
  9
$MAXACTVP
 70
    64
  9
$PINSBASE
 10
0.0
 20
0.0
 30
0.0
  9
$PLIMCHECK
 70
     0
  9
$PEXTMIN
 10
28.19999999999999
 20
17.0
 30
0.0
  9
$PEXTMAX
 10
253.8
 20
153.0
 30
0.0
  9
$PLIMMIN
 10
-7.5
 20
-20.0
  9
$PLIMMAX
 10
289.5
 20
190.0
  9
$UNITMODE
 70
     0
  9
$VISRETAIN
 70
     1
  9
$PLINEGEN
 70
     0
  9
$PSLTSCALE
 70
     1
  9
$TREEDEPTH
 70
  3020
  9
$CMLSTYLE
  2
Standard
  9
$CMLJUST
 70
     0
  9
$CMLSCALE
 40
20.0
  9
$PROXYGRAPHICS
 70
     1
  9
$MEASUREMENT
 70
     1
  9
$CELWEIGHT
370
    -1
  9
$ENDCAPS
280
     0
  9
$JOINSTYLE
280
     0
  9
$LWDISPLAY
290
     0
  9
$INSUNITS
 70
     4
  9
$HYPERLINKBASE
  1

  9
$STYLESHEET
  1
ganz_fein_1.ctb
  9
$XEDIT
290
     1
  9
$CEPSNTYPE
380
     0
  9
$PSTYLEMODE
290
     1
  9
$FINGERPRINTGUID
  2
{FCA98E17-6D0A-4385-B28F-8084599968D5}
  9
$VERSIONGUID
  2
{E867C676-C1E2-4275-91B0-1C347C4D6AC4}
  9
$EXTNAMES
290
     1
  9
$PSVPSCALE
 40
0.0
  9
$OLESTARTUP
290
     0
  9
$SORTENTS
280
   127
  9
$INDEXCTL
280
     0
  9
$HIDETEXT
280
     0
  9
$XCLIPFRAME
290
     0
  9
$HALOGAP
280
     0
  9
$OBSCOLOR
 70
   257
  9
$OBSLTYPE
280
     0
  9
$INTERSECTIONDISPLAY
280
     0
  9
$INTERSECTIONCOLOR
 70
   257
  9
$DIMASSOC
280
     1
  9
$PROJECTNAME
  1

  0
ENDSEC
  0
SECTION
  2
CLASSES
  0
CLASS
  1
ACDBDICTIONARYWDFLT
  2
AcDbDictionaryWithDefault
  3
ObjectDBX Classes
 90
        0
 91
        1
280
     0
281
     0
  0
CLASS
  1
ACME_DOCUMENT
  2
AcMeDbDoc
  3
AcMeServices
 90
        0
 91
        1
280
     0
281
     0
  0
CLASS
  1
AMGSETTINGSOBJ
  2
AmgSettingsObj
  3
"AcadM|Product Description: AutoCAD Mechanical|Company: Autodesk"
 90
        0
 91
        2
280
     0
281
     0
  0
CLASS
  1
ACMESCOPE
  2
AcMeScope
  3
AcMeServices
 90
        0
 91
        1
280
     0
281
     0
  0
CLASS
  1
ACMECOMMANDHISTORY
  2
AcMeCommandHistory
  3
AcMeServices
 90
        0
 91
        1
280
     0
281
     0
  0
CLASS
  1
ACIMSYSVARMAN
  2
AcImSysVarManager
  3
AcMeServices
 90
        0
 91
        5
280
     0
281
     0
  0
CLASS
  1
ACIMREALSYSVAR
  2
AcImRealSysVar
  3
AcMeServices
 90
        0
 91
        1
280
     0
281
     0
  0
CLASS
  1
ACIMINTSYSVAR
  2
AcImIntSysVar
  3
AcMeServices
 90
        0
 91
       27
280
     0
281
     0
  0
CLASS
  1
ACMEDRAWINGMAN
  2
AcMeDrawingMan
  3
AcMeServices
 90
        0
 91
        1
280
     0
281
     0
  0
CLASS
  1
ACMEVIEW
  2
AcMeView
  3
AcMeServices
 90
        0
 91
        1
280
     0
281
     0
  0
CLASS
  1
ACDBENTITYCACHE
  2
AcMeEntityCache
  3
AcMeServices
 90
        0
 91
        1
280
     0
281
     0
  0
CLASS
  1
GSMANAGER
  2
AcMeGSManager
  3
AcMeServices
 90
        0
 91
        1
280
     0
281
     0
  0
CLASS
  1
AMDTINTERNALREACTOR
  2
AmdtInternalReactor
  3
AcMeServices
 90
        0
 91
        2
280
     0
281
     0
  0
CLASS
  1
ACMESTATEMGR
  2
AcMeStateMgr
  3
AcMeServices
 90
        0
 91
        1
280
     0
281
     0
  0
CLASS
  1
ACGREFMASTER
  2
AcGrefMaster
  3
AcAttribServices
 90
        0
 91
        1
280
     0
281
     0
  0
CLASS
  1
ACME_DATABASE
  2
AcMeDbDatabase
  3
AcMeServices
 90
        0
 91
        1
280
     0
281
     0
  0
CLASS
  1
ACRFINSADJUSTERMGR
  2
AcRfInsAdjusterMgr
  3
AcMeServices
 90
        0
 91
        1
280
     0
281
     0
  0
CLASS
  1
ACGREFACADMASTER
  2
AcGrefacadMaster
  3
AcGrefServices
 90
        0
 91
        1
280
     0
281
     0
  0
CLASS
  1
AMIMASTER
  2
AmiMaster
  3
AmiServices
 90
        0
 91
        1
280
     0
281
     0
  0
CLASS
  1
ACMDATADICTIONARY
  2
AcmDataDictionary
  3
"AcmSymBB|Product Description: AutoCAD Mechanical|Company: Autodesk"
 90
        0
 91
        1
280
     0
281
     0
  0
CLASS
  1
ACMDATAENTRYBLOCK
  2
AcmDataEntryBlock
  3
"AcmSymBB|Product Description: AutoCAD Mechanical|Company: Autodesk"
 90
        0
 91
        0
280
     0
281
     0
  0
CLASS
  1
ACIMSTRSYSVAR
  2
AcImStrSysVar
  3
AcMeServices
 90
        0
 91
        5
280
     0
281
     0
  0
CLASS
  1
ACMSTANDARDDIN
  2
AcmStandardDIN
  3
"Amdt_StdImp|Product Description: AutoCAD Mechanical|Company: Autodesk"
 90
        0
 91
        1
280
     0
281
     0
  0
CLASS
  1
AMGOBJPROPCFG
  2
AmgObjPropCfg
  3
"AmgLay|Product Description: AutoCAD Mechanical|Company: Autodesk"
 90
        1
 91
        2
280
     0
281
     0
  0
CLASS
  1
AMDTEDGESTANDARDDIN
  2
AmdtEdgeStdDIN
  3
"Amdt_StdImp|Product Description: AutoCAD Mechanical|Company: Autodesk"
 90
        0
 91
        0
280
     0
281
     0
  0
CLASS
  1
ACMSURFSTANDARDDIN
  2
AcmSurfTextStdDIN
  3
"Amdt_StdImp|Product Description: AutoCAD Mechanical|Company: Autodesk"
 90
        0
 91
        1
280
     0
281
     0
  0
CLASS
  1
ACMFCFSTANDARDDIN
  2
AcmFCFStdDIN
  3
"Amdt_StdImp|Product Description: AutoCAD Mechanical|Company: Autodesk"
 90
        0
 91
        1
280
     0
281
     0
  0
CLASS
  1
ACMWELDSTANDARDDIN
  2
AcmWeldingStdDIN
  3
"Amdt_StdImp|Product Description: AutoCAD Mechanical|Company: Autodesk"
 90
        0
 91
        1
280
     0
281
     0
  0
CLASS
  1
ACMIDSTANDARDDIN
  2
AcmIdStdDIN
  3
"Amdt_StdImp|Product Description: AutoCAD Mechanical|Company: Autodesk"
 90
        0
 91
        1
280
     0
281
     0
  0
CLASS
  1
ACMDATUMSTANDARDDIN
  2
AcmDatumStdDIN
  3
"Amdt_StdImp|Product Description: AutoCAD Mechanical|Company: Autodesk"
 90
        0
 91
        1
280
     0
281
     0
  0
CLASS
  1
ACMBOMSTANDARDDIN
  2
AcmBOMStdDIN
  3
"Amdt_StdImp|Product Description: AutoCAD Mechanical|Company: Autodesk"
 90
        0
 91
        1
280
     0
281
     0
  0
CLASS
  1
ACMDETAILSTANDARDDIN
  2
AmdtDetailSymStdDIN
  3
"Amdt_StdImp|Product Description: AutoCAD Mechanical|Company: Autodesk"
 90
        0
 91
        1
280
     0
281
     0
  0
CLASS
  1
ACMSECTIONSTANDARDDIN
  2
AmdtSectionSymStdDIN
  3
"Amdt_StdImp|Product Description: AutoCAD Mechanical|Company: Autodesk"
 90
        0
 91
        1
280
     0
281
     0
  0
CLASS
  1
ACMCENTERLINESTANDARDDIN
  2
AmdtCenterLineStdDIN
  3
"Amdt_StdImp|Product Description: AutoCAD Mechanical|Company: Autodesk"
 90
        0
 91
        1
280
     0
281
     0
  0
CLASS
  1
ACMNOTESTANDARDDIN
  2
AmdtNoteStdDIN
  3
"Amdt_StdImp|Product Description: AutoCAD Mechanical|Company: Autodesk"
 90
        0
 91
        1
280
     0
281
     0
  0
CLASS
  1
ACAMGLAYSTD
  2
AcAmgLayStd
  3
"AmgLay|Product Description: AutoCAD Mechanical|Company: Autodesk"
 90
        0
 91
        2
280
     0
281
     0
  0
CLASS
  1
ACAMGDIMSTD
  2
AcAmgDimStd
  3
"AmgDim|Product Description: AutoCAD Mechanical|Company: Autodesk"
 90
        0
 91
        2
280
     0
281
     0
  0
CLASS
  1
ACAMGHOLECHARTSTDDIN
  2
AcAmgHoleChartStdDIN
  3
ACMSYMBB_MODULE_NAME
 90
        0
 91
        1
280
     0
281
     0
  0
CLASS
  1
ACAMGTITLESTD
  2
AcAmgTitleStd
  3
"AmgTitle|Product Description: AutoCAD Mechanical|Company: Autodesk"
 90
        0
 91
        2
280
     0
281
     0
  0
CLASS
  1
LAYER_INDEX
  2
AcDbLayerIndex
  3
ObjectDBX Classes
 90
        0
 91
        0
280
     0
281
     0
  0
CLASS
  1
IDBUFFER
  2
AcDbIdBuffer
  3
ObjectDBX Classes
 90
        0
 91
        0
280
     0
281
     0
  0
CLASS
  1
DICTIONARYVAR
  2
AcDbDictionaryVar
  3
ObjectDBX Classes
 90
        0
 91
        3
280
     0
281
     0
  0
CLASS
  1
AM_DRAWING_MGR
  2
AcDmDwgMgr
  3
AcMechDwgViewMgmt
 90
        0
 91
        1
280
     0
281
     0
  0
CLASS
  1
AM_DWG_DOCUMENT
  2
AcDmDwgDocument
  3
AcMechDwgViewMgmt
 90
        0
 91
        1
280
     0
281
     0
  0
CLASS
  1
AM_DWG_SHEET
  2
AcDmSheet
  3
AcMechDwgViewMgmt
 90
        0
 91
        2
280
     0
281
     0
  0
CLASS
  1
AM_VIEWDIMPARMAP
  2
AcDmViewDimParMap
  3
AcMechDwgViewMgmt
 90
        0
 91
        2
280
     0
281
     0
  0
CLASS
  1
AM_DWGMGR_NAME
  2
AcDmDwgMgrName
  3
AcMechDwgViewMgmt
 90
        0
 91
        1
280
     0
281
     0
  0
CLASS
  1
AMDTMENUSTATEMGR
  2
AmdtMenuStateMgr
  3
McadcomServices
 90
        0
 91
        1
280
     0
281
     0
  0
CLASS
  1
AMDTMCOMMENUSTATE
  2
AmdtMcomMenuState
  3
McadcomServices
 90
        0
 91
        1
280
     0
281
     0
  0
CLASS
  1
MAPIAMMOUDLE
  2
MApiAmModule
  3
MApiAmServices
 90
        0
 91
        1
280
     0
281
     0
  0
CLASS
  1
AMDTADMENUSTATE
  2
AmdtAdMenuState
  3
DesignerServices
 90
        0
 91
        1
280
     0
281
     0
  0
CLASS
  1
ADAPPL
  2
AcAdAppl
  3
DesignerServices
 90
        0
 91
        1
280
     0
281
     0
  0
CLASS
  1
DEPMGR
  2
AcAdDepMgr
  3
DesignerServices
 90
        0
 91
        1
280
     0
281
     0
  0
CLASS
  1
PARAMMGR
  2
AcAdParamMgr
  3
DesignerServices
 90
        0
 91
        1
280
     0
281
     0
  0
CLASS
  1
PARAMSCOPE
  2
AcAdParamScope
  3
DesignerServices
 90
        0
 91
        1
280
     0
281
     0
  0
CLASS
  1
NAMEDAPPL
  2
AcAdNamedAppl
  3
DesignerServices
 90
        0
 91
        1
280
     0
281
     0
  0
CLASS
  1
AMDTDMMENUSTATE
  2
AmdtDmMenuState
  3
AcMechDwgViewMgmt
 90
        0
 91
        1
280
     0
281
     0
  0
CLASS
  1
AMDTAMMENUSTATE
  2
AmdtAmMenuState
  3
DesignerAssemblies
 90
        0
 91
        1
280
     0
281
     0
  0
CLASS
  1
ACAMPROJECT
  2
AcAmProject
  3
DesignerAssemblies
 90
        0
 91
        1
280
     0
281
     0
  0
CLASS
  1
ACAMGRCOMPDEF
  2
AcAmGrCompDef
  3
DesignerAssemblies
 90
        0
 91
        1
280
     0
281
     0
  0
CLASS
  1
ACCMCONTEXT
  2
AcCmContext
  3
DesignerAssemblies
 90
        0
 91
        1
280
     0
281
     0
  0
CLASS
  1
ACAMCOMPDEF
  2
AcAmCompDef
  3
DesignerAssemblies
 90
        0
 91
        1
280
     0
281
     0
  0
CLASS
  1
ACAMCOMPDEFMGR
  2
AcAmCompDefMgr
  3
DesignerAssemblies
 90
        0
 91
        1
280
     0
281
     0
  0
CLASS
  1
AMCONTEXTMGR
  2
AcAmContextMgr
  3
DesignerAssemblies
 90
        0
 91
        1
280
     0
281
     0
  0
CLASS
  1
ACAMCONTEXTMODELER
  2
AcAmContextModeler
  3
DesignerAssemblies
 90
        0
 91
        1
280
     0
281
     0
  0
CLASS
  1
ACMTHREADLINESTANDARDDIN
  2
AmdtThreadLineStdDIN
  3
"Amdt_StdImp|Product Description: AutoCAD Mechanical|Company: Autodesk"
 90
        0
 91
        1
280
     0
281
     0
  0
CLASS
  1
CATALOGSTATE
  2
AcAmCatalogState
  3
DesignerAssemblies
 90
        0
 91
        1
280
     0
281
     0
  0
CLASS
  1
ACAMGRCOMPDEFSET
  2
AcAmGrCompDefSet
  3
DesignerAssemblies
 90
        0
 91
        1
280
     0
281
     0
  0
CLASS
  1
AMDTBROWSERDBTAB
  2
AmdtBrowserDbTab
  3
McadcomServices
 90
        0
 91
        1
280
     0
281
     0
  0
CLASS
  1
CBROWSERAPPOBJECT
  2
CBrowserAppObject
  3
McadcomServices
 90
        0
 91
        3
280
     0
281
     0
  0
CLASS
  1
DM_PLACEHOLDER
  2
AcDmSelsetPlaceholder
  3
AcMechDwgViewMgmt
 90
        0
 91
        1
280
     0
281
     0
  0
CLASS
  1
TABLESTYLE
  2
AcDbTableStyle
  3
ObjectDBX Classes
 90
     4095
 91
        1
280
     0
281
     0
  0
CLASS
  1
MATERIAL
  2
AcDbMaterial
  3
ObjectDBX Classes
 90
     1024
 91
        3
280
     0
281
     0
  0
CLASS
  1
VISUALSTYLE
  2
AcDbVisualStyle
  3
ObjectDBX Classes
 90
     4095
 91
       19
280
     0
281
     0
  0
CLASS
  1
ACRFATTGENMGR
  2
AcRfAttGeneralMgr
  3
AcAttribServices
 90
        0
 91
        0
280
     0
281
     0
  0
CLASS
  1
ACRFOBJATTMGR
  2
AcRfObjAttGroupMgr
  3
AcAttribServices
 90
        0
 91
        0
280
     0
281
     0
  0
CLASS
  1
ACRFMCADAPIATTHOLDER
  2
AcRfMCADAPIAttHolder
  3
AcAttribServices
 90
        0
 91
        0
280
     0
281
     0
  0
CLASS
  1
AMDTSYSATTR
  2
AmdtSystemAttribute
  3
AcAttribServices
 90
        0
 91
        0
280
     0
281
     0
  0
CLASS
  1
ACMTAPERSTANDARDDIN
  2
AcmTaperStdDIN
  3
"Amdt_StdImp|Product Description: AutoCAD Mechanical|Company: Autodesk"
 90
        0
 91
        1
280
     0
281
     0
  0
CLASS
  1
CAMSSTRUCTBTNSTATE
  2
StructBtnState
  3
L"DesignerAssemblies"
 90
        0
 91
        0
280
     0
281
     0
  0
CLASS
  1
ACAMGFILTERDAT
  2
AcAmgFilterDat
  3
"AcadM|Product Description: AutoCAD Mechanical|Company: Autodesk"
 90
        0
 91
        0
280
     0
281
     0
  0
CLASS
  1
AMDTEDGESTANDARDDIN13715
  2
AmdtEdgeStdDIN13715
  3
"Amdt_StdImp|Product Description: AutoCAD Mechanical|Company: Autodesk"
 90
        0
 91
        1
280
     0
281
     0
  0
CLASS
  1
AMDTNOTETEMPLATEDB
  2
AmdtNoteTemplateDB
  3
AMDT_STDIMP_MODULE_NAME
 90
        0
 91
        9
280
     0
281
     0
  0
CLASS
  1
ACMSTANDARDISO
  2
AcmStandardISO
  3
"Amdt_StdImp|Product Description: AutoCAD Mechanical|Company: Autodesk"
 90
        0
 91
        1
280
     0
281
     0
  0
CLASS
  1
AMDTEDGESTANDARDISO
  2
AmdtEdgeStdISO
  3
"Amdt_StdImp|Product Description: AutoCAD Mechanical|Company: Autodesk"
 90
        0
 91
        1
280
     0
281
     0
  0
CLASS
  1
ACMSURFSTANDARDISO
  2
AcmSurfTextStdISO
  3
"Amdt_StdImp|Product Description: AutoCAD Mechanical|Company: Autodesk"
 90
        0
 91
        1
280
     0
281
     0
  0
CLASS
  1
ACMFCFSTANDARDISO
  2
AcmFCFStdISO
  3
"Amdt_StdImp|Product Description: AutoCAD Mechanical|Company: Autodesk"
 90
        0
 91
        1
280
     0
281
     0
  0
CLASS
  1
ACMWELDSTANDARDISO
  2
AcmWeldingStdISO
  3
"Amdt_StdImp|Product Description: AutoCAD Mechanical|Company: Autodesk"
 90
        0
 91
        1
280
     0
281
     0
  0
CLASS
  1
ACMIDSTANDARDISO
  2
AcmIdStdISO
  3
"Amdt_StdImp|Product Description: AutoCAD Mechanical|Company: Autodesk"
 90
        0
 91
        1
280
     0
281
     0
  0
CLASS
  1
ACMDATUMSTANDARDISO
  2
AcmDatumStdISO
  3
"Amdt_StdImp|Product Description: AutoCAD Mechanical|Company: Autodesk"
 90
        0
 91
        1
280
     0
281
     0
  0
CLASS
  1
ACMBOMSTANDARDISO
  2
AcmBOMStdISO
  3
"Amdt_StdImp|Product Description: AutoCAD Mechanical|Company: Autodesk"
 90
        0
 91
        1
280
     0
281
     0
  0
CLASS
  1
ACMDETAILSTANDARDISO
  2
AmdtDetailSymStdISO
  3
"Amdt_StdImp|Product Description: AutoCAD Mechanical|Company: Autodesk"
 90
        0
 91
        1
280
     0
281
     0
  0
CLASS
  1
ACMSECTIONSTANDARDISO
  2
AmdtSectionSymStdISO
  3
"Amdt_StdImp|Product Description: AutoCAD Mechanical|Company: Autodesk"
 90
        0
 91
        1
280
     0
281
     0
  0
CLASS
  1
ACMCENTERLINESTANDARDISO
  2
AmdtCenterLineStdISO
  3
"Amdt_StdImp|Product Description: AutoCAD Mechanical|Company: Autodesk"
 90
        0
 91
        1
280
     0
281
     0
  0
CLASS
  1
ACMNOTESTANDARDISO
  2
AmdtNoteStdISO
  3
"Amdt_StdImp|Product Description: AutoCAD Mechanical|Company: Autodesk"
 90
        0
 91
        1
280
     0
281
     0
  0
CLASS
  1
ACAMGHOLECHARTSTDISO
  2
AcAmgHoleChartStdISO
  3
ACMSYMBB_MODULE_NAME
 90
        0
 91
        1
280
     0
281
     0
  0
CLASS
  1
ACMTHREADLINESTANDARDISO
  2
AmdtThreadLineStdISO
  3
"Amdt_StdImp|Product Description: AutoCAD Mechanical|Company: Autodesk"
 90
        0
 91
        1
280
     0
281
     0
  0
CLASS
  1
ACMTAPERSTANDARDISO
  2
AcmTaperStdISO
  3
"Amdt_StdImp|Product Description: AutoCAD Mechanical|Company: Autodesk"
 90
        0
 91
        1
280
     0
281
     0
  0
ENDSEC
  0
SECTION
  2
TABLES
  0
TABLE
  2
VPORT
  5
8
330
0
100
AcDbSymbolTable
 70
     1
  0
VPORT
  5
1E9
330
8
100
AcDbSymbolTableRecord
100
AcDbViewportTableRecord
  2
*Active
 70
     0
 10
0.0
 20
0.0
 11
1.0
 21
1.0
 12
578.1804896648224
 22
420.3715448052609
 13
0.0
 23
0.0
 14
2.5
 24
2.5
 15
10.0
 25
10.0
 16
0.0
 26
0.0
 36
1.0
 17
0.0
 27
0.0
 37
0.0
 40
372.8897055520461
 41
1.845679012345678
 42
50.0
 43
0.0
 44
0.0
 50
0.0
 51
0.0
 71
     0
 72
   100
 73
     1
 74
     3
 75
     0
 76
     0
 77
     0
 78
     0
281
     0
 65
     1
110
0.0
120
0.0
130
0.0
111
1.0
121
0.0
131
0.0
112
0.0
122
1.0
132
0.0
 79
     0
146
0.0
  0
ENDTAB
  0
TABLE
  2
LTYPE
  5
5
330
0
100
AcDbSymbolTable
 70
    62
  0
LTYPE
  5
14
330
5
100
AcDbSymbolTableRecord
100
AcDbLinetypeTableRecord
  2
ByBlock
 70
     0
  3

 72
    65
 73
     0
 40
0.0
  0
LTYPE
  5
15
330
5
100
AcDbSymbolTableRecord
100
AcDbLinetypeTableRecord
  2
ByLayer
 70
     0
  3

 72
    65
 73
     0
 40
0.0
  0
LTYPE
  5
16
330
5
100
AcDbSymbolTableRecord
100
AcDbLinetypeTableRecord
  2
Continuous
 70
     0
  3
Solid line
 72
    65
 73
     0
 40
0.0
  0
LTYPE
  5
A0
330
5
100
AcDbSymbolTableRecord
100
AcDbLinetypeTableRecord
  2
AM_ISO02W050
 70
     0
  3
__ __ __ __ __ __ __ __ __ __ __ __ __ __ __
 72
    65
 73
     2
 40
7.5
 49
6.0
 74
     0
 49
-1.5
 74
     0
  0
LTYPE
  5
A1
330
5
100
AcDbSymbolTableRecord
100
AcDbLinetypeTableRecord
  2
AM_ISO08W050
 70
     0
  3
____ . ____ . ____ . ____ . ____ . ____ . ____
 72
    65
 73
     4
 40
18.0
 49
12.0
 74
     0
 49
-1.5
 74
     0
 49
3.0
 74
     0
 49
-1.5
 74
     0
  0
LTYPE
  5
A2
330
5
100
AcDbSymbolTableRecord
100
AcDbLinetypeTableRecord
  2
AM_ISO09W050
 70
     0
  3
_____ . . _____ . . _____ . . ____ .. ____
 72
    65
 73
     6
 40
22.5
 49
12.0
 74
     0
 49
-1.5
 74
     0
 49
3.0
 74
     0
 49
-1.5
 74
     0
 49
3.0
 74
     0
 49
-1.5
 74
     0
  0
LTYPE
  5
A3
330
5
100
AcDbSymbolTableRecord
100
AcDbLinetypeTableRecord
  2
Amconstr
 70
     0
  3
_______________________
 72
    65
 73
     2
 40
9999.0
 49
9999.0
 74
     0
 49
0.0
 74
     0
  0
LTYPE
  5
A4
330
5
100
AcDbSymbolTableRecord
100
AcDbLinetypeTableRecord
  2
AM_ISO08W050x2
 70
     0
  3
__ . __ . __ . __ . __ . __
 72
    65
 73
     4
 40
9.0
 49
6.0
 74
     0
 49
-0.75
 74
     0
 49
1.5
 74
     0
 49
-0.75
 74
     0
  0
LTYPE
  5
A5
330
5
100
AcDbSymbolTableRecord
100
AcDbLinetypeTableRecord
  2
AM_ISO02W050x2
 70
     0
  3
 _ _ _ _ _ _ _ _ _ _ _ _
 72
    65
 73
     2
 40
3.75
 49
3.0
 74
     0
 49
-0.75
 74
     0
  0
LTYPE
  5
A8
330
5
100
AcDbSymbolTableRecord
100
AcDbLinetypeTableRecord
  2
Amzigzag
 70
     0
  3
/\/-/\/-/\/-/\/-/\/-/\/
 72
    65
 73
     2
 40
11.0001
 49
0.0001
 74
     4
 75
   135
340
A7
 46
0.04
 50
0.0
 44
0.0
 45
0.0
 49
-11.0
 74
     0
  0
LTYPE
  5
A9
330
5
100
AcDbSymbolTableRecord
100
AcDbLinetypeTableRecord
  2
AM_DIN_F_W050
 70
     0
  3
__ __ __ __ __ __ __ __ __ __ __ __ __ __ __
 72
    65
 73
     2
 40
6.25
 49
4.75
 74
     0
 49
-1.5
 74
     0
  0
LTYPE
  5
AA
330
5
100
AcDbSymbolTableRecord
100
AcDbLinetypeTableRecord
  2
AM_DIN_G_W050
 70
     0
  3
____ . ____ . ____ . ____ . ____ . ____ . ____
 72
    65
 73
     4
 40
13.75
 49
9.75
 74
     0
 49
-1.5
 74
     0
 49
1.0
 74
     0
 49
-1.5
 74
     0
  0
LTYPE
  5
AB
330
5
100
AcDbSymbolTableRecord
100
AcDbLinetypeTableRecord
  2
AM_DIN_K_W050
 70
     0
  3
_____ . . _____ . . _____ . . ____ .. ____
 72
    65
 73
     6
 40
16.25
 49
9.75
 74
     0
 49
-1.5
 74
     0
 49
1.0
 74
     0
 49
-1.5
 74
     0
 49
1.0
 74
     0
 49
-1.5
 74
     0
  0
LTYPE
  5
AC
330
5
100
AcDbSymbolTableRecord
100
AcDbLinetypeTableRecord
  2
AM_DIN_G_W050x2
 70
     0
  3
__ . __ . __ . __ . __ . __
 72
    65
 73
     4
 40
6.875
 49
4.75
 74
     0
 49
-0.875
 74
     0
 49
0.375
 74
     0
 49
-0.875
 74
     0
  0
LTYPE
  5
AD
330
5
100
AcDbSymbolTableRecord
100
AcDbLinetypeTableRecord
  2
AM_DIN_F_W050x2
 70
     0
  3
 _ _ _ _ _ _ _ _ _ _ _ _
 72
    65
 73
     2
 40
3.125
 49
2.25
 74
     0
 49
-0.875
 74
     0
  0
LTYPE
  5
BB
330
5
100
AcDbSymbolTableRecord
100
AcDbLinetypeTableRecord
  2
ACDINWELD
 70
     0
  3
_ _ _ _ _
 72
    65
 73
     2
 40
2.0
 49
2.0
 74
     0
 49
-1.0
 74
     0
  0
LTYPE
  5
BC
330
5
100
AcDbSymbolTableRecord
100
AcDbLinetypeTableRecord
  2
ACDINTGB
 70
     0
  3
__ . . __ . .
 72
    65
 73
     6
 40
9.0
 49
4.0
 74
     0
 49
-1.0
 74
     0
 49
1.0
 74
     0
 49
-1.0
 74
     0
 49
1.0
 74
     0
 49
-1.0
 74
     0
  0
LTYPE
  5
BD
330
5
100
AcDbSymbolTableRecord
100
AcDbLinetypeTableRecord
  2
ACDINTGL
 70
     0
  3
_ _ _ _ _
 72
    65
 73
     2
 40
3.0
 49
2.0
 74
     0
 49
-1.0
 74
     0
  0
LTYPE
  5
BF
330
5
100
AcDbSymbolTableRecord
100
AcDbLinetypeTableRecord
  2
CENTER
 70
     0
  3
__ . __
 72
    65
 73
     4
 40
7.0
 49
4.0
 74
     0
 49
-1.0
 74
     0
 49
1.0
 74
     0
 49
-1.0
 74
     0
  0
LTYPE
  5
10F
330
5
100
AcDbSymbolTableRecord
100
AcDbLinetypeTableRecord
  2
HIDDEN
 70
     0
  3
Verdeckt
 72
    65
 73
     2
 40
9.525
 49
6.349999999999998
 74
     0
 49
-3.174999999999998
 74
     0
  0
LTYPE
  5
110
330
5
100
AcDbSymbolTableRecord
100
AcDbLinetypeTableRecord
  2
PHANTOM2
 70
     0
  3
Phantom (.5x) ___ _ _ ___ _ _ ___ _ _ ___ _ _
 72
    65
 73
     6
 40
31.75
 49
15.875
 74
     0
 49
-3.174999999999998
 74
     0
 49
3.174999999999998
 74
     0
 49
-3.174999999999998
 74
     0
 49
3.174999999999998
 74
     0
 49
-3.174999999999998
 74
     0
  0
LTYPE
  5
8F5
330
5
100
AcDbSymbolTableRecord
100
AcDbLinetypeTableRecord
  2
BORDER
 70
     0
  3
Border __ __ . __ __ . __ __ . __ __ . __ __ .
 72
    65
 73
     6
 40
1.75
 49
0.5
 74
     0
 49
-0.25
 74
     0
 49
0.5
 74
     0
 49
-0.25
 74
     0
 49
0.0
 74
     0
 49
-0.25
 74
     0
  0
LTYPE
  5
8F6
330
5
100
AcDbSymbolTableRecord
100
AcDbLinetypeTableRecord
  2
BORDER2
 70
     0
  3
Border (.5x) __.__.__.__.__.__.__.__.__.__.__.
 72
    65
 73
     6
 40
0.875
 49
0.25
 74
     0
 49
-0.125
 74
     0
 49
0.25
 74
     0
 49
-0.125
 74
     0
 49
0.0
 74
     0
 49
-0.125
 74
     0
  0
LTYPE
  5
8F7
330
5
100
AcDbSymbolTableRecord
100
AcDbLinetypeTableRecord
  2
BORDERX2
 70
     0
  3
Border (2x) ____  ____  .  ____  ____  .  ___
 72
    65
 73
     6
 40
3.5
 49
1.0
 74
     0
 49
-0.5
 74
     0
 49
1.0
 74
     0
 49
-0.5
 74
     0
 49
0.0
 74
     0
 49
-0.5
 74
     0
  0
LTYPE
  5
8F8
330
5
100
AcDbSymbolTableRecord
100
AcDbLinetypeTableRecord
  2
CENTER2
 70
     0
  3
Center (.5x) ___ _ ___ _ ___ _ ___ _ ___ _ ___
 72
    65
 73
     4
 40
1.125
 49
0.75
 74
     0
 49
-0.125
 74
     0
 49
0.125
 74
     0
 49
-0.125
 74
     0
  0
LTYPE
  5
8F9
330
5
100
AcDbSymbolTableRecord
100
AcDbLinetypeTableRecord
  2
CENTERX2
 70
     0
  3
Center (2x) ________  __  ________  __  _____
 72
    65
 73
     4
 40
4.0
 49
2.5
 74
     0
 49
-0.5
 74
     0
 49
0.5
 74
     0
 49
-0.5
 74
     0
  0
LTYPE
  5
8FA
330
5
100
AcDbSymbolTableRecord
100
AcDbLinetypeTableRecord
  2
DASHDOT
 70
     0
  3
Dash dot __ . __ . __ . __ . __ . __ . __ . __
 72
    65
 73
     4
 40
1.0
 49
0.5
 74
     0
 49
-0.25
 74
     0
 49
0.0
 74
     0
 49
-0.25
 74
     0
  0
LTYPE
  5
8FB
330
5
100
AcDbSymbolTableRecord
100
AcDbLinetypeTableRecord
  2
DASHDOT2
 70
     0
  3
Dash dot (.5x) _._._._._._._._._._._._._._._.
 72
    65
 73
     4
 40
0.5
 49
0.25
 74
     0
 49
-0.125
 74
     0
 49
0.0
 74
     0
 49
-0.125
 74
     0
  0
LTYPE
  5
8FC
330
5
100
AcDbSymbolTableRecord
100
AcDbLinetypeTableRecord
  2
DASHDOTX2
 70
     0
  3
Dash dot (2x) ____  .  ____  .  ____  .  ___
 72
    65
 73
     4
 40
2.0
 49
1.0
 74
     0
 49
-0.5
 74
     0
 49
0.0
 74
     0
 49
-0.5
 74
     0
  0
LTYPE
  5
8FD
330
5
100
AcDbSymbolTableRecord
100
AcDbLinetypeTableRecord
  2
DASHED
 70
     0
  3
Dashed __ __ __ __ __ __ __ __ __ __ __ __ __ _
 72
    65
 73
     2
 40
0.75
 49
0.5
 74
     0
 49
-0.25
 74
     0
  0
LTYPE
  5
8FE
330
5
100
AcDbSymbolTableRecord
100
AcDbLinetypeTableRecord
  2
DASHED2
 70
     0
  3
Dashed (.5x) _ _ _ _ _ _ _ _ _ _ _ _ _ _ _ _ _
 72
    65
 73
     2
 40
0.375
 49
0.25
 74
     0
 49
-0.125
 74
     0
  0
LTYPE
  5
8FF
330
5
100
AcDbSymbolTableRecord
100
AcDbLinetypeTableRecord
  2
DASHEDX2
 70
     0
  3
Dashed (2x) ____  ____  ____  ____  ____  ___
 72
    65
 73
     2
 40
1.5
 49
1.0
 74
     0
 49
-0.5
 74
     0
  0
LTYPE
  5
900
330
5
100
AcDbSymbolTableRecord
100
AcDbLinetypeTableRecord
  2
DIVIDE
 70
     0
  3
Divide ____ . . ____ . . ____ . . ____ . . ____
 72
    65
 73
     6
 40
1.25
 49
0.5
 74
     0
 49
-0.25
 74
     0
 49
0.0
 74
     0
 49
-0.25
 74
     0
 49
0.0
 74
     0
 49
-0.25
 74
     0
  0
LTYPE
  5
901
330
5
100
AcDbSymbolTableRecord
100
AcDbLinetypeTableRecord
  2
DIVIDE2
 70
     0
  3
Divide (.5x) __..__..__..__..__..__..__..__.._
 72
    65
 73
     6
 40
0.625
 49
0.25
 74
     0
 49
-0.125
 74
     0
 49
0.0
 74
     0
 49
-0.125
 74
     0
 49
0.0
 74
     0
 49
-0.125
 74
     0
  0
LTYPE
  5
902
330
5
100
AcDbSymbolTableRecord
100
AcDbLinetypeTableRecord
  2
DIVIDEX2
 70
     0
  3
Divide (2x) ________  .  .  ________  .  .  _
 72
    65
 73
     6
 40
2.5
 49
1.0
 74
     0
 49
-0.5
 74
     0
 49
0.0
 74
     0
 49
-0.5
 74
     0
 49
0.0
 74
     0
 49
-0.5
 74
     0
  0
LTYPE
  5
903
330
5
100
AcDbSymbolTableRecord
100
AcDbLinetypeTableRecord
  2
DOT
 70
     0
  3
Dot . . . . . . . . . . . . . . . . . . . . . .
 72
    65
 73
     2
 40
0.25
 49
0.0
 74
     0
 49
-0.25
 74
     0
  0
LTYPE
  5
904
330
5
100
AcDbSymbolTableRecord
100
AcDbLinetypeTableRecord
  2
DOT2
 70
     0
  3
Dot (.5x) .....................................
 72
    65
 73
     2
 40
0.125
 49
0.0
 74
     0
 49
-0.125
 74
     0
  0
LTYPE
  5
905
330
5
100
AcDbSymbolTableRecord
100
AcDbLinetypeTableRecord
  2
DOTX2
 70
     0
  3
Dot (2x) .  .  .  .  .  .  .  .  .  .  .  .  . 
 72
    65
 73
     2
 40
0.5
 49
0.0
 74
     0
 49
-0.5
 74
     0
  0
LTYPE
  5
906
330
5
100
AcDbSymbolTableRecord
100
AcDbLinetypeTableRecord
  2
GAS_LINE
 70
     0
  3
Gas line ----GAS----GAS----GAS----GAS----GAS---
 72
    65
 73
     3
 40
0.95
 49
0.5
 74
     0
 49
-0.2
 74
     2
 75
     0
340
11
 46
0.1
 50
0.0
 44
-0.1
 45
-0.05
  9
GAS
 49
-0.25
 74
     0
  0
LTYPE
  5
907
330
5
100
AcDbSymbolTableRecord
100
AcDbLinetypeTableRecord
  2
HIDDEN2
 70
     0
  3
Hidden (.5x) _ _ _ _ _ _ _ _ _ _ _ _ _ _ _ _ _
 72
    65
 73
     2
 40
0.1875
 49
0.125
 74
     0
 49
-0.0625
 74
     0
  0
LTYPE
  5
908
330
5
100
AcDbSymbolTableRecord
100
AcDbLinetypeTableRecord
  2
HIDDENX2
 70
     0
  3
Hidden (2x) ____ ____ ____ ____ ____ ____ ____
 72
    65
 73
     2
 40
0.75
 49
0.5
 74
     0
 49
-0.25
 74
     0
  0
LTYPE
  5
909
330
5
100
AcDbSymbolTableRecord
100
AcDbLinetypeTableRecord
  2
PHANTOM
 70
     0
  3
Phantom ______  __  __  ______  __  __  ______
 72
    65
 73
     6
 40
2.5
 49
1.25
 74
     0
 49
-0.25
 74
     0
 49
0.25
 74
     0
 49
-0.25
 74
     0
 49
0.25
 74
     0
 49
-0.25
 74
     0
  0
LTYPE
  5
90A
330
5
100
AcDbSymbolTableRecord
100
AcDbLinetypeTableRecord
  2
PHANTOMX2
 70
     0
  3
Phantom (2x) ____________    ____    ____   _
 72
    65
 73
     6
 40
5.0
 49
2.5
 74
     0
 49
-0.5
 74
     0
 49
0.5
 74
     0
 49
-0.5
 74
     0
 49
0.5
 74
     0
 49
-0.5
 74
     0
  0
LTYPE
  5
90B
330
5
100
AcDbSymbolTableRecord
100
AcDbLinetypeTableRecord
  2
ZIGZAG
 70
     0
  3
Zig zag /\/\/\/\/\/\/\/\/\/\/\/\/\/\/\/\/\/\/\/
 72
    65
 73
     4
 40
0.8001000000000001
 49
0.0001
 74
     0
 49
-0.2
 74
     4
 75
   131
340
91F
 46
0.2
 50
0.0
 44
-0.2
 45
0.0
 49
-0.4
 74
     4
 75
   131
340
91F
 46
0.2
 50
180.0
 44
0.2
 45
0.0
 49
-0.2
 74
     0
  0
LTYPE
  5
90C
330
5
100
AcDbSymbolTableRecord
100
AcDbLinetypeTableRecord
  2
CPFLEX
 70
     0
  3
CP flex /\/\/\/\/\/\/\/\/\/\/\/\/\/\/\/\/\/\/\/
 72
    65
 73
     4
 40
0.8001000000000001
 49
0.0001
 74
     0
 49
-0.2
 74
     4
 75
   131
340
91F
 46
0.2
 50
0.0
 44
-0.2
 45
0.0
 49
-0.4
 74
     4
 75
   131
340
91F
 46
0.2
 50
180.0
 44
0.2
 45
0.0
 49
-0.2
 74
     0
  0
LTYPE
  5
90D
330
5
100
AcDbSymbolTableRecord
100
AcDbLinetypeTableRecord
  2
CIRC
 70
     0
  3
 ----- ~ ----- ~ ---- ~ -----
 72
    65
 73
     3
 40
9.0
 49
7.0
 74
     0
 49
-1.0
 74
     2
 75
     0
340
11
 46
1.0
 50
0.0
 44
-0.3
 45
-0.6
  9
~
 49
-1.0
 74
     0
  0
LTYPE
  5
90E
330
5
100
AcDbSymbolTableRecord
100
AcDbLinetypeTableRecord
  2
DN 010
 70
     0
  3
 DN10  ---- 10 ---- 10 ---- 10 ----
 72
    65
 73
     3
 40
9.0
 49
5.0
 74
     0
 49
-2.0
 74
     2
 75
     0
340
11
 46
1.0
 50
0.0
 44
-0.5
 45
-0.5
  9
10
 49
-2.0
 74
     0
  0
LTYPE
  5
90F
330
5
100
AcDbSymbolTableRecord
100
AcDbLinetypeTableRecord
  2
DN 015
 70
     0
  3
 DN15  ---- 15 ---- 15 ---- 15 ----
 72
    65
 73
     3
 40
9.0
 49
5.0
 74
     0
 49
-2.0
 74
     2
 75
     0
340
11
 46
1.0
 50
0.0
 44
-0.5
 45
-0.5
  9
15
 49
-2.0
 74
     0
  0
LTYPE
  5
910
330
5
100
AcDbSymbolTableRecord
100
AcDbLinetypeTableRecord
  2
DN 020
 70
     0
  3
 DN20  ---- 20 ---- 20 ---- 20 ----
 72
    65
 73
     3
 40
9.0
 49
5.0
 74
     0
 49
-2.0
 74
     2
 75
     0
340
11
 46
1.0
 50
0.0
 44
-0.5
 45
-0.5
  9
20
 49
-2.0
 74
     0
  0
LTYPE
  5
911
330
5
100
AcDbSymbolTableRecord
100
AcDbLinetypeTableRecord
  2
DN 025
 70
     0
  3
 DN25  ---- 25 ---- 25 ---- 25 ----
 72
    65
 73
     3
 40
9.0
 49
5.0
 74
     0
 49
-2.0
 74
     2
 75
     0
340
11
 46
1.0
 50
0.0
 44
-0.5
 45
-0.5
  9
25
 49
-2.0
 74
     0
  0
LTYPE
  5
912
330
5
100
AcDbSymbolTableRecord
100
AcDbLinetypeTableRecord
  2
DN 032
 70
     0
  3
 DN32  ---- 32 ---- 32 ---- 32 ----
 72
    65
 73
     3
 40
9.0
 49
5.0
 74
     0
 49
-2.0
 74
     2
 75
     0
340
11
 46
1.0
 50
0.0
 44
-0.5
 45
-0.5
  9
32
 49
-2.0
 74
     0
  0
LTYPE
  5
913
330
5
100
AcDbSymbolTableRecord
100
AcDbLinetypeTableRecord
  2
DN 040
 70
     0
  3
 DN40  ---- 40 ---- 40 ---- 40 ----
 72
    65
 73
     3
 40
9.0
 49
5.0
 74
     0
 49
-2.0
 74
     2
 75
     0
340
11
 46
1.0
 50
0.0
 44
-0.5
 45
-0.5
  9
40
 49
-2.0
 74
     0
  0
LTYPE
  5
914
330
5
100
AcDbSymbolTableRecord
100
AcDbLinetypeTableRecord
  2
DN 050
 70
     0
  3
 DN50  ---- 50 ---- 50 ---- 50 ----
 72
    65
 73
     3
 40
9.0
 49
5.0
 74
     0
 49
-2.0
 74
     2
 75
     0
340
11
 46
1.0
 50
0.0
 44
-0.5
 45
-0.5
  9
50
 49
-2.0
 74
     0
  0
LTYPE
  5
915
330
5
100
AcDbSymbolTableRecord
100
AcDbLinetypeTableRecord
  2
DN 065
 70
     0
  3
 DN65  ---- 65 ---- 65 ---- 65 ----
 72
    65
 73
     3
 40
9.0
 49
5.0
 74
     0
 49
-2.0
 74
     2
 75
     0
340
11
 46
1.0
 50
0.0
 44
-0.5
 45
-0.5
  9
65
 49
-2.0
 74
     0
  0
LTYPE
  5
916
330
5
100
AcDbSymbolTableRecord
100
AcDbLinetypeTableRecord
  2
DN 080
 70
     0
  3
 DN80  ---- 80 ---- 80 ---- 80 ----
 72
    65
 73
     3
 40
9.0
 49
5.0
 74
     0
 49
-2.0
 74
     2
 75
     0
340
11
 46
1.0
 50
0.0
 44
-0.5
 45
-0.5
  9
80
 49
-2.0
 74
     0
  0
LTYPE
  5
917
330
5
100
AcDbSymbolTableRecord
100
AcDbLinetypeTableRecord
  2
DN 100
 70
     0
  3
 DN100 ---- 100 --- 100 --- 100 ---
 72
    65
 73
     3
 40
9.0
 49
5.0
 74
     0
 49
-2.0
 74
     2
 75
     0
340
11
 46
1.0
 50
0.0
 44
-1.0
 45
-0.5
  9
100
 49
-2.0
 74
     0
  0
LTYPE
  5
918
330
5
100
AcDbSymbolTableRecord
100
AcDbLinetypeTableRecord
  2
DN 125
 70
     0
  3
 DN125 ---- 125 --- 125 --- 125 ---
 72
    65
 73
     3
 40
9.0
 49
5.0
 74
     0
 49
-2.0
 74
     2
 75
     0
340
11
 46
1.0
 50
0.0
 44
-1.0
 45
-0.5
  9
125
 49
-2.0
 74
     0
  0
LTYPE
  5
919
330
5
100
AcDbSymbolTableRecord
100
AcDbLinetypeTableRecord
  2
DN 150
 70
     0
  3
 DN150 ---- 150 --- 150 --- 150 ---
 72
    65
 73
     3
 40
9.0
 49
5.0
 74
     0
 49
-2.0
 74
     2
 75
     0
340
11
 46
1.0
 50
0.0
 44
-1.0
 45
-0.5
  9
150
 49
-2.0
 74
     0
  0
LTYPE
  5
91A
330
5
100
AcDbSymbolTableRecord
100
AcDbLinetypeTableRecord
  2
DN 200
 70
     0
  3
 DN200 ---- 200 --- 200 --- 200 ---
 72
    65
 73
     3
 40
9.0
 49
5.0
 74
     0
 49
-2.0
 74
     2
 75
     0
340
11
 46
1.0
 50
0.0
 44
-1.0
 45
-0.5
  9
200
 49
-2.0
 74
     0
  0
LTYPE
  5
91B
330
5
100
AcDbSymbolTableRecord
100
AcDbLinetypeTableRecord
  2
DN 250
 70
     0
  3
 DN250 ---- 250 --- 250 --- 250 ---
 72
    65
 73
     3
 40
9.0
 49
5.0
 74
     0
 49
-2.0
 74
     2
 75
     0
340
11
 46
1.0
 50
0.0
 44
-1.0
 45
-0.5
  9
250
 49
-2.0
 74
     0
  0
LTYPE
  5
91C
330
5
100
AcDbSymbolTableRecord
100
AcDbLinetypeTableRecord
  2
DN 300
 70
     0
  3
 DN300 ---- 300 --- 300 --- 300 ---
 72
    65
 73
     3
 40
9.0
 49
5.0
 74
     0
 49
-2.0
 74
     2
 75
     0
340
11
 46
1.0
 50
0.0
 44
-1.0
 45
-0.5
  9
300
 49
-2.0
 74
     0
  0
LTYPE
  5
9C8
330
5
100
AcDbSymbolTableRecord
100
AcDbLinetypeTableRecord
  2
ACISOWELD
 70
     0
  3
_ _ _ _ _
 72
    65
 73
     2
 40
2.0
 49
2.0
 74
     0
 49
-1.0
 74
     0
  0
LTYPE
  5
9CB
330
5
100
AcDbSymbolTableRecord
100
AcDbLinetypeTableRecord
  2
ACISOTGB
 70
     0
  3
__ . . __ . .
 72
    65
 73
     6
 40
9.0
 49
4.0
 74
     0
 49
-1.0
 74
     0
 49
1.0
 74
     0
 49
-1.0
 74
     0
 49
1.0
 74
     0
 49
-1.0
 74
     0
  0
LTYPE
  5
9CC
330
5
100
AcDbSymbolTableRecord
100
AcDbLinetypeTableRecord
  2
ACISOTGL
 70
     0
  3
_ _ _ _ _
 72
    65
 73
     2
 40
3.0
 49
2.0
 74
     0
 49
-1.0
 74
     0
  0
ENDTAB
  0
TABLE
  2
LAYER
  5
2
330
0
100
AcDbSymbolTable
 70
    11
  0
LAYER
  5
10
330
2
100
AcDbSymbolTableRecord
100
AcDbLayerTableRecord
  2
0
 70
     0
 62
     7
  6
Continuous
370
    -3
390
F
  0
LAYER
  5
F0
330
2
100
AcDbSymbolTableRecord
100
AcDbLayerTableRecord
  2
AM_5
 70
     0
 62
     3
  6
Continuous
370
    25
390
F
  0
LAYER
  5
2CC
330
2
100
AcDbSymbolTableRecord
100
AcDbLayerTableRecord
  2
AM_0
 70
     0
 62
     7
  6
Continuous
370
    50
390
F
  0
LAYER
  5
2CD
330
2
100
AcDbSymbolTableRecord
100
AcDbLayerTableRecord
  2
UMRISS05
 70
     0
 62
     7
  6
Continuous
370
    -3
390
F
  0
LAYER
  5
2CE
330
2
100
AcDbSymbolTableRecord
100
AcDbLayerTableRecord
  2
6
 70
     0
 62
     2
  6
Continuous
370
    -3
390
F
  0
LAYER
  5
2CF
330
2
100
AcDbSymbolTableRecord
100
AcDbLayerTableRecord
  2
AM_7
 70
     0
 62
     4
  6
AM_DIN_G_W050
370
    25
390
F
  0
LAYER
  5
2D0
330
2
100
AcDbSymbolTableRecord
100
AcDbLayerTableRecord
  2
AM_6
 70
     0
 62
     2
  6
Continuous
370
    35
390
F
  0
LAYER
  5
2D1
330
2
100
AcDbSymbolTableRecord
100
AcDbLayerTableRecord
  2
AM_4
 70
     0
 62
     3
  6
Continuous
370
    25
390
F
  0
LAYER
  5
2D2
330
2
100
AcDbSymbolTableRecord
100
AcDbLayerTableRecord
  2
Defpoints
 70
     0
 62
     7
  6
Continuous
290
     0
370
    -3
390
F
  0
LAYER
  5
2D3
330
2
100
AcDbSymbolTableRecord
100
AcDbLayerTableRecord
  2
4
 70
     0
 62
     3
  6
Continuous
370
    -3
390
F
  0
LAYER
  5
2D4
330
2
100
AcDbSymbolTableRecord
100
AcDbLayerTableRecord
  2
DN50-0
 70
     0
 62
     7
  6
Continuous
370
    -3
390
F
  0
ENDTAB
  0
TABLE
  2
STYLE
  5
3
330
0
100
AcDbSymbolTable
 70
    17
  0
STYLE
  5
11
330
3
100
AcDbSymbolTableRecord
100
AcDbTextStyleTableRecord
  2
STANDARD
 70
     0
 40
0.0
 41
1.0
 50
0.0
 71
     0
 42
2.5
  3
ISOCP.SHX
  4

  0
STYLE
  5
A7
330
3
100
AcDbSymbolTableRecord
100
AcDbTextStyleTableRecord
  2

 70
     1
 40
0.0
 41
1.0
 50
0.0
 71
     0
 42
2.5
  3
ltypeshp.shx
  4

  0
STYLE
  5
AE
330
3
100
AcDbSymbolTableRecord
100
AcDbTextStyleTableRecord
  2
ACDINTS
 70
     0
 40
1.0
 41
1.0
 50
0.0
 71
     0
 42
2.5
  3
isocp.shx
  4

  0
STYLE
  5
BA
330
3
100
AcDbSymbolTableRecord
100
AcDbTextStyleTableRecord
  2
ACDINGDT
 70
     0
 40
0.0
 41
1.0
 50
0.0
 71
     0
 42
2.5
  3
amgdt.shx
  4

  0
STYLE
  5
23D
330
3
100
AcDbSymbolTableRecord
100
AcDbTextStyleTableRecord
  2
USER1
 70
     0
 40
0.0
 41
1.0
 50
0.0
 71
     0
 42
2.5
  3
TXT.SHX
  4

  0
STYLE
  5
23E
330
3
100
AcDbSymbolTableRecord
100
AcDbTextStyleTableRecord
  2
USER2
 70
     0
 40
0.0
 41
1.0
 50
0.0
 71
     0
 42
2.5
  3
SIMPLEX.SHX
  4

  0
STYLE
  5
23F
330
3
100
AcDbSymbolTableRecord
100
AcDbTextStyleTableRecord
  2
USER3
 70
     0
 40
0.0
 41
1.0
 50
0.0
 71
     0
 42
2.5
  3
ITALIC.SHX
  4

  0
STYLE
  5
91D
330
3
100
AcDbSymbolTableRecord
100
AcDbTextStyleTableRecord
  2
Annotative
 70
     0
 40
0.0
 41
1.0
 50
0.0
 71
     0
 42
2.5
  3
ARIAL.TTF
  4

1001
AcadAnnotative
1000
AnnotativeData
1002
{
1070
     1
1070
     1
1002
}
1001
ACAD
1000
Arial
1071
       34
  0
STYLE
  5
91E
330
3
100
AcDbSymbolTableRecord
100
AcDbTextStyleTableRecord
  2
CP_TXT
 70
     0
 40
0.0
 41
1.0
 50
0.0
 71
     0
 42
2.5
  3
ROMANS.SHX
  4

  0
STYLE
  5
91F
330
3
100
AcDbSymbolTableRecord
100
AcDbTextStyleTableRecord
  2

 70
     1
 40
0.0
 41
1.0
 50
0.0
 71
     0
 42
2.5
  3
LTYPESHP.SHX
  4

  0
STYLE
  5
920
330
3
100
AcDbSymbolTableRecord
100
AcDbTextStyleTableRecord
  2
CP_ATTR
 70
     0
 40
0.0
 41
1.0
 50
0.0
 71
     0
 42
0.2
  3
ROMANS.SHX
  4

  0
STYLE
  5
921
330
3
100
AcDbSymbolTableRecord
100
AcDbTextStyleTableRecord
  2
CP_TXT_IT
 70
     0
 40
0.0
 41
1.0
 50
15.0
 71
     0
 42
2.5
  3
ROMANS.SHX
  4

  0
STYLE
  5
922
330
3
100
AcDbSymbolTableRecord
100
AcDbTextStyleTableRecord
  2
CP_TXTCON
 70
     0
 40
0.0
 41
0.8
 50
0.0
 71
     0
 42
2.5
  3
ROMANS.SHX
  4

  0
STYLE
  5
923
330
3
100
AcDbSymbolTableRecord
100
AcDbTextStyleTableRecord
  2
CP_TXTCON_IT
 70
     0
 40
0.0
 41
0.8
 50
15.0
 71
     0
 42
2.5
  3
ROMANS.SHX
  4

  0
STYLE
  5
9C2
330
3
100
AcDbSymbolTableRecord
100
AcDbTextStyleTableRecord
  2
ACISOTS
 70
     0
 40
1.0
 41
1.0
 50
0.0
 71
     0
 42
2.5
  3
isocp.shx
  4
bigfont.shx
  0
STYLE
  5
9C6
330
3
100
AcDbSymbolTableRecord
100
AcDbTextStyleTableRecord
  2
ACISOGDT
 70
     0
 40
0.0
 41
1.0
 50
0.0
 71
     0
 42
2.5
  3
amgdt.shx
  4
bigfont.shx
  0
ENDTAB
  0
TABLE
  2
VIEW
  5
6
330
0
100
AcDbSymbolTable
 70
     0
  0
ENDTAB
  0
TABLE
  2
UCS
  5
7
330
0
100
AcDbSymbolTable
 70
     0
  0
ENDTAB
  0
TABLE
  2
APPID
  5
9
330
0
100
AcDbSymbolTable
 70
    23
  0
APPID
  5
12
330
9
100
AcDbSymbolTableRecord
100
AcDbRegAppTableRecord
  2
ACAD
 70
     0
  0
APPID
  5
82
330
9
100
AcDbSymbolTableRecord
100
AcDbRegAppTableRecord
  2
MCAD_NO_VIS
 70
     0
  0
APPID
  5
83
330
9
100
AcDbSymbolTableRecord
100
AcDbRegAppTableRecord
  2
ACAD_TEMP_GRAPHIC
 70
     0
  0
APPID
  5
94
330
9
100
AcDbSymbolTableRecord
100
AcDbRegAppTableRecord
  2
ACATTRIBSERVICES
 70
     0
  0
APPID
  5
CF
330
9
100
AcDbSymbolTableRecord
100
AcDbRegAppTableRecord
  2
GENIUS_GENSCREG_15
 70
     0
  0
APPID
  5
D0
330
9
100
AcDbSymbolTableRecord
100
AcDbRegAppTableRecord
  2
GENIUS_GENOBJ-N-SDF_13
 70
     0
  0
APPID
  5
D1
330
9
100
AcDbSymbolTableRecord
100
AcDbRegAppTableRecord
  2
GENIUS_GENODEF_13
 70
     0
  0
APPID
  5
125
330
9
100
AcDbSymbolTableRecord
100
AcDbRegAppTableRecord
  2
AD_DRAW
 70
     0
  0
APPID
  5
143
330
9
100
AcDbSymbolTableRecord
100
AcDbRegAppTableRecord
  2
DESIGNERASSEMBLIES
 70
     0
  0
APPID
  5
148
330
9
100
AcDbSymbolTableRecord
100
AcDbRegAppTableRecord
  2
ACADM_DIM_EDIT
 70
     0
  0
APPID
  5
149
330
9
100
AcDbSymbolTableRecord
100
AcDbRegAppTableRecord
  2
AMDT_DM_ADJ
 70
     0
  0
APPID
  5
2D5
330
9
100
AcDbSymbolTableRecord
100
AcDbRegAppTableRecord
  2
GENIUS_GENDTOL_13
 70
     0
  0
APPID
  5
2D6
330
9
100
AcDbSymbolTableRecord
100
AcDbRegAppTableRecord
  2
GENIUS_GENOBJ-N-FIL_13
 70
     0
  0
APPID
  5
2D7
330
9
100
AcDbSymbolTableRecord
100
AcDbRegAppTableRecord
  2
GENIUS_GENOBJ-N-CEN_13
 70
     0
  0
APPID
  5
2D8
330
9
100
AcDbSymbolTableRecord
100
AcDbRegAppTableRecord
  2
GENIUS_GENREC_14
 70
     0
  0
APPID
  5
2D9
330
9
100
AcDbSymbolTableRecord
100
AcDbRegAppTableRecord
  2
GENIUS_GENOBJ-N-REC_13
 70
     0
  0
APPID
  5
926
330
9
100
AcDbSymbolTableRecord
100
AcDbRegAppTableRecord
  2
ACAD_PSEXT
 70
     0
  0
APPID
  5
927
330
9
100
AcDbSymbolTableRecord
100
AcDbRegAppTableRecord
  2
AcadAnnoPO
 70
     0
  0
APPID
  5
928
330
9
100
AcDbSymbolTableRecord
100
AcDbRegAppTableRecord
  2
AcadAnnotative
 70
     0
  0
APPID
  5
929
330
9
100
AcDbSymbolTableRecord
100
AcDbRegAppTableRecord
  2
ACAD_DSTYLE_DIMJAG
 70
     0
  0
APPID
  5
92A
330
9
100
AcDbSymbolTableRecord
100
AcDbRegAppTableRecord
  2
ACAD_DSTYLE_DIMTALN
 70
     0
  0
APPID
  5
92B
330
9
100
AcDbSymbolTableRecord
100
AcDbRegAppTableRecord
  2
ACAD_MLEADERVER
 70
     0
  0
APPID
  5
92C
330
9
100
AcDbSymbolTableRecord
100
AcDbRegAppTableRecord
  2
DCO15
 70
     0
  0
ENDTAB
  0
TABLE
  2
DIMSTYLE
  5
A
330
0
100
AcDbSymbolTable
 70
    18
100
AcDbDimStyleTable
 71
     2
340
C2
340
27
  0
DIMSTYLE
105
27
330
A
100
AcDbSymbolTableRecord
100
AcDbDimStyleTableRecord
  2
ISO-25
 70
     0
 41
2.5
 42
0.625
 43
3.75
 44
1.25
 73
     0
 74
     0
 77
     1
 78
     8
140
2.5
141
2.5
143
0.03937007874016
147
0.625
171
     3
172
     1
271
     2
272
     2
274
     3
278
    44
283
     0
284
     8
340
11
  0
DIMSTYLE
105
C2
102
{ACAD_REACTORS
330
5E2
330
5E3
330
5E4
330
5E5
102
}
330
A
100
AcDbSymbolTableRecord
100
AcDbDimStyleTableRecord
  2
AM_DIN
 70
     0
  4
"
 41
2.5
 42
1.0
 43
10.0
 44
1.0
 47
0.1
 48
0.1
 73
     0
 74
     0
 77
     1
 78
     8
 79
     2
140
3.5
141
0.0
143
0.0393701
146
0.71
147
1.5
172
     1
176
   256
177
   256
178
     2
271
     2
272
     3
274
     4
283
     0
284
     8
340
11
371
    -1
372
    -1
  0
DIMSTYLE
105
C3
330
A
100
AcDbSymbolTableRecord
100
AcDbDimStyleTableRecord
  2
AM_DIN$3
 70
     0
  4
"
 41
2.5
 42
1.0
 43
10.0
 44
1.0
 47
0.1
 48
0.1
 73
     0
 77
     1
 78
     8
 79
     2
140
3.5
141
0.0
143
0.0393701
146
0.71
147
1.5
176
   256
177
   256
178
     2
271
     2
272
     3
274
     4
283
     0
284
     8
288
     1
289
     0
340
11
371
    -1
372
    -1
  0
DIMSTYLE
105
C4
330
A
100
AcDbSymbolTableRecord
100
AcDbDimStyleTableRecord
  2
AM_DIN$4
 70
     0
  4
"
 41
2.5
 42
1.0
 43
10.0
 44
1.0
 47
0.1
 48
0.1
 73
     0
 77
     1
 78
     8
 79
     2
140
3.5
141
0.0
143
0.0393701
146
0.71
147
1.5
176
   256
177
   256
178
     2
271
     2
272
     3
274
     4
283
     0
284
     8
288
     1
289
     0
340
11
371
    -1
372
    -1
  0
DIMSTYLE
105
C5
330
A
100
AcDbSymbolTableRecord
100
AcDbDimStyleTableRecord
  2
AM_DIN$6
 70
     0
  4
"
 41
2.5
 42
1.0
 43
10.0
 44
1.0
 47
0.1
 48
0.1
 73
     0
 74
     0
 78
     8
 79
     2
140
3.5
141
0.0
143
0.0393701
146
0.71
147
1.5
172
     1
176
   256
177
   256
178
     2
271
     2
272
     3
274
     4
283
     0
284
     8
340
11
371
    -1
372
    -1
  0
DIMSTYLE
105
C6
330
A
100
AcDbSymbolTableRecord
100
AcDbDimStyleTableRecord
  2
AM_DIN$7
 70
     0
  4
"
 41
2.5
 42
1.0
 43
10.0
 44
1.0
 47
0.1
 48
0.1
 73
     0
 74
     0
 77
     1
 78
     8
 79
     2
140
5.0
141
0.0
143
0.0393701
146
0.71
147
1.5
172
     1
176
   256
177
   256
178
     2
271
     2
272
     3
274
     4
283
     0
284
     8
340
11
371
    -1
372
    -1
  0
DIMSTYLE
105
C7
330
A
100
AcDbSymbolTableRecord
100
AcDbDimStyleTableRecord
  2
AM_DIN$SF
 70
     0
  4
"
 41
2.5
 42
1.0
 43
10.0
 44
1.0
 47
0.1
 48
0.1
 73
     0
 74
     0
 75
     1
 76
     1
 77
     1
 78
     8
 79
     2
140
3.5
141
0.0
143
0.0393701
146
0.71
147
1.5
172
     1
176
   256
177
   256
178
     2
271
     2
272
     3
274
     4
283
     0
284
     8
340
11
371
    -1
372
    -1
  0
DIMSTYLE
105
CC
330
A
100
AcDbSymbolTableRecord
100
AcDbDimStyleTableRecord
  2
AM_DIN$SH
 70
     0
  4
"
 41
2.5
 42
1.0
 43
10.0
 44
1.0
 47
0.1
 48
0.1
 73
     0
 74
     0
 75
     1
 76
     1
 77
     1
 78
     8
 79
     2
140
3.5
141
0.0
143
0.0393701
144
2.0
146
0.71
147
1.5
172
     1
173
     1
176
   256
177
   256
178
     2
271
     2
272
     3
274
     4
283
     0
284
     8
340
11
343
C8
371
    -1
372
    -1
  0
DIMSTYLE
105
924
330
A
100
AcDbSymbolTableRecord
100
AcDbDimStyleTableRecord
  2
Standard
 70
     0
340
11
  0
DIMSTYLE
105
925
330
A
100
AcDbSymbolTableRecord
100
AcDbDimStyleTableRecord
  2
Opisowy
 70
     0
 40
0.0
 41
2.5
 42
0.625
 43
3.75
 44
1.25
 73
     0
 74
     0
 77
     1
 78
     8
140
2.5
141
2.5
143
0.03937007874016
147
0.625
171
     3
172
     1
271
     2
272
     2
274
     3
278
    44
283
     0
284
     8
340
11
1001
AcadAnnotative
1000
AnnotativeData
1002
{
1070
     1
1070
     1
1002
}
1001
ACAD_DSTYLE_DIMJAG
1070
   388
1040
1.5
1001
ACAD_DSTYLE_DIMTALN
1070
   392
1070
     0
  0
DIMSTYLE
105
9DD
330
A
100
AcDbSymbolTableRecord
100
AcDbDimStyleTableRecord
  2
AM_ISO
 70
     0
  4
"
 41
2.5
 42
1.0
 43
10.0
 44
1.0
 47
0.1
 48
0.1
 73
     0
 74
     0
 77
     1
 78
     8
 79
     2
140
3.5
141
0.0
143
0.0393701
146
0.71
147
1.5
172
     1
176
   256
177
   256
178
     2
271
     2
272
     3
274
     4
283
     0
284
     8
340
11
371
    -1
372
    -1
  0
DIMSTYLE
105
9DE
330
A
100
AcDbSymbolTableRecord
100
AcDbDimStyleTableRecord
  2
AM_ISO$3
 70
     0
  4
"
 41
2.5
 42
1.0
 43
10.0
 44
1.0
 47
0.1
 48
0.1
 73
     0
 77
     1
 78
     8
 79
     2
140
3.5
141
0.0
143
0.0393701
146
0.71
147
1.5
176
   256
177
   256
178
     2
271
     2
272
     3
274
     4
283
     0
284
     8
288
     1
289
     0
340
11
371
    -1
372
    -1
  0
DIMSTYLE
105
9DF
330
A
100
AcDbSymbolTableRecord
100
AcDbDimStyleTableRecord
  2
AM_ISO$4
 70
     0
  4
"
 41
2.5
 42
1.0
 43
10.0
 44
1.0
 47
0.1
 48
0.1
 73
     0
 77
     1
 78
     8
 79
     2
140
3.5
141
0.0
143
0.0393701
146
0.71
147
1.5
176
   256
177
   256
178
     2
271
     2
272
     3
274
     4
283
     0
284
     8
288
     1
289
     0
340
11
371
    -1
372
    -1
  0
DIMSTYLE
105
9E0
330
A
100
AcDbSymbolTableRecord
100
AcDbDimStyleTableRecord
  2
AM_ISO$6
 70
     0
  4
"
 41
2.5
 42
1.0
 43
10.0
 44
1.0
 47
0.1
 48
0.1
 73
     0
 74
     0
 78
     8
 79
     2
140
3.5
141
0.0
143
0.0393701
146
0.71
147
1.5
172
     1
176
   256
177
   256
178
     2
271
     2
272
     3
274
     4
283
     0
284
     8
340
11
371
    -1
372
    -1
  0
DIMSTYLE
105
9E1
330
A
100
AcDbSymbolTableRecord
100
AcDbDimStyleTableRecord
  2
AM_ISO$7
 70
     0
  4
"
 41
2.5
 42
1.0
 43
10.0
 44
1.0
 47
0.1
 48
0.1
 73
     0
 74
     0
 77
     1
 78
     8
 79
     2
140
5.0
141
0.0
143
0.0393701
146
0.71
147
1.5
172
     1
176
   256
177
   256
178
     2
271
     2
272
     3
274
     4
283
     0
284
     8
340
11
371
    -1
372
    -1
  0
DIMSTYLE
105
9E2
330
A
100
AcDbSymbolTableRecord
100
AcDbDimStyleTableRecord
  2
AM_ISO$SF
 70
     0
  4
"
 41
2.5
 42
1.0
 43
10.0
 44
1.0
 47
0.1
 48
0.1
 73
     0
 74
     0
 75
     1
 76
     1
 77
     1
 78
     8
 79
     2
140
3.5
141
0.0
143
0.0393701
146
0.71
147
1.5
172
     1
176
   256
177
   256
178
     2
271
     2
272
     3
274
     4
283
     0
284
     8
340
11
371
    -1
372
    -1
  0
DIMSTYLE
105
9E3
330
A
100
AcDbSymbolTableRecord
100
AcDbDimStyleTableRecord
  2
AM_ISO$SH
 70
     0
  4
"
 41
2.5
 42
1.0
 43
10.0
 44
1.0
 47
0.1
 48
0.1
 73
     0
 74
     0
 75
     1
 76
     1
 77
     1
 78
     8
 79
     2
140
3.5
141
0.0
143
0.0393701
144
2.0
146
0.71
147
1.5
172
     1
173
     1
176
   256
177
   256
178
     2
271
     2
272
     3
274
     4
283
     0
284
     8
340
11
343
C8
371
    -1
372
    -1
  0
ENDTAB
  0
TABLE
  2
BLOCK_RECORD
  5
1
330
0
100
AcDbSymbolTable
 70
     8
  0
BLOCK_RECORD
  5
1F
102
{ACAD_XDICTIONARY
360
D5
102
}
330
1
100
AcDbSymbolTableRecord
100
AcDbBlockTableRecord
  2
*Model_Space
340
22
  0
BLOCK_RECORD
  5
55
330
1
100
AcDbSymbolTableRecord
100
AcDbBlockTableRecord
  2
*Paper_Space
340
56
  0
BLOCK_RECORD
  5
50
330
1
100
AcDbSymbolTableRecord
100
AcDbBlockTableRecord
  2
*Paper_Space0
340
51
  0
BLOCK_RECORD
  5
C8
330
1
100
AcDbSymbolTableRecord
100
AcDbBlockTableRecord
  2
GENAXEH
340
0
  0
BLOCK_RECORD
  5
881
330
1
100
AcDbSymbolTableRecord
100
AcDbBlockTableRecord
  2
*D2
340
0
  0
BLOCK_RECORD
  5
88E
330
1
100
AcDbSymbolTableRecord
100
AcDbBlockTableRecord
  2
*D3
340
0
  0
BLOCK_RECORD
  5
89A
330
1
100
AcDbSymbolTableRecord
100
AcDbBlockTableRecord
  2
*D4
340
0
  0
BLOCK_RECORD
  5
8A6
330
1
100
AcDbSymbolTableRecord
100
AcDbBlockTableRecord
  2
*D5
340
0
  0
ENDTAB
  0
ENDSEC
  0
SECTION
  2
BLOCKS
  0
BLOCK
  5
20
330
1F
100
AcDbEntity
  8
0
100
AcDbBlockBegin
  2
*Model_Space
 70
     0
 10
0.0
 20
0.0
 30
0.0
  3
*Model_Space
  1

  0
ENDBLK
  5
21
330
1F
100
AcDbEntity
  8
0
100
AcDbBlockEnd
  0
BLOCK
  5
57
330
55
100
AcDbEntity
 67
     1
  8
0
100
AcDbBlockBegin
  2
*Paper_Space
 70
     0
 10
0.0
 20
0.0
 30
0.0
  3
*Paper_Space
  1

  0
ENDBLK
  5
58
330
55
100
AcDbEntity
 67
     1
  8
0
100
AcDbBlockEnd
  0
BLOCK
  5
52
330
50
100
AcDbEntity
 67
     1
  8
0
100
AcDbBlockBegin
  2
*Paper_Space0
 70
     0
 10
0.0
 20
0.0
 30
0.0
  3
*Paper_Space0
  1

  0
VIEWPORT
  5
69
330
50
100
AcDbEntity
 67
     1
  8
0
100
AcDbViewport
 10
128.5
 20
97.5
 30
0.0
 40
384.7606204379562
 41
222.18
 68
     0
 69
     0
 12
128.5
 22
97.5
 13
0.0
 23
0.0
 14
10.0
 24
10.0
 15
10.0
 25
10.0
 16
0.0
 26
0.0
 36
1.0
 17
0.0
 27
0.0
 37
0.0
 42
50.0
 43
0.0
 44
0.0
 45
222.18
 50
0.0
 51
0.0
 72
   100
 90
    32800
  1

281
     0
 71
     1
 74
     0
110
0.0
120
0.0
130
0.0
111
1.0
121
0.0
131
0.0
112
0.0
122
1.0
132
0.0
 79
     0
146
0.0
170
     0
1001
GENIUS_GENOBJ-N-SDF_13
1002
{
1000
OWNER
1000
GEN
1002
}
1001
GENIUS_GENODEF_13
1002
{
1000
HIER
1070
     0
1002
}
1002
{
1000
MANEDIT
1070
     0
1002
}
1002
{
1000
NOSEL
1070
     0
1002
}
1002
{
1000
BEHIND
1070
     0
1002
}
1002
{
1000
OTHER
1070
     0
1002
}
1002
{
1000
REACTOR
1002
}
1001
GENIUS_GENSCREG_15
1000
PF
1040
1.0
1000
DF
1040
1.0
1000
MIN
1011
-63.88031021897808
1021
-13.59
1031
0.0
1000
MAX
1011
320.8803102189782
1021
208.59
1031
0.0
1000
FLAGS
1070
     2
  0
VIEWPORT
  5
6B
330
50
100
AcDbEntity
 67
     1
  8
0
100
AcDbViewport
 10
128.5
 20
97.5
 30
0.0
 40
205.6
 41
156.0
 68
     0
 69
     0
 12
210.0
 22
148.5
 13
0.0
 23
0.0
 14
10.0
 24
10.0
 15
10.0
 25
10.0
 16
0.0
 26
0.0
 36
1.0
 17
0.0
 27
0.0
 37
0.0
 42
50.0
 43
0.0
 44
0.0
 45
322.4558219652112
 50
0.0
 51
0.0
 72
   100
 90
    32864
  1

281
     0
 71
     1
 74
     0
110
0.0
120
0.0
130
0.0
111
1.0
121
0.0
131
0.0
112
0.0
122
1.0
132
0.0
 79
     0
146
0.0
170
     0
1001
GENIUS_GENOBJ-N-SDF_13
1002
{
1000
OWNER
1000
GEN
1002
}
1001
GENIUS_GENODEF_13
1002
{
1000
HIER
1070
     0
1002
}
1002
{
1000
MANEDIT
1070
     0
1002
}
1002
{
1000
NOSEL
1070
     0
1002
}
1002
{
1000
BEHIND
1070
     0
1002
}
1002
{
1000
OTHER
1070
     0
1002
}
1002
{
1000
REACTOR
1002
}
1001
GENIUS_GENSCREG_15
1000
PF
1040
0.0
1000
DF
1040
0.0
1000
MIN
1011
25.70000000000002
1021
19.5
1031
0.0
1000
MAX
1011
231.3
1021
175.5
1031
0.0
1000
FLAGS
1070
     2
  0
ENDBLK
  5
53
330
50
100
AcDbEntity
 67
     1
  8
0
100
AcDbBlockEnd
  0
BLOCK
  5
9BB
330
C8
100
AcDbEntity
  8
0
100
AcDbBlockBegin
  2
GENAXEH
 70
     0
 10
0.0
 20
0.0
 30
0.0
  3
GENAXEH
  1

  0
LINE
  5
9BC
330
C8
100
AcDbEntity
  8
0
100
AcDbLine
 10
-1.0
 20
0.0
 30
0.0
 11
1.0
 21
0.0
 31
0.0
  0
ENDBLK
  5
9BD
330
C8
100
AcDbEntity
  8
0
100
AcDbBlockEnd
  0
BLOCK
  5
88C
330
881
100
AcDbEntity
  8
0
100
AcDbBlockBegin
  2
*D2
 70
     1
 10
0.0
 20
0.0
 30
0.0
  3
*D2
  1

  0
LINE
  5
8B2
330
881
100
AcDbEntity
  8
AM_5
100
AcDbLine
 10
534.9096199616045
 20
260.0656789310664
 30
0.0
 11
534.9096199616045
 21
245.7810031934429
 31
0.0
  0
LINE
  5
8B3
330
881
100
AcDbEntity
  8
AM_5
100
AcDbLine
 10
559.8238149919798
 20
260.0656789310664
 30
0.0
 11
559.8238149919798
 21
245.7810031934429
 31
0.0
  0
LINE
  5
8B4
330
881
100
AcDbEntity
  8
AM_5
100
AcDbLine
 10
537.4096199616047
 20
247.7810031934429
 30
0.0
 11
557.3238149919798
 21
247.7810031934429
 31
0.0
  0
LINE
  5
8B5
330
881
100
AcDbEntity
  8
AM_5
100
AcDbLine
 10
559.8238149919798
 20
247.7810031934429
 30
0.0
 11
592.427405024603
 21
247.7810031934429
 31
0.0
  0
SOLID
  5
8B6
330
881
100
AcDbEntity
  8
AM_5
100
AcDbTrace
 10
537.4096199616047
 20
248.1976698601096
 30
0.0
 11
537.4096199616047
 21
247.3643365267762
 31
0.0
 12
534.9096199616045
 22
247.7810031934429
 32
0.0
 13
534.9096199616045
 23
247.7810031934429
 33
0.0
  0
SOLID
  5
8B7
330
881
100
AcDbEntity
  8
AM_5
100
AcDbTrace
 10
557.3238149919798
 20
248.1976698601096
 30
0.0
 11
557.3238149919798
 21
247.3643365267762
 31
0.0
 12
559.8238149919798
 22
247.7810031934429
 32
0.0
 13
559.8238149919798
 23
247.7810031934429
 33
0.0
  0
MTEXT
  5
8B8
330
881
100
AcDbEntity
  8
AM_5
 62
     2
100
AcDbMText
 10
580.2524050246029
 20
254.1230143482986
 30
0.0
 40
3.5
 41
0.0
 71
     5
 72
     1
  1
EN 10226-1\P   R¾
 73
     1
 44
1.0
  0
POINT
  5
8B9
330
881
100
AcDbEntity
  8
Defpoints
 62
     0
100
AcDbPoint
 10
534.9096199616045
 20
260.0656789310664
 30
0.0
  0
POINT
  5
8BA
330
881
100
AcDbEntity
  8
Defpoints
 62
     0
100
AcDbPoint
 10
559.8238149919798
 20
260.0656789310664
 30
0.0
  0
POINT
  5
8BB
330
881
100
AcDbEntity
  8
Defpoints
 62
     0
100
AcDbPoint
 10
559.8238149919798
 20
247.7810031934429
 30
0.0
  0
ENDBLK
  5
88D
330
881
100
AcDbEntity
  8
0
100
AcDbBlockEnd
  0
BLOCK
  5
898
330
88E
100
AcDbEntity
  8
0
100
AcDbBlockBegin
  2
*D3
 70
     1
 10
0.0
 20
0.0
 30
0.0
  3
*D3
  1

  0
LINE
  5
8BC
330
88E
100
AcDbEntity
  8
AM_5
100
AcDbLine
 10
547.3667174767919
 20
523.5604773793028
 30
0.0
 11
385.7671246726318
 21
523.5604773793028
 31
0.0
  0
LINE
  5
8BD
330
88E
100
AcDbEntity
  8
AM_5
100
AcDbLine
 10
547.3667174767914
 20
280.5925281868704
 30
0.0
 11
385.7671246726318
 21
280.5925281868704
 31
0.0
  0
LINE
  5
8BE
330
88E
100
AcDbEntity
  8
AM_5
100
AcDbLine
 10
387.7671246726318
 20
521.0604773793028
 30
0.0
 11
387.7671246726318
 21
283.0925281868704
 31
0.0
  0
SOLID
  5
8BF
330
88E
100
AcDbEntity
  8
AM_5
100
AcDbTrace
 10
387.3504580059651
 20
521.0604773793028
 30
0.0
 11
388.1837913392985
 21
521.0604773793028
 31
0.0
 12
387.7671246726318
 22
523.5604773793028
 32
0.0
 13
387.7671246726318
 23
523.5604773793028
 33
0.0
  0
SOLID
  5
8C0
330
88E
100
AcDbEntity
  8
AM_5
100
AcDbTrace
 10
387.3504580059651
 20
283.0925281868704
 30
0.0
 11
388.1837913392985
 21
283.0925281868704
 31
0.0
 12
387.7671246726318
 22
280.5925281868704
 32
0.0
 13
387.7671246726318
 23
280.5925281868704
 33
0.0
  0
MTEXT
  5
8C1
330
88E
100
AcDbEntity
  8
AM_5
 62
     2
100
AcDbMText
 10
384.5167801844427
 20
402.0765027830867
 30
0.0
 40
3.5
 41
0.0
 71
     5
 72
     1
  1
244{}{\C2;%%p3}
 11
0.0000000000000001
 21
1.0
 31
0.0
 73
     1
 44
1.0
  0
POINT
  5
8C2
330
88E
100
AcDbEntity
  8
Defpoints
 62
     0
100
AcDbPoint
 10
547.3667174767919
 20
523.5604773793028
 30
0.0
  0
POINT
  5
8C3
330
88E
100
AcDbEntity
  8
Defpoints
 62
     0
100
AcDbPoint
 10
547.3667174767914
 20
280.5925281868704
 30
0.0
  0
POINT
  5
8C4
330
88E
100
AcDbEntity
  8
Defpoints
 62
     0
100
AcDbPoint
 10
387.7671246726318
 20
280.5925281868704
 30
0.0
  0
ENDBLK
  5
899
330
88E
100
AcDbEntity
  8
0
100
AcDbBlockEnd
  0
BLOCK
  5
8A4
330
89A
100
AcDbEntity
  8
0
100
AcDbBlockBegin
  2
*D4
 70
     1
 10
0.0
 20
0.0
 30
0.0
  3
*D4
  1

  0
LINE
  5
8C5
330
89A
100
AcDbEntity
  8
AM_5
100
AcDbLine
 10
547.3667174767914
 20
258.7892240345803
 30
0.0
 11
375.7671246726317
 21
258.7892240345804
 31
0.0
  0
LINE
  5
8C6
330
89A
100
AcDbEntity
  8
AM_5
100
AcDbLine
 10
547.3667174767919
 20
534.5716401180874
 30
0.0
 11
375.7671246726318
 21
534.5716401180874
 31
0.0
  0
LINE
  5
8C7
330
89A
100
AcDbEntity
  8
AM_5
100
AcDbLine
 10
377.7671246726317
 20
261.2892240345804
 30
0.0
 11
377.7671246726318
 21
532.0716401180874
 31
0.0
  0
SOLID
  5
8C8
330
89A
100
AcDbEntity
  8
AM_5
100
AcDbTrace
 10
377.350458005965
 20
261.2892240345804
 30
0.0
 11
378.1837913392984
 21
261.2892240345804
 31
0.0
 12
377.7671246726317
 22
258.7892240345804
 32
0.0
 13
377.7671246726317
 23
258.7892240345804
 33
0.0
  0
SOLID
  5
8C9
330
89A
100
AcDbEntity
  8
AM_5
100
AcDbTrace
 10
377.3504580059651
 20
532.0716401180874
 30
0.0
 11
378.1837913392985
 21
532.0716401180874
 31
0.0
 12
377.7671246726318
 22
534.5716401180874
 32
0.0
 13
377.7671246726318
 23
534.5716401180874
 33
0.0
  0
MTEXT
  5
8CA
330
89A
100
AcDbEntity
  8
AM_5
 62
     2
100
AcDbMText
 10
374.5167801844427
 20
396.680432076334
 30
0.0
 40
3.5
 41
0.0
 71
     5
 72
     1
  1
275{}{\C2;%%p5}
 11
0.0000000000000001
 21
1.0
 31
0.0
 73
     1
 44
1.0
  0
POINT
  5
8CB
330
89A
100
AcDbEntity
  8
Defpoints
 62
     0
100
AcDbPoint
 10
547.3667174767914
 20
258.7892240345803
 30
0.0
  0
POINT
  5
8CC
330
89A
100
AcDbEntity
  8
Defpoints
 62
     0
100
AcDbPoint
 10
547.3667174767919
 20
534.5716401180874
 30
0.0
  0
POINT
  5
8CD
330
89A
100
AcDbEntity
  8
Defpoints
 62
     0
100
AcDbPoint
 10
377.7671246726318
 20
534.5716401180874
 30
0.0
  0
ENDBLK
  5
8A5
330
89A
100
AcDbEntity
  8
0
100
AcDbBlockEnd
  0
BLOCK
  5
8B0
330
8A6
100
AcDbEntity
  8
0
100
AcDbBlockBegin
  2
*D5
 70
     1
 10
0.0
 20
0.0
 30
0.0
  3
*D5
  1

  0
LINE
  5
8CE
330
8A6
100
AcDbEntity
  8
AM_5
100
AcDbLine
 10
407.3667174788802
 20
441.8343684439632
 30
0.0
 11
407.3667174788802
 21
424.123469322752
 31
0.0
  0
LINE
  5
8CF
330
8A6
100
AcDbEntity
  8
AM_5
100
AcDbLine
 10
687.3667174747038
 20
441.8343684439632
 30
0.0
 11
687.3667174747038
 21
424.123469322752
 31
0.0
  0
LINE
  5
8D0
330
8A6
100
AcDbEntity
  8
AM_5
100
AcDbLine
 10
409.8667174788801
 20
426.1234693227519
 30
0.0
 11
684.8667174747038
 21
426.1234693227519
 31
0.0
  0
SOLID
  5
8D1
330
8A6
100
AcDbEntity
  8
AM_5
100
AcDbTrace
 10
409.8667174788801
 20
426.5401359894187
 30
0.0
 11
409.8667174788801
 21
425.7068026560853
 31
0.0
 12
407.3667174788802
 22
426.1234693227519
 32
0.0
 13
407.3667174788802
 23
426.1234693227519
 33
0.0
  0
SOLID
  5
8D2
330
8A6
100
AcDbEntity
  8
AM_5
100
AcDbTrace
 10
684.8667174747038
 20
426.5401359894187
 30
0.0
 11
684.8667174747038
 21
425.7068026560853
 31
0.0
 12
687.3667174747038
 22
426.1234693227519
 32
0.0
 13
687.3667174747038
 23
426.1234693227519
 33
0.0
  0
MTEXT
  5
8D3
330
8A6
100
AcDbEntity
  8
AM_5
 62
     2
100
AcDbMText
 10
510.3610903778171
 20
429.373813810941
 30
0.0
 40
3.5
 41
0.0
 71
     5
 72
     1
  1
ø280
 73
     1
 44
1.0
  0
POINT
  5
8D4
330
8A6
100
AcDbEntity
  8
Defpoints
 62
     0
100
AcDbPoint
 10
407.3667174788802
 20
441.8343684439632
 30
0.0
  0
POINT
  5
8D5
330
8A6
100
AcDbEntity
  8
Defpoints
 62
     0
100
AcDbPoint
 10
687.3667174747038
 20
441.8343684439632
 30
0.0
  0
POINT
  5
8D6
330
8A6
100
AcDbEntity
  8
Defpoints
 62
     0
100
AcDbPoint
 10
687.3667174747038
 20
426.1234693227519
 30
0.0
  0
ENDBLK
  5
8B1
330
8A6
100
AcDbEntity
  8
0
100
AcDbBlockEnd
  0
ENDSEC
  0
SECTION
  2
ENTITIES
  0
ARC
  5
5B4
330
1F
100
AcDbEntity
  8
AM_0
100
AcDbCircle
 10
547.3667174767919
 20
317.5604773793028
 30
0.0
 40
206.0
100
AcDbArc
 50
90.0
 51
124.0557977416203
  0
ARC
  5
5B5
330
1F
100
AcDbEntity
  8
AM_0
100
AcDbCircle
 10
547.3667174767919
 20
317.5604773793028
 30
0.0
 40
206.0
100
AcDbArc
 50
55.94420225837964
 51
90.0
  0
LINE
  5
5B6
330
1F
100
AcDbEntity
  8
AM_7
100
AcDbLine
 10
547.3667174767919
 20
555.2917022687887
 30
0.0
 11
547.3667174767914
 21
250.7571732270129
 31
0.0
1001
GENIUS_GENOBJ-N-CEN_13
1002
{
1000
OWNER
1000
GEN
1002
}
1001
GENIUS_GENODEF_13
1002
{
1000
HIER
1070
     0
1002
}
1002
{
1000
MANEDIT
1070
     0
1002
}
1002
{
1000
NOSEL
1070
     0
1002
}
1002
{
1000
BEHIND
1070
     0
1002
}
1002
{
1000
OTHER
1070
     0
1002
}
1002
{
1000
REACTOR
1002
}
  0
ARC
  5
5B7
330
1F
100
AcDbEntity
  8
AM_0
100
AcDbCircle
 10
547.3667174767919
 20
486.5925281868702
 30
0.0
 40
206.0
100
AcDbArc
 50
235.9442022583796
 51
267.4959893095242
  0
LINE
  5
5B8
330
1F
100
AcDbEntity
  8
AM_0
100
AcDbLine
 10
407.3667174788793
 20
405.5604773793019
 30
0.0
 11
407.3667174788793
 21
386.1506473230511
 31
0.0
  0
ARC
  5
5B9
330
1F
100
AcDbEntity
  8
AM_0
100
AcDbCircle
 10
463.3667174788793
 20
362.3186371222118
 30
0.0
 40
56.0
100
AcDbArc
 50
180.0
 51
235.9442022583796
1001
GENIUS_GENODEF_13
1002
{
1000
HIER
1070
     0
1002
}
1002
{
1000
MANEDIT
1070
     0
1002
}
1002
{
1000
NOSEL
1070
     0
1002
}
1002
{
1000
BEHIND
1070
     0
1002
}
1002
{
1000
OTHER
1070
     0
1002
}
1002
{
1000
REACTOR
1002
}
1001
GENIUS_GENOBJ-N-FIL_13
1002
{
1000
OWNER
1000
GEN
1002
}
  0
ARC
  5
5BA
330
1F
100
AcDbEntity
  8
AM_0
100
AcDbCircle
 10
404.8667174788802
 20
374.970307435553
 30
0.0
 40
2.5
100
AcDbArc
 50
0.0
 51
48.18968510423307
1001
GENIUS_GENODEF_13
1002
{
1000
HIER
1070
     0
1002
}
1002
{
1000
MANEDIT
1070
     0
1002
}
1002
{
1000
NOSEL
1070
     0
1002
}
1002
{
1000
BEHIND
1070
     0
1002
}
1002
{
1000
OTHER
1070
     0
1002
}
1002
{
1000
REACTOR
1002
}
1001
GENIUS_GENOBJ-N-FIL_13
1002
{
1000
OWNER
1000
GEN
1002
}
  0
ARC
  5
5BB
330
1F
100
AcDbEntity
  8
AM_0
100
AcDbCircle
 10
404.8667174788784
 20
386.150647323052
 30
0.0
 40
2.5
100
AcDbArc
 50
311.8103148958026
 51
0.0
1001
GENIUS_GENOBJ-N-FIL_13
1002
{
1000
OWNER
1000
GEN
1002
}
1001
GENIUS_GENODEF_13
1002
{
1000
HIER
1070
     0
1002
}
1002
{
1000
MANEDIT
1070
     0
1002
}
1002
{
1000
NOSEL
1070
     0
1002
}
1002
{
1000
BEHIND
1070
     0
1002
}
1002
{
1000
OTHER
1070
     0
1002
}
1002
{
1000
REACTOR
1002
}
  0
ARC
  5
5BC
330
1F
100
AcDbEntity
  8
AM_0
100
AcDbCircle
 10
409.8667174788784
 20
380.5604773793029
 30
0.0
 40
5.0
100
AcDbArc
 50
131.8103148957669
 51
228.1896851042331
  0
LINE
  5
5BD
330
1F
100
AcDbEntity
  8
AM_0
100
AcDbLine
 10
407.3667174788793
 20
374.9703074355512
 30
0.0
 11
407.3667174788793
 21
362.3186371222118
 31
0.0
  0
ARC
  5
5BE
330
1F
100
AcDbEntity
  8
AM_0
100
AcDbCircle
 10
463.3667174788802
 20
441.8343684439622
 30
0.0
 40
56.0
100
AcDbArc
 50
124.0557977416203
 51
180.0
1001
GENIUS_GENODEF_13
1002
{
1000
HIER
1070
     0
1002
}
1002
{
1000
MANEDIT
1070
     0
1002
}
1002
{
1000
NOSEL
1070
     0
1002
}
1002
{
1000
BEHIND
1070
     0
1002
}
1002
{
1000
OTHER
1070
     0
1002
}
1002
{
1000
REACTOR
1002
}
1001
GENIUS_GENOBJ-N-FIL_13
1002
{
1000
OWNER
1000
GEN
1002
}
  0
LINE
  5
5BF
330
1F
100
AcDbEntity
  8
AM_0
100
AcDbLine
 10
407.3667174788802
 20
441.8343684439632
 30
0.0
 11
407.3667174788802
 21
408.1284265717304
 31
0.0
  0
LINE
  5
5C0
330
1F
100
AcDbEntity
  8
AM_0
100
AcDbLine
 10
407.3667174788793
 20
405.5604773793019
 30
0.0
 11
408.3667174788793
 21
405.5604773793019
 31
0.0
  0
ARC
  5
5C1
330
1F
100
AcDbEntity
  8
AM_0
100
AcDbCircle
 10
409.3667174788784
 20
408.1284265717304
 30
0.0
 40
2.0
100
AcDbArc
 50
180.0
 51
210.0000000000005
1001
GENIUS_GENOBJ-N-FIL_13
1002
{
1000
OWNER
1000
GEN
1002
}
1001
GENIUS_GENODEF_13
1002
{
1000
HIER
1070
     0
1002
}
1002
{
1000
MANEDIT
1070
     0
1002
}
1002
{
1000
NOSEL
1070
     0
1002
}
1002
{
1000
BEHIND
1070
     0
1002
}
1002
{
1000
OTHER
1070
     0
1002
}
1002
{
1000
REACTOR
1002
}
  0
LINE
  5
5C2
330
1F
100
AcDbEntity
  8
AM_0
100
AcDbLine
 10
408.2327428826642
 20
406.0925281868693
 30
0.0
 11
407.6346666713101
 21
407.1284265717293
 31
0.0
  0
ARC
  5
5C3
330
1F
100
AcDbEntity
  8
AM_0
100
AcDbCircle
 10
407.3667174788782
 20
405.5925281868702
 30
0.0
 40
1.0
100
AcDbArc
 50
0.0
 51
30.00000000000055
1001
GENIUS_GENOBJ-N-FIL_13
1002
{
1000
OWNER
1000
GEN
1002
}
1001
GENIUS_GENODEF_13
1002
{
1000
HIER
1070
     0
1002
}
1002
{
1000
MANEDIT
1070
     0
1002
}
1002
{
1000
NOSEL
1070
     0
1002
}
1002
{
1000
BEHIND
1070
     0
1002
}
1002
{
1000
OTHER
1070
     0
1002
}
1002
{
1000
REACTOR
1002
}
  0
LINE
  5
5C4
330
1F
100
AcDbEntity
  8
AM_6
100
AcDbLine
 10
547.3667174767918
 20
376.2303503603798
 30
0.0
 11
685.3667174747037
 21
376.2303503603798
 31
0.0
  0
LINE
  5
5C5
330
1F
100
AcDbEntity
  8
AM_6
100
AcDbLine
 10
547.3667174767918
 20
384.8906043982244
 30
0.0
 11
685.3667174747037
 21
384.8906043982243
 31
0.0
  0
LINE
  5
5C6
330
1F
100
AcDbEntity
  8
AM_0
100
AcDbLine
 10
547.3667174767918
 20
405.560477379302
 30
0.0
 11
687.3667174747038
 21
405.5604773793019
 31
0.0
  0
ARC
  5
5C7
330
1F
100
AcDbEntity
  8
AM_0
100
AcDbCircle
 10
547.3667174767919
 20
486.5925281868702
 30
0.0
 40
206.0
100
AcDbArc
 50
272.5040106904759
 51
304.0557977416203
  0
LINE
  5
5C8
330
1F
100
AcDbEntity
  8
AM_0
100
AcDbLine
 10
687.3667174747038
 20
405.5604773793019
 30
0.0
 11
687.3667174747038
 21
386.1506473230511
 31
0.0
  0
ARC
  5
5C9
330
1F
100
AcDbEntity
  8
AM_0
100
AcDbCircle
 10
631.3667174747038
 20
362.3186371222109
 30
0.0
 40
56.0
100
AcDbArc
 50
304.0557977416203
 51
0.0
1001
GENIUS_GENODEF_13
1002
{
1000
HIER
1070
     0
1002
}
1002
{
1000
MANEDIT
1070
     0
1002
}
1002
{
1000
NOSEL
1070
     0
1002
}
1002
{
1000
BEHIND
1070
     0
1002
}
1002
{
1000
OTHER
1070
     0
1002
}
1002
{
1000
REACTOR
1002
}
1001
GENIUS_GENOBJ-N-FIL_13
1002
{
1000
OWNER
1000
GEN
1002
}
  0
ARC
  5
5CA
330
1F
100
AcDbEntity
  8
AM_0
100
AcDbCircle
 10
689.8667174747038
 20
374.970307435553
 30
0.0
 40
2.5
100
AcDbArc
 50
131.8103148957669
 51
180.0
1001
GENIUS_GENODEF_13
1002
{
1000
HIER
1070
     0
1002
}
1002
{
1000
MANEDIT
1070
     0
1002
}
1002
{
1000
NOSEL
1070
     0
1002
}
1002
{
1000
BEHIND
1070
     0
1002
}
1002
{
1000
OTHER
1070
     0
1002
}
1002
{
1000
REACTOR
1002
}
1001
GENIUS_GENOBJ-N-FIL_13
1002
{
1000
OWNER
1000
GEN
1002
}
  0
ARC
  5
5CB
330
1F
100
AcDbEntity
  8
AM_0
100
AcDbCircle
 10
689.8667174747038
 20
386.150647323052
 30
0.0
 40
2.5
100
AcDbArc
 50
180.0
 51
228.1896851041974
1001
GENIUS_GENOBJ-N-FIL_13
1002
{
1000
OWNER
1000
GEN
1002
}
1001
GENIUS_GENODEF_13
1002
{
1000
HIER
1070
     0
1002
}
1002
{
1000
MANEDIT
1070
     0
1002
}
1002
{
1000
NOSEL
1070
     0
1002
}
1002
{
1000
BEHIND
1070
     0
1002
}
1002
{
1000
OTHER
1070
     0
1002
}
1002
{
1000
REACTOR
1002
}
  0
ARC
  5
5CC
330
1F
100
AcDbEntity
  8
AM_0
100
AcDbCircle
 10
684.8667174747038
 20
380.5604773793029
 30
0.0
 40
5.0
100
AcDbArc
 50
311.8103148957669
 51
48.18968510423307
  0
LINE
  5
5CD
330
1F
100
AcDbEntity
  8
AM_0
100
AcDbLine
 10
687.3667174747038
 20
374.9703074355512
 30
0.0
 11
687.3667174747038
 21
362.3186371222109
 31
0.0
  0
ARC
  5
5CE
330
1F
100
AcDbEntity
  8
AM_0
100
AcDbCircle
 10
631.3667174747038
 20
441.8343684439622
 30
0.0
 40
56.0
100
AcDbArc
 50
0.0
 51
55.94420225837964
1001
GENIUS_GENODEF_13
1002
{
1000
HIER
1070
     0
1002
}
1002
{
1000
MANEDIT
1070
     0
1002
}
1002
{
1000
NOSEL
1070
     0
1002
}
1002
{
1000
BEHIND
1070
     0
1002
}
1002
{
1000
OTHER
1070
     0
1002
}
1002
{
1000
REACTOR
1002
}
1001
GENIUS_GENOBJ-N-FIL_13
1002
{
1000
OWNER
1000
GEN
1002
}
  0
LINE
  5
5CF
330
1F
100
AcDbEntity
  8
AM_0
100
AcDbLine
 10
687.3667174747038
 20
441.8343684439632
 30
0.0
 11
687.3667174747038
 21
408.1284265717304
 31
0.0
  0
LINE
  5
5D0
330
1F
100
AcDbEntity
  8
AM_0
100
AcDbLine
 10
686.5006920709197
 20
406.0925281868693
 30
0.0
 11
687.0987682822738
 21
407.1284265717293
 31
0.0
  0
ARC
  5
5D1
330
1F
100
AcDbEntity
  8
AM_0
100
AcDbCircle
 10
687.3667174747038
 20
405.5925281868702
 30
0.0
 40
1.0
100
AcDbArc
 50
149.9999999999994
 51
180.0
1001
GENIUS_GENOBJ-N-FIL_13
1002
{
1000
OWNER
1000
GEN
1002
}
1001
GENIUS_GENODEF_13
1002
{
1000
HIER
1070
     0
1002
}
1002
{
1000
MANEDIT
1070
     0
1002
}
1002
{
1000
NOSEL
1070
     0
1002
}
1002
{
1000
BEHIND
1070
     0
1002
}
1002
{
1000
OTHER
1070
     0
1002
}
1002
{
1000
REACTOR
1002
}
  0
ARC
  5
5D2
330
1F
100
AcDbEntity
  8
AM_0
100
AcDbCircle
 10
685.3667174747037
 20
408.1284265717304
 30
0.0
 40
2.0
100
AcDbArc
 50
329.9999999999995
 51
0.0
1001
GENIUS_GENOBJ-N-FIL_13
1002
{
1000
OWNER
1000
GEN
1002
}
1001
GENIUS_GENODEF_13
1002
{
1000
HIER
1070
     0
1002
}
1002
{
1000
MANEDIT
1070
     0
1002
}
1002
{
1000
NOSEL
1070
     0
1002
}
1002
{
1000
BEHIND
1070
     0
1002
}
1002
{
1000
OTHER
1070
     0
1002
}
1002
{
1000
REACTOR
1002
}
  0
LINE
  5
5D4
330
1F
100
AcDbEntity
  8
AM_0
100
AcDbLine
 10
686.3667174747038
 20
405.5925281868702
 30
0.0
 11
686.3667174747038
 21
405.5604773793019
 31
0.0
  0
LINE
  5
5D5
330
1F
100
AcDbEntity
  8
AM_4
100
AcDbLine
 10
686.2491607232882
 20
407.5925281868637
 30
0.0
 11
547.3667174767918
 21
407.5925281868639
 31
0.0
  0
LINE
  5
5D6
330
1F
100
AcDbEntity
  8
AM_0
100
AcDbLine
 10
558.564422857481
 20
258.7892240345803
 30
0.0
 11
536.1690120961034
 21
258.7892240345803
 31
0.0
  0
LINE
  5
5D7
330
1F
100
AcDbEntity
  8
AM_0
100
AcDbLine
 10
561.2705712561314
 20
280.7892240345803
 30
0.0
 11
533.462863697453
 21
280.7892240345803
 31
0.0
  0
LINE
  5
5D8
330
1F
100
AcDbEntity
  8
AM_0
100
AcDbLine
 10
534.9096199616045
 20
260.0656789310664
 30
0.0
 11
533.462863697453
 21
275.6606804271854
 31
0.0
  0
LINE
  5
5D9
330
1F
100
AcDbEntity
  8
AM_4
100
AcDbLine
 10
534.9196443113051
 20
272.3807606005652
 30
0.0
 11
536.1690120961034
 21
258.7892240345803
 31
0.0
  0
LINE
  5
5DA
330
1F
100
AcDbEntity
  8
AM_0
100
AcDbLine
 10
536.1690120961034
 20
258.7892240345803
 30
0.0
 11
534.9096199616045
 21
260.0656789310664
 31
0.0
  0
LINE
  5
5DB
330
1F
100
AcDbEntity
  8
AM_0
100
AcDbLine
 10
533.462863697453
 20
275.6606804271854
 30
0.0
 11
533.462863697453
 21
280.7892240345803
 31
0.0
  0
LINE
  5
5DC
330
1F
100
AcDbEntity
  8
AM_4
100
AcDbLine
 10
534.9196443113051
 20
272.3807606005652
 30
0.0
 11
533.547540025784
 21
274.7479299523951
 31
0.0
  0
LINE
  5
5DD
330
1F
100
AcDbEntity
  8
AM_4
100
AcDbLine
 10
559.8137906422794
 20
272.3807606005652
 30
0.0
 11
558.564422857481
 21
258.7892240345803
 31
0.0
  0
LINE
  5
5DE
330
1F
100
AcDbEntity
  8
AM_0
100
AcDbLine
 10
559.8238149919798
 20
260.0656789310664
 30
0.0
 11
561.2705712561314
 21
275.6606804271854
 31
0.0
  0
LINE
  5
5DF
330
1F
100
AcDbEntity
  8
AM_0
100
AcDbLine
 10
558.564422857481
 20
258.7892240345803
 30
0.0
 11
559.8238149919798
 21
260.0656789310664
 31
0.0
  0
LINE
  5
5E0
330
1F
100
AcDbEntity
  8
AM_0
100
AcDbLine
 10
561.2705712561314
 20
275.6606804271854
 30
0.0
 11
561.2705712561314
 21
280.7892240345803
 31
0.0
  0
LINE
  5
5E1
330
1F
100
AcDbEntity
  8
AM_4
100
AcDbLine
 10
559.8137906422794
 20
272.3807606005652
 30
0.0
 11
561.1858949278001
 21
274.7479299523951
 31
0.0
  0
DIMENSION
  5
5E2
330
1F
100
AcDbEntity
  8
AM_5
100
AcDbDimension
  2
*D2
 10
559.8238149919798
 20
247.7810031934429
 30
0.0
 11
580.2524050246029
 21
247.7810031934429
 31
0.0
 70
   160
  1
EN 10226-1\P   R¾
 71
     5
 42
24.91419503037514
  3
AM_DIN
100
AcDbAlignedDimension
 13
534.9096199616045
 23
260.0656789310664
 33
0.0
 14
559.8238149919798
 24
260.0656789310664
 34
0.0
100
AcDbRotatedDimension
  0
DIMENSION
  5
5E3
330
1F
100
AcDbEntity
  8
AM_5
100
AcDbDimension
  2
*D3
 10
387.7671246726318
 20
280.5925281868704
 30
0.0
 11
384.5167801844427
 21
402.0765027830867
 31
0.0
 70
    32
  1
244{}{\C2;%%p3}
 71
     5
 42
242.9679491924324
  3
AM_DIN
100
AcDbAlignedDimension
 13
547.3667174767919
 23
523.5604773793028
 33
0.0
 14
547.3667174767914
 24
280.5925281868704
 34
0.0
 50
90.0
100
AcDbRotatedDimension
1001
ACAD
1000
DSTYLE
1002
{
1070
    47
1040
3.0
1070
    48
1040
3.0
1002
}
1001
GENIUS_GENDTOL_13
1000
TolPm
1000

1000
{$3%%p$P}
1040
244.0
  0
DIMENSION
  5
5E4
330
1F
100
AcDbEntity
  8
AM_5
100
AcDbDimension
  2
*D4
 10
377.7671246726318
 20
534.5716401180874
 30
0.0
 11
374.5167801844427
 21
396.680432076334
 31
0.0
 70
    32
  1
275{}{\C2;%%p5}
 71
     5
 42
275.7824160835071
  3
AM_DIN
100
AcDbAlignedDimension
 13
547.3667174767914
 23
258.7892240345803
 33
0.0
 14
547.3667174767919
 24
534.5716401180874
 34
0.0
 50
90.0
100
AcDbRotatedDimension
1001
ACAD
1000
DSTYLE
1002
{
1070
    47
1040
5.0
1070
    48
1040
5.0
1070
   271
1070
     0
1002
}
1001
GENIUS_GENDTOL_13
1000
TolPm
1000

1000
{$3%%p$P}
1040
275.0
  0
DIMENSION
  5
5E5
330
1F
100
AcDbEntity
  8
AM_5
100
AcDbDimension
  2
*D5
 10
687.3667174747038
 20
426.1234693227519
 30
0.0
 11
510.3610903778171
 21
426.1234693227519
 31
0.0
 70
   160
  1
ø<>
 71
     5
 42
279.9999999958236
  3
AM_DIN
100
AcDbAlignedDimension
 13
407.3667174788802
 23
441.8343684439632
 33
0.0
 14
687.3667174747038
 24
441.8343684439632
 34
0.0
100
AcDbRotatedDimension
  0
LINE
  5
5E6
330
1F
100
AcDbEntity
  8
UMRISS05
100
AcDbLine
 10
542.4681147536424
 20
532.4175560028038
 30
0.0
 11
552.3266639000106
 21
532.4175560028038
 31
0.0
  0
LINE
  5
5E7
330
1F
100
AcDbEntity
  8
UMRISS05
100
AcDbLine
 10
542.4681147536424
 20
523.5887447641463
 30
0.0
 11
542.4681147536424
 21
532.4175560028038
 31
0.0
  0
LINE
  5
5E8
330
1F
100
AcDbEntity
  8
UMRISS05
100
AcDbLine
 10
542.4681147536424
 20
523.5887447641463
 30
0.0
 11
543.4839879117657
 21
523.5887447641458
 31
0.0
  0
ARC
  5
5E9
330
1F
100
AcDbEntity
  8
UMRISS05
100
AcDbCircle
 10
547.3201549964336
 20
532.4023940746448
 30
0.0
 40
1.539277951260048
100
AcDbArc
 50
0.5643740561916709
 51
179.4356259438083
  0
LINE
  5
5EA
330
1F
100
AcDbEntity
  8
UMRISS05
100
AcDbLine
 10
552.3266639000106
 20
532.4175560028038
 30
0.0
 11
552.3266639000106
 21
523.5887447641458
 31
0.0
  0
LINE
  5
5EB
330
1F
100
AcDbEntity
  8
UMRISS05
100
AcDbLine
 10
551.1839879358281
 20
523.5887447641458
 30
0.0
 11
552.3266639000106
 21
523.5887447641458
 31
0.0
  0
LINE
  5
5EC
330
1F
100
AcDbEntity
  8
AM_6
100
AcDbLine
 10
547.3667174767923
 20
376.2303503603798
 30
0.0
 11
409.3667174788803
 21
376.2303503603796
 31
0.0
  0
LINE
  5
5ED
330
1F
100
AcDbEntity
  8
AM_6
100
AcDbLine
 10
547.3667174767923
 20
384.8906043982244
 30
0.0
 11
409.3667174788803
 21
384.890604398224
 31
0.0
  0
LINE
  5
5EE
330
1F
100
AcDbEntity
  8
AM_0
100
AcDbLine
 10
547.3667174767922
 20
405.560477379302
 30
0.0
 11
407.3667174788804
 21
405.5604773793016
 31
0.0
  0
LINE
  5
5EF
330
1F
100
AcDbEntity
  8
AM_4
100
AcDbLine
 10
408.4842742302958
 20
407.5925281868634
 30
0.0
 11
547.3667174767922
 21
407.5925281868639
 31
0.0
  0
LINE
  5
5F0
330
1F
100
AcDbEntity
  8
0
100
AcDbLine
 10
534.9096199616045
 20
260.0656789310664
 30
0.0
 11
559.8238149919798
 21
260.0656789310664
 31
0.0
  0
LINE
  5
5F1
330
1F
100
AcDbEntity
  8
0
100
AcDbLine
 10
533.462863697453
 20
275.6606804271854
 30
0.0
 11
561.2705712561314
 21
275.6606804271854
 31
0.0
  0
LWPOLYLINE
  5
5F2
330
1F
100
AcDbEntity
  8
0
100
AcDbPolyline
 90
        4
 70
     1
 43
0.0
 10
335.8260678384042
 20
235.0377193418392
 10
820.5262488384043
 20
235.0377193418392
 10
820.5262488384043
 20
589.6070943418391
 10
335.8260678384042
 20
589.6070943418391
1001
GENIUS_GENREC_14
1002
{
1000
PYDIR
1011
335.8260678384042
1021
589.6070943418391
1031
0.0
1002
}
1002
{
1000
PXDIR
1011
820.5262488384043
1021
235.0377193418392
1031
0.0
1002
}
1002
{
1000
PORI
1011
335.8260678384042
1021
235.0377193418392
1031
0.0
1002
}
1002
{
1000
PINS
1011
335.8260678384042
1021
235.0377193418392
1031
0.0
1002
}
1002
{
1000
PINS2
1011
820.5262488384043
1021
589.6070943418391
1031
0.0
1002
}
1002
{
1000
C
1070
     1
1002
}
1001
GENIUS_GENODEF_13
1002
{
1000
HIER
1070
     0
1002
}
1002
{
1000
MANEDIT
1070
     0
1002
}
1002
{
1000
NOSEL
1070
     0
1002
}
1002
{
1000
BEHIND
1070
     0
1002
}
1002
{
1000
OTHER
1070
     0
1002
}
1002
{
1000
REACTOR
1002
}
1001
GENIUS_GENOBJ-N-REC_13
1002
{
1000
OWNER
1000
GEN
1002
}
  0
TEXT
  5
5F3
330
1F
100
AcDbEntity
  8
6
100
AcDbText
 10
735.8005648384043
 20
262.3241583418391
 30
0.0
 40
3.6
  1
Reflex Winkelmann GmbH
 41
0.95
 72
     1
 11
761.1085648384044
 21
262.3241583418391
 31
0.0
100
AcDbText
  0
TEXT
  5
5F4
330
1F
100
AcDbEntity
  8
0
100
AcDbText
 10
676.2842338384046
 20
264.7736633418392
 30
0.0
 40
5.0
  1
reflex NG
100
AcDbText
  0
TEXT
  5
5F5
330
1F
100
AcDbEntity
  8
0
100
AcDbText
 10
651.6446038384052
 20
274.2736633418392
 30
0.0
 40
5.0
  1
Druckausdehnungsgefäß
100
AcDbText
  0
TEXT
  5
5F6
330
1F
100
AcDbEntity
  8
DN50-0
100
AcDbText
 10
671.9605168384044
 20
254.8069773418393
 30
0.0
 40
5.0
  1
12 l  - 6 bar
100
AcDbText
  0
POLYLINE
  5
5F7
330
1F
100
AcDbEntity
  8
4
100
AcDb2dPolyline
 66
     1
 10
0.0
 20
0.0
 30
0.0
  0
VERTEX
  5
5F8
330
5F7
100
AcDbEntity
  8
4
100
AcDbVertex
100
AcDb2dVertex
 10
761.3060248384043
 20
276.9430443418394
 30
0.0
  0
VERTEX
  5
5F9
330
5F7
100
AcDbEntity
  8
4
100
AcDbVertex
100
AcDb2dVertex
 10
761.3060248384043
 20
269.9563213418392
 30
0.0
  0
VERTEX
  5
5FA
330
5F7
100
AcDbEntity
  8
4
100
AcDbVertex
100
AcDb2dVertex
 10
762.9373368384054
 20
269.9563213418392
 30
0.0
  0
VERTEX
  5
5FB
330
5F7
100
AcDbEntity
  8
4
100
AcDbVertex
100
AcDb2dVertex
 10
762.9373368384054
 20
276.9430443418394
 30
0.0
  0
VERTEX
  5
5FC
330
5F7
100
AcDbEntity
  8
4
100
AcDbVertex
100
AcDb2dVertex
 10
761.3060248384043
 20
276.9430443418394
 30
0.0
  0
VERTEX
  5
5FD
330
5F7
100
AcDbEntity
  8
4
100
AcDbVertex
100
AcDb2dVertex
 10
761.3060248384043
 20
276.9430443418394
 30
0.0
  0
SEQEND
  5
5FE
330
5F7
100
AcDbEntity
  8
4
  0
TEXT
  5
5FF
330
1F
100
AcDbEntity
  8
6
100
AcDbText
 10
746.5157144074407
 20
257.2734853418391
 30
0.0
 40
3.6
  1
 59227 Ahlen
 72
     1
 11
761.1672428384041
 21
257.2734853418391
 31
0.0
100
AcDbText
  0
POLYLINE
  5
600
330
1F
100
AcDbEntity
  8
4
100
AcDb2dPolyline
 66
     1
 10
0.0
 20
0.0
 30
0.0
  0
VERTEX
  5
601
330
600
100
AcDbEntity
  8
4
100
AcDbVertex
100
AcDb2dVertex
 10
748.7809468384044
 20
267.7870833418392
 30
0.0
  0
VERTEX
  5
602
330
600
100
AcDbEntity
  8
4
100
AcDbVertex
100
AcDb2dVertex
 10
775.0210928384055
 20
267.7870833418392
 30
0.0
  0
VERTEX
  5
603
330
600
100
AcDbEntity
  8
4
100
AcDbVertex
100
AcDb2dVertex
 10
775.0210928384055
 20
268.0320203418394
 30
0.0
  0
VERTEX
  5
604
330
600
100
AcDbEntity
  8
4
100
AcDbVertex
100
AcDb2dVertex
 10
748.7809468384044
 20
268.0320203418394
 30
0.0
  0
VERTEX
  5
605
330
600
100
AcDbEntity
  8
4
100
AcDbVertex
100
AcDb2dVertex
 10
748.7809468384044
 20
267.7870833418392
 30
0.0
  0
VERTEX
  5
606
330
600
100
AcDbEntity
  8
4
100
AcDbVertex
100
AcDb2dVertex
 10
748.7809468384044
 20
267.7870833418392
 30
0.0
  0
SEQEND
  5
607
330
600
100
AcDbEntity
  8
4
  0
POLYLINE
  5
608
330
1F
100
AcDbEntity
  8
4
100
AcDb2dPolyline
 66
     1
 10
0.0
 20
0.0
 30
0.0
  0
VERTEX
  5
609
330
608
100
AcDbEntity
  8
4
100
AcDbVertex
100
AcDb2dVertex
 10
775.0210928384055
 20
278.5323383418393
 30
0.0
  0
VERTEX
  5
60A
330
608
100
AcDbEntity
  8
4
100
AcDbVertex
100
AcDb2dVertex
 10
748.7809468384044
 20
278.5323383418393
 30
0.0
  0
VERTEX
  5
60B
330
608
100
AcDbEntity
  8
4
100
AcDbVertex
100
AcDb2dVertex
 10
748.7809468384044
 20
278.2874023418392
 30
0.0
  0
VERTEX
  5
60C
330
608
100
AcDbEntity
  8
4
100
AcDbVertex
100
AcDb2dVertex
 10
775.0210928384055
 20
278.2874023418392
 30
0.0
  0
VERTEX
  5
60D
330
608
100
AcDbEntity
  8
4
100
AcDbVertex
100
AcDb2dVertex
 10
775.0210928384055
 20
278.5323383418393
 30
0.0
  0
VERTEX
  5
60E
330
608
100
AcDbEntity
  8
4
100
AcDbVertex
100
AcDb2dVertex
 10
775.0210928384055
 20
278.5323383418393
 30
0.0
  0
SEQEND
  5
60F
330
608
100
AcDbEntity
  8
4
  0
POLYLINE
  5
610
330
1F
100
AcDbEntity
  8
4
100
AcDb2dPolyline
 66
     1
 10
0.0
 20
0.0
 30
0.0
  0
VERTEX
  5
611
330
610
100
AcDbEntity
  8
4
100
AcDbVertex
100
AcDb2dVertex
 10
748.7809468384044
 20
278.4098703418393
 30
0.0
  0
VERTEX
  5
612
330
610
100
AcDbEntity
  8
4
100
AcDbVertex
100
AcDb2dVertex
 10
775.0210928384055
 20
278.4098703418393
 30
0.0
  0
VERTEX
  5
613
330
610
100
AcDbEntity
  8
4
100
AcDbVertex
100
AcDb2dVertex
 10
775.2181068384045
 20
278.3850213418392
 30
0.0
  0
VERTEX
  5
614
330
610
100
AcDbEntity
  8
4
100
AcDbVertex
100
AcDb2dVertex
 10
775.4044708384042
 20
278.3353243418392
 30
0.0
  0
VERTEX
  5
615
330
610
100
AcDbEntity
  8
4
100
AcDbVertex
100
AcDb2dVertex
 10
775.5659868384043
 20
278.2359303418392
 30
0.0
  0
VERTEX
  5
616
330
610
100
AcDbEntity
  8
4
100
AcDbVertex
100
AcDb2dVertex
 10
775.7150788384044
 20
278.1241113418392
 30
0.0
  0
VERTEX
  5
617
330
610
100
AcDbEntity
  8
4
100
AcDbVertex
100
AcDb2dVertex
 10
775.8393218384054
 20
277.9750193418394
 30
0.0
  0
VERTEX
  5
618
330
610
100
AcDbEntity
  8
4
100
AcDbVertex
100
AcDb2dVertex
 10
775.9262928384043
 20
277.8135033418394
 30
0.0
  0
VERTEX
  5
619
330
610
100
AcDbEntity
  8
4
100
AcDbVertex
100
AcDb2dVertex
 10
775.9884138384043
 20
277.6271383418392
 30
0.0
  0
VERTEX
  5
61A
330
610
100
AcDbEntity
  8
4
100
AcDbVertex
100
AcDb2dVertex
 10
776.0008378384043
 20
277.4301243418394
 30
0.0
  0
VERTEX
  5
61B
330
610
100
AcDbEntity
  8
4
100
AcDbVertex
100
AcDb2dVertex
 10
776.0008378384043
 20
268.8768733418392
 30
0.0
  0
VERTEX
  5
61C
330
610
100
AcDbEntity
  8
4
100
AcDbVertex
100
AcDb2dVertex
 10
775.9884138384043
 20
268.6798593418391
 30
0.0
  0
VERTEX
  5
61D
330
610
100
AcDbEntity
  8
4
100
AcDbVertex
100
AcDb2dVertex
 10
775.9262928384043
 20
268.5059193418392
 30
0.0
  0
VERTEX
  5
61E
330
610
100
AcDbEntity
  8
4
100
AcDbVertex
100
AcDb2dVertex
 10
775.8393218384054
 20
268.3319783418392
 30
0.0
  0
VERTEX
  5
61F
330
610
100
AcDbEntity
  8
4
100
AcDbVertex
100
AcDb2dVertex
 10
775.7150788384044
 20
268.1953113418393
 30
0.0
  0
VERTEX
  5
620
330
610
100
AcDbEntity
  8
4
100
AcDbVertex
100
AcDb2dVertex
 10
775.5659868384043
 20
268.0710683418391
 30
0.0
  0
VERTEX
  5
621
330
610
100
AcDbEntity
  8
4
100
AcDbVertex
100
AcDb2dVertex
 10
775.4044708384042
 20
267.9840983418393
 30
0.0
  0
VERTEX
  5
622
330
610
100
AcDbEntity
  8
4
100
AcDbVertex
100
AcDb2dVertex
 10
775.2181068384045
 20
267.9219763418391
 30
0.0
  0
VERTEX
  5
623
330
610
100
AcDbEntity
  8
4
100
AcDbVertex
100
AcDb2dVertex
 10
775.0210928384055
 20
267.9095523418392
 30
0.0
  0
VERTEX
  5
624
330
610
100
AcDbEntity
  8
4
100
AcDbVertex
100
AcDb2dVertex
 10
748.7809468384044
 20
267.9095523418392
 30
0.0
  0
VERTEX
  5
625
330
610
100
AcDbEntity
  8
4
100
AcDbVertex
100
AcDb2dVertex
 10
748.5839318384051
 20
267.9219763418391
 30
0.0
  0
VERTEX
  5
626
330
610
100
AcDbEntity
  8
4
100
AcDbVertex
100
AcDb2dVertex
 10
748.4099918384043
 20
267.9840983418393
 30
0.0
  0
VERTEX
  5
627
330
610
100
AcDbEntity
  8
4
100
AcDbVertex
100
AcDb2dVertex
 10
748.2360518384044
 20
268.0710683418391
 30
0.0
  0
VERTEX
  5
628
330
610
100
AcDbEntity
  8
4
100
AcDbVertex
100
AcDb2dVertex
 10
748.0993838384043
 20
268.1953113418393
 30
0.0
  0
VERTEX
  5
629
330
610
100
AcDbEntity
  8
4
100
AcDbVertex
100
AcDb2dVertex
 10
747.9751408384043
 20
268.3319783418392
 30
0.0
  0
VERTEX
  5
62A
330
610
100
AcDbEntity
  8
4
100
AcDbVertex
100
AcDb2dVertex
 10
747.8881708384044
 20
268.5059193418392
 30
0.0
  0
VERTEX
  5
62B
330
610
100
AcDbEntity
  8
4
100
AcDbVertex
100
AcDb2dVertex
 10
747.8260488384046
 20
268.6798593418391
 30
0.0
  0
VERTEX
  5
62C
330
610
100
AcDbEntity
  8
4
100
AcDbVertex
100
AcDb2dVertex
 10
747.8012008384046
 20
268.8768733418392
 30
0.0
  0
VERTEX
  5
62D
330
610
100
AcDbEntity
  8
4
100
AcDbVertex
100
AcDb2dVertex
 10
747.8012008384046
 20
277.4301243418394
 30
0.0
  0
VERTEX
  5
62E
330
610
100
AcDbEntity
  8
4
100
AcDbVertex
100
AcDb2dVertex
 10
747.8260488384046
 20
277.6271383418392
 30
0.0
  0
VERTEX
  5
62F
330
610
100
AcDbEntity
  8
4
100
AcDbVertex
100
AcDb2dVertex
 10
747.8881708384044
 20
277.8135033418394
 30
0.0
  0
VERTEX
  5
630
330
610
100
AcDbEntity
  8
4
100
AcDbVertex
100
AcDb2dVertex
 10
747.9751408384043
 20
277.9750193418394
 30
0.0
  0
VERTEX
  5
631
330
610
100
AcDbEntity
  8
4
100
AcDbVertex
100
AcDb2dVertex
 10
748.0993838384043
 20
278.1241113418392
 30
0.0
  0
VERTEX
  5
632
330
610
100
AcDbEntity
  8
4
100
AcDbVertex
100
AcDb2dVertex
 10
748.2360518384044
 20
278.2359303418392
 30
0.0
  0
VERTEX
  5
633
330
610
100
AcDbEntity
  8
4
100
AcDbVertex
100
AcDb2dVertex
 10
748.4099918384043
 20
278.3353243418392
 30
0.0
  0
VERTEX
  5
634
330
610
100
AcDbEntity
  8
4
100
AcDbVertex
100
AcDb2dVertex
 10
748.5839318384051
 20
278.3850213418392
 30
0.0
  0
VERTEX
  5
635
330
610
100
AcDbEntity
  8
4
100
AcDbVertex
100
AcDb2dVertex
 10
748.7809468384044
 20
278.4098703418393
 30
0.0
  0
VERTEX
  5
636
330
610
100
AcDbEntity
  8
4
100
AcDbVertex
100
AcDb2dVertex
 10
748.7809468384044
 20
278.4098703418393
 30
0.0
  0
SEQEND
  5
637
330
610
100
AcDbEntity
  8
4
  0
HATCH
  5
638
330
1F
100
AcDbEntity
  8
4
100
AcDbHatch
 10
0.0
 20
0.0
 30
0.0
210
0.0
220
0.0
230
1.0
  2
SOLID
 70
     1
 71
     0
 91
       13
 92
        7
 72
     0
 73
     1
 93
        4
 10
747.9236688761682
 20
277.4301245060565
 10
747.8012006617034
 20
277.4301245060565
 10
747.8012006617034
 20
268.8768734117405
 10
747.9236688761682
 20
268.8768734117405
 97
        0
 92
        7
 72
     0
 73
     1
 93
        4
 10
775.0210925028393
 20
268.0320202220967
 10
748.7809463774254
 20
268.0320202220967
 10
748.7809463774254
 20
267.9095520076312
 10
775.0210925028393
 20
267.9095520076312
 97
        0
 92
        7
 72
     0
 73
     1
 93
        4
 10
775.0210925028393
 20
278.409870221778
 10
748.7809463774254
 20
278.409870221778
 10
748.7809463774254
 20
278.2874020073131
 10
775.0210925028393
 20
278.2874020073131
 97
        0
 92
        7
 72
     0
 73
     1
 93
        4
 10
776.1233064330265
 20
277.4301245060565
 10
776.0008382185604
 20
277.4301245060565
 10
776.0008382185604
 20
268.8768734117405
 10
776.1233064330265
 20
268.8768734117405
 97
        0
 92
        7
 72
     0
 73
     1
 93
       42
 10
748.4099919307116
 20
278.3353243521038
 10
748.5839322932854
 20
278.3850215985535
 10
748.7809463774254
 20
278.409870221778
 10
748.7809463774245
 20
278.5323384362433
 10
748.7259244259992
 20
278.5305635345844
 10
748.6709024745735
 20
278.5252388296077
 10
748.6158805231455
 20
278.518139222972
 10
748.5608585717193
 20
278.5092647146771
 10
748.5076115219523
 20
278.496840403065
 10
748.4561393738434
 20
278.4808662881351
 10
748.4046672257334
 20
278.4631172715454
 10
748.3549699792845
 20
278.4435933532979
 10
748.3070476344944
 20
278.4222945333903
 10
748.2591252897043
 20
278.3974459101664
 10
748.2129778465711
 20
278.3708223852822
 10
748.1686053051064
 20
278.3406490570803
 10
748.1260076652845
 20
278.3104757288793
 10
748.0834100254726
 20
278.2767525973589
 10
748.0425872873163
 20
278.2430294658404
 10
748.0053143524785
 20
278.2057565310024
 10
747.9680414176401
 20
278.1667086945055
 10
747.9343182861232
 20
278.1276608580117
 10
747.9005951546024
 20
278.0850632181977
 10
747.8704218264013
 20
278.042465578381
 10
747.8402484981995
 20
277.9980930369088
 10
747.8136249733154
 20
277.9519455937763
 10
747.7887763500914
 20
277.9040232489873
 10
747.7674775301855
 20
277.8561009041986
 10
747.7479536119365
 20
277.8064036577484
 10
747.7302045953472
 20
277.7549315096363
 10
747.7142304804162
 20
277.7034593615287
 10
747.7018061688043
 20
277.6502123117627
 10
747.6929316605094
 20
277.595190360335
 10
747.6858320538743
 20
277.5401684089078
 10
747.6805073488974
 20
277.4851464574835
 10
747.6787324472382
 20
277.4301245060565
 10
747.8012006617034
 20
277.4301245060565
 10
747.8260492849283
 20
277.627138590196
 10
747.8881708429891
 20
277.8135032643821
 10
747.9751410242786
 20
277.9750193153443
 10
748.099384140402
 20
278.1241110546927
 10
748.2360515681382
 20
278.2359298592047
 97
        0
 92
        7
 72
     0
 73
     1
 93
       42
 10
748.4508146688674
 20
278.2199557442743
 10
748.4898625053634
 20
278.2341549575455
 10
748.5289103418582
 20
278.2483541708169
 10
748.5697330800141
 20
278.2607784824293
 10
748.6105558181694
 20
278.2696529907232
 10
748.6531534579833
 20
278.2785274990185
 10
748.6957510977982
 20
278.2838522039954
 10
748.7383487376112
 20
278.2874020073131
 10
748.7809463774254
 20
278.2874020073131
 10
748.7809463774245
 20
278.4098702217783
 10
748.5839322932854
 20
278.3850215985535
 10
748.4099919307116
 20
278.3353243521035
 10
748.2360515681382
 20
278.2359298592044
 10
748.0993841404012
 20
278.1241110546921
 10
747.9751410242771
 20
277.9750193153438
 10
747.8881708429906
 20
277.8135032643827
 10
747.8260492849283
 20
277.627138590196
 10
747.8012006617034
 20
277.4301245060565
 10
747.9236688761682
 20
277.4301245060565
 10
747.9236688761682
 20
277.4727221458713
 10
747.9272186794876
 20
277.5153197856848
 10
747.9325433844635
 20
277.5579174254982
 10
747.9414178927552
 20
277.6005150653169
 10
747.9502924010524
 20
277.6413378034678
 10
747.9627167126675
 20
277.6803856399679
 10
747.9751410242771
 20
277.7212083781188
 10
747.9911151392094
 20
277.7602562146149
 10
748.0088641557983
 20
277.7975291494509
 10
748.0283880740446
 20
277.8348020842889
 10
748.0496868939515
 20
277.8703001174678
 10
748.0709857138584
 20
277.9057981506459
 10
748.0958343370864
 20
277.9395212821693
 10
748.1206829603086
 20
277.9714695120275
 10
748.1490813868506
 20
278.0034177418852
 10
748.1774798133934
 20
278.033591070088
 10
748.2076531415953
 20
278.0619894966299
 10
748.2396013714563
 20
278.0886130215142
 10
748.2715496013163
 20
278.1152365463984
 10
748.3052727328352
 20
278.1400851696228
 10
748.340770766014
 20
278.1613839895301
 10
748.3762687991923
 20
278.1826828094371
 10
748.4135417340304
 20
278.2022067276851
 97
        0
 92
        7
 72
     0
 73
     1
 93
        4
 10
775.0210925028393
 20
267.9095520076312
 10
748.7809463774254
 20
267.9095520076312
 10
748.7809463774254
 20
267.7870837931658
 10
775.0210925028393
 20
267.7870837931658
 97
        0
 92
       22
 72
     0
 73
     1
 93
       42
 10
775.8393221675994
 20
268.3319786024529
 10
775.9262923488866
 20
268.5059189650268
 10
775.9884139069484
 20
268.6798593276007
 10
776.0008382185604
 20
268.8768734117405
 10
775.8783700040956
 20
268.8768734117405
 10
775.8783700040956
 20
268.8342757719257
 10
775.8748202007775
 20
268.791678132111
 10
775.8694954958016
 20
268.7490804922977
 10
775.8623958891655
 20
268.7064828524843
 10
775.8517464792096
 20
268.66566011432
 10
775.8410970692582
 20
268.6266122778335
 10
775.8268978559875
 20
268.5875644413371
 10
775.8126986427162
 20
268.5485166048419
 10
775.7949496261264
 20
268.5112436700038
 10
775.7772006095372
 20
268.4739707351661
 10
775.7559017896312
 20
268.4402476036453
 10
775.7346029697234
 20
268.4047495704689
 10
775.7097543464993
 20
268.3728013406063
 10
775.6849057232732
 20
268.3390782090882
 10
775.6582821983904
 20
268.3089048808887
 10
775.6298837718466
 20
268.2805064543442
 10
775.5997104436476
 20
268.2521080278022
 10
775.5695371154445
 20
268.2254845029179
 10
775.5358139839252
 20
268.2006358796936
 10
775.5020908524045
 20
268.1757872564678
 10
775.4683677208833
 20
268.1544884365608
 10
775.4328696877085
 20
268.1331896166545
 10
775.3955967528716
 20
268.1154406000645
 10
775.3565489163745
 20
268.0976915834764
 10
775.3175010798784
 20
268.083492370205
 10
775.2784532433821
 20
268.0692931569335
 10
775.2376305052255
 20
268.0586437469797
 10
775.1950328654136
 20
268.0497692386856
 10
775.1524352255994
 20
268.0408947303909
 10
775.1098375857853
 20
268.0355700254143
 10
775.0654650443114
 20
268.0320202220967
 10
775.0210925028393
 20
268.0320202220967
 10
775.0210925028393
 20
267.9095520076312
 10
775.2181065869791
 20
267.9219763192434
 10
775.4044712611655
 20
267.9840978773059
 10
775.5659873121263
 20
268.0710680585926
 10
775.7150790514754
 20
268.1953111747172
 97
        0
 92
        7
 72
     0
 73
     1
 93
       42
 10
775.8712703974595
 20
268.1846617647633
 10
775.9049935289806
 20
268.2254845029186
 10
775.9351668571813
 20
268.2680821427314
 10
775.9635652837244
 20
268.3124546842052
 10
775.9901888086061
 20
268.3586021273345
 10
776.0150374318325
 20
268.4047495704697
 10
776.0363362517392
 20
268.4526719152584
 10
776.0558601699884
 20
268.5023691617088
 10
776.0736091865776
 20
268.553841309819
 10
776.0878083998475
 20
268.6053134579236
 10
776.1002327114604
 20
268.6585605076949
 10
776.1108821214145
 20
268.7118075574609
 10
776.1162068263904
 20
268.7668295088877
 10
776.1215315313664
 20
268.821851460315
 10
776.1233064330265
 20
268.8768734117405
 10
776.0008382185604
 20
268.8768734117405
 10
775.9884139069484
 20
268.6798593276009
 10
775.9262923488866
 20
268.5059189650265
 10
775.8393221675994
 20
268.3319786024532
 10
775.7150790514754
 20
268.1953111747162
 10
775.5659873121263
 20
268.0710680585923
 10
775.4044712611642
 20
267.9840978773053
 10
775.2181065869791
 20
267.9219763192434
 10
775.0210925028393
 20
267.9095520076312
 10
775.0210925028393
 20
267.7870837931658
 10
775.0761144542654
 20
267.788858694825
 10
775.1329113073503
 20
267.7941833998016
 10
775.1897081604363
 20
267.7995081047784
 10
775.2429552102046
 20
267.8101575147319
 10
775.2962022599706
 20
267.8208069246853
 10
775.3494493097393
 20
267.8367810396157
 10
775.4009214578402
 20
267.8545300562046
 10
775.4506187042964
 20
267.8722790727937
 10
775.5003159507444
 20
267.8953527943587
 10
775.5464633938793
 20
267.9184265159265
 10
775.5926108370091
 20
267.9450500408095
 10
775.6387582801424
 20
267.9734484673518
 10
775.6813559199541
 20
268.0036217955533
 10
775.7239535597692
 20
268.0355700254143
 10
775.7630013962664
 20
268.0710680585926
 10
775.802049232761
 20
268.1065660917712
 10
775.8375472659414
 20
268.1438390266085
 97
        0
 92
        7
 72
     0
 73
     1
 93
       42
 10
775.7150790514754
 20
278.1241110546927
 10
775.5659873121263
 20
278.235929859204
 10
775.4044712611642
 20
278.3353243521038
 10
775.2181065869791
 20
278.3850215985535
 10
775.0210925028393
 20
278.4098702217783
 10
775.0210925028393
 20
278.2874020073131
 10
775.0654650443114
 20
278.2874020073131
 10
775.1098375857853
 20
278.2838522039954
 10
775.1524352255994
 20
278.2767525973593
 10
775.1950328654136
 20
278.2696529907239
 10
775.2358556035686
 20
278.2607784824293
 10
775.2766783417235
 20
278.2483541708166
 10
775.3175010798784
 20
278.2341549575455
 10
775.3565489163736
 20
278.2199557442743
 10
775.3938218512114
 20
278.2022067276851
 10
775.4310947860483
 20
278.1826828094371
 10
775.4665928192273
 20
278.1613839895301
 10
775.5020908524064
 20
278.1400851696228
 10
775.5358139839232
 20
278.1152365463984
 10
775.5677622137851
 20
278.0903879231729
 10
775.5997104436453
 20
278.0619894966307
 10
775.6298837718484
 20
278.0335910700877
 10
775.6565072967303
 20
278.0034177418875
 10
775.6849057232732
 20
277.973244413685
 10
775.7097543464993
 20
277.9395212821658
 10
775.7328280680642
 20
277.9057981506459
 10
775.7559017896303
 20
277.8720750191264
 10
775.7754257078784
 20
277.8348020842893
 10
775.7949496261264
 20
277.7993040511102
 10
775.8126986427162
 20
277.7602562146141
 10
775.8268978559875
 20
277.7212083781188
 10
775.8410970692582
 20
277.6821605416214
 10
775.8517464792114
 20
277.6413378034678
 10
775.8623958891655
 20
277.6005150653123
 10
775.8694954958001
 20
277.5579174255012
 10
775.8748202007775
 20
277.5170946873454
 10
775.8783700040956
 20
277.4727221458708
 10
775.8783700040956
 20
277.4301245060565
 10
776.0008382185604
 20
277.4301245060565
 10
775.9884139069484
 20
277.6271385901966
 10
775.9262923488866
 20
277.8135032643821
 10
775.8393221675994
 20
277.9750193153438
 97
        0
 92
        7
 72
     0
 73
     1
 93
       42
 10
775.7647762979241
 20
278.2412545641819
 10
775.7239535597703
 20
278.2767525973589
 10
775.6831308216144
 20
278.3104757288793
 10
775.6387582801424
 20
278.3406490570807
 10
775.5943857386694
 20
278.3708223852822
 10
775.5482382955363
 20
278.397445910166
 10
775.500315950746
 20
278.4222945333903
 10
775.4523936059564
 20
278.4435933532974
 10
775.4009214578474
 20
278.4631172715456
 10
775.3494493097393
 20
278.4808662881347
 10
775.2979771616304
 20
278.496840403065
 10
775.2429552102031
 20
278.5092647146775
 10
775.1897081604354
 20
278.518139222972
 10
775.1329113073503
 20
278.5252388296077
 10
775.0778893559242
 20
278.5305635345844
 10
775.0210925028393
 20
278.5323384362433
 10
775.0210925028393
 20
278.409870221778
 10
775.2181065869791
 20
278.3850215985532
 10
775.4044712611642
 20
278.3353243521038
 10
775.5659873121263
 20
278.2359298592044
 10
775.7150790514754
 20
278.1241110546927
 10
775.8393221675994
 20
277.9750193153438
 10
775.9262923488866
 20
277.8135032643821
 10
775.9884139069484
 20
277.627138590196
 10
776.0008382185604
 20
277.4301245060565
 10
776.1233064330265
 20
277.4301245060565
 10
776.1215315313664
 20
277.4851464574824
 10
776.1162068263904
 20
277.5401684089094
 10
776.1108821214145
 20
277.5951903603356
 10
776.1002327114595
 20
277.6484374101079
 10
776.0878083998475
 20
277.7016844598715
 10
776.0736091865761
 20
277.7531566079793
 10
776.0558601699874
 20
277.8046287560867
 10
776.0363362517392
 20
277.8543260025368
 10
776.0150374318325
 20
277.9040232489873
 10
775.9901888086076
 20
277.9501706921189
 10
775.9653401853823
 20
277.9963181352506
 10
775.9351668571813
 20
278.0424655783826
 10
775.9049935289782
 20
278.0850632181957
 10
775.8730452991192
 20
278.1276608580102
 10
775.8375472659414
 20
278.1667086945069
 10
775.8020492327625
 20
278.2057565310025
 97
        0
 92
       23
 72
     0
 73
     1
 93
       42
 10
748.1774798133934
 20
268.2805064543445
 10
748.1473064851923
 20
268.310679782546
 10
748.1206829603104
 20
268.340853110747
 10
748.0958343370855
 20
268.3728013406085
 10
748.0709857138593
 20
268.4065244721273
 10
748.0479119922923
 20
268.4402476036477
 10
748.0266131723854
 20
268.4757456368253
 10
748.0088641557983
 20
268.5130185716605
 10
747.9911151392073
 20
268.5485166048403
 10
747.9751410242763
 20
268.5875644413392
 10
747.9609418110063
 20
268.6266122778328
 10
747.9502924010524
 20
268.6674350159896
 10
747.9414178927584
 20
268.7082577541435
 10
747.9325433844644
 20
268.7490804922977
 10
747.9272186794863
 20
268.7916781321119
 10
747.9236688761682
 20
268.8342757719271
 10
747.9236688761682
 20
268.8768734117405
 10
747.8012006617034
 20
268.8768734117405
 10
747.8260492849283
 20
268.6798593276001
 10
747.8881708429891
 20
268.5059189650276
 10
747.9751410242771
 20
268.3319786024532
 10
748.0993841404004
 20
268.1953111747169
 10
748.2360515681382
 20
268.0710680585926
 10
748.4099919307116
 20
267.9840978773059
 10
748.5839322932854
 20
267.9219763192434
 10
748.7809463774245
 20
267.9095520076312
 10
748.7809463774254
 20
268.0320202220967
 10
748.7383487376112
 20
268.0320202220967
 10
748.6939761961394
 20
268.0355700254143
 10
748.6513785563245
 20
268.0408947303909
 10
748.6105558181682
 20
268.0479943370266
 10
748.5697330800141
 20
268.05864374698
 10
748.5289103418582
 20
268.0692931569335
 10
748.4898625053634
 20
268.083492370205
 10
748.4508146688665
 20
268.0976915834764
 10
748.4117668323713
 20
268.1154406000653
 10
748.3762687991923
 20
268.1331896166549
 10
748.3389958643554
 20
268.1544884365615
 10
748.3052727328352
 20
268.1775621581277
 10
748.2697746996575
 20
268.2006358796936
 10
748.2378264697964
 20
268.2254845029179
 10
748.2058782399356
 20
268.2521080278018
 97
        0
 92
        7
 72
     0
 73
     1
 93
       42
 10
748.0993841404004
 20
268.1953111747172
 10
747.9751410242771
 20
268.3319786024532
 10
747.8881708429891
 20
268.5059189650276
 10
747.8260492849283
 20
268.6798593276004
 10
747.8012006617034
 20
268.8768734117405
 10
747.6787324472382
 20
268.8768734117405
 10
747.6805073488974
 20
268.8218514603146
 10
747.6858320538743
 20
268.7668295088864
 10
747.6929316605094
 20
268.7118075574609
 10
747.7018061688043
 20
268.6585605076933
 10
747.714230480417
 20
268.6053134579248
 10
747.7302045953472
 20
268.5538413098172
 10
747.7479536119365
 20
268.5023691617104
 10
747.7674775301846
 20
268.4526719152604
 10
747.7905512517516
 20
268.404749570466
 10
747.8153998749742
 20
268.3568272256788
 10
747.8420233998606
 20
268.3124546842029
 10
747.8704218264013
 20
268.2680821427314
 10
747.9005951546024
 20
268.2254845029186
 10
747.9343182861223
 20
268.1846617647641
 10
747.9698163192995
 20
268.1438390266084
 10
748.0053143524794
 20
268.1065660917712
 10
748.0443621889754
 20
268.0710680585936
 10
748.0851849271305
 20
268.0355700254136
 10
748.1260076652863
 20
268.0036217955541
 10
748.1686053050982
 20
267.9734484673526
 10
748.2147527482282
 20
267.9450500408101
 10
748.2591252897043
 20
267.9184265159262
 10
748.3070476344944
 20
267.8953527943599
 10
748.3567448809433
 20
267.8722790727941
 10
748.4064421273902
 20
267.8545300562062
 10
748.4579142755026
 20
267.8367810396153
 10
748.5093864236112
 20
267.8208069246853
 10
748.5626334733772
 20
267.8101575147319
 10
748.6158805231464
 20
267.7995081047784
 10
748.6709024745724
 20
267.7941833998016
 10
748.7259244259981
 20
267.788858694825
 10
748.7809463774254
 20
267.7870837931658
 10
748.7809463774245
 20
267.9095520076312
 10
748.5839322932854
 20
267.9219763192434
 10
748.4099919307116
 20
267.9840978773057
 10
748.2360515681382
 20
268.0710680585926
 97
        0
 75
     0
 76
     1
 47
0.02498
 98
       13
 10
747.8478668384043
 20
274.1999073418393
 10
753.3353238384044
 20
267.9378583418393
 10
759.6968928384056
 20
278.3260623418392
 10
776.0621438384044
 20
274.6367933418392
 10
748.0354718384043
 20
278.2306373418393
 10
748.2330368384042
 20
278.2024243418392
 10
765.6189138384054
 20
267.8482393418392
 10
775.6948198384045
 20
268.2996483418392
 10
775.8359398384043
 20
268.1585833418392
 10
775.6948198384045
 20
278.0895713418392
 10
775.7512678384044
 20
278.2306373418393
 10
748.1201418384054
 20
268.2432223418392
 10
748.0919188384043
 20
268.1021563418392
450
        0
451
        0
460
0.0
461
0.0
452
        0
462
0.0
453
        0
470

  0
HATCH
  5
639
330
1F
100
AcDbEntity
  8
4
100
AcDbHatch
 10
0.0
 20
0.0
 30
0.0
210
0.0
220
0.0
230
1.0
  2
SOLID
 70
     1
 71
     0
 91
        3
 92
        7
 72
     0
 73
     1
 93
        4
 10
775.0210925028393
 20
278.5323384362433
 10
748.7809463774254
 20
278.5323384362433
 10
748.7809463774254
 20
278.409870221778
 10
775.0210925028393
 20
278.409870221778
 97
        0
 92
        7
 72
     0
 73
     1
 93
        4
 10
747.8012006617034
 20
277.4301245060565
 10
747.6787324472382
 20
277.4301245060565
 10
747.6787324472382
 20
268.8768734117405
 10
747.8012006617034
 20
268.8768734117405
 97
        0
 92
        7
 72
     0
 73
     1
 93
       42
 10
748.0283880740431
 20
277.8348020842885
 10
748.0496868939515
 20
277.8703001174678
 10
748.0709857138584
 20
277.9057981506459
 10
748.0958343370864
 20
277.9395212821693
 10
748.1206829603086
 20
277.9714695120275
 10
748.1490813868506
 20
278.0034177418852
 10
748.1774798133934
 20
278.033591070088
 10
748.2076531415953
 20
278.0619894966299
 10
748.2396013714563
 20
278.0886130215142
 10
748.2715496013163
 20
278.1152365463984
 10
748.3052727328352
 20
278.1400851696228
 10
748.340770766014
 20
278.1613839895301
 10
748.3762687991923
 20
278.1826828094371
 10
748.4135417340304
 20
278.2022067276851
 10
748.4508146688665
 20
278.2199557442743
 10
748.4898625053634
 20
278.2341549575455
 10
748.5289103418582
 20
278.2483541708169
 10
748.5697330800141
 20
278.2607784824293
 10
748.6105558181694
 20
278.2696529907232
 10
748.6531534579833
 20
278.2785274990185
 10
748.6957510977982
 20
278.2838522039954
 10
748.7383487376112
 20
278.2874020073131
 10
748.7809463774254
 20
278.2874020073131
 10
748.7809463774245
 20
278.4098702217783
 10
748.5839322932854
 20
278.3850215985535
 10
748.4099919307116
 20
278.3353243521035
 10
748.2360515681382
 20
278.2359298592044
 10
748.0993841404012
 20
278.1241110546921
 10
747.9751410242771
 20
277.9750193153438
 10
747.8881708429906
 20
277.8135032643827
 10
747.8260492849283
 20
277.627138590196
 10
747.8012006617034
 20
277.4301245060565
 10
747.9236688761682
 20
277.4301245060565
 10
747.9236688761682
 20
277.4727221458713
 10
747.9272186794876
 20
277.5153197856848
 10
747.9325433844635
 20
277.5579174254982
 10
747.9414178927552
 20
277.6005150653169
 10
747.9502924010524
 20
277.6413378034678
 10
747.9627167126675
 20
277.6803856399679
 10
747.9751410242771
 20
277.7212083781188
 10
747.9911151392094
 20
277.7602562146149
 10
748.0088641557983
 20
277.7975291494509
 97
        0
 75
     0
 76
     1
 47
0.005631
 98
        3
 10
750.1352168384044
 20
278.4528973418392
 10
747.7237498384043
 20
277.2190033418392
 10
747.9273568384044
 20
277.7977873418393
450
        0
451
        0
460
0.0
461
0.0
452
        0
462
0.0
453
        0
470

  0
LWPOLYLINE
  5
63A
330
1F
100
AcDbEntity
  8
4
100
AcDbPolyline
 90
        9
 70
     0
 43
0.0
 10
747.9236688384046
 20
268.8768733418392
 10
747.9236688384046
 20
277.4301243418394
 42
-0.4142140000000003
 10
748.7809468384044
 20
278.2874023418392
 10
775.0210928384055
 20
278.2874023418392
 42
-0.4142140000000003
 10
775.8783698384043
 20
277.4301243418394
 10
775.8783698384043
 20
268.8768733418392
 42
-0.387993
 10
775.1098378384043
 20
268.0355703418392
 10
748.7809468384044
 20
268.0320203418394
 42
-0.3805719999999999
 10
747.9272188384045
 20
268.7916783418392
 42
-0.058238
  0
LWPOLYLINE
  5
63B
330
1F
100
AcDbEntity
  8
4
100
AcDbPolyline
 90
        9
 70
     0
 43
0.0
 10
747.6787328384054
 20
268.8768733418392
 10
747.6787328384054
 20
277.4301243418394
 42
-0.4142140000000003
 10
748.7809468384044
 20
278.5323383418393
 10
775.0210928384055
 20
278.5323383418393
 42
-0.4142140000000003
 10
776.1233068384042
 20
277.4301243418394
 10
776.1233068384042
 20
268.8768733418392
 42
-0.391099
 10
775.1202218384044
 20
267.7906353418391
 10
748.7809798384042
 20
267.7870833418392
 42
-0.3805719999999999
 10
747.6839378384044
 20
268.7632453418394
 42
-0.3805719999999999
  0
LWPOLYLINE
  5
63C
330
1F
100
AcDbEntity
  8
4
100
AcDbPolyline
 90
        9
 70
     1
 43
0.451772
 10
747.9046188384042
 20
268.8768733418392
 10
747.9046188384042
 20
277.4301243418394
 42
-0.4142140000000003
 10
748.7809468384044
 20
278.3064523418392
 10
775.0210928384055
 20
278.3064523418392
 42
-0.4142140000000003
 10
775.8974208384045
 20
277.4301243418394
 10
775.8974208384045
 20
268.8768733418392
 42
-0.388281
 10
775.1106948384056
 20
268.0165193418392
 10
748.7809488384043
 20
268.0129703418393
 42
-0.3805719999999999
 10
747.9082968384043
 20
268.7894663418394
 42
-0.037159
  0
HATCH
  5
63D
330
1F
100
AcDbEntity
  8
4
100
AcDbHatch
 10
0.0
 20
0.0
 30
0.0
210
0.0
220
0.0
230
1.0
  2
SOLID
 70
     1
 71
     0
 91
        8
 92
        7
 72
     0
 73
     1
 93
       23
 10
752.3834169011345
 20
273.1520317066702
 10
752.4157201113273
 20
273.3296993627274
 10
752.4803265317125
 20
273.4589122034965
 10
752.5772361622872
 20
273.5558218340728
 10
752.6741457928652
 20
273.636579859554
 10
752.8679650540182
 20
273.6850346748423
 10
752.9648746845962
 20
273.7011862799384
 10
753.1425423406542
 20
273.7011862799387
 10
753.1425423406542
 20
275.0394621307611
 10
752.5610845571916
 20
275.0394621307611
 10
752.2380524552702
 20
275.0233105256654
 10
751.9634751686363
 20
274.9910073154729
 10
751.7373526972885
 20
274.9102492899926
 10
751.5273818310404
 20
274.8294912645115
 10
751.3681731522336
 20
274.7164300288397
 10
751.2228087063706
 20
274.6033687931663
 10
751.1097474706972
 20
274.4741559523968
 10
751.0128378401193
 20
274.3449431116275
 10
750.8997766044473
 20
274.0726731971495
 10
750.8351701840622
 20
273.8465507258044
 10
750.8190185789674
 20
273.6365798595549
 10
750.8190185789674
 20
269.9401696646958
 10
752.3834169011354
 20
269.9401696646958
 97
        0
 92
        7
 72
     0
 73
     1
 93
       54
 10
758.1287735710454
 20
273.4104573882082
 10
757.9834091251812
 20
273.7334894901309
 10
757.7734382589311
 20
274.056521592054
 10
757.5311641824894
 20
274.3287915065311
 10
757.2242836856633
 20
274.5872171880695
 10
756.8850999786434
 20
274.7971880543192
 10
756.5136130614335
 20
274.9587041052806
 10
756.1121303061852
 20
275.0717653409536
 10
755.6921885736852
 20
275.1040685511459
 10
755.3853080768606
 20
275.0879169460495
 10
755.1107307902245
 20
275.0394621307616
 10
754.8523051086873
 20
274.9748557103768
 10
754.6100310322465
 20
274.8779460797997
 10
754.3839085609004
 20
274.7648848441265
 10
754.190089299746
 20
274.6356720033583
 10
754.0124216436886
 20
274.4741559523965
 10
753.8347539876315
 20
274.312639901436
 10
753.6916969139221
 20
274.1372796175351
 10
753.5786356782502
 20
273.9434603563806
 10
753.4655744425765
 20
273.7334894901301
 10
753.3848164170956
 20
273.523518623882
 10
753.2717551814223
 20
273.0874252862855
 10
753.2233003661342
 20
272.6351803435944
 10
753.2394519712304
 20
272.2959966365759
 10
753.2879067865185
 20
271.9914235119045
 10
753.3686648119994
 20
271.7006946201749
 10
753.4817260476723
 20
271.4261173335394
 10
753.6109388884422
 20
271.1838432570977
 10
753.7563033343063
 20
270.9577207857529
 10
753.9316636182062
 20
270.7477499195031
 10
754.1254828793604
 20
270.5539306583487
 10
754.3516053507062
 20
270.3924146073877
 10
754.5777278220514
 20
270.2632017666192
 10
754.8200018984955
 20
270.1339889258492
 10
755.0622759749374
 20
270.0370792952723
 10
755.3368532615734
 20
269.9724728748872
 10
755.5952789431096
 20
269.9078664545031
 10
755.8698562297434
 20
269.8755632443113
 10
756.1421261442235
 20
269.8755632443113
 10
756.5136130614335
 20
269.8917148494077
 10
756.8527967684515
 20
269.9401696646958
 10
757.1435256601822
 20
270.0047760850803
 10
757.4019513417213
 20
270.0855341105611
 10
757.7572866538346
 20
270.2470501615223
 10
757.8703478895074
 20
270.3116565819069
 10
757.8703478895074
 20
271.8945138813281
 10
757.5150125773923
 20
271.6522398048861
 10
757.1596772652784
 20
271.4584205437325
 10
756.7558871378735
 20
271.3130560978668
 10
756.5620678767214
 20
271.2646012825788
 10
756.3682486155681
 20
271.2484496774826
 10
756.0475238858014
 20
271.2484496774826
 10
755.8214014144553
 20
271.2969044927709
 10
755.724491783878
 20
271.3130560978672
 97
        0
 92
       22
 72
     0
 73
     1
 93
       15
 10
754.7553954781102
 20
272.2475418212863
 10
754.7069406628223
 20
272.3606030569595
 10
754.6746374526311
 20
272.489815897725
 10
754.6423342424375
 20
272.65133194869
 10
754.6584858475346
 20
272.8451512098435
 10
754.7069406628223
 20
273.0551220760933
 10
754.8200018984955
 20
273.2812445474393
 10
755.0138211596483
 20
273.5073670187849
 10
755.2399436309944
 20
273.6688830697461
 10
755.4822177074363
 20
273.7496410952268
 10
755.7083401787823
 20
273.7657927003232
 10
755.9021594399362
 20
273.7334894901309
 10
756.0798270959933
 20
273.6850346748426
 10
756.2067325646064
 20
273.620428254458
 10
756.3197938002793
 20
273.5558218340736
 97
        0
 92
        7
 72
     0
 73
     1
 93
       27
 10
760.0323556002332
 20
273.4104573882082
 10
760.7268746193674
 20
273.4104573882082
 10
760.7268746193674
 20
274.6195203982619
 10
760.0323556002332
 20
274.6195203982619
 10
760.0323556002332
 20
275.1525233664338
 10
760.0646588104251
 20
275.3301910224915
 10
760.1292652308103
 20
275.4594038632609
 10
760.2261748613885
 20
275.5563134938376
 10
760.3230844919642
 20
275.6370715193183
 10
760.5330553582132
 20
275.6855263346066
 10
760.6138133836946
 20
275.7016779397029
 10
760.7891736675952
 20
275.7016779397029
 10
760.7891736675952
 20
276.9430441599485
 10
760.2100232562913
 20
276.9430441599487
 10
759.9031427594643
 20
276.9268925548526
 10
759.6285654728306
 20
276.8784377395639
 10
759.3862913963906
 20
276.7976797140842
 10
759.1763205301383
 20
276.716921688603
 10
759.0148044791765
 20
276.60386045293
 10
758.8694400333122
 20
276.4931065894141
 10
758.7563787976383
 20
276.3638937486444
 10
758.6756207721585
 20
276.2346809078762
 10
758.5464079313894
 20
275.9762552263377
 10
758.4818015110043
 20
275.7339811498949
 10
758.4656499059085
 20
275.5240102836439
 10
758.4656499059085
 20
269.956321269792
 10
760.0323556002332
 20
269.956321269792
 97
        0
 92
        7
 72
     0
 73
     1
 93
        4
 10
762.9373371453814
 20
276.9430441599485
 10
761.3060250306723
 20
276.9430441599487
 10
761.3060250306723
 20
269.956321269792
 10
762.9373371453814
 20
269.956321269792
 97
        0
 92
        7
 72
     0
 73
     1
 93
       54
 10
768.2765963157322
 20
273.4104573882082
 10
768.1312318698676
 20
273.7334894901309
 10
767.9212610036172
 20
274.0565215920536
 10
767.6789869271754
 20
274.3287915065311
 10
767.3744138025043
 20
274.5872171880699
 10
767.0352300954862
 20
274.7971880543192
 10
766.6637431782753
 20
274.9587041052806
 10
766.2599530508725
 20
275.0717653409536
 10
765.8400113183723
 20
275.1040685511458
 10
765.5331308215465
 20
275.08791694605
 10
765.2608609070673
 20
275.0394621307616
 10
765.0024352255302
 20
274.9748557103766
 10
764.7601611490873
 20
274.8779460797997
 10
764.5340386777412
 20
274.7648848441265
 10
764.3402194165876
 20
274.6356720033575
 10
764.1625517605305
 20
274.4741559523965
 10
763.9848841044734
 20
274.3126399014353
 10
763.8556712637051
 20
274.1372796175347
 10
763.7264584229361
 20
273.943460356381
 10
763.6133971872616
 20
273.7334894901312
 10
763.5326391617825
 20
273.5235186238816
 10
763.4195779261083
 20
273.087425286286
 10
763.3711231108202
 20
272.6351803435936
 10
763.3872747159164
 20
272.2959966365752
 10
763.4357295312045
 20
271.9914235119052
 10
763.5164875566854
 20
271.7006946201749
 10
763.6295487923582
 20
271.42611733354
 10
763.7587616331295
 20
271.1838432570959
 10
763.9041260789934
 20
270.9577207857521
 10
764.0817937350504
 20
270.7477499195027
 10
764.2917646013004
 20
270.553930658349
 10
764.5017354675502
 20
270.3924146073873
 10
764.7278579388954
 20
270.2632017666185
 10
764.9701320153383
 20
270.1339889258492
 10
765.2124060917791
 20
270.0370792952723
 10
765.4846760062594
 20
269.9724728748872
 10
765.7431016877956
 20
269.9078664545036
 10
766.0176789744301
 20
269.8755632443113
 10
766.2922562610636
 20
269.8755632443113
 10
766.6637431782753
 20
269.8917148494072
 10
767.0029268852943
 20
269.9401696646958
 10
767.3098073821204
 20
270.00477608508
 10
767.5520814585636
 20
270.085534110561
 10
767.9051093985206
 20
270.2470501615223
 10
768.0181706341943
 20
270.3116565819069
 10
768.0181706341943
 20
271.8945138813278
 10
767.6628353220792
 20
271.6522398048863
 10
767.3098073821204
 20
271.4584205437323
 10
766.9060172547172
 20
271.3130560978672
 10
766.7121979935634
 20
271.2646012825788
 10
766.5183787324106
 20
271.2484496774826
 10
766.1953466304874
 20
271.2484496774826
 10
765.9692241591413
 20
271.2969044927711
 10
765.8723145285646
 20
271.3130560978672
 97
        0
 92
       22
 72
     0
 73
     1
 93
       15
 10
764.7924643592801
 20
272.65133194869
 10
764.8086159643765
 20
272.8451512098434
 10
764.8570707796655
 20
273.0551220760932
 10
764.9701320153374
 20
273.2812445474385
 10
765.1639512764916
 20
273.5073670187848
 10
765.3877663756814
 20
273.6688830697462
 10
765.6300404521232
 20
273.7496410952271
 10
765.8561629234693
 20
273.7657927003232
 10
766.0499821846221
 20
273.7334894901309
 10
766.2276498406793
 20
273.6850346748426
 10
766.3568626814492
 20
273.6204282544575
 10
766.4699239171225
 20
273.5558218340736
 10
764.9055255949522
 20
272.2475418212865
 10
764.8570707796655
 20
272.3606030569587
 10
764.8247675694736
 20
272.4898158977253
 97
        0
 92
        7
 72
     0
 73
     1
 93
       66
 10
772.4229440811265
 20
272.4898158977284
 10
772.2937312403562
 20
272.5705739232095
 10
772.1829773768416
 20
272.6351803435936
 10
772.4067924760295
 20
272.780544789459
 10
772.5683085269912
 20
272.9743640506115
 10
772.6975213677603
 20
273.1843349168627
 10
772.7782793932413
 20
273.3943057831122
 10
772.8428858136254
 20
273.7496410952268
 10
772.8428858136254
 20
273.9111571461883
 10
772.8428858136254
 20
274.9910073154729
 10
771.3269423067452
 20
274.9910073154729
 10
771.3269423067452
 20
274.0726731971504
 10
771.3107907016493
 20
273.9596119614773
 10
771.2461842812643
 20
273.7334894901317
 10
771.1815778608804
 20
273.620428254458
 10
771.0685166252076
 20
273.5073670187848
 10
770.9070005742453
 20
273.4266089933042
 10
770.7131813130923
 20
273.4104573882082
 10
770.5193620519382
 20
273.4266089933045
 10
770.3578460009772
 20
273.5073670187849
 10
770.2609363704001
 20
273.6042766493619
 10
770.1963299500164
 20
273.7334894901309
 10
770.1478751347274
 20
273.9596119614773
 10
770.1478751347274
 20
274.0565215920536
 10
770.1478751347274
 20
274.9910073154729
 10
768.5996284176556
 20
274.9910073154729
 10
768.5996284176556
 20
273.8950055410918
 10
768.6319316278475
 20
273.5558218340738
 10
768.7126896533275
 20
273.297396152536
 10
768.8095992839055
 20
273.0712736811891
 10
768.9388121246736
 20
272.9097576302289
 10
769.0680249654435
 20
272.7805447894588
 10
769.16493459602
 20
272.6997867639781
 10
769.2779958316926
 20
272.6351803435936
 10
769.1326313858272
 20
272.5705739232095
 10
769.0195701501553
 20
272.4898158977287
 10
768.8419024940965
 20
272.2959966365756
 10
768.6965380482313
 20
272.0698741652287
 10
768.6157800227513
 20
271.8460590660399
 10
768.5511736023673
 20
271.6360881997903
 10
768.5188703921742
 20
271.458420543732
 10
768.5027187870785
 20
271.2969044927703
 10
768.5027187870785
 20
269.956321269792
 10
770.1155719245355
 20
269.956321269792
 10
770.1155719245355
 20
271.1838432570985
 10
770.1317235296312
 20
271.3130560978689
 10
770.1478751347283
 20
271.42611733354
 10
770.1801783449202
 20
271.5714817794054
 10
770.2609363704001
 20
271.7006946201741
 10
770.3739976060735
 20
271.8299074609435
 10
770.5355136570354
 20
271.9106654864244
 10
770.7616361283806
 20
271.9429686966164
 10
770.9716069946314
 20
271.9106654864241
 10
771.1331230455924
 20
271.8299074609435
 10
771.2300326761686
 20
271.7006946201745
 10
771.2946390965522
 20
271.5553301743099
 10
771.3269423067452
 20
271.426117333539
 10
771.3430939118421
 20
271.2969044927711
 10
771.3430939118421
 20
271.1838432570981
 10
771.3430939118421
 20
269.956321269792
 10
772.9397954442021
 20
269.956321269792
 10
772.9397954442021
 20
271.3130560978679
 10
772.9074922340103
 20
271.6683914099823
 10
772.810582603433
 20
271.9591203017121
 10
772.6975213677595
 20
272.1829354009023
 10
772.5521569218956
 20
272.3606030569595
 97
        0
 75
     0
 76
     1
 47
0.04298
 98
        8
 10
751.6828798384042
 20
272.8958363418392
 10
754.9025118384045
 20
271.4443993418393
 10
754.9025118384045
 20
271.4443993418393
 10
759.3216158384044
 20
272.0754583418392
 10
762.2255978384044
 20
272.3909873418392
 10
764.1826288384041
 20
272.7065173418393
 10
764.1826288384041
 20
272.7065173418393
 10
769.7380728384042
 20
272.4540943418392
450
        0
451
        0
460
0.0
461
0.0
452
        0
462
0.0
453
        0
470

  0
POLYLINE
  5
63E
330
1F
100
AcDbEntity
  8
4
100
AcDb2dPolyline
 66
     1
 10
0.0
 20
0.0
 30
0.0
  0
VERTEX
  5
63F
330
63E
100
AcDbEntity
  8
4
100
AcDbVertex
100
AcDb2dVertex
 10
752.3834168384053
 20
273.1520313418391
 30
0.0
  0
VERTEX
  5
640
330
63E
100
AcDbEntity
  8
4
100
AcDbVertex
100
AcDb2dVertex
 10
752.4157198384044
 20
273.3296993418393
 30
0.0
  0
VERTEX
  5
641
330
63E
100
AcDbEntity
  8
4
100
AcDbVertex
100
AcDb2dVertex
 10
752.4803268384046
 20
273.4589123418392
 30
0.0
  0
VERTEX
  5
642
330
63E
100
AcDbEntity
  8
4
100
AcDbVertex
100
AcDb2dVertex
 10
752.5772358384045
 20
273.5558213418392
 30
0.0
  0
VERTEX
  5
643
330
63E
100
AcDbEntity
  8
4
100
AcDbVertex
100
AcDb2dVertex
 10
752.6741458384056
 20
273.6365803418391
 30
0.0
  0
VERTEX
  5
644
330
63E
100
AcDbEntity
  8
4
100
AcDbVertex
100
AcDb2dVertex
 10
752.8679648384041
 20
273.6850343418392
 30
0.0
  0
VERTEX
  5
645
330
63E
100
AcDbEntity
  8
4
100
AcDbVertex
100
AcDb2dVertex
 10
752.9648748384045
 20
273.7011863418393
 30
0.0
  0
VERTEX
  5
646
330
63E
100
AcDbEntity
  8
4
100
AcDbVertex
100
AcDb2dVertex
 10
753.1425428384043
 20
273.7011863418393
 30
0.0
  0
VERTEX
  5
647
330
63E
100
AcDbEntity
  8
4
100
AcDbVertex
100
AcDb2dVertex
 10
753.1425428384043
 20
275.0394623418392
 30
0.0
  0
VERTEX
  5
648
330
63E
100
AcDbEntity
  8
4
100
AcDbVertex
100
AcDb2dVertex
 10
752.5610848384054
 20
275.0394623418392
 30
0.0
  0
VERTEX
  5
649
330
63E
100
AcDbEntity
  8
4
100
AcDbVertex
100
AcDb2dVertex
 10
752.2380528384044
 20
275.0233103418392
 30
0.0
  0
VERTEX
  5
64A
330
63E
100
AcDbEntity
  8
4
100
AcDbVertex
100
AcDb2dVertex
 10
751.9634748384044
 20
274.9910073418393
 30
0.0
  0
VERTEX
  5
64B
330
63E
100
AcDbEntity
  8
4
100
AcDbVertex
100
AcDb2dVertex
 10
751.7373528384044
 20
274.9102493418392
 30
0.0
  0
VERTEX
  5
64C
330
63E
100
AcDbEntity
  8
4
100
AcDbVertex
100
AcDb2dVertex
 10
751.5273818384055
 20
274.8294913418393
 30
0.0
  0
VERTEX
  5
64D
330
63E
100
AcDbEntity
  8
4
100
AcDbVertex
100
AcDb2dVertex
 10
751.3681728384056
 20
274.7164303418392
 30
0.0
  0
VERTEX
  5
64E
330
63E
100
AcDbEntity
  8
4
100
AcDbVertex
100
AcDb2dVertex
 10
751.2228088384041
 20
274.6033683418392
 30
0.0
  0
VERTEX
  5
64F
330
63E
100
AcDbEntity
  8
4
100
AcDbVertex
100
AcDb2dVertex
 10
751.1097478384042
 20
274.4741563418393
 30
0.0
  0
VERTEX
  5
650
330
63E
100
AcDbEntity
  8
4
100
AcDbVertex
100
AcDb2dVertex
 10
751.0128378384052
 20
274.3449433418392
 30
0.0
  0
VERTEX
  5
651
330
63E
100
AcDbEntity
  8
4
100
AcDbVertex
100
AcDb2dVertex
 10
750.8997768384054
 20
274.0726733418393
 30
0.0
  0
VERTEX
  5
652
330
63E
100
AcDbEntity
  8
4
100
AcDbVertex
100
AcDb2dVertex
 10
750.8351698384042
 20
273.8465503418392
 30
0.0
  0
VERTEX
  5
653
330
63E
100
AcDbEntity
  8
4
100
AcDbVertex
100
AcDb2dVertex
 10
750.8190188384044
 20
273.6365803418391
 30
0.0
  0
VERTEX
  5
654
330
63E
100
AcDbEntity
  8
4
100
AcDbVertex
100
AcDb2dVertex
 10
750.8190188384044
 20
269.9401693418394
 30
0.0
  0
VERTEX
  5
655
330
63E
100
AcDbEntity
  8
4
100
AcDbVertex
100
AcDb2dVertex
 10
752.3834168384053
 20
269.9401693418394
 30
0.0
  0
VERTEX
  5
656
330
63E
100
AcDbEntity
  8
4
100
AcDbVertex
100
AcDb2dVertex
 10
752.3834168384053
 20
273.1520313418391
 30
0.0
  0
VERTEX
  5
657
330
63E
100
AcDbEntity
  8
4
100
AcDbVertex
100
AcDb2dVertex
 10
752.3834168384053
 20
273.1520313418391
 30
0.0
  0
SEQEND
  5
658
330
63E
100
AcDbEntity
  8
4
  0
POLYLINE
  5
659
330
1F
100
AcDbEntity
  8
4
100
AcDb2dPolyline
 66
     1
 10
0.0
 20
0.0
 30
0.0
  0
VERTEX
  5
65A
330
659
100
AcDbEntity
  8
4
100
AcDbVertex
100
AcDb2dVertex
 10
748.7809468384044
 20
278.5323383418393
 30
0.0
  0
VERTEX
  5
65B
330
659
100
AcDbEntity
  8
4
100
AcDbVertex
100
AcDb2dVertex
 10
748.7259248384044
 20
278.5305633418392
 30
0.0
  0
VERTEX
  5
65C
330
659
100
AcDbEntity
  8
4
100
AcDbVertex
100
AcDb2dVertex
 10
748.6709028384044
 20
278.5252383418393
 30
0.0
  0
VERTEX
  5
65D
330
659
100
AcDbEntity
  8
4
100
AcDbVertex
100
AcDb2dVertex
 10
748.6158808384053
 20
278.5181393418392
 30
0.0
  0
VERTEX
  5
65E
330
659
100
AcDbEntity
  8
4
100
AcDbVertex
100
AcDb2dVertex
 10
748.5608588384053
 20
278.5092643418392
 30
0.0
  0
VERTEX
  5
65F
330
659
100
AcDbEntity
  8
4
100
AcDbVertex
100
AcDb2dVertex
 10
748.5076118384043
 20
278.4968403418392
 30
0.0
  0
VERTEX
  5
660
330
659
100
AcDbEntity
  8
4
100
AcDbVertex
100
AcDb2dVertex
 10
748.4561398384045
 20
278.4808663418393
 30
0.0
  0
VERTEX
  5
661
330
659
100
AcDbEntity
  8
4
100
AcDbVertex
100
AcDb2dVertex
 10
748.4046668384055
 20
278.4631173418392
 30
0.0
  0
VERTEX
  5
662
330
659
100
AcDbEntity
  8
4
100
AcDbVertex
100
AcDb2dVertex
 10
748.3549698384056
 20
278.4435933418391
 30
0.0
  0
VERTEX
  5
663
330
659
100
AcDbEntity
  8
4
100
AcDbVertex
100
AcDb2dVertex
 10
748.3070478384054
 20
278.4222943418393
 30
0.0
  0
VERTEX
  5
664
330
659
100
AcDbEntity
  8
4
100
AcDbVertex
100
AcDb2dVertex
 10
748.2591248384044
 20
278.3974463418392
 30
0.0
  0
VERTEX
  5
665
330
659
100
AcDbEntity
  8
4
100
AcDbVertex
100
AcDb2dVertex
 10
748.2129778384043
 20
278.3708223418392
 30
0.0
  0
VERTEX
  5
666
330
659
100
AcDbEntity
  8
4
100
AcDbVertex
100
AcDb2dVertex
 10
748.1686048384054
 20
278.3406493418393
 30
0.0
  0
VERTEX
  5
667
330
659
100
AcDbEntity
  8
4
100
AcDbVertex
100
AcDb2dVertex
 10
748.1260078384053
 20
278.3104753418393
 30
0.0
  0
VERTEX
  5
668
330
659
100
AcDbEntity
  8
4
100
AcDbVertex
100
AcDb2dVertex
 10
748.0834098384055
 20
278.2767523418392
 30
0.0
  0
VERTEX
  5
669
330
659
100
AcDbEntity
  8
4
100
AcDbVertex
100
AcDb2dVertex
 10
748.0425868384043
 20
278.2430293418391
 30
0.0
  0
VERTEX
  5
66A
330
659
100
AcDbEntity
  8
4
100
AcDbVertex
100
AcDb2dVertex
 10
748.0053148384056
 20
278.2057563418392
 30
0.0
  0
VERTEX
  5
66B
330
659
100
AcDbEntity
  8
4
100
AcDbVertex
100
AcDb2dVertex
 10
747.9680418384042
 20
278.1667083418392
 30
0.0
  0
VERTEX
  5
66C
330
659
100
AcDbEntity
  8
4
100
AcDbVertex
100
AcDb2dVertex
 10
747.9343178384043
 20
278.1276613418394
 30
0.0
  0
VERTEX
  5
66D
330
659
100
AcDbEntity
  8
4
100
AcDbVertex
100
AcDb2dVertex
 10
747.9005948384052
 20
278.0850633418392
 30
0.0
  0
VERTEX
  5
66E
330
659
100
AcDbEntity
  8
4
100
AcDbVertex
100
AcDb2dVertex
 10
747.8704218384043
 20
278.0424653418393
 30
0.0
  0
VERTEX
  5
66F
330
659
100
AcDbEntity
  8
4
100
AcDbVertex
100
AcDb2dVertex
 10
747.8402488384042
 20
277.9980933418392
 30
0.0
  0
VERTEX
  5
670
330
659
100
AcDbEntity
  8
4
100
AcDbVertex
100
AcDb2dVertex
 10
747.8136248384055
 20
277.9519453418392
 30
0.0
  0
VERTEX
  5
671
330
659
100
AcDbEntity
  8
4
100
AcDbVertex
100
AcDb2dVertex
 10
747.7887768384046
 20
277.9040233418392
 30
0.0
  0
VERTEX
  5
672
330
659
100
AcDbEntity
  8
4
100
AcDbVertex
100
AcDb2dVertex
 10
747.7674778384046
 20
277.8561013418391
 30
0.0
  0
VERTEX
  5
673
330
659
100
AcDbEntity
  8
4
100
AcDbVertex
100
AcDb2dVertex
 10
747.7479538384043
 20
277.8064033418392
 30
0.0
  0
VERTEX
  5
674
330
659
100
AcDbEntity
  8
4
100
AcDbVertex
100
AcDb2dVertex
 10
747.7302048384054
 20
277.7549313418391
 30
0.0
  0
VERTEX
  5
675
330
659
100
AcDbEntity
  8
4
100
AcDbVertex
100
AcDb2dVertex
 10
747.7142308384043
 20
277.7034593418393
 30
0.0
  0
VERTEX
  5
676
330
659
100
AcDbEntity
  8
4
100
AcDbVertex
100
AcDb2dVertex
 10
747.7018058384044
 20
277.6502123418392
 30
0.0
  0
VERTEX
  5
677
330
659
100
AcDbEntity
  8
4
100
AcDbVertex
100
AcDb2dVertex
 10
747.6929318384043
 20
277.5951903418393
 30
0.0
  0
VERTEX
  5
678
330
659
100
AcDbEntity
  8
4
100
AcDbVertex
100
AcDb2dVertex
 10
747.6858318384045
 20
277.5401683418392
 30
0.0
  0
VERTEX
  5
679
330
659
100
AcDbEntity
  8
4
100
AcDbVertex
100
AcDb2dVertex
 10
747.6805078384042
 20
277.4851463418392
 30
0.0
  0
VERTEX
  5
67A
330
659
100
AcDbEntity
  8
4
100
AcDbVertex
100
AcDb2dVertex
 10
747.6787328384054
 20
277.4301243418394
 30
0.0
  0
VERTEX
  5
67B
330
659
100
AcDbEntity
  8
4
100
AcDbVertex
100
AcDb2dVertex
 10
747.9236688384046
 20
277.4301243418394
 30
0.0
  0
VERTEX
  5
67C
330
659
100
AcDbEntity
  8
4
100
AcDbVertex
100
AcDb2dVertex
 10
747.9236688384046
 20
277.4727223418391
 30
0.0
  0
VERTEX
  5
67D
330
659
100
AcDbEntity
  8
4
100
AcDbVertex
100
AcDb2dVertex
 10
747.9272188384045
 20
277.5153193418392
 30
0.0
  0
VERTEX
  5
67E
330
659
100
AcDbEntity
  8
4
100
AcDbVertex
100
AcDb2dVertex
 10
747.9325438384046
 20
277.5579173418392
 30
0.0
  0
VERTEX
  5
67F
330
659
100
AcDbEntity
  8
4
100
AcDbVertex
100
AcDb2dVertex
 10
747.9414178384056
 20
277.6005153418394
 30
0.0
  0
VERTEX
  5
680
330
659
100
AcDbEntity
  8
4
100
AcDbVertex
100
AcDb2dVertex
 10
747.9502928384041
 20
277.6413373418392
 30
0.0
  0
VERTEX
  5
681
330
659
100
AcDbEntity
  8
4
100
AcDbVertex
100
AcDb2dVertex
 10
747.9627168384041
 20
277.6803853418392
 30
0.0
  0
VERTEX
  5
682
330
659
100
AcDbEntity
  8
4
100
AcDbVertex
100
AcDb2dVertex
 10
747.9751408384043
 20
277.7212083418392
 30
0.0
  0
VERTEX
  5
683
330
659
100
AcDbEntity
  8
4
100
AcDbVertex
100
AcDb2dVertex
 10
747.9911148384054
 20
277.7602563418392
 30
0.0
  0
VERTEX
  5
684
330
659
100
AcDbEntity
  8
4
100
AcDbVertex
100
AcDb2dVertex
 10
748.0088638384052
 20
277.7975293418392
 30
0.0
  0
VERTEX
  5
685
330
659
100
AcDbEntity
  8
4
100
AcDbVertex
100
AcDb2dVertex
 10
748.0283878384044
 20
277.8348023418392
 30
0.0
  0
VERTEX
  5
686
330
659
100
AcDbEntity
  8
4
100
AcDbVertex
100
AcDb2dVertex
 10
748.0496868384046
 20
277.8703003418392
 30
0.0
  0
VERTEX
  5
687
330
659
100
AcDbEntity
  8
4
100
AcDbVertex
100
AcDb2dVertex
 10
748.0709858384044
 20
277.9057983418393
 30
0.0
  0
VERTEX
  5
688
330
659
100
AcDbEntity
  8
4
100
AcDbVertex
100
AcDb2dVertex
 10
748.0958338384055
 20
277.9395213418392
 30
0.0
  0
VERTEX
  5
689
330
659
100
AcDbEntity
  8
4
100
AcDbVertex
100
AcDb2dVertex
 10
748.1206828384045
 20
277.9714693418394
 30
0.0
  0
VERTEX
  5
68A
330
659
100
AcDbEntity
  8
4
100
AcDbVertex
100
AcDb2dVertex
 10
748.1490818384043
 20
278.0034173418392
 30
0.0
  0
VERTEX
  5
68B
330
659
100
AcDbEntity
  8
4
100
AcDbVertex
100
AcDb2dVertex
 10
748.1774798384056
 20
278.0335913418393
 30
0.0
  0
VERTEX
  5
68C
330
659
100
AcDbEntity
  8
4
100
AcDbVertex
100
AcDb2dVertex
 10
748.2076528384043
 20
278.0619893418392
 30
0.0
  0
VERTEX
  5
68D
330
659
100
AcDbEntity
  8
4
100
AcDbVertex
100
AcDb2dVertex
 10
748.2396018384045
 20
278.0886133418392
 30
0.0
  0
VERTEX
  5
68E
330
659
100
AcDbEntity
  8
4
100
AcDbVertex
100
AcDb2dVertex
 10
748.2715498384043
 20
278.1152363418392
 30
0.0
  0
VERTEX
  5
68F
330
659
100
AcDbEntity
  8
4
100
AcDbVertex
100
AcDb2dVertex
 10
748.3052728384043
 20
278.1400853418393
 30
0.0
  0
VERTEX
  5
690
330
659
100
AcDbEntity
  8
4
100
AcDbVertex
100
AcDb2dVertex
 10
748.3407708384045
 20
278.1613843418393
 30
0.0
  0
VERTEX
  5
691
330
659
100
AcDbEntity
  8
4
100
AcDbVertex
100
AcDb2dVertex
 10
748.3762688384056
 20
278.1826823418393
 30
0.0
  0
VERTEX
  5
692
330
659
100
AcDbEntity
  8
4
100
AcDbVertex
100
AcDb2dVertex
 10
748.4135418384046
 20
278.2022063418392
 30
0.0
  0
VERTEX
  5
693
330
659
100
AcDbEntity
  8
4
100
AcDbVertex
100
AcDb2dVertex
 10
748.4508148384045
 20
278.2199553418392
 30
0.0
  0
VERTEX
  5
694
330
659
100
AcDbEntity
  8
4
100
AcDbVertex
100
AcDb2dVertex
 10
748.4898628384055
 20
278.2341553418391
 30
0.0
  0
VERTEX
  5
695
330
659
100
AcDbEntity
  8
4
100
AcDbVertex
100
AcDb2dVertex
 10
748.5289108384056
 20
278.2483543418393
 30
0.0
  0
VERTEX
  5
696
330
659
100
AcDbEntity
  8
4
100
AcDbVertex
100
AcDb2dVertex
 10
748.569732838404
 20
278.2607783418393
 30
0.0
  0
VERTEX
  5
697
330
659
100
AcDbEntity
  8
4
100
AcDbVertex
100
AcDb2dVertex
 10
748.6105558384045
 20
278.2696533418392
 30
0.0
  0
VERTEX
  5
698
330
659
100
AcDbEntity
  8
4
100
AcDbVertex
100
AcDb2dVertex
 10
748.6531538384054
 20
278.2785273418392
 30
0.0
  0
VERTEX
  5
699
330
659
100
AcDbEntity
  8
4
100
AcDbVertex
100
AcDb2dVertex
 10
748.6957508384046
 20
278.2838523418392
 30
0.0
  0
VERTEX
  5
69A
330
659
100
AcDbEntity
  8
4
100
AcDbVertex
100
AcDb2dVertex
 10
748.7383488384055
 20
278.2874023418392
 30
0.0
  0
VERTEX
  5
69B
330
659
100
AcDbEntity
  8
4
100
AcDbVertex
100
AcDb2dVertex
 10
748.7809468384044
 20
278.2874023418392
 30
0.0
  0
VERTEX
  5
69C
330
659
100
AcDbEntity
  8
4
100
AcDbVertex
100
AcDb2dVertex
 10
748.7809468384044
 20
278.5323383418393
 30
0.0
  0
VERTEX
  5
69D
330
659
100
AcDbEntity
  8
4
100
AcDbVertex
100
AcDb2dVertex
 10
748.7809468384044
 20
278.5323383418393
 30
0.0
  0
SEQEND
  5
69E
330
659
100
AcDbEntity
  8
4
  0
POLYLINE
  5
69F
330
1F
100
AcDbEntity
  8
4
100
AcDb2dPolyline
 66
     1
 10
0.0
 20
0.0
 30
0.0
  0
VERTEX
  5
6A0
330
69F
100
AcDbEntity
  8
4
100
AcDbVertex
100
AcDb2dVertex
 10
747.6787328384054
 20
277.4301243418394
 30
0.0
  0
VERTEX
  5
6A1
330
69F
100
AcDbEntity
  8
4
100
AcDbVertex
100
AcDb2dVertex
 10
747.6787328384054
 20
268.8768733418392
 30
0.0
  0
VERTEX
  5
6A2
330
69F
100
AcDbEntity
  8
4
100
AcDbVertex
100
AcDb2dVertex
 10
747.9236688384046
 20
268.8768733418392
 30
0.0
  0
VERTEX
  5
6A3
330
69F
100
AcDbEntity
  8
4
100
AcDbVertex
100
AcDb2dVertex
 10
747.9236688384046
 20
277.4301243418394
 30
0.0
  0
VERTEX
  5
6A4
330
69F
100
AcDbEntity
  8
4
100
AcDbVertex
100
AcDb2dVertex
 10
747.6787328384054
 20
277.4301243418394
 30
0.0
  0
VERTEX
  5
6A5
330
69F
100
AcDbEntity
  8
4
100
AcDbVertex
100
AcDb2dVertex
 10
747.6787328384054
 20
277.4301243418394
 30
0.0
  0
SEQEND
  5
6A6
330
69F
100
AcDbEntity
  8
4
  0
POLYLINE
  5
6A7
330
1F
100
AcDbEntity
  8
4
100
AcDb2dPolyline
 66
     1
 10
0.0
 20
0.0
 30
0.0
  0
VERTEX
  5
6A8
330
6A7
100
AcDbEntity
  8
4
100
AcDbVertex
100
AcDb2dVertex
 10
747.6787328384054
 20
268.8768733418392
 30
0.0
  0
VERTEX
  5
6A9
330
6A7
100
AcDbEntity
  8
4
100
AcDbVertex
100
AcDb2dVertex
 10
747.6805078384042
 20
268.8218513418392
 30
0.0
  0
VERTEX
  5
6AA
330
6A7
100
AcDbEntity
  8
4
100
AcDbVertex
100
AcDb2dVertex
 10
747.6858318384045
 20
268.7668293418392
 30
0.0
  0
VERTEX
  5
6AB
330
6A7
100
AcDbEntity
  8
4
100
AcDbVertex
100
AcDb2dVertex
 10
747.6929318384043
 20
268.7118073418392
 30
0.0
  0
VERTEX
  5
6AC
330
6A7
100
AcDbEntity
  8
4
100
AcDbVertex
100
AcDb2dVertex
 10
747.7018058384044
 20
268.6585603418391
 30
0.0
  0
VERTEX
  5
6AD
330
6A7
100
AcDbEntity
  8
4
100
AcDbVertex
100
AcDb2dVertex
 10
747.7142308384043
 20
268.6053133418392
 30
0.0
  0
VERTEX
  5
6AE
330
6A7
100
AcDbEntity
  8
4
100
AcDbVertex
100
AcDb2dVertex
 10
747.7302048384054
 20
268.5538413418392
 30
0.0
  0
VERTEX
  5
6AF
330
6A7
100
AcDbEntity
  8
4
100
AcDbVertex
100
AcDb2dVertex
 10
747.7479538384043
 20
268.5023693418392
 30
0.0
  0
VERTEX
  5
6B0
330
6A7
100
AcDbEntity
  8
4
100
AcDbVertex
100
AcDb2dVertex
 10
747.7674778384046
 20
268.4526723418392
 30
0.0
  0
VERTEX
  5
6B1
330
6A7
100
AcDbEntity
  8
4
100
AcDbVertex
100
AcDb2dVertex
 10
747.7905508384044
 20
268.4047493418393
 30
0.0
  0
VERTEX
  5
6B2
330
6A7
100
AcDbEntity
  8
4
100
AcDbVertex
100
AcDb2dVertex
 10
747.8153998384043
 20
268.3568273418393
 30
0.0
  0
VERTEX
  5
6B3
330
6A7
100
AcDbEntity
  8
4
100
AcDbVertex
100
AcDb2dVertex
 10
747.8420238384044
 20
268.3124543418393
 30
0.0
  0
VERTEX
  5
6B4
330
6A7
100
AcDbEntity
  8
4
100
AcDbVertex
100
AcDb2dVertex
 10
747.8704218384043
 20
268.2680823418392
 30
0.0
  0
VERTEX
  5
6B5
330
6A7
100
AcDbEntity
  8
4
100
AcDbVertex
100
AcDb2dVertex
 10
747.9005948384052
 20
268.2254843418392
 30
0.0
  0
VERTEX
  5
6B6
330
6A7
100
AcDbEntity
  8
4
100
AcDbVertex
100
AcDb2dVertex
 10
747.9343178384043
 20
268.1846613418393
 30
0.0
  0
VERTEX
  5
6B7
330
6A7
100
AcDbEntity
  8
4
100
AcDbVertex
100
AcDb2dVertex
 10
747.9698158384056
 20
268.1438393418392
 30
0.0
  0
VERTEX
  5
6B8
330
6A7
100
AcDbEntity
  8
4
100
AcDbVertex
100
AcDb2dVertex
 10
748.0053148384056
 20
268.1065663418392
 30
0.0
  0
VERTEX
  5
6B9
330
6A7
100
AcDbEntity
  8
4
100
AcDbVertex
100
AcDb2dVertex
 10
748.0443618384043
 20
268.0710683418391
 30
0.0
  0
VERTEX
  5
6BA
330
6A7
100
AcDbEntity
  8
4
100
AcDbVertex
100
AcDb2dVertex
 10
748.0851848384043
 20
268.0355703418392
 30
0.0
  0
VERTEX
  5
6BB
330
6A7
100
AcDbEntity
  8
4
100
AcDbVertex
100
AcDb2dVertex
 10
748.1260078384053
 20
268.0036213418392
 30
0.0
  0
VERTEX
  5
6BC
330
6A7
100
AcDbEntity
  8
4
100
AcDbVertex
100
AcDb2dVertex
 10
748.1686048384054
 20
267.9734483418394
 30
0.0
  0
VERTEX
  5
6BD
330
6A7
100
AcDbEntity
  8
4
100
AcDbVertex
100
AcDb2dVertex
 10
748.2147528384055
 20
267.9450503418392
 30
0.0
  0
VERTEX
  5
6BE
330
6A7
100
AcDbEntity
  8
4
100
AcDbVertex
100
AcDb2dVertex
 10
748.2591248384044
 20
267.9184263418391
 30
0.0
  0
VERTEX
  5
6BF
330
6A7
100
AcDbEntity
  8
4
100
AcDbVertex
100
AcDb2dVertex
 10
748.3070478384054
 20
267.8953523418392
 30
0.0
  0
VERTEX
  5
6C0
330
6A7
100
AcDbEntity
  8
4
100
AcDbVertex
100
AcDb2dVertex
 10
748.3567448384044
 20
267.8722793418392
 30
0.0
  0
VERTEX
  5
6C1
330
6A7
100
AcDbEntity
  8
4
100
AcDbVertex
100
AcDb2dVertex
 10
748.4064418384043
 20
267.8545303418392
 30
0.0
  0
VERTEX
  5
6C2
330
6A7
100
AcDbEntity
  8
4
100
AcDbVertex
100
AcDb2dVertex
 10
748.4579138384043
 20
267.8367813418392
 30
0.0
  0
VERTEX
  5
6C3
330
6A7
100
AcDbEntity
  8
4
100
AcDbVertex
100
AcDb2dVertex
 10
748.5093868384044
 20
267.8208073418392
 30
0.0
  0
VERTEX
  5
6C4
330
6A7
100
AcDbEntity
  8
4
100
AcDbVertex
100
AcDb2dVertex
 10
748.5626338384043
 20
267.8101573418393
 30
0.0
  0
VERTEX
  5
6C5
330
6A7
100
AcDbEntity
  8
4
100
AcDbVertex
100
AcDb2dVertex
 10
748.6158808384053
 20
267.7995083418392
 30
0.0
  0
VERTEX
  5
6C6
330
6A7
100
AcDbEntity
  8
4
100
AcDbVertex
100
AcDb2dVertex
 10
748.6709028384044
 20
267.7941833418393
 30
0.0
  0
VERTEX
  5
6C7
330
6A7
100
AcDbEntity
  8
4
100
AcDbVertex
100
AcDb2dVertex
 10
748.7259248384044
 20
267.7888583418393
 30
0.0
  0
VERTEX
  5
6C8
330
6A7
100
AcDbEntity
  8
4
100
AcDbVertex
100
AcDb2dVertex
 10
748.7809468384044
 20
267.7870833418392
 30
0.0
  0
VERTEX
  5
6C9
330
6A7
100
AcDbEntity
  8
4
100
AcDbVertex
100
AcDb2dVertex
 10
748.7809468384044
 20
268.0320203418394
 30
0.0
  0
VERTEX
  5
6CA
330
6A7
100
AcDbEntity
  8
4
100
AcDbVertex
100
AcDb2dVertex
 10
748.7383488384055
 20
268.0320203418394
 30
0.0
  0
VERTEX
  5
6CB
330
6A7
100
AcDbEntity
  8
4
100
AcDbVertex
100
AcDb2dVertex
 10
748.6939758384044
 20
268.0355703418392
 30
0.0
  0
VERTEX
  5
6CC
330
6A7
100
AcDbEntity
  8
4
100
AcDbVertex
100
AcDb2dVertex
 10
748.6513788384042
 20
268.0408943418393
 30
0.0
  0
VERTEX
  5
6CD
330
6A7
100
AcDbEntity
  8
4
100
AcDbVertex
100
AcDb2dVertex
 10
748.6105558384045
 20
268.0479943418392
 30
0.0
  0
VERTEX
  5
6CE
330
6A7
100
AcDbEntity
  8
4
100
AcDbVertex
100
AcDb2dVertex
 10
748.569732838404
 20
268.0586433418391
 30
0.0
  0
VERTEX
  5
6CF
330
6A7
100
AcDbEntity
  8
4
100
AcDbVertex
100
AcDb2dVertex
 10
748.5289108384056
 20
268.0692933418391
 30
0.0
  0
VERTEX
  5
6D0
330
6A7
100
AcDbEntity
  8
4
100
AcDbVertex
100
AcDb2dVertex
 10
748.4898628384055
 20
268.0834923418391
 30
0.0
  0
VERTEX
  5
6D1
330
6A7
100
AcDbEntity
  8
4
100
AcDbVertex
100
AcDb2dVertex
 10
748.4508148384045
 20
268.0976913418392
 30
0.0
  0
VERTEX
  5
6D2
330
6A7
100
AcDbEntity
  8
4
100
AcDbVertex
100
AcDb2dVertex
 10
748.4117668384044
 20
268.1154403418392
 30
0.0
  0
VERTEX
  5
6D3
330
6A7
100
AcDbEntity
  8
4
100
AcDbVertex
100
AcDb2dVertex
 10
748.3762688384056
 20
268.1331893418392
 30
0.0
  0
VERTEX
  5
6D4
330
6A7
100
AcDbEntity
  8
4
100
AcDbVertex
100
AcDb2dVertex
 10
748.3389958384043
 20
268.1544883418392
 30
0.0
  0
VERTEX
  5
6D5
330
6A7
100
AcDbEntity
  8
4
100
AcDbVertex
100
AcDb2dVertex
 10
748.3052728384043
 20
268.1775623418392
 30
0.0
  0
VERTEX
  5
6D6
330
6A7
100
AcDbEntity
  8
4
100
AcDbVertex
100
AcDb2dVertex
 10
748.2697748384046
 20
268.2006363418392
 30
0.0
  0
VERTEX
  5
6D7
330
6A7
100
AcDbEntity
  8
4
100
AcDbVertex
100
AcDb2dVertex
 10
748.2378268384043
 20
268.2254843418392
 30
0.0
  0
VERTEX
  5
6D8
330
6A7
100
AcDbEntity
  8
4
100
AcDbVertex
100
AcDb2dVertex
 10
748.2058778384046
 20
268.2521083418392
 30
0.0
  0
VERTEX
  5
6D9
330
6A7
100
AcDbEntity
  8
4
100
AcDbVertex
100
AcDb2dVertex
 10
748.1774798384056
 20
268.2805063418391
 30
0.0
  0
VERTEX
  5
6DA
330
6A7
100
AcDbEntity
  8
4
100
AcDbVertex
100
AcDb2dVertex
 10
748.1473068384046
 20
268.3106793418392
 30
0.0
  0
VERTEX
  5
6DB
330
6A7
100
AcDbEntity
  8
4
100
AcDbVertex
100
AcDb2dVertex
 10
748.1206828384045
 20
268.3408533418392
 30
0.0
  0
VERTEX
  5
6DC
330
6A7
100
AcDbEntity
  8
4
100
AcDbVertex
100
AcDb2dVertex
 10
748.0958338384055
 20
268.3728013418392
 30
0.0
  0
VERTEX
  5
6DD
330
6A7
100
AcDbEntity
  8
4
100
AcDbVertex
100
AcDb2dVertex
 10
748.0709858384044
 20
268.4065243418394
 30
0.0
  0
VERTEX
  5
6DE
330
6A7
100
AcDbEntity
  8
4
100
AcDbVertex
100
AcDb2dVertex
 10
748.0479118384042
 20
268.4402473418393
 30
0.0
  0
VERTEX
  5
6DF
330
6A7
100
AcDbEntity
  8
4
100
AcDbVertex
100
AcDb2dVertex
 10
748.0266128384044
 20
268.4757453418393
 30
0.0
  0
VERTEX
  5
6E0
330
6A7
100
AcDbEntity
  8
4
100
AcDbVertex
100
AcDb2dVertex
 10
748.0088638384052
 20
268.5130183418392
 30
0.0
  0
VERTEX
  5
6E1
330
6A7
100
AcDbEntity
  8
4
100
AcDbVertex
100
AcDb2dVertex
 10
747.9911148384054
 20
268.5485163418392
 30
0.0
  0
VERTEX
  5
6E2
330
6A7
100
AcDbEntity
  8
4
100
AcDbVertex
100
AcDb2dVertex
 10
747.9751408384043
 20
268.5875643418392
 30
0.0
  0
VERTEX
  5
6E3
330
6A7
100
AcDbEntity
  8
4
100
AcDbVertex
100
AcDb2dVertex
 10
747.9609418384045
 20
268.6266123418392
 30
0.0
  0
VERTEX
  5
6E4
330
6A7
100
AcDbEntity
  8
4
100
AcDbVertex
100
AcDb2dVertex
 10
747.9502928384041
 20
268.6674353418391
 30
0.0
  0
VERTEX
  5
6E5
330
6A7
100
AcDbEntity
  8
4
100
AcDbVertex
100
AcDb2dVertex
 10
747.9414178384056
 20
268.7082573418393
 30
0.0
  0
VERTEX
  5
6E6
330
6A7
100
AcDbEntity
  8
4
100
AcDbVertex
100
AcDb2dVertex
 10
747.9325438384046
 20
268.7490803418392
 30
0.0
  0
VERTEX
  5
6E7
330
6A7
100
AcDbEntity
  8
4
100
AcDbVertex
100
AcDb2dVertex
 10
747.9272188384045
 20
268.7916783418392
 30
0.0
  0
VERTEX
  5
6E8
330
6A7
100
AcDbEntity
  8
4
100
AcDbVertex
100
AcDb2dVertex
 10
747.9236688384046
 20
268.8342753418392
 30
0.0
  0
VERTEX
  5
6E9
330
6A7
100
AcDbEntity
  8
4
100
AcDbVertex
100
AcDb2dVertex
 10
747.9236688384046
 20
268.8768733418392
 30
0.0
  0
VERTEX
  5
6EA
330
6A7
100
AcDbEntity
  8
4
100
AcDbVertex
100
AcDb2dVertex
 10
747.6787328384054
 20
268.8768733418392
 30
0.0
  0
VERTEX
  5
6EB
330
6A7
100
AcDbEntity
  8
4
100
AcDbVertex
100
AcDb2dVertex
 10
747.6787328384054
 20
268.8768733418392
 30
0.0
  0
SEQEND
  5
6EC
330
6A7
100
AcDbEntity
  8
4
  0
POLYLINE
  5
6ED
330
1F
100
AcDbEntity
  8
4
100
AcDb2dPolyline
 66
     1
 10
0.0
 20
0.0
 30
0.0
  0
VERTEX
  5
6EE
330
6ED
100
AcDbEntity
  8
4
100
AcDbVertex
100
AcDb2dVertex
 10
757.8703478384043
 20
271.8945143418391
 30
0.0
  0
VERTEX
  5
6EF
330
6ED
100
AcDbEntity
  8
4
100
AcDbVertex
100
AcDb2dVertex
 10
757.8703478384043
 20
270.3116563418391
 30
0.0
  0
VERTEX
  5
6F0
330
6ED
100
AcDbEntity
  8
4
100
AcDbVertex
100
AcDb2dVertex
 10
757.7572868384041
 20
270.2470503418392
 30
0.0
  0
VERTEX
  5
6F1
330
6ED
100
AcDbEntity
  8
4
100
AcDbVertex
100
AcDb2dVertex
 10
757.4019518384044
 20
270.0855343418392
 30
0.0
  0
VERTEX
  5
6F2
330
6ED
100
AcDbEntity
  8
4
100
AcDbVertex
100
AcDb2dVertex
 10
757.1435258384042
 20
270.0047763418393
 30
0.0
  0
VERTEX
  5
6F3
330
6ED
100
AcDbEntity
  8
4
100
AcDbVertex
100
AcDb2dVertex
 10
756.8527968384044
 20
269.9401693418394
 30
0.0
  0
VERTEX
  5
6F4
330
6ED
100
AcDbEntity
  8
4
100
AcDbVertex
100
AcDb2dVertex
 10
756.5136128384043
 20
269.8917153418394
 30
0.0
  0
VERTEX
  5
6F5
330
6ED
100
AcDbEntity
  8
4
100
AcDbVertex
100
AcDb2dVertex
 10
756.1421258384053
 20
269.8755633418392
 30
0.0
  0
VERTEX
  5
6F6
330
6ED
100
AcDbEntity
  8
4
100
AcDbVertex
100
AcDb2dVertex
 10
755.8698558384056
 20
269.8755633418392
 30
0.0
  0
VERTEX
  5
6F7
330
6ED
100
AcDbEntity
  8
4
100
AcDbVertex
100
AcDb2dVertex
 10
755.5952788384045
 20
269.9078663418392
 30
0.0
  0
VERTEX
  5
6F8
330
6ED
100
AcDbEntity
  8
4
100
AcDbVertex
100
AcDb2dVertex
 10
755.3368528384046
 20
269.9724733418392
 30
0.0
  0
VERTEX
  5
6F9
330
6ED
100
AcDbEntity
  8
4
100
AcDbVertex
100
AcDb2dVertex
 10
755.0622758384045
 20
270.0370793418392
 30
0.0
  0
VERTEX
  5
6FA
330
6ED
100
AcDbEntity
  8
4
100
AcDbVertex
100
AcDb2dVertex
 10
754.8200018384043
 20
270.1339893418392
 30
0.0
  0
VERTEX
  5
6FB
330
6ED
100
AcDbEntity
  8
4
100
AcDbVertex
100
AcDb2dVertex
 10
754.5777278384055
 20
270.2632013418392
 30
0.0
  0
VERTEX
  5
6FC
330
6ED
100
AcDbEntity
  8
4
100
AcDbVertex
100
AcDb2dVertex
 10
754.3516058384044
 20
270.3924143418392
 30
0.0
  0
VERTEX
  5
6FD
330
6ED
100
AcDbEntity
  8
4
100
AcDbVertex
100
AcDb2dVertex
 10
754.1254828384055
 20
270.5539303418392
 30
0.0
  0
VERTEX
  5
6FE
330
6ED
100
AcDbEntity
  8
4
100
AcDbVertex
100
AcDb2dVertex
 10
753.9316638384055
 20
270.7477503418393
 30
0.0
  0
VERTEX
  5
6FF
330
6ED
100
AcDbEntity
  8
4
100
AcDbVertex
100
AcDb2dVertex
 10
753.7563028384054
 20
270.9577203418391
 30
0.0
  0
VERTEX
  5
700
330
6ED
100
AcDbEntity
  8
4
100
AcDbVertex
100
AcDb2dVertex
 10
753.6109388384045
 20
271.1838433418392
 30
0.0
  0
VERTEX
  5
701
330
6ED
100
AcDbEntity
  8
4
100
AcDbVertex
100
AcDb2dVertex
 10
753.4817258384044
 20
271.4261173418393
 30
0.0
  0
VERTEX
  5
702
330
6ED
100
AcDbEntity
  8
4
100
AcDbVertex
100
AcDb2dVertex
 10
753.3686648384043
 20
271.7006943418393
 30
0.0
  0
VERTEX
  5
703
330
6ED
100
AcDbEntity
  8
4
100
AcDbVertex
100
AcDb2dVertex
 10
753.2879068384041
 20
271.9914233418392
 30
0.0
  0
VERTEX
  5
704
330
6ED
100
AcDbEntity
  8
4
100
AcDbVertex
100
AcDb2dVertex
 10
753.2394518384054
 20
272.2959963418392
 30
0.0
  0
VERTEX
  5
705
330
6ED
100
AcDbEntity
  8
4
100
AcDbVertex
100
AcDb2dVertex
 10
753.2233008384044
 20
272.6351803418392
 30
0.0
  0
VERTEX
  5
706
330
6ED
100
AcDbEntity
  8
4
100
AcDbVertex
100
AcDb2dVertex
 10
753.2717548384046
 20
273.0874253418393
 30
0.0
  0
VERTEX
  5
707
330
6ED
100
AcDbEntity
  8
4
100
AcDbVertex
100
AcDb2dVertex
 10
753.3848168384045
 20
273.5235183418392
 30
0.0
  0
VERTEX
  5
708
330
6ED
100
AcDbEntity
  8
4
100
AcDbVertex
100
AcDb2dVertex
 10
753.4655748384055
 20
273.7334893418391
 30
0.0
  0
VERTEX
  5
709
330
6ED
100
AcDbEntity
  8
4
100
AcDbVertex
100
AcDb2dVertex
 10
753.5786358384053
 20
273.9434603418391
 30
0.0
  0
VERTEX
  5
70A
330
6ED
100
AcDbEntity
  8
4
100
AcDbVertex
100
AcDb2dVertex
 10
753.6916968384046
 20
274.1372793418392
 30
0.0
  0
VERTEX
  5
70B
330
6ED
100
AcDbEntity
  8
4
100
AcDbVertex
100
AcDb2dVertex
 10
753.8347538384043
 20
274.3126403418393
 30
0.0
  0
VERTEX
  5
70C
330
6ED
100
AcDbEntity
  8
4
100
AcDbVertex
100
AcDb2dVertex
 10
754.0124218384046
 20
274.4741563418393
 30
0.0
  0
VERTEX
  5
70D
330
6ED
100
AcDbEntity
  8
4
100
AcDbVertex
100
AcDb2dVertex
 10
754.1900888384044
 20
274.6356723418393
 30
0.0
  0
VERTEX
  5
70E
330
6ED
100
AcDbEntity
  8
4
100
AcDbVertex
100
AcDb2dVertex
 10
754.3839088384054
 20
274.7648853418392
 30
0.0
  0
VERTEX
  5
70F
330
6ED
100
AcDbEntity
  8
4
100
AcDbVertex
100
AcDb2dVertex
 10
754.6100308384045
 20
274.8779463418392
 30
0.0
  0
VERTEX
  5
710
330
6ED
100
AcDbEntity
  8
4
100
AcDbVertex
100
AcDb2dVertex
 10
754.8523048384056
 20
274.9748553418392
 30
0.0
  0
VERTEX
  5
711
330
6ED
100
AcDbEntity
  8
4
100
AcDbVertex
100
AcDb2dVertex
 10
755.1107308384046
 20
275.0394623418392
 30
0.0
  0
VERTEX
  5
712
330
6ED
100
AcDbEntity
  8
4
100
AcDbVertex
100
AcDb2dVertex
 10
755.3853078384043
 20
275.0879173418392
 30
0.0
  0
VERTEX
  5
713
330
6ED
100
AcDbEntity
  8
4
100
AcDbVertex
100
AcDb2dVertex
 10
755.6921888384056
 20
275.1040683418391
 30
0.0
  0
VERTEX
  5
714
330
6ED
100
AcDbEntity
  8
4
100
AcDbVertex
100
AcDb2dVertex
 10
756.1121298384042
 20
275.0717653418392
 30
0.0
  0
VERTEX
  5
715
330
6ED
100
AcDbEntity
  8
4
100
AcDbVertex
100
AcDb2dVertex
 10
756.5136128384043
 20
274.9587043418391
 30
0.0
  0
VERTEX
  5
716
330
6ED
100
AcDbEntity
  8
4
100
AcDbVertex
100
AcDb2dVertex
 10
756.8850998384042
 20
274.7971883418393
 30
0.0
  0
VERTEX
  5
717
330
6ED
100
AcDbEntity
  8
4
100
AcDbVertex
100
AcDb2dVertex
 10
757.2242838384043
 20
274.5872173418391
 30
0.0
  0
VERTEX
  5
718
330
6ED
100
AcDbEntity
  8
4
100
AcDbVertex
100
AcDb2dVertex
 10
757.5311638384042
 20
274.3287913418392
 30
0.0
  0
VERTEX
  5
719
330
6ED
100
AcDbEntity
  8
4
100
AcDbVertex
100
AcDb2dVertex
 10
757.7734378384055
 20
274.0565213418391
 30
0.0
  0
VERTEX
  5
71A
330
6ED
100
AcDbEntity
  8
4
100
AcDbVertex
100
AcDb2dVertex
 10
757.9834088384043
 20
273.7334893418391
 30
0.0
  0
VERTEX
  5
71B
330
6ED
100
AcDbEntity
  8
4
100
AcDbVertex
100
AcDb2dVertex
 10
758.1287738384046
 20
273.4104573418393
 30
0.0
  0
VERTEX
  5
71C
330
6ED
100
AcDbEntity
  8
4
100
AcDbVertex
100
AcDb2dVertex
 10
755.7244918384042
 20
271.3130563418391
 30
0.0
  0
VERTEX
  5
71D
330
6ED
100
AcDbEntity
  8
4
100
AcDbVertex
100
AcDb2dVertex
 10
755.8214018384044
 20
271.2969043418392
 30
0.0
  0
VERTEX
  5
71E
330
6ED
100
AcDbEntity
  8
4
100
AcDbVertex
100
AcDb2dVertex
 10
756.0475238384043
 20
271.2484493418392
 30
0.0
  0
VERTEX
  5
71F
330
6ED
100
AcDbEntity
  8
4
100
AcDbVertex
100
AcDb2dVertex
 10
756.3682488384054
 20
271.2484493418392
 30
0.0
  0
VERTEX
  5
720
330
6ED
100
AcDbEntity
  8
4
100
AcDbVertex
100
AcDb2dVertex
 10
756.5620678384053
 20
271.2646013418392
 30
0.0
  0
VERTEX
  5
721
330
6ED
100
AcDbEntity
  8
4
100
AcDbVertex
100
AcDb2dVertex
 10
756.7558868384042
 20
271.3130563418391
 30
0.0
  0
VERTEX
  5
722
330
6ED
100
AcDbEntity
  8
4
100
AcDbVertex
100
AcDb2dVertex
 10
757.1596768384043
 20
271.4584203418392
 30
0.0
  0
VERTEX
  5
723
330
6ED
100
AcDbEntity
  8
4
100
AcDbVertex
100
AcDb2dVertex
 10
757.5150128384055
 20
271.6522393418391
 30
0.0
  0
VERTEX
  5
724
330
6ED
100
AcDbEntity
  8
4
100
AcDbVertex
100
AcDb2dVertex
 10
757.8703478384043
 20
271.8945143418391
 30
0.0
  0
VERTEX
  5
725
330
6ED
100
AcDbEntity
  8
4
100
AcDbVertex
100
AcDb2dVertex
 10
757.8703478384043
 20
271.8945143418391
 30
0.0
  0
SEQEND
  5
726
330
6ED
100
AcDbEntity
  8
4
  0
POLYLINE
  5
727
330
1F
100
AcDbEntity
  8
4
100
AcDb2dPolyline
 66
     1
 10
0.0
 20
0.0
 30
0.0
  0
VERTEX
  5
728
330
727
100
AcDbEntity
  8
4
100
AcDbVertex
100
AcDb2dVertex
 10
754.7553958384042
 20
272.2475413418393
 30
0.0
  0
VERTEX
  5
729
330
727
100
AcDbEntity
  8
4
100
AcDbVertex
100
AcDb2dVertex
 10
756.3197938384043
 20
273.5558213418392
 30
0.0
  0
VERTEX
  5
72A
330
727
100
AcDbEntity
  8
4
100
AcDbVertex
100
AcDb2dVertex
 10
756.2067328384044
 20
273.6204283418392
 30
0.0
  0
VERTEX
  5
72B
330
727
100
AcDbEntity
  8
4
100
AcDbVertex
100
AcDb2dVertex
 10
756.0798268384044
 20
273.6850343418392
 30
0.0
  0
VERTEX
  5
72C
330
727
100
AcDbEntity
  8
4
100
AcDbVertex
100
AcDb2dVertex
 10
755.9021598384044
 20
273.7334893418391
 30
0.0
  0
VERTEX
  5
72D
330
727
100
AcDbEntity
  8
4
100
AcDbVertex
100
AcDb2dVertex
 10
755.7083398384045
 20
273.7657923418392
 30
0.0
  0
VERTEX
  5
72E
330
727
100
AcDbEntity
  8
4
100
AcDbVertex
100
AcDb2dVertex
 10
755.4822178384053
 20
273.7496413418393
 30
0.0
  0
VERTEX
  5
72F
330
727
100
AcDbEntity
  8
4
100
AcDbVertex
100
AcDb2dVertex
 10
755.2399438384043
 20
273.6688833418393
 30
0.0
  0
VERTEX
  5
730
330
727
100
AcDbEntity
  8
4
100
AcDbVertex
100
AcDb2dVertex
 10
755.0138208384042
 20
273.5073673418393
 30
0.0
  0
VERTEX
  5
731
330
727
100
AcDbEntity
  8
4
100
AcDbVertex
100
AcDb2dVertex
 10
754.8200018384043
 20
273.2812443418392
 30
0.0
  0
VERTEX
  5
732
330
727
100
AcDbEntity
  8
4
100
AcDbVertex
100
AcDb2dVertex
 10
754.7069408384043
 20
273.0551223418391
 30
0.0
  0
VERTEX
  5
733
330
727
100
AcDbEntity
  8
4
100
AcDbVertex
100
AcDb2dVertex
 10
754.6584858384054
 20
272.8451513418392
 30
0.0
  0
VERTEX
  5
734
330
727
100
AcDbEntity
  8
4
100
AcDbVertex
100
AcDb2dVertex
 10
754.6423338384045
 20
272.6513323418392
 30
0.0
  0
VERTEX
  5
735
330
727
100
AcDbEntity
  8
4
100
AcDbVertex
100
AcDb2dVertex
 10
754.6746378384043
 20
272.4898163418392
 30
0.0
  0
VERTEX
  5
736
330
727
100
AcDbEntity
  8
4
100
AcDbVertex
100
AcDb2dVertex
 10
754.7069408384043
 20
272.3606033418392
 30
0.0
  0
VERTEX
  5
737
330
727
100
AcDbEntity
  8
4
100
AcDbVertex
100
AcDb2dVertex
 10
754.7553958384042
 20
272.2475413418393
 30
0.0
  0
VERTEX
  5
738
330
727
100
AcDbEntity
  8
4
100
AcDbVertex
100
AcDb2dVertex
 10
754.7553958384042
 20
272.2475413418393
 30
0.0
  0
SEQEND
  5
739
330
727
100
AcDbEntity
  8
4
  0
POLYLINE
  5
73A
330
1F
100
AcDbEntity
  8
4
100
AcDb2dPolyline
 66
     1
 10
0.0
 20
0.0
 30
0.0
  0
VERTEX
  5
73B
330
73A
100
AcDbEntity
  8
4
100
AcDbVertex
100
AcDb2dVertex
 10
758.4656498384044
 20
269.9563213418392
 30
0.0
  0
VERTEX
  5
73C
330
73A
100
AcDbEntity
  8
4
100
AcDbVertex
100
AcDb2dVertex
 10
758.4656498384044
 20
275.5240103418391
 30
0.0
  0
VERTEX
  5
73D
330
73A
100
AcDbEntity
  8
4
100
AcDbVertex
100
AcDb2dVertex
 10
758.4818018384046
 20
275.7339813418393
 30
0.0
  0
VERTEX
  5
73E
330
73A
100
AcDbEntity
  8
4
100
AcDbVertex
100
AcDb2dVertex
 10
758.5464078384053
 20
275.9762553418392
 30
0.0
  0
VERTEX
  5
73F
330
73A
100
AcDbEntity
  8
4
100
AcDbVertex
100
AcDb2dVertex
 10
758.6756208384042
 20
276.2346813418392
 30
0.0
  0
VERTEX
  5
740
330
73A
100
AcDbEntity
  8
4
100
AcDbVertex
100
AcDb2dVertex
 10
758.7563788384043
 20
276.3638933418391
 30
0.0
  0
VERTEX
  5
741
330
73A
100
AcDbEntity
  8
4
100
AcDbVertex
100
AcDb2dVertex
 10
758.8694398384043
 20
276.4931063418392
 30
0.0
  0
VERTEX
  5
742
330
73A
100
AcDbEntity
  8
4
100
AcDbVertex
100
AcDb2dVertex
 10
759.0148048384055
 20
276.6038603418391
 30
0.0
  0
VERTEX
  5
743
330
73A
100
AcDbEntity
  8
4
100
AcDbVertex
100
AcDb2dVertex
 10
759.1763208384043
 20
276.7169213418394
 30
0.0
  0
VERTEX
  5
744
330
73A
100
AcDbEntity
  8
4
100
AcDbVertex
100
AcDb2dVertex
 10
759.3862918384045
 20
276.7976793418392
 30
0.0
  0
VERTEX
  5
745
330
73A
100
AcDbEntity
  8
4
100
AcDbVertex
100
AcDb2dVertex
 10
759.6285658384056
 20
276.8784373418394
 30
0.0
  0
VERTEX
  5
746
330
73A
100
AcDbEntity
  8
4
100
AcDbVertex
100
AcDb2dVertex
 10
759.9031428384051
 20
276.9268923418392
 30
0.0
  0
VERTEX
  5
747
330
73A
100
AcDbEntity
  8
4
100
AcDbVertex
100
AcDb2dVertex
 10
760.2100228384053
 20
276.9430443418394
 30
0.0
  0
VERTEX
  5
748
330
73A
100
AcDbEntity
  8
4
100
AcDbVertex
100
AcDb2dVertex
 10
760.7891738384044
 20
276.9430443418394
 30
0.0
  0
VERTEX
  5
749
330
73A
100
AcDbEntity
  8
4
100
AcDbVertex
100
AcDb2dVertex
 10
760.7891738384044
 20
275.7016783418392
 30
0.0
  0
VERTEX
  5
74A
330
73A
100
AcDbEntity
  8
4
100
AcDbVertex
100
AcDb2dVertex
 10
760.6138138384054
 20
275.7016783418392
 30
0.0
  0
VERTEX
  5
74B
330
73A
100
AcDbEntity
  8
4
100
AcDbVertex
100
AcDb2dVertex
 10
760.5330558384054
 20
275.6855263418391
 30
0.0
  0
VERTEX
  5
74C
330
73A
100
AcDbEntity
  8
4
100
AcDbVertex
100
AcDb2dVertex
 10
760.3230848384042
 20
275.6370713418393
 30
0.0
  0
VERTEX
  5
74D
330
73A
100
AcDbEntity
  8
4
100
AcDbVertex
100
AcDb2dVertex
 10
760.2261748384046
 20
275.5563133418392
 30
0.0
  0
VERTEX
  5
74E
330
73A
100
AcDbEntity
  8
4
100
AcDbVertex
100
AcDb2dVertex
 10
760.1292648384044
 20
275.4594043418392
 30
0.0
  0
VERTEX
  5
74F
330
73A
100
AcDbEntity
  8
4
100
AcDbVertex
100
AcDb2dVertex
 10
760.0646588384043
 20
275.3301913418392
 30
0.0
  0
VERTEX
  5
750
330
73A
100
AcDbEntity
  8
4
100
AcDbVertex
100
AcDb2dVertex
 10
760.0323558384046
 20
275.1525233418393
 30
0.0
  0
VERTEX
  5
751
330
73A
100
AcDbEntity
  8
4
100
AcDbVertex
100
AcDb2dVertex
 10
760.0323558384046
 20
274.6195203418392
 30
0.0
  0
VERTEX
  5
752
330
73A
100
AcDbEntity
  8
4
100
AcDbVertex
100
AcDb2dVertex
 10
760.7268748384056
 20
274.6195203418392
 30
0.0
  0
VERTEX
  5
753
330
73A
100
AcDbEntity
  8
4
100
AcDbVertex
100
AcDb2dVertex
 10
760.7268748384056
 20
273.4104573418393
 30
0.0
  0
VERTEX
  5
754
330
73A
100
AcDbEntity
  8
4
100
AcDbVertex
100
AcDb2dVertex
 10
760.0323558384046
 20
273.4104573418393
 30
0.0
  0
VERTEX
  5
755
330
73A
100
AcDbEntity
  8
4
100
AcDbVertex
100
AcDb2dVertex
 10
760.0323558384046
 20
269.9563213418392
 30
0.0
  0
VERTEX
  5
756
330
73A
100
AcDbEntity
  8
4
100
AcDbVertex
100
AcDb2dVertex
 10
758.4656498384044
 20
269.9563213418392
 30
0.0
  0
VERTEX
  5
757
330
73A
100
AcDbEntity
  8
4
100
AcDbVertex
100
AcDb2dVertex
 10
758.4656498384044
 20
269.9563213418392
 30
0.0
  0
SEQEND
  5
758
330
73A
100
AcDbEntity
  8
4
  0
POLYLINE
  5
759
330
1F
100
AcDbEntity
  8
4
100
AcDb2dPolyline
 66
     1
 10
0.0
 20
0.0
 30
0.0
  0
VERTEX
  5
75A
330
759
100
AcDbEntity
  8
4
100
AcDbVertex
100
AcDb2dVertex
 10
768.5996288384042
 20
274.9910073418393
 30
0.0
  0
VERTEX
  5
75B
330
759
100
AcDbEntity
  8
4
100
AcDbVertex
100
AcDb2dVertex
 10
770.1478748384045
 20
274.9910073418393
 30
0.0
  0
VERTEX
  5
75C
330
759
100
AcDbEntity
  8
4
100
AcDbVertex
100
AcDb2dVertex
 10
770.1478748384045
 20
274.0565213418391
 30
0.0
  0
VERTEX
  5
75D
330
759
100
AcDbEntity
  8
4
100
AcDbVertex
100
AcDb2dVertex
 10
770.1478748384045
 20
273.9596123418392
 30
0.0
  0
VERTEX
  5
75E
330
759
100
AcDbEntity
  8
4
100
AcDbVertex
100
AcDb2dVertex
 10
770.1963298384055
 20
273.7334893418391
 30
0.0
  0
VERTEX
  5
75F
330
759
100
AcDbEntity
  8
4
100
AcDbVertex
100
AcDb2dVertex
 10
770.2609368384043
 20
273.6042763418392
 30
0.0
  0
VERTEX
  5
760
330
759
100
AcDbEntity
  8
4
100
AcDbVertex
100
AcDb2dVertex
 10
770.3578458384042
 20
273.5073673418393
 30
0.0
  0
VERTEX
  5
761
330
759
100
AcDbEntity
  8
4
100
AcDbVertex
100
AcDb2dVertex
 10
770.5193618384043
 20
273.4266093418392
 30
0.0
  0
VERTEX
  5
762
330
759
100
AcDbEntity
  8
4
100
AcDbVertex
100
AcDb2dVertex
 10
770.7131808384043
 20
273.4104573418393
 30
0.0
  0
VERTEX
  5
763
330
759
100
AcDbEntity
  8
4
100
AcDbVertex
100
AcDb2dVertex
 10
770.9070008384053
 20
273.4266093418392
 30
0.0
  0
VERTEX
  5
764
330
759
100
AcDbEntity
  8
4
100
AcDbVertex
100
AcDb2dVertex
 10
771.0685168384046
 20
273.5073673418393
 30
0.0
  0
VERTEX
  5
765
330
759
100
AcDbEntity
  8
4
100
AcDbVertex
100
AcDb2dVertex
 10
771.1815778384044
 20
273.6204283418392
 30
0.0
  0
VERTEX
  5
766
330
759
100
AcDbEntity
  8
4
100
AcDbVertex
100
AcDb2dVertex
 10
771.2461838384045
 20
273.7334893418391
 30
0.0
  0
VERTEX
  5
767
330
759
100
AcDbEntity
  8
4
100
AcDbVertex
100
AcDb2dVertex
 10
771.3107908384041
 20
273.9596123418392
 30
0.0
  0
VERTEX
  5
768
330
759
100
AcDbEntity
  8
4
100
AcDbVertex
100
AcDb2dVertex
 10
771.3269418384045
 20
274.0726733418393
 30
0.0
  0
VERTEX
  5
769
330
759
100
AcDbEntity
  8
4
100
AcDbVertex
100
AcDb2dVertex
 10
771.3269418384045
 20
274.9910073418393
 30
0.0
  0
VERTEX
  5
76A
330
759
100
AcDbEntity
  8
4
100
AcDbVertex
100
AcDb2dVertex
 10
772.8428858384043
 20
274.9910073418393
 30
0.0
  0
VERTEX
  5
76B
330
759
100
AcDbEntity
  8
4
100
AcDbVertex
100
AcDb2dVertex
 10
772.8428858384043
 20
273.9111573418393
 30
0.0
  0
VERTEX
  5
76C
330
759
100
AcDbEntity
  8
4
100
AcDbVertex
100
AcDb2dVertex
 10
772.8428858384043
 20
273.7496413418393
 30
0.0
  0
VERTEX
  5
76D
330
759
100
AcDbEntity
  8
4
100
AcDbVertex
100
AcDb2dVertex
 10
772.7782798384042
 20
273.3943053418392
 30
0.0
  0
VERTEX
  5
76E
330
759
100
AcDbEntity
  8
4
100
AcDbVertex
100
AcDb2dVertex
 10
772.6975218384043
 20
273.1843353418392
 30
0.0
  0
VERTEX
  5
76F
330
759
100
AcDbEntity
  8
4
100
AcDbVertex
100
AcDb2dVertex
 10
772.5683088384045
 20
272.9743643418392
 30
0.0
  0
VERTEX
  5
770
330
759
100
AcDbEntity
  8
4
100
AcDbVertex
100
AcDb2dVertex
 10
772.4067928384044
 20
272.7805443418392
 30
0.0
  0
VERTEX
  5
771
330
759
100
AcDbEntity
  8
4
100
AcDbVertex
100
AcDb2dVertex
 10
772.1829778384056
 20
272.6351803418392
 30
0.0
  0
VERTEX
  5
772
330
759
100
AcDbEntity
  8
4
100
AcDbVertex
100
AcDb2dVertex
 10
772.2937308384055
 20
272.5705743418394
 30
0.0
  0
VERTEX
  5
773
330
759
100
AcDbEntity
  8
4
100
AcDbVertex
100
AcDb2dVertex
 10
772.4229438384043
 20
272.4898163418392
 30
0.0
  0
VERTEX
  5
774
330
759
100
AcDbEntity
  8
4
100
AcDbVertex
100
AcDb2dVertex
 10
772.5521568384045
 20
272.3606033418392
 30
0.0
  0
VERTEX
  5
775
330
759
100
AcDbEntity
  8
4
100
AcDbVertex
100
AcDb2dVertex
 10
772.6975218384043
 20
272.1829353418392
 30
0.0
  0
VERTEX
  5
776
330
759
100
AcDbEntity
  8
4
100
AcDbVertex
100
AcDb2dVertex
 10
772.8105828384043
 20
271.9591203418393
 30
0.0
  0
VERTEX
  5
777
330
759
100
AcDbEntity
  8
4
100
AcDbVertex
100
AcDb2dVertex
 10
772.9074918384054
 20
271.6683913418392
 30
0.0
  0
VERTEX
  5
778
330
759
100
AcDbEntity
  8
4
100
AcDbVertex
100
AcDb2dVertex
 10
772.9397958384045
 20
271.3130563418391
 30
0.0
  0
VERTEX
  5
779
330
759
100
AcDbEntity
  8
4
100
AcDbVertex
100
AcDb2dVertex
 10
772.9397958384045
 20
269.9563213418392
 30
0.0
  0
VERTEX
  5
77A
330
759
100
AcDbEntity
  8
4
100
AcDbVertex
100
AcDb2dVertex
 10
771.3430938384042
 20
269.9563213418392
 30
0.0
  0
VERTEX
  5
77B
330
759
100
AcDbEntity
  8
4
100
AcDbVertex
100
AcDb2dVertex
 10
771.3430938384042
 20
271.1838433418392
 30
0.0
  0
VERTEX
  5
77C
330
759
100
AcDbEntity
  8
4
100
AcDbVertex
100
AcDb2dVertex
 10
771.3430938384042
 20
271.2969043418392
 30
0.0
  0
VERTEX
  5
77D
330
759
100
AcDbEntity
  8
4
100
AcDbVertex
100
AcDb2dVertex
 10
771.3269418384045
 20
271.4261173418393
 30
0.0
  0
VERTEX
  5
77E
330
759
100
AcDbEntity
  8
4
100
AcDbVertex
100
AcDb2dVertex
 10
771.2946388384046
 20
271.5553303418392
 30
0.0
  0
VERTEX
  5
77F
330
759
100
AcDbEntity
  8
4
100
AcDbVertex
100
AcDb2dVertex
 10
771.2300328384042
 20
271.7006943418393
 30
0.0
  0
VERTEX
  5
780
330
759
100
AcDbEntity
  8
4
100
AcDbVertex
100
AcDb2dVertex
 10
771.1331228384043
 20
271.8299073418392
 30
0.0
  0
VERTEX
  5
781
330
759
100
AcDbEntity
  8
4
100
AcDbVertex
100
AcDb2dVertex
 10
770.9716068384043
 20
271.9106653418393
 30
0.0
  0
VERTEX
  5
782
330
759
100
AcDbEntity
  8
4
100
AcDbVertex
100
AcDb2dVertex
 10
770.7616358384053
 20
271.9429683418392
 30
0.0
  0
VERTEX
  5
783
330
759
100
AcDbEntity
  8
4
100
AcDbVertex
100
AcDb2dVertex
 10
770.5355138384045
 20
271.9106653418393
 30
0.0
  0
VERTEX
  5
784
330
759
100
AcDbEntity
  8
4
100
AcDbVertex
100
AcDb2dVertex
 10
770.3739978384044
 20
271.8299073418392
 30
0.0
  0
VERTEX
  5
785
330
759
100
AcDbEntity
  8
4
100
AcDbVertex
100
AcDb2dVertex
 10
770.2609368384043
 20
271.7006943418393
 30
0.0
  0
VERTEX
  5
786
330
759
100
AcDbEntity
  8
4
100
AcDbVertex
100
AcDb2dVertex
 10
770.1801788384043
 20
271.5714813418391
 30
0.0
  0
VERTEX
  5
787
330
759
100
AcDbEntity
  8
4
100
AcDbVertex
100
AcDb2dVertex
 10
770.1478748384045
 20
271.4261173418393
 30
0.0
  0
VERTEX
  5
788
330
759
100
AcDbEntity
  8
4
100
AcDbVertex
100
AcDb2dVertex
 10
770.1317238384042
 20
271.3130563418391
 30
0.0
  0
VERTEX
  5
789
330
759
100
AcDbEntity
  8
4
100
AcDbVertex
100
AcDb2dVertex
 10
770.1155718384053
 20
271.1838433418392
 30
0.0
  0
VERTEX
  5
78A
330
759
100
AcDbEntity
  8
4
100
AcDbVertex
100
AcDb2dVertex
 10
770.1155718384053
 20
269.9563213418392
 30
0.0
  0
VERTEX
  5
78B
330
759
100
AcDbEntity
  8
4
100
AcDbVertex
100
AcDb2dVertex
 10
768.5027188384045
 20
269.9563213418392
 30
0.0
  0
VERTEX
  5
78C
330
759
100
AcDbEntity
  8
4
100
AcDbVertex
100
AcDb2dVertex
 10
768.5027188384045
 20
271.2969043418392
 30
0.0
  0
VERTEX
  5
78D
330
759
100
AcDbEntity
  8
4
100
AcDbVertex
100
AcDb2dVertex
 10
768.5188708384055
 20
271.4584203418392
 30
0.0
  0
VERTEX
  5
78E
330
759
100
AcDbEntity
  8
4
100
AcDbVertex
100
AcDb2dVertex
 10
768.5511738384044
 20
271.6360883418391
 30
0.0
  0
VERTEX
  5
78F
330
759
100
AcDbEntity
  8
4
100
AcDbVertex
100
AcDb2dVertex
 10
768.6157798384043
 20
271.8460593418392
 30
0.0
  0
VERTEX
  5
790
330
759
100
AcDbEntity
  8
4
100
AcDbVertex
100
AcDb2dVertex
 10
768.6965378384045
 20
272.0698743418392
 30
0.0
  0
VERTEX
  5
791
330
759
100
AcDbEntity
  8
4
100
AcDbVertex
100
AcDb2dVertex
 10
768.8419028384044
 20
272.2959963418392
 30
0.0
  0
VERTEX
  5
792
330
759
100
AcDbEntity
  8
4
100
AcDbVertex
100
AcDb2dVertex
 10
769.0195698384043
 20
272.4898163418392
 30
0.0
  0
VERTEX
  5
793
330
759
100
AcDbEntity
  8
4
100
AcDbVertex
100
AcDb2dVertex
 10
769.1326318384042
 20
272.5705743418394
 30
0.0
  0
VERTEX
  5
794
330
759
100
AcDbEntity
  8
4
100
AcDbVertex
100
AcDb2dVertex
 10
769.2779958384042
 20
272.6351803418392
 30
0.0
  0
VERTEX
  5
795
330
759
100
AcDbEntity
  8
4
100
AcDbVertex
100
AcDb2dVertex
 10
769.1649348384055
 20
272.6997863418392
 30
0.0
  0
VERTEX
  5
796
330
759
100
AcDbEntity
  8
4
100
AcDbVertex
100
AcDb2dVertex
 10
769.0680248384044
 20
272.7805443418392
 30
0.0
  0
VERTEX
  5
797
330
759
100
AcDbEntity
  8
4
100
AcDbVertex
100
AcDb2dVertex
 10
768.9388118384043
 20
272.9097573418392
 30
0.0
  0
VERTEX
  5
798
330
759
100
AcDbEntity
  8
4
100
AcDbVertex
100
AcDb2dVertex
 10
768.8095988384055
 20
273.0712733418392
 30
0.0
  0
VERTEX
  5
799
330
759
100
AcDbEntity
  8
4
100
AcDbVertex
100
AcDb2dVertex
 10
768.7126898384056
 20
273.2973963418392
 30
0.0
  0
VERTEX
  5
79A
330
759
100
AcDbEntity
  8
4
100
AcDbVertex
100
AcDb2dVertex
 10
768.6319318384055
 20
273.5558213418392
 30
0.0
  0
VERTEX
  5
79B
330
759
100
AcDbEntity
  8
4
100
AcDbVertex
100
AcDb2dVertex
 10
768.5996288384042
 20
273.8950053418391
 30
0.0
  0
VERTEX
  5
79C
330
759
100
AcDbEntity
  8
4
100
AcDbVertex
100
AcDb2dVertex
 10
768.5996288384042
 20
274.9910073418393
 30
0.0
  0
VERTEX
  5
79D
330
759
100
AcDbEntity
  8
4
100
AcDbVertex
100
AcDb2dVertex
 10
768.5996288384042
 20
274.9910073418393
 30
0.0
  0
SEQEND
  5
79E
330
759
100
AcDbEntity
  8
4
  0
POLYLINE
  5
79F
330
1F
100
AcDbEntity
  8
4
100
AcDb2dPolyline
 66
     1
 10
0.0
 20
0.0
 30
0.0
  0
VERTEX
  5
7A0
330
79F
100
AcDbEntity
  8
4
100
AcDbVertex
100
AcDb2dVertex
 10
768.0181708384044
 20
271.8945143418391
 30
0.0
  0
VERTEX
  5
7A1
330
79F
100
AcDbEntity
  8
4
100
AcDbVertex
100
AcDb2dVertex
 10
768.0181708384044
 20
270.3116563418391
 30
0.0
  0
VERTEX
  5
7A2
330
79F
100
AcDbEntity
  8
4
100
AcDbVertex
100
AcDb2dVertex
 10
767.9051098384054
 20
270.2470503418392
 30
0.0
  0
VERTEX
  5
7A3
330
79F
100
AcDbEntity
  8
4
100
AcDbVertex
100
AcDb2dVertex
 10
767.5520818384054
 20
270.0855343418392
 30
0.0
  0
VERTEX
  5
7A4
330
79F
100
AcDbEntity
  8
4
100
AcDbVertex
100
AcDb2dVertex
 10
767.3098078384042
 20
270.0047763418393
 30
0.0
  0
VERTEX
  5
7A5
330
79F
100
AcDbEntity
  8
4
100
AcDbVertex
100
AcDb2dVertex
 10
767.0029268384044
 20
269.9401693418394
 30
0.0
  0
VERTEX
  5
7A6
330
79F
100
AcDbEntity
  8
4
100
AcDbVertex
100
AcDb2dVertex
 10
766.6637428384043
 20
269.8917153418394
 30
0.0
  0
VERTEX
  5
7A7
330
79F
100
AcDbEntity
  8
4
100
AcDbVertex
100
AcDb2dVertex
 10
766.2922558384053
 20
269.8755633418392
 30
0.0
  0
VERTEX
  5
7A8
330
79F
100
AcDbEntity
  8
4
100
AcDbVertex
100
AcDb2dVertex
 10
766.0176788384053
 20
269.8755633418392
 30
0.0
  0
VERTEX
  5
7A9
330
79F
100
AcDbEntity
  8
4
100
AcDbVertex
100
AcDb2dVertex
 10
765.7431018384043
 20
269.9078663418392
 30
0.0
  0
VERTEX
  5
7AA
330
79F
100
AcDbEntity
  8
4
100
AcDbVertex
100
AcDb2dVertex
 10
765.4846758384044
 20
269.9724733418392
 30
0.0
  0
VERTEX
  5
7AB
330
79F
100
AcDbEntity
  8
4
100
AcDbVertex
100
AcDb2dVertex
 10
765.2124058384052
 20
270.0370793418392
 30
0.0
  0
VERTEX
  5
7AC
330
79F
100
AcDbEntity
  8
4
100
AcDbVertex
100
AcDb2dVertex
 10
764.9701318384042
 20
270.1339893418392
 30
0.0
  0
VERTEX
  5
7AD
330
79F
100
AcDbEntity
  8
4
100
AcDbVertex
100
AcDb2dVertex
 10
764.7278578384046
 20
270.2632013418392
 30
0.0
  0
VERTEX
  5
7AE
330
79F
100
AcDbEntity
  8
4
100
AcDbVertex
100
AcDb2dVertex
 10
764.5017358384045
 20
270.3924143418392
 30
0.0
  0
VERTEX
  5
7AF
330
79F
100
AcDbEntity
  8
4
100
AcDbVertex
100
AcDb2dVertex
 10
764.2917648384043
 20
270.5539303418392
 30
0.0
  0
VERTEX
  5
7B0
330
79F
100
AcDbEntity
  8
4
100
AcDbVertex
100
AcDb2dVertex
 10
764.0817938384055
 20
270.7477503418393
 30
0.0
  0
VERTEX
  5
7B1
330
79F
100
AcDbEntity
  8
4
100
AcDbVertex
100
AcDb2dVertex
 10
763.9041258384052
 20
270.9577203418391
 30
0.0
  0
VERTEX
  5
7B2
330
79F
100
AcDbEntity
  8
4
100
AcDbVertex
100
AcDb2dVertex
 10
763.7587618384043
 20
271.1838433418392
 30
0.0
  0
VERTEX
  5
7B3
330
79F
100
AcDbEntity
  8
4
100
AcDbVertex
100
AcDb2dVertex
 10
763.6295488384055
 20
271.4261173418393
 30
0.0
  0
VERTEX
  5
7B4
330
79F
100
AcDbEntity
  8
4
100
AcDbVertex
100
AcDb2dVertex
 10
763.5164878384046
 20
271.7006943418393
 30
0.0
  0
VERTEX
  5
7B5
330
79F
100
AcDbEntity
  8
4
100
AcDbVertex
100
AcDb2dVertex
 10
763.4357298384054
 20
271.9914233418392
 30
0.0
  0
VERTEX
  5
7B6
330
79F
100
AcDbEntity
  8
4
100
AcDbVertex
100
AcDb2dVertex
 10
763.3872748384044
 20
272.2959963418392
 30
0.0
  0
VERTEX
  5
7B7
330
79F
100
AcDbEntity
  8
4
100
AcDbVertex
100
AcDb2dVertex
 10
763.3711228384043
 20
272.6351803418392
 30
0.0
  0
VERTEX
  5
7B8
330
79F
100
AcDbEntity
  8
4
100
AcDbVertex
100
AcDb2dVertex
 10
763.4195778384044
 20
273.0874253418393
 30
0.0
  0
VERTEX
  5
7B9
330
79F
100
AcDbEntity
  8
4
100
AcDbVertex
100
AcDb2dVertex
 10
763.5326388384044
 20
273.5235183418392
 30
0.0
  0
VERTEX
  5
7BA
330
79F
100
AcDbEntity
  8
4
100
AcDbVertex
100
AcDb2dVertex
 10
763.6133968384045
 20
273.7334893418391
 30
0.0
  0
VERTEX
  5
7BB
330
79F
100
AcDbEntity
  8
4
100
AcDbVertex
100
AcDb2dVertex
 10
763.7264588384051
 20
273.9434603418391
 30
0.0
  0
VERTEX
  5
7BC
330
79F
100
AcDbEntity
  8
4
100
AcDbVertex
100
AcDb2dVertex
 10
763.8556708384054
 20
274.1372793418392
 30
0.0
  0
VERTEX
  5
7BD
330
79F
100
AcDbEntity
  8
4
100
AcDbVertex
100
AcDb2dVertex
 10
763.9848838384042
 20
274.3126403418393
 30
0.0
  0
VERTEX
  5
7BE
330
79F
100
AcDbEntity
  8
4
100
AcDbVertex
100
AcDb2dVertex
 10
764.1625518384046
 20
274.4741563418393
 30
0.0
  0
VERTEX
  5
7BF
330
79F
100
AcDbEntity
  8
4
100
AcDbVertex
100
AcDb2dVertex
 10
764.3402198384044
 20
274.6356723418393
 30
0.0
  0
VERTEX
  5
7C0
330
79F
100
AcDbEntity
  8
4
100
AcDbVertex
100
AcDb2dVertex
 10
764.5340388384054
 20
274.7648853418392
 30
0.0
  0
VERTEX
  5
7C1
330
79F
100
AcDbEntity
  8
4
100
AcDbVertex
100
AcDb2dVertex
 10
764.7601608384055
 20
274.8779463418392
 30
0.0
  0
VERTEX
  5
7C2
330
79F
100
AcDbEntity
  8
4
100
AcDbVertex
100
AcDb2dVertex
 10
765.0024348384056
 20
274.9748553418392
 30
0.0
  0
VERTEX
  5
7C3
330
79F
100
AcDbEntity
  8
4
100
AcDbVertex
100
AcDb2dVertex
 10
765.2608608384046
 20
275.0394623418392
 30
0.0
  0
VERTEX
  5
7C4
330
79F
100
AcDbEntity
  8
4
100
AcDbVertex
100
AcDb2dVertex
 10
765.5331308384045
 20
275.0879173418392
 30
0.0
  0
VERTEX
  5
7C5
330
79F
100
AcDbEntity
  8
4
100
AcDbVertex
100
AcDb2dVertex
 10
765.8400108384055
 20
275.1040683418391
 30
0.0
  0
VERTEX
  5
7C6
330
79F
100
AcDbEntity
  8
4
100
AcDbVertex
100
AcDb2dVertex
 10
766.2599528384046
 20
275.0717653418392
 30
0.0
  0
VERTEX
  5
7C7
330
79F
100
AcDbEntity
  8
4
100
AcDbVertex
100
AcDb2dVertex
 10
766.6637428384043
 20
274.9587043418391
 30
0.0
  0
VERTEX
  5
7C8
330
79F
100
AcDbEntity
  8
4
100
AcDbVertex
100
AcDb2dVertex
 10
767.0352298384043
 20
274.7971883418393
 30
0.0
  0
VERTEX
  5
7C9
330
79F
100
AcDbEntity
  8
4
100
AcDbVertex
100
AcDb2dVertex
 10
767.3744138384043
 20
274.5872173418391
 30
0.0
  0
VERTEX
  5
7CA
330
79F
100
AcDbEntity
  8
4
100
AcDbVertex
100
AcDb2dVertex
 10
767.6789868384046
 20
274.3287913418392
 30
0.0
  0
VERTEX
  5
7CB
330
79F
100
AcDbEntity
  8
4
100
AcDbVertex
100
AcDb2dVertex
 10
767.9212608384043
 20
274.0565213418391
 30
0.0
  0
VERTEX
  5
7CC
330
79F
100
AcDbEntity
  8
4
100
AcDbVertex
100
AcDb2dVertex
 10
768.1312318384044
 20
273.7334893418391
 30
0.0
  0
VERTEX
  5
7CD
330
79F
100
AcDbEntity
  8
4
100
AcDbVertex
100
AcDb2dVertex
 10
768.2765958384045
 20
273.4104573418393
 30
0.0
  0
VERTEX
  5
7CE
330
79F
100
AcDbEntity
  8
4
100
AcDbVertex
100
AcDb2dVertex
 10
765.8723148384043
 20
271.3130563418391
 30
0.0
  0
VERTEX
  5
7CF
330
79F
100
AcDbEntity
  8
4
100
AcDbVertex
100
AcDb2dVertex
 10
765.9692238384043
 20
271.2969043418392
 30
0.0
  0
VERTEX
  5
7D0
330
79F
100
AcDbEntity
  8
4
100
AcDbVertex
100
AcDb2dVertex
 10
766.1953468384056
 20
271.2484493418392
 30
0.0
  0
VERTEX
  5
7D1
330
79F
100
AcDbEntity
  8
4
100
AcDbVertex
100
AcDb2dVertex
 10
766.5183788384053
 20
271.2484493418392
 30
0.0
  0
VERTEX
  5
7D2
330
79F
100
AcDbEntity
  8
4
100
AcDbVertex
100
AcDb2dVertex
 10
766.7121978384044
 20
271.2646013418392
 30
0.0
  0
VERTEX
  5
7D3
330
79F
100
AcDbEntity
  8
4
100
AcDbVertex
100
AcDb2dVertex
 10
766.9060168384046
 20
271.3130563418391
 30
0.0
  0
VERTEX
  5
7D4
330
79F
100
AcDbEntity
  8
4
100
AcDbVertex
100
AcDb2dVertex
 10
767.3098078384042
 20
271.4584203418392
 30
0.0
  0
VERTEX
  5
7D5
330
79F
100
AcDbEntity
  8
4
100
AcDbVertex
100
AcDb2dVertex
 10
767.6628348384054
 20
271.6522393418391
 30
0.0
  0
VERTEX
  5
7D6
330
79F
100
AcDbEntity
  8
4
100
AcDbVertex
100
AcDb2dVertex
 10
768.0181708384044
 20
271.8945143418391
 30
0.0
  0
VERTEX
  5
7D7
330
79F
100
AcDbEntity
  8
4
100
AcDbVertex
100
AcDb2dVertex
 10
768.0181708384044
 20
271.8945143418391
 30
0.0
  0
SEQEND
  5
7D8
330
79F
100
AcDbEntity
  8
4
  0
POLYLINE
  5
7D9
330
1F
100
AcDbEntity
  8
4
100
AcDb2dPolyline
 66
     1
 10
0.0
 20
0.0
 30
0.0
  0
VERTEX
  5
7DA
330
7D9
100
AcDbEntity
  8
4
100
AcDbVertex
100
AcDb2dVertex
 10
764.9055258384044
 20
272.2475413418393
 30
0.0
  0
VERTEX
  5
7DB
330
7D9
100
AcDbEntity
  8
4
100
AcDbVertex
100
AcDb2dVertex
 10
766.4699238384051
 20
273.5558213418392
 30
0.0
  0
VERTEX
  5
7DC
330
7D9
100
AcDbEntity
  8
4
100
AcDbVertex
100
AcDb2dVertex
 10
766.3568628384044
 20
273.6204283418392
 30
0.0
  0
VERTEX
  5
7DD
330
7D9
100
AcDbEntity
  8
4
100
AcDbVertex
100
AcDb2dVertex
 10
766.2276498384041
 20
273.6850343418392
 30
0.0
  0
VERTEX
  5
7DE
330
7D9
100
AcDbEntity
  8
4
100
AcDbVertex
100
AcDb2dVertex
 10
766.0499818384042
 20
273.7334893418391
 30
0.0
  0
VERTEX
  5
7DF
330
7D9
100
AcDbEntity
  8
4
100
AcDbVertex
100
AcDb2dVertex
 10
765.8561628384043
 20
273.7657923418392
 30
0.0
  0
VERTEX
  5
7E0
330
7D9
100
AcDbEntity
  8
4
100
AcDbVertex
100
AcDb2dVertex
 10
765.6300408384042
 20
273.7496413418393
 30
0.0
  0
VERTEX
  5
7E1
330
7D9
100
AcDbEntity
  8
4
100
AcDbVertex
100
AcDb2dVertex
 10
765.3877668384044
 20
273.6688833418393
 30
0.0
  0
VERTEX
  5
7E2
330
7D9
100
AcDbEntity
  8
4
100
AcDbVertex
100
AcDb2dVertex
 10
765.1639508384042
 20
273.5073673418393
 30
0.0
  0
VERTEX
  5
7E3
330
7D9
100
AcDbEntity
  8
4
100
AcDbVertex
100
AcDb2dVertex
 10
764.9701318384042
 20
273.2812443418392
 30
0.0
  0
VERTEX
  5
7E4
330
7D9
100
AcDbEntity
  8
4
100
AcDbVertex
100
AcDb2dVertex
 10
764.8570708384043
 20
273.0551223418391
 30
0.0
  0
VERTEX
  5
7E5
330
7D9
100
AcDbEntity
  8
4
100
AcDbVertex
100
AcDb2dVertex
 10
764.8086158384042
 20
272.8451513418392
 30
0.0
  0
VERTEX
  5
7E6
330
7D9
100
AcDbEntity
  8
4
100
AcDbVertex
100
AcDb2dVertex
 10
764.7924648384043
 20
272.6513323418392
 30
0.0
  0
VERTEX
  5
7E7
330
7D9
100
AcDbEntity
  8
4
100
AcDbVertex
100
AcDb2dVertex
 10
764.8247678384043
 20
272.4898163418392
 30
0.0
  0
VERTEX
  5
7E8
330
7D9
100
AcDbEntity
  8
4
100
AcDbVertex
100
AcDb2dVertex
 10
764.8570708384043
 20
272.3606033418392
 30
0.0
  0
VERTEX
  5
7E9
330
7D9
100
AcDbEntity
  8
4
100
AcDbVertex
100
AcDb2dVertex
 10
764.9055258384044
 20
272.2475413418393
 30
0.0
  0
VERTEX
  5
7EA
330
7D9
100
AcDbEntity
  8
4
100
AcDbVertex
100
AcDb2dVertex
 10
764.9055258384044
 20
272.2475413418393
 30
0.0
  0
SEQEND
  5
7EB
330
7D9
100
AcDbEntity
  8
4
  0
POLYLINE
  5
7EC
330
1F
100
AcDbEntity
  8
4
100
AcDb2dPolyline
 66
     1
 10
0.0
 20
0.0
 30
0.0
  0
VERTEX
  5
7ED
330
7EC
100
AcDbEntity
  8
4
100
AcDbVertex
100
AcDb2dVertex
 10
776.1233068384042
 20
277.4301243418394
 30
0.0
  0
VERTEX
  5
7EE
330
7EC
100
AcDbEntity
  8
4
100
AcDbVertex
100
AcDb2dVertex
 10
776.1215318384054
 20
277.4851463418392
 30
0.0
  0
VERTEX
  5
7EF
330
7EC
100
AcDbEntity
  8
4
100
AcDbVertex
100
AcDb2dVertex
 10
776.1162068384044
 20
277.5401683418392
 30
0.0
  0
VERTEX
  5
7F0
330
7EC
100
AcDbEntity
  8
4
100
AcDbVertex
100
AcDb2dVertex
 10
776.1108818384043
 20
277.5951903418393
 30
0.0
  0
VERTEX
  5
7F1
330
7EC
100
AcDbEntity
  8
4
100
AcDbVertex
100
AcDb2dVertex
 10
776.1002328384045
 20
277.6484373418393
 30
0.0
  0
VERTEX
  5
7F2
330
7EC
100
AcDbEntity
  8
4
100
AcDbVertex
100
AcDb2dVertex
 10
776.0878088384054
 20
277.7016843418392
 30
0.0
  0
VERTEX
  5
7F3
330
7EC
100
AcDbEntity
  8
4
100
AcDbVertex
100
AcDb2dVertex
 10
776.0736088384044
 20
277.7531563418392
 30
0.0
  0
VERTEX
  5
7F4
330
7EC
100
AcDbEntity
  8
4
100
AcDbVertex
100
AcDb2dVertex
 10
776.0558598384043
 20
277.8046283418394
 30
0.0
  0
VERTEX
  5
7F5
330
7EC
100
AcDbEntity
  8
4
100
AcDbVertex
100
AcDb2dVertex
 10
776.0363358384045
 20
277.8543263418391
 30
0.0
  0
VERTEX
  5
7F6
330
7EC
100
AcDbEntity
  8
4
100
AcDbVertex
100
AcDb2dVertex
 10
776.0150378384044
 20
277.9040233418392
 30
0.0
  0
VERTEX
  5
7F7
330
7EC
100
AcDbEntity
  8
4
100
AcDbVertex
100
AcDb2dVertex
 10
775.9901888384043
 20
277.9501703418392
 30
0.0
  0
VERTEX
  5
7F8
330
7EC
100
AcDbEntity
  8
4
100
AcDbVertex
100
AcDb2dVertex
 10
775.9653398384053
 20
277.9963183418392
 30
0.0
  0
VERTEX
  5
7F9
330
7EC
100
AcDbEntity
  8
4
100
AcDbVertex
100
AcDb2dVertex
 10
775.9351668384043
 20
278.0424653418393
 30
0.0
  0
VERTEX
  5
7FA
330
7EC
100
AcDbEntity
  8
4
100
AcDbVertex
100
AcDb2dVertex
 10
775.9049938384044
 20
278.0850633418392
 30
0.0
  0
VERTEX
  5
7FB
330
7EC
100
AcDbEntity
  8
4
100
AcDbVertex
100
AcDb2dVertex
 10
775.8730448384056
 20
278.1276613418394
 30
0.0
  0
VERTEX
  5
7FC
330
7EC
100
AcDbEntity
  8
4
100
AcDbVertex
100
AcDb2dVertex
 10
775.8375468384045
 20
278.1667083418392
 30
0.0
  0
VERTEX
  5
7FD
330
7EC
100
AcDbEntity
  8
4
100
AcDbVertex
100
AcDb2dVertex
 10
775.8020488384041
 20
278.2057563418392
 30
0.0
  0
VERTEX
  5
7FE
330
7EC
100
AcDbEntity
  8
4
100
AcDbVertex
100
AcDb2dVertex
 10
775.7647758384043
 20
278.2412543418392
 30
0.0
  0
VERTEX
  5
7FF
330
7EC
100
AcDbEntity
  8
4
100
AcDbVertex
100
AcDb2dVertex
 10
775.7239538384044
 20
278.2767523418392
 30
0.0
  0
VERTEX
  5
800
330
7EC
100
AcDbEntity
  8
4
100
AcDbVertex
100
AcDb2dVertex
 10
775.6831308384055
 20
278.3104753418393
 30
0.0
  0
VERTEX
  5
801
330
7EC
100
AcDbEntity
  8
4
100
AcDbVertex
100
AcDb2dVertex
 10
775.6387578384044
 20
278.3406493418393
 30
0.0
  0
VERTEX
  5
802
330
7EC
100
AcDbEntity
  8
4
100
AcDbVertex
100
AcDb2dVertex
 10
775.5943858384055
 20
278.3708223418392
 30
0.0
  0
VERTEX
  5
803
330
7EC
100
AcDbEntity
  8
4
100
AcDbVertex
100
AcDb2dVertex
 10
775.5482378384042
 20
278.3974463418392
 30
0.0
  0
VERTEX
  5
804
330
7EC
100
AcDbEntity
  8
4
100
AcDbVertex
100
AcDb2dVertex
 10
775.5003158384043
 20
278.4222943418393
 30
0.0
  0
VERTEX
  5
805
330
7EC
100
AcDbEntity
  8
4
100
AcDbVertex
100
AcDb2dVertex
 10
775.4523938384043
 20
278.4435933418391
 30
0.0
  0
VERTEX
  5
806
330
7EC
100
AcDbEntity
  8
4
100
AcDbVertex
100
AcDb2dVertex
 10
775.4009218384042
 20
278.4631173418392
 30
0.0
  0
VERTEX
  5
807
330
7EC
100
AcDbEntity
  8
4
100
AcDbVertex
100
AcDb2dVertex
 10
775.3494488384042
 20
278.4808663418393
 30
0.0
  0
VERTEX
  5
808
330
7EC
100
AcDbEntity
  8
4
100
AcDbVertex
100
AcDb2dVertex
 10
775.2979768384046
 20
278.4968403418392
 30
0.0
  0
VERTEX
  5
809
330
7EC
100
AcDbEntity
  8
4
100
AcDbVertex
100
AcDb2dVertex
 10
775.2429548384053
 20
278.5092643418392
 30
0.0
  0
VERTEX
  5
80A
330
7EC
100
AcDbEntity
  8
4
100
AcDbVertex
100
AcDb2dVertex
 10
775.1897078384041
 20
278.5181393418392
 30
0.0
  0
VERTEX
  5
80B
330
7EC
100
AcDbEntity
  8
4
100
AcDbVertex
100
AcDb2dVertex
 10
775.1329108384045
 20
278.5252383418393
 30
0.0
  0
VERTEX
  5
80C
330
7EC
100
AcDbEntity
  8
4
100
AcDbVertex
100
AcDb2dVertex
 10
775.0778898384043
 20
278.5305633418392
 30
0.0
  0
VERTEX
  5
80D
330
7EC
100
AcDbEntity
  8
4
100
AcDbVertex
100
AcDb2dVertex
 10
775.0210928384055
 20
278.5323383418393
 30
0.0
  0
VERTEX
  5
80E
330
7EC
100
AcDbEntity
  8
4
100
AcDbVertex
100
AcDb2dVertex
 10
775.0210928384055
 20
278.2874023418392
 30
0.0
  0
VERTEX
  5
80F
330
7EC
100
AcDbEntity
  8
4
100
AcDbVertex
100
AcDb2dVertex
 10
775.0654648384054
 20
278.2874023418392
 30
0.0
  0
VERTEX
  5
810
330
7EC
100
AcDbEntity
  8
4
100
AcDbVertex
100
AcDb2dVertex
 10
775.1098378384043
 20
278.2838523418392
 30
0.0
  0
VERTEX
  5
811
330
7EC
100
AcDbEntity
  8
4
100
AcDbVertex
100
AcDb2dVertex
 10
775.1524348384053
 20
278.2767523418392
 30
0.0
  0
VERTEX
  5
812
330
7EC
100
AcDbEntity
  8
4
100
AcDbVertex
100
AcDb2dVertex
 10
775.1950328384042
 20
278.2696533418392
 30
0.0
  0
VERTEX
  5
813
330
7EC
100
AcDbEntity
  8
4
100
AcDbVertex
100
AcDb2dVertex
 10
775.2358558384046
 20
278.2607783418393
 30
0.0
  0
VERTEX
  5
814
330
7EC
100
AcDbEntity
  8
4
100
AcDbVertex
100
AcDb2dVertex
 10
775.2766788384044
 20
278.2483543418393
 30
0.0
  0
VERTEX
  5
815
330
7EC
100
AcDbEntity
  8
4
100
AcDbVertex
100
AcDb2dVertex
 10
775.3175008384044
 20
278.2341553418391
 30
0.0
  0
VERTEX
  5
816
330
7EC
100
AcDbEntity
  8
4
100
AcDbVertex
100
AcDb2dVertex
 10
775.3565488384045
 20
278.2199553418392
 30
0.0
  0
VERTEX
  5
817
330
7EC
100
AcDbEntity
  8
4
100
AcDbVertex
100
AcDb2dVertex
 10
775.3938218384043
 20
278.2022063418392
 30
0.0
  0
VERTEX
  5
818
330
7EC
100
AcDbEntity
  8
4
100
AcDbVertex
100
AcDb2dVertex
 10
775.4310948384043
 20
278.1826823418393
 30
0.0
  0
VERTEX
  5
819
330
7EC
100
AcDbEntity
  8
4
100
AcDbVertex
100
AcDb2dVertex
 10
775.4665928384054
 20
278.1613843418393
 30
0.0
  0
VERTEX
  5
81A
330
7EC
100
AcDbEntity
  8
4
100
AcDbVertex
100
AcDb2dVertex
 10
775.5020908384055
 20
278.1400853418393
 30
0.0
  0
VERTEX
  5
81B
330
7EC
100
AcDbEntity
  8
4
100
AcDbVertex
100
AcDb2dVertex
 10
775.5358138384056
 20
278.1152363418392
 30
0.0
  0
VERTEX
  5
81C
330
7EC
100
AcDbEntity
  8
4
100
AcDbVertex
100
AcDb2dVertex
 10
775.5677618384045
 20
278.0903883418393
 30
0.0
  0
VERTEX
  5
81D
330
7EC
100
AcDbEntity
  8
4
100
AcDbVertex
100
AcDb2dVertex
 10
775.5997108384042
 20
278.0619893418392
 30
0.0
  0
VERTEX
  5
81E
330
7EC
100
AcDbEntity
  8
4
100
AcDbVertex
100
AcDb2dVertex
 10
775.6298838384043
 20
278.0335913418393
 30
0.0
  0
VERTEX
  5
81F
330
7EC
100
AcDbEntity
  8
4
100
AcDbVertex
100
AcDb2dVertex
 10
775.6565068384055
 20
278.0034173418392
 30
0.0
  0
VERTEX
  5
820
330
7EC
100
AcDbEntity
  8
4
100
AcDbVertex
100
AcDb2dVertex
 10
775.6849058384043
 20
277.9732443418392
 30
0.0
  0
VERTEX
  5
821
330
7EC
100
AcDbEntity
  8
4
100
AcDbVertex
100
AcDb2dVertex
 10
775.7097548384042
 20
277.9395213418392
 30
0.0
  0
VERTEX
  5
822
330
7EC
100
AcDbEntity
  8
4
100
AcDbVertex
100
AcDb2dVertex
 10
775.7328278384045
 20
277.9057983418393
 30
0.0
  0
VERTEX
  5
823
330
7EC
100
AcDbEntity
  8
4
100
AcDbVertex
100
AcDb2dVertex
 10
775.7559018384043
 20
277.8720753418393
 30
0.0
  0
VERTEX
  5
824
330
7EC
100
AcDbEntity
  8
4
100
AcDbVertex
100
AcDb2dVertex
 10
775.7754258384054
 20
277.8348023418392
 30
0.0
  0
VERTEX
  5
825
330
7EC
100
AcDbEntity
  8
4
100
AcDbVertex
100
AcDb2dVertex
 10
775.7949498384044
 20
277.7993043418393
 30
0.0
  0
VERTEX
  5
826
330
7EC
100
AcDbEntity
  8
4
100
AcDbVertex
100
AcDb2dVertex
 10
775.8126988384043
 20
277.7602563418392
 30
0.0
  0
VERTEX
  5
827
330
7EC
100
AcDbEntity
  8
4
100
AcDbVertex
100
AcDb2dVertex
 10
775.8268978384042
 20
277.7212083418392
 30
0.0
  0
VERTEX
  5
828
330
7EC
100
AcDbEntity
  8
4
100
AcDbVertex
100
AcDb2dVertex
 10
775.8410968384042
 20
277.6821603418391
 30
0.0
  0
VERTEX
  5
829
330
7EC
100
AcDbEntity
  8
4
100
AcDbVertex
100
AcDb2dVertex
 10
775.8517468384053
 20
277.6413373418392
 30
0.0
  0
VERTEX
  5
82A
330
7EC
100
AcDbEntity
  8
4
100
AcDbVertex
100
AcDb2dVertex
 10
775.8623958384044
 20
277.6005153418394
 30
0.0
  0
VERTEX
  5
82B
330
7EC
100
AcDbEntity
  8
4
100
AcDbVertex
100
AcDb2dVertex
 10
775.8694958384055
 20
277.5579173418392
 30
0.0
  0
VERTEX
  5
82C
330
7EC
100
AcDbEntity
  8
4
100
AcDbVertex
100
AcDb2dVertex
 10
775.8748198384044
 20
277.5170943418392
 30
0.0
  0
VERTEX
  5
82D
330
7EC
100
AcDbEntity
  8
4
100
AcDbVertex
100
AcDb2dVertex
 10
775.8783698384043
 20
277.4727223418391
 30
0.0
  0
VERTEX
  5
82E
330
7EC
100
AcDbEntity
  8
4
100
AcDbVertex
100
AcDb2dVertex
 10
775.8783698384043
 20
277.4301243418394
 30
0.0
  0
VERTEX
  5
82F
330
7EC
100
AcDbEntity
  8
4
100
AcDbVertex
100
AcDb2dVertex
 10
776.1233068384042
 20
277.4301243418394
 30
0.0
  0
VERTEX
  5
830
330
7EC
100
AcDbEntity
  8
4
100
AcDbVertex
100
AcDb2dVertex
 10
776.1233068384042
 20
277.4301243418394
 30
0.0
  0
SEQEND
  5
831
330
7EC
100
AcDbEntity
  8
4
  0
HATCH
  5
832
330
1F
100
AcDbEntity
  8
4
100
AcDbHatch
 10
0.0
 20
0.0
 30
0.0
210
0.0
220
0.0
230
1.0
  2
SOLID
 70
     1
 71
     0
 91
        2
 92
        7
 72
     0
 73
     1
 93
        4
 10
776.0008382185604
 20
277.4301245060565
 10
775.8783700040956
 20
277.4301245060565
 10
775.8783700040956
 20
268.8768734117405
 10
776.0008382185604
 20
268.8768734117405
 97
        0
 92
        7
 72
     0
 73
     1
 93
       42
 10
775.9262923488866
 20
268.505918965027
 10
775.9884139069484
 20
268.6798593276004
 10
776.0008382185604
 20
268.8768734117405
 10
775.8783700040956
 20
268.8768734117405
 10
775.8783700040956
 20
268.8342757719262
 10
775.8748202007775
 20
268.7916781321115
 10
775.8694954958016
 20
268.7490804923026
 10
775.8623958891655
 20
268.7064828524839
 10
775.8517464792105
 20
268.6656601143227
 10
775.8410970692582
 20
268.6266122778343
 10
775.8268978559875
 20
268.5875644413371
 10
775.8126986427162
 20
268.5485166048419
 10
775.7949496261264
 20
268.5112436700038
 10
775.7772006095372
 20
268.4739707351661
 10
775.7559017896312
 20
268.4402476036453
 10
775.7346029697234
 20
268.4047495704689
 10
775.7097543464993
 20
268.3728013406063
 10
775.6849057232732
 20
268.3390782090882
 10
775.6582821983904
 20
268.3089048808887
 10
775.6298837718466
 20
268.2805064543442
 10
775.5997104436476
 20
268.2521080278022
 10
775.5695371154445
 20
268.2254845029179
 10
775.5358139839252
 20
268.2006358796936
 10
775.5020908524045
 20
268.1757872564678
 10
775.4683677208833
 20
268.1544884365608
 10
775.4328696877085
 20
268.1331896166545
 10
775.3955967528716
 20
268.1154406000645
 10
775.3565489163745
 20
268.0976915834764
 10
775.3175010798784
 20
268.083492370205
 10
775.2784532433821
 20
268.0692931569335
 10
775.2376305052255
 20
268.0586437469797
 10
775.1950328654136
 20
268.0497692386856
 10
775.1524352255994
 20
268.0408947303909
 10
775.1098375857853
 20
268.0355700254143
 10
775.0654650443114
 20
268.0320202220967
 10
775.0210925028393
 20
268.0320202220967
 10
775.0210925028393
 20
267.9095520076312
 10
775.2181065869791
 20
267.9219763192434
 10
775.4044712611655
 20
267.9840978773059
 10
775.5659873121263
 20
268.0710680585926
 10
775.7150790514754
 20
268.1953111747172
 10
775.8393221675994
 20
268.3319786024532
 97
        0
 75
     0
 76
     1
 47
0.013813
 98
        2
 10
775.9634308384045
 20
275.3534303418393
 10
775.8229718384043
 20
268.4579413418393
450
        0
451
        0
460
0.0
461
0.0
452
        0
462
0.0
453
        0
470

  0
POLYLINE
  5
833
330
1F
100
AcDbEntity
  8
4
100
AcDb2dPolyline
 66
     1
 10
0.0
 20
0.0
 30
0.0
  0
VERTEX
  5
834
330
833
100
AcDbEntity
  8
4
100
AcDbVertex
100
AcDb2dVertex
 10
776.1233068384042
 20
268.8768733418392
 30
0.0
  0
VERTEX
  5
835
330
833
100
AcDbEntity
  8
4
100
AcDbVertex
100
AcDb2dVertex
 10
776.1233068384042
 20
277.4301243418394
 30
0.0
  0
VERTEX
  5
836
330
833
100
AcDbEntity
  8
4
100
AcDbVertex
100
AcDb2dVertex
 10
775.8783698384043
 20
277.4301243418394
 30
0.0
  0
VERTEX
  5
837
330
833
100
AcDbEntity
  8
4
100
AcDbVertex
100
AcDb2dVertex
 10
775.8783698384043
 20
268.8768733418392
 30
0.0
  0
VERTEX
  5
838
330
833
100
AcDbEntity
  8
4
100
AcDbVertex
100
AcDb2dVertex
 10
776.1233068384042
 20
268.8768733418392
 30
0.0
  0
VERTEX
  5
839
330
833
100
AcDbEntity
  8
4
100
AcDbVertex
100
AcDb2dVertex
 10
776.1233068384042
 20
268.8768733418392
 30
0.0
  0
SEQEND
  5
83A
330
833
100
AcDbEntity
  8
4
  0
POLYLINE
  5
83B
330
1F
100
AcDbEntity
  8
4
100
AcDb2dPolyline
 66
     1
 10
0.0
 20
0.0
 30
0.0
  0
VERTEX
  5
83C
330
83B
100
AcDbEntity
  8
4
100
AcDbVertex
100
AcDb2dVertex
 10
775.0210928384055
 20
267.7870833418392
 30
0.0
  0
VERTEX
  5
83D
330
83B
100
AcDbEntity
  8
4
100
AcDbVertex
100
AcDb2dVertex
 10
775.0761148384042
 20
267.7888583418393
 30
0.0
  0
VERTEX
  5
83E
330
83B
100
AcDbEntity
  8
4
100
AcDbVertex
100
AcDb2dVertex
 10
775.1329108384045
 20
267.7941833418393
 30
0.0
  0
VERTEX
  5
83F
330
83B
100
AcDbEntity
  8
4
100
AcDbVertex
100
AcDb2dVertex
 10
775.1897078384041
 20
267.7995083418392
 30
0.0
  0
VERTEX
  5
840
330
83B
100
AcDbEntity
  8
4
100
AcDbVertex
100
AcDb2dVertex
 10
775.2429548384053
 20
267.8101573418393
 30
0.0
  0
VERTEX
  5
841
330
83B
100
AcDbEntity
  8
4
100
AcDbVertex
100
AcDb2dVertex
 10
775.2962018384042
 20
267.8208073418392
 30
0.0
  0
VERTEX
  5
842
330
83B
100
AcDbEntity
  8
4
100
AcDbVertex
100
AcDb2dVertex
 10
775.3494488384042
 20
267.8367813418392
 30
0.0
  0
VERTEX
  5
843
330
83B
100
AcDbEntity
  8
4
100
AcDbVertex
100
AcDb2dVertex
 10
775.4009218384042
 20
267.8545303418392
 30
0.0
  0
VERTEX
  5
844
330
83B
100
AcDbEntity
  8
4
100
AcDbVertex
100
AcDb2dVertex
 10
775.4506188384055
 20
267.8722793418392
 30
0.0
  0
VERTEX
  5
845
330
83B
100
AcDbEntity
  8
4
100
AcDbVertex
100
AcDb2dVertex
 10
775.5003158384043
 20
267.8953523418392
 30
0.0
  0
VERTEX
  5
846
330
83B
100
AcDbEntity
  8
4
100
AcDbVertex
100
AcDb2dVertex
 10
775.5464638384044
 20
267.9184263418391
 30
0.0
  0
VERTEX
  5
847
330
83B
100
AcDbEntity
  8
4
100
AcDbVertex
100
AcDb2dVertex
 10
775.5926108384044
 20
267.9450503418392
 30
0.0
  0
VERTEX
  5
848
330
83B
100
AcDbEntity
  8
4
100
AcDbVertex
100
AcDb2dVertex
 10
775.6387578384044
 20
267.9734483418394
 30
0.0
  0
VERTEX
  5
849
330
83B
100
AcDbEntity
  8
4
100
AcDbVertex
100
AcDb2dVertex
 10
775.6813558384044
 20
268.0036213418392
 30
0.0
  0
VERTEX
  5
84A
330
83B
100
AcDbEntity
  8
4
100
AcDbVertex
100
AcDb2dVertex
 10
775.7239538384044
 20
268.0355703418392
 30
0.0
  0
VERTEX
  5
84B
330
83B
100
AcDbEntity
  8
4
100
AcDbVertex
100
AcDb2dVertex
 10
775.7630018384045
 20
268.0710683418391
 30
0.0
  0
VERTEX
  5
84C
330
83B
100
AcDbEntity
  8
4
100
AcDbVertex
100
AcDb2dVertex
 10
775.8020488384041
 20
268.1065663418392
 30
0.0
  0
VERTEX
  5
84D
330
83B
100
AcDbEntity
  8
4
100
AcDbVertex
100
AcDb2dVertex
 10
775.8375468384045
 20
268.1438393418392
 30
0.0
  0
VERTEX
  5
84E
330
83B
100
AcDbEntity
  8
4
100
AcDbVertex
100
AcDb2dVertex
 10
775.8712708384043
 20
268.1846613418393
 30
0.0
  0
VERTEX
  5
84F
330
83B
100
AcDbEntity
  8
4
100
AcDbVertex
100
AcDb2dVertex
 10
775.9049938384044
 20
268.2254843418392
 30
0.0
  0
VERTEX
  5
850
330
83B
100
AcDbEntity
  8
4
100
AcDbVertex
100
AcDb2dVertex
 10
775.9351668384043
 20
268.2680823418392
 30
0.0
  0
VERTEX
  5
851
330
83B
100
AcDbEntity
  8
4
100
AcDbVertex
100
AcDb2dVertex
 10
775.9635648384044
 20
268.3124543418393
 30
0.0
  0
VERTEX
  5
852
330
83B
100
AcDbEntity
  8
4
100
AcDbVertex
100
AcDb2dVertex
 10
775.9901888384043
 20
268.3586023418393
 30
0.0
  0
VERTEX
  5
853
330
83B
100
AcDbEntity
  8
4
100
AcDbVertex
100
AcDb2dVertex
 10
776.0150378384044
 20
268.4047493418393
 30
0.0
  0
VERTEX
  5
854
330
83B
100
AcDbEntity
  8
4
100
AcDbVertex
100
AcDb2dVertex
 10
776.0363358384045
 20
268.4526723418392
 30
0.0
  0
VERTEX
  5
855
330
83B
100
AcDbEntity
  8
4
100
AcDbVertex
100
AcDb2dVertex
 10
776.0558598384043
 20
268.5023693418392
 30
0.0
  0
VERTEX
  5
856
330
83B
100
AcDbEntity
  8
4
100
AcDbVertex
100
AcDb2dVertex
 10
776.0736088384044
 20
268.5538413418392
 30
0.0
  0
VERTEX
  5
857
330
83B
100
AcDbEntity
  8
4
100
AcDbVertex
100
AcDb2dVertex
 10
776.0878088384054
 20
268.6053133418392
 30
0.0
  0
VERTEX
  5
858
330
83B
100
AcDbEntity
  8
4
100
AcDbVertex
100
AcDb2dVertex
 10
776.1002328384045
 20
268.6585603418391
 30
0.0
  0
VERTEX
  5
859
330
83B
100
AcDbEntity
  8
4
100
AcDbVertex
100
AcDb2dVertex
 10
776.1108818384043
 20
268.7118073418392
 30
0.0
  0
VERTEX
  5
85A
330
83B
100
AcDbEntity
  8
4
100
AcDbVertex
100
AcDb2dVertex
 10
776.1162068384044
 20
268.7668293418392
 30
0.0
  0
VERTEX
  5
85B
330
83B
100
AcDbEntity
  8
4
100
AcDbVertex
100
AcDb2dVertex
 10
776.1215318384054
 20
268.8218513418392
 30
0.0
  0
VERTEX
  5
85C
330
83B
100
AcDbEntity
  8
4
100
AcDbVertex
100
AcDb2dVertex
 10
776.1233068384042
 20
268.8768733418392
 30
0.0
  0
VERTEX
  5
85D
330
83B
100
AcDbEntity
  8
4
100
AcDbVertex
100
AcDb2dVertex
 10
775.8783698384043
 20
268.8768733418392
 30
0.0
  0
VERTEX
  5
85E
330
83B
100
AcDbEntity
  8
4
100
AcDbVertex
100
AcDb2dVertex
 10
775.8783698384043
 20
268.8342753418392
 30
0.0
  0
VERTEX
  5
85F
330
83B
100
AcDbEntity
  8
4
100
AcDbVertex
100
AcDb2dVertex
 10
775.8748198384044
 20
268.7916783418392
 30
0.0
  0
VERTEX
  5
860
330
83B
100
AcDbEntity
  8
4
100
AcDbVertex
100
AcDb2dVertex
 10
775.8694958384055
 20
268.7490803418392
 30
0.0
  0
VERTEX
  5
861
330
83B
100
AcDbEntity
  8
4
100
AcDbVertex
100
AcDb2dVertex
 10
775.8623958384044
 20
268.7064833418392
 30
0.0
  0
VERTEX
  5
862
330
83B
100
AcDbEntity
  8
4
100
AcDbVertex
100
AcDb2dVertex
 10
775.8517468384053
 20
268.6656603418393
 30
0.0
  0
VERTEX
  5
863
330
83B
100
AcDbEntity
  8
4
100
AcDbVertex
100
AcDb2dVertex
 10
775.8410968384042
 20
268.6266123418392
 30
0.0
  0
VERTEX
  5
864
330
83B
100
AcDbEntity
  8
4
100
AcDbVertex
100
AcDb2dVertex
 10
775.8268978384042
 20
268.5875643418392
 30
0.0
  0
VERTEX
  5
865
330
83B
100
AcDbEntity
  8
4
100
AcDbVertex
100
AcDb2dVertex
 10
775.8126988384043
 20
268.5485163418392
 30
0.0
  0
VERTEX
  5
866
330
83B
100
AcDbEntity
  8
4
100
AcDbVertex
100
AcDb2dVertex
 10
775.7949498384044
 20
268.5112433418392
 30
0.0
  0
VERTEX
  5
867
330
83B
100
AcDbEntity
  8
4
100
AcDbVertex
100
AcDb2dVertex
 10
775.7772008384042
 20
268.4739703418391
 30
0.0
  0
VERTEX
  5
868
330
83B
100
AcDbEntity
  8
4
100
AcDbVertex
100
AcDb2dVertex
 10
775.7559018384043
 20
268.4402473418393
 30
0.0
  0
VERTEX
  5
869
330
83B
100
AcDbEntity
  8
4
100
AcDbVertex
100
AcDb2dVertex
 10
775.7346028384041
 20
268.4047493418393
 30
0.0
  0
VERTEX
  5
86A
330
83B
100
AcDbEntity
  8
4
100
AcDbVertex
100
AcDb2dVertex
 10
775.7097548384042
 20
268.3728013418392
 30
0.0
  0
VERTEX
  5
86B
330
83B
100
AcDbEntity
  8
4
100
AcDbVertex
100
AcDb2dVertex
 10
775.6849058384043
 20
268.3390783418392
 30
0.0
  0
VERTEX
  5
86C
330
83B
100
AcDbEntity
  8
4
100
AcDbVertex
100
AcDb2dVertex
 10
775.6582818384043
 20
268.3089053418393
 30
0.0
  0
VERTEX
  5
86D
330
83B
100
AcDbEntity
  8
4
100
AcDbVertex
100
AcDb2dVertex
 10
775.6298838384043
 20
268.2805063418391
 30
0.0
  0
VERTEX
  5
86E
330
83B
100
AcDbEntity
  8
4
100
AcDbVertex
100
AcDb2dVertex
 10
775.5997108384042
 20
268.2521083418392
 30
0.0
  0
VERTEX
  5
86F
330
83B
100
AcDbEntity
  8
4
100
AcDbVertex
100
AcDb2dVertex
 10
775.5695368384055
 20
268.2254843418392
 30
0.0
  0
VERTEX
  5
870
330
83B
100
AcDbEntity
  8
4
100
AcDbVertex
100
AcDb2dVertex
 10
775.5358138384056
 20
268.2006363418392
 30
0.0
  0
VERTEX
  5
871
330
83B
100
AcDbEntity
  8
4
100
AcDbVertex
100
AcDb2dVertex
 10
775.5020908384055
 20
268.1757873418392
 30
0.0
  0
VERTEX
  5
872
330
83B
100
AcDbEntity
  8
4
100
AcDbVertex
100
AcDb2dVertex
 10
775.4683678384054
 20
268.1544883418392
 30
0.0
  0
VERTEX
  5
873
330
83B
100
AcDbEntity
  8
4
100
AcDbVertex
100
AcDb2dVertex
 10
775.4328698384052
 20
268.1331893418392
 30
0.0
  0
VERTEX
  5
874
330
83B
100
AcDbEntity
  8
4
100
AcDbVertex
100
AcDb2dVertex
 10
775.3955968384046
 20
268.1154403418392
 30
0.0
  0
VERTEX
  5
875
330
83B
100
AcDbEntity
  8
4
100
AcDbVertex
100
AcDb2dVertex
 10
775.3565488384045
 20
268.0976913418392
 30
0.0
  0
VERTEX
  5
876
330
83B
100
AcDbEntity
  8
4
100
AcDbVertex
100
AcDb2dVertex
 10
775.3175008384044
 20
268.0834923418391
 30
0.0
  0
VERTEX
  5
877
330
83B
100
AcDbEntity
  8
4
100
AcDbVertex
100
AcDb2dVertex
 10
775.2784528384043
 20
268.0692933418391
 30
0.0
  0
VERTEX
  5
878
330
83B
100
AcDbEntity
  8
4
100
AcDbVertex
100
AcDb2dVertex
 10
775.2376308384043
 20
268.0586433418391
 30
0.0
  0
VERTEX
  5
879
330
83B
100
AcDbEntity
  8
4
100
AcDbVertex
100
AcDb2dVertex
 10
775.1950328384042
 20
268.0497693418392
 30
0.0
  0
VERTEX
  5
87A
330
83B
100
AcDbEntity
  8
4
100
AcDbVertex
100
AcDb2dVertex
 10
775.1524348384053
 20
268.0408943418393
 30
0.0
  0
VERTEX
  5
87B
330
83B
100
AcDbEntity
  8
4
100
AcDbVertex
100
AcDb2dVertex
 10
775.1098378384043
 20
268.0355703418392
 30
0.0
  0
VERTEX
  5
87C
330
83B
100
AcDbEntity
  8
4
100
AcDbVertex
100
AcDb2dVertex
 10
775.0654648384054
 20
268.0320203418394
 30
0.0
  0
VERTEX
  5
87D
330
83B
100
AcDbEntity
  8
4
100
AcDbVertex
100
AcDb2dVertex
 10
775.0210928384055
 20
268.0320203418394
 30
0.0
  0
VERTEX
  5
87E
330
83B
100
AcDbEntity
  8
4
100
AcDbVertex
100
AcDb2dVertex
 10
775.0210928384055
 20
267.7870833418392
 30
0.0
  0
VERTEX
  5
87F
330
83B
100
AcDbEntity
  8
4
100
AcDbVertex
100
AcDb2dVertex
 10
775.0210928384055
 20
267.7870833418392
 30
0.0
  0
SEQEND
  5
880
330
83B
100
AcDbEntity
  8
4
  0
VIEWPORT
  5
6F
330
55
100
AcDbEntity
 67
     1
  8
0
100
AcDbViewport
 10
141.0
 20
85.0
 30
0.0
 40
384.7606204379562
 41
222.18
 68
     1
 69
     1
 12
141.0
 22
85.0
 13
0.0
 23
0.0
 14
10.0
 24
10.0
 15
10.0
 25
10.0
 16
0.0
 26
0.0
 36
1.0
 17
0.0
 27
0.0
 37
0.0
 42
50.0
 43
0.0
 44
0.0
 45
222.18
 50
0.0
 51
0.0
 72
   100
 90
    32800
  1

281
     0
 71
     1
 74
     0
110
0.0
120
0.0
130
0.0
111
1.0
121
0.0
131
0.0
112
0.0
122
1.0
132
0.0
 79
     0
146
0.0
170
     0
1001
GENIUS_GENOBJ-N-SDF_13
1002
{
1000
OWNER
1000
GEN
1002
}
1001
GENIUS_GENODEF_13
1002
{
1000
HIER
1070
     0
1002
}
1002
{
1000
MANEDIT
1070
     0
1002
}
1002
{
1000
NOSEL
1070
     0
1002
}
1002
{
1000
BEHIND
1070
     0
1002
}
1002
{
1000
OTHER
1070
     0
1002
}
1002
{
1000
REACTOR
1002
}
1001
GENIUS_GENSCREG_15
1000
PF
1040
1.0
1000
DF
1040
1.0
1000
MIN
1011
-51.38031021897808
1021
-26.09
1031
0.0
1000
MAX
1011
333.3803102189782
1021
196.09
1031
0.0
1000
FLAGS
1070
     2
  0
VIEWPORT
  5
71
330
55
100
AcDbEntity
 67
     1
  8
0
100
AcDbViewport
 10
141.0
 20
85.0
 30
0.0
 40
225.6
 41
136.0
 68
     2
 69
     2
 12
210.0
 22
148.5
 13
0.0
 23
0.0
 14
10.0
 24
10.0
 15
10.0
 25
10.0
 16
0.0
 26
0.0
 36
1.0
 17
0.0
 27
0.0
 37
0.0
 42
50.0
 43
0.0
 44
0.0
 45
302.3194029850746
 50
0.0
 51
0.0
 72
   100
 90
    32864
  1

281
     0
 71
     1
 74
     0
110
0.0
120
0.0
130
0.0
111
1.0
121
0.0
131
0.0
112
0.0
122
1.0
132
0.0
 79
     0
146
0.0
170
     0
1001
GENIUS_GENODEF_13
1002
{
1000
HIER
1070
     0
1002
}
1002
{
1000
MANEDIT
1070
     0
1002
}
1002
{
1000
NOSEL
1070
     0
1002
}
1002
{
1000
BEHIND
1070
     0
1002
}
1002
{
1000
OTHER
1070
     0
1002
}
1002
{
1000
REACTOR
1002
}
1001
GENIUS_GENOBJ-N-SDF_13
1002
{
1000
OWNER
1000
GEN
1002
}
1001
GENIUS_GENSCREG_15
1000
PF
1040
0.0
1000
DF
1040
0.0
1000
MIN
1011
28.20000000000002
1021
17.0
1031
0.0
1000
MAX
1011
253.8
1021
153.0
1031
0.0
1000
FLAGS
1070
     2
  0
ENDSEC
  0
SECTION
  2
OBJECTS
  0
DICTIONARY
  5
C
330
0
100
AcDbDictionary
281
     1
  3
ACAD_COLOR
350
F6
  3
ACAD_GROUP
350
D
  3
ACAD_LAYOUT
350
1A
  3
ACAD_MATERIAL
350
F5
  3
ACAD_MLINESTYLE
350
17
  3
ACAD_PLOTSETTINGS
350
19
  3
ACAD_PLOTSTYLENAME
350
E
  3
ACAD_TABLESTYLE
350
16F
  3
ACAD_VISUALSTYLE
350
1EE
  3
AcDbVariableDictionary
350
DA
  3
AcmDictionary
350
97
  3
AMG
350
7D
  3
AMGSNAPSETTINGS
350
5AC
  0
DICTIONARY
  5
D5
330
1F
100
AcDbDictionary
280
     1
281
     1
  0
DICTIONARY
  5
F6
102
{ACAD_REACTORS
330
C
102
}
330
C
100
AcDbDictionary
281
     1
  0
DICTIONARY
  5
D
102
{ACAD_REACTORS
330
C
102
}
330
C
100
AcDbDictionary
281
     1
  0
DICTIONARY
  5
1A
102
{ACAD_REACTORS
330
C
102
}
330
C
100
AcDbDictionary
281
     1
  3
Layout1
350
51
  3
Layout2
350
56
  3
Model
350
22
  0
DICTIONARY
  5
F5
102
{ACAD_REACTORS
330
C
102
}
330
C
100
AcDbDictionary
281
     1
  3
ByBlock
350
1EC
  3
ByLayer
350
1EB
  3
Global
350
1ED
  0
DICTIONARY
  5
17
102
{ACAD_REACTORS
330
C
102
}
330
C
100
AcDbDictionary
281
     1
  3
Standard
350
18
  0
DICTIONARY
  5
19
102
{ACAD_REACTORS
330
C
102
}
330
C
100
AcDbDictionary
281
     1
  0
ACDBDICTIONARYWDFLT
  5
E
102
{ACAD_REACTORS
330
C
102
}
330
C
100
AcDbDictionary
281
     1
  3
Normal
350
F
100
AcDbDictionaryWithDefault
340
F
  0
DICTIONARY
  5
16F
102
{ACAD_REACTORS
330
C
102
}
330
C
100
AcDbDictionary
281
     1
  3
Standard
350
170
  0
DICTIONARY
  5
1EE
102
{ACAD_REACTORS
330
C
102
}
330
C
100
AcDbDictionary
281
     1
  3
2dWireframe
350
1F4
  3
3D Hidden
350
1F6
  3
3dWireframe
350
1F5
  3
Basic
350
1F3
  3
Brighten
350
1FA
  3
ColorChange
350
1FE
  3
Conceptual
350
1F7
  3
Dim
350
1F9
  3
EdgeColorOff
350
92D
  3
Facepattern
350
1FD
  3
Flat
350
1EF
  3
FlatWithEdges
350
1F0
  3
Gouraud
350
1F1
  3
GouraudWithEdges
350
1F2
  3
JitterOff
350
930
  3
Linepattern
350
1FC
  3
OverhangOff
350
933
  3
Realistic
350
1F8
  3
Thicken
350
1FB
  0
DICTIONARY
  5
DA
102
{ACAD_REACTORS
330
C
102
}
330
C
100
AcDbDictionary
281
     1
  3
CTABLESTYLE
350
18F
  3
DIMASSOC
350
DC
  3
INDEXCTL
350
DB
  0
DICTIONARY
  5
97
102
{ACAD_REACTORS
330
C
102
}
330
C
100
AcDbDictionary
281
     1
  3
AcmStdDictionary
350
9D
  3
AMDTSECTSYM_ARROWCOLOR
350
186
  0
DICTIONARY
  5
7D
102
{ACAD_REACTORS
330
C
102
}
330
C
100
AcDbDictionary
281
     1
  0
DICTIONARY
  5
5AC
102
{ACAD_REACTORS
330
C
102
}
330
C
100
AcDbDictionary
281
     1
  0
LAYOUT
  5
51
102
{ACAD_REACTORS
330
1A
102
}
330
1A
100
AcDbPlotSettings
  1

  2
none_device
  4
ISO_A4_(210.00_x_297.00_MM)
  6

 40
7.5
 41
20.0
 42
7.5
 43
20.0
 44
210.0
 45
297.0
 46
0.0
 47
0.0
 48
0.0
 49
0.0
140
0.0
141
0.0
142
1.0
143
1.0
 70
   688
 72
     1
 73
     1
 74
     5
  7
ganz_fein_1.ctb
 75
    16
147
1.0
 76
     0
 77
     2
 78
   300
148
0.0
149
0.0
100
AcDbLayout
  1
Layout1
 70
     1
 71
     1
 10
-20.0
 20
-7.5
 11
277.0
 21
202.5
 12
0.0
 22
0.0
 32
0.0
 14
25.69999999999999
 24
19.5
 34
0.0
 15
231.3
 25
175.5
 35
0.0
146
0.0
 13
0.0
 23
0.0
 33
0.0
 16
1.0
 26
0.0
 36
0.0
 17
0.0
 27
1.0
 37
0.0
 76
     0
330
50
331
69
  0
LAYOUT
  5
56
102
{ACAD_REACTORS
330
1A
102
}
330
1A
100
AcDbPlotSettings
  1

  2
none_device
  4
ISO_A4_(297.00_x_210.00_MM)
  6

 40
7.5
 41
20.0
 42
7.5
 43
20.0
 44
297.0
 45
210.0
 46
0.0
 47
0.0
 48
0.0
 49
0.0
140
0.0
141
0.0
142
1.0
143
1.0
 70
   688
 72
     1
 73
     0
 74
     5
  7
ganz_fein_1.ctb
 75
    16
147
1.0
 76
     0
 77
     2
 78
   300
148
0.0
149
0.0
100
AcDbLayout
  1
Layout2
 70
     1
 71
     2
 10
-7.5
 20
-20.0
 11
289.5
 21
190.0
 12
0.0
 22
0.0
 32
0.0
 14
28.19999999999999
 24
17.0
 34
0.0
 15
253.8
 25
153.0
 35
0.0
146
0.0
 13
0.0
 23
0.0
 33
0.0
 16
1.0
 26
0.0
 36
0.0
 17
0.0
 27
1.0
 37
0.0
 76
     0
330
55
331
6F
  0
LAYOUT
  5
22
102
{ACAD_REACTORS
330
1A
102
}
330
1A
100
AcDbPlotSettings
  1

  2
Adobe PDF
  4
A4
  6

 40
3.174999952316284
 41
3.174999952316284
 42
3.175003051757812
 43
3.17498779296875
 44
209.9733276367187
 45
297.0318298339844
 46
0.0000000000000055
 47
6.163274490322466
 48
335.8260678384042
 49
235.0377193418392
140
820.5262488384043
141
589.6070943418391
142
1.0
143
1.741300391984444
 70
 11956
 72
     1
 73
     1
 74
     4
  7
ganz_fein_1.ctb
 75
     0
147
0.5742834519553323
 76
     0
 77
     2
 78
   300
148
-335.8260678384042
149
-235.0377193418392
100
AcDbLayout
  1
Model
 70
     1
 71
     0
 10
0.0
 20
0.0
 11
12.0
 21
9.0
 12
0.0
 22
0.0
 32
0.0
 14
0.0
 24
0.0
 34
0.0
 15
0.0
 25
0.0
 35
0.0
146
0.0
 13
0.0
 23
0.0
 33
0.0
 16
1.0
 26
0.0
 36
0.0
 17
0.0
 27
1.0
 37
0.0
 76
     0
330
1F
331
1E9
1001
ACAD_PSEXT
1000
Adobe PDF
1000
Adobe PDF Converter
1000
Documents\*.pdf
1000

1070
     0
  0
MATERIAL
  5
1EC
102
{ACAD_XDICTIONARY
360
944
102
}
102
{ACAD_REACTORS
330
F5
102
}
330
F5
100
AcDbMaterial
  1
ByBlock
  0
MATERIAL
  5
1EB
102
{ACAD_XDICTIONARY
360
942
102
}
102
{ACAD_REACTORS
330
F5
102
}
330
F5
100
AcDbMaterial
  1
ByLayer
  0
MATERIAL
  5
1ED
102
{ACAD_XDICTIONARY
360
946
102
}
102
{ACAD_REACTORS
330
F5
102
}
330
F5
100
AcDbMaterial
  1
Global
  0
MLINESTYLE
  5
18
102
{ACAD_REACTORS
330
17
102
}
330
17
100
AcDbMlineStyle
  2
STANDARD
 70
     0
  3

 62
   256
 51
90.0
 52
90.0
 71
     2
 49
0.5
 62
   256
  6
BYLAYER
 49
-0.5
 62
   256
  6
BYLAYER
  0
ACDBPLACEHOLDER
  5
F
102
{ACAD_REACTORS
330
E
102
}
330
E
  0
TABLESTYLE
  5
170
102
{ACAD_XDICTIONARY
360
A13
102
}
102
{ACAD_REACTORS
330
16F
102
}
330
16F
100
AcDbTableStyle
  3
Standard
 70
     0
 71
     0
 40
1.5
 41
1.5
280
     0
281
     0
  7
STANDARD
140
4.5
170
     2
 62
     0
 63
     7
283
     0
274
    -2
284
     1
 64
     0
275
    -2
285
     1
 65
     0
276
    -2
286
     1
 66
     0
277
    -2
287
     1
 67
     0
278
    -2
288
     1
 68
     0
279
    -2
289
     1
 69
     0
  7
STANDARD
140
6.0
170
     5
 62
     0
 63
     7
283
     0
274
    -2
284
     1
 64
     0
275
    -2
285
     1
 65
     0
276
    -2
286
     1
 66
     0
277
    -2
287
     1
 67
     0
278
    -2
288
     1
 68
     0
279
    -2
289
     1
 69
     0
  7
STANDARD
140
4.5
170
     5
 62
     0
 63
     7
283
     0
274
    -2
284
     1
 64
     0
275
    -2
285
     1
 65
     0
276
    -2
286
     1
 66
     0
277
    -2
287
     1
 67
     0
278
    -2
288
     1
 68
     0
279
    -2
289
     1
 69
     0
  0
VISUALSTYLE
  5
1F4
102
{ACAD_REACTORS
330
1EE
102
}
330
1EE
100
AcDbVisualStyle
  2
2dWireframe
 70
     4
 71
     0
 72
     2
 73
     0
 90
        0
 40
-0.6
 41
-30.0
 62
     5
 63
     7
421
 16777215
 74
     1
 91
        4
 64
     7
 65
   257
 75
     1
175
     1
 42
1.0
 92
        0
 66
   257
 43
1.0
 76
     1
 77
     6
 78
     2
 67
     7
 79
     5
170
     0
171
     0
290
     0
174
     0
 93
        1
 44
0.0
173
     0
291
     0
 45
0.0
1001
ACAD
1000
AcDbSavedByObjectVersion
1070
     0
1000
AcDbSavedByObjectVersion
1070
     0
  0
VISUALSTYLE
  5
1F6
102
{ACAD_REACTORS
330
1EE
102
}
330
1EE
100
AcDbVisualStyle
  2
3D Hidden
 70
     6
 71
     1
 72
     2
 73
     2
 90
        0
 40
-0.6
 41
-30.0
 62
     5
 63
     7
421
 16777215
 74
     2
 91
        2
 64
     7
 65
   257
 75
     2
175
     1
 42
40.0
 92
        0
 66
   257
 43
1.0
 76
     1
 77
     6
 78
     2
 67
     7
 79
     3
170
     0
171
     0
290
     0
174
     0
 93
        1
 44
0.0
173
     0
291
     0
 45
0.0
1001
ACAD
1000
AcDbSavedByObjectVersion
1070
     0
1000
AcDbSavedByObjectVersion
1070
     0
  0
VISUALSTYLE
  5
1F5
102
{ACAD_REACTORS
330
1EE
102
}
330
1EE
100
AcDbVisualStyle
  2
3dWireframe
 70
     5
 71
     0
 72
     2
 73
     0
 90
        0
 40
-0.6
 41
-30.0
 62
     5
 63
     7
421
 16777215
 74
     1
 91
        4
 64
     7
 65
   257
 75
     1
175
     1
 42
1.0
 92
        0
 66
   257
 43
1.0
 76
     1
 77
     6
 78
     2
 67
     7
 79
     5
170
     0
171
     0
290
     0
174
     0
 93
        1
 44
0.0
173
     0
291
     0
 45
0.0
1001
ACAD
1000
AcDbSavedByObjectVersion
1070
     0
1000
AcDbSavedByObjectVersion
1070
     0
  0
VISUALSTYLE
  5
1F3
102
{ACAD_REACTORS
330
1EE
102
}
330
1EE
100
AcDbVisualStyle
  2
Basic
 70
     7
 71
     1
 72
     0
 73
     1
 90
        0
 40
-0.6
 41
-30.0
 62
     5
 63
     7
421
 16777215
 74
     0
 91
        4
 64
     7
 65
   257
 75
     1
175
     1
 42
1.0
 92
        8
 66
     7
 43
1.0
 76
     1
 77
     6
 78
     2
 67
     7
 79
     5
170
     0
171
     0
290
     0
174
     0
 93
        1
 44
0.0
173
     0
291
     1
 45
0.0
1001
ACAD
1000
AcDbSavedByObjectVersion
1070
     0
1000
AcDbSavedByObjectVersion
1070
     0
  0
VISUALSTYLE
  5
1FA
102
{ACAD_REACTORS
330
1EE
102
}
330
1EE
100
AcDbVisualStyle
  2
Brighten
 70
    12
 71
     2
 72
     2
 73
     0
 90
        0
 40
-0.6
 41
-30.0
 62
     5
 63
     7
421
 16777215
 74
     1
 91
        4
 64
     7
 65
   257
 75
     1
175
     1
 42
1.0
 92
        8
 66
     7
 43
1.0
 76
     1
 77
     6
 78
     2
 67
     7
 79
     5
170
     0
171
     0
290
     0
174
     0
 93
        1
 44
50.0
173
     0
291
     1
 45
0.0
1001
ACAD
1000
AcDbSavedByObjectVersion
1070
     0
1000
AcDbSavedByObjectVersion
1070
     0
  0
VISUALSTYLE
  5
1FE
102
{ACAD_REACTORS
330
1EE
102
}
330
1EE
100
AcDbVisualStyle
  2
ColorChange
 70
    16
 71
     2
 72
     2
 73
     3
 90
        0
 40
-0.6
 41
-30.0
 62
     5
 63
     8
421
  8421504
 74
     1
 91
        4
 64
     7
 65
   257
 75
     1
175
     1
 42
1.0
 92
        8
 66
     8
424
  8421504
 43
1.0
 76
     1
 77
     6
 78
     2
 67
     7
 79
     5
170
     0
171
     0
290
     0
174
     0
 93
        1
 44
0.0
173
     0
291
     1
 45
0.0
1001
ACAD
1000
AcDbSavedByObjectVersion
1070
     0
1000
AcDbSavedByObjectVersion
1070
     0
  0
VISUALSTYLE
  5
1F7
102
{ACAD_REACTORS
330
1EE
102
}
330
1EE
100
AcDbVisualStyle
  2
Conceptual
 70
     9
 71
     3
 72
     2
 73
     0
 90
        0
 40
-0.6
 41
-30.0
 62
     5
 63
     7
421
 16777215
 74
     2
 91
        2
 64
     7
 65
   257
 75
     1
175
     1
 42
40.0
 92
        8
 66
     7
 43
1.0
 76
     1
 77
     6
 78
     2
 67
     7
 79
     3
170
     0
171
     0
290
     0
174
     0
 93
        1
 44
0.0
173
     0
291
     0
 45
0.0
1001
ACAD
1000
AcDbSavedByObjectVersion
1070
     0
1000
AcDbSavedByObjectVersion
1070
     0
  0
VISUALSTYLE
  5
1F9
102
{ACAD_REACTORS
330
1EE
102
}
330
1EE
100
AcDbVisualStyle
  2
Dim
 70
    11
 71
     2
 72
     2
 73
     0
 90
        0
 40
-0.6
 41
-30.0
 62
     5
 63
     7
421
 16777215
 74
     1
 91
        4
 64
     7
 65
   257
 75
     1
175
     1
 42
1.0
 92
        8
 66
     7
 43
1.0
 76
     1
 77
     6
 78
     2
 67
     7
 79
     5
170
     0
171
     0
290
     0
174
     0
 93
        1
 44
-50.0
173
     0
291
     1
 45
0.0
1001
ACAD
1000
AcDbSavedByObjectVersion
1070
     0
1000
AcDbSavedByObjectVersion
1070
     0
  0
VISUALSTYLE
  5
92D
102
{ACAD_XDICTIONARY
360
92E
102
}
102
{ACAD_REACTORS
330
1EE
102
}
330
1EE
100
AcDbVisualStyle
  2
EdgeColorOff
 70
    22
 71
     2
 72
     2
 73
     0
 90
        0
 40
-0.6
 41
-30.0
 62
     5
 63
     7
 74
     1
 91
        4
 64
     7
 65
   257
 75
     1
175
     1
 42
1.0
 92
        8
 66
     7
 43
1.0
 76
     1
 77
     6
 78
     2
 67
     7
 79
     5
170
     0
171
     0
290
     0
174
     0
 93
        1
 44
0.0
173
     0
291
     1
 45
0.0
1001
ACAD
1000
AcDbSavedByObjectVersion
1070
     0
1000
AcDbSavedByObjectVersion
1070
     0
  0
VISUALSTYLE
  5
1FD
102
{ACAD_REACTORS
330
1EE
102
}
330
1EE
100
AcDbVisualStyle
  2
Facepattern
 70
    15
 71
     2
 72
     2
 73
     0
 90
        0
 40
-0.6
 41
-30.0
 62
     5
 63
     7
421
 16777215
 74
     1
 91
        4
 64
     7
 65
   257
 75
     1
175
     1
 42
1.0
 92
        8
 66
     7
 43
1.0
 76
     1
 77
     6
 78
     2
 67
     7
 79
     5
170
     0
171
     0
290
     0
174
     0
 93
        1
 44
0.0
173
     0
291
     1
 45
0.0
1001
ACAD
1000
AcDbSavedByObjectVersion
1070
     0
1000
AcDbSavedByObjectVersion
1070
     0
  0
VISUALSTYLE
  5
1EF
102
{ACAD_REACTORS
330
1EE
102
}
330
1EE
100
AcDbVisualStyle
  2
Flat
 70
     0
 71
     2
 72
     1
 73
     1
 90
        2
 40
-0.6
 41
30.0
 62
     5
 63
     7
421
 16777215
 74
     0
 91
        4
 64
     7
 65
   257
 75
     1
175
     1
 42
1.0
 92
        8
 66
     7
 43
1.0
 76
     1
 77
     6
 78
     2
 67
     7
 79
     5
170
     0
171
     0
290
     0
174
     0
 93
       13
 44
0.0
173
     0
291
     1
 45
0.0
1001
ACAD
1000
AcDbSavedByObjectVersion
1070
     0
1000
AcDbSavedByObjectVersion
1070
     0
  0
VISUALSTYLE
  5
1F0
102
{ACAD_REACTORS
330
1EE
102
}
330
1EE
100
AcDbVisualStyle
  2
FlatWithEdges
 70
     1
 71
     2
 72
     1
 73
     1
 90
        2
 40
-0.6
 41
30.0
 62
     5
 63
     7
421
 16777215
 74
     1
 91
        4
 64
     7
 65
   257
 75
     1
175
     1
 42
1.0
 92
        0
 66
   257
 43
1.0
 76
     1
 77
     6
 78
     2
 67
     7
 79
     5
170
     0
171
     0
290
     0
174
     0
 93
       13
 44
0.0
173
     0
291
     1
 45
0.0
1001
ACAD
1000
AcDbSavedByObjectVersion
1070
     0
1000
AcDbSavedByObjectVersion
1070
     0
  0
VISUALSTYLE
  5
1F1
102
{ACAD_REACTORS
330
1EE
102
}
330
1EE
100
AcDbVisualStyle
  2
Gouraud
 70
     2
 71
     2
 72
     2
 73
     1
 90
        2
 40
-0.6
 41
30.0
 62
     5
 63
     7
421
 16777215
 74
     0
 91
        4
 64
     7
 65
   257
 75
     1
175
     1
 42
1.0
 92
        0
 66
     7
 43
1.0
 76
     1
 77
     6
 78
     2
 67
     7
 79
     5
170
     0
171
     0
290
     0
174
     0
 93
       13
 44
0.0
173
     0
291
     1
 45
0.0
1001
ACAD
1000
AcDbSavedByObjectVersion
1070
     0
1000
AcDbSavedByObjectVersion
1070
     0
  0
VISUALSTYLE
  5
1F2
102
{ACAD_REACTORS
330
1EE
102
}
330
1EE
100
AcDbVisualStyle
  2
GouraudWithEdges
 70
     3
 71
     2
 72
     2
 73
     1
 90
        2
 40
-0.6
 41
30.0
 62
     5
 63
     7
421
 16777215
 74
     1
 91
        4
 64
     7
 65
   257
 75
     1
175
     1
 42
1.0
 92
        0
 66
   257
 43
1.0
 76
     1
 77
     6
 78
     2
 67
     7
 79
     5
170
     0
171
     0
290
     0
174
     0
 93
       13
 44
0.0
173
     0
291
     1
 45
0.0
1001
ACAD
1000
AcDbSavedByObjectVersion
1070
     0
1000
AcDbSavedByObjectVersion
1070
     0
  0
VISUALSTYLE
  5
930
102
{ACAD_XDICTIONARY
360
931
102
}
102
{ACAD_REACTORS
330
1EE
102
}
330
1EE
100
AcDbVisualStyle
  2
JitterOff
 70
    20
 71
     2
 72
     2
 73
     0
 90
        0
 40
-0.6
 41
-30.0
 62
     5
 63
     7
 74
     1
 91
        4
 64
     7
 65
   257
 75
     1
175
     1
 42
1.0
 92
       10
 66
     7
 43
1.0
 76
     1
 77
     6
 78
     2
 67
     7
 79
     5
170
     0
171
     0
290
     0
174
     0
 93
        1
 44
0.0
173
     0
291
     1
 45
0.0
1001
ACAD
1000
AcDbSavedByObjectVersion
1070
     0
1000
AcDbSavedByObjectVersion
1070
     0
  0
VISUALSTYLE
  5
1FC
102
{ACAD_REACTORS
330
1EE
102
}
330
1EE
100
AcDbVisualStyle
  2
Linepattern
 70
    14
 71
     2
 72
     2
 73
     0
 90
        0
 40
-0.6
 41
-30.0
 62
     5
 63
     7
421
 16777215
 74
     1
 91
        4
 64
     7
 65
   257
 75
     7
175
     7
 42
1.0
 92
        8
 66
     7
 43
1.0
 76
     1
 77
     6
 78
     2
 67
     7
 79
     5
170
     0
171
     0
290
     0
174
     0
 93
        1
 44
0.0
173
     0
291
     1
 45
0.0
1001
ACAD
1000
AcDbSavedByObjectVersion
1070
     0
1000
AcDbSavedByObjectVersion
1070
     0
  0
VISUALSTYLE
  5
933
102
{ACAD_XDICTIONARY
360
934
102
}
102
{ACAD_REACTORS
330
1EE
102
}
330
1EE
100
AcDbVisualStyle
  2
OverhangOff
 70
    21
 71
     2
 72
     2
 73
     0
 90
        0
 40
-0.6
 41
-30.0
 62
     5
 63
     7
 74
     1
 91
        4
 64
     7
 65
   257
 75
     1
175
     1
 42
1.0
 92
        9
 66
     7
 43
1.0
 76
     1
 77
     6
 78
     2
 67
     7
 79
     5
170
     0
171
     0
290
     0
174
     0
 93
        1
 44
0.0
173
     0
291
     1
 45
0.0
1001
ACAD
1000
AcDbSavedByObjectVersion
1070
     0
1000
AcDbSavedByObjectVersion
1070
     0
  0
VISUALSTYLE
  5
1F8
102
{ACAD_REACTORS
330
1EE
102
}
330
1EE
100
AcDbVisualStyle
  2
Realistic
 70
     8
 71
     2
 72
     2
 73
     0
 90
        0
 40
-0.6
 41
-30.0
 62
     5
 63
     7
421
 16777215
 74
     1
 91
        0
 64
     7
 65
   257
 75
     1
175
     1
 42
1.0
 92
        8
 66
     8
424
  7895160
 43
1.0
 76
     1
 77
     6
 78
     2
 67
     7
 79
     5
170
     0
171
     0
290
     0
174
     0
 93
       13
 44
0.0
173
     0
291
     0
 45
0.0
1001
ACAD
1000
AcDbSavedByObjectVersion
1070
     0
1000
AcDbSavedByObjectVersion
1070
     0
  0
VISUALSTYLE
  5
1FB
102
{ACAD_REACTORS
330
1EE
102
}
330
1EE
100
AcDbVisualStyle
  2
Thicken
 70
    13
 71
     2
 72
     2
 73
     0
 90
        0
 40
-0.6
 41
-30.0
 62
     5
 63
     7
421
 16777215
 74
     1
 91
        4
 64
     7
 65
   257
 75
     1
175
     1
 42
1.0
 92
       12
 66
     7
 43
1.0
 76
     1
 77
     6
 78
     2
 67
     7
 79
     5
170
     0
171
     0
290
     0
174
     0
 93
        1
 44
0.0
173
     0
291
     1
 45
0.0
1001
ACAD
1000
AcDbSavedByObjectVersion
1070
     0
1000
AcDbSavedByObjectVersion
1070
     0
  0
DICTIONARYVAR
  5
18F
102
{ACAD_REACTORS
330
DA
102
}
330
DA
100
DictionaryVariables
280
     0
  1
STANDARD
  0
DICTIONARYVAR
  5
DC
102
{ACAD_REACTORS
330
DA
102
}
330
DA
100
DictionaryVariables
280
     0
  1
1
  0
DICTIONARYVAR
  5
DB
102
{ACAD_REACTORS
330
DA
102
}
330
DA
100
DictionaryVariables
280
     0
  1
1
  0
DICTIONARY
  5
9D
102
{ACAD_REACTORS
330
97
102
}
330
97
100
AcDbDictionary
281
     1
  0
XRECORD
  5
186
102
{ACAD_REACTORS
330
97
102
}
330
97
100
AcDbXrecord
280
     1
 90
-1023410169
  0
DICTIONARY
  5
944
330
1EC
100
AcDbDictionary
280
     1
281
     1
  3
ACAD_XREC_ROUNDTRIP
360
945
  0
DICTIONARY
  5
942
330
1EB
100
AcDbDictionary
280
     1
281
     1
  3
ACAD_XREC_ROUNDTRIP
360
943
  0
DICTIONARY
  5
946
330
1ED
100
AcDbDictionary
280
     1
281
     1
  3
ACAD_XREC_ROUNDTRIP
360
947
  0
DICTIONARY
  5
A13
330
170
100
AcDbDictionary
280
     1
281
     1
  3
ACAD_XREC_ROUNDTRIP
360
A14
  0
DICTIONARY
  5
92E
330
92D
100
AcDbDictionary
280
     1
281
     1
  3
ACAD_XREC_ROUNDTRIP
360
92F
  0
DICTIONARY
  5
931
330
930
100
AcDbDictionary
280
     1
281
     1
  3
ACAD_XREC_ROUNDTRIP
360
932
  0
DICTIONARY
  5
934
330
933
100
AcDbDictionary
280
     1
281
     1
  3
ACAD_XREC_ROUNDTRIP
360
935
  0
XRECORD
  5
945
102
{ACAD_REACTORS
330
944
102
}
330
944
100
AcDbXrecord
280
     1
102
MATERIAL
148
0.0
149
0.0
149
0.0
 93
        0
 94
       63
282
     0
 72
     1
 77
     1
171
     1
175
     1
179
     1
273
     0
  0
XRECORD
  5
943
102
{ACAD_REACTORS
330
942
102
}
330
942
100
AcDbXrecord
280
     1
102
MATERIAL
148
0.0
149
0.0
149
0.0
 93
        0
 94
       63
282
     0
 72
     1
 77
     1
171
     1
175
     1
179
     1
273
     0
  0
XRECORD
  5
947
102
{ACAD_REACTORS
330
946
102
}
330
946
100
AcDbXrecord
280
     1
102
MATERIAL
148
0.0
149
0.0
149
0.0
 93
        0
 94
       63
282
     0
 72
     1
 77
     1
171
     1
175
     1
179
     1
273
     0
  0
XRECORD
  5
A14
102
{ACAD_REACTORS
330
A13
102
}
330
A13
100
AcDbXrecord
280
     1
102
ACAD_ROUNDTRIP_PRE2007_TABLESTYLE
 90
        4
 91
        0
  1

 92
        4
 93
        0
  2

 94
        4
 95
        0
  3

  0
XRECORD
  5
92F
102
{ACAD_REACTORS
330
92E
102
}
330
92E
100
AcDbXrecord
280
     1
102
RTVSPropertyOp0
 70
     0
102
RTVSPropertyOp1
 70
     0
102
RTVSPropertyOp2
 70
     0
102
RTVSPropertyOp3
 70
     0
102
RTVSPropertyOp4
 70
     0
102
RTVSPropertyOp5
 70
     0
102
RTVSPropertyOp6
 70
     0
102
RTVSPropertyOp7
 70
     0
102
RTVSPropertyOp8
 70
     0
102
RTVSPropertyOp9
 70
     0
102
RTVSPropertyOp10
 70
     0
102
RTVSPropertyOp11
 70
     0
102
RTVSPropertyOp12
 70
     0
102
RTVSPropertyOp13
 70
     0
102
RTVSPropertyOp14
 70
     2
102
RTVSPropertyOp15
 70
     0
102
RTVSPropertyOp16
 70
     0
102
RTVSPropertyOp17
 70
     0
102
RTVSPropertyOp18
 70
     0
102
RTVSPropertyOp19
 70
     0
102
RTVSPropertyOp20
 70
     0
102
RTVSPropertyOp21
 70
     0
102
RTVSPropertyOp22
 70
     0
102
RTVSPropertyOp23
 70
     0
102
RTVSPropertyOp24
 70
     0
102
RTVSPropertyOp25
 70
     0
102
RTVSPropertyOp26
 70
     0
102
RTVSPropertyOp27
 70
     0
  0
XRECORD
  5
932
102
{ACAD_REACTORS
330
931
102
}
330
931
100
AcDbXrecord
280
     1
102
RTVSPropertyOp0
 70
     0
102
RTVSPropertyOp1
 70
     0
102
RTVSPropertyOp2
 70
     0
102
RTVSPropertyOp3
 70
     0
102
RTVSPropertyOp4
 70
     0
102
RTVSPropertyOp5
 70
     0
102
RTVSPropertyOp6
 70
     0
102
RTVSPropertyOp7
 70
     0
102
RTVSPropertyOp8
 70
     0
102
RTVSPropertyOp9
 70
     0
102
RTVSPropertyOp10
 70
     0
102
RTVSPropertyOp11
 70
     0
102
RTVSPropertyOp12
 70
     0
102
RTVSPropertyOp13
 70
     0
102
RTVSPropertyOp14
 70
     2
102
RTVSPropertyOp15
 70
     0
102
RTVSPropertyOp16
 70
     0
102
RTVSPropertyOp17
 70
     0
102
RTVSPropertyOp18
 70
     0
102
RTVSPropertyOp19
 70
     0
102
RTVSPropertyOp20
 70
     0
102
RTVSPropertyOp21
 70
     0
102
RTVSPropertyOp22
 70
     0
102
RTVSPropertyOp23
 70
     0
102
RTVSPropertyOp24
 70
     0
102
RTVSPropertyOp25
 70
     0
102
RTVSPropertyOp26
 70
     0
102
RTVSPropertyOp27
 70
     0
  0
XRECORD
  5
935
102
{ACAD_REACTORS
330
934
102
}
330
934
100
AcDbXrecord
280
     1
102
RTVSPropertyOp0
 70
     0
102
RTVSPropertyOp1
 70
     0
102
RTVSPropertyOp2
 70
     0
102
RTVSPropertyOp3
 70
     0
102
RTVSPropertyOp4
 70
     0
102
RTVSPropertyOp5
 70
     0
102
RTVSPropertyOp6
 70
     0
102
RTVSPropertyOp7
 70
     0
102
RTVSPropertyOp8
 70
     0
102
RTVSPropertyOp9
 70
     0
102
RTVSPropertyOp10
 70
     0
102
RTVSPropertyOp11
 70
     0
102
RTVSPropertyOp12
 70
     0
102
RTVSPropertyOp13
 70
     0
102
RTVSPropertyOp14
 70
     2
102
RTVSPropertyOp15
 70
     0
102
RTVSPropertyOp16
 70
     0
102
RTVSPropertyOp17
 70
     0
102
RTVSPropertyOp18
 70
     0
102
RTVSPropertyOp19
 70
     0
102
RTVSPropertyOp20
 70
     0
102
RTVSPropertyOp21
 70
     0
102
RTVSPropertyOp22
 70
     0
102
RTVSPropertyOp23
 70
     0
102
RTVSPropertyOp24
 70
     0
102
RTVSPropertyOp25
 70
     0
102
RTVSPropertyOp26
 70
     0
102
RTVSPropertyOp27
 70
     0
  0
ENDSEC
  0
EOF
