  0
SECTION
  2
HEADER
  9
$ACADVER
  1
AC1018
  9
$ACADMAINTVER
 70
   104
  9
$DWGCODEPAGE
  3
ANSI_1252
  9
$LASTSAVEDBY
  1
Oberdoer
  9
$CUSTOMPROPERTYTAG
  1
AmdtFileType
  9
$CUSTOMPROPERTY
  1
84
  9
$INSBASE
 10
0.0
 20
0.0
 30
0.0
  9
$EXTMIN
 10
-0.0446183193512426
 20
-0.0271899173650756
 30
-0.0000000349181977
  9
$EXTMAX
 10
630.0194929942166
 20
445.5271940665337
 30
0.0000000814935718
  9
$LIMMIN
 10
-0.0000000000000568
 20
0.0
  9
$LIMMAX
 10
630.0
 20
445.5
  9
$ORTHOMODE
 70
     0
  9
$REGENMODE
 70
     1
  9
$FILLMODE
 70
     1
  9
$QTEXTMODE
 70
     0
  9
$MIRRTEXT
 70
     1
  9
$LTSCALE
 40
1.5
  9
$ATTMODE
 70
     1
  9
$TEXTSIZE
 40
2.5
  9
$TRACEWID
 40
1.0
  9
$TEXTSTYLE
  7
STANDARD
  9
$CLAYER
  8
0
  9
$CELTYPE
  6
ByLayer
  9
$CECOLOR
 62
   256
  9
$CELTSCALE
 40
1.0
  9
$DISPSILH
 70
     0
  9
$DIMSCALE
 40
1.0
  9
$DIMASZ
 40
2.5
  9
$DIMEXO
 40
0.0
  9
$DIMDLI
 40
10.0
  9
$DIMRND
 40
0.0
  9
$DIMDLE
 40
0.0
  9
$DIMEXE
 40
2.0
  9
$DIMTP
 40
0.1
  9
$DIMTM
 40
0.1
  9
$DIMTXT
 40
3.5
  9
$DIMCEN
 40
0.0
  9
$DIMTSZ
 40
0.0
  9
$DIMTOL
 70
     0
  9
$DIMLIM
 70
     0
  9
$DIMTIH
 70
     0
  9
$DIMTOH
 70
     0
  9
$DIMSE1
 70
     0
  9
$DIMSE2
 70
     0
  9
$DIMTAD
 70
     1
  9
$DIMZIN
 70
     8
  9
$DIMBLK
  1

  9
$DIMASO
 70
     1
  9
$DIMSHO
 70
     1
  9
$DIMPOST
  1

  9
$DIMAPOST
  1
"
  9
$DIMALT
 70
     0
  9
$DIMALTD
 70
     2
  9
$DIMALTF
 40
0.0393701
  9
$DIMLFAC
 40
1.0
  9
$DIMTOFL
 70
     1
  9
$DIMTVP
 40
0.0
  9
$DIMTIX
 70
     0
  9
$DIMSOXD
 70
     0
  9
$DIMSAH
 70
     0
  9
$DIMBLK1
  1

  9
$DIMBLK2
  1

  9
$DIMSTYLE
  2
AM_DIN
  9
$DIMCLRD
 70
   256
  9
$DIMCLRE
 70
   256
  9
$DIMCLRT
 70
     2
  9
$DIMTFAC
 40
0.71
  9
$DIMGAP
 40
1.5
  9
$DIMJUST
 70
     0
  9
$DIMSD1
 70
     0
  9
$DIMSD2
 70
     0
  9
$DIMTOLJ
 70
     0
  9
$DIMTZIN
 70
     8
  9
$DIMALTZ
 70
     0
  9
$DIMALTTZ
 70
     0
  9
$DIMUPT
 70
     0
  9
$DIMDEC
 70
     2
  9
$DIMTDEC
 70
     2
  9
$DIMALTU
 70
     2
  9
$DIMALTTD
 70
     2
  9
$DIMTXSTY
  7
STANDARD
  9
$DIMAUNIT
 70
     0
  9
$DIMADEC
 70
     0
  9
$DIMALTRND
 40
0.0
  9
$DIMAZIN
 70
     2
  9
$DIMDSEP
 70
    46
  9
$DIMATFIT
 70
     3
  9
$DIMFRAC
 70
     0
  9
$DIMLDRBLK
  1

  9
$DIMLUNIT
 70
     2
  9
$DIMLWD
 70
    -1
  9
$DIMLWE
 70
    -1
  9
$DIMTMOVE
 70
     0
  9
$LUNITS
 70
     2
  9
$LUPREC
 70
     2
  9
$SKETCHINC
 40
1.0
  9
$FILLETRAD
 40
3.75
  9
$AUNITS
 70
     0
  9
$AUPREC
 70
     0
  9
$MENU
  1
.
  9
$ELEVATION
 40
0.0
  9
$PELEVATION
 40
0.0
  9
$THICKNESS
 40
0.0
  9
$LIMCHECK
 70
     0
  9
$CHAMFERA
 40
3.75
  9
$CHAMFERB
 40
3.75
  9
$CHAMFERC
 40
20.0
  9
$CHAMFERD
 40
0.0
  9
$SKPOLY
 70
     0
  9
$TDCREATE
 40
2455117.353566979
  9
$TDUCREATE
 40
2455117.270233646
  9
$TDUPDATE
 40
2456486.645669294
  9
$TDUUPDATE
 40
2456486.562335961
  9
$TDINDWG
 40
0.0088316667
  9
$TDUSRTIMER
 40
0.0088307639
  9
$USRTIMER
 70
     1
  9
$ANGBASE
 50
0.0
  9
$ANGDIR
 70
     0
  9
$PDMODE
 70
     0
  9
$PDSIZE
 40
0.0
  9
$PLINEWID
 40
0.0
  9
$SPLFRAME
 70
     0
  9
$SPLINETYPE
 70
     6
  9
$SPLINESEGS
 70
     8
  9
$HANDSEED
  5
1699
  9
$SURFTAB1
 70
     6
  9
$SURFTAB2
 70
     6
  9
$SURFTYPE
 70
     6
  9
$SURFU
 70
     6
  9
$SURFV
 70
     6
  9
$UCSBASE
  2

  9
$UCSNAME
  2

  9
$UCSORG
 10
0.0
 20
0.0
 30
0.0
  9
$UCSXDIR
 10
1.0
 20
0.0
 30
0.0
  9
$UCSYDIR
 10
0.0
 20
1.0
 30
0.0
  9
$UCSORTHOREF
  2

  9
$UCSORTHOVIEW
 70
     0
  9
$UCSORGTOP
 10
0.0
 20
0.0
 30
0.0
  9
$UCSORGBOTTOM
 10
0.0
 20
0.0
 30
0.0
  9
$UCSORGLEFT
 10
0.0
 20
0.0
 30
0.0
  9
$UCSORGRIGHT
 10
0.0
 20
0.0
 30
0.0
  9
$UCSORGFRONT
 10
0.0
 20
0.0
 30
0.0
  9
$UCSORGBACK
 10
0.0
 20
0.0
 30
0.0
  9
$PUCSBASE
  2

  9
$PUCSNAME
  2

  9
$PUCSORG
 10
0.0
 20
0.0
 30
0.0
  9
$PUCSXDIR
 10
1.0
 20
0.0
 30
0.0
  9
$PUCSYDIR
 10
0.0
 20
1.0
 30
0.0
  9
$PUCSORTHOREF
  2

  9
$PUCSORTHOVIEW
 70
     0
  9
$PUCSORGTOP
 10
0.0
 20
0.0
 30
0.0
  9
$PUCSORGBOTTOM
 10
0.0
 20
0.0
 30
0.0
  9
$PUCSORGLEFT
 10
0.0
 20
0.0
 30
0.0
  9
$PUCSORGRIGHT
 10
0.0
 20
0.0
 30
0.0
  9
$PUCSORGFRONT
 10
0.0
 20
0.0
 30
0.0
  9
$PUCSORGBACK
 10
0.0
 20
0.0
 30
0.0
  9
$USERI1
 70
     0
  9
$USERI2
 70
     0
  9
$USERI3
 70
     0
  9
$USERI4
 70
     0
  9
$USERI5
 70
     0
  9
$USERR1
 40
0.0
  9
$USERR2
 40
0.0
  9
$USERR3
 40
0.0
  9
$USERR4
 40
0.0
  9
$USERR5
 40
0.0
  9
$WORLDVIEW
 70
     1
  9
$SHADEDGE
 70
     3
  9
$SHADEDIF
 70
    70
  9
$TILEMODE
 70
     1
  9
$MAXACTVP
 70
    64
  9
$PINSBASE
 10
0.0
 20
0.0
 30
0.0
  9
$PLIMCHECK
 70
     0
  9
$PEXTMIN
 10
28.19999999999999
 20
17.0
 30
0.0
  9
$PEXTMAX
 10
253.8
 20
153.0
 30
0.0
  9
$PLIMMIN
 10
-7.5
 20
-20.0
  9
$PLIMMAX
 10
289.5
 20
190.0
  9
$UNITMODE
 70
     0
  9
$VISRETAIN
 70
     1
  9
$PLINEGEN
 70
     0
  9
$PSLTSCALE
 70
     1
  9
$TREEDEPTH
 70
  3020
  9
$CMLSTYLE
  2
Standard
  9
$CMLJUST
 70
     0
  9
$CMLSCALE
 40
20.0
  9
$PROXYGRAPHICS
 70
     1
  9
$MEASUREMENT
 70
     1
  9
$CELWEIGHT
370
    -1
  9
$ENDCAPS
280
     0
  9
$JOINSTYLE
280
     0
  9
$LWDISPLAY
290
     0
  9
$INSUNITS
 70
     4
  9
$HYPERLINKBASE
  1

  9
$STYLESHEET
  1
ganz_fein_1.ctb
  9
$XEDIT
290
     1
  9
$CEPSNTYPE
380
     0
  9
$PSTYLEMODE
290
     1
  9
$FINGERPRINTGUID
  2
{2E81949C-6763-4D56-B2DA-DEDDB010D0F9}
  9
$VERSIONGUID
  2
{60FA11DD-50DA-4F59-84FF-48D0E0BFEEA7}
  9
$EXTNAMES
290
     1
  9
$PSVPSCALE
 40
0.0
  9
$OLESTARTUP
290
     0
  9
$SORTENTS
280
   127
  9
$INDEXCTL
280
     0
  9
$HIDETEXT
280
     0
  9
$XCLIPFRAME
290
     0
  9
$HALOGAP
280
     0
  9
$OBSCOLOR
 70
   257
  9
$OBSLTYPE
280
     0
  9
$INTERSECTIONDISPLAY
280
     0
  9
$INTERSECTIONCOLOR
 70
   257
  9
$DIMASSOC
280
     1
  9
$PROJECTNAME
  1

  0
ENDSEC
  0
SECTION
  2
CLASSES
  0
CLASS
  1
ACDBDICTIONARYWDFLT
  2
AcDbDictionaryWithDefault
  3
ObjectDBX Classes
 90
        0
 91
        1
280
     0
281
     0
  0
CLASS
  1
ACME_DOCUMENT
  2
AcMeDbDoc
  3
AcMeServices
 90
        0
 91
        1
280
     0
281
     0
  0
CLASS
  1
AMGSETTINGSOBJ
  2
AmgSettingsObj
  3
"AcadM|Product Description: AutoCAD Mechanical|Company: Autodesk"
 90
        0
 91
        2
280
     0
281
     0
  0
CLASS
  1
ACMESCOPE
  2
AcMeScope
  3
AcMeServices
 90
        0
 91
        1
280
     0
281
     0
  0
CLASS
  1
ACMECOMMANDHISTORY
  2
AcMeCommandHistory
  3
AcMeServices
 90
        0
 91
        1
280
     0
281
     0
  0
CLASS
  1
ACIMSYSVARMAN
  2
AcImSysVarManager
  3
AcMeServices
 90
        0
 91
        5
280
     0
281
     0
  0
CLASS
  1
ACIMREALSYSVAR
  2
AcImRealSysVar
  3
AcMeServices
 90
        0
 91
        1
280
     0
281
     0
  0
CLASS
  1
ACIMINTSYSVAR
  2
AcImIntSysVar
  3
AcMeServices
 90
        0
 91
       27
280
     0
281
     0
  0
CLASS
  1
ACMEDRAWINGMAN
  2
AcMeDrawingMan
  3
AcMeServices
 90
        0
 91
        1
280
     0
281
     0
  0
CLASS
  1
ACMEVIEW
  2
AcMeView
  3
AcMeServices
 90
        0
 91
        1
280
     0
281
     0
  0
CLASS
  1
ACDBENTITYCACHE
  2
AcMeEntityCache
  3
AcMeServices
 90
        0
 91
        1
280
     0
281
     0
  0
CLASS
  1
GSMANAGER
  2
AcMeGSManager
  3
AcMeServices
 90
        0
 91
        1
280
     0
281
     0
  0
CLASS
  1
AMDTINTERNALREACTOR
  2
AmdtInternalReactor
  3
AcMeServices
 90
        0
 91
        2
280
     0
281
     0
  0
CLASS
  1
ACMESTATEMGR
  2
AcMeStateMgr
  3
AcMeServices
 90
        0
 91
        1
280
     0
281
     0
  0
CLASS
  1
ACGREFMASTER
  2
AcGrefMaster
  3
AcAttribServices
 90
        0
 91
        1
280
     0
281
     0
  0
CLASS
  1
ACME_DATABASE
  2
AcMeDbDatabase
  3
AcMeServices
 90
        0
 91
        2
280
     0
281
     0
  0
CLASS
  1
ACRFINSADJUSTERMGR
  2
AcRfInsAdjusterMgr
  3
AcMeServices
 90
        0
 91
        1
280
     0
281
     0
  0
CLASS
  1
ACGREFACADMASTER
  2
AcGrefacadMaster
  3
AcGrefServices
 90
        0
 91
        1
280
     0
281
     0
  0
CLASS
  1
AMIMASTER
  2
AmiMaster
  3
AmiServices
 90
        0
 91
        1
280
     0
281
     0
  0
CLASS
  1
ACMDATADICTIONARY
  2
AcmDataDictionary
  3
"AcmSymBB|Product Description: AutoCAD Mechanical|Company: Autodesk"
 90
        0
 91
        1
280
     0
281
     0
  0
CLASS
  1
ACMDATAENTRYBLOCK
  2
AcmDataEntryBlock
  3
"AcmSymBB|Product Description: AutoCAD Mechanical|Company: Autodesk"
 90
        0
 91
        0
280
     0
281
     0
  0
CLASS
  1
ACIMSTRSYSVAR
  2
AcImStrSysVar
  3
AcMeServices
 90
        0
 91
        5
280
     0
281
     0
  0
CLASS
  1
ACMSTANDARDDIN
  2
AcmStandardDIN
  3
"Amdt_StdImp|Product Description: AutoCAD Mechanical|Company: Autodesk"
 90
        0
 91
        1
280
     0
281
     0
  0
CLASS
  1
AMGOBJPROPCFG
  2
AmgObjPropCfg
  3
"AmgLay|Product Description: AutoCAD Mechanical|Company: Autodesk"
 90
        1
 91
        2
280
     0
281
     0
  0
CLASS
  1
AMDTEDGESTANDARDDIN
  2
AmdtEdgeStdDIN
  3
"Amdt_StdImp|Product Description: AutoCAD Mechanical|Company: Autodesk"
 90
        0
 91
        0
280
     0
281
     0
  0
CLASS
  1
ACMSURFSTANDARDDIN
  2
AcmSurfTextStdDIN
  3
"Amdt_StdImp|Product Description: AutoCAD Mechanical|Company: Autodesk"
 90
        0
 91
        1
280
     0
281
     0
  0
CLASS
  1
ACMFCFSTANDARDDIN
  2
AcmFCFStdDIN
  3
"Amdt_StdImp|Product Description: AutoCAD Mechanical|Company: Autodesk"
 90
        0
 91
        1
280
     0
281
     0
  0
CLASS
  1
ACMWELDSTANDARDDIN
  2
AcmWeldingStdDIN
  3
"Amdt_StdImp|Product Description: AutoCAD Mechanical|Company: Autodesk"
 90
        0
 91
        1
280
     0
281
     0
  0
CLASS
  1
ACMIDSTANDARDDIN
  2
AcmIdStdDIN
  3
"Amdt_StdImp|Product Description: AutoCAD Mechanical|Company: Autodesk"
 90
        0
 91
        1
280
     0
281
     0
  0
CLASS
  1
ACMDATUMSTANDARDDIN
  2
AcmDatumStdDIN
  3
"Amdt_StdImp|Product Description: AutoCAD Mechanical|Company: Autodesk"
 90
        0
 91
        1
280
     0
281
     0
  0
CLASS
  1
ACMBOMSTANDARDDIN
  2
AcmBOMStdDIN
  3
"Amdt_StdImp|Product Description: AutoCAD Mechanical|Company: Autodesk"
 90
        0
 91
        1
280
     0
281
     0
  0
CLASS
  1
ACMDETAILSTANDARDDIN
  2
AmdtDetailSymStdDIN
  3
"Amdt_StdImp|Product Description: AutoCAD Mechanical|Company: Autodesk"
 90
        0
 91
        1
280
     0
281
     0
  0
CLASS
  1
ACMSECTIONSTANDARDDIN
  2
AmdtSectionSymStdDIN
  3
"Amdt_StdImp|Product Description: AutoCAD Mechanical|Company: Autodesk"
 90
        0
 91
        1
280
     0
281
     0
  0
CLASS
  1
ACMCENTERLINESTANDARDDIN
  2
AmdtCenterLineStdDIN
  3
"Amdt_StdImp|Product Description: AutoCAD Mechanical|Company: Autodesk"
 90
        0
 91
        1
280
     0
281
     0
  0
CLASS
  1
ACMNOTESTANDARDDIN
  2
AmdtNoteStdDIN
  3
"Amdt_StdImp|Product Description: AutoCAD Mechanical|Company: Autodesk"
 90
        0
 91
        1
280
     0
281
     0
  0
CLASS
  1
ACAMGLAYSTD
  2
AcAmgLayStd
  3
"AmgLay|Product Description: AutoCAD Mechanical|Company: Autodesk"
 90
        0
 91
        2
280
     0
281
     0
  0
CLASS
  1
ACAMGDIMSTD
  2
AcAmgDimStd
  3
"AmgDim|Product Description: AutoCAD Mechanical|Company: Autodesk"
 90
        0
 91
        2
280
     0
281
     0
  0
CLASS
  1
ACAMGHOLECHARTSTDDIN
  2
AcAmgHoleChartStdDIN
  3
ACMSYMBB_MODULE_NAME
 90
        0
 91
        1
280
     0
281
     0
  0
CLASS
  1
ACAMGTITLESTD
  2
AcAmgTitleStd
  3
"AmgTitle|Product Description: AutoCAD Mechanical|Company: Autodesk"
 90
        0
 91
        2
280
     0
281
     0
  0
CLASS
  1
LAYER_INDEX
  2
AcDbLayerIndex
  3
ObjectDBX Classes
 90
        0
 91
        0
280
     0
281
     0
  0
CLASS
  1
IDBUFFER
  2
AcDbIdBuffer
  3
ObjectDBX Classes
 90
        0
 91
        0
280
     0
281
     0
  0
CLASS
  1
DICTIONARYVAR
  2
AcDbDictionaryVar
  3
ObjectDBX Classes
 90
        0
 91
        3
280
     0
281
     0
  0
CLASS
  1
AM_DRAWING_MGR
  2
AcDmDwgMgr
  3
AcMechDwgViewMgmt
 90
        0
 91
        1
280
     0
281
     0
  0
CLASS
  1
AM_DWG_DOCUMENT
  2
AcDmDwgDocument
  3
AcMechDwgViewMgmt
 90
        0
 91
        1
280
     0
281
     0
  0
CLASS
  1
AM_DWG_SHEET
  2
AcDmSheet
  3
AcMechDwgViewMgmt
 90
        0
 91
        2
280
     0
281
     0
  0
CLASS
  1
AM_VIEWDIMPARMAP
  2
AcDmViewDimParMap
  3
AcMechDwgViewMgmt
 90
        0
 91
        2
280
     0
281
     0
  0
CLASS
  1
AM_DWGMGR_NAME
  2
AcDmDwgMgrName
  3
AcMechDwgViewMgmt
 90
        0
 91
        1
280
     0
281
     0
  0
CLASS
  1
AMDTMENUSTATEMGR
  2
AmdtMenuStateMgr
  3
McadcomServices
 90
        0
 91
        1
280
     0
281
     0
  0
CLASS
  1
AMDTMCOMMENUSTATE
  2
AmdtMcomMenuState
  3
McadcomServices
 90
        0
 91
        1
280
     0
281
     0
  0
CLASS
  1
MAPIAMMOUDLE
  2
MApiAmModule
  3
MApiAmServices
 90
        0
 91
        1
280
     0
281
     0
  0
CLASS
  1
AMDTADMENUSTATE
  2
AmdtAdMenuState
  3
DesignerServices
 90
        0
 91
        1
280
     0
281
     0
  0
CLASS
  1
ADAPPL
  2
AcAdAppl
  3
DesignerServices
 90
        0
 91
        1
280
     0
281
     0
  0
CLASS
  1
DEPMGR
  2
AcAdDepMgr
  3
DesignerServices
 90
        0
 91
        1
280
     0
281
     0
  0
CLASS
  1
PARAMMGR
  2
AcAdParamMgr
  3
DesignerServices
 90
        0
 91
        1
280
     0
281
     0
  0
CLASS
  1
PARAMSCOPE
  2
AcAdParamScope
  3
DesignerServices
 90
        0
 91
        1
280
     0
281
     0
  0
CLASS
  1
NAMEDAPPL
  2
AcAdNamedAppl
  3
DesignerServices
 90
        0
 91
        1
280
     0
281
     0
  0
CLASS
  1
AMDTDMMENUSTATE
  2
AmdtDmMenuState
  3
AcMechDwgViewMgmt
 90
        0
 91
        1
280
     0
281
     0
  0
CLASS
  1
AMDTAMMENUSTATE
  2
AmdtAmMenuState
  3
DesignerAssemblies
 90
        0
 91
        1
280
     0
281
     0
  0
CLASS
  1
ACAMPROJECT
  2
AcAmProject
  3
DesignerAssemblies
 90
        0
 91
        1
280
     0
281
     0
  0
CLASS
  1
ACAMGRCOMPDEF
  2
AcAmGrCompDef
  3
DesignerAssemblies
 90
        0
 91
        1
280
     0
281
     0
  0
CLASS
  1
ACCMCONTEXT
  2
AcCmContext
  3
DesignerAssemblies
 90
        0
 91
        1
280
     0
281
     0
  0
CLASS
  1
ACAMCOMPDEF
  2
AcAmCompDef
  3
DesignerAssemblies
 90
        0
 91
        1
280
     0
281
     0
  0
CLASS
  1
ACAMCOMPDEFMGR
  2
AcAmCompDefMgr
  3
DesignerAssemblies
 90
        0
 91
        1
280
     0
281
     0
  0
CLASS
  1
AMCONTEXTMGR
  2
AcAmContextMgr
  3
DesignerAssemblies
 90
        0
 91
        1
280
     0
281
     0
  0
CLASS
  1
ACAMCONTEXTMODELER
  2
AcAmContextModeler
  3
DesignerAssemblies
 90
        0
 91
        1
280
     0
281
     0
  0
CLASS
  1
ACMTHREADLINESTANDARDDIN
  2
AmdtThreadLineStdDIN
  3
"Amdt_StdImp|Product Description: AutoCAD Mechanical|Company: Autodesk"
 90
        0
 91
        1
280
     0
281
     0
  0
CLASS
  1
CATALOGSTATE
  2
AcAmCatalogState
  3
DesignerAssemblies
 90
        0
 91
        1
280
     0
281
     0
  0
CLASS
  1
ACAMGRCOMPDEFSET
  2
AcAmGrCompDefSet
  3
DesignerAssemblies
 90
        0
 91
        1
280
     0
281
     0
  0
CLASS
  1
AMDTBROWSERDBTAB
  2
AmdtBrowserDbTab
  3
McadcomServices
 90
        0
 91
        1
280
     0
281
     0
  0
CLASS
  1
CBROWSERAPPOBJECT
  2
CBrowserAppObject
  3
McadcomServices
 90
        0
 91
        3
280
     0
281
     0
  0
CLASS
  1
DM_PLACEHOLDER
  2
AcDmSelsetPlaceholder
  3
AcMechDwgViewMgmt
 90
        0
 91
        1
280
     0
281
     0
  0
CLASS
  1
TABLESTYLE
  2
AcDbTableStyle
  3
ObjectDBX Classes
 90
     4095
 91
        1
280
     0
281
     0
  0
CLASS
  1
MATERIAL
  2
AcDbMaterial
  3
ObjectDBX Classes
 90
     1024
 91
        3
280
     0
281
     0
  0
CLASS
  1
VISUALSTYLE
  2
AcDbVisualStyle
  3
ObjectDBX Classes
 90
     4095
 91
       19
280
     0
281
     0
  0
CLASS
  1
ACRFATTGENMGR
  2
AcRfAttGeneralMgr
  3
AcAttribServices
 90
        0
 91
        0
280
     0
281
     0
  0
CLASS
  1
ACRFOBJATTMGR
  2
AcRfObjAttGroupMgr
  3
AcAttribServices
 90
        0
 91
        0
280
     0
281
     0
  0
CLASS
  1
ACRFMCADAPIATTHOLDER
  2
AcRfMCADAPIAttHolder
  3
AcAttribServices
 90
        0
 91
        0
280
     0
281
     0
  0
CLASS
  1
AMDTSYSATTR
  2
AmdtSystemAttribute
  3
AcAttribServices
 90
        0
 91
        0
280
     0
281
     0
  0
CLASS
  1
ACMTAPERSTANDARDDIN
  2
AcmTaperStdDIN
  3
"Amdt_StdImp|Product Description: AutoCAD Mechanical|Company: Autodesk"
 90
        0
 91
        1
280
     0
281
     0
  0
CLASS
  1
CAMSSTRUCTBTNSTATE
  2
StructBtnState
  3
L"DesignerAssemblies"
 90
        0
 91
        0
280
     0
281
     0
  0
CLASS
  1
ACMSTANDARDANSI
  2
AcmStandardANSI
  3
"Amdt_StdImp|Product Description: AutoCAD Mechanical|Company: Autodesk"
 90
        0
 91
        0
280
     0
281
     0
  0
CLASS
  1
ACMSURFSTANDARDANSI
  2
AcmSurfTextStdANSI
  3
"Amdt_StdImp|Product Description: AutoCAD Mechanical|Company: Autodesk"
 90
        0
 91
        0
280
     0
281
     0
  0
CLASS
  1
ACMFCFSTANDARDANSI
  2
AcmFCFStdANSI
  3
"Amdt_StdImp|Product Description: AutoCAD Mechanical|Company: Autodesk"
 90
        0
 91
        0
280
     0
281
     0
  0
CLASS
  1
ACMWELDSTANDARDANSI
  2
AcmWeldingStdANSI
  3
"Amdt_StdImp|Product Description: AutoCAD Mechanical|Company: Autodesk"
 90
        0
 91
        0
280
     0
281
     0
  0
CLASS
  1
ACMIDSTANDARDANSI
  2
AcmIdStdANSI
  3
"Amdt_StdImp|Product Description: AutoCAD Mechanical|Company: Autodesk"
 90
        0
 91
        0
280
     0
281
     0
  0
CLASS
  1
ACMDATUMSTANDARDANSI
  2
AcmDatumStdANSI
  3
"Amdt_StdImp|Product Description: AutoCAD Mechanical|Company: Autodesk"
 90
        0
 91
        0
280
     0
281
     0
  0
CLASS
  1
ACMBOMSTANDARDANSI
  2
AcmBOMStdANSI
  3
"Amdt_StdImp|Product Description: AutoCAD Mechanical|Company: Autodesk"
 90
        0
 91
        0
280
     0
281
     0
  0
CLASS
  1
ACMDETAILSTANDARDANSI
  2
AmdtDetailSymStdANSI
  3
"Amdt_StdImp|Product Description: AutoCAD Mechanical|Company: Autodesk"
 90
        0
 91
        0
280
     0
281
     0
  0
CLASS
  1
ACMSECTIONSTANDARDANSI
  2
AmdtSectionSymStdANSI
  3
"Amdt_StdImp|Product Description: AutoCAD Mechanical|Company: Autodesk"
 90
        0
 91
        0
280
     0
281
     0
  0
CLASS
  1
ACMCENTERLINESTANDARDANSI
  2
AmdtCenterLineStdANSI
  3
"Amdt_StdImp|Product Description: AutoCAD Mechanical|Company: Autodesk"
 90
        0
 91
        0
280
     0
281
     0
  0
CLASS
  1
ACMTHREADLINESTANDARDANSI
  2
AmdtThreadLineStdANSI
  3
"Amdt_StdImp|Product Description: AutoCAD Mechanical|Company: Autodesk"
 90
        0
 91
        0
280
     0
281
     0
  0
CLASS
  1
ACMNOTESTANDARDANSI
  2
AmdtNoteStdANSI
  3
"Amdt_StdImp|Product Description: AutoCAD Mechanical|Company: Autodesk"
 90
        0
 91
        0
280
     0
281
     0
  0
CLASS
  1
AMDTNOTETEMPLATEDB
  2
AmdtNoteTemplateDB
  3
AMDT_STDIMP_MODULE_NAME
 90
        0
 91
        9
280
     0
281
     0
  0
CLASS
  1
ACAMGHOLECHARTSTDANSI
  2
AcAmgHoleChartStdANSI
  3
ACMSYMBB_MODULE_NAME
 90
        0
 91
        0
280
     0
281
     0
  0
CLASS
  1
ACMTAPERSTANDARDANSI
  2
AcmTaperStdANSI
  3
"Amdt_StdImp|Product Description: AutoCAD Mechanical|Company: Autodesk"
 90
        0
 91
        0
280
     0
281
     0
  0
CLASS
  1
ACAMGFILTERDAT
  2
AcAmgFilterDat
  3
"AcadM|Product Description: AutoCAD Mechanical|Company: Autodesk"
 90
        0
 91
        0
280
     0
281
     0
  0
CLASS
  1
ACMSTANDARDISO
  2
AcmStandardISO
  3
"Amdt_StdImp|Product Description: AutoCAD Mechanical|Company: Autodesk"
 90
        0
 91
        1
280
     0
281
     0
  0
CLASS
  1
AMDTEDGESTANDARDISO
  2
AmdtEdgeStdISO
  3
"Amdt_StdImp|Product Description: AutoCAD Mechanical|Company: Autodesk"
 90
        0
 91
        1
280
     0
281
     0
  0
CLASS
  1
ACMSURFSTANDARDISO
  2
AcmSurfTextStdISO
  3
"Amdt_StdImp|Product Description: AutoCAD Mechanical|Company: Autodesk"
 90
        0
 91
        1
280
     0
281
     0
  0
CLASS
  1
ACMFCFSTANDARDISO
  2
AcmFCFStdISO
  3
"Amdt_StdImp|Product Description: AutoCAD Mechanical|Company: Autodesk"
 90
        0
 91
        1
280
     0
281
     0
  0
CLASS
  1
ACMWELDSTANDARDISO
  2
AcmWeldingStdISO
  3
"Amdt_StdImp|Product Description: AutoCAD Mechanical|Company: Autodesk"
 90
        0
 91
        1
280
     0
281
     0
  0
CLASS
  1
ACMIDSTANDARDISO
  2
AcmIdStdISO
  3
"Amdt_StdImp|Product Description: AutoCAD Mechanical|Company: Autodesk"
 90
        0
 91
        1
280
     0
281
     0
  0
CLASS
  1
ACMDATUMSTANDARDISO
  2
AcmDatumStdISO
  3
"Amdt_StdImp|Product Description: AutoCAD Mechanical|Company: Autodesk"
 90
        0
 91
        1
280
     0
281
     0
  0
CLASS
  1
ACMBOMSTANDARDISO
  2
AcmBOMStdISO
  3
"Amdt_StdImp|Product Description: AutoCAD Mechanical|Company: Autodesk"
 90
        0
 91
        1
280
     0
281
     0
  0
CLASS
  1
ACMDETAILSTANDARDISO
  2
AmdtDetailSymStdISO
  3
"Amdt_StdImp|Product Description: AutoCAD Mechanical|Company: Autodesk"
 90
        0
 91
        1
280
     0
281
     0
  0
CLASS
  1
ACMSECTIONSTANDARDISO
  2
AmdtSectionSymStdISO
  3
"Amdt_StdImp|Product Description: AutoCAD Mechanical|Company: Autodesk"
 90
        0
 91
        1
280
     0
281
     0
  0
CLASS
  1
ACMCENTERLINESTANDARDISO
  2
AmdtCenterLineStdISO
  3
"Amdt_StdImp|Product Description: AutoCAD Mechanical|Company: Autodesk"
 90
        0
 91
        1
280
     0
281
     0
  0
CLASS
  1
ACMNOTESTANDARDISO
  2
AmdtNoteStdISO
  3
"Amdt_StdImp|Product Description: AutoCAD Mechanical|Company: Autodesk"
 90
        0
 91
        1
280
     0
281
     0
  0
CLASS
  1
ACAMGHOLECHARTSTDISO
  2
AcAmgHoleChartStdISO
  3
ACMSYMBB_MODULE_NAME
 90
        0
 91
        1
280
     0
281
     0
  0
CLASS
  1
ACMTHREADLINESTANDARDISO
  2
AmdtThreadLineStdISO
  3
"Amdt_StdImp|Product Description: AutoCAD Mechanical|Company: Autodesk"
 90
        0
 91
        1
280
     0
281
     0
  0
CLASS
  1
ACMTAPERSTANDARDISO
  2
AcmTaperStdISO
  3
"Amdt_StdImp|Product Description: AutoCAD Mechanical|Company: Autodesk"
 90
        0
 91
        1
280
     0
281
     0
  0
CLASS
  1
SORTENTSTABLE
  2
AcDbSortentsTable
  3
ObjectDBX Classes
 90
        0
 91
        0
280
     0
281
     0
  0
CLASS
  1
AMDTEDGESTANDARDDIN13715
  2
AmdtEdgeStdDIN13715
  3
"Amdt_StdImp|Product Description: AutoCAD Mechanical|Company: Autodesk"
 90
        0
 91
        1
280
     0
281
     0
  0
ENDSEC
  0
SECTION
  2
TABLES
  0
TABLE
  2
VPORT
  5
8
330
0
100
AcDbSymbolTable
 70
     1
  0
VPORT
  5
1E9
330
8
100
AcDbSymbolTableRecord
100
AcDbViewportTableRecord
  2
*Active
 70
     0
 10
0.0
 20
0.0
 11
1.0
 21
1.0
 12
314.9874373374327
 22
222.7500020745844
 13
0.0
 23
0.0
 14
3.75
 24
3.75
 15
15.0
 25
15.0
 16
0.0
 26
0.0
 36
1.0
 17
0.0
 27
0.0
 37
0.0
 40
448.193403040072
 41
1.50790513833992
 42
50.0
 43
0.0
 44
0.0
 50
0.0
 51
0.0
 71
    16
 72
   100
 73
     1
 74
     3
 75
     0
 76
     0
 77
     0
 78
     0
281
     0
 65
     1
110
0.0
120
0.0
130
0.0
111
1.0
121
0.0
131
0.0
112
0.0
122
1.0
132
0.0
 79
     0
146
0.0
  0
ENDTAB
  0
TABLE
  2
LTYPE
  5
5
330
0
100
AcDbSymbolTable
 70
    91
  0
LTYPE
  5
14
330
5
100
AcDbSymbolTableRecord
100
AcDbLinetypeTableRecord
  2
ByBlock
 70
     0
  3

 72
    65
 73
     0
 40
0.0
  0
LTYPE
  5
15
330
5
100
AcDbSymbolTableRecord
100
AcDbLinetypeTableRecord
  2
ByLayer
 70
     0
  3

 72
    65
 73
     0
 40
0.0
  0
LTYPE
  5
16
330
5
100
AcDbSymbolTableRecord
100
AcDbLinetypeTableRecord
  2
Continuous
 70
     0
  3
Solid line
 72
    65
 73
     0
 40
0.0
  0
LTYPE
  5
A0
330
5
100
AcDbSymbolTableRecord
100
AcDbLinetypeTableRecord
  2
AM_ISO02W050
 70
     0
  3
__ __ __ __ __ __ __ __ __ __ __ __ __ __ __
 72
    65
 73
     2
 40
7.5
 49
6.0
 74
     0
 49
-1.5
 74
     0
  0
LTYPE
  5
A1
330
5
100
AcDbSymbolTableRecord
100
AcDbLinetypeTableRecord
  2
AM_ISO08W050
 70
     0
  3
____ . ____ . ____ . ____ . ____ . ____ . ____
 72
    65
 73
     4
 40
18.0
 49
12.0
 74
     0
 49
-1.5
 74
     0
 49
3.0
 74
     0
 49
-1.5
 74
     0
  0
LTYPE
  5
A2
330
5
100
AcDbSymbolTableRecord
100
AcDbLinetypeTableRecord
  2
AM_ISO09W050
 70
     0
  3
_____ . . _____ . . _____ . . ____ .. ____
 72
    65
 73
     6
 40
22.5
 49
12.0
 74
     0
 49
-1.5
 74
     0
 49
3.0
 74
     0
 49
-1.5
 74
     0
 49
3.0
 74
     0
 49
-1.5
 74
     0
  0
LTYPE
  5
A3
330
5
100
AcDbSymbolTableRecord
100
AcDbLinetypeTableRecord
  2
Amconstr
 70
     0
  3
_______________________
 72
    65
 73
     2
 40
9999.0
 49
9999.0
 74
     0
 49
0.0
 74
     0
  0
LTYPE
  5
A4
330
5
100
AcDbSymbolTableRecord
100
AcDbLinetypeTableRecord
  2
AM_ISO08W050x2
 70
     0
  3
__ . __ . __ . __ . __ . __
 72
    65
 73
     4
 40
9.0
 49
6.0
 74
     0
 49
-0.75
 74
     0
 49
1.5
 74
     0
 49
-0.75
 74
     0
  0
LTYPE
  5
A5
330
5
100
AcDbSymbolTableRecord
100
AcDbLinetypeTableRecord
  2
AM_ISO02W050x2
 70
     0
  3
 _ _ _ _ _ _ _ _ _ _ _ _
 72
    65
 73
     2
 40
3.75
 49
3.0
 74
     0
 49
-0.75
 74
     0
  0
LTYPE
  5
A8
330
5
100
AcDbSymbolTableRecord
100
AcDbLinetypeTableRecord
  2
Amzigzag
 70
     0
  3
/\/-/\/-/\/-/\/-/\/-/\/
 72
    65
 73
     2
 40
11.0001
 49
0.0001
 74
     4
 75
   135
340
A7
 46
0.04
 50
0.0
 44
0.0
 45
0.0
 49
-11.0
 74
     0
  0
LTYPE
  5
A9
330
5
100
AcDbSymbolTableRecord
100
AcDbLinetypeTableRecord
  2
AM_DIN_F_W050
 70
     0
  3
__ __ __ __ __ __ __ __ __ __ __ __ __ __ __
 72
    65
 73
     2
 40
6.25
 49
4.75
 74
     0
 49
-1.5
 74
     0
  0
LTYPE
  5
AA
330
5
100
AcDbSymbolTableRecord
100
AcDbLinetypeTableRecord
  2
AM_DIN_G_W050
 70
     0
  3
____ . ____ . ____ . ____ . ____ . ____ . ____
 72
    65
 73
     4
 40
13.75
 49
9.75
 74
     0
 49
-1.5
 74
     0
 49
1.0
 74
     0
 49
-1.5
 74
     0
  0
LTYPE
  5
AB
330
5
100
AcDbSymbolTableRecord
100
AcDbLinetypeTableRecord
  2
AM_DIN_K_W050
 70
     0
  3
_____ . . _____ . . _____ . . ____ .. ____
 72
    65
 73
     6
 40
16.25
 49
9.75
 74
     0
 49
-1.5
 74
     0
 49
1.0
 74
     0
 49
-1.5
 74
     0
 49
1.0
 74
     0
 49
-1.5
 74
     0
  0
LTYPE
  5
AC
330
5
100
AcDbSymbolTableRecord
100
AcDbLinetypeTableRecord
  2
AM_DIN_G_W050x2
 70
     0
  3
__ . __ . __ . __ . __ . __
 72
    65
 73
     4
 40
6.875
 49
4.75
 74
     0
 49
-0.875
 74
     0
 49
0.375
 74
     0
 49
-0.875
 74
     0
  0
LTYPE
  5
AD
330
5
100
AcDbSymbolTableRecord
100
AcDbLinetypeTableRecord
  2
AM_DIN_F_W050x2
 70
     0
  3
 _ _ _ _ _ _ _ _ _ _ _ _
 72
    65
 73
     2
 40
3.125
 49
2.25
 74
     0
 49
-0.875
 74
     0
  0
LTYPE
  5
BB
330
5
100
AcDbSymbolTableRecord
100
AcDbLinetypeTableRecord
  2
ACDINWELD
 70
     0
  3
_ _ _ _ _
 72
    65
 73
     2
 40
2.0
 49
2.0
 74
     0
 49
-1.0
 74
     0
  0
LTYPE
  5
BC
330
5
100
AcDbSymbolTableRecord
100
AcDbLinetypeTableRecord
  2
ACDINTGB
 70
     0
  3
__ . . __ . .
 72
    65
 73
     6
 40
9.0
 49
4.0
 74
     0
 49
-1.0
 74
     0
 49
1.0
 74
     0
 49
-1.0
 74
     0
 49
1.0
 74
     0
 49
-1.0
 74
     0
  0
LTYPE
  5
BD
330
5
100
AcDbSymbolTableRecord
100
AcDbLinetypeTableRecord
  2
ACDINTGL
 70
     0
  3
_ _ _ _ _
 72
    65
 73
     2
 40
3.0
 49
2.0
 74
     0
 49
-1.0
 74
     0
  0
LTYPE
  5
BF
330
5
100
AcDbSymbolTableRecord
100
AcDbLinetypeTableRecord
  2
CENTER
 70
     0
  3
__ . __
 72
    65
 73
     4
 40
7.0
 49
4.0
 74
     0
 49
-1.0
 74
     0
 49
1.0
 74
     0
 49
-1.0
 74
     0
  0
LTYPE
  5
10F
330
5
100
AcDbSymbolTableRecord
100
AcDbLinetypeTableRecord
  2
HIDDEN
 70
     0
  3
Verdeckt
 72
    65
 73
     2
 40
9.525
 49
6.349999999999996
 74
     0
 49
-3.174999999999998
 74
     0
  0
LTYPE
  5
110
330
5
100
AcDbSymbolTableRecord
100
AcDbLinetypeTableRecord
  2
PHANTOM2
 70
     0
  3
Phantom (.5x) ___ _ _ ___ _ _ ___ _ _ ___ _ _
 72
    65
 73
     6
 40
31.75
 49
15.875
 74
     0
 49
-3.174999999999998
 74
     0
 49
3.174999999999998
 74
     0
 49
-3.174999999999998
 74
     0
 49
3.174999999999998
 74
     0
 49
-3.174999999999998
 74
     0
  0
LTYPE
  5
29A
330
5
100
AcDbSymbolTableRecord
100
AcDbLinetypeTableRecord
  2
BORDER
 70
     0
  3
Border __ __ . __ __ . __ __ . __ __ . __ __ .
 72
    65
 73
     6
 40
1.75
 49
0.5
 74
     0
 49
-0.25
 74
     0
 49
0.5
 74
     0
 49
-0.25
 74
     0
 49
0.0
 74
     0
 49
-0.25
 74
     0
  0
LTYPE
  5
29B
330
5
100
AcDbSymbolTableRecord
100
AcDbLinetypeTableRecord
  2
BORDER2
 70
     0
  3
Border (.5x) __.__.__.__.__.__.__.__.__.__.__.
 72
    65
 73
     6
 40
0.875
 49
0.25
 74
     0
 49
-0.125
 74
     0
 49
0.25
 74
     0
 49
-0.125
 74
     0
 49
0.0
 74
     0
 49
-0.125
 74
     0
  0
LTYPE
  5
29C
330
5
100
AcDbSymbolTableRecord
100
AcDbLinetypeTableRecord
  2
BORDERX2
 70
     0
  3
Border (2x) ____  ____  .  ____  ____  .  ___
 72
    65
 73
     6
 40
3.5
 49
1.0
 74
     0
 49
-0.5
 74
     0
 49
1.0
 74
     0
 49
-0.5
 74
     0
 49
0.0
 74
     0
 49
-0.5
 74
     0
  0
LTYPE
  5
29D
330
5
100
AcDbSymbolTableRecord
100
AcDbLinetypeTableRecord
  2
CENTER2
 70
     0
  3
Center (.5x) ___ _ ___ _ ___ _ ___ _ ___ _ ___
 72
    65
 73
     4
 40
1.125
 49
0.75
 74
     0
 49
-0.125
 74
     0
 49
0.125
 74
     0
 49
-0.125
 74
     0
  0
LTYPE
  5
29E
330
5
100
AcDbSymbolTableRecord
100
AcDbLinetypeTableRecord
  2
CENTERX2
 70
     0
  3
Center (2x) ________  __  ________  __  _____
 72
    65
 73
     4
 40
4.0
 49
2.5
 74
     0
 49
-0.5
 74
     0
 49
0.5
 74
     0
 49
-0.5
 74
     0
  0
LTYPE
  5
29F
330
5
100
AcDbSymbolTableRecord
100
AcDbLinetypeTableRecord
  2
DASHDOT
 70
     0
  3
Dash dot __ . __ . __ . __ . __ . __ . __ . __
 72
    65
 73
     4
 40
1.0
 49
0.5
 74
     0
 49
-0.25
 74
     0
 49
0.0
 74
     0
 49
-0.25
 74
     0
  0
LTYPE
  5
2A0
330
5
100
AcDbSymbolTableRecord
100
AcDbLinetypeTableRecord
  2
DASHDOT2
 70
     0
  3
Dash dot (.5x) _._._._._._._._._._._._._._._.
 72
    65
 73
     4
 40
0.5
 49
0.25
 74
     0
 49
-0.125
 74
     0
 49
0.0
 74
     0
 49
-0.125
 74
     0
  0
LTYPE
  5
2A1
330
5
100
AcDbSymbolTableRecord
100
AcDbLinetypeTableRecord
  2
DASHDOTX2
 70
     0
  3
Dash dot (2x) ____  .  ____  .  ____  .  ___
 72
    65
 73
     4
 40
2.0
 49
1.0
 74
     0
 49
-0.5
 74
     0
 49
0.0
 74
     0
 49
-0.5
 74
     0
  0
LTYPE
  5
2A2
330
5
100
AcDbSymbolTableRecord
100
AcDbLinetypeTableRecord
  2
DASHED
 70
     0
  3
Dashed __ __ __ __ __ __ __ __ __ __ __ __ __ _
 72
    65
 73
     2
 40
0.75
 49
0.5
 74
     0
 49
-0.25
 74
     0
  0
LTYPE
  5
2A3
330
5
100
AcDbSymbolTableRecord
100
AcDbLinetypeTableRecord
  2
DASHED2
 70
     0
  3
Dashed (.5x) _ _ _ _ _ _ _ _ _ _ _ _ _ _ _ _ _
 72
    65
 73
     2
 40
0.375
 49
0.25
 74
     0
 49
-0.125
 74
     0
  0
LTYPE
  5
2A4
330
5
100
AcDbSymbolTableRecord
100
AcDbLinetypeTableRecord
  2
DASHEDX2
 70
     0
  3
Dashed (2x) ____  ____  ____  ____  ____  ___
 72
    65
 73
     2
 40
1.5
 49
1.0
 74
     0
 49
-0.5
 74
     0
  0
LTYPE
  5
2A5
330
5
100
AcDbSymbolTableRecord
100
AcDbLinetypeTableRecord
  2
DIVIDE
 70
     0
  3
Divide ____ . . ____ . . ____ . . ____ . . ____
 72
    65
 73
     6
 40
1.25
 49
0.5
 74
     0
 49
-0.25
 74
     0
 49
0.0
 74
     0
 49
-0.25
 74
     0
 49
0.0
 74
     0
 49
-0.25
 74
     0
  0
LTYPE
  5
2A6
330
5
100
AcDbSymbolTableRecord
100
AcDbLinetypeTableRecord
  2
DIVIDE2
 70
     0
  3
Divide (.5x) __..__..__..__..__..__..__..__.._
 72
    65
 73
     6
 40
0.625
 49
0.25
 74
     0
 49
-0.125
 74
     0
 49
0.0
 74
     0
 49
-0.125
 74
     0
 49
0.0
 74
     0
 49
-0.125
 74
     0
  0
LTYPE
  5
2A7
330
5
100
AcDbSymbolTableRecord
100
AcDbLinetypeTableRecord
  2
DIVIDEX2
 70
     0
  3
Divide (2x) ________  .  .  ________  .  .  _
 72
    65
 73
     6
 40
2.5
 49
1.0
 74
     0
 49
-0.5
 74
     0
 49
0.0
 74
     0
 49
-0.5
 74
     0
 49
0.0
 74
     0
 49
-0.5
 74
     0
  0
LTYPE
  5
2A8
330
5
100
AcDbSymbolTableRecord
100
AcDbLinetypeTableRecord
  2
DOT
 70
     0
  3
Dot . . . . . . . . . . . . . . . . . . . . . .
 72
    65
 73
     2
 40
0.25
 49
0.0
 74
     0
 49
-0.25
 74
     0
  0
LTYPE
  5
2A9
330
5
100
AcDbSymbolTableRecord
100
AcDbLinetypeTableRecord
  2
DOT2
 70
     0
  3
Dot (.5x) .....................................
 72
    65
 73
     2
 40
0.125
 49
0.0
 74
     0
 49
-0.125
 74
     0
  0
LTYPE
  5
2AA
330
5
100
AcDbSymbolTableRecord
100
AcDbLinetypeTableRecord
  2
DOTX2
 70
     0
  3
Dot (2x) .  .  .  .  .  .  .  .  .  .  .  .  . 
 72
    65
 73
     2
 40
0.5
 49
0.0
 74
     0
 49
-0.5
 74
     0
  0
LTYPE
  5
2AB
330
5
100
AcDbSymbolTableRecord
100
AcDbLinetypeTableRecord
  2
GAS_LINE
 70
     0
  3
Gas line ----GAS----GAS----GAS----GAS----GAS---
 72
    65
 73
     3
 40
0.95
 49
0.5
 74
     0
 49
-0.2
 74
     2
 75
     0
340
11
 46
0.1
 50
0.0
 44
-0.1
 45
-0.05
  9
GAS
 49
-0.25
 74
     0
  0
LTYPE
  5
2AC
330
5
100
AcDbSymbolTableRecord
100
AcDbLinetypeTableRecord
  2
HIDDEN2
 70
     0
  3
Hidden (.5x) _ _ _ _ _ _ _ _ _ _ _ _ _ _ _ _ _
 72
    65
 73
     2
 40
0.1875
 49
0.125
 74
     0
 49
-0.0625
 74
     0
  0
LTYPE
  5
2AD
330
5
100
AcDbSymbolTableRecord
100
AcDbLinetypeTableRecord
  2
HIDDENX2
 70
     0
  3
Hidden (2x) ____ ____ ____ ____ ____ ____ ____
 72
    65
 73
     2
 40
0.75
 49
0.5
 74
     0
 49
-0.25
 74
     0
  0
LTYPE
  5
2AE
330
5
100
AcDbSymbolTableRecord
100
AcDbLinetypeTableRecord
  2
PHANTOM
 70
     0
  3
Phantom ______  __  __  ______  __  __  ______
 72
    65
 73
     6
 40
2.5
 49
1.25
 74
     0
 49
-0.25
 74
     0
 49
0.25
 74
     0
 49
-0.25
 74
     0
 49
0.25
 74
     0
 49
-0.25
 74
     0
  0
LTYPE
  5
2AF
330
5
100
AcDbSymbolTableRecord
100
AcDbLinetypeTableRecord
  2
PHANTOMX2
 70
     0
  3
Phantom (2x) ____________    ____    ____   _
 72
    65
 73
     6
 40
5.0
 49
2.5
 74
     0
 49
-0.5
 74
     0
 49
0.5
 74
     0
 49
-0.5
 74
     0
 49
0.5
 74
     0
 49
-0.5
 74
     0
  0
LTYPE
  5
2B0
330
5
100
AcDbSymbolTableRecord
100
AcDbLinetypeTableRecord
  2
ZIGZAG
 70
     0
  3
Zig zag /\/\/\/\/\/\/\/\/\/\/\/\/\/\/\/\/\/\/\/
 72
    65
 73
     4
 40
0.8001000000000001
 49
0.0001
 74
     0
 49
-0.2
 74
     4
 75
   131
340
2CE
 46
0.2
 50
0.0
 44
-0.2
 45
0.0
 49
-0.4
 74
     4
 75
   131
340
2CE
 46
0.2
 50
180.0
 44
0.2
 45
0.0
 49
-0.2
 74
     0
  0
LTYPE
  5
2B1
330
5
100
AcDbSymbolTableRecord
100
AcDbLinetypeTableRecord
  2
CPFLEX
 70
     0
  3
CP flex /\/\/\/\/\/\/\/\/\/\/\/\/\/\/\/\/\/\/\/
 72
    65
 73
     4
 40
0.8001000000000001
 49
0.0001
 74
     0
 49
-0.2
 74
     4
 75
   131
340
2CE
 46
0.2
 50
0.0
 44
-0.2
 45
0.0
 49
-0.4
 74
     4
 75
   131
340
2CE
 46
0.2
 50
180.0
 44
0.2
 45
0.0
 49
-0.2
 74
     0
  0
LTYPE
  5
2B2
330
5
100
AcDbSymbolTableRecord
100
AcDbLinetypeTableRecord
  2
CIRC
 70
     0
  3
 ----- ~ ----- ~ ---- ~ -----
 72
    65
 73
     3
 40
9.0
 49
7.0
 74
     0
 49
-1.0
 74
     2
 75
     0
340
11
 46
1.0
 50
0.0
 44
-0.3
 45
-0.6
  9
~
 49
-1.0
 74
     0
  0
LTYPE
  5
2B3
330
5
100
AcDbSymbolTableRecord
100
AcDbLinetypeTableRecord
  2
GETRENNT
 70
     0
  3
Getrennt ____ . . ____ . . ____ . . ____ . . __
 72
    65
 73
     6
 40
1.25
 49
0.5
 74
     0
 49
-0.25
 74
     0
 49
0.0
 74
     0
 49
-0.25
 74
     0
 49
0.0
 74
     0
 49
-0.25
 74
     0
  0
LTYPE
  5
2B4
330
5
100
AcDbSymbolTableRecord
100
AcDbLinetypeTableRecord
  2
GETRENNT2
 70
     0
  3
Getrennt (.5x) __..__..__..__..__..__..__..__..
 72
    65
 73
     6
 40
0.625
 49
0.25
 74
     0
 49
-0.125
 74
     0
 49
0.0
 74
     0
 49
-0.125
 74
     0
 49
0.0
 74
     0
 49
-0.125
 74
     0
  0
LTYPE
  5
2B5
330
5
100
AcDbSymbolTableRecord
100
AcDbLinetypeTableRecord
  2
GETRENNTX2
 70
     0
  3
Getrennt (2x) ________  .  .  ________  .  .  _
 72
    65
 73
     6
 40
2.5
 49
1.0
 74
     0
 49
-0.5
 74
     0
 49
0.0
 74
     0
 49
-0.5
 74
     0
 49
0.0
 74
     0
 49
-0.5
 74
     0
  0
LTYPE
  5
2B6
330
5
100
AcDbSymbolTableRecord
100
AcDbLinetypeTableRecord
  2
HOT_WATER_SUPPLY
 70
     0
  3
Hot water supply ---- HW ---- HW ---- HW ----
 72
    65
 73
     3
 40
0.9
 49
0.5
 74
     0
 49
-0.2
 74
     2
 75
     0
340
11
 46
0.1
 50
0.0
 44
-0.1
 45
-0.05
  9
HW
 49
-0.2
 74
     0
  0
LTYPE
  5
2B7
330
5
100
AcDbSymbolTableRecord
100
AcDbLinetypeTableRecord
  2
MITTE
 70
     0
  3
Mitte ____ _ ____ _ ____ _ ____ _ ____ _ ____
 72
    65
 73
     4
 40
2.0
 49
1.25
 74
     0
 49
-0.25
 74
     0
 49
0.25
 74
     0
 49
-0.25
 74
     0
  0
LTYPE
  5
2B8
330
5
100
AcDbSymbolTableRecord
100
AcDbLinetypeTableRecord
  2
MITTE2
 70
     0
  3
Mitte (.5x) ___ _ ___ _ ___ _ ___ _ ___ _ ___
 72
    65
 73
     4
 40
1.125
 49
0.75
 74
     0
 49
-0.125
 74
     0
 49
0.125
 74
     0
 49
-0.125
 74
     0
  0
LTYPE
  5
2B9
330
5
100
AcDbSymbolTableRecord
100
AcDbLinetypeTableRecord
  2
MITTEX2
 70
     0
  3
Mitte (2x) ________  __  ________  __  _____
 72
    65
 73
     4
 40
4.0
 49
2.5
 74
     0
 49
-0.5
 74
     0
 49
0.5
 74
     0
 49
-0.5
 74
     0
  0
LTYPE
  5
2BA
330
5
100
AcDbSymbolTableRecord
100
AcDbLinetypeTableRecord
  2
PUNKT
 70
     0
  3
Punkt . . . . . . . . . . . . . . . . . . . . .
 72
    65
 73
     2
 40
0.25
 49
0.0
 74
     0
 49
-0.25
 74
     0
  0
LTYPE
  5
2BB
330
5
100
AcDbSymbolTableRecord
100
AcDbLinetypeTableRecord
  2
PUNKT2
 70
     0
  3
Punkt (.5x) ...................................
 72
    65
 73
     2
 40
0.125
 49
0.0
 74
     0
 49
-0.125
 74
     0
  0
LTYPE
  5
2BC
330
5
100
AcDbSymbolTableRecord
100
AcDbLinetypeTableRecord
  2
PUNKTX2
 70
     0
  3
Punkt (2x) .  .  .  .  .  .  .  .  .  .  .  .  
 72
    65
 73
     2
 40
0.5
 49
0.0
 74
     0
 49
-0.5
 74
     0
  0
LTYPE
  5
2BD
330
5
100
AcDbSymbolTableRecord
100
AcDbLinetypeTableRecord
  2
RAND
 70
     0
  3
Rand __ __ . __ __ . __ __ . __ __ . __ __ .
 72
    65
 73
     6
 40
1.75
 49
0.5
 74
     0
 49
-0.25
 74
     0
 49
0.5
 74
     0
 49
-0.25
 74
     0
 49
0.0
 74
     0
 49
-0.25
 74
     0
  0
LTYPE
  5
2BE
330
5
100
AcDbSymbolTableRecord
100
AcDbLinetypeTableRecord
  2
RAND2
 70
     0
  3
Rand (.5x) __.__.__.__.__.__.__.__.__.__.__.
 72
    65
 73
     6
 40
0.875
 49
0.25
 74
     0
 49
-0.125
 74
     0
 49
0.25
 74
     0
 49
-0.125
 74
     0
 49
0.0
 74
     0
 49
-0.125
 74
     0
  0
LTYPE
  5
2BF
330
5
100
AcDbSymbolTableRecord
100
AcDbLinetypeTableRecord
  2
RANDX2
 70
     0
  3
Rand (2x) ____  ____  .  ____  ____  .  ___
 72
    65
 73
     6
 40
3.5
 49
1.0
 74
     0
 49
-0.5
 74
     0
 49
1.0
 74
     0
 49
-0.5
 74
     0
 49
0.0
 74
     0
 49
-0.5
 74
     0
  0
LTYPE
  5
2C0
330
5
100
AcDbSymbolTableRecord
100
AcDbLinetypeTableRecord
  2
STRICHPUNKT
 70
     0
  3
Strichpunkt __ . __ . __ . __ . __ . __ . __ . 
 72
    65
 73
     4
 40
1.0
 49
0.5
 74
     0
 49
-0.25
 74
     0
 49
0.0
 74
     0
 49
-0.25
 74
     0
  0
LTYPE
  5
2C1
330
5
100
AcDbSymbolTableRecord
100
AcDbLinetypeTableRecord
  2
STRICHPUNKT2
 70
     0
  3
Strichpunkt (.5x) _._._._._._._._._._._._._._._
 72
    65
 73
     4
 40
0.5
 49
0.25
 74
     0
 49
-0.125
 74
     0
 49
0.0
 74
     0
 49
-0.125
 74
     0
  0
LTYPE
  5
2C2
330
5
100
AcDbSymbolTableRecord
100
AcDbLinetypeTableRecord
  2
STRICHPUNKTX2
 70
     0
  3
Strichpunkt (2x) ____  .  ____  .  ____  .  ___
 72
    65
 73
     4
 40
2.0
 49
1.0
 74
     0
 49
-0.5
 74
     0
 49
0.0
 74
     0
 49
-0.5
 74
     0
  0
LTYPE
  5
2C3
330
5
100
AcDbSymbolTableRecord
100
AcDbLinetypeTableRecord
  2
TRACKS
 70
     0
  3
Tracks -|-|-|-|-|-|-|-|-|-|-|-|-|-|-|-|-|-|-|-|
 72
    65
 73
     2
 40
0.3
 49
0.15
 74
     4
 75
   130
340
2CE
 46
0.25
 50
0.0
 44
0.0
 45
0.0
 49
0.15
 74
     0
  0
LTYPE
  5
2C4
330
5
100
AcDbSymbolTableRecord
100
AcDbLinetypeTableRecord
  2
VERDECKT
 70
     0
  3
Verdeckt __ __ __ __ __ __ __ __ __ __ __ __ __
 72
    65
 73
     2
 40
0.375
 49
0.25
 74
     0
 49
-0.125
 74
     0
  0
LTYPE
  5
2C5
330
5
100
AcDbSymbolTableRecord
100
AcDbLinetypeTableRecord
  2
VERDECKT2
 70
     0
  3
Verdeckt (.5x) _ _ _ _ _ _ _ _ _ _ _ _ _ _ _ _ 
 72
    65
 73
     2
 40
0.1875
 49
0.125
 74
     0
 49
-0.0625
 74
     0
  0
LTYPE
  5
2C6
330
5
100
AcDbSymbolTableRecord
100
AcDbLinetypeTableRecord
  2
VERDECKTX2
 70
     0
  3
Verdeckt (2x) ____ ____ ____ ____ ____ ____ ___
 72
    65
 73
     2
 40
0.75
 49
0.5
 74
     0
 49
-0.25
 74
     0
  0
LTYPE
  5
2C7
330
5
100
AcDbSymbolTableRecord
100
AcDbLinetypeTableRecord
  2
BATTING
 70
     0
  3
Batting SSSSSSSSSSSSSSSSSSSSSSSSSSSSSSSSSSSSSSS
 72
    65
 73
     4
 40
0.4001000000000002
 49
0.0001
 74
     0
 49
-0.1
 74
     4
 75
   134
340
2CE
 46
0.1
 50
0.0
 44
-0.1
 45
0.0
 49
-0.2
 74
     4
 75
   134
340
2CE
 46
0.1
 50
180.0
 44
0.1
 45
0.0
 49
-0.1
 74
     0
  0
LTYPE
  5
2C8
330
5
100
AcDbSymbolTableRecord
100
AcDbLinetypeTableRecord
  2
FENCELINE1
 70
     0
  3
Fenceline circle ----0-----0----0-----0----0---
 72
    65
 73
     4
 40
1.449999999999999
 49
0.25
 74
     0
 49
-0.1
 74
     4
 75
   133
340
2CE
 46
0.1
 50
0.0
 44
-0.1
 45
0.0
 49
-0.1
 74
     0
 49
1.0
 74
     0
  0
LTYPE
  5
2C9
330
5
100
AcDbSymbolTableRecord
100
AcDbLinetypeTableRecord
  2
FENCELINE2
 70
     0
  3
Fenceline square ----[]-----[]----[]-----[]----
 72
    65
 73
     4
 40
1.449999999999999
 49
0.25
 74
     0
 49
-0.1
 74
     4
 75
   132
340
2CE
 46
0.1
 50
0.0
 44
-0.1
 45
0.0
 49
-0.1
 74
     0
 49
1.0
 74
     0
  0
LTYPE
  5
2CA
330
5
100
AcDbSymbolTableRecord
100
AcDbLinetypeTableRecord
  2
STRICHLINIE
 70
     0
  3
Strichlinie __ __ __ __ __ __ __ __ __ __ __ __
 72
    65
 73
     2
 40
0.75
 49
0.5
 74
     0
 49
-0.25
 74
     0
  0
LTYPE
  5
2CB
330
5
100
AcDbSymbolTableRecord
100
AcDbLinetypeTableRecord
  2
STRICHLINIE2
 70
     0
  3
Strichlinie (.5x) _ _ _ _ _ _ _ _ _ _ _ _ _ _ _
 72
    65
 73
     2
 40
0.375
 49
0.25
 74
     0
 49
-0.125
 74
     0
  0
LTYPE
  5
2CC
330
5
100
AcDbSymbolTableRecord
100
AcDbLinetypeTableRecord
  2
STRICHLINIEX2
 70
     0
  3
Strichlinie (2x) ____  ____  ____  ____  ____  
 72
    65
 73
     2
 40
1.5
 49
1.0
 74
     0
 49
-0.5
 74
     0
  0
LTYPE
  5
874
330
5
100
AcDbSymbolTableRecord
100
AcDbLinetypeTableRecord
  2
Amzigzag2
 70
     0
  3
/\/-/\/-/\/-/\/-/\/-/\/
 72
    65
 73
     2
 40
0.4401
 49
0.0001
 74
     4
 75
   135
340
A7
 46
0.0016
 50
0.0
 44
0.0
 45
0.0
 49
-0.4400000000000003
 74
     0
  0
LTYPE
  5
875
330
5
100
AcDbSymbolTableRecord
100
AcDbLinetypeTableRecord
  2
ACANSTGB
 70
     0
  3
__ . . __ . .
 72
    65
 73
     6
 40
0.35433070866
 49
0.15748031496
 74
     0
 49
-0.03937007874
 74
     0
 49
0.03937007874
 74
     0
 49
-0.03937007874
 74
     0
 49
0.03937007874
 74
     0
 49
-0.03937007874
 74
     0
  0
LTYPE
  5
876
330
5
100
AcDbSymbolTableRecord
100
AcDbLinetypeTableRecord
  2
ACANSTGL
 70
     0
  3
_ _ _ _ _
 72
    65
 73
     2
 40
0.11811023622
 49
0.07874015748
 74
     0
 49
-0.03937007874
 74
     0
  0
LTYPE
  5
8F6
330
5
100
AcDbSymbolTableRecord
100
AcDbLinetypeTableRecord
  2
ACISOWELD
 70
     0
  3
_ _ _ _ _
 72
    65
 73
     2
 40
2.0
 49
2.0
 74
     0
 49
-1.0
 74
     0
  0
LTYPE
  5
8F7
330
5
100
AcDbSymbolTableRecord
100
AcDbLinetypeTableRecord
  2
ACISOTGB
 70
     0
  3
__ . . __ . .
 72
    65
 73
     6
 40
9.0
 49
4.0
 74
     0
 49
-1.0
 74
     0
 49
1.0
 74
     0
 49
-1.0
 74
     0
 49
1.0
 74
     0
 49
-1.0
 74
     0
  0
LTYPE
  5
8F8
330
5
100
AcDbSymbolTableRecord
100
AcDbLinetypeTableRecord
  2
ACISOTGL
 70
     0
  3
_ _ _ _ _
 72
    65
 73
     2
 40
3.0
 49
2.0
 74
     0
 49
-1.0
 74
     0
  0
LTYPE
  5
1063
330
5
100
AcDbSymbolTableRecord
100
AcDbLinetypeTableRecord
  2
DN 010
 70
     0
  3
 DN10  ---- 10 ---- 10 ---- 10 ----
 72
    65
 73
     3
 40
9.0
 49
5.0
 74
     0
 49
-2.0
 74
     2
 75
     0
340
11
 46
1.0
 50
0.0
 44
-0.5
 45
-0.5
  9
10
 49
-2.0
 74
     0
  0
LTYPE
  5
1064
330
5
100
AcDbSymbolTableRecord
100
AcDbLinetypeTableRecord
  2
DN 015
 70
     0
  3
 DN15  ---- 15 ---- 15 ---- 15 ----
 72
    65
 73
     3
 40
9.0
 49
5.0
 74
     0
 49
-2.0
 74
     2
 75
     0
340
11
 46
1.0
 50
0.0
 44
-0.5
 45
-0.5
  9
15
 49
-2.0
 74
     0
  0
LTYPE
  5
1065
330
5
100
AcDbSymbolTableRecord
100
AcDbLinetypeTableRecord
  2
DN 020
 70
     0
  3
 DN20  ---- 20 ---- 20 ---- 20 ----
 72
    65
 73
     3
 40
9.0
 49
5.0
 74
     0
 49
-2.0
 74
     2
 75
     0
340
11
 46
1.0
 50
0.0
 44
-0.5
 45
-0.5
  9
20
 49
-2.0
 74
     0
  0
LTYPE
  5
1066
330
5
100
AcDbSymbolTableRecord
100
AcDbLinetypeTableRecord
  2
DN 025
 70
     0
  3
 DN25  ---- 25 ---- 25 ---- 25 ----
 72
    65
 73
     3
 40
9.0
 49
5.0
 74
     0
 49
-2.0
 74
     2
 75
     0
340
11
 46
1.0
 50
0.0
 44
-0.5
 45
-0.5
  9
25
 49
-2.0
 74
     0
  0
LTYPE
  5
1067
330
5
100
AcDbSymbolTableRecord
100
AcDbLinetypeTableRecord
  2
DN 032
 70
     0
  3
 DN32  ---- 32 ---- 32 ---- 32 ----
 72
    65
 73
     3
 40
9.0
 49
5.0
 74
     0
 49
-2.0
 74
     2
 75
     0
340
11
 46
1.0
 50
0.0
 44
-0.5
 45
-0.5
  9
32
 49
-2.0
 74
     0
  0
LTYPE
  5
1068
330
5
100
AcDbSymbolTableRecord
100
AcDbLinetypeTableRecord
  2
DN 040
 70
     0
  3
 DN40  ---- 40 ---- 40 ---- 40 ----
 72
    65
 73
     3
 40
9.0
 49
5.0
 74
     0
 49
-2.0
 74
     2
 75
     0
340
11
 46
1.0
 50
0.0
 44
-0.5
 45
-0.5
  9
40
 49
-2.0
 74
     0
  0
LTYPE
  5
1069
330
5
100
AcDbSymbolTableRecord
100
AcDbLinetypeTableRecord
  2
DN 050
 70
     0
  3
 DN50  ---- 50 ---- 50 ---- 50 ----
 72
    65
 73
     3
 40
9.0
 49
5.0
 74
     0
 49
-2.0
 74
     2
 75
     0
340
11
 46
1.0
 50
0.0
 44
-0.5
 45
-0.5
  9
50
 49
-2.0
 74
     0
  0
LTYPE
  5
106A
330
5
100
AcDbSymbolTableRecord
100
AcDbLinetypeTableRecord
  2
DN 065
 70
     0
  3
 DN65  ---- 65 ---- 65 ---- 65 ----
 72
    65
 73
     3
 40
9.0
 49
5.0
 74
     0
 49
-2.0
 74
     2
 75
     0
340
11
 46
1.0
 50
0.0
 44
-0.5
 45
-0.5
  9
65
 49
-2.0
 74
     0
  0
LTYPE
  5
106B
330
5
100
AcDbSymbolTableRecord
100
AcDbLinetypeTableRecord
  2
DN 080
 70
     0
  3
 DN80  ---- 80 ---- 80 ---- 80 ----
 72
    65
 73
     3
 40
9.0
 49
5.0
 74
     0
 49
-2.0
 74
     2
 75
     0
340
11
 46
1.0
 50
0.0
 44
-0.5
 45
-0.5
  9
80
 49
-2.0
 74
     0
  0
LTYPE
  5
106C
330
5
100
AcDbSymbolTableRecord
100
AcDbLinetypeTableRecord
  2
DN 100
 70
     0
  3
 DN100 ---- 100 --- 100 --- 100 ---
 72
    65
 73
     3
 40
9.0
 49
5.0
 74
     0
 49
-2.0
 74
     2
 75
     0
340
11
 46
1.0
 50
0.0
 44
-1.0
 45
-0.5
  9
100
 49
-2.0
 74
     0
  0
LTYPE
  5
106D
330
5
100
AcDbSymbolTableRecord
100
AcDbLinetypeTableRecord
  2
DN 125
 70
     0
  3
 DN125 ---- 125 --- 125 --- 125 ---
 72
    65
 73
     3
 40
9.0
 49
5.0
 74
     0
 49
-2.0
 74
     2
 75
     0
340
11
 46
1.0
 50
0.0
 44
-1.0
 45
-0.5
  9
125
 49
-2.0
 74
     0
  0
LTYPE
  5
106E
330
5
100
AcDbSymbolTableRecord
100
AcDbLinetypeTableRecord
  2
DN 150
 70
     0
  3
 DN150 ---- 150 --- 150 --- 150 ---
 72
    65
 73
     3
 40
9.0
 49
5.0
 74
     0
 49
-2.0
 74
     2
 75
     0
340
11
 46
1.0
 50
0.0
 44
-1.0
 45
-0.5
  9
150
 49
-2.0
 74
     0
  0
LTYPE
  5
106F
330
5
100
AcDbSymbolTableRecord
100
AcDbLinetypeTableRecord
  2
DN 200
 70
     0
  3
 DN200 ---- 200 --- 200 --- 200 ---
 72
    65
 73
     3
 40
9.0
 49
5.0
 74
     0
 49
-2.0
 74
     2
 75
     0
340
11
 46
1.0
 50
0.0
 44
-1.0
 45
-0.5
  9
200
 49
-2.0
 74
     0
  0
LTYPE
  5
1070
330
5
100
AcDbSymbolTableRecord
100
AcDbLinetypeTableRecord
  2
DN 250
 70
     0
  3
 DN250 ---- 250 --- 250 --- 250 ---
 72
    65
 73
     3
 40
9.0
 49
5.0
 74
     0
 49
-2.0
 74
     2
 75
     0
340
11
 46
1.0
 50
0.0
 44
-1.0
 45
-0.5
  9
250
 49
-2.0
 74
     0
  0
LTYPE
  5
1071
330
5
100
AcDbSymbolTableRecord
100
AcDbLinetypeTableRecord
  2
DN 300
 70
     0
  3
 DN300 ---- 300 --- 300 --- 300 ---
 72
    65
 73
     3
 40
9.0
 49
5.0
 74
     0
 49
-2.0
 74
     2
 75
     0
340
11
 46
1.0
 50
0.0
 44
-1.0
 45
-0.5
  9
300
 49
-2.0
 74
     0
  0
ENDTAB
  0
TABLE
  2
LAYER
  5
2
102
{ACAD_XDICTIONARY
360
15B2
102
}
330
0
100
AcDbSymbolTable
 70
    11
  0
LAYER
  5
10
330
2
100
AcDbSymbolTableRecord
100
AcDbLayerTableRecord
  2
0
 70
     0
 62
     7
  6
Continuous
370
    -3
390
F
  0
LAYER
  5
F0
330
2
100
AcDbSymbolTableRecord
100
AcDbLayerTableRecord
  2
AM_5
 70
     0
 62
     3
  6
Continuous
370
    25
390
F
  0
LAYER
  5
877
330
2
100
AcDbSymbolTableRecord
100
AcDbLayerTableRecord
  2
AM_BOR
 70
     0
 62
     7
  6
Continuous
370
    50
390
F
  0
LAYER
  5
8F9
330
2
100
AcDbSymbolTableRecord
100
AcDbLayerTableRecord
  2
AM_0
 70
     0
 62
     7
  6
Continuous
370
    50
390
F
  0
LAYER
  5
8FA
330
2
100
AcDbSymbolTableRecord
100
AcDbLayerTableRecord
  2
UMRISS05
 70
     0
 62
     7
  6
Continuous
370
    -3
390
F
  0
LAYER
  5
8FB
330
2
100
AcDbSymbolTableRecord
100
AcDbLayerTableRecord
  2
6
 70
     0
 62
     2
  6
Continuous
370
    -3
390
F
  0
LAYER
  5
AC1
330
2
100
AcDbSymbolTableRecord
100
AcDbLayerTableRecord
  2
Defpoints
 70
     0
 62
     7
  6
Continuous
290
     0
370
    -3
390
F
  0
LAYER
  5
AC2
330
2
100
AcDbSymbolTableRecord
100
AcDbLayerTableRecord
  2
AM_7
 70
     0
 62
     4
  6
AM_DIN_G_W050
370
    25
390
F
1001
AcAecLayerStandard
1000

1000

  0
LAYER
  5
AC3
330
2
100
AcDbSymbolTableRecord
100
AcDbLayerTableRecord
  2
AM_4
 70
     0
 62
     3
  6
Continuous
370
    25
390
F
  0
LAYER
  5
AC4
330
2
100
AcDbSymbolTableRecord
100
AcDbLayerTableRecord
  2
AM_6
 70
     0
 62
     2
  6
Continuous
370
    35
390
F
  0
LAYER
  5
15B1
330
2
100
AcDbSymbolTableRecord
100
AcDbLayerTableRecord
  2
LOGO_VON_SCHLASSE_120709
 70
     0
 62
     7
  6
Continuous
370
    -3
390
F
  0
ENDTAB
  0
TABLE
  2
STYLE
  5
3
330
0
100
AcDbSymbolTable
 70
    19
  0
STYLE
  5
11
330
3
100
AcDbSymbolTableRecord
100
AcDbTextStyleTableRecord
  2
STANDARD
 70
     0
 40
0.0
 41
1.0
 50
0.0
 71
     0
 42
2.5
  3
ISOCP.SHX
  4

  0
STYLE
  5
A7
330
3
100
AcDbSymbolTableRecord
100
AcDbTextStyleTableRecord
  2

 70
     1
 40
0.0
 41
1.0
 50
0.0
 71
     0
 42
2.5
  3
ltypeshp.shx
  4

  0
STYLE
  5
AE
330
3
100
AcDbSymbolTableRecord
100
AcDbTextStyleTableRecord
  2
ACDINTS
 70
     0
 40
1.0
 41
1.0
 50
0.0
 71
     0
 42
2.5
  3
isocp.shx
  4

  0
STYLE
  5
BA
330
3
100
AcDbSymbolTableRecord
100
AcDbTextStyleTableRecord
  2
ACDINGDT
 70
     0
 40
0.0
 41
1.0
 50
0.0
 71
     0
 42
2.5
  3
amgdt.shx
  4

  0
STYLE
  5
23D
330
3
100
AcDbSymbolTableRecord
100
AcDbTextStyleTableRecord
  2
USER1
 70
     0
 40
0.0
 41
1.0
 50
0.0
 71
     0
 42
2.5
  3
TXT.SHX
  4

  0
STYLE
  5
23E
330
3
100
AcDbSymbolTableRecord
100
AcDbTextStyleTableRecord
  2
USER2
 70
     0
 40
0.0
 41
1.0
 50
0.0
 71
     0
 42
2.5
  3
SIMPLEX.SHX
  4

  0
STYLE
  5
23F
330
3
100
AcDbSymbolTableRecord
100
AcDbTextStyleTableRecord
  2
USER3
 70
     0
 40
0.0
 41
1.0
 50
0.0
 71
     0
 42
2.5
  3
ITALIC.SHX
  4

  0
STYLE
  5
2CD
330
3
100
AcDbSymbolTableRecord
100
AcDbTextStyleTableRecord
  2
CP_TXT
 70
     0
 40
0.0
 41
1.0
 50
0.0
 71
     0
 42
2.5
  3
ROMANS.SHX
  4

  0
STYLE
  5
2CE
330
3
100
AcDbSymbolTableRecord
100
AcDbTextStyleTableRecord
  2

 70
     1
 40
0.0
 41
1.0
 50
0.0
 71
     0
 42
2.5
  3
LTYPESHP.SHX
  4

  0
STYLE
  5
2CF
330
3
100
AcDbSymbolTableRecord
100
AcDbTextStyleTableRecord
  2
CP_ATTR
 70
     0
 40
0.0
 41
1.0
 50
0.0
 71
     0
 42
0.2
  3
ROMANS.SHX
  4

  0
STYLE
  5
2D0
330
3
100
AcDbSymbolTableRecord
100
AcDbTextStyleTableRecord
  2
CP_TXT_IT
 70
     0
 40
0.0
 41
1.0
 50
15.0
 71
     0
 42
2.5
  3
ROMANS.SHX
  4

  0
STYLE
  5
2D1
330
3
100
AcDbSymbolTableRecord
100
AcDbTextStyleTableRecord
  2
CP_TXTCON
 70
     0
 40
0.0
 41
0.8
 50
0.0
 71
     0
 42
2.5
  3
ROMANS.SHX
  4

  0
STYLE
  5
2D2
330
3
100
AcDbSymbolTableRecord
100
AcDbTextStyleTableRecord
  2
CP_TXTCON_IT
 70
     0
 40
0.0
 41
0.8
 50
15.0
 71
     0
 42
2.5
  3
ROMANS.SHX
  4

  0
STYLE
  5
878
330
3
100
AcDbSymbolTableRecord
100
AcDbTextStyleTableRecord
  2
ACANSTS
 70
     0
 40
1.0
 41
1.0
 50
0.0
 71
     0
 42
0.2
  3
romans.shx
  4

  0
STYLE
  5
879
330
3
100
AcDbSymbolTableRecord
100
AcDbTextStyleTableRecord
  2
ACANSGDT
 70
     0
 40
0.0
 41
1.0
 50
0.0
 71
     0
 42
0.2
  3
amgdtans.shx
  4

  0
STYLE
  5
8FC
330
3
100
AcDbSymbolTableRecord
100
AcDbTextStyleTableRecord
  2
ACISOTS
 70
     0
 40
1.0
 41
1.0
 50
0.0
 71
     0
 42
2.5
  3
isocp.shx
  4
bigfont.shx
  0
STYLE
  5
8FD
330
3
100
AcDbSymbolTableRecord
100
AcDbTextStyleTableRecord
  2
ACISOGDT
 70
     0
 40
0.0
 41
1.0
 50
0.0
 71
     0
 42
2.5
  3
amgdt.shx
  4
bigfont.shx
  0
STYLE
  5
1072
330
3
100
AcDbSymbolTableRecord
100
AcDbTextStyleTableRecord
  2
Annotative
 70
     0
 40
0.0
 41
1.0
 50
0.0
 71
     0
 42
2.5
  3
ARIAL.TTF
  4

1001
ACADANNOTATIVE
1000
AnnotativeData
1002
{
1070
     1
1070
     1
1002
}
1001
ACAD
1000
Arial
1071
       34
  0
ENDTAB
  0
TABLE
  2
VIEW
  5
6
330
0
100
AcDbSymbolTable
 70
     6
  0
VIEW
  5
A7C
330
6
100
AcDbSymbolTableRecord
100
AcDbViewTableRecord
  2
AM_VIEW1
 70
     0
 40
222.75
 10
208.7708333333333
 20
334.125
 41
417.5416666666666
 11
0.0
 21
0.0
 31
1.0
 12
0.0
 22
0.0
 32
0.0
 42
50.0
 43
0.0
 44
0.0
 50
0.0
 71
    16
281
     0
 72
     0
  0
VIEW
  5
A7D
330
6
100
AcDbSymbolTableRecord
100
AcDbViewTableRecord
  2
AM_VIEW2
 70
     0
 40
222.75
 10
421.2291666666665
 20
334.125
 41
417.5416666666666
 11
0.0
 21
0.0
 31
1.0
 12
0.0
 22
0.0
 32
0.0
 42
50.0
 43
0.0
 44
0.0
 50
0.0
 71
    16
281
     0
 72
     0
  0
VIEW
  5
A7E
330
6
100
AcDbSymbolTableRecord
100
AcDbViewTableRecord
  2
AM_VIEW3
 70
     0
 40
222.75
 10
208.7708333333333
 20
111.375
 41
417.5416666666666
 11
0.0
 21
0.0
 31
1.0
 12
0.0
 22
0.0
 32
0.0
 42
50.0
 43
0.0
 44
0.0
 50
0.0
 71
    16
281
     0
 72
     0
  0
VIEW
  5
A7F
330
6
100
AcDbSymbolTableRecord
100
AcDbViewTableRecord
  2
AM_VIEW4
 70
     0
 40
222.75
 10
421.2291666666665
 20
111.375
 41
417.5416666666666
 11
0.0
 21
0.0
 31
1.0
 12
0.0
 22
0.0
 32
0.0
 42
50.0
 43
0.0
 44
0.0
 50
0.0
 71
    16
281
     0
 72
     0
  0
VIEW
  5
A80
330
6
100
AcDbSymbolTableRecord
100
AcDbViewTableRecord
  2
AM_VIEW5
 70
     0
 40
222.75
 10
314.9999999999999
 20
222.75
 41
417.5416666666666
 11
0.0
 21
0.0
 31
1.0
 12
0.0
 22
0.0
 32
0.0
 42
50.0
 43
0.0
 44
0.0
 50
0.0
 71
    16
281
     0
 72
     0
  0
VIEW
  5
A81
330
6
100
AcDbSymbolTableRecord
100
AcDbViewTableRecord
  2
AM_VIEW6
 70
     0
 40
445.4955449999999
 10
314.9999999999999
 20
222.75
 41
835.0749825000001
 11
0.0
 21
0.0
 31
1.0
 12
0.0
 22
0.0
 32
0.0
 42
50.0
 43
0.0
 44
0.0
 50
0.0
 71
    16
281
     0
 72
     0
  0
ENDTAB
  0
TABLE
  2
UCS
  5
7
330
0
100
AcDbSymbolTable
 70
     0
  0
ENDTAB
  0
TABLE
  2
APPID
  5
9
330
0
100
AcDbSymbolTable
 70
    89
  0
APPID
  5
12
330
9
100
AcDbSymbolTableRecord
100
AcDbRegAppTableRecord
  2
ACAD
 70
     0
  0
APPID
  5
82
330
9
100
AcDbSymbolTableRecord
100
AcDbRegAppTableRecord
  2
MCAD_NO_VIS
 70
     0
  0
APPID
  5
83
330
9
100
AcDbSymbolTableRecord
100
AcDbRegAppTableRecord
  2
ACAD_TEMP_GRAPHIC
 70
     0
  0
APPID
  5
94
330
9
100
AcDbSymbolTableRecord
100
AcDbRegAppTableRecord
  2
ACATTRIBSERVICES
 70
     0
  0
APPID
  5
CF
330
9
100
AcDbSymbolTableRecord
100
AcDbRegAppTableRecord
  2
GENIUS_GENSCREG_15
 70
     0
  0
APPID
  5
D0
330
9
100
AcDbSymbolTableRecord
100
AcDbRegAppTableRecord
  2
GENIUS_GENOBJ-N-SDF_13
 70
     0
  0
APPID
  5
D1
330
9
100
AcDbSymbolTableRecord
100
AcDbRegAppTableRecord
  2
GENIUS_GENODEF_13
 70
     0
  0
APPID
  5
125
330
9
100
AcDbSymbolTableRecord
100
AcDbRegAppTableRecord
  2
AD_DRAW
 70
     0
  0
APPID
  5
143
330
9
100
AcDbSymbolTableRecord
100
AcDbRegAppTableRecord
  2
DESIGNERASSEMBLIES
 70
     0
  0
APPID
  5
148
330
9
100
AcDbSymbolTableRecord
100
AcDbRegAppTableRecord
  2
ACADM_DIM_EDIT
 70
     0
  0
APPID
  5
149
330
9
100
AcDbSymbolTableRecord
100
AcDbRegAppTableRecord
  2
AMDT_DM_ADJ
 70
     0
  0
APPID
  5
2D4
330
9
100
AcDbSymbolTableRecord
100
AcDbRegAppTableRecord
  2
DCO15
 70
     0
  0
APPID
  5
880
330
9
100
AcDbSymbolTableRecord
100
AcDbRegAppTableRecord
  2
GENIUS_GENBLLY_14
 70
     0
  0
APPID
  5
906
330
9
100
AcDbSymbolTableRecord
100
AcDbRegAppTableRecord
  2
GENIUS_GENCFG_13
 70
     0
  0
APPID
  5
907
330
9
100
AcDbSymbolTableRecord
100
AcDbRegAppTableRecord
  2
GENIUS_GENCFG0_13
 70
     0
  0
APPID
  5
908
330
9
100
AcDbSymbolTableRecord
100
AcDbRegAppTableRecord
  2
GENIUS_GENCFG1_13
 70
     0
  0
APPID
  5
909
330
9
100
AcDbSymbolTableRecord
100
AcDbRegAppTableRecord
  2
GENIUS_GENCFG2_13
 70
     0
  0
APPID
  5
90A
330
9
100
AcDbSymbolTableRecord
100
AcDbRegAppTableRecord
  2
GENIUS_GENCFG3_13
 70
     0
  0
APPID
  5
90B
330
9
100
AcDbSymbolTableRecord
100
AcDbRegAppTableRecord
  2
GENIUS_GENCFG4_13
 70
     0
  0
APPID
  5
90C
330
9
100
AcDbSymbolTableRecord
100
AcDbRegAppTableRecord
  2
GENIUS_GEVCFG0_13
 70
     0
  0
APPID
  5
90D
330
9
100
AcDbSymbolTableRecord
100
AcDbRegAppTableRecord
  2
GENIUS_GENOENT_13
 70
     0
  0
APPID
  5
90E
330
9
100
AcDbSymbolTableRecord
100
AcDbRegAppTableRecord
  2
GENIUS_VERSION1
 70
     0
  0
APPID
  5
90F
330
9
100
AcDbSymbolTableRecord
100
AcDbRegAppTableRecord
  2
GENIUS_GENDIM_13
 70
     0
  0
APPID
  5
910
330
9
100
AcDbSymbolTableRecord
100
AcDbRegAppTableRecord
  2
GENIUS_GENDTOL_13
 70
     0
  0
APPID
  5
911
330
9
100
AcDbSymbolTableRecord
100
AcDbRegAppTableRecord
  2
GENIUS_GE3DTOL_13
 70
     0
  0
APPID
  5
912
330
9
100
AcDbSymbolTableRecord
100
AcDbRegAppTableRecord
  2
ASURF_PCURVE_APPNAME
 70
     0
  0
APPID
  5
913
330
9
100
AcDbSymbolTableRecord
100
AcDbRegAppTableRecord
  2
AMG_3D2D_5.0
 70
     0
  0
APPID
  5
914
330
9
100
AcDbSymbolTableRecord
100
AcDbRegAppTableRecord
  2
GENIUS_GEFCFG0_13
 70
     0
  0
APPID
  5
915
330
9
100
AcDbSymbolTableRecord
100
AcDbRegAppTableRecord
  2
GENIUS_GENBLKED_14
 70
     0
  0
APPID
  5
916
330
9
100
AcDbSymbolTableRecord
100
AcDbRegAppTableRecord
  2
GENIUS_GENTRA_14
 70
     0
  0
APPID
  5
917
330
9
100
AcDbSymbolTableRecord
100
AcDbRegAppTableRecord
  2
GENIUS_GENOBJ-N-TIT_13
 70
     0
  0
APPID
  5
918
330
9
100
AcDbSymbolTableRecord
100
AcDbRegAppTableRecord
  2
GENIUS_GENTITLE_13
 70
     0
  0
APPID
  5
919
330
9
100
AcDbSymbolTableRecord
100
AcDbRegAppTableRecord
  2
GENIUS_GENOREF_13
 70
     0
  0
APPID
  5
91A
330
9
100
AcDbSymbolTableRecord
100
AcDbRegAppTableRecord
  2
GENIUS_GENOLIS_13
 70
     0
  0
APPID
  5
91B
330
9
100
AcDbSymbolTableRecord
100
AcDbRegAppTableRecord
  2
GENIUS_GENZVEED_13
 70
     0
  0
APPID
  5
91C
330
9
100
AcDbSymbolTableRecord
100
AcDbRegAppTableRecord
  2
GENIUS_GENSCREG_13
 70
     0
  0
APPID
  5
91D
330
9
100
AcDbSymbolTableRecord
100
AcDbRegAppTableRecord
  2
GENIUS_GENOBJ-N-FIL_13
 70
     0
  0
APPID
  5
91E
330
9
100
AcDbSymbolTableRecord
100
AcDbRegAppTableRecord
  2
GENIUS_GENOBJ-N-HTC_13
 70
     0
  0
APPID
  5
91F
330
9
100
AcDbSymbolTableRecord
100
AcDbRegAppTableRecord
  2
GENIUS_GENHATCH_13
 70
     0
  0
APPID
  5
920
330
9
100
AcDbSymbolTableRecord
100
AcDbRegAppTableRecord
  2
GENIUS_GENOBJ-N-CEN_13
 70
     0
  0
APPID
  5
921
330
9
100
AcDbSymbolTableRecord
100
AcDbRegAppTableRecord
  2
GENIUS_GENBH_13
 70
     0
  0
APPID
  5
922
330
9
100
AcDbSymbolTableRecord
100
AcDbRegAppTableRecord
  2
GENIUS_GENOBJ-NBEHI-BHB_13
 70
     0
  0
APPID
  5
923
330
9
100
AcDbSymbolTableRecord
100
AcDbRegAppTableRecord
  2
GENIUS_GENREC_14
 70
     0
  0
APPID
  5
924
330
9
100
AcDbSymbolTableRecord
100
AcDbRegAppTableRecord
  2
GENIUS_GENHINW_13
 70
     0
  0
APPID
  5
925
330
9
100
AcDbSymbolTableRecord
100
AcDbRegAppTableRecord
  2
GENIUS_FIRSTVISTXT_14
 70
     0
  0
APPID
  5
926
330
9
100
AcDbSymbolTableRecord
100
AcDbRegAppTableRecord
  2
GENIUS_GENOBJ-N-LEADER_13
 70
     0
  0
APPID
  5
927
330
9
100
AcDbSymbolTableRecord
100
AcDbRegAppTableRecord
  2
GENIUS_SECONDVISTXT_14
 70
     0
  0
APPID
  5
928
330
9
100
AcDbSymbolTableRecord
100
AcDbRegAppTableRecord
  2
GENIUS_GENOBJ-N-HINW_13
 70
     0
  0
APPID
  5
929
330
9
100
AcDbSymbolTableRecord
100
AcDbRegAppTableRecord
  2
GENIUS_GEFWELD_13
 70
     0
  0
APPID
  5
92A
330
9
100
AcDbSymbolTableRecord
100
AcDbRegAppTableRecord
  2
GENIUS_GENOBJ-F-WEL_13
 70
     0
  0
APPID
  5
92B
330
9
100
AcDbSymbolTableRecord
100
AcDbRegAppTableRecord
  2
GENIUS_GENOBJ-N-REC_13
 70
     0
  0
APPID
  5
92C
330
9
100
AcDbSymbolTableRecord
100
AcDbRegAppTableRecord
  2
GEVID980252217
 70
     0
  0
APPID
  5
92D
330
9
100
AcDbSymbolTableRecord
100
AcDbRegAppTableRecord
  2
GEVPT
 70
     0
  0
APPID
  5
92E
330
9
100
AcDbSymbolTableRecord
100
AcDbRegAppTableRecord
  2
GEVIT
 70
     0
  0
APPID
  5
92F
330
9
100
AcDbSymbolTableRecord
100
AcDbRegAppTableRecord
  2
VCC
 70
     0
  0
APPID
  5
930
330
9
100
AcDbSymbolTableRecord
100
AcDbRegAppTableRecord
  2
GENBH
 70
     0
  0
APPID
  5
931
330
9
100
AcDbSymbolTableRecord
100
AcDbRegAppTableRecord
  2
GENIUS_GENOBJ-NBEHI-BHF_13
 70
     0
  0
APPID
  5
932
330
9
100
AcDbSymbolTableRecord
100
AcDbRegAppTableRecord
  2
GENIUS_GENOBJ-F-PART_13
 70
     0
  0
APPID
  5
933
330
9
100
AcDbSymbolTableRecord
100
AcDbRegAppTableRecord
  2
GENIUS_GEFSTDP_13
 70
     0
  0
APPID
  5
934
330
9
100
AcDbSymbolTableRecord
100
AcDbRegAppTableRecord
  2
GENIUS_GEFPARTINS_13
 70
     0
  0
APPID
  5
935
330
9
100
AcDbSymbolTableRecord
100
AcDbRegAppTableRecord
  2
GEVID980252219
 70
     0
  0
APPID
  5
936
330
9
100
AcDbSymbolTableRecord
100
AcDbRegAppTableRecord
  2
GENIUS_GENDREL_13
 70
     0
  0
APPID
  5
937
330
9
100
AcDbSymbolTableRecord
100
AcDbRegAppTableRecord
  2
GEV_VCCNULL_SWITCH_OFF
 70
     0
  0
APPID
  5
938
330
9
100
AcDbSymbolTableRecord
100
AcDbRegAppTableRecord
  2
ACA_CADIMENU
 70
     0
  0
APPID
  5
939
330
9
100
AcDbSymbolTableRecord
100
AcDbRegAppTableRecord
  2
GENIUS_GENCFG5_13
 70
     0
  0
APPID
  5
93A
330
9
100
AcDbSymbolTableRecord
100
AcDbRegAppTableRecord
  2
GENIUS_GENOBJ-N-CRS_13
 70
     0
  0
APPID
  5
93B
330
9
100
AcDbSymbolTableRecord
100
AcDbRegAppTableRecord
  2
GENIUS_GENDIMSH_14
 70
     0
  0
APPID
  5
93C
330
9
100
AcDbSymbolTableRecord
100
AcDbRegAppTableRecord
  2
GENIUS_GENOBJ-F-SCPASSM_13
 70
     0
  0
APPID
  5
93D
330
9
100
AcDbSymbolTableRecord
100
AcDbRegAppTableRecord
  2
GENIUS_GENIUS_GENBHEDTMP_13
 70
     0
  0
APPID
  5
93E
330
9
100
AcDbSymbolTableRecord
100
AcDbRegAppTableRecord
  2
GEVID1032351709
 70
     0
  0
APPID
  5
93F
330
9
100
AcDbSymbolTableRecord
100
AcDbRegAppTableRecord
  2
GEVDC
 70
     0
  0
APPID
  5
940
330
9
100
AcDbSymbolTableRecord
100
AcDbRegAppTableRecord
  2
GENIUS_GENOBJ-F-WELS_13
 70
     0
  0
APPID
  5
941
330
9
100
AcDbSymbolTableRecord
100
AcDbRegAppTableRecord
  2
GEVID1036052968
 70
     0
  0
APPID
  5
942
330
9
100
AcDbSymbolTableRecord
100
AcDbRegAppTableRecord
  2
GEVID1036052969
 70
     0
  0
APPID
  5
943
330
9
100
AcDbSymbolTableRecord
100
AcDbRegAppTableRecord
  2
GEVID1036052971
 70
     0
  0
APPID
  5
944
330
9
100
AcDbSymbolTableRecord
100
AcDbRegAppTableRecord
  2
GENIUS_GENOBJ-N-DIM_13
 70
     0
  0
APPID
  5
945
330
9
100
AcDbSymbolTableRecord
100
AcDbRegAppTableRecord
  2
EDB_
 70
     0
  0
APPID
  5
946
330
9
100
AcDbSymbolTableRecord
100
AcDbRegAppTableRecord
  2
EDBFRAME_
 70
     0
  0
APPID
  5
947
330
9
100
AcDbSymbolTableRecord
100
AcDbRegAppTableRecord
  2
EDBXREF_
 70
     0
  0
APPID
  5
948
330
9
100
AcDbSymbolTableRecord
100
AcDbRegAppTableRecord
  2
EDBSHEET
 70
     0
  0
APPID
  5
949
330
9
100
AcDbSymbolTableRecord
100
AcDbRegAppTableRecord
  2
EDBMODELINFO
 70
     0
  0
APPID
  5
94A
330
9
100
AcDbSymbolTableRecord
100
AcDbRegAppTableRecord
  2
ACAD_PSEXT
 70
     0
  0
APPID
  5
AC6
330
9
100
AcDbSymbolTableRecord
100
AcDbRegAppTableRecord
  2
AcAecLayerStandard
 70
     0
  0
APPID
  5
AC7
330
9
100
AcDbSymbolTableRecord
100
AcDbRegAppTableRecord
  2
GENIUS_GENCEN_19
 70
     0
  0
APPID
  5
1074
330
9
100
AcDbSymbolTableRecord
100
AcDbRegAppTableRecord
  2
ACADANNOPO
 70
     0
  0
APPID
  5
1075
330
9
100
AcDbSymbolTableRecord
100
AcDbRegAppTableRecord
  2
ACADANNOTATIVE
 70
     0
  0
APPID
  5
1076
330
9
100
AcDbSymbolTableRecord
100
AcDbRegAppTableRecord
  2
ACAD_DSTYLE_DIMJAG
 70
     0
  0
APPID
  5
1077
330
9
100
AcDbSymbolTableRecord
100
AcDbRegAppTableRecord
  2
ACAD_DSTYLE_DIMTALN
 70
     0
  0
APPID
  5
1078
330
9
100
AcDbSymbolTableRecord
100
AcDbRegAppTableRecord
  2
ACAD_MLEADERVER
 70
     0
  0
ENDTAB
  0
TABLE
  2
DIMSTYLE
  5
A
330
0
100
AcDbSymbolTable
 70
    26
100
AcDbDimStyleTable
 71
     2
340
C2
340
27
  0
DIMSTYLE
105
27
330
A
100
AcDbSymbolTableRecord
100
AcDbDimStyleTableRecord
  2
ISO-25
 70
     0
 41
2.5
 42
0.625
 43
3.75
 44
1.25
 73
     0
 74
     0
 77
     1
 78
     8
140
2.5
141
2.5
143
0.03937007874016
147
0.625
171
     3
172
     1
271
     2
272
     2
274
     3
278
    44
283
     0
284
     8
340
11
  0
DIMSTYLE
105
C2
330
A
100
AcDbSymbolTableRecord
100
AcDbDimStyleTableRecord
  2
AM_DIN
 70
     0
  4
"
 41
2.5
 42
1.0
 43
10.0
 44
1.0
 47
0.1
 48
0.1
 73
     0
 74
     0
 77
     1
 78
     8
 79
     2
140
3.5
141
0.0
143
0.0393701
146
0.71
147
1.5
172
     1
176
   256
177
   256
178
     2
271
     2
272
     3
274
     4
283
     0
284
     8
340
11
371
    -1
372
    -1
  0
DIMSTYLE
105
C3
330
A
100
AcDbSymbolTableRecord
100
AcDbDimStyleTableRecord
  2
AM_DIN$3
 70
     0
  4
"
 41
2.5
 42
1.0
 43
10.0
 44
1.0
 47
0.1
 48
0.1
 73
     0
 77
     1
 78
     8
 79
     2
140
3.5
141
0.0
143
0.0393701
146
0.71
147
1.5
176
   256
177
   256
178
     2
271
     2
272
     3
274
     4
283
     0
284
     8
288
     1
289
     0
340
11
371
    -1
372
    -1
  0
DIMSTYLE
105
C4
330
A
100
AcDbSymbolTableRecord
100
AcDbDimStyleTableRecord
  2
AM_DIN$4
 70
     0
  4
"
 41
2.5
 42
1.0
 43
10.0
 44
1.0
 47
0.1
 48
0.1
 73
     0
 77
     1
 78
     8
 79
     2
140
3.5
141
0.0
143
0.0393701
146
0.71
147
1.5
176
   256
177
   256
178
     2
271
     2
272
     3
274
     4
283
     0
284
     8
288
     1
289
     0
340
11
371
    -1
372
    -1
  0
DIMSTYLE
105
C5
330
A
100
AcDbSymbolTableRecord
100
AcDbDimStyleTableRecord
  2
AM_DIN$6
 70
     0
  4
"
 41
2.5
 42
1.0
 43
10.0
 44
1.0
 47
0.1
 48
0.1
 73
     0
 74
     0
 78
     8
 79
     2
140
3.5
141
0.0
143
0.0393701
146
0.71
147
1.5
172
     1
176
   256
177
   256
178
     2
271
     2
272
     3
274
     4
283
     0
284
     8
340
11
371
    -1
372
    -1
  0
DIMSTYLE
105
C6
330
A
100
AcDbSymbolTableRecord
100
AcDbDimStyleTableRecord
  2
AM_DIN$7
 70
     0
  4
"
 41
2.5
 42
1.0
 43
10.0
 44
1.0
 47
0.1
 48
0.1
 73
     0
 74
     0
 77
     1
 78
     8
 79
     2
140
5.0
141
0.0
143
0.0393701
146
0.71
147
1.5
172
     1
176
   256
177
   256
178
     2
271
     2
272
     3
274
     4
283
     0
284
     8
340
11
371
    -1
372
    -1
  0
DIMSTYLE
105
C7
330
A
100
AcDbSymbolTableRecord
100
AcDbDimStyleTableRecord
  2
AM_DIN$SF
 70
     0
  4
"
 41
2.5
 42
1.0
 43
10.0
 44
1.0
 47
0.1
 48
0.1
 73
     0
 74
     0
 75
     1
 76
     1
 77
     1
 78
     8
 79
     2
140
3.5
141
0.0
143
0.0393701
146
0.71
147
1.5
172
     1
176
   256
177
   256
178
     2
271
     2
272
     3
274
     4
283
     0
284
     8
340
11
371
    -1
372
    -1
  0
DIMSTYLE
105
CC
330
A
100
AcDbSymbolTableRecord
100
AcDbDimStyleTableRecord
  2
AM_DIN$SH
 70
     0
  4
"
 41
2.5
 42
1.0
 43
10.0
 44
1.0
 47
0.1
 48
0.1
 73
     0
 74
     0
 75
     1
 76
     1
 77
     1
 78
     8
 79
     2
140
3.5
141
0.0
143
0.0393701
144
2.0
146
0.71
147
1.5
172
     1
173
     1
176
   256
177
   256
178
     2
271
     2
272
     3
274
     4
283
     0
284
     8
340
11
343
C8
371
    -1
372
    -1
  0
DIMSTYLE
105
2D3
330
A
100
AcDbSymbolTableRecord
100
AcDbDimStyleTableRecord
  2
STANDARD
 70
     0
340
2CD
  0
DIMSTYLE
105
87A
330
A
100
AcDbSymbolTableRecord
100
AcDbDimStyleTableRecord
  2
AM_ANSI
 70
     0
  4
mm
 41
0.1
 42
0.05
 43
0.5
 44
0.1
 47
0.1
 48
0.1
 78
     7
 79
     2
140
0.12
141
0.0
146
0.71
147
0.06
176
   256
177
   256
178
     2
274
     4
284
     7
340
11
371
    -1
372
    -1
  0
DIMSTYLE
105
87B
330
A
100
AcDbSymbolTableRecord
100
AcDbDimStyleTableRecord
  2
AM_ANSI$3
 70
     0
  4
mm
 41
0.1
 42
0.05
 43
0.5
 44
0.1
 47
0.1
 48
0.1
 78
     7
 79
     2
140
0.12
141
0.0
146
0.71
147
0.06
176
   256
177
   256
178
     2
274
     4
284
     7
288
     1
289
     0
340
11
371
    -1
372
    -1
  0
DIMSTYLE
105
87C
330
A
100
AcDbSymbolTableRecord
100
AcDbDimStyleTableRecord
  2
AM_ANSI$4
 70
     0
  4
mm
 41
0.1
 42
0.05
 43
0.5
 44
0.1
 47
0.1
 48
0.1
 78
     7
 79
     2
140
0.12
141
0.0
146
0.71
147
0.06
176
   256
177
   256
178
     2
274
     4
284
     7
288
     1
289
     0
340
11
371
    -1
372
    -1
  0
DIMSTYLE
105
87D
330
A
100
AcDbSymbolTableRecord
100
AcDbDimStyleTableRecord
  2
AM_ANSI$7
 70
     0
  4
mm
 41
0.1
 42
0.05
 43
0.5
 44
0.1
 47
0.1
 48
0.1
 78
     7
 79
     2
140
0.24
141
0.0
146
0.71
147
0.06
176
   256
177
   256
178
     2
274
     4
284
     7
340
11
371
    -1
372
    -1
  0
DIMSTYLE
105
87E
330
A
100
AcDbSymbolTableRecord
100
AcDbDimStyleTableRecord
  2
AM_ANSI$SF
 70
     0
  4
mm
 41
0.1
 42
0.05
 43
0.5
 44
0.1
 47
0.1
 48
0.1
 75
     1
 76
     1
 78
     7
 79
     2
140
0.12
141
0.0
146
0.71
147
0.06
176
   256
177
   256
178
     2
274
     4
284
     7
340
11
371
    -1
372
    -1
  0
DIMSTYLE
105
87F
330
A
100
AcDbSymbolTableRecord
100
AcDbDimStyleTableRecord
  2
AM_ANSI$SH
 70
     0
  4
mm
 41
0.1
 42
0.05
 43
0.5
 44
0.1
 47
0.1
 48
0.1
 75
     1
 76
     1
 78
     7
 79
     2
140
0.12
141
0.0
146
0.71
147
0.06
173
     1
176
   256
177
   256
178
     2
274
     4
284
     7
340
11
343
C8
371
    -1
372
    -1
  0
DIMSTYLE
105
8FE
330
A
100
AcDbSymbolTableRecord
100
AcDbDimStyleTableRecord
  2
AM_ISO
 70
     0
  4
"
 41
2.5
 42
1.0
 43
10.0
 44
1.0
 47
0.1
 48
0.1
 73
     0
 74
     0
 77
     1
 78
     8
 79
     2
140
3.5
141
0.0
143
0.0393701
146
0.71
147
1.5
172
     1
176
   256
177
   256
178
     2
271
     2
272
     3
274
     4
283
     0
284
     8
340
11
371
    -1
372
    -1
  0
DIMSTYLE
105
8FF
330
A
100
AcDbSymbolTableRecord
100
AcDbDimStyleTableRecord
  2
AM_ISO$3
 70
     0
  4
"
 41
2.5
 42
1.0
 43
10.0
 44
1.0
 47
0.1
 48
0.1
 73
     0
 77
     1
 78
     8
 79
     2
140
3.5
141
0.0
143
0.0393701
146
0.71
147
1.5
176
   256
177
   256
178
     2
271
     2
272
     3
274
     4
283
     0
284
     8
288
     1
289
     0
340
11
371
    -1
372
    -1
  0
DIMSTYLE
105
900
330
A
100
AcDbSymbolTableRecord
100
AcDbDimStyleTableRecord
  2
AM_ISO$4
 70
     0
  4
"
 41
2.5
 42
1.0
 43
10.0
 44
1.0
 47
0.1
 48
0.1
 73
     0
 77
     1
 78
     8
 79
     2
140
3.5
141
0.0
143
0.0393701
146
0.71
147
1.5
176
   256
177
   256
178
     2
271
     2
272
     3
274
     4
283
     0
284
     8
288
     1
289
     0
340
11
371
    -1
372
    -1
  0
DIMSTYLE
105
901
330
A
100
AcDbSymbolTableRecord
100
AcDbDimStyleTableRecord
  2
AM_ISO$6
 70
     0
  4
"
 41
2.5
 42
1.0
 43
10.0
 44
1.0
 47
0.1
 48
0.1
 73
     0
 74
     0
 78
     8
 79
     2
140
3.5
141
0.0
143
0.0393701
146
0.71
147
1.5
172
     1
176
   256
177
   256
178
     2
271
     2
272
     3
274
     4
283
     0
284
     8
340
11
371
    -1
372
    -1
  0
DIMSTYLE
105
902
330
A
100
AcDbSymbolTableRecord
100
AcDbDimStyleTableRecord
  2
AM_ISO$7
 70
     0
  4
"
 41
2.5
 42
1.0
 43
10.0
 44
1.0
 47
0.1
 48
0.1
 73
     0
 74
     0
 77
     1
 78
     8
 79
     2
140
5.0
141
0.0
143
0.0393701
146
0.71
147
1.5
172
     1
176
   256
177
   256
178
     2
271
     2
272
     3
274
     4
283
     0
284
     8
340
11
371
    -1
372
    -1
  0
DIMSTYLE
105
903
330
A
100
AcDbSymbolTableRecord
100
AcDbDimStyleTableRecord
  2
AM_ISO$SF
 70
     0
  4
"
 41
2.5
 42
1.0
 43
10.0
 44
1.0
 47
0.1
 48
0.1
 73
     0
 74
     0
 75
     1
 76
     1
 77
     1
 78
     8
 79
     2
140
3.5
141
0.0
143
0.0393701
146
0.71
147
1.5
172
     1
176
   256
177
   256
178
     2
271
     2
272
     3
274
     4
283
     0
284
     8
340
11
371
    -1
372
    -1
  0
DIMSTYLE
105
904
330
A
100
AcDbSymbolTableRecord
100
AcDbDimStyleTableRecord
  2
AM_ISO$SH
 70
     0
  4
"
 41
2.5
 42
1.0
 43
10.0
 44
1.0
 47
0.1
 48
0.1
 73
     0
 74
     0
 75
     1
 76
     1
 77
     1
 78
     8
 79
     2
140
3.5
141
0.0
143
0.0393701
144
2.0
146
0.71
147
1.5
172
     1
173
     1
176
   256
177
   256
178
     2
271
     2
272
     3
274
     4
283
     0
284
     8
340
11
343
C8
371
    -1
372
    -1
  0
DIMSTYLE
105
905
330
A
100
AcDbSymbolTableRecord
100
AcDbDimStyleTableRecord
  2
GEN-ISO
 70
     0
  4
"
 41
2.5
 42
1.0
 43
7.0
 44
1.0
 47
0.1
 48
0.1
 73
     0
 74
     0
 77
     1
 78
     8
140
3.5
141
0.0
143
0.0393701
146
0.71
147
0.6
172
     1
176
   256
177
   256
178
     2
271
     2
272
     3
274
     4
283
     0
340
11
  0
DIMSTYLE
105
AC5
102
{ACAD_REACTORS
330
1370
330
1371
330
1372
330
1373
330
1374
102
}
330
A
100
AcDbSymbolTableRecord
100
AcDbDimStyleTableRecord
  2
AM_DIN$0
 70
     0
  4
"
 41
2.5
 42
0.0
 43
10.0
 44
2.0
 47
0.1
 48
0.1
 73
     0
 74
     0
 77
     1
 78
     8
 79
     2
140
3.5
141
0.0
143
0.0393701
146
0.71
147
1.5
172
     1
176
   256
177
   256
178
     2
271
     2
272
     2
283
     0
284
     8
340
11
371
    -1
372
    -1
  0
DIMSTYLE
105
1073
330
A
100
AcDbSymbolTableRecord
100
AcDbDimStyleTableRecord
  2
Opisowy
 70
     0
 40
0.0
 41
2.5
 42
0.625
 43
3.75
 44
1.25
 73
     0
 74
     0
 77
     1
 78
     8
140
2.5
141
2.5
143
0.03937007874016
147
0.625
171
     3
172
     1
271
     2
272
     2
274
     3
278
    44
283
     0
284
     8
340
11
1001
ACADANNOTATIVE
1000
AnnotativeData
1002
{
1070
     1
1070
     1
1002
}
1001
ACAD_DSTYLE_DIMJAG
1070
   388
1040
1.5
1001
ACAD_DSTYLE_DIMTALN
1070
   392
1070
     0
  0
ENDTAB
  0
TABLE
  2
BLOCK_RECORD
  5
1
330
0
100
AcDbSymbolTable
 70
    23
  0
BLOCK_RECORD
  5
1F
102
{ACAD_XDICTIONARY
360
D5
102
}
330
1
100
AcDbSymbolTableRecord
100
AcDbBlockTableRecord
  2
*Model_Space
340
22
  0
BLOCK_RECORD
  5
55
330
1
100
AcDbSymbolTableRecord
100
AcDbBlockTableRecord
  2
*Paper_Space
340
56
  0
BLOCK_RECORD
  5
50
330
1
100
AcDbSymbolTableRecord
100
AcDbBlockTableRecord
  2
*Paper_Space0
340
51
  0
BLOCK_RECORD
  5
C8
330
1
100
AcDbSymbolTableRecord
100
AcDbBlockTableRecord
  2
GENAXEH
340
0
  0
BLOCK_RECORD
  5
881
330
1
100
AcDbSymbolTableRecord
100
AcDbBlockTableRecord
  2
DIN_A3
340
0
102
{BLKREFS
331
8E8
102
}
  0
BLOCK_RECORD
  5
8ED
330
1
100
AcDbSymbolTableRecord
100
AcDbBlockTableRecord
  2
sfm
340
0
102
{BLKREFS
331
A06
102
}
  0
BLOCK_RECORD
  5
94B
102
{ACAD_XDICTIONARY
360
A08
102
}
330
1
100
AcDbSymbolTableRecord
100
AcDbBlockTableRecord
  2
REFLEX_EDBTITLE
340
0
  0
BLOCK_RECORD
  5
FCD
330
1
100
AcDbSymbolTableRecord
100
AcDbBlockTableRecord
  2
*D5
340
0
  0
BLOCK_RECORD
  5
FDA
330
1
100
AcDbSymbolTableRecord
100
AcDbBlockTableRecord
  2
*D6
340
0
  0
BLOCK_RECORD
  5
FE6
330
1
100
AcDbSymbolTableRecord
100
AcDbBlockTableRecord
  2
*D7
340
0
  0
BLOCK_RECORD
  5
FF2
330
1
100
AcDbSymbolTableRecord
100
AcDbBlockTableRecord
  2
*D8
340
0
  0
BLOCK_RECORD
  5
FFF
330
1
100
AcDbSymbolTableRecord
100
AcDbBlockTableRecord
  2
*D9
340
0
  0
BLOCK_RECORD
  5
11A4
330
1
100
AcDbSymbolTableRecord
100
AcDbBlockTableRecord
  2
*D10
340
0
  0
BLOCK_RECORD
  5
11B1
330
1
100
AcDbSymbolTableRecord
100
AcDbBlockTableRecord
  2
*D11
340
0
  0
BLOCK_RECORD
  5
11BD
330
1
100
AcDbSymbolTableRecord
100
AcDbBlockTableRecord
  2
*D12
340
0
  0
BLOCK_RECORD
  5
11C9
330
1
100
AcDbSymbolTableRecord
100
AcDbBlockTableRecord
  2
*D13
340
0
  0
BLOCK_RECORD
  5
11D6
330
1
100
AcDbSymbolTableRecord
100
AcDbBlockTableRecord
  2
*D14
340
0
  0
BLOCK_RECORD
  5
1375
330
1
100
AcDbSymbolTableRecord
100
AcDbBlockTableRecord
  2
*D15
340
0
  0
BLOCK_RECORD
  5
1382
330
1
100
AcDbSymbolTableRecord
100
AcDbBlockTableRecord
  2
*D16
340
0
  0
BLOCK_RECORD
  5
138E
330
1
100
AcDbSymbolTableRecord
100
AcDbBlockTableRecord
  2
*D17
340
0
  0
BLOCK_RECORD
  5
139A
330
1
100
AcDbSymbolTableRecord
100
AcDbBlockTableRecord
  2
*D18
340
0
  0
BLOCK_RECORD
  5
13A7
330
1
100
AcDbSymbolTableRecord
100
AcDbBlockTableRecord
  2
*D19
340
0
  0
ENDTAB
  0
ENDSEC
  0
SECTION
  2
BLOCKS
  0
BLOCK
  5
20
330
1F
100
AcDbEntity
  8
0
100
AcDbBlockBegin
  2
*Model_Space
 70
     0
 10
0.0
 20
0.0
 30
0.0
  3
*Model_Space
  1

  0
ENDBLK
  5
21
330
1F
100
AcDbEntity
  8
0
100
AcDbBlockEnd
  0
BLOCK
  5
57
330
55
100
AcDbEntity
 67
     1
  8
0
100
AcDbBlockBegin
  2
*Paper_Space
 70
     0
 10
0.0
 20
0.0
 30
0.0
  3
*Paper_Space
  1

  0
ENDBLK
  5
58
330
55
100
AcDbEntity
 67
     1
  8
0
100
AcDbBlockEnd
  0
BLOCK
  5
52
330
50
100
AcDbEntity
 67
     1
  8
0
100
AcDbBlockBegin
  2
*Paper_Space0
 70
     0
 10
0.0
 20
0.0
 30
0.0
  3
*Paper_Space0
  1

  0
VIEWPORT
  5
69
330
50
100
AcDbEntity
 67
     1
  8
0
100
AcDbViewport
 10
128.5
 20
97.5
 30
0.0
 40
384.7606204379562
 41
222.18
 68
     0
 69
     0
 12
128.5
 22
97.5
 13
0.0
 23
0.0
 14
10.0
 24
10.0
 15
10.0
 25
10.0
 16
0.0
 26
0.0
 36
1.0
 17
0.0
 27
0.0
 37
0.0
 42
50.0
 43
0.0
 44
0.0
 45
222.18
 50
0.0
 51
0.0
 72
   100
 90
    32800
  1

281
     0
 71
     1
 74
     0
110
0.0
120
0.0
130
0.0
111
1.0
121
0.0
131
0.0
112
0.0
122
1.0
132
0.0
 79
     0
146
0.0
170
     0
1001
GENIUS_GENOBJ-N-SDF_13
1002
{
1000
OWNER
1000
GEN
1002
}
1001
GENIUS_GENODEF_13
1002
{
1000
HIER
1070
     0
1002
}
1002
{
1000
MANEDIT
1070
     0
1002
}
1002
{
1000
NOSEL
1070
     0
1002
}
1002
{
1000
BEHIND
1070
     0
1002
}
1002
{
1000
OTHER
1070
     0
1002
}
1002
{
1000
REACTOR
1002
}
1001
GENIUS_GENSCREG_15
1000
PF
1040
1.0
1000
DF
1040
1.0
1000
MIN
1011
-63.88031021897808
1021
-13.59
1031
0.0
1000
MAX
1011
320.8803102189782
1021
208.59
1031
0.0
1000
FLAGS
1070
     2
  0
VIEWPORT
  5
6B
330
50
100
AcDbEntity
 67
     1
  8
0
100
AcDbViewport
 10
128.5
 20
97.5
 30
0.0
 40
205.6
 41
156.0
 68
     0
 69
     0
 12
210.0
 22
148.5
 13
0.0
 23
0.0
 14
10.0
 24
10.0
 15
10.0
 25
10.0
 16
0.0
 26
0.0
 36
1.0
 17
0.0
 27
0.0
 37
0.0
 42
50.0
 43
0.0
 44
0.0
 45
322.4558219652112
 50
0.0
 51
0.0
 72
   100
 90
    32864
  1

281
     0
 71
     1
 74
     0
110
0.0
120
0.0
130
0.0
111
1.0
121
0.0
131
0.0
112
0.0
122
1.0
132
0.0
 79
     0
146
0.0
170
     0
1001
GENIUS_GENOBJ-N-SDF_13
1002
{
1000
OWNER
1000
GEN
1002
}
1001
GENIUS_GENODEF_13
1002
{
1000
HIER
1070
     0
1002
}
1002
{
1000
MANEDIT
1070
     0
1002
}
1002
{
1000
NOSEL
1070
     0
1002
}
1002
{
1000
BEHIND
1070
     0
1002
}
1002
{
1000
OTHER
1070
     0
1002
}
1002
{
1000
REACTOR
1002
}
1001
GENIUS_GENSCREG_15
1000
PF
1040
0.0
1000
DF
1040
0.0
1000
MIN
1011
25.70000000000002
1021
19.5
1031
0.0
1000
MAX
1011
231.3
1021
175.5
1031
0.0
1000
FLAGS
1070
     2
  0
ENDBLK
  5
53
330
50
100
AcDbEntity
 67
     1
  8
0
100
AcDbBlockEnd
  0
BLOCK
  5
1561
330
C8
100
AcDbEntity
  8
0
100
AcDbBlockBegin
  2
GENAXEH
 70
     0
 10
0.0
 20
0.0
 30
0.0
  3
GENAXEH
  1

  0
LINE
  5
1562
330
C8
100
AcDbEntity
  8
0
100
AcDbLine
 10
-1.0
 20
0.0
 30
0.0
 11
1.0
 21
0.0
 31
0.0
  0
ENDBLK
  5
1563
330
C8
100
AcDbEntity
  8
0
100
AcDbBlockEnd
  0
BLOCK
  5
8C8
330
881
100
AcDbEntity
  8
0
100
AcDbBlockBegin
  2
DIN_A3
 70
     0
 10
0.0
 20
0.0
 30
0.0
  3
DIN_A3
  1

  0
LINE
  5
882
330
881
100
AcDbEntity
  8
AM_BOR
 62
     1
370
    25
100
AcDbLine
 10
420.0
 20
297.0
 30
0.0
 11
419.9999999999999
 21
0.0
 31
0.0
  0
LINE
  5
883
330
881
100
AcDbEntity
  8
AM_BOR
 62
     1
370
    25
100
AcDbLine
 10
230.0
 20
5.000000000000047
 30
0.0
 11
230.0
 21
0.0000000000000233
 31
0.0
  0
LINE
  5
884
330
881
100
AcDbEntity
  8
AM_BOR
 62
     1
370
    25
100
AcDbLine
 10
409.9999999999996
 20
10.0
 30
0.0
 11
9.999999999999943
 21
10.00000000000005
 31
0.0
  0
TEXT
  5
885
330
881
100
AcDbEntity
  8
AM_BOR
 62
     1
370
    25
100
AcDbText
 10
411.0
 20
262.0
 30
0.0
 40
4.0
  1
A
  7
ACDINTS
100
AcDbText
  0
TEXT
  5
886
330
881
100
AcDbEntity
  8
AM_BOR
 62
     1
370
    25
100
AcDbText
 10
411.0
 20
216.0
 30
0.0
 40
4.0
  1
B
  7
ACDINTS
100
AcDbText
  0
TEXT
  5
887
330
881
100
AcDbEntity
  8
AM_BOR
 62
     1
370
    25
100
AcDbText
 10
411.0
 20
170.0
 30
0.0
 40
4.0
  1
C
  7
ACDINTS
100
AcDbText
  0
TEXT
  5
888
330
881
100
AcDbEntity
  8
AM_BOR
 62
     1
370
    25
100
AcDbText
 10
411.0
 20
123.0
 30
0.0
 40
4.0
  1
D
  7
ACDINTS
100
AcDbText
  0
TEXT
  5
889
330
881
100
AcDbEntity
  8
AM_BOR
 62
     1
370
    25
100
AcDbText
 10
411.0
 20
77.0
 30
0.0
 40
4.0
  1
E
  7
ACDINTS
100
AcDbText
  0
TEXT
  5
88A
330
881
100
AcDbEntity
  8
AM_BOR
 62
     1
370
    25
100
AcDbText
 10
411.0
 20
31.0
 30
0.0
 40
4.0
  1
F
  7
ACDINTS
100
AcDbText
  0
LINE
  5
88B
330
881
100
AcDbEntity
  8
AM_BOR
 62
     1
370
    25
100
AcDbLine
 10
415.0
 20
240.83
 30
0.0
 11
410.0
 21
240.83
 31
0.0
  0
LINE
  5
88C
330
881
100
AcDbEntity
  8
AM_BOR
 62
     1
370
    25
100
AcDbLine
 10
415.0
 20
194.664
 30
0.0
 11
410.0
 21
194.664
 31
0.0
  0
LINE
  5
88D
330
881
100
AcDbEntity
  8
AM_BOR
 62
     1
370
    25
100
AcDbLine
 10
415.0
 20
102.332
 30
0.0
 11
410.0
 21
102.332
 31
0.0
  0
LINE
  5
88E
330
881
100
AcDbEntity
  8
AM_BOR
 62
     1
370
    25
100
AcDbLine
 10
415.0
 20
56.166
 30
0.0
 11
410.0
 21
56.166
 31
0.0
  0
LINE
  5
88F
330
881
100
AcDbEntity
  8
AM_BOR
 62
     1
370
    25
100
AcDbLine
 10
60.0
 20
291.9999999999999
 30
0.0
 11
60.0
 21
287.0
 31
0.0
  0
LINE
  5
890
330
881
100
AcDbEntity
  8
AM_BOR
 62
     1
370
    25
100
AcDbLine
 10
110.0
 20
291.9999999999999
 30
0.0
 11
110.0
 21
287.0
 31
0.0
  0
LINE
  5
891
330
881
100
AcDbEntity
  8
AM_BOR
 62
     1
370
    25
100
AcDbLine
 10
160.0
 20
291.9999999999999
 30
0.0
 11
160.0
 21
287.0
 31
0.0
  0
LINE
  5
892
330
881
100
AcDbEntity
  8
AM_BOR
 62
     1
370
    25
100
AcDbLine
 10
260.0
 20
291.9999999999999
 30
0.0
 11
260.0
 21
287.0
 31
0.0
  0
LINE
  5
893
330
881
100
AcDbEntity
  8
AM_BOR
 62
     1
370
    25
100
AcDbLine
 10
310.0
 20
291.9999999999999
 30
0.0
 11
310.0
 21
287.0
 31
0.0
  0
LINE
  5
894
330
881
100
AcDbEntity
  8
AM_BOR
 62
     1
370
    25
100
AcDbLine
 10
360.0
 20
291.9999999999999
 30
0.0
 11
360.0
 21
287.0
 31
0.0
  0
TEXT
  5
895
330
881
100
AcDbEntity
  8
AM_BOR
 62
     1
370
    25
100
AcDbText
 10
384.0
 20
287.5
 30
0.0
 40
4.0
  1
8
  7
ACDINTS
100
AcDbText
  0
TEXT
  5
896
330
881
100
AcDbEntity
  8
AM_BOR
 62
     1
370
    25
100
AcDbText
 10
334.0
 20
287.5
 30
0.0
 40
4.0
  1
7
  7
ACDINTS
100
AcDbText
  0
TEXT
  5
897
330
881
100
AcDbEntity
  8
AM_BOR
 62
     1
370
    25
100
AcDbText
 10
284.0
 20
287.5
 30
0.0
 40
4.0
  1
6
  7
ACDINTS
100
AcDbText
  0
TEXT
  5
898
330
881
100
AcDbEntity
  8
AM_BOR
 62
     1
370
    25
100
AcDbText
 10
233.5
 20
287.5
 30
0.0
 40
4.0
  1
5
  7
ACDINTS
100
AcDbText
  0
TEXT
  5
899
330
881
100
AcDbEntity
  8
AM_BOR
 62
     1
370
    25
100
AcDbText
 10
183.5
 20
287.5
 30
0.0
 40
4.0
  1
4
  7
ACDINTS
100
AcDbText
  0
TEXT
  5
89A
330
881
100
AcDbEntity
  8
AM_BOR
 62
     1
370
    25
100
AcDbText
 10
133.5
 20
287.5
 30
0.0
 40
4.0
  1
3
  7
ACDINTS
100
AcDbText
  0
TEXT
  5
89B
330
881
100
AcDbEntity
  8
AM_BOR
 62
     1
370
    25
100
AcDbText
 10
83.49999999999999
 20
287.5
 30
0.0
 40
4.0
  1
2
  7
ACDINTS
100
AcDbText
  0
TEXT
  5
89C
330
881
100
AcDbEntity
  8
AM_BOR
 62
     1
370
    25
100
AcDbText
 10
33.5
 20
287.5
 30
0.0
 40
4.0
  1
1
  7
ACDINTS
100
AcDbText
  0
TEXT
  5
89D
330
881
100
AcDbEntity
  8
AM_BOR
 62
     1
370
    25
100
AcDbText
 10
33.5
 20
5.5
 30
0.0
 40
4.0
  1
1
  7
ACDINTS
100
AcDbText
  0
TEXT
  5
89E
330
881
100
AcDbEntity
  8
AM_BOR
 62
     1
370
    25
100
AcDbText
 10
83.49999999999999
 20
5.5
 30
0.0
 40
4.0
  1
2
  7
ACDINTS
100
AcDbText
  0
TEXT
  5
89F
330
881
100
AcDbEntity
  8
AM_BOR
 62
     1
370
    25
100
AcDbText
 10
133.5
 20
5.5
 30
0.0
 40
4.0
  1
3
  7
ACDINTS
100
AcDbText
  0
TEXT
  5
8A0
330
881
100
AcDbEntity
  8
AM_BOR
 62
     1
370
    25
100
AcDbText
 10
183.5
 20
5.5
 30
0.0
 40
4.0
  1
4
  7
ACDINTS
100
AcDbText
  0
TEXT
  5
8A1
330
881
100
AcDbEntity
  8
AM_BOR
 62
     1
370
    25
100
AcDbText
 10
6.0
 20
262.0
 30
0.0
 40
4.0
  1
A
  7
ACDINTS
100
AcDbText
  0
TEXT
  5
8A2
330
881
100
AcDbEntity
  8
AM_BOR
 62
     1
370
    25
100
AcDbText
 10
6.0
 20
216.0
 30
0.0
 40
4.0
  1
B
  7
ACDINTS
100
AcDbText
  0
TEXT
  5
8A3
330
881
100
AcDbEntity
  8
AM_BOR
 62
     1
370
    25
100
AcDbText
 10
6.0
 20
170.0
 30
0.0
 40
4.0
  1
C
  7
ACDINTS
100
AcDbText
  0
TEXT
  5
8A4
330
881
100
AcDbEntity
  8
AM_BOR
 62
     1
370
    25
100
AcDbText
 10
6.0
 20
123.0
 30
0.0
 40
4.0
  1
D
  7
ACDINTS
100
AcDbText
  0
TEXT
  5
8A5
330
881
100
AcDbEntity
  8
AM_BOR
 62
     1
370
    25
100
AcDbText
 10
6.0
 20
77.0
 30
0.0
 40
4.0
  1
E
  7
ACDINTS
100
AcDbText
  0
TEXT
  5
8A6
330
881
100
AcDbEntity
  8
AM_BOR
 62
     1
370
    25
100
AcDbText
 10
6.0
 20
31.0
 30
0.0
 40
4.0
  1
F
  7
ACDINTS
100
AcDbText
  0
LINE
  5
8A7
330
881
100
AcDbEntity
  8
AM_BOR
 62
     1
370
    25
100
AcDbLine
 10
160.0
 20
10.0
 30
0.0
 11
160.0
 21
5.0
 31
0.0
  0
LINE
  5
8A8
330
881
100
AcDbEntity
  8
AM_BOR
 62
     1
370
    25
100
AcDbLine
 10
110.0
 20
10.0
 30
0.0
 11
110.0
 21
5.0
 31
0.0
  0
LINE
  5
8A9
330
881
100
AcDbEntity
  8
AM_BOR
 62
     1
370
    25
100
AcDbLine
 10
60.0
 20
10.0
 30
0.0
 11
60.0
 21
5.0
 31
0.0
  0
LINE
  5
8AA
330
881
100
AcDbEntity
  8
AM_BOR
 62
     1
370
    25
100
AcDbLine
 10
10.0
 20
240.83
 30
0.0
 11
5.0
 21
240.83
 31
0.0
  0
LINE
  5
8AB
330
881
100
AcDbEntity
  8
AM_BOR
 62
     1
370
    25
100
AcDbLine
 10
10.0
 20
194.664
 30
0.0
 11
5.0
 21
194.664
 31
0.0
  0
LINE
  5
8AC
330
881
100
AcDbEntity
  8
AM_BOR
 62
     1
370
    25
100
AcDbLine
 10
10.0
 20
102.332
 30
0.0
 11
5.0
 21
102.332
 31
0.0
  0
LINE
  5
8AD
330
881
100
AcDbEntity
  8
AM_BOR
 62
     1
370
    25
100
AcDbLine
 10
10.0
 20
56.166
 30
0.0
 11
5.0
 21
56.166
 31
0.0
  0
LINE
  5
8AE
330
881
100
AcDbEntity
  8
AM_BOR
 62
     1
370
    25
100
AcDbLine
 10
410.0
 20
287.0
 30
0.0
 11
409.9999999999996
 21
10.0
 31
0.0
  0
LINE
  5
8AF
330
881
100
AcDbEntity
  8
AM_BOR
 62
     1
370
    25
100
AcDbLine
 10
10.00000000000001
 20
287.0
 30
0.0
 11
410.0
 21
287.0
 31
0.0
  0
LINE
  5
8B0
330
881
100
AcDbEntity
  8
AM_BOR
 62
     1
370
    25
100
AcDbLine
 10
10.0
 20
10.0
 30
0.0
 11
10.00000000000001
 21
287.0
 31
0.0
  0
LINE
  5
8B1
330
881
100
AcDbEntity
  8
0
100
AcDbLine
 10
414.9999999999996
 20
5.0
 30
0.0
 11
4.999999999999943
 21
5.000000000000047
 31
0.0
  0
LINE
  5
8B2
330
881
100
AcDbEntity
  8
0
100
AcDbLine
 10
415.0
 20
292.0
 30
0.0
 11
414.9999999999996
 21
5.0
 31
0.0
  0
LINE
  5
8B3
330
881
100
AcDbEntity
  8
0
100
AcDbLine
 10
5.000000000000015
 20
292.0
 30
0.0
 11
415.0
 21
292.0
 31
0.0
  0
LINE
  5
8B4
330
881
100
AcDbEntity
  8
AM_BOR
 62
     1
370
    25
100
AcDbLine
 10
0.0000000000000182
 20
297.0
 30
0.0
 11
420.0
 21
297.0
 31
0.0
  0
LINE
  5
8B5
330
881
100
AcDbEntity
  8
AM_BOR
 62
     1
370
    25
100
AcDbLine
 10
0.0
 20
0.0
 30
0.0
 11
0.0000000000000182
 21
297.0
 31
0.0
  0
LINE
  5
8B6
330
881
100
AcDbEntity
  8
AM_BOR
 62
     1
370
    25
100
AcDbLine
 10
125.0
 20
0.0000000000000514
 30
0.0
 11
125.0
 21
5.000000000000032
 31
0.0
  0
TEXT
  5
8B7
330
881
100
AcDbEntity
  8
0
 60
     1
100
AcDbText
 10
420.0
 20
297.0
 30
0.0
 40
2.0
  1
!GENTITLE-MAX
  7
ACDINTS
100
AcDbText
  0
TEXT
  5
8B8
330
881
100
AcDbEntity
  8
0
 60
     1
100
AcDbText
 10
410.0
 20
287.0
 30
0.0
 40
2.0
  1
!GENTITLE-RU
  7
ACDINTS
100
AcDbText
  0
TEXT
  5
8B9
330
881
100
AcDbEntity
  8
0
 60
     1
100
AcDbText
 10
409.9999999999996
 20
10.0
 30
0.0
 40
2.0
  1
!GENTITLE-INSERT
  7
ACDINTS
100
AcDbText
  0
TEXT
  5
8BA
330
881
100
AcDbEntity
  8
0
 60
     1
100
AcDbText
 10
10.0
 20
10.00000000000005
 30
0.0
 40
2.0
  1
!GENTITLE-LL
  7
ACDINTS
100
AcDbText
  0
LINE
  5
8BB
330
881
100
AcDbEntity
  8
0
100
AcDbLine
 10
5.0
 20
5.0
 30
0.0
 11
5.000000000000015
 21
292.0
 31
0.0
  0
LINE
  5
8BC
330
881
100
AcDbEntity
  8
AM_BOR
 62
     1
370
    25
100
AcDbLine
 10
419.9999999999999
 20
0.0
 30
0.0
 11
-0.0000000000000568
 21
0.0000000000000514
 31
0.0
  0
LINE
  5
8BD
330
881
100
AcDbEntity
  8
AM_BOR
 62
     2
370
    35
100
AcDbLine
 10
210.0
 20
5.000000000000023
 30
0.0
 11
210.0
 21
20.00000000000003
 31
0.0
  0
LINE
  5
8BE
330
881
100
AcDbEntity
  8
AM_BOR
 62
     2
370
    35
100
AcDbLine
 10
415.0
 20
148.5
 30
0.0
 11
400.0
 21
148.5
 31
0.0
  0
LINE
  5
8BF
330
881
100
AcDbEntity
  8
AM_BOR
 62
     2
370
    35
100
AcDbLine
 10
5.000000000000007
 20
148.5
 30
0.0
 11
20.00000000000001
 21
148.5
 31
0.0
  0
LINE
  5
8C0
330
881
100
AcDbEntity
  8
AM_BOR
 62
     2
370
    35
100
AcDbLine
 10
210.0
 20
292.0
 30
0.0
 11
210.0
 21
277.0
 31
0.0
  0
TEXT
  5
8C1
330
881
100
AcDbEntity
  8
AM_BOR
 62
     1
370
    25
100
AcDbText
 10
233.4999999999999
 20
5.499999999999943
 30
0.0
 40
4.0
  1
5
  7
ACDINTS
100
AcDbText
  0
TEXT
  5
8C2
330
881
100
AcDbEntity
  8
AM_BOR
 62
     1
370
    25
100
AcDbText
 10
283.9999999999999
 20
5.499999999999943
 30
0.0
 40
4.0
  1
6
  7
ACDINTS
100
AcDbText
  0
LINE
  5
8C3
330
881
100
AcDbEntity
  8
AM_BOR
 62
     1
370
    25
100
AcDbLine
 10
259.9999999999999
 20
9.999999999999943
 30
0.0
 11
259.9999999999999
 21
4.999999999999943
 31
0.0
  0
TEXT
  5
8C4
330
881
100
AcDbEntity
  8
AM_BOR
 62
     1
370
    25
100
AcDbText
 10
333.9999999999999
 20
5.499999999999943
 30
0.0
 40
4.0
  1
7
  7
ACDINTS
100
AcDbText
  0
LINE
  5
8C5
330
881
100
AcDbEntity
  8
AM_BOR
 62
     1
370
    25
100
AcDbLine
 10
359.9999999999999
 20
9.999999999999943
 30
0.0
 11
359.9999999999999
 21
4.999999999999943
 31
0.0
  0
LINE
  5
8C6
330
881
100
AcDbEntity
  8
AM_BOR
 62
     1
370
    25
100
AcDbLine
 10
309.9999999999999
 20
9.999999999999943
 30
0.0
 11
309.9999999999999
 21
4.999999999999943
 31
0.0
  0
TEXT
  5
8C7
330
881
100
AcDbEntity
  8
AM_BOR
 62
     1
370
    25
100
AcDbText
 10
383.9999999999999
 20
5.499999999999943
 30
0.0
 40
4.0
  1
8
  7
ACDINTS
100
AcDbText
  0
ENDBLK
  5
8C9
330
881
100
AcDbEntity
  8
0
100
AcDbBlockEnd
  0
BLOCK
  5
8EE
330
8ED
100
AcDbEntity
  8
0
100
AcDbBlockBegin
  2
sfm
 70
     0
 10
0.0
 20
0.0
 30
0.0
  3
sfm
  1

  0
ARC
  5
8EF
330
8ED
100
AcDbEntity
  8
6
100
AcDbCircle
 10
4.790170910187725
 20
3.5
 30
0.0
 40
3.5
100
AcDbArc
 50
270.0
 51
90.0
  0
ARC
  5
8F0
330
8ED
100
AcDbEntity
  8
6
100
AcDbCircle
 10
0.0
 20
3.5
 30
0.0
 40
3.5
100
AcDbArc
 50
90.0
 51
270.0
  0
MTEXT
  5
8F1
330
8ED
100
AcDbEntity
  8
UMRISS05
 62
     2
100
AcDbMText
 10
-2.394073030151957
 20
5.872859090629845
 30
0.0
 40
3.0
 41
14.07
 71
     1
 72
     5
  1
\fArial Black|b0|i0|c0|p34;SFM
 73
     1
 44
1.0
  0
LINE
  5
8F2
330
8ED
100
AcDbEntity
  8
6
100
AcDbLine
 10
0.0
 20
0.0
 30
0.0
 11
4.790170910187725
 21
0.0
 31
0.0
  0
TEXT
  5
8F3
330
8ED
100
AcDbEntity
  8
UMRISS05
 62
     2
100
AcDbText
 10
-0.9325486328996246
 20
0.8119783732929588
 30
0.0
 40
1.5
  1
geprüft
100
AcDbText
  0
LINE
  5
8F4
330
8ED
100
AcDbEntity
  8
6
100
AcDbLine
 10
0.0
 20
7.0
 30
0.0
 11
4.790170910187725
 21
7.0
 31
0.0
  0
ENDBLK
  5
8F5
330
8ED
100
AcDbEntity
  8
0
100
AcDbBlockEnd
  0
BLOCK
  5
A09
330
94B
100
AcDbEntity
  8
0
100
AcDbBlockBegin
  2
REFLEX_EDBTITLE
 70
     2
 10
0.0
 20
0.0
 30
0.0
  3
REFLEX_EDBTITLE
  1

  0
LINE
  5
94C
330
94B
100
AcDbEntity
  8
AM_BOR
 62
     2
370
    35
100
AcDbLine
 10
0.0
 20
0.0
 30
0.0
 11
-190.0000000000076
 21
0.0
 31
0.0
  0
TEXT
  5
94D
330
94B
100
AcDbEntity
  8
AM_BOR
 62
     1
370
    25
100
AcDbText
 10
-115.7901946630717
 20
76.45962598719686
 30
0.0
 40
2.2
  1
Beschreibung der Änderung
100
AcDbText
  0
LINE
  5
94E
330
94B
100
AcDbEntity
  8
AM_BOR
 62
     2
370
    35
100
AcDbLine
 10
-190.0000000000076
 20
95.66666666667151
 30
0.0
 11
0.0
 21
95.66666666667151
 31
0.0
  0
LINE
  5
94F
330
94B
100
AcDbEntity
  8
AM_BOR
 62
     2
370
    35
100
AcDbLine
 10
-190.0000000000076
 20
90.66666666667151
 30
0.0
 11
0.0
 21
90.66666666667151
 31
0.0
  0
LINE
  5
950
330
94B
100
AcDbEntity
  8
AM_BOR
 62
     2
370
    35
100
AcDbLine
 10
-190.0000000000076
 20
85.66666666667151
 30
0.0
 11
0.0
 21
85.66666666667151
 31
0.0
  0
LINE
  5
951
330
94B
100
AcDbEntity
  8
AM_BOR
100
AcDbLine
 10
-190.0000000000076
 20
80.66666666667151
 30
0.0
 11
0.0
 21
80.66666666667151
 31
0.0
  0
LINE
  5
952
330
94B
100
AcDbEntity
  8
AM_BOR
100
AcDbLine
 10
0.0
 20
0.0
 30
0.0
 11
-190.0000000000076
 21
0.0
 31
0.0
  0
LINE
  5
953
330
94B
100
AcDbEntity
  8
AM_BOR
100
AcDbLine
 10
-190.0000000000076
 20
74.00000000000297
 30
0.0
 11
0.0
 21
74.00000000000297
 31
0.0
  0
LINE
  5
954
330
94B
100
AcDbEntity
  8
AM_BOR
100
AcDbLine
 10
-148.5000000000076
 20
53.00000000000284
 30
0.0
 11
-110.5000000000077
 21
53.00000000000281
 31
0.0
  0
LINE
  5
955
330
94B
100
AcDbEntity
  8
AM_BOR
 62
     2
370
    35
100
AcDbLine
 10
-148.5000000000076
 20
48.00000000000287
 30
0.0
 11
-110.5000000000077
 21
48.00000000000281
 31
0.0
  0
LINE
  5
956
330
94B
100
AcDbEntity
  8
AM_BOR
 62
     2
370
    35
100
AcDbLine
 10
-148.5000000000076
 20
43.00000000000287
 30
0.0
 11
-110.5000000000077
 21
43.0000000000028
 31
0.0
  0
LINE
  5
957
330
94B
100
AcDbEntity
  8
AM_BOR
100
AcDbLine
 10
-148.5000000000076
 20
38.00000000000284
 30
0.0
 11
0.0
 21
38.00000000000284
 31
0.0
  0
LINE
  5
958
330
94B
100
AcDbEntity
  8
AM_BOR
100
AcDbLine
 10
-148.5000000000076
 20
58.00000000000284
 30
0.0
 11
0.0
 21
58.00000000000284
 31
0.0
  0
TEXT
  5
959
330
94B
100
AcDbEntity
  8
AM_BOR
 62
     1
370
    25
100
AcDbText
 10
-184.5453046083921
 20
53.82399366428876
 30
0.0
 40
2.5
  1
Allgemeintoleranzen
 72
     1
 11
-169.2500000000076
 21
53.82399366428876
 31
0.0
100
AcDbText
  0
LINE
  5
95A
330
94B
100
AcDbEntity
  8
AM_BOR
100
AcDbLine
 10
-190.0000000000076
 20
135.6666666666715
 30
0.0
 11
-190.0000000000076
 21
0.0
 31
0.0
  0
TEXT
  5
95B
330
94B
100
AcDbEntity
  8
AM_BOR
 62
     1
370
    25
100
AcDbText
 10
-147.0000000000076
 20
71.0
 30
0.0
 40
2.0
  1
Werkstoff:
100
AcDbText
  0
LINE
  5
95C
330
94B
100
AcDbEntity
  8
AM_BOR
100
AcDbLine
 10
-148.5000000000076
 20
0.0
 30
0.0
 11
-148.5000000000076
 21
74.00000000000297
 31
0.0
  0
TEXT
  5
95D
330
94B
100
AcDbEntity
  8
AM_BOR
 62
     1
370
    25
100
AcDbText
 10
-187.0000452657501
 20
2.857790465878093
 30
0.0
 40
2.5
  1
Alle Rechte vorbehalten.
100
AcDbText
  0
TEXT
  5
95E
330
94B
100
AcDbEntity
  8
AM_BOR
 62
     1
370
    25
100
AcDbText
 10
-182.0372162604731
 20
7.81972563291301
 30
0.0
 40
2.5
  1
1995 Reflex,Ahlen
100
AcDbText
1001
GENIUS_GENTRA_14
1002
{
1070
     1
1000
/
1000
1995 Reflex,Ahlen
1000
DEU
1070
     0
1040
1.0
1070
     0
1002
}
  0
LINE
  5
95F
330
94B
100
AcDbEntity
  8
AM_BOR
100
AcDbLine
 10
-190.0000000000076
 20
14.00000000000297
 30
0.0
 11
-148.5000000000076
 21
14.00000000000297
 31
0.0
  0
LINE
  5
960
330
94B
100
AcDbEntity
  8
AM_BOR
100
AcDbLine
 10
-190.0000000000076
 20
25.00000000000297
 30
0.0
 11
-148.5000000000076
 21
25.00000000000297
 31
0.0
  0
LINE
  5
961
330
94B
100
AcDbEntity
  8
AM_BOR
100
AcDbLine
 10
-190.0000000000076
 20
36.00000000000297
 30
0.0
 11
-148.5000000000076
 21
36.00000000000297
 31
0.0
  0
LINE
  5
962
330
94B
100
AcDbEntity
  8
AM_BOR
100
AcDbLine
 10
-190.0000000000076
 20
47.00000000000296
 30
0.0
 11
-148.5000000000076
 21
47.00000000000296
 31
0.0
  0
LINE
  5
963
330
94B
100
AcDbEntity
  8
AM_BOR
100
AcDbLine
 10
-190.0000000000076
 20
58.00000000000297
 30
0.0
 11
-148.5000000000076
 21
58.00000000000297
 31
0.0
  0
TEXT
  5
964
330
94B
100
AcDbEntity
  8
AM_BOR
 62
     1
370
    25
100
AcDbText
 10
-188.5453046083921
 20
42.66491288036503
 30
0.0
 40
2.5
  1
Form-und Lagetoleranzen
 72
     1
 11
-169.2500000000076
 21
42.66491288036503
 31
0.0
100
AcDbText
  0
TEXT
  5
965
330
94B
100
AcDbEntity
  8
AM_BOR
 62
     1
370
    25
100
AcDbText
 10
-184.4203046083922
 20
31.50583411760111
 30
0.0
 40
2.5
  1
Oberflächenangaben
 72
     1
 11
-169.2500000000076
 21
31.50583411760111
 31
0.0
100
AcDbText
  0
TEXT
  5
966
330
94B
100
AcDbEntity
  8
AM_BOR
 62
     1
370
    25
100
AcDbText
 10
-182.4234296083921
 20
20.64555149180674
 30
0.0
 40
2.5
  1
Werkstückkanten
 72
     1
 11
-169.2500000000076
 21
20.64555149180674
 31
0.0
100
AcDbText
  0
CIRCLE
  5
967
330
94B
100
AcDbEntity
  8
AM_BOR
 62
     1
370
    25
100
AcDbCircle
 10
-185.5283738569115
 20
9.105009442083563
 30
0.0
 40
1.682013222792722
  0
TEXT
  5
968
330
94B
100
AcDbEntity
  8
AM_BOR
 62
     1
370
    25
100
AcDbText
 10
-186.4808982796636
 20
7.852145036007375
 30
0.0
 40
2.5
  1
C
100
AcDbText
  0
LINE
  5
969
330
94B
100
AcDbEntity
  8
AM_BOR
100
AcDbLine
 10
-134.7819501338923
 20
0.0
 30
0.0
 11
-134.7819501338922
 21
58.00000000000284
 31
0.0
  0
TEXT
  5
96A
330
94B
100
AcDbEntity
  8
AM_BOR
 62
     1
370
    25
100
AcDbText
 10
-147.0000000000076
 20
16.0
 30
0.0
 40
2.0
  1
Format
 41
1.234567901234567
 72
     5
 11
-137.0000000000076
 21
16.0
 31
0.0
100
AcDbText
  0
LINE
  5
96B
330
94B
100
AcDbEntity
  8
AM_BOR
100
AcDbLine
 10
-134.7819501338922
 20
19.0
 30
0.0
 11
-148.5000000000076
 21
19.0
 31
0.0
  0
TEXT
  5
96C
330
94B
100
AcDbEntity
  8
AM_BOR
 62
     1
370
    25
100
AcDbText
 10
-147.0000000000076
 20
34.81005903951976
 30
0.0
 40
2.0
  1
Maßstab
 41
1.002256342277585
 72
     5
 11
-137.0000000000076
 21
34.81005903951976
 31
0.0
100
AcDbText
  0
TEXT
  5
96D
330
94B
100
AcDbEntity
  8
AM_BOR
 62
     1
370
    25
100
AcDbText
 10
-147.0000000000076
 20
39.0
 30
0.0
 40
2.0
  1
Normg.
 41
1.298701298701298
 72
     5
 11
-137.0000000000076
 21
39.0
 31
0.0
100
AcDbText
  0
TEXT
  5
96E
330
94B
100
AcDbEntity
  8
AM_BOR
 62
     1
370
    25
100
AcDbText
 10
-147.0000000000076
 20
44.0
 30
0.0
 40
2.0
  1
gepr.
 41
1.75438596491228
 72
     5
 11
-137.0000000000076
 21
44.0
 31
0.0
100
AcDbText
  0
TEXT
  5
96F
330
94B
100
AcDbEntity
  8
AM_BOR
 62
     1
370
    25
100
AcDbText
 10
-147.0000000000076
 20
49.0
 30
0.0
 40
2.0
  1
Bearb.
 41
1.369863013698629
 72
     5
 11
-137.0000000000076
 21
49.0
 31
0.0
100
AcDbText
  0
TEXT
  5
970
330
94B
100
AcDbEntity
  8
AM_BOR
 62
     1
370
    25
100
AcDbText
 10
-178.3250738189052
 20
26.50908286748418
 30
0.0
 40
2.5
  1
DIN ISO 1302
 72
     1
 11
-169.2500000000076
 21
26.50908286748418
 31
0.0
100
AcDbText
  0
TEXT
  5
971
330
94B
100
AcDbEntity
  8
AM_BOR
 62
     1
370
    25
100
AcDbText
 10
-175.7500000000076
 20
15.81434939808754
 30
0.0
 40
2.5
  1
DIN 6784
 72
     1
 11
-169.2500000000076
 21
15.81434939808754
 31
0.0
100
AcDbText
  0
TEXT
  5
972
330
94B
100
AcDbEntity
  8
AM_BOR
 62
     1
370
    25
100
AcDbText
 10
-177.7500000000076
 20
37.66816163024811
 30
0.0
 40
2.5
  1
DIN ISO 1101
 72
     1
 11
-169.2500000000076
 21
37.66816163024811
 31
0.0
100
AcDbText
  0
LINE
  5
973
330
94B
100
AcDbEntity
  8
AM_BOR
100
AcDbLine
 10
-123.5000000000076
 20
38.00000000000284
 30
0.0
 11
-123.5000000000076
 21
58.00000000000284
 31
0.0
  0
TEXT
  5
974
330
94B
100
AcDbEntity
  8
AM_BOR
 62
     1
370
    25
100
AcDbText
 10
-134.0000000000076
 20
54.0
 30
0.0
 40
2.0
  1
Tag
 41
1.677656365025809
 72
     5
 11
-127.0000000000076
 21
54.0
 31
0.0
100
AcDbText
  0
TEXT
  5
975
330
94B
100
AcDbEntity
  8
AM_BOR
 62
     1
370
    25
100
AcDbText
 10
-123.0000000000076
 20
54.0
 30
0.0
 40
2.0
  1
Name
 41
1.694915254237287
 72
     5
 11
-113.0000000000076
 21
54.0
 31
0.0
100
AcDbText
  0
LINE
  5
976
330
94B
100
AcDbEntity
  8
AM_BOR
100
AcDbLine
 10
-182.8025158264765
 20
135.6666666666715
 30
0.0
 11
-182.8025158264765
 21
74.00000000000297
 31
0.0
  0
TEXT
  5
977
330
94B
100
AcDbEntity
  8
AM_BOR
 62
     1
370
    25
100
AcDbText
 10
-189.1672017515284
 20
76.45962598719686
 30
0.0
 40
2.2
  1
Index
100
AcDbText
  0
TEXT
  5
978
330
94B
100
AcDbEntity
  8
AM_BOR
 62
     1
370
    25
100
AcDbText
 10
-45.0000000000075
 20
71.00000000000001
 30
0.0
 40
2.0
  1
Oberflächenbehandlung:
100
AcDbText
  0
TEXT
  5
979
330
94B
100
AcDbEntity
  8
AM_BOR
 62
     1
370
    25
100
AcDbText
 10
-92.0000000000075
 20
71.00000000000001
 30
0.0
 40
2.0
  1
Nachbehandlung:
100
AcDbText
  0
LINE
  5
97A
330
94B
100
AcDbEntity
  8
AM_BOR
 62
     2
370
    35
100
AcDbLine
 10
-46.5000000000075
 20
74.00000000000297
 30
0.0
 11
-46.50000000000761
 21
58.00000000000284
 31
0.0
  0
LINE
  5
97B
330
94B
100
AcDbEntity
  8
AM_BOR
100
AcDbLine
 10
-93.50000000000759
 20
38.00000000000284
 30
0.0
 11
-93.50000000000774
 21
74.00000000000297
 31
0.0
  0
LINE
  5
97C
330
94B
100
AcDbEntity
  8
AM_BOR
 62
     2
370
    35
100
AcDbLine
 10
-65.50000000000773
 20
7.000000000000029
 30
0.0
 11
-26.50000000000762
 21
7.000000000000029
 31
0.0
  0
LINE
  5
97D
330
94B
100
AcDbEntity
  8
AM_BOR
 62
     2
370
    35
100
AcDbLine
 10
-65.50000000000773
 20
31.00000000000282
 30
0.0
 11
-26.50000000000762
 21
31.00000000000282
 31
0.0
  0
LINE
  5
97E
330
94B
100
AcDbEntity
  8
AM_BOR
100
AcDbLine
 10
-65.50000000000761
 20
0.0
 30
0.0
 11
-65.50000000000773
 21
58.00000000000281
 31
0.0
  0
TEXT
  5
97F
330
94B
100
AcDbEntity
  8
AM_BOR
 62
     1
370
    25
100
AcDbText
 10
-64.00000000000762
 20
4.0
 30
0.0
 40
2.0
  1
Ersetzt durch:
100
AcDbText
  0
TEXT
  5
980
330
94B
100
AcDbEntity
  8
AM_BOR
 62
     1
370
    25
100
AcDbText
 10
-87.00000000000761
 20
42.0
 30
0.0
 40
2.0
  1
geprüft
100
AcDbText
  0
TEXT
  5
981
330
94B
100
AcDbEntity
  8
AM_BOR
 62
     1
370
    25
100
AcDbText
 10
-92.00000000000761
 20
48.0
 30
0.0
 40
2.0
  1
werden besonders
100
AcDbText
  0
LINE
  5
982
330
94B
100
AcDbEntity
  8
AM_BOR
 62
     1
370
    25
100
AcDbLine
 10
-82.00000000000761
 20
54.0
 30
0.0
 11
-76.00000000000761
 21
54.0
 31
0.0
  0
LINE
  5
983
330
94B
100
AcDbEntity
  8
AM_BOR
 62
     1
370
    25
100
AcDbLine
 10
-82.00000000000761
 20
56.0
 30
0.0
 11
-76.00000000000761
 21
56.0
 31
0.0
  0
LINE
  5
984
330
94B
100
AcDbEntity
  8
AM_BOR
100
AcDbLine
 10
-110.5000000000076
 20
38.00000000000284
 30
0.0
 11
-110.5000000000077
 21
58.00000000000284
 31
0.0
  0
TEXT
  5
985
330
94B
100
AcDbEntity
  8
AM_BOR
 62
     1
370
    25
100
AcDbText
 10
-109.0000000000076
 20
54.0
 30
0.0
 40
2.0
  1
Gesehen:
 41
1.26152353226589
 72
     5
 11
-96.00000000000761
 21
54.0
 31
0.0
100
AcDbText
  0
TEXT
  5
986
330
94B
100
AcDbEntity
  8
AM_BOR
 62
     1
370
    25
100
AcDbText
 10
-92.00000000000761
 20
54.0
 30
0.0
 40
2.0
  1
Diese
 41
1.146601146601143
 72
     5
 11
-85.00000000000762
 21
54.0
 31
0.0
100
AcDbText
  0
ARC
  5
987
330
94B
100
AcDbEntity
  8
AM_BOR
 62
     1
370
    25
100
AcDbCircle
 10
-82.00000000000761
 20
55.0
 30
0.0
 40
1.0
100
AcDbArc
 50
90.00000000000003
 51
270.0000000000001
  0
TEXT
  5
988
330
94B
100
AcDbEntity
  8
AM_BOR
 62
     1
370
    25
100
AcDbText
 10
-64.00000000000762
 20
35.0
 30
0.0
 40
2.0
  1
Ersatz für:
100
AcDbText
  0
TEXT
  5
989
330
94B
100
AcDbEntity
  8
AM_BOR
 62
     1
370
    25
100
AcDbText
 10
-74.00000000000762
 20
54.0
 30
0.0
 40
2.0
  1
Maße
100
AcDbText
  0
ARC
  5
98A
330
94B
100
AcDbEntity
  8
AM_BOR
 62
     1
370
    25
100
AcDbCircle
 10
-76.00000000000761
 20
55.0
 30
0.0
 40
1.0
100
AcDbArc
 50
270.0
 51
90.0
  0
LINE
  5
98B
330
94B
100
AcDbEntity
  8
AM_BOR
 62
     2
370
    35
100
AcDbLine
 10
-10.00000000000011
 20
0.0
 30
0.0
 11
-10.00000000000011
 21
38.00000000000284
 31
0.0
  0
LINE
  5
98C
330
94B
100
AcDbEntity
  8
AM_BOR
 62
     2
370
    35
100
AcDbLine
 10
-15.04433005655051
 20
38.00000000000284
 30
0.0
 11
-15.04433005655051
 21
0.0
 31
0.0
  0
LINE
  5
98D
330
94B
100
AcDbEntity
  8
AM_BOR
 62
     2
370
    35
100
AcDbLine
 10
-26.50000000000762
 20
7.000000000000029
 30
0.0
 11
-26.50000000000762
 21
0.0
 31
0.0
  0
LINE
  5
98E
330
94B
100
AcDbEntity
  8
AM_BOR
 62
     2
370
    35
100
AcDbLine
 10
-15.04433005655051
 20
34.54545000000285
 30
0.0
 11
0.0
 21
34.54545000000285
 31
0.0
  0
LINE
  5
98F
330
94B
100
AcDbEntity
  8
AM_BOR
 62
     2
370
    35
100
AcDbLine
 10
-26.50000000000762
 20
31.00000000000282
 30
0.0
 11
-26.50000000000762
 21
38.00000000000284
 31
0.0
  0
LINE
  5
990
330
94B
100
AcDbEntity
  8
AM_BOR
 62
     2
370
    35
100
AcDbLine
 10
-10.00000000000011
 20
34.20000000000283
 30
0.0
 11
-10.00000000000011
 21
38.00000000000284
 31
0.0
  0
TEXT
  5
991
330
94B
100
AcDbEntity
  8
AM_BOR
 62
     1
370
    25
100
AcDbText
 10
-10.22624575893451
 20
76.45962598719686
 30
0.0
 40
2.2
  1
Name
100
AcDbText
  0
LINE
  5
992
330
94B
100
AcDbEntity
  8
AM_BOR
100
AcDbLine
 10
-29.34186369022667
 20
135.6666666666715
 30
0.0
 11
-29.34186369022689
 21
74.00000000000298
 31
0.0
  0
LINE
  5
993
330
94B
100
AcDbEntity
  8
AM_BOR
100
AcDbLine
 10
-15.46099918964126
 20
135.6666666666715
 30
0.0
 11
-15.46099918964148
 21
74.00000000000298
 31
0.0
  0
TEXT
  5
994
330
94B
100
AcDbEntity
  8
AM_BOR
 62
     1
370
    25
100
AcDbText
 10
-26.39399351883265
 20
76.45962598719686
 30
0.0
 40
2.2
  1
Datum
100
AcDbText
  0
LINE
  5
995
330
94B
100
AcDbEntity
  8
AM_BOR
 62
     2
370
    35
100
AcDbLine
 10
-190.0000000000076
 20
100.6666666666715
 30
0.0
 11
0.0
 21
100.6666666666715
 31
0.0
  0
TEXT
  5
996
330
94B
100
AcDbEntity
  8
AM_BOR
 62
     2
370
    35
100
AcDbText
 10
-50.90840094456416
 20
39.49079626827336
 30
0.0
 40
3.0
  1
59227 Ahlen(Westf.)
 72
     1
 11
-32.75000000000386
 21
39.49079626827336
 31
0.0
100
AcDbText
  0
TEXT
  5
997
330
94B
100
AcDbEntity
  8
AM_BOR
 62
     2
370
    35
100
AcDbText
 10
-62.15750000000387
 20
44.15746293494001
 30
0.0
 40
3.0
  1
Reflex Winkelmann GmbH + Co.KG
 72
     1
 11
-32.75000000000386
 21
44.15746293494001
 31
0.0
100
AcDbText
  0
LINE
  5
998
330
94B
100
AcDbEntity
  8
AM_BOR
100
AcDbLine
 10
0.0
 20
135.6666666666715
 30
0.0
 11
0.0
 21
0.0
 31
0.0
  0
TEXT
  5
999
330
94B
100
AcDbEntity
  8
AM_BOR
 62
     1
370
    25
100
AcDbText
 10
-188.5000000000076
 20
71.0
 30
0.0
 40
2.0
  1
Sachnummer:
100
AcDbText
  0
ATTDEF
  5
99A
330
94B
100
AcDbEntity
  8
AM_BOR
100
AcDbText
 10
-169.2500000000076
 20
63.66666000000002
 30
0.0
 40
4.5
  1

 72
     1
 11
-169.2500000000076
 21
63.66666000000002
 31
0.0
100
AcDbAttributeDefinition
  3
Sachnummer
  2
R_SACH
 70
     0
  0
ATTDEF
  5
99B
330
94B
100
AcDbEntity
  8
AM_BOR
100
AcDbText
 10
-100.14097506695
 20
24.72359202704005
 30
0.0
 40
4.5
  1

 72
     1
 11
-100.14097506695
 21
24.72359202704005
 31
0.0
100
AcDbAttributeDefinition
  3
Benennung1
  2
R_BENENN1
 70
     0
  0
ATTDEF
  5
99C
330
94B
100
AcDbEntity
  8
AM_BOR
100
AcDbText
 10
-100.14097506695
 20
16.72359202704005
 30
0.0
 40
4.5
  1

 72
     1
 11
-100.14097506695
 21
16.72359202704005
 31
0.0
100
AcDbAttributeDefinition
  3
Benennung2
  2
R_BENENN2
 70
     0
  0
ATTDEF
  5
99D
330
94B
100
AcDbEntity
  8
AM_BOR
100
AcDbText
 10
-100.14097506695
 20
8.723592027040048
 30
0.0
 40
4.5
  1

 72
     1
 11
-100.14097506695
 21
8.723592027040048
 31
0.0
100
AcDbAttributeDefinition
  3
Benennung3
  2
R_BENENN3
 70
     0
  0
ATTDEF
  5
99E
330
94B
100
AcDbEntity
  8
AM_BOR
 62
     1
370
    25
100
AcDbText
 10
-134.2819501338922
 20
49.50000000000287
 30
0.0
 40
2.0
  1

 41
0.6099885807078702
 72
     5
 11
-123.8511454037876
 21
49.50000000000287
 31
0.0
100
AcDbAttributeDefinition
  3
Bearbeitet Datum
  2
R_BEAR_DAT
 70
     0
  0
ATTDEF
  5
99F
330
94B
100
AcDbEntity
  8
AM_BOR
 62
     1
370
    25
100
AcDbText
 10
-123.0000000000076
 20
49.50000000000282
 30
0.0
 40
2.0
  1

100
AcDbAttributeDefinition
  3
Bearbeitet Name
  2
R_BEAR_NAM
 70
     0
  0
ATTDEF
  5
9A0
330
94B
100
AcDbEntity
  8
AM_BOR
100
AcDbText
 10
-147.0000000000076
 20
28.66665999999984
 30
0.0
 40
4.5
  1

100
AcDbAttributeDefinition
  3
Maßstab
  2
GEN-TITLE-SCA{5.42}
 70
     0
1001
GENIUS_GENTRA_14
1002
{
1070
     3
1000
GENTRAPR,%s,(GENMSG gendwg 83)
1000
Maßstab
1000
DEU
1070
     0
1070
     0
1002
}
  0
ATTDEF
  5
9A1
330
94B
100
AcDbEntity
  8
AM_BOR
 62
     2
370
    35
100
AcDbText
 10
-147.0000000000076
 20
23.33332999999985
 30
0.0
 40
3.0
  1

100
AcDbAttributeDefinition
  3
Maßstab2
  2
R_MASSTAB2
 70
     0
  0
ATTDEF
  5
9A2
330
94B
100
AcDbEntity
  8
AM_BOR
 62
     1
370
    25
100
AcDbText
 10
-64.00000000000762
 20
32.00000000000282
 30
0.0
 40
2.0
  1

100
AcDbAttributeDefinition
  3
Ersatz für
  2
R_ERSA_FUR
 70
     0
  0
ATTDEF
  5
9A3
330
94B
100
AcDbEntity
  8
AM_BOR
 62
     1
370
    25
100
AcDbText
 10
-64.00000000000756
 20
0.9999999999999795
 30
0.0
 40
2.0
  1

100
AcDbAttributeDefinition
  3
Ersetzt durch
  2
R_ERSE_DUR
 70
     0
  0
ATTDEF
  5
9A4
330
94B
100
AcDbEntity
  8
AM_BOR
 62
     2
370
    35
100
AcDbText
 10
-147.0000000000076
 20
65.66666000000002
 30
0.0
 40
3.0
  1

100
AcDbAttributeDefinition
  3
Werkstoff1
  2
R_WERK1
 70
     0
  0
ATTDEF
  5
9A5
330
94B
100
AcDbEntity
  8
AM_BOR
 62
     2
370
    35
100
AcDbText
 10
-147.0000000000076
 20
60.33332999999997
 30
0.0
 40
3.0
  1

100
AcDbAttributeDefinition
  3
Werkstoff2
  2
R_WERK2
 70
     0
  0
ATTDEF
  5
9A6
330
94B
100
AcDbEntity
  8
AM_BOR
 62
     2
370
    35
100
AcDbText
 10
-92.00000000000768
 20
65.66666000000002
 30
0.0
 40
3.0
  1

100
AcDbAttributeDefinition
  3
Nachbehandlung1
  2
R_NACHBE1
 70
     0
  0
ATTDEF
  5
9A7
330
94B
100
AcDbEntity
  8
AM_BOR
 62
     2
370
    35
100
AcDbText
 10
-92.00000000000768
 20
60.33332999999997
 30
0.0
 40
3.0
  1

100
AcDbAttributeDefinition
  3
Nachbehandlung2
  2
R_NACHBE2
 70
     0
  0
ATTDEF
  5
9A8
330
94B
100
AcDbEntity
  8
AM_BOR
 62
     2
370
    35
100
AcDbText
 10
-45.00000000000762
 20
65.66666000000002
 30
0.0
 40
3.0
  1

100
AcDbAttributeDefinition
  3
Oberflächenbehandlung1
  2
R_OBERFL1
 70
     0
  0
ATTDEF
  5
9A9
330
94B
100
AcDbEntity
  8
AM_BOR
 62
     2
370
    35
100
AcDbText
 10
-45.00000000000762
 20
60.33332999999997
 30
0.0
 40
3.0
  1

100
AcDbAttributeDefinition
  3
Oberflächenbehandlung2
  2
R_OBERFL2
 70
     0
  0
ATTDEF
  5
9AA
330
94B
100
AcDbEntity
  8
AM_BOR
100
AcDbText
 10
-147.0000000000076
 20
7.666659999996999
 30
0.0
 40
4.5
  1

100
AcDbAttributeDefinition
  3
Blattformat
  2
BLATTFORMAT
 70
     0
  0
ATTDEF
  5
9AB
330
94B
100
AcDbEntity
  8
AM_BOR
 62
     1
370
    25
100
AcDbText
 10
-186.4012579132421
 20
82.16666666667149
 30
0.0
 40
2.0
  1

 72
     1
 11
-186.4012579132421
 21
82.16666666667149
 31
0.0
100
AcDbAttributeDefinition
  3
Änderungsindex 1
  2
R_AEIND1
 70
     0
  0
ATTDEF
  5
9AC
330
94B
100
AcDbEntity
  8
AM_BOR
 62
     1
370
    25
100
AcDbText
 10
-12.3315588552569
 20
35.34215080509318
 30
0.0
 40
2.0
  1

 72
     1
 11
-12.3315588552569
 21
35.34215080509318
 31
0.0
100
AcDbAttributeDefinition
  3
Änderungsindex 1
  2
R_AEIND1
 70
     0
  0
ATTDEF
  5
9AD
330
94B
100
AcDbEntity
  8
AM_BOR
 62
     1
370
    25
100
AcDbText
 10
-8.809393826981704
 20
35.34215080509318
 30
0.0
 40
2.0
  1

100
AcDbAttributeDefinition
  3
Änderungsnummer 1
  2
R_AENR1
 70
     0
  0
ATTDEF
  5
9AE
330
94B
100
AcDbEntity
  8
AM_BOR
 62
     1
370
    25
100
AcDbText
 10
-181.3025158264765
 20
82.16666666667149
 30
0.0
 40
2.0
  1

100
AcDbAttributeDefinition
  3
Änderungsbeschreibung 1
  2
R_AETEXT1
 70
     0
  0
ATTDEF
  5
9AF
330
94B
100
AcDbEntity
  8
AM_BOR
 62
     1
370
    25
100
AcDbText
 10
-27.84186369022683
 20
82.16666666667149
 30
0.0
 40
2.0
  1

100
AcDbAttributeDefinition
  3
Änderungsdatum 1
  2
R_AEDAT1
 70
     0
  0
ATTDEF
  5
9B0
330
94B
100
AcDbEntity
  8
AM_BOR
 62
     1
370
    25
100
AcDbText
 10
-13.96099918964142
 20
82.16666666667149
 30
0.0
 40
2.0
  1

100
AcDbAttributeDefinition
  3
Änderungsname 1
  2
R_AENAM1
 70
     0
  0
ATTDEF
  5
9B1
330
94B
100
AcDbEntity
  8
AM_BOR
 62
     1
370
    25
100
AcDbText
 10
-181.8252586544574
 20
48.99279157056955
 30
0.0
 40
2.5
  1

100
AcDbAttributeDefinition
  3
Allgemeintoleranzen
  2
R_TOLALL
 70
     0
  0
ATTDEF
  5
9B2
330
94B
100
AcDbEntity
  8
AM_BOR
100
AcDbText
 10
-53.24838027179692
 20
9.657306607706779
 30
0.0
 40
3.5
  1

100
AcDbAttributeDefinition
  3
Projekt
  2
R_PROJEKT
 70
     0
  0
ATTDEF
  5
9B3
330
94B
100
AcDbEntity
  8
AM_BOR
100
AcDbText
 10
-62.56400243277346
 20
19.16161098446256
 30
0.0
 40
6.0
  1

100
AcDbAttributeDefinition
  3
Projekt
  2
R_ZEICHNR
 70
     0
  0
LINE
  5
9B4
330
94B
100
AcDbEntity
  8
AM_BOR
 62
     2
370
    35
100
AcDbLine
 10
-190.0000000000076
 20
105.6666666666715
 30
0.0
 11
0.0
 21
105.6666666666715
 31
0.0
  0
LINE
  5
9B5
330
94B
100
AcDbEntity
  8
AM_BOR
 62
     2
370
    35
100
AcDbLine
 10
-190.0000000000076
 20
110.6666666666715
 30
0.0
 11
0.0
 21
110.6666666666715
 31
0.0
  0
LINE
  5
9B6
330
94B
100
AcDbEntity
  8
AM_BOR
 62
     2
370
    35
100
AcDbLine
 10
-190.0000000000076
 20
115.6666666666715
 30
0.0
 11
0.0
 21
115.6666666666715
 31
0.0
  0
LINE
  5
9B7
330
94B
100
AcDbEntity
  8
AM_BOR
 62
     2
370
    35
100
AcDbLine
 10
-190.0000000000076
 20
120.6666666666715
 30
0.0
 11
0.0
 21
120.6666666666715
 31
0.0
1001
GENIUS_VERSION1
1070
     1
  0
LINE
  5
9B8
330
94B
100
AcDbEntity
  8
AM_BOR
 62
     2
370
    35
100
AcDbLine
 10
-190.0000000000076
 20
115.6666666666715
 30
0.0
 11
0.0
 21
115.6666666666715
 31
0.0
  0
LINE
  5
9B9
330
94B
100
AcDbEntity
  8
AM_BOR
 62
     2
370
    35
100
AcDbLine
 10
-190.0000000000076
 20
120.6666666666715
 30
0.0
 11
0.0
 21
120.6666666666715
 31
0.0
  0
LINE
  5
9BA
330
94B
100
AcDbEntity
  8
AM_BOR
 62
     2
370
    35
100
AcDbLine
 10
-190.0000000000076
 20
125.6666666666715
 30
0.0
 11
0.0
 21
125.6666666666715
 31
0.0
1001
GENIUS_VERSION1
1070
     1
  0
LINE
  5
9BB
330
94B
100
AcDbEntity
  8
AM_BOR
100
AcDbLine
 10
-190.0000000000076
 20
135.6666666666715
 30
0.0
 11
0.0
 21
135.6666666666715
 31
0.0
1001
GENIUS_VERSION1
1070
     1
  0
LINE
  5
9BC
330
94B
100
AcDbEntity
  8
AM_BOR
 62
     2
370
    35
100
AcDbLine
 10
-190.0000000000076
 20
130.6666666666715
 30
0.0
 11
0.0
 21
130.6666666666715
 31
0.0
1001
GENIUS_VERSION1
1070
     1
  0
LINE
  5
9BD
330
94B
100
AcDbEntity
  8
AM_BOR
 62
     2
370
    35
100
AcDbLine
 10
-15.04433005655051
 20
31.09090000000285
 30
0.0
 11
0.0
 21
31.09090000000285
 31
0.0
  0
LINE
  5
9BE
330
94B
100
AcDbEntity
  8
AM_BOR
 62
     2
370
    35
100
AcDbLine
 10
-15.04433005655051
 20
27.63635000000285
 30
0.0
 11
0.0
 21
27.63635000000285
 31
0.0
  0
LINE
  5
9BF
330
94B
100
AcDbEntity
  8
AM_BOR
 62
     2
370
    35
100
AcDbLine
 10
-15.04433005655051
 20
24.18180000000285
 30
0.0
 11
0.0
 21
24.18180000000285
 31
0.0
  0
LINE
  5
9C0
330
94B
100
AcDbEntity
  8
AM_BOR
 62
     2
370
    35
100
AcDbLine
 10
-15.04433005655051
 20
20.72725000000286
 30
0.0
 11
0.0
 21
20.72725000000286
 31
0.0
  0
LINE
  5
9C1
330
94B
100
AcDbEntity
  8
AM_BOR
 62
     2
370
    35
100
AcDbLine
 10
-15.04433005655051
 20
17.27270000000285
 30
0.0
 11
0.0
 21
17.27270000000285
 31
0.0
  0
LINE
  5
9C2
330
94B
100
AcDbEntity
  8
AM_BOR
 62
     2
370
    35
100
AcDbLine
 10
-15.04433005655051
 20
13.81815000000285
 30
0.0
 11
0.0
 21
13.81815000000285
 31
0.0
  0
LINE
  5
9C3
330
94B
100
AcDbEntity
  8
AM_BOR
 62
     2
370
    35
100
AcDbLine
 10
-15.04433005655051
 20
10.36360000000286
 30
0.0
 11
0.0
 21
10.36360000000286
 31
0.0
  0
LINE
  5
9C4
330
94B
100
AcDbEntity
  8
AM_BOR
 62
     2
370
    35
100
AcDbLine
 10
-15.04433005655051
 20
6.909050000002857
 30
0.0
 11
0.0
 21
6.909050000002857
 31
0.0
  0
LINE
  5
9C5
330
94B
100
AcDbEntity
  8
AM_BOR
 62
     2
370
    35
100
AcDbLine
 10
-15.04433005655051
 20
3.454500000002862
 30
0.0
 11
0.0
 21
3.454500000002862
 31
0.0
1001
GENIUS_VERSION1
1070
     1
  0
ATTDEF
  5
9C6
330
94B
100
AcDbEntity
  8
AM_BOR
 62
     1
370
    25
100
AcDbText
 10
-12.3315588552569
 20
31.88760080509319
 30
0.0
 40
2.0
  1

 72
     1
 11
-12.3315588552569
 21
31.88760080509319
 31
0.0
100
AcDbAttributeDefinition
  3
Änderungsindex 2
  2
R_AEIND2
 70
     0
  0
ATTDEF
  5
9C7
330
94B
100
AcDbEntity
  8
AM_BOR
 62
     1
370
    25
100
AcDbText
 10
-8.809393826981704
 20
31.88760080509319
 30
0.0
 40
2.0
  1

100
AcDbAttributeDefinition
  3
Änderungsnummer 2
  2
R_AENR2
 70
     0
  0
ATTDEF
  5
9C8
330
94B
100
AcDbEntity
  8
AM_BOR
 62
     1
370
    25
100
AcDbText
 10
-12.3315588552569
 20
28.43305080509319
 30
0.0
 40
2.0
  1

 72
     1
 11
-12.3315588552569
 21
28.43305080509319
 31
0.0
100
AcDbAttributeDefinition
  3
Änderungsindex 3
  2
R_AEIND3
 70
     0
  0
ATTDEF
  5
9C9
330
94B
100
AcDbEntity
  8
AM_BOR
 62
     1
370
    25
100
AcDbText
 10
-8.809393826981704
 20
28.43305080509319
 30
0.0
 40
2.0
  1

100
AcDbAttributeDefinition
  3
Änderungsnummer 3
  2
R_AENR3
 70
     0
  0
ATTDEF
  5
9CA
330
94B
100
AcDbEntity
  8
AM_BOR
 62
     1
370
    25
100
AcDbText
 10
-12.3315588552569
 20
24.97850080509319
 30
0.0
 40
2.0
  1

 72
     1
 11
-12.3315588552569
 21
24.97850080509319
 31
0.0
100
AcDbAttributeDefinition
  3
Änderungsindex 4
  2
R_AEIND4
 70
     0
  0
ATTDEF
  5
9CB
330
94B
100
AcDbEntity
  8
AM_BOR
 62
     1
370
    25
100
AcDbText
 10
-8.809393826981704
 20
24.97850080509319
 30
0.0
 40
2.0
  1

100
AcDbAttributeDefinition
  3
Änderungsnummer 4
  2
R_AENR4
 70
     0
  0
ATTDEF
  5
9CC
330
94B
100
AcDbEntity
  8
AM_BOR
 62
     1
370
    25
100
AcDbText
 10
-12.3315588552569
 20
21.5239508050932
 30
0.0
 40
2.0
  1

 72
     1
 11
-12.3315588552569
 21
21.5239508050932
 31
0.0
100
AcDbAttributeDefinition
  3
Änderungsindex 5
  2
R_AEIND5
 70
     0
  0
ATTDEF
  5
9CD
330
94B
100
AcDbEntity
  8
AM_BOR
 62
     1
370
    25
100
AcDbText
 10
-8.809393826981704
 20
21.5239508050932
 30
0.0
 40
2.0
  1

100
AcDbAttributeDefinition
  3
Änderungsnummer 5
  2
R_AENR5
 70
     0
  0
ATTDEF
  5
9CE
330
94B
100
AcDbEntity
  8
AM_BOR
 62
     1
370
    25
100
AcDbText
 10
-12.3315588552569
 20
18.06940080509319
 30
0.0
 40
2.0
  1

 72
     1
 11
-12.3315588552569
 21
18.06940080509319
 31
0.0
100
AcDbAttributeDefinition
  3
Änderungsindex 6
  2
R_AEIND6
 70
     0
  0
ATTDEF
  5
9CF
330
94B
100
AcDbEntity
  8
AM_BOR
 62
     1
370
    25
100
AcDbText
 10
-8.809393826981704
 20
18.06940080509319
 30
0.0
 40
2.0
  1

100
AcDbAttributeDefinition
  3
Änderungsnummer 6
  2
R_AENR6
 70
     0
  0
ATTDEF
  5
9D0
330
94B
100
AcDbEntity
  8
AM_BOR
 62
     1
370
    25
100
AcDbText
 10
-12.3315588552569
 20
14.61485080509319
 30
0.0
 40
2.0
  1

 72
     1
 11
-12.3315588552569
 21
14.61485080509319
 31
0.0
100
AcDbAttributeDefinition
  3
Änderungsindex 7
  2
R_AEIND7
 70
     0
  0
ATTDEF
  5
9D1
330
94B
100
AcDbEntity
  8
AM_BOR
 62
     1
370
    25
100
AcDbText
 10
-8.809393826981704
 20
14.61485080509319
 30
0.0
 40
2.0
  1

100
AcDbAttributeDefinition
  3
Änderungsnummer 7
  2
R_AENR7
 70
     0
  0
ATTDEF
  5
9D2
330
94B
100
AcDbEntity
  8
AM_BOR
 62
     1
370
    25
100
AcDbText
 10
-12.3315588552569
 20
11.16030080509319
 30
0.0
 40
2.0
  1

 72
     1
 11
-12.3315588552569
 21
11.16030080509319
 31
0.0
100
AcDbAttributeDefinition
  3
Änderungsindex 8
  2
R_AEIND8
 70
     0
  0
ATTDEF
  5
9D3
330
94B
100
AcDbEntity
  8
AM_BOR
 62
     1
370
    25
100
AcDbText
 10
-8.809393826981704
 20
11.16030080509319
 30
0.0
 40
2.0
  1

100
AcDbAttributeDefinition
  3
Änderungsnummer 8
  2
R_AENR8
 70
     0
  0
ATTDEF
  5
9D4
330
94B
100
AcDbEntity
  8
AM_BOR
 62
     1
370
    25
100
AcDbText
 10
-12.3315588552569
 20
7.705750805093199
 30
0.0
 40
2.0
  1

 72
     1
 11
-12.3315588552569
 21
7.705750805093199
 31
0.0
100
AcDbAttributeDefinition
  3
Änderungsindex 9
  2
R_AEIND9
 70
     0
  0
ATTDEF
  5
9D5
330
94B
100
AcDbEntity
  8
AM_BOR
 62
     1
370
    25
100
AcDbText
 10
-8.809393826981704
 20
7.705750805093199
 30
0.0
 40
2.0
  1

100
AcDbAttributeDefinition
  3
Änderungsnummer 9
  2
R_AENR9
 70
     0
  0
ATTDEF
  5
9D6
330
94B
100
AcDbEntity
  8
AM_BOR
 62
     1
370
    25
100
AcDbText
 10
-12.3315588552569
 20
4.251200805093199
 30
0.0
 40
2.0
  1

 72
     1
 11
-12.3315588552569
 21
4.251200805093199
 31
0.0
100
AcDbAttributeDefinition
  3
Änderungsindex 10
  2
R_AEIND10
 70
     0
  0
ATTDEF
  5
9D7
330
94B
100
AcDbEntity
  8
AM_BOR
 62
     1
370
    25
100
AcDbText
 10
-8.809393826981704
 20
4.251200805093199
 30
0.0
 40
2.0
  1

100
AcDbAttributeDefinition
  3
Änderungsnummer 10
  2
R_AENR10
 70
     0
  0
ATTDEF
  5
9D8
330
94B
100
AcDbEntity
  8
AM_BOR
 62
     1
370
    25
100
AcDbText
 10
-12.3315588552569
 20
0.7967008050903388
 30
0.0
 40
2.0
  1

 72
     1
 11
-12.3315588552569
 21
0.7967008050903388
 31
0.0
100
AcDbAttributeDefinition
  3
Änderungsindex 11
  2
R_AEIND11
 70
     0
  0
ATTDEF
  5
9D9
330
94B
100
AcDbEntity
  8
AM_BOR
 62
     1
370
    25
100
AcDbText
 10
-8.809393826981704
 20
0.7967008050903388
 30
0.0
 40
2.0
  1

100
AcDbAttributeDefinition
  3
Änderungsnummer 11
  2
R_AENR11
 70
     0
  0
ATTDEF
  5
9DA
330
94B
100
AcDbEntity
  8
AM_BOR
 62
     1
370
    25
100
AcDbText
 10
-134.2819501338922
 20
44.50000000000289
 30
0.0
 40
2.0
  1

 41
0.6029366896014201
 72
     5
 11
-123.8511454037876
 21
44.50000000000289
 31
0.0
100
AcDbAttributeDefinition
  3
Geprüft Datum
  2
R_PROV_DAT
 70
     0
  0
ATTDEF
  5
9DB
330
94B
100
AcDbEntity
  8
AM_BOR
 62
     1
370
    25
100
AcDbText
 10
-123.0000000000076
 20
44.50000000000284
 30
0.0
 40
2.0
  1

100
AcDbAttributeDefinition
  3
Geprüft Name
  2
R_PROV_NAM
 70
     0
  0
ATTDEF
  5
9DC
330
94B
100
AcDbEntity
  8
AM_BOR
 62
     2
100
AcDbText
 10
-192.0000000000076
 20
2.0
 30
0.0
 40
3.5
  1

 50
90.0
100
AcDbAttributeDefinition
  3
Stempeltext
  2
STEMPELTEXT
 70
     0
  0
ATTDEF
  5
9DD
330
94B
100
AcDbEntity
  8
AM_BOR
 62
     1
370
    25
100
AcDbText
 10
-186.4012579132421
 20
87.16666666667149
 30
0.0
 40
2.0
  1

 72
     1
 11
-186.4012579132421
 21
87.16666666667149
 31
0.0
100
AcDbAttributeDefinition
  3
Änderungsindex 2
  2
R_AEIND2
 70
     0
  0
ATTDEF
  5
9DE
330
94B
100
AcDbEntity
  8
AM_BOR
 62
     1
370
    25
100
AcDbText
 10
-181.3025158264765
 20
87.16666666667149
 30
0.0
 40
2.0
  1

100
AcDbAttributeDefinition
  3
Änderungsbeschreibung 2
  2
R_AETEXT2
 70
     0
  0
ATTDEF
  5
9DF
330
94B
100
AcDbEntity
  8
AM_BOR
 62
     1
370
    25
100
AcDbText
 10
-27.84186369022683
 20
87.16666666667149
 30
0.0
 40
2.0
  1

100
AcDbAttributeDefinition
  3
Änderungsdatum 2
  2
R_AEDAT2
 70
     0
  0
ATTDEF
  5
9E0
330
94B
100
AcDbEntity
  8
AM_BOR
 62
     1
370
    25
100
AcDbText
 10
-13.96099918964142
 20
87.16666666667149
 30
0.0
 40
2.0
  1

100
AcDbAttributeDefinition
  3
Änderungsname 2
  2
R_AENAM2
 70
     0
  0
ATTDEF
  5
9E1
330
94B
100
AcDbEntity
  8
AM_BOR
 62
     1
370
    25
100
AcDbText
 10
-186.4012579132421
 20
92.16666666667148
 30
0.0
 40
2.0
  1

 72
     1
 11
-186.4012579132421
 21
92.16666666667148
 31
0.0
100
AcDbAttributeDefinition
  3
Änderungsindex 3
  2
R_AEIND3
 70
     0
  0
ATTDEF
  5
9E2
330
94B
100
AcDbEntity
  8
AM_BOR
 62
     1
370
    25
100
AcDbText
 10
-181.3025158264765
 20
92.16666666667148
 30
0.0
 40
2.0
  1

100
AcDbAttributeDefinition
  3
Änderungsbeschreibung 3
  2
R_AETEXT3
 70
     0
  0
ATTDEF
  5
9E3
330
94B
100
AcDbEntity
  8
AM_BOR
 62
     1
370
    25
100
AcDbText
 10
-27.84186369022683
 20
92.16666666667148
 30
0.0
 40
2.0
  1

100
AcDbAttributeDefinition
  3
Änderungsdatum 3
  2
R_AEDAT3
 70
     0
  0
ATTDEF
  5
9E4
330
94B
100
AcDbEntity
  8
AM_BOR
 62
     1
370
    25
100
AcDbText
 10
-13.96099918964142
 20
92.16666666667148
 30
0.0
 40
2.0
  1

100
AcDbAttributeDefinition
  3
Änderungsname 3
  2
R_AENAM3
 70
     0
  0
ATTDEF
  5
9E5
330
94B
100
AcDbEntity
  8
AM_BOR
 62
     1
370
    25
100
AcDbText
 10
-186.4012579132421
 20
97.16666666667151
 30
0.0
 40
2.0
  1

 72
     1
 11
-186.4012579132421
 21
97.16666666667151
 31
0.0
100
AcDbAttributeDefinition
  3
Änderungsindex 4
  2
R_AEIND4
 70
     0
  0
ATTDEF
  5
9E6
330
94B
100
AcDbEntity
  8
AM_BOR
 62
     1
370
    25
100
AcDbText
 10
-181.3025158264765
 20
97.16666666667151
 30
0.0
 40
2.0
  1

100
AcDbAttributeDefinition
  3
Änderungsbeschreibung 4
  2
R_AETEXT4
 70
     0
  0
ATTDEF
  5
9E7
330
94B
100
AcDbEntity
  8
AM_BOR
 62
     1
370
    25
100
AcDbText
 10
-27.84186369022683
 20
97.16666666667151
 30
0.0
 40
2.0
  1

100
AcDbAttributeDefinition
  3
Änderungsdatum 4
  2
R_AEDAT4
 70
     0
  0
ATTDEF
  5
9E8
330
94B
100
AcDbEntity
  8
AM_BOR
 62
     1
370
    25
100
AcDbText
 10
-13.96099918964142
 20
97.16666666667151
 30
0.0
 40
2.0
  1

100
AcDbAttributeDefinition
  3
Änderungsname 4
  2
R_AENAM4
 70
     0
  0
ATTDEF
  5
9E9
330
94B
100
AcDbEntity
  8
AM_BOR
 62
     1
370
    25
100
AcDbText
 10
-186.4012579132421
 20
102.1666666666715
 30
0.0
 40
2.0
  1

 72
     1
 11
-186.4012579132421
 21
102.1666666666715
 31
0.0
100
AcDbAttributeDefinition
  3
Änderungsindex 5
  2
R_AEIND5
 70
     0
  0
ATTDEF
  5
9EA
330
94B
100
AcDbEntity
  8
AM_BOR
 62
     1
370
    25
100
AcDbText
 10
-181.3025158264765
 20
102.1666666666715
 30
0.0
 40
2.0
  1

100
AcDbAttributeDefinition
  3
Änderungsbeschreibung 5
  2
R_AETEXT5
 70
     0
  0
ATTDEF
  5
9EB
330
94B
100
AcDbEntity
  8
AM_BOR
 62
     1
370
    25
100
AcDbText
 10
-27.84186369022683
 20
102.1666666666715
 30
0.0
 40
2.0
  1

100
AcDbAttributeDefinition
  3
Änderungsdatum 5
  2
R_AEDAT5
 70
     0
  0
ATTDEF
  5
9EC
330
94B
100
AcDbEntity
  8
AM_BOR
 62
     1
370
    25
100
AcDbText
 10
-13.96099918964142
 20
102.1666666666715
 30
0.0
 40
2.0
  1

100
AcDbAttributeDefinition
  3
Änderungsname 5
  2
R_AENAM5
 70
     0
  0
ATTDEF
  5
9ED
330
94B
100
AcDbEntity
  8
AM_BOR
 62
     1
370
    25
100
AcDbText
 10
-186.4012579132421
 20
107.1666666666715
 30
0.0
 40
2.0
  1

 72
     1
 11
-186.4012579132421
 21
107.1666666666715
 31
0.0
100
AcDbAttributeDefinition
  3
Änderungsindex 6
  2
R_AEIND6
 70
     0
  0
ATTDEF
  5
9EE
330
94B
100
AcDbEntity
  8
AM_BOR
 62
     1
370
    25
100
AcDbText
 10
-181.3025158264765
 20
107.1666666666715
 30
0.0
 40
2.0
  1

100
AcDbAttributeDefinition
  3
Änderungsbeschreibung 6
  2
R_AETEXT6
 70
     0
  0
ATTDEF
  5
9EF
330
94B
100
AcDbEntity
  8
AM_BOR
 62
     1
370
    25
100
AcDbText
 10
-27.84186369022683
 20
107.1666666666715
 30
0.0
 40
2.0
  1

100
AcDbAttributeDefinition
  3
Änderungsdatum 6
  2
R_AEDAT6
 70
     0
  0
ATTDEF
  5
9F0
330
94B
100
AcDbEntity
  8
AM_BOR
 62
     1
370
    25
100
AcDbText
 10
-13.96099918964142
 20
107.1666666666715
 30
0.0
 40
2.0
  1

100
AcDbAttributeDefinition
  3
Änderungsname 6
  2
R_AENAM6
 70
     0
  0
ATTDEF
  5
9F1
330
94B
100
AcDbEntity
  8
AM_BOR
 62
     1
370
    25
100
AcDbText
 10
-186.4012579132421
 20
112.1666666666715
 30
0.0
 40
2.0
  1

 72
     1
 11
-186.4012579132421
 21
112.1666666666715
 31
0.0
100
AcDbAttributeDefinition
  3
Änderungsindex 7
  2
R_AEIND7
 70
     0
  0
ATTDEF
  5
9F2
330
94B
100
AcDbEntity
  8
AM_BOR
 62
     1
370
    25
100
AcDbText
 10
-181.3025158264765
 20
112.1666666666715
 30
0.0
 40
2.0
  1

100
AcDbAttributeDefinition
  3
Änderungsbeschreibung 7
  2
R_AETEXT7
 70
     0
  0
ATTDEF
  5
9F3
330
94B
100
AcDbEntity
  8
AM_BOR
 62
     1
370
    25
100
AcDbText
 10
-27.84186369022683
 20
112.1666666666715
 30
0.0
 40
2.0
  1

100
AcDbAttributeDefinition
  3
Änderungsdatum 7
  2
R_AEDAT7
 70
     0
  0
ATTDEF
  5
9F4
330
94B
100
AcDbEntity
  8
AM_BOR
 62
     1
370
    25
100
AcDbText
 10
-13.96099918964142
 20
112.1666666666715
 30
0.0
 40
2.0
  1

100
AcDbAttributeDefinition
  3
Änderungsname 7
  2
R_AENAM7
 70
     0
  0
ATTDEF
  5
9F5
330
94B
100
AcDbEntity
  8
AM_BOR
 62
     1
370
    25
100
AcDbText
 10
-186.4012579132421
 20
117.1666666666715
 30
0.0
 40
2.0
  1

 72
     1
 11
-186.4012579132421
 21
117.1666666666715
 31
0.0
100
AcDbAttributeDefinition
  3
Änderungsindex 8
  2
R_AEIND8
 70
     0
  0
ATTDEF
  5
9F6
330
94B
100
AcDbEntity
  8
AM_BOR
 62
     1
370
    25
100
AcDbText
 10
-181.3025158264765
 20
117.1666666666715
 30
0.0
 40
2.0
  1

100
AcDbAttributeDefinition
  3
Änderungsbeschreibung 8
  2
R_AETEXT8
 70
     0
  0
ATTDEF
  5
9F7
330
94B
100
AcDbEntity
  8
AM_BOR
 62
     1
370
    25
100
AcDbText
 10
-27.84186369022683
 20
117.1666666666715
 30
0.0
 40
2.0
  1

100
AcDbAttributeDefinition
  3
Änderungsdatum 8
  2
R_AEDAT8
 70
     0
  0
ATTDEF
  5
9F8
330
94B
100
AcDbEntity
  8
AM_BOR
 62
     1
370
    25
100
AcDbText
 10
-13.96099918964142
 20
117.1666666666715
 30
0.0
 40
2.0
  1

100
AcDbAttributeDefinition
  3
Änderungsname 8
  2
R_AENAM8
 70
     0
  0
ATTDEF
  5
9F9
330
94B
100
AcDbEntity
  8
AM_BOR
 62
     1
370
    25
100
AcDbText
 10
-186.4012579132421
 20
122.1666666666715
 30
0.0
 40
2.0
  1

 72
     1
 11
-186.4012579132421
 21
122.1666666666715
 31
0.0
100
AcDbAttributeDefinition
  3
Änderungsindex 9
  2
R_AEIND9
 70
     0
  0
ATTDEF
  5
9FA
330
94B
100
AcDbEntity
  8
AM_BOR
 62
     1
370
    25
100
AcDbText
 10
-181.3025158264765
 20
122.1666666666715
 30
0.0
 40
2.0
  1

100
AcDbAttributeDefinition
  3
Änderungsbeschreibung 9
  2
R_AETEXT9
 70
     0
  0
ATTDEF
  5
9FB
330
94B
100
AcDbEntity
  8
AM_BOR
 62
     1
370
    25
100
AcDbText
 10
-27.84186369022683
 20
122.1666666666715
 30
0.0
 40
2.0
  1

100
AcDbAttributeDefinition
  3
Änderungsdatum 9
  2
R_AEDAT9
 70
     0
  0
ATTDEF
  5
9FC
330
94B
100
AcDbEntity
  8
AM_BOR
 62
     1
370
    25
100
AcDbText
 10
-13.96099918964142
 20
122.1666666666715
 30
0.0
 40
2.0
  1

100
AcDbAttributeDefinition
  3
Änderungsname 9
  2
R_AENAM9
 70
     0
  0
ATTDEF
  5
9FD
330
94B
100
AcDbEntity
  8
AM_BOR
 62
     1
370
    25
100
AcDbText
 10
-186.4012579132421
 20
127.1666666666715
 30
0.0
 40
2.0
  1

 72
     1
 11
-186.4012579132421
 21
127.1666666666715
 31
0.0
100
AcDbAttributeDefinition
  3
Änderungsindex 10
  2
R_AEIND10
 70
     0
  0
ATTDEF
  5
9FE
330
94B
100
AcDbEntity
  8
AM_BOR
 62
     1
370
    25
100
AcDbText
 10
-181.3025158264765
 20
127.1666666666715
 30
0.0
 40
2.0
  1

100
AcDbAttributeDefinition
  3
Änderungsbeschreibung 10
  2
R_AETEXT10
 70
     0
  0
ATTDEF
  5
9FF
330
94B
100
AcDbEntity
  8
AM_BOR
 62
     1
370
    25
100
AcDbText
 10
-27.84186369022683
 20
127.1666666666715
 30
0.0
 40
2.0
  1

100
AcDbAttributeDefinition
  3
Änderungsdatum 10
  2
R_AEDAT10
 70
     0
  0
ATTDEF
  5
A00
330
94B
100
AcDbEntity
  8
AM_BOR
 62
     1
370
    25
100
AcDbText
 10
-13.96099918964142
 20
127.1666666666715
 30
0.0
 40
2.0
  1

100
AcDbAttributeDefinition
  3
Änderungsname 10
  2
R_AENAM10
 70
     0
  0
ATTDEF
  5
A01
330
94B
100
AcDbEntity
  8
AM_BOR
 62
     1
370
    25
100
AcDbText
 10
-186.4012579132421
 20
132.1666666666715
 30
0.0
 40
2.0
  1

 72
     1
 11
-186.4012579132421
 21
132.1666666666715
 31
0.0
100
AcDbAttributeDefinition
  3
Änderungsindex 11
  2
R_AEIND11
 70
     0
  0
ATTDEF
  5
A02
330
94B
100
AcDbEntity
  8
AM_BOR
 62
     1
370
    25
100
AcDbText
 10
-181.3025158264765
 20
132.1666666666715
 30
0.0
 40
2.0
  1

100
AcDbAttributeDefinition
  3
Änderungsbeschreibung 11
  2
R_AETEXT11
 70
     0
  0
ATTDEF
  5
A03
330
94B
100
AcDbEntity
  8
AM_BOR
 62
     1
370
    25
100
AcDbText
 10
-27.84186369022683
 20
132.1666666666715
 30
0.0
 40
2.0
  1

100
AcDbAttributeDefinition
  3
Änderungsdatum 11
  2
R_AEDAT11
 70
     0
  0
ATTDEF
  5
A04
330
94B
100
AcDbEntity
  8
AM_BOR
 62
     1
370
    25
100
AcDbText
 10
-13.96099918964142
 20
132.1666666666715
 30
0.0
 40
2.0
  1

100
AcDbAttributeDefinition
  3
Änderungsname 11
  2
R_AENAM11
 70
     0
  0
TEXT
  5
A05
330
94B
100
AcDbEntity
  8
AM_BOR
 62
     1
370
    25
100
AcDbText
 10
-64.0000000000075
 20
10.99999999999721
 30
0.0
 40
2.0
  1
Projekt:
100
AcDbText
  0
INSERT
  5
A06
330
94B
100
AcDbEntity
  8
0
100
AcDbBlockReference
  2
sfm
 10
-104.3551519040817
 20
43.22232415594515
 30
0.0
  0
OLE2FRAME
  5
A07
330
94B
100
AcDbEntity
  8
0
100
AcDbOle2Frame
 70
     2
 73
     1
 90
        0
1001
ACAD
1000
OLEBEGIN
1070
    70
1070
     1
1070
    71
1070
     1
1070
    40
1040
0.0
1070
    41
1040
18.0240675839691
1070
    42
1040
7.376026658314117
1070
    72
1070
     0
1070
     3
1000
\U+6954\U+656D\U+2073\U+654E\U+2077\U+6F52\U+616Dn
1070
    90
1071
       12
1070
    43
1040
4.233333333333329
1070
     4
1000
\U+6954\U+656D\U+2073\U+654E\U+2077\U+6F52\U+616Dn
1070
    91
1071
       12
1070
    44
1040
4.233333333333329
1000
OLEEND
  0
ENDBLK
  5
A0A
330
94B
100
AcDbEntity
  8
0
100
AcDbBlockEnd
  0
BLOCK
  5
FD8
330
FCD
100
AcDbEntity
  8
0
100
AcDbBlockBegin
  2
*D5
 70
     1
 10
0.0
 20
0.0
 30
0.0
  3
*D5
  1

  0
LINE
  5
100B
330
FCD
100
AcDbEntity
  8
AM_5
100
AcDbLine
 10
398.2350972140778
 20
340.6475910187932
 30
0.0
 11
370.2350972140778
 21
340.6475910187932
 31
0.0
  0
LINE
  5
100C
330
FCD
100
AcDbEntity
  8
AM_5
100
AcDbLine
 10
398.2350972140778
 20
320.0056357441897
 30
0.0
 11
370.2350972140778
 21
320.0056357441898
 31
0.0
  0
LINE
  5
100D
330
FCD
100
AcDbEntity
  8
AM_5
100
AcDbLine
 10
374.2350972140778
 20
335.6475910187932
 30
0.0
 11
374.2350972140778
 21
325.0056357441898
 31
0.0
  0
LINE
  5
100E
330
FCD
100
AcDbEntity
  8
AM_5
100
AcDbLine
 10
374.2350972140778
 20
320.0056357441898
 30
0.0
 11
374.2350972140778
 21
288.0056357441898
 31
0.0
  0
SOLID
  5
100F
330
FCD
100
AcDbEntity
  8
AM_5
100
AcDbTrace
 10
373.4017638807444
 20
335.6475910187932
 30
0.0
 11
375.0684305474111
 21
335.6475910187932
 31
0.0
 12
374.2350972140778
 22
340.6475910187932
 32
0.0
 13
374.2350972140778
 23
340.6475910187932
 33
0.0
  0
SOLID
  5
1010
330
FCD
100
AcDbEntity
  8
AM_5
100
AcDbTrace
 10
373.4017638807444
 20
325.0056357441898
 30
0.0
 11
375.0684305474111
 21
325.0056357441898
 31
0.0
 12
374.2350972140778
 22
320.0056357441898
 32
0.0
 13
374.2350972140778
 23
320.0056357441898
 33
0.0
  0
MTEXT
  5
1011
330
FCD
100
AcDbEntity
  8
AM_5
 62
     2
100
AcDbMText
 10
367.7344082376998
 20
301.5056357441898
 30
0.0
 40
7.0
 41
0.0
 71
     5
 72
     1
  1
R1/2"
 11
0.0000000000000001
 21
1.0
 31
0.0
 73
     1
 44
1.0
  0
POINT
  5
1012
330
FCD
100
AcDbEntity
  8
Defpoints
 62
     0
100
AcDbPoint
 10
398.2350972140778
 20
340.6475910187932
 30
0.0
  0
POINT
  5
1013
330
FCD
100
AcDbEntity
  8
Defpoints
 62
     0
100
AcDbPoint
 10
398.2350972140778
 20
320.0056357441897
 30
0.0
  0
POINT
  5
1014
330
FCD
100
AcDbEntity
  8
Defpoints
 62
     0
100
AcDbPoint
 10
374.2350972140778
 20
320.0056357441898
 30
0.0
  0
ENDBLK
  5
FD9
330
FCD
100
AcDbEntity
  8
0
100
AcDbBlockEnd
  0
BLOCK
  5
FE4
330
FDA
100
AcDbEntity
  8
0
100
AcDbBlockBegin
  2
*D6
 70
     1
 10
0.0
 20
0.0
 30
0.0
  3
*D6
  1

  0
LINE
  5
1015
330
FDA
100
AcDbEntity
  8
AM_5
100
AcDbLine
 10
389.8474949030942
 20
333.688217476063
 30
0.0
 11
389.8474949030942
 21
368.647592028793
 31
0.0
  0
LINE
  5
1016
330
FDA
100
AcDbEntity
  8
AM_5
100
AcDbLine
 10
441.8474949030941
 20
346.6475910187932
 30
0.0
 11
441.8474949030941
 21
368.647592028793
 31
0.0
  0
LINE
  5
1017
330
FDA
100
AcDbEntity
  8
AM_5
100
AcDbLine
 10
394.8474949030942
 20
364.647592028793
 30
0.0
 11
436.847494903094
 21
364.647592028793
 31
0.0
  0
SOLID
  5
1018
330
FDA
100
AcDbEntity
  8
AM_5
100
AcDbTrace
 10
394.8474949030942
 20
365.4809253621264
 30
0.0
 11
394.8474949030942
 21
363.8142586954597
 31
0.0
 12
389.8474949030942
 22
364.647592028793
 32
0.0
 13
389.8474949030942
 23
364.647592028793
 33
0.0
  0
SOLID
  5
1019
330
FDA
100
AcDbEntity
  8
AM_5
100
AcDbTrace
 10
436.847494903094
 20
365.4809253621264
 30
0.0
 11
436.847494903094
 21
363.8142586954597
 31
0.0
 12
441.8474949030941
 22
364.647592028793
 32
0.0
 13
441.8474949030941
 23
364.647592028793
 33
0.0
  0
MTEXT
  5
101A
330
FDA
100
AcDbEntity
  8
AM_5
 62
     2
100
AcDbMText
 10
415.847494903094
 20
371.147592028793
 30
0.0
 40
7.0
 41
0.0
 71
     5
 72
     1
  1
L
 73
     1
 44
1.0
  0
POINT
  5
101B
330
FDA
100
AcDbEntity
  8
Defpoints
 62
     0
100
AcDbPoint
 10
389.8474949030942
 20
333.688217476063
 30
0.0
  0
POINT
  5
101C
330
FDA
100
AcDbEntity
  8
Defpoints
 62
     0
100
AcDbPoint
 10
441.8474949030941
 20
346.6475910187932
 30
0.0
  0
POINT
  5
101D
330
FDA
100
AcDbEntity
  8
Defpoints
 62
     0
100
AcDbPoint
 10
441.8474949030941
 20
364.647592028793
 30
0.0
  0
ENDBLK
  5
FE5
330
FDA
100
AcDbEntity
  8
0
100
AcDbBlockEnd
  0
BLOCK
  5
FF0
330
FE6
100
AcDbEntity
  8
0
100
AcDbBlockBegin
  2
*D7
 70
     1
 10
0.0
 20
0.0
 30
0.0
  3
*D7
  1

  0
LINE
  5
101E
330
FE6
100
AcDbEntity
  8
AM_5
100
AcDbLine
 10
461.7608174561145
 20
228.6475910187935
 30
0.0
 11
502.3474959030941
 21
228.6475910187935
 31
0.0
  0
LINE
  5
101F
330
FE6
100
AcDbEntity
  8
AM_5
100
AcDbLine
 10
441.8474949030952
 20
340.647591018793
 30
0.0
 11
502.3474959030941
 21
340.647591018793
 31
0.0
  0
LINE
  5
1020
330
FE6
100
AcDbEntity
  8
AM_5
100
AcDbLine
 10
498.3474959030941
 20
233.6475910187935
 30
0.0
 11
498.3474959030941
 21
335.647591018793
 31
0.0
  0
SOLID
  5
1021
330
FE6
100
AcDbEntity
  8
AM_5
100
AcDbTrace
 10
497.5141625697608
 20
233.6475910187935
 30
0.0
 11
499.1808292364274
 21
233.6475910187935
 31
0.0
 12
498.3474959030941
 22
228.6475910187935
 32
0.0
 13
498.3474959030941
 23
228.6475910187935
 33
0.0
  0
SOLID
  5
1022
330
FE6
100
AcDbEntity
  8
AM_5
100
AcDbTrace
 10
497.5141625697608
 20
335.647591018793
 30
0.0
 11
499.1808292364274
 21
335.647591018793
 31
0.0
 12
498.3474959030941
 22
340.647591018793
 32
0.0
 13
498.3474959030941
 23
340.647591018793
 33
0.0
  0
MTEXT
  5
1023
330
FE6
100
AcDbEntity
  8
AM_5
 62
     2
100
AcDbMText
 10
491.8474959030938
 20
284.6475910187933
 30
0.0
 40
7.0
 41
0.0
 71
     5
 72
     1
  1
H
 11
0.0000000000000001
 21
1.0
 31
0.0
 73
     1
 44
1.0
  0
POINT
  5
1024
330
FE6
100
AcDbEntity
  8
Defpoints
 62
     0
100
AcDbPoint
 10
461.7608174561145
 20
228.6475910187935
 30
0.0
  0
POINT
  5
1025
330
FE6
100
AcDbEntity
  8
Defpoints
 62
     0
100
AcDbPoint
 10
441.8474949030952
 20
340.647591018793
 30
0.0
  0
POINT
  5
1026
330
FE6
100
AcDbEntity
  8
Defpoints
 62
     0
100
AcDbPoint
 10
498.3474959030941
 20
340.647591018793
 30
0.0
  0
ENDBLK
  5
FF1
330
FE6
100
AcDbEntity
  8
0
100
AcDbBlockEnd
  0
BLOCK
  5
FFD
330
FF2
100
AcDbEntity
  8
0
100
AcDbBlockBegin
  2
*D8
 70
     1
 10
0.0
 20
0.0
 30
0.0
  3
*D8
  1

  0
LINE
  5
1027
330
FF2
100
AcDbEntity
  8
AM_5
100
AcDbLine
 10
424.8908336265841
 20
228.6475910187935
 30
0.0
 11
424.8908336265841
 21
200.6475910187935
 31
0.0
  0
LINE
  5
1028
330
FF2
100
AcDbEntity
  8
AM_5
100
AcDbLine
 10
458.8041561796043
 20
228.6475910187935
 30
0.0
 11
458.8041561796043
 21
200.6475910187935
 31
0.0
  0
LINE
  5
1029
330
FF2
100
AcDbEntity
  8
AM_5
100
AcDbLine
 10
429.890833626584
 20
204.6475910187935
 30
0.0
 11
453.8041561796045
 21
204.6475910187935
 31
0.0
  0
LINE
  5
102A
330
FF2
100
AcDbEntity
  8
AM_5
100
AcDbLine
 10
458.8041561796043
 20
204.6475910187935
 30
0.0
 11
510.6211837386596
 21
204.6475910187935
 31
0.0
  0
SOLID
  5
102B
330
FF2
100
AcDbEntity
  8
AM_5
100
AcDbTrace
 10
429.890833626584
 20
205.4809243521269
 30
0.0
 11
429.890833626584
 21
203.8142576854601
 31
0.0
 12
424.8908336265841
 22
204.6475910187935
 32
0.0
 13
424.8908336265841
 23
204.6475910187935
 33
0.0
  0
SOLID
  5
102C
330
FF2
100
AcDbEntity
  8
AM_5
100
AcDbTrace
 10
453.8041561796045
 20
205.4809243521269
 30
0.0
 11
453.8041561796045
 21
203.8142576854601
 31
0.0
 12
458.8041561796043
 22
204.6475910187935
 32
0.0
 13
458.8041561796043
 23
204.6475910187935
 33
0.0
  0
MTEXT
  5
102D
330
FF2
100
AcDbEntity
  8
AM_5
 62
     2
100
AcDbMText
 10
487.2126699591317
 20
211.1475910187935
 30
0.0
 40
7.0
 41
0.0
 71
     5
 72
     1
  1
Anschluss
 73
     1
 44
1.0
  0
POINT
  5
102E
330
FF2
100
AcDbEntity
  8
Defpoints
 62
     0
100
AcDbPoint
 10
424.8908336265841
 20
228.6475910187935
 30
0.0
  0
POINT
  5
102F
330
FF2
100
AcDbEntity
  8
Defpoints
 62
     0
100
AcDbPoint
 10
458.8041561796043
 20
228.6475910187935
 30
0.0
  0
POINT
  5
1030
330
FF2
100
AcDbEntity
  8
Defpoints
 62
     0
100
AcDbPoint
 10
458.8041561796043
 20
204.6475910187935
 30
0.0
  0
ENDBLK
  5
FFE
330
FF2
100
AcDbEntity
  8
0
100
AcDbBlockEnd
  0
BLOCK
  5
1009
330
FFF
100
AcDbEntity
  8
0
100
AcDbBlockBegin
  2
*D9
 70
     1
 10
0.0
 20
0.0
 30
0.0
  3
*D9
  1

  0
LINE
  5
1031
330
FFF
100
AcDbEntity
  8
AM_5
100
AcDbLine
 10
474.347494903094
 20
267.1032038152822
 30
0.0
 11
474.347494903094
 21
180.6475910187947
 31
0.0
  0
LINE
  5
1032
330
FFF
100
AcDbEntity
  8
AM_5
100
AcDbLine
 10
409.3474949030941
 20
267.1032038152821
 30
0.0
 11
409.3474949030941
 21
180.6475910187947
 31
0.0
  0
LINE
  5
1033
330
FFF
100
AcDbEntity
  8
AM_5
100
AcDbLine
 10
469.3474949030941
 20
184.6475910187947
 30
0.0
 11
414.3474949030942
 21
184.6475910187947
 31
0.0
  0
SOLID
  5
1034
330
FFF
100
AcDbEntity
  8
AM_5
100
AcDbTrace
 10
469.3474949030941
 20
185.480924352128
 30
0.0
 11
469.3474949030941
 21
183.8142576854614
 31
0.0
 12
474.347494903094
 22
184.6475910187947
 32
0.0
 13
474.347494903094
 23
184.6475910187947
 33
0.0
  0
SOLID
  5
1035
330
FFF
100
AcDbEntity
  8
AM_5
100
AcDbTrace
 10
414.3474949030942
 20
185.480924352128
 30
0.0
 11
414.3474949030942
 21
183.8142576854614
 31
0.0
 12
409.3474949030941
 22
184.6475910187947
 32
0.0
 13
409.3474949030941
 23
184.6475910187947
 33
0.0
  0
MTEXT
  5
1036
330
FFF
100
AcDbEntity
  8
AM_5
 62
     2
100
AcDbMText
 10
441.8474949030941
 20
191.1475910187947
 30
0.0
 40
7.0
 41
0.0
 71
     5
 72
     1
  1
%%c65
 73
     1
 44
1.0
  0
POINT
  5
1037
330
FFF
100
AcDbEntity
  8
Defpoints
 62
     0
100
AcDbPoint
 10
474.347494903094
 20
267.1032038152822
 30
0.0
  0
POINT
  5
1038
330
FFF
100
AcDbEntity
  8
Defpoints
 62
     0
100
AcDbPoint
 10
409.3474949030941
 20
267.1032038152821
 30
0.0
  0
POINT
  5
1039
330
FFF
100
AcDbEntity
  8
Defpoints
 62
     0
100
AcDbPoint
 10
409.3474949030941
 20
184.6475910187947
 30
0.0
  0
ENDBLK
  5
100A
330
FFF
100
AcDbEntity
  8
0
100
AcDbBlockEnd
  0
BLOCK
  5
11A5
330
11A4
100
AcDbEntity
  8
0
100
AcDbBlockBegin
  2
*D10
 70
     1
 10
0.0
 20
0.0
 30
0.0
  3
*D10
  1

  0
LINE
  5
11A6
330
11A4
100
AcDbEntity
  8
AM_5
100
AcDbLine
 10
422.6567907362919
 20
342.1433411613971
 30
0.0
 11
401.6790059041745
 21
342.1433411613971
 31
0.0
  0
LINE
  5
11A7
330
11A4
100
AcDbEntity
  8
AM_5
100
AcDbLine
 10
422.6567907362919
 20
321.1883240715533
 30
0.0
 11
401.6790059041745
 21
321.1883240715533
 31
0.0
  0
LINE
  5
11A8
330
11A4
100
AcDbEntity
  8
AM_5
100
AcDbLine
 10
405.6790059041745
 20
337.1433411613971
 30
0.0
 11
405.6790059041745
 21
326.1883240715533
 31
0.0
  0
LINE
  5
11A9
330
11A4
100
AcDbEntity
  8
AM_5
100
AcDbLine
 10
405.6790059041745
 20
321.1883240715533
 30
0.0
 11
405.6790059041745
 21
289.1883240715533
 31
0.0
  0
SOLID
  5
11AA
330
11A4
100
AcDbEntity
  8
AM_5
100
AcDbTrace
 10
404.8456725708412
 20
337.1433411613971
 30
0.0
 11
406.5123392375078
 21
337.1433411613971
 31
0.0
 12
405.6790059041745
 22
342.1433411613971
 32
0.0
 13
405.6790059041745
 23
342.1433411613971
 33
0.0
  0
SOLID
  5
11AB
330
11A4
100
AcDbEntity
  8
AM_5
100
AcDbTrace
 10
404.8456725708412
 20
326.1883240715533
 30
0.0
 11
406.5123392375078
 21
326.1883240715533
 31
0.0
 12
405.6790059041745
 22
321.1883240715533
 32
0.0
 13
405.6790059041745
 23
321.1883240715533
 33
0.0
  0
MTEXT
  5
11AC
330
11A4
100
AcDbEntity
  8
AM_5
 62
     2
100
AcDbMText
 10
399.1783169277965
 20
302.6883240715534
 30
0.0
 40
7.0
 41
0.0
 71
     5
 72
     1
  1
R1/2"
 11
0.0000000000000001
 21
1.0
 31
0.0
 73
     1
 44
1.0
  0
POINT
  5
11AD
330
11A4
100
AcDbEntity
  8
Defpoints
 62
     0
100
AcDbPoint
 10
422.6567907362919
 20
342.1433411613971
 30
0.0
  0
POINT
  5
11AE
330
11A4
100
AcDbEntity
  8
Defpoints
 62
     0
100
AcDbPoint
 10
422.6567907362919
 20
321.1883240715533
 30
0.0
  0
POINT
  5
11AF
330
11A4
100
AcDbEntity
  8
Defpoints
 62
     0
100
AcDbPoint
 10
405.6790059041745
 20
321.1883240715533
 30
0.0
  0
ENDBLK
  5
11B0
330
11A4
100
AcDbEntity
  8
0
100
AcDbBlockEnd
  0
BLOCK
  5
11B2
330
11B1
100
AcDbEntity
  8
0
100
AcDbBlockBegin
  2
*D11
 70
     1
 10
0.0
 20
0.0
 30
0.0
  3
*D11
  1

  0
LINE
  5
11B3
330
11B1
100
AcDbEntity
  8
AM_5
100
AcDbLine
 10
420.6567907362917
 20
331.6658326164752
 30
0.0
 11
420.6567907362917
 21
368.2047053403108
 31
0.0
  0
LINE
  5
11B4
330
11B1
100
AcDbEntity
  8
AM_5
100
AcDbLine
 10
498.1567907362918
 20
252.5442734734089
 30
0.0
 11
498.1567907362918
 21
368.2047053403108
 31
0.0
  0
LINE
  5
11B5
330
11B1
100
AcDbEntity
  8
AM_5
100
AcDbLine
 10
425.6567907362919
 20
364.2047053403108
 30
0.0
 11
493.1567907362917
 21
364.2047053403108
 31
0.0
  0
SOLID
  5
11B6
330
11B1
100
AcDbEntity
  8
AM_5
100
AcDbTrace
 10
425.6567907362919
 20
365.0380386736441
 30
0.0
 11
425.6567907362919
 21
363.3713720069775
 31
0.0
 12
420.6567907362917
 22
364.2047053403108
 32
0.0
 13
420.6567907362917
 23
364.2047053403108
 33
0.0
  0
SOLID
  5
11B7
330
11B1
100
AcDbEntity
  8
AM_5
100
AcDbTrace
 10
493.1567907362917
 20
365.0380386736441
 30
0.0
 11
493.1567907362917
 21
363.3713720069775
 31
0.0
 12
498.1567907362918
 22
364.2047053403108
 32
0.0
 13
498.1567907362918
 23
364.2047053403108
 33
0.0
  0
MTEXT
  5
11B8
330
11B1
100
AcDbEntity
  8
AM_5
 62
     2
100
AcDbMText
 10
459.4067907362918
 20
370.7047053403108
 30
0.0
 40
7.0
 41
0.0
 71
     5
 72
     1
  1
L
 73
     1
 44
1.0
  0
POINT
  5
11B9
330
11B1
100
AcDbEntity
  8
Defpoints
 62
     0
100
AcDbPoint
 10
420.6567907362917
 20
331.6658326164752
 30
0.0
  0
POINT
  5
11BA
330
11B1
100
AcDbEntity
  8
Defpoints
 62
     0
100
AcDbPoint
 10
498.1567907362918
 20
252.5442734734089
 30
0.0
  0
POINT
  5
11BB
330
11B1
100
AcDbEntity
  8
Defpoints
 62
     0
100
AcDbPoint
 10
498.1567907362918
 20
364.2047053403108
 30
0.0
  0
ENDBLK
  5
11BC
330
11B1
100
AcDbEntity
  8
0
100
AcDbBlockEnd
  0
BLOCK
  5
11BE
330
11BD
100
AcDbEntity
  8
0
100
AcDbBlockBegin
  2
*D12
 70
     1
 10
0.0
 20
0.0
 30
0.0
  3
*D12
  1

  0
LINE
  5
11BF
330
11BD
100
AcDbEntity
  8
AM_5
100
AcDbLine
 10
467.4225835829715
 20
221.1658326164752
 30
0.0
 11
532.5706394154192
 21
221.1658326164752
 31
0.0
  0
LINE
  5
11C0
330
11BD
100
AcDbEntity
  8
AM_5
100
AcDbLine
 10
450.7067937880496
 20
343.1658326164752
 30
0.0
 11
532.5706394154194
 21
343.1658326164752
 31
0.0
  0
LINE
  5
11C1
330
11BD
100
AcDbEntity
  8
AM_5
100
AcDbLine
 10
528.5706394154192
 20
226.1658326164752
 30
0.0
 11
528.5706394154193
 21
338.1658326164752
 31
0.0
  0
SOLID
  5
11C2
330
11BD
100
AcDbEntity
  8
AM_5
100
AcDbTrace
 10
527.7373060820857
 20
226.1658326164752
 30
0.0
 11
529.4039727487525
 21
226.1658326164752
 31
0.0
 12
528.5706394154192
 22
221.1658326164752
 32
0.0
 13
528.5706394154192
 23
221.1658326164752
 33
0.0
  0
SOLID
  5
11C3
330
11BD
100
AcDbEntity
  8
AM_5
100
AcDbTrace
 10
527.737306082086
 20
338.1658326164752
 30
0.0
 11
529.4039727487527
 21
338.1658326164752
 31
0.0
 12
528.5706394154193
 22
343.1658326164752
 32
0.0
 13
528.5706394154193
 23
343.1658326164752
 33
0.0
  0
MTEXT
  5
11C4
330
11BD
100
AcDbEntity
  8
AM_5
 62
     2
100
AcDbMText
 10
522.0706394154192
 20
277.1850749397394
 30
0.0
 40
7.0
 41
0.0
 71
     5
 72
     1
  1
H
 11
0.0000000000000001
 21
1.0
 31
0.0
 73
     1
 44
1.0
  0
POINT
  5
11C5
330
11BD
100
AcDbEntity
  8
Defpoints
 62
     0
100
AcDbPoint
 10
467.4225835829715
 20
221.1658326164752
 30
0.0
  0
POINT
  5
11C6
330
11BD
100
AcDbEntity
  8
Defpoints
 62
     0
100
AcDbPoint
 10
450.7067937880496
 20
343.1658326164752
 30
0.0
  0
POINT
  5
11C7
330
11BD
100
AcDbEntity
  8
Defpoints
 62
     0
100
AcDbPoint
 10
528.5706394154193
 20
343.1658326164752
 30
0.0
  0
ENDBLK
  5
11C8
330
11BD
100
AcDbEntity
  8
0
100
AcDbBlockEnd
  0
BLOCK
  5
11CA
330
11C9
100
AcDbEntity
  8
0
100
AcDbBlockBegin
  2
*D13
 70
     1
 10
0.0
 20
0.0
 30
0.0
  3
*D13
  1

  0
LINE
  5
11CB
330
11C9
100
AcDbEntity
  8
AM_5
100
AcDbLine
 10
457.3696813612918
 20
221.1658326164752
 30
0.0
 11
457.3696813612918
 21
200.8529886863668
 31
0.0
  0
LINE
  5
11CC
330
11C9
100
AcDbEntity
  8
AM_5
100
AcDbLine
 10
475.9557409316043
 20
221.1658326164752
 30
0.0
 11
475.9557409316043
 21
200.8529886863668
 31
0.0
  0
LINE
  5
11CD
330
11C9
100
AcDbEntity
  8
AM_5
100
AcDbLine
 10
462.3696813612918
 20
204.8529886863668
 30
0.0
 11
470.9557409316042
 21
204.8529886863668
 31
0.0
  0
LINE
  5
11CE
330
11C9
100
AcDbEntity
  8
AM_5
100
AcDbLine
 10
475.9557409316043
 20
204.8529886863668
 30
0.0
 11
527.7727684906595
 21
204.8529886863668
 31
0.0
  0
SOLID
  5
11CF
330
11C9
100
AcDbEntity
  8
AM_5
100
AcDbTrace
 10
462.3696813612918
 20
205.6863220197002
 30
0.0
 11
462.3696813612918
 21
204.0196553530335
 31
0.0
 12
457.3696813612918
 22
204.8529886863668
 32
0.0
 13
457.3696813612918
 23
204.8529886863668
 33
0.0
  0
SOLID
  5
11D0
330
11C9
100
AcDbEntity
  8
AM_5
100
AcDbTrace
 10
470.9557409316042
 20
205.6863220197002
 30
0.0
 11
470.9557409316042
 21
204.0196553530335
 31
0.0
 12
475.9557409316043
 22
204.8529886863668
 32
0.0
 13
475.9557409316043
 23
204.8529886863668
 33
0.0
  0
MTEXT
  5
11D1
330
11C9
100
AcDbEntity
  8
AM_5
 62
     2
100
AcDbMText
 10
504.3642547111319
 20
211.3529886863668
 30
0.0
 40
7.0
 41
0.0
 71
     5
 72
     1
  1
Anschluss
 73
     1
 44
1.0
  0
POINT
  5
11D2
330
11C9
100
AcDbEntity
  8
Defpoints
 62
     0
100
AcDbPoint
 10
457.3696813612918
 20
221.1658326164752
 30
0.0
  0
POINT
  5
11D3
330
11C9
100
AcDbEntity
  8
Defpoints
 62
     0
100
AcDbPoint
 10
475.9557409316043
 20
221.1658326164752
 30
0.0
  0
POINT
  5
11D4
330
11C9
100
AcDbEntity
  8
Defpoints
 62
     0
100
AcDbPoint
 10
475.9557409316043
 20
204.8529886863668
 30
0.0
  0
ENDBLK
  5
11D5
330
11C9
100
AcDbEntity
  8
0
100
AcDbBlockEnd
  0
BLOCK
  5
11D7
330
11D6
100
AcDbEntity
  8
0
100
AcDbBlockBegin
  2
*D14
 70
     1
 10
0.0
 20
0.0
 30
0.0
  3
*D14
  1

  0
LINE
  5
11D8
330
11D6
100
AcDbEntity
  8
AM_5
100
AcDbLine
 10
498.1567907362918
 20
249.8658295647175
 30
0.0
 11
498.1567907362918
 21
177.1638256329869
 31
0.0
  0
LINE
  5
11D9
330
11D6
100
AcDbEntity
  8
AM_5
100
AcDbLine
 10
435.1567907362918
 20
249.8658295647175
 30
0.0
 11
435.1567907362918
 21
177.1638256329869
 31
0.0
  0
LINE
  5
11DA
330
11D6
100
AcDbEntity
  8
AM_5
100
AcDbLine
 10
493.1567907362917
 20
181.1638256329869
 30
0.0
 11
440.1567907362918
 21
181.1638256329869
 31
0.0
  0
SOLID
  5
11DB
330
11D6
100
AcDbEntity
  8
AM_5
100
AcDbTrace
 10
493.1567907362917
 20
181.9971589663202
 30
0.0
 11
493.1567907362917
 21
180.3304922996535
 31
0.0
 12
498.1567907362918
 22
181.1638256329869
 32
0.0
 13
498.1567907362918
 23
181.1638256329869
 33
0.0
  0
SOLID
  5
11DC
330
11D6
100
AcDbEntity
  8
AM_5
100
AcDbTrace
 10
440.1567907362918
 20
181.9971589663202
 30
0.0
 11
440.1567907362918
 21
180.3304922996535
 31
0.0
 12
435.1567907362918
 22
181.1638256329869
 32
0.0
 13
435.1567907362918
 23
181.1638256329869
 33
0.0
  0
MTEXT
  5
11DD
330
11D6
100
AcDbEntity
  8
AM_5
 62
     2
100
AcDbMText
 10
466.6567907362916
 20
187.6638256329869
 30
0.0
 40
7.0
 41
0.0
 71
     5
 72
     1
  1
%%c63
 73
     1
 44
1.0
  0
POINT
  5
11DE
330
11D6
100
AcDbEntity
  8
Defpoints
 62
     0
100
AcDbPoint
 10
498.1567907362918
 20
249.8658295647175
 30
0.0
  0
POINT
  5
11DF
330
11D6
100
AcDbEntity
  8
Defpoints
 62
     0
100
AcDbPoint
 10
435.1567907362918
 20
249.8658295647175
 30
0.0
  0
POINT
  5
11E0
330
11D6
100
AcDbEntity
  8
Defpoints
 62
     0
100
AcDbPoint
 10
435.1567907362918
 20
181.1638256329869
 30
0.0
  0
ENDBLK
  5
11E1
330
11D6
100
AcDbEntity
  8
0
100
AcDbBlockEnd
  0
BLOCK
  5
1380
330
1375
100
AcDbEntity
  8
0
100
AcDbBlockBegin
  2
*D15
 70
     1
 10
0.0
 20
0.0
 30
0.0
  3
*D15
  1

  0
LINE
  5
13E2
330
1375
100
AcDbEntity
  8
AM_5
100
AcDbLine
 10
400.8768134373458
 20
361.2107415004158
 30
0.0
 11
379.8990286052283
 21
361.2107415004159
 31
0.0
  0
LINE
  5
13E3
330
1375
100
AcDbEntity
  8
AM_5
100
AcDbLine
 10
400.8768134373458
 20
340.2557244105721
 30
0.0
 11
379.8990286052283
 21
340.2557244105722
 31
0.0
  0
LINE
  5
13E4
330
1375
100
AcDbEntity
  8
AM_5
100
AcDbLine
 10
383.8990286052283
 20
356.2107415004159
 30
0.0
 11
383.8990286052283
 21
345.2557244105721
 31
0.0
  0
LINE
  5
13E5
330
1375
100
AcDbEntity
  8
AM_5
100
AcDbLine
 10
383.8990286052283
 20
340.2557244105722
 30
0.0
 11
383.8990286052283
 21
308.2557244105722
 31
0.0
  0
SOLID
  5
13E6
330
1375
100
AcDbEntity
  8
AM_5
100
AcDbTrace
 10
383.065695271895
 20
356.2107415004159
 30
0.0
 11
384.7323619385617
 21
356.2107415004159
 31
0.0
 12
383.8990286052283
 22
361.2107415004159
 32
0.0
 13
383.8990286052283
 23
361.2107415004159
 33
0.0
  0
SOLID
  5
13E7
330
1375
100
AcDbEntity
  8
AM_5
100
AcDbTrace
 10
383.065695271895
 20
345.2557244105721
 30
0.0
 11
384.7323619385617
 21
345.2557244105721
 31
0.0
 12
383.8990286052283
 22
340.2557244105722
 32
0.0
 13
383.8990286052283
 23
340.2557244105722
 33
0.0
  0
MTEXT
  5
13E8
330
1375
100
AcDbEntity
  8
AM_5
 62
     2
100
AcDbMText
 10
377.3983396288504
 20
321.7557244105722
 30
0.0
 40
7.0
 41
0.0
 71
     5
 72
     1
  1
R1/2"
 11
0.0000000000000001
 21
1.0
 31
0.0
 73
     1
 44
1.0
  0
POINT
  5
13E9
330
1375
100
AcDbEntity
  8
Defpoints
 62
     0
100
AcDbPoint
 10
400.8768134373458
 20
361.2107415004158
 30
0.0
  0
POINT
  5
13EA
330
1375
100
AcDbEntity
  8
Defpoints
 62
     0
100
AcDbPoint
 10
400.8768134373458
 20
340.2557244105721
 30
0.0
  0
POINT
  5
13EB
330
1375
100
AcDbEntity
  8
Defpoints
 62
     0
100
AcDbPoint
 10
383.8990286052283
 20
340.2557244105722
 30
0.0
  0
ENDBLK
  5
1381
330
1375
100
AcDbEntity
  8
0
100
AcDbBlockEnd
  0
BLOCK
  5
138C
330
1382
100
AcDbEntity
  8
0
100
AcDbBlockBegin
  2
*D16
 70
     1
 10
0.0
 20
0.0
 30
0.0
  3
*D16
  1

  0
LINE
  5
13EC
330
1382
100
AcDbEntity
  8
AM_5
100
AcDbLine
 10
398.8768134373459
 20
350.7332329554941
 30
0.0
 11
398.8768134373459
 21
387.2721056793296
 31
0.0
  0
LINE
  5
13ED
330
1382
100
AcDbEntity
  8
AM_5
100
AcDbLine
 10
476.3768134373457
 20
271.6116738124276
 30
0.0
 11
476.3768134373457
 21
387.2721056793296
 31
0.0
  0
LINE
  5
13EE
330
1382
100
AcDbEntity
  8
AM_5
100
AcDbLine
 10
403.8768134373459
 20
383.2721056793296
 30
0.0
 11
471.3768134373457
 21
383.2721056793296
 31
0.0
  0
SOLID
  5
13EF
330
1382
100
AcDbEntity
  8
AM_5
100
AcDbTrace
 10
403.8768134373459
 20
384.1054390126629
 30
0.0
 11
403.8768134373459
 21
382.4387723459963
 31
0.0
 12
398.8768134373459
 22
383.2721056793296
 32
0.0
 13
398.8768134373459
 23
383.2721056793296
 33
0.0
  0
SOLID
  5
13F0
330
1382
100
AcDbEntity
  8
AM_5
100
AcDbTrace
 10
471.3768134373457
 20
384.1054390126629
 30
0.0
 11
471.3768134373457
 21
382.4387723459963
 31
0.0
 12
476.3768134373457
 22
383.2721056793296
 32
0.0
 13
476.3768134373457
 23
383.2721056793296
 33
0.0
  0
MTEXT
  5
13F1
330
1382
100
AcDbEntity
  8
AM_5
 62
     2
100
AcDbMText
 10
437.6268134373455
 20
389.7721056793296
 30
0.0
 40
7.0
 41
0.0
 71
     5
 72
     1
  1
L
 73
     1
 44
1.0
  0
POINT
  5
13F2
330
1382
100
AcDbEntity
  8
Defpoints
 62
     0
100
AcDbPoint
 10
398.8768134373459
 20
350.7332329554941
 30
0.0
  0
POINT
  5
13F3
330
1382
100
AcDbEntity
  8
Defpoints
 62
     0
100
AcDbPoint
 10
476.3768134373457
 20
271.6116738124276
 30
0.0
  0
POINT
  5
13F4
330
1382
100
AcDbEntity
  8
Defpoints
 62
     0
100
AcDbPoint
 10
476.3768134373457
 20
383.2721056793296
 30
0.0
  0
ENDBLK
  5
138D
330
1382
100
AcDbEntity
  8
0
100
AcDbBlockEnd
  0
BLOCK
  5
1398
330
138E
100
AcDbEntity
  8
0
100
AcDbBlockBegin
  2
*D17
 70
     1
 10
0.0
 20
0.0
 30
0.0
  3
*D17
  1

  0
LINE
  5
13F5
330
138E
100
AcDbEntity
  8
AM_5
100
AcDbLine
 10
445.6426062840253
 20
240.2332329554941
 30
0.0
 11
510.7906621164731
 21
240.2332329554941
 31
0.0
  0
LINE
  5
13F6
330
138E
100
AcDbEntity
  8
AM_5
100
AcDbLine
 10
428.9268164891034
 20
362.233232955494
 30
0.0
 11
510.7906621164731
 21
362.233232955494
 31
0.0
  0
LINE
  5
13F7
330
138E
100
AcDbEntity
  8
AM_5
100
AcDbLine
 10
506.7906621164731
 20
245.233232955494
 30
0.0
 11
506.7906621164731
 21
357.233232955494
 31
0.0
  0
SOLID
  5
13F8
330
138E
100
AcDbEntity
  8
AM_5
100
AcDbTrace
 10
505.9573287831399
 20
245.233232955494
 30
0.0
 11
507.6239954498062
 21
245.233232955494
 31
0.0
 12
506.7906621164731
 22
240.2332329554941
 32
0.0
 13
506.7906621164731
 23
240.2332329554941
 33
0.0
  0
SOLID
  5
13F9
330
138E
100
AcDbEntity
  8
AM_5
100
AcDbTrace
 10
505.9573287831399
 20
357.233232955494
 30
0.0
 11
507.6239954498062
 21
357.233232955494
 31
0.0
 12
506.7906621164731
 22
362.233232955494
 32
0.0
 13
506.7906621164731
 23
362.233232955494
 33
0.0
  0
MTEXT
  5
13FA
330
138E
100
AcDbEntity
  8
AM_5
 62
     2
100
AcDbMText
 10
500.290662116473
 20
296.2524752787582
 30
0.0
 40
7.0
 41
0.0
 71
     5
 72
     1
  1
H
 11
0.0000000000000001
 21
1.0
 31
0.0
 73
     1
 44
1.0
  0
POINT
  5
13FB
330
138E
100
AcDbEntity
  8
Defpoints
 62
     0
100
AcDbPoint
 10
445.6426062840253
 20
240.2332329554941
 30
0.0
  0
POINT
  5
13FC
330
138E
100
AcDbEntity
  8
Defpoints
 62
     0
100
AcDbPoint
 10
428.9268164891034
 20
362.233232955494
 30
0.0
  0
POINT
  5
13FD
330
138E
100
AcDbEntity
  8
Defpoints
 62
     0
100
AcDbPoint
 10
506.7906621164731
 20
362.233232955494
 30
0.0
  0
ENDBLK
  5
1399
330
138E
100
AcDbEntity
  8
0
100
AcDbBlockEnd
  0
BLOCK
  5
13A5
330
139A
100
AcDbEntity
  8
0
100
AcDbBlockBegin
  2
*D18
 70
     1
 10
0.0
 20
0.0
 30
0.0
  3
*D18
  1

  0
LINE
  5
13FE
330
139A
100
AcDbEntity
  8
AM_5
100
AcDbLine
 10
435.5897040623457
 20
240.2332329554941
 30
0.0
 11
435.5897040623457
 21
219.9203890253857
 31
0.0
  0
LINE
  5
13FF
330
139A
100
AcDbEntity
  8
AM_5
100
AcDbLine
 10
454.1757636326582
 20
240.2332329554941
 30
0.0
 11
454.1757636326582
 21
219.9203890253857
 31
0.0
  0
LINE
  5
1400
330
139A
100
AcDbEntity
  8
AM_5
100
AcDbLine
 10
440.5897040623456
 20
223.9203890253857
 30
0.0
 11
449.1757636326581
 21
223.9203890253857
 31
0.0
  0
LINE
  5
1401
330
139A
100
AcDbEntity
  8
AM_5
100
AcDbLine
 10
454.1757636326582
 20
223.9203890253857
 30
0.0
 11
505.9927911917132
 21
223.9203890253857
 31
0.0
  0
SOLID
  5
1402
330
139A
100
AcDbEntity
  8
AM_5
100
AcDbTrace
 10
440.5897040623456
 20
224.753722358719
 30
0.0
 11
440.5897040623456
 21
223.0870556920523
 31
0.0
 12
435.5897040623457
 22
223.9203890253857
 32
0.0
 13
435.5897040623457
 23
223.9203890253857
 33
0.0
  0
SOLID
  5
1403
330
139A
100
AcDbEntity
  8
AM_5
100
AcDbTrace
 10
449.1757636326581
 20
224.753722358719
 30
0.0
 11
449.1757636326581
 21
223.0870556920523
 31
0.0
 12
454.1757636326582
 22
223.9203890253857
 32
0.0
 13
454.1757636326582
 23
223.9203890253857
 33
0.0
  0
MTEXT
  5
1404
330
139A
100
AcDbEntity
  8
AM_5
 62
     2
100
AcDbMText
 10
482.5842774121857
 20
230.4203890253857
 30
0.0
 40
7.0
 41
0.0
 71
     5
 72
     1
  1
Anschluss
 73
     1
 44
1.0
  0
POINT
  5
1405
330
139A
100
AcDbEntity
  8
Defpoints
 62
     0
100
AcDbPoint
 10
435.5897040623457
 20
240.2332329554941
 30
0.0
  0
POINT
  5
1406
330
139A
100
AcDbEntity
  8
Defpoints
 62
     0
100
AcDbPoint
 10
454.1757636326582
 20
240.2332329554941
 30
0.0
  0
POINT
  5
1407
330
139A
100
AcDbEntity
  8
Defpoints
 62
     0
100
AcDbPoint
 10
454.1757636326582
 20
223.9203890253857
 30
0.0
  0
ENDBLK
  5
13A6
330
139A
100
AcDbEntity
  8
0
100
AcDbBlockEnd
  0
BLOCK
  5
13B1
330
13A7
100
AcDbEntity
  8
0
100
AcDbBlockBegin
  2
*D19
 70
     1
 10
0.0
 20
0.0
 30
0.0
  3
*D19
  1

  0
LINE
  5
1408
330
13A7
100
AcDbEntity
  8
AM_5
100
AcDbLine
 10
476.3768134373457
 20
268.9332299037362
 30
0.0
 11
476.3768134373457
 21
196.2312259720057
 31
0.0
  0
LINE
  5
1409
330
13A7
100
AcDbEntity
  8
AM_5
100
AcDbLine
 10
413.3768134373457
 20
268.9332299037362
 30
0.0
 11
413.3768134373457
 21
196.2312259720057
 31
0.0
  0
LINE
  5
140A
330
13A7
100
AcDbEntity
  8
AM_5
100
AcDbLine
 10
471.3768134373457
 20
200.2312259720057
 30
0.0
 11
418.3768134373456
 21
200.2312259720057
 31
0.0
  0
SOLID
  5
140B
330
13A7
100
AcDbEntity
  8
AM_5
100
AcDbTrace
 10
471.3768134373457
 20
201.064559305339
 30
0.0
 11
471.3768134373457
 21
199.3978926386723
 31
0.0
 12
476.3768134373457
 22
200.2312259720057
 32
0.0
 13
476.3768134373457
 23
200.2312259720057
 33
0.0
  0
SOLID
  5
140C
330
13A7
100
AcDbEntity
  8
AM_5
100
AcDbTrace
 10
418.3768134373456
 20
201.064559305339
 30
0.0
 11
418.3768134373456
 21
199.3978926386723
 31
0.0
 12
413.3768134373457
 22
200.2312259720057
 32
0.0
 13
413.3768134373457
 23
200.2312259720057
 33
0.0
  0
MTEXT
  5
140D
330
13A7
100
AcDbEntity
  8
AM_5
 62
     2
100
AcDbMText
 10
444.8768134373456
 20
206.7312259720057
 30
0.0
 40
7.0
 41
0.0
 71
     5
 72
     1
  1
%%c63
 73
     1
 44
1.0
  0
POINT
  5
140E
330
13A7
100
AcDbEntity
  8
Defpoints
 62
     0
100
AcDbPoint
 10
476.3768134373457
 20
268.9332299037362
 30
0.0
  0
POINT
  5
140F
330
13A7
100
AcDbEntity
  8
Defpoints
 62
     0
100
AcDbPoint
 10
413.3768134373457
 20
268.9332299037362
 30
0.0
  0
POINT
  5
1410
330
13A7
100
AcDbEntity
  8
Defpoints
 62
     0
100
AcDbPoint
 10
413.3768134373457
 20
200.2312259720057
 30
0.0
  0
ENDBLK
  5
13B2
330
13A7
100
AcDbEntity
  8
0
100
AcDbBlockEnd
  0
ENDSEC
  0
SECTION
  2
ENTITIES
  0
INSERT
  5
8E8
330
1F
100
AcDbEntity
  8
0
370
     0
100
AcDbBlockReference
  2
DIN_A3
 10
0.0
 20
0.0
 30
0.0
 41
1.5
 42
1.5
 43
1.5
1001
GENIUS_GENOREF_13
1005
A7B
1001
GENIUS_GENODEF_13
1002
{
1000
HIER
1070
     0
1002
}
1002
{
1000
MANEDIT
1070
     0
1002
}
1002
{
1000
NOSEL
1070
     0
1002
}
1002
{
1000
BEHIND
1070
     0
1002
}
1002
{
1000
OTHER
1070
     0
1002
}
1002
{
1000
REACTOR
1002
}
1001
GENIUS_GENOBJ-N-SDF_13
1002
{
1000
OWNER
1000
GEN
1002
}
1001
GENIUS_GENSCREG_15
1040
1.5
1040
1.0
1011
-0.0000000000000568
1021
0.0
1031
0.0
1011
630.0
1021
445.5
1031
0.0
1070
     3
  0
POINT
  5
A7B
330
1F
100
AcDbEntity
  8
0
 60
     1
100
AcDbPoint
 10
0.0
 20
0.0
 30
0.0
1001
GENIUS_GENOLIS_13
1002
{
1000
ENT
1005
A20
1005
8E8
1002
}
1001
GENIUS_GENOENT_13
1002
{
1000
MYREF
1005
A7B
1002
}
1002
{
1000
GRP
1005
0
1002
}
1001
GENIUS_GENOBJ-N-TIT_13
1002
{
1000
OWNER
1000
GEN
1002
}
1001
GENIUS_GENTITLE_13
1002
{
1000
BORDER
1000
G:\Umgebung_ACAD\MDT2007\Reflex\Dwg\Format\din_a3
1002
}
1002
{
1000
TITLE
1000
G:\Umgebung_ACAD\MDT2007\Reflex\Dwg\Title\REFLEX_EDBTITLE
1002
}
1002
{
1000
SCALE
1000
1:1.5
1002
}
1002
{
1000
TITLESTD
1000
DIN
1002
}
1002
{
1000
HRA
1005
8E8
1002
}
1002
{
1000
HTIT
1005
A20
1002
}
1002
{
1000
INVTXTID
1005
0
1002
}
1002
{
1000
UNCHG
1002
{
1000
GEN-TITLE-SIZ
1000
GEN-TITLE-SCA
1002
}
1002
}
1002
{
1000
GENIUSID
1005
A7B
1002
}
1001
GENIUS_GENODEF_13
1002
{
1000
HIER
1070
     1
1002
}
1002
{
1000
MANEDIT
1070
     1
1002
}
1002
{
1000
NOSEL
1070
     0
1002
}
1002
{
1000
BEHIND
1070
     0
1002
}
1002
{
1000
OTHER
1070
     0
1002
}
1002
{
1000
REACTOR
1002
}
  0
LINE
  5
D4F
330
1F
100
AcDbEntity
  8
AM_0
100
AcDbLine
 10
83.20350379498869
 20
198.7067725586353
 30
0.0
 11
240.7035037949888
 21
198.7067725586353
 31
0.0
  0
LINE
  5
D50
330
1F
100
AcDbEntity
  8
AM_0
100
AcDbLine
 10
240.7035037949888
 20
324.7067725586353
 30
0.0
 11
83.20350379498869
 21
324.7067725586353
 31
0.0
  0
LINE
  5
D51
330
1F
100
AcDbEntity
  8
AM_0
100
AcDbLine
 10
240.7035037949888
 20
308.9567725586353
 30
0.0
 11
83.20350379498869
 21
308.9567725586353
 31
0.0
  0
LINE
  5
D52
330
1F
100
AcDbEntity
  8
AM_0
100
AcDbLine
 10
240.7035037949888
 20
293.2067725586351
 30
0.0
 11
83.20350379498869
 21
293.206772558635
 31
0.0
  0
LINE
  5
D53
330
1F
100
AcDbEntity
  8
AM_0
100
AcDbLine
 10
240.7035037949888
 20
277.4567725586353
 30
0.0
 11
83.20350379498869
 21
277.4567725586353
 31
0.0
  0
LINE
  5
D54
330
1F
100
AcDbEntity
  8
AM_0
100
AcDbLine
 10
240.7035037949888
 20
261.7067725586353
 30
0.0
 11
83.20350379498869
 21
261.7067725586353
 31
0.0
  0
LINE
  5
D55
330
1F
100
AcDbEntity
  8
AM_0
100
AcDbLine
 10
240.7035037949888
 20
245.9567725586353
 30
0.0
 11
83.20350379498869
 21
245.9567725586353
 31
0.0
  0
LINE
  5
D56
330
1F
100
AcDbEntity
  8
AM_0
100
AcDbLine
 10
240.7035037949888
 20
230.2067725586353
 30
0.0
 11
83.20350379498869
 21
230.2067725586353
 31
0.0
  0
LINE
  5
D57
330
1F
100
AcDbEntity
  8
AM_0
100
AcDbLine
 10
240.7035037949888
 20
214.4567725586353
 30
0.0
 11
83.20350379498869
 21
214.4567725586353
 31
0.0
  0
LINE
  5
D58
330
1F
100
AcDbEntity
  8
AM_0
100
AcDbLine
 10
193.4535037949888
 20
324.7067725586353
 30
0.0
 11
193.4535037949888
 21
198.7067725586353
 31
0.0
  0
LINE
  5
D59
330
1F
100
AcDbEntity
  8
AM_0
100
AcDbLine
 10
240.7035037949888
 20
324.7067725586353
 30
0.0
 11
240.7035037949888
 21
198.7067725586353
 31
0.0
  0
MTEXT
  5
D5A
330
1F
100
AcDbEntity
  8
AM_0
100
AcDbMText
 10
90.40041188070503
 20
320.6984346856081
 30
0.0
 40
7.875
 41
19.52151176441592
 71
     1
 72
     5
  1
{\Fisocp,bigfont|c238;Typ}
 73
     1
 44
1.0
  0
MTEXT
  5
D5B
330
1F
100
AcDbEntity
  8
0
100
AcDbMText
 10
197.235126311685
 20
320.6984346856081
 30
0.0
 40
7.875
 41
66.86634038358286
 71
     1
 72
     5
  1
{\Fisocp,bigfont|c0;T 1/2S}
 73
     1
 44
1.0
  0
MTEXT
  5
D5C
330
1F
100
AcDbEntity
  8
AM_0
100
AcDbMText
 10
90.37686741988167
 20
304.948434685608
 30
0.0
 40
7.875
 41
58.54898793639438
 71
     1
 72
     5
  1
{\Fisocp,bigfont|c238;H}
 73
     1
 44
1.0
  0
MTEXT
  5
D5D
330
1F
100
AcDbEntity
  8
AM_0
100
AcDbMText
 10
90.37686741988167
 20
241.948434685608
 30
0.0
 40
7.875
 41
58.54898793639438
 71
     1
 72
     5
  1
{\Fisocp,bigfont|c0;Anschluss}
 73
     1
 44
1.0
  0
MTEXT
  5
D5E
330
1F
100
AcDbEntity
  8
AM_0
100
AcDbMText
 10
90.37686741988167
 20
210.448434685608
 30
0.0
 40
7.875
 41
58.54898793639438
 71
     1
 72
     5
  1
{\Fisocp,bigfont|c0;Gewicht}
 73
     1
 44
1.0
  0
LINE
  5
D5F
330
1F
100
AcDbEntity
  8
AM_0
100
AcDbLine
 10
146.2035037949888
 20
308.9567725586353
 30
0.0
 11
146.2035037949888
 21
198.7067725586353
 31
0.0
  0
MTEXT
  5
D60
330
1F
100
AcDbEntity
  8
AM_5
100
AcDbMText
 10
153.3768674198816
 20
304.948434685608
 30
0.0
 40
5.5125
 41
71.74988985542885
 71
     1
 72
     5
  1
{\Fisocp,bigfont|c238;mm}
 73
     1
 44
1.0
  0
MTEXT
  5
D61
330
1F
100
AcDbEntity
  8
AM_5
100
AcDbMText
 10
153.3768674198816
 20
273.448434685608
 30
0.0
 40
5.5125
 41
19.52151176441592
 71
     1
 72
     5
  1
{\Fisocp,bigfont|c238;mm}
 73
     1
 44
1.0
  0
MTEXT
  5
D62
330
1F
100
AcDbEntity
  8
AM_5
100
AcDbMText
 10
153.3768674198816
 20
241.948434685608
 30
0.0
 40
5.5125
 41
63.34592853708397
 71
     1
 72
     5
  1
{\Fisocp,bigfont|c0;Zoll}
 73
     1
 44
1.0
  0
MTEXT
  5
D63
330
1F
100
AcDbEntity
  8
AM_5
100
AcDbMText
 10
153.3768674198816
 20
210.448434685608
 30
0.0
 40
5.5125
 41
63.34592853708397
 71
     1
 72
     5
  1
{\Fisocp,bigfont|c0;kg}
 73
     1
 44
1.0
  0
MTEXT
  5
D64
330
1F
100
AcDbEntity
  8
AM_5
100
AcDbMText
 10
211.383447200097
 20
304.948434685608
 30
0.0
 40
5.5125
 41
71.74988985542885
 71
     1
 72
     5
  1
{\Fisocp,bigfont|c0;120}
 73
     1
 44
1.0
  0
MTEXT
  5
D65
330
1F
100
AcDbEntity
  8
AM_5
100
AcDbMText
 10
211.383447200097
 20
273.448434685608
 30
0.0
 40
5.5125
 41
19.52151176441592
 71
     1
 72
     5
  1
{\Fisocp,bigfont|c0;78}
 73
     1
 44
1.0
  0
MTEXT
  5
D66
330
1F
100
AcDbEntity
  8
AM_5
100
AcDbMText
 10
206.2195667773223
 20
241.6409887635607
 30
0.0
 40
5.5125
 41
63.34592853708397
 71
     1
 72
     5
  1
{\Fisocp,bigfont|c0;R1/2"}
 73
     1
 44
1.0
  0
MTEXT
  5
D67
330
1F
100
AcDbEntity
  8
AM_5
100
AcDbMText
 10
211.383447200097
 20
210.448434685608
 30
0.0
 40
5.5125
 41
63.34592853708397
 71
     1
 72
     5
  1
{\Fisocp,bigfont|c0;0,7}
 73
     1
 44
1.0
  0
MTEXT
  5
FA7
330
1F
100
AcDbEntity
  8
AM_0
100
AcDbMText
 10
90.37686741988167
 20
273.4484338670909
 30
0.0
 40
7.875
 41
58.54898793639438
 71
     1
 72
     5
  1
{\Fisocp,bigfont|c0;L}
 73
     1
 44
1.0
  0
LINE
  5
FA8
330
1F
100
AcDbEntity
  8
AM_0
370
    60
100
AcDbLine
 10
83.20350658964763
 20
324.7067725586353
 30
0.0
 11
83.20350658964763
 21
198.7067725586353
 31
0.0
  0
LINE
  5
12AE
330
1F
100
AcDbEntity
  8
0
 62
     7
100
AcDbLine
 10
476.3768134373457
 20
270.1332268519784
 30
0.0
 11
444.8768134373456
 21
270.1332268519784
 31
0.0
  0
LINE
  5
12AF
330
1F
100
AcDbEntity
  8
0
 62
     7
100
AcDbLine
 10
476.27680733383
 20
270.233232955494
 30
0.0
 11
444.8768134373456
 21
270.233232955494
 31
0.0
  0
LINE
  5
12B0
330
1F
100
AcDbEntity
  8
0
 62
     7
100
AcDbLine
 10
444.8768134373456
 20
270.1332268519784
 30
0.0
 11
413.3768134373457
 21
270.1332268519784
 31
0.0
  0
LINE
  5
12B1
330
1F
100
AcDbEntity
  8
0
 62
     7
100
AcDbLine
 10
444.8768134373456
 20
270.233232955494
 30
0.0
 11
413.4768195408613
 21
270.233232955494
 31
0.0
  0
LINE
  5
12B2
330
1F
100
AcDbEntity
  8
0
 62
     7
 48
0.0382896423339844
100
AcDbLine
 10
433.8972907322673
 20
240.2332329554941
 30
0.0
 11
432.3657050389082
 21
240.2332329554941
 31
0.0
  0
LINE
  5
12B3
330
1F
100
AcDbEntity
  8
0
 62
     7
100
AcDbLine
 10
457.3879218357832
 20
240.2332329554941
 30
0.0
 11
433.8972907322673
 21
240.2332329554941
 31
0.0
  0
POLYLINE
  5
12B4
330
1F
100
AcDbEntity
  8
0
 62
     7
100
AcDb2dPolyline
 66
     1
 10
0.0
 20
0.0
 30
0.0
  0
VERTEX
  5
12B5
330
12B4
100
AcDbEntity
  8
0
100
AcDbVertex
100
AcDb2dVertex
 10
452.5267157810956
 20
241.17633293108
 30
0.0
  0
VERTEX
  5
12B6
330
12B4
100
AcDbEntity
  8
0
100
AcDbVertex
100
AcDb2dVertex
 10
453.3556952732832
 20
240.8842491908456
 30
0.0
  0
VERTEX
  5
12B7
330
12B4
100
AcDbEntity
  8
0
100
AcDbVertex
100
AcDb2dVertex
 10
454.1757636326582
 20
240.6599144740487
 30
0.0
  0
VERTEX
  5
12B8
330
12B4
100
AcDbEntity
  8
0
100
AcDbVertex
100
AcDb2dVertex
 10
455.0435309666425
 20
240.5016197963144
 30
0.0
  0
VERTEX
  5
12B9
330
12B4
100
AcDbEntity
  8
0
100
AcDbVertex
100
AcDb2dVertex
 10
455.9040351170331
 20
240.4320702357675
 30
0.0
  0
VERTEX
  5
12BA
330
12B4
100
AcDbEntity
  8
0
100
AcDbVertex
100
AcDb2dVertex
 10
456.9802527684003
 20
240.4725518031503
 30
0.0
  0
VERTEX
  5
12BB
330
12B4
100
AcDbEntity
  8
0
100
AcDbVertex
100
AcDb2dVertex
 10
458.0654731053144
 20
240.6532463832284
 30
0.0
  0
VERTEX
  5
12BC
330
12B4
100
AcDbEntity
  8
0
100
AcDbVertex
100
AcDb2dVertex
 10
458.8998847264082
 20
240.8796257777597
 30
0.0
  0
VERTEX
  5
12BD
330
12B4
100
AcDbEntity
  8
0
100
AcDbVertex
100
AcDb2dVertex
 10
459.743588950041
 20
241.17633293108
 30
0.0
  0
SEQEND
  5
12BE
330
12B4
100
AcDbEntity
  8
0
  0
POLYLINE
  5
12BF
330
1F
100
AcDbEntity
  8
0
 62
     7
100
AcDb2dPolyline
 66
     1
 10
0.0
 20
0.0
 30
0.0
  0
VERTEX
  5
12C0
330
12BF
100
AcDbEntity
  8
0
100
AcDbVertex
100
AcDb2dVertex
 10
452.5267157810956
 20
241.17633293108
 30
0.0
  0
VERTEX
  5
12C1
330
12BF
100
AcDbEntity
  8
0
100
AcDbVertex
100
AcDb2dVertex
 10
452.450879599455
 20
241.1951622767831
 30
0.0
  0
VERTEX
  5
12C2
330
12BF
100
AcDbEntity
  8
0
100
AcDbVertex
100
AcDb2dVertex
 10
452.2503485935954
 20
241.1982445521737
 30
0.0
  0
VERTEX
  5
12C3
330
12BF
100
AcDbEntity
  8
0
100
AcDbVertex
100
AcDb2dVertex
 10
452.0937018650799
 20
241.17633293108
 30
0.0
  0
SEQEND
  5
12C4
330
12BF
100
AcDbEntity
  8
0
  0
POLYLINE
  5
12C5
330
1F
100
AcDbEntity
  8
0
 62
     7
100
AcDb2dPolyline
 66
     1
 10
0.0
 20
0.0
 30
0.0
  0
VERTEX
  5
12C6
330
12C5
100
AcDbEntity
  8
0
100
AcDbVertex
100
AcDb2dVertex
 10
437.6599250096113
 20
241.17633293108
 30
0.0
  0
VERTEX
  5
12C7
330
12C5
100
AcDbEntity
  8
0
100
AcDbVertex
100
AcDb2dVertex
 10
439.3179450291425
 20
240.8842491908456
 30
0.0
  0
VERTEX
  5
12C8
330
12C5
100
AcDbEntity
  8
0
100
AcDbVertex
100
AcDb2dVertex
 10
440.9580207127363
 20
240.6599144740487
 30
0.0
  0
VERTEX
  5
12C9
330
12C5
100
AcDbEntity
  8
0
100
AcDbVertex
100
AcDb2dVertex
 10
442.693555380705
 20
240.5016197963144
 30
0.0
  0
VERTEX
  5
12CA
330
12C5
100
AcDbEntity
  8
0
100
AcDbVertex
100
AcDb2dVertex
 10
444.4145941990644
 20
240.4320702357675
 30
0.0
  0
VERTEX
  5
12CB
330
12C5
100
AcDbEntity
  8
0
100
AcDbVertex
100
AcDb2dVertex
 10
446.5670295017988
 20
240.4725518031503
 30
0.0
  0
VERTEX
  5
12CC
330
12C5
100
AcDbEntity
  8
0
100
AcDbVertex
100
AcDb2dVertex
 10
448.7374701756269
 20
240.6532463832284
 30
0.0
  0
VERTEX
  5
12CD
330
12C5
100
AcDbEntity
  8
0
100
AcDbVertex
100
AcDb2dVertex
 10
450.4062934178143
 20
240.8796257777597
 30
0.0
  0
VERTEX
  5
12CE
330
12C5
100
AcDbEntity
  8
0
100
AcDbVertex
100
AcDb2dVertex
 10
452.0937018650799
 20
241.17633293108
 30
0.0
  0
SEQEND
  5
12CF
330
12C5
100
AcDbEntity
  8
0
  0
POLYLINE
  5
12D0
330
1F
100
AcDbEntity
  8
0
 62
     7
100
AcDb2dPolyline
 66
     1
 10
0.0
 20
0.0
 30
0.0
  0
VERTEX
  5
12D1
330
12D0
100
AcDbEntity
  8
0
100
AcDbVertex
100
AcDb2dVertex
 10
437.6599250096113
 20
241.17633293108
 30
0.0
  0
VERTEX
  5
12D2
330
12D0
100
AcDbEntity
  8
0
100
AcDbVertex
100
AcDb2dVertex
 10
437.4388556736738
 20
241.2018914027597
 30
0.0
  0
VERTEX
  5
12D3
330
12D0
100
AcDbEntity
  8
0
100
AcDbVertex
100
AcDb2dVertex
 10
437.2269110935956
 20
241.17633293108
 30
0.0
  0
SEQEND
  5
12D4
330
12D0
100
AcDbEntity
  8
0
  0
POLYLINE
  5
12D5
330
1F
100
AcDbEntity
  8
0
 62
     7
100
AcDb2dPolyline
 66
     1
 10
0.0
 20
0.0
 30
0.0
  0
VERTEX
  5
12D6
330
12D5
100
AcDbEntity
  8
0
100
AcDbVertex
100
AcDb2dVertex
 10
433.465070273283
 20
240.43023918108
 30
0.0
  0
VERTEX
  5
12D7
330
12D5
100
AcDbEntity
  8
0
100
AcDbVertex
100
AcDb2dVertex
 10
434.5227484959393
 20
240.4788689418222
 30
0.0
  0
VERTEX
  5
12D8
330
12D5
100
AcDbEntity
  8
0
100
AcDbVertex
100
AcDb2dVertex
 10
435.5897040623457
 20
240.6626457972909
 30
0.0
  0
VERTEX
  5
12D9
330
12D5
100
AcDbEntity
  8
0
100
AcDbVertex
100
AcDb2dVertex
 10
436.4039130467205
 20
240.8861260219003
 30
0.0
  0
VERTEX
  5
12DA
330
12D5
100
AcDbEntity
  8
0
100
AcDbVertex
100
AcDb2dVertex
 10
437.2269110935956
 20
241.17633293108
 30
0.0
  0
SEQEND
  5
12DB
330
12D5
100
AcDbEntity
  8
0
  0
LINE
  5
12DC
330
1F
100
AcDbEntity
  8
0
 62
     7
 48
0.0017959690741944
100
AcDbLine
 10
459.8105750340253
 20
241.2022881312753
 30
0.0
 11
459.743588950041
 21
241.17633293108
 31
0.0
  0
POLYLINE
  5
12DD
330
1F
100
AcDbEntity
  8
0
 62
     7
100
AcDb2dPolyline
 66
     1
 10
0.0
 20
0.0
 30
0.0
  0
VERTEX
  5
12DE
330
12DD
100
AcDbEntity
  8
0
100
AcDbVertex
100
AcDb2dVertex
 10
433.465070273283
 20
240.43023918108
 30
0.0
  0
VERTEX
  5
12DF
330
12DD
100
AcDbEntity
  8
0
100
AcDbVertex
100
AcDb2dVertex
 10
432.46186592758
 20
240.5104698939706
 30
0.0
  0
VERTEX
  5
12E0
330
12DD
100
AcDbEntity
  8
0
100
AcDbVertex
100
AcDb2dVertex
 10
431.4484992283611
 20
240.7109093470956
 30
0.0
  0
VERTEX
  5
12E1
330
12DD
100
AcDbEntity
  8
0
100
AcDbVertex
100
AcDb2dVertex
 10
430.7326178807048
 20
240.9182610316659
 30
0.0
  0
VERTEX
  5
12E2
330
12DD
100
AcDbEntity
  8
0
100
AcDbVertex
100
AcDb2dVertex
 10
430.0100531834394
 20
241.17633293108
 30
0.0
  0
SEQEND
  5
12E3
330
12DD
100
AcDbEntity
  8
0
  0
LINE
  5
12E4
330
1F
100
AcDbEntity
  8
0
 62
     7
 48
0.0017959690741944
100
AcDbLine
 10
430.0100531834394
 20
241.17633293108
 30
0.0
 11
429.9430670994548
 21
241.2022881312753
 31
0.0
  0
LINE
  5
12E5
330
1F
100
AcDbEntity
  8
0
 62
     7
 48
0.2514225006103516
100
AcDbLine
 10
430.0100531834394
 20
241.17633293108
 30
0.0
 11
430.0100531834394
 21
251.233232955494
 31
0.0
  0
LINE
  5
12E6
330
1F
100
AcDbEntity
  8
0
 62
     7
 48
0.0016746520996094
100
AcDbLine
 10
430.0100531834394
 20
251.233232955494
 30
0.0
 11
429.9430670994548
 21
251.233232955494
 31
0.0
  0
LINE
  5
12E7
330
1F
100
AcDbEntity
  8
0
 62
     7
 48
0.2514225006103516
100
AcDbLine
 10
437.2269110935956
 20
241.17633293108
 30
0.0
 11
437.2269110935956
 21
251.233232955494
 31
0.0
  0
LINE
  5
12E8
330
1F
100
AcDbEntity
  8
0
 62
     7
 48
0.1804214477539062
100
AcDbLine
 10
437.2269110935956
 20
251.233232955494
 30
0.0
 11
430.0100531834394
 21
251.233232955494
 31
0.0
  0
LINE
  5
12E9
330
1F
100
AcDbEntity
  8
0
 62
     7
 48
0.2514225006103516
100
AcDbLine
 10
437.6599250096113
 20
241.17633293108
 30
0.0
 11
437.6599250096113
 21
251.233232955494
 31
0.0
  0
LINE
  5
12EA
330
1F
100
AcDbEntity
  8
0
 62
     7
 48
0.0108253479003906
100
AcDbLine
 10
437.6599250096113
 20
251.233232955494
 30
0.0
 11
437.2269110935956
 21
251.233232955494
 31
0.0
  0
LINE
  5
12EB
330
1F
100
AcDbEntity
  8
0
 62
     7
 48
0.2514225006103516
100
AcDbLine
 10
452.0937018650799
 20
241.17633293108
 30
0.0
 11
452.0937018650799
 21
251.233232955494
 31
0.0
  0
LINE
  5
12EC
330
1F
100
AcDbEntity
  8
0
 62
     7
 48
0.3608444213867187
100
AcDbLine
 10
452.0937018650799
 20
251.233232955494
 30
0.0
 11
437.6599250096113
 21
251.233232955494
 31
0.0
  0
LINE
  5
12ED
330
1F
100
AcDbEntity
  8
0
 62
     7
 48
0.2514225006103516
100
AcDbLine
 10
452.5267157810956
 20
241.17633293108
 30
0.0
 11
452.5267157810956
 21
251.233232955494
 31
0.0
  0
LINE
  5
12EE
330
1F
100
AcDbEntity
  8
0
 62
     7
 48
0.0108253479003906
100
AcDbLine
 10
452.5267157810956
 20
251.233232955494
 30
0.0
 11
452.0937018650799
 21
251.233232955494
 31
0.0
  0
LINE
  5
12EF
330
1F
100
AcDbEntity
  8
0
 62
     7
 48
0.2514225006103516
100
AcDbLine
 10
459.743588950041
 20
241.17633293108
 30
0.0
 11
459.743588950041
 21
251.233232955494
 31
0.0
  0
LINE
  5
12F0
330
1F
100
AcDbEntity
  8
0
 62
     7
 48
0.1804218292236328
100
AcDbLine
 10
459.743588950041
 20
251.233232955494
 30
0.0
 11
452.5267157810956
 21
251.233232955494
 31
0.0
  0
LINE
  5
12F1
330
1F
100
AcDbEntity
  8
0
 62
     7
 48
0.0016746520996094
100
AcDbLine
 10
459.8105750340253
 20
251.233232955494
 30
0.0
 11
459.743588950041
 21
251.233232955494
 31
0.0
  0
ELLIPSE
  5
12F2
330
1F
100
AcDbEntity
  8
0
 62
     7
100
AcDbEllipse
 10
460.609601523283
 20
251.233232955494
 30
0.0
 11
-0.0000000000000001
 21
-1.0
 31
0.0
210
0.0
220
0.0
230
1.0
 40
0.8660254037844442
 41
3.141592653589793
 42
4.712388980384687
  0
ELLIPSE
  5
12F3
330
1F
100
AcDbEntity
  8
0
 62
     7
100
AcDbEllipse
 10
453.3927436131269
 20
251.233232955494
 30
0.0
 11
-0.0000000000000001
 21
-1.0
 31
0.0
210
0.0
220
0.0
230
1.0
 40
0.866025403784439
 41
3.14159265358979
 42
4.712388980384687
  0
LINE
  5
12F4
330
1F
100
AcDbEntity
  8
0
 62
     7
 48
0.025
100
AcDbLine
 10
452.0937018650799
 20
251.233232955494
 30
0.0
 11
452.0937018650799
 21
252.2332329554941
 31
0.0
  0
LINE
  5
12F5
330
1F
100
AcDbEntity
  8
0
 62
     7
 48
0.025
100
AcDbLine
 10
437.6599250096113
 20
251.233232955494
 30
0.0
 11
437.6599250096113
 21
252.2332329554941
 31
0.0
  0
ELLIPSE
  5
12F6
330
1F
100
AcDbEntity
  8
0
 62
     7
100
AcDbEllipse
 10
436.3608832615644
 20
251.233232955494
 30
0.0
 11
-0.0000000000000001
 21
-1.0
 31
0.0
210
0.0
220
0.0
230
1.0
 40
0.8660254037844364
 41
1.570796326794895
 42
3.141592653589794
  0
ELLIPSE
  5
12F7
330
1F
100
AcDbEntity
  8
0
 62
     7
100
AcDbEllipse
 10
429.1440253514081
 20
251.233232955494
 30
0.0
 11
-0.0000000000000001
 21
-1.0
 31
0.0
210
0.0
220
0.0
230
1.0
 40
0.8660254037844389
 41
1.570796326794897
 42
3.14159265358979
  0
LINE
  5
12F8
330
1F
100
AcDbEntity
  8
0
 62
     7
 48
0.0811012268066406
100
AcDbLine
 10
421.6208625096113
 20
252.2332329554941
 30
0.0
 11
418.3768134373456
 21
252.2332329554941
 31
0.0
  0
LINE
  5
12F9
330
1F
100
AcDbEntity
  8
0
 62
     7
100
AcDbLine
 10
471.3768134373457
 20
252.2332329554941
 30
0.0
 11
421.6208625096113
 21
252.2332329554941
 31
0.0
  0
LINE
  5
12FA
330
1F
100
AcDbEntity
  8
0
 62
     7
 48
0.0872222900390625
100
AcDbLine
 10
419.8657050389082
 20
254.2332329554941
 30
0.0
 11
416.3768134373456
 21
254.2332329554941
 31
0.0
  0
LINE
  5
12FB
330
1F
100
AcDbEntity
  8
0
 62
     7
100
AcDbLine
 10
473.3768134373455
 20
254.2332329554941
 30
0.0
 11
419.8657050389082
 21
254.2332329554941
 31
0.0
  0
LINE
  5
12FC
330
1F
100
AcDbEntity
  8
0
 62
     7
100
AcDbLine
 10
473.3768134373455
 20
264.733232955494
 30
0.0
 11
419.8657050389082
 21
264.733232955494
 31
0.0
  0
LINE
  5
12FD
330
1F
100
AcDbEntity
  8
0
 62
     7
 48
0.0872222900390625
100
AcDbLine
 10
419.8657050389082
 20
264.733232955494
 30
0.0
 11
416.3768134373456
 21
264.733232955494
 31
0.0
  0
LINE
  5
12FE
330
1F
100
AcDbEntity
  8
0
 62
     7
 48
0.0918128967285156
100
AcDbLine
 10
418.5493293064863
 20
266.233232955494
 30
0.0
 11
414.8768134373455
 21
266.233232955494
 31
0.0
  0
LINE
  5
12FF
330
1F
100
AcDbEntity
  8
0
 62
     7
100
AcDbLine
 10
444.8768134373456
 20
266.233232955494
 30
0.0
 11
418.5493293064863
 21
266.233232955494
 31
0.0
  0
LINE
  5
1300
330
1F
100
AcDbEntity
  8
0
 62
     7
100
AcDbLine
 10
474.8768134373456
 20
266.233232955494
 30
0.0
 11
444.8768134373456
 21
266.233232955494
 31
0.0
  0
LINE
  5
1301
330
1F
100
AcDbEntity
  8
0
 62
     7
100
AcDbLine
 10
476.3768134373457
 20
267.733232955494
 30
0.0
 11
444.8768134373456
 21
267.733232955494
 31
0.0
  0
LINE
  5
1302
330
1F
100
AcDbEntity
  8
0
 62
     7
100
AcDbLine
 10
444.8768134373456
 20
267.733232955494
 30
0.0
 11
413.3768134373457
 21
267.733232955494
 31
0.0
  0
ARC
  5
1303
330
1F
100
AcDbEntity
  8
0
 62
     7
100
AcDbCircle
 10
476.2767310398847
 20
270.1331505580331
 30
0.0
 40
0.1000711528630453
100
AcDbArc
 50
0.0460807818510072
 51
89.95391588324279
  0
ARC
  5
1304
330
1F
100
AcDbEntity
  8
0
 62
     7
100
AcDbCircle
 10
413.4768805760175
 20
270.1331505580331
 30
0.0
 40
0.1000711528630585
100
AcDbArc
 50
90.0460841167572
 51
179.9539192181473
  0
LINE
  5
1305
330
1F
100
AcDbEntity
  8
0
 62
     7
 48
0.0652318770457624
100
AcDbLine
 10
457.3879218357832
 20
240.2332329554941
 30
0.0
 11
459.8105750340253
 21
241.2022881312753
 31
0.0
  0
LINE
  5
1306
330
1F
100
AcDbEntity
  8
0
 62
     7
 48
0.0652315228598591
100
AcDbLine
 10
432.3657050389082
 20
240.2332329554941
 30
0.0
 11
429.9430670994548
 21
241.2022881312753
 31
0.0
  0
LINE
  5
1307
330
1F
100
AcDbEntity
  8
0
 62
     7
 48
0.2507736206054687
100
AcDbLine
 10
429.9430670994548
 20
241.2022881312753
 30
0.0
 11
429.9430670994548
 21
251.233232955494
 31
0.0
  0
LINE
  5
1308
330
1F
100
AcDbEntity
  8
0
 62
     7
 48
0.2507736206054687
100
AcDbLine
 10
459.8105750340253
 20
241.2022881312753
 30
0.0
 11
459.8105750340253
 21
251.233232955494
 31
0.0
  0
ARC
  5
1309
330
1F
100
AcDbEntity
  8
0
 62
     7
100
AcDbCircle
 10
460.8105750340254
 20
251.233232955494
 30
0.0
 40
1.0
100
AcDbArc
 50
89.99999999999349
 51
180.0000025044784
  0
ARC
  5
130A
330
1F
100
AcDbEntity
  8
0
 62
     7
100
AcDbCircle
 10
428.9430670994549
 20
251.233232955494
 30
0.0
 40
1.0
100
AcDbArc
 50
359.9999974955216
 51
90.00000000000651
  0
ARC
  5
130B
330
1F
100
AcDbEntity
  8
0
 62
     7
100
AcDbCircle
 10
418.3768134373456
 20
254.2332329554941
 30
0.0
 40
1.9999999994454
100
AcDbArc
 50
180.0000025044784
 51
269.9999949910431
  0
ARC
  5
130C
330
1F
100
AcDbEntity
  8
0
 62
     7
100
AcDbCircle
 10
471.3768134373457
 20
254.2332329554941
 30
0.0
 40
1.9999999994454
100
AcDbArc
 50
270.0000050089569
 51
359.9999974955216
  0
LINE
  5
130D
330
1F
100
AcDbEntity
  8
0
 62
     7
 48
0.2625
100
AcDbLine
 10
473.3768134373455
 20
254.2332329554941
 30
0.0
 11
473.3768134373455
 21
264.733232955494
 31
0.0
  0
LINE
  5
130E
330
1F
100
AcDbEntity
  8
0
 62
     7
 48
0.2625
100
AcDbLine
 10
416.3768134373456
 20
254.2332329554941
 30
0.0
 11
416.3768134373456
 21
264.733232955494
 31
0.0
  0
ARC
  5
130F
330
1F
100
AcDbEntity
  8
0
 62
     7
100
AcDbCircle
 10
414.8768134373455
 20
264.733232955494
 30
0.0
 40
1.500000022193243
100
AcDbArc
 50
359.9999974955216
 51
89.99999926366323
  0
ARC
  5
1310
330
1F
100
AcDbEntity
  8
0
 62
     7
100
AcDbCircle
 10
474.8768134373456
 20
264.733232955494
 30
0.0
 40
1.500000022193251
100
AcDbArc
 50
90.00000073633676
 51
180.0000025044784
  0
LINE
  5
1311
330
1F
100
AcDbEntity
  8
0
 62
     7
 48
0.0599998474121094
100
AcDbLine
 10
476.3768134373457
 20
267.733232955494
 30
0.0
 11
476.3768134373457
 21
270.1332268519784
 31
0.0
  0
LINE
  5
1312
330
1F
100
AcDbEntity
  8
0
 62
     7
 48
0.0599998474121094
100
AcDbLine
 10
413.3768134373457
 20
267.733232955494
 30
0.0
 11
413.3768134373457
 21
270.1332268519784
 31
0.0
  0
ARC
  5
1313
330
1F
100
AcDbEntity
  8
0
 62
     7
100
AcDbCircle
 10
414.8768134373455
 20
267.733232955494
 30
0.0
 40
1.499999999374088
100
AcDbArc
 50
180.0000025044784
 51
269.9999949910431
  0
ARC
  5
1314
330
1F
100
AcDbEntity
  8
0
 62
     7
100
AcDbCircle
 10
474.8768134373456
 20
267.733232955494
 30
0.0
 40
1.499999999374074
100
AcDbArc
 50
270.0000050089569
 51
359.9999974955216
  0
LINE
  5
1315
330
1F
100
AcDbEntity
  8
0
 62
     7
 48
0.0176776695296637
100
AcDbLine
 10
398.8768134373459
 20
342.9022393031503
 30
0.0
 11
399.3768134373459
 21
342.4022393031503
 31
0.0
  0
LINE
  5
1316
330
1F
100
AcDbEntity
  8
0
 62
     7
 48
0.0176776695296637
100
AcDbLine
 10
398.8768134373459
 20
358.5642266078378
 30
0.0
 11
399.3768134373459
 21
359.0642266078378
 31
0.0
  0
LINE
  5
1317
330
1F
100
AcDbEntity
  8
0
 62
     7
 48
0.3915496826171875
100
AcDbLine
 10
398.8768134373459
 20
342.9022393031503
 30
0.0
 11
398.8768134373459
 21
358.5642266078378
 31
0.0
  0
LINE
  5
1318
330
1F
100
AcDbEntity
  8
0
 62
     7
 48
0.4165496826171875
100
AcDbLine
 10
399.3768134373459
 20
342.4022393031503
 30
0.0
 11
399.3768134373459
 21
359.0642266078378
 31
0.0
  0
LINE
  5
1319
330
1F
100
AcDbEntity
  8
0
 62
     7
 48
0.0125
100
AcDbLine
 10
399.3768134373459
 20
342.4022393031503
 30
0.0
 11
399.8768134373459
 21
342.4022393031503
 31
0.0
  0
LINE
  5
131A
330
1F
100
AcDbEntity
  8
0
 62
     7
 48
0.0125
100
AcDbLine
 10
399.3768134373459
 20
359.0642266078378
 30
0.0
 11
399.8768134373459
 21
359.0642266078378
 31
0.0
  0
LINE
  5
131B
330
1F
100
AcDbEntity
  8
0
 62
     7
 48
0.0125
100
AcDbLine
 10
398.8768134373459
 20
358.2082390590096
 30
0.0
 11
399.3768134373459
 21
358.2082390590096
 31
0.0
  0
LINE
  5
131C
330
1F
100
AcDbEntity
  8
0
 62
     7
 48
0.0125
100
AcDbLine
 10
399.3768134373459
 20
358.2082390590096
 30
0.0
 11
399.8768134373459
 21
358.2082390590096
 31
0.0
  0
LINE
  5
131D
330
1F
100
AcDbEntity
  8
0
 62
     7
 48
0.0125
100
AcDbLine
 10
398.8768134373459
 20
343.2582268519784
 30
0.0
 11
399.3768134373459
 21
343.2582268519784
 31
0.0
  0
LINE
  5
131E
330
1F
100
AcDbEntity
  8
0
 62
     7
 48
0.0125
100
AcDbLine
 10
399.3768134373459
 20
343.2582268519784
 30
0.0
 11
399.8768134373459
 21
343.2582268519784
 31
0.0
  0
LINE
  5
131F
330
1F
100
AcDbEntity
  8
0
 62
     7
 48
0.2369377136230469
100
AcDbLine
 10
399.8768134373459
 20
350.7332329554941
 30
0.0
 11
399.8768134373459
 21
341.2557244105721
 31
0.0
  0
LINE
  5
1320
330
1F
100
AcDbEntity
  8
0
 62
     7
 48
0.2369377136230469
100
AcDbLine
 10
399.8768134373459
 20
360.2107415004159
 30
0.0
 11
399.8768134373459
 21
350.7332329554941
 31
0.0
  0
LINE
  5
1321
330
1F
100
AcDbEntity
  8
0
 62
     7
 48
0.2619377136230469
100
AcDbLine
 10
400.8768134373458
 20
350.7332329554941
 30
0.0
 11
400.8768134373458
 21
340.2557244105722
 31
0.0
  0
LINE
  5
1322
330
1F
100
AcDbEntity
  8
0
 62
     7
 48
0.2619377136230469
100
AcDbLine
 10
400.8768134373458
 20
361.2107415004159
 30
0.0
 11
400.8768134373458
 21
350.7332329554941
 31
0.0
  0
LINE
  5
1323
330
1F
100
AcDbEntity
  8
0
 62
     7
 48
0.2539019073701838
100
AcDbLine
 10
444.8768134373456
 20
356.483232955494
 30
0.0
 11
436.5052314060957
 21
350.7332329554941
 31
0.0
  0
POLYLINE
  5
1324
330
1F
100
AcDbEntity
  8
0
 62
     7
100
AcDb2dPolyline
 66
     1
 10
0.0
 20
0.0
 30
0.0
  0
VERTEX
  5
1325
330
1324
100
AcDbEntity
  8
0
100
AcDbVertex
100
AcDb2dVertex
 10
444.8768134373456
 20
356.483232955494
 30
0.0
  0
VERTEX
  5
1326
330
1324
100
AcDbEntity
  8
0
100
AcDbVertex
100
AcDb2dVertex
 10
444.2664008396894
 20
355.8212456508065
 30
0.0
  0
VERTEX
  5
1327
330
1324
100
AcDbEntity
  8
0
100
AcDbVertex
100
AcDb2dVertex
 10
442.9703498142988
 20
354.4469475551034
 30
0.0
  0
VERTEX
  5
1328
330
1324
100
AcDbEntity
  8
0
100
AcDbVertex
100
AcDb2dVertex
 10
440.4633307713298
 20
351.8741936488534
 30
0.0
  0
VERTEX
  5
1329
330
1324
100
AcDbEntity
  8
0
100
AcDbVertex
100
AcDb2dVertex
 10
437.8042731541425
 20
349.233232955494
 30
0.0
  0
SEQEND
  5
132A
330
1324
100
AcDbEntity
  8
0
  0
LINE
  5
132B
330
1F
100
AcDbEntity
  8
0
 62
     7
 48
0.14375
100
AcDbLine
 10
444.8768134373456
 20
362.233232955494
 30
0.0
 11
444.8768134373456
 21
356.483232955494
 31
0.0
  0
LINE
  5
132C
330
1F
100
AcDbEntity
  8
0
 62
     7
 48
0.2185028076171875
100
AcDbLine
 10
444.8768134373456
 20
356.483232955494
 30
0.0
 11
453.6169257420332
 21
356.483232955494
 31
0.0
  0
LINE
  5
132D
330
1F
100
AcDbEntity
  8
0
 62
     7
100
AcDbLine
 10
436.5052314060957
 20
350.7332329554941
 30
0.0
 11
419.7620673435956
 21
339.233232955494
 31
0.0
  0
POLYLINE
  5
132E
330
1F
100
AcDbEntity
  8
0
 62
     7
100
AcDb2dPolyline
 66
     1
 10
0.0
 20
0.0
 30
0.0
  0
VERTEX
  5
132F
330
132E
100
AcDbEntity
  8
0
100
AcDbVertex
100
AcDb2dVertex
 10
437.8042731541425
 20
349.233232955494
 30
0.0
  0
VERTEX
  5
1330
330
132E
100
AcDbEntity
  8
0
100
AcDbVertex
100
AcDb2dVertex
 10
434.2122016209394
 20
345.761553267994
 30
0.0
  0
VERTEX
  5
1331
330
132E
100
AcDbEntity
  8
0
100
AcDbVertex
100
AcDb2dVertex
 10
430.5542121189863
 20
342.3035759730721
 30
0.0
  0
VERTEX
  5
1332
330
132E
100
AcDbEntity
  8
0
100
AcDbVertex
100
AcDb2dVertex
 10
426.9612555760175
 20
338.9600701136972
 30
0.0
  0
VERTEX
  5
1333
330
132E
100
AcDbEntity
  8
0
100
AcDbVertex
100
AcDb2dVertex
 10
422.3601508396894
 20
334.733232955494
 30
0.0
  0
SEQEND
  5
1334
330
132E
100
AcDbEntity
  8
0
  0
LINE
  5
1335
330
1F
100
AcDbEntity
  8
0
 62
     7
100
AcDbLine
 10
420.0107856053143
 20
330.6640190883066
 30
0.0
 11
466.6988044041423
 21
330.6640190883066
 31
0.0
  0
LINE
  5
1336
330
1F
100
AcDbEntity
  8
0
 62
     7
 48
0.0304794311523438
100
AcDbLine
 10
453.6169257420332
 20
356.483232955494
 30
0.0
 11
454.8361029881269
 21
356.483232955494
 31
0.0
  0
LINE
  5
1337
330
1F
100
AcDbEntity
  8
0
 62
     7
 48
0.0761009216308594
100
AcDbLine
 10
466.6988044041423
 20
330.6640190883066
 30
0.0
 11
469.7428412693769
 21
330.6640190883066
 31
0.0
  0
LINE
  5
1338
330
1F
100
AcDbEntity
  8
0
 62
     7
100
AcDbLine
 10
413.3768134373457
 20
272.8901085658456
 30
0.0
 11
472.5206580418379
 21
272.8901085658456
 31
0.0
  0
LINE
  5
1339
330
1F
100
AcDbEntity
  8
0
 62
     7
100
AcDbLine
 10
414.6200995701581
 20
274.7414269252206
 30
0.0
 11
471.4295935887128
 21
274.7414269252206
 31
0.0
  0
LINE
  5
133A
330
1F
100
AcDbEntity
  8
0
 62
     7
 48
0.0964038848876953
100
AcDbLine
 10
472.5206580418379
 20
272.8901085658456
 30
0.0
 11
476.3768134373457
 21
272.8901085658456
 31
0.0
  0
LINE
  5
133B
330
1F
100
AcDbEntity
  8
0
 62
     7
 48
0.0925987243652344
100
AcDbLine
 10
471.4295935887128
 20
274.7414269252206
 30
0.0
 11
475.1335425633222
 21
274.7414269252206
 31
0.0
  0
LINE
  5
133C
330
1F
100
AcDbEntity
  8
0
 62
     7
 48
0.0803157806396485
100
AcDbLine
 10
467.9074530857831
 20
276.381914596119
 30
0.0
 11
471.1200843113691
 21
276.381914596119
 31
0.0
  0
LINE
  5
133D
330
1F
100
AcDbEntity
  8
0
 62
     7
100
AcDbLine
 10
418.633527304533
 20
276.381914596119
 30
0.0
 11
467.9074530857831
 21
276.381914596119
 31
0.0
  0
LINE
  5
133E
330
1F
100
AcDbEntity
  8
0
 62
     7
 48
0.0765110015869141
100
AcDbLine
 10
466.816373373869
 20
278.233232955494
 30
0.0
 11
469.8768134373456
 21
278.233232955494
 31
0.0
  0
LINE
  5
133F
330
1F
100
AcDbEntity
  8
0
 62
     7
100
AcDbLine
 10
419.8768134373456
 20
278.233232955494
 30
0.0
 11
466.816373373869
 21
278.233232955494
 31
0.0
  0
LINE
  5
1340
330
1F
100
AcDbEntity
  8
0
 62
     7
 48
0.0765110015869141
100
AcDbLine
 10
466.816373373869
 20
330.1640190883065
 30
0.0
 11
469.8768134373456
 21
330.1640190883065
 31
0.0
  0
LINE
  5
1341
330
1F
100
AcDbEntity
  8
0
 62
     7
100
AcDbLine
 10
419.8768134373456
 20
330.1640190883065
 30
0.0
 11
466.816373373869
 21
330.1640190883065
 31
0.0
  0
LINE
  5
1342
330
1F
100
AcDbEntity
  8
0
 62
     7
100
AcDbLine
 10
413.3768134373457
 20
270.3332390590097
 30
0.0
 11
472.5206580418379
 21
270.3332390590097
 31
0.0
  0
LINE
  5
1343
330
1F
100
AcDbEntity
  8
0
 62
     7
 48
0.0964038848876953
100
AcDbLine
 10
472.5206580418379
 20
270.3332390590097
 30
0.0
 11
476.3768134373457
 21
270.3332390590097
 31
0.0
  0
LINE
  5
1344
330
1F
100
AcDbEntity
  8
0
 62
     7
100
AcDbLine
 10
413.4768195408613
 20
270.233232955494
 30
0.0
 11
472.4329047459394
 21
270.233232955494
 31
0.0
  0
LINE
  5
1345
330
1F
100
AcDbEntity
  8
0
 62
     7
 48
0.0960975646972656
100
AcDbLine
 10
472.4329047459394
 20
270.233232955494
 30
0.0
 11
476.27680733383
 21
270.233232955494
 31
0.0
  0
LINE
  5
1346
330
1F
100
AcDbEntity
  8
0
 62
     7
 48
0.2875
100
AcDbLine
 10
412.9768195408613
 20
362.233232955494
 30
0.0
 11
412.9768195408613
 21
350.7332329554941
 31
0.0
  0
LINE
  5
1347
330
1F
100
AcDbEntity
  8
0
 62
     7
 48
0.2875
100
AcDbLine
 10
412.9768195408613
 20
350.7332329554941
 30
0.0
 11
412.9768195408613
 21
339.233232955494
 31
0.0
  0
LINE
  5
1348
330
1F
100
AcDbEntity
  8
0
 62
     7
 48
0.2849998474121094
100
AcDbLine
 10
412.8768134373457
 20
362.1332268519784
 30
0.0
 11
412.8768134373457
 21
350.7332329554941
 31
0.0
  0
LINE
  5
1349
330
1F
100
AcDbEntity
  8
0
 62
     7
 48
0.2849998474121094
100
AcDbLine
 10
412.8768134373457
 20
350.7332329554941
 30
0.0
 11
412.8768134373457
 21
339.3332390590097
 31
0.0
  0
LINE
  5
134A
330
1F
100
AcDbEntity
  8
0
 62
     7
 48
0.2619377136230469
100
AcDbLine
 10
412.77680733383
 20
350.7332329554941
 30
0.0
 11
412.77680733383
 21
340.2557244105722
 31
0.0
  0
LINE
  5
134B
330
1F
100
AcDbEntity
  8
0
 62
     7
 48
0.2619377136230469
100
AcDbLine
 10
412.77680733383
 20
361.2107415004159
 30
0.0
 11
412.77680733383
 21
350.7332329554941
 31
0.0
  0
LINE
  5
134C
330
1F
100
AcDbEntity
  8
0
 62
     7
 48
0.0353553390593274
100
AcDbLine
 10
399.8768134373459
 20
341.2557244105721
 30
0.0
 11
400.8768134373458
 21
340.2557244105722
 31
0.0
  0
LINE
  5
134D
330
1F
100
AcDbEntity
  8
0
 62
     7
 48
0.0353553390593274
100
AcDbLine
 10
399.8768134373459
 20
360.2107415004159
 30
0.0
 11
400.8768134373458
 21
361.2107415004159
 31
0.0
  0
ARC
  5
134E
330
1F
100
AcDbEntity
  8
0
 62
     7
100
AcDbCircle
 10
419.7620673435956
 20
336.233232955494
 30
0.0
 40
3.000000379431257
100
AcDbArc
 50
330.0000103210765
 51
89.99999237464162
  0
LINE
  5
134F
330
1F
100
AcDbEntity
  8
0
 62
     7
 48
0.1174681299901194
100
AcDbLine
 10
422.3601508396894
 20
334.733232955494
 30
0.0
 11
420.0107856053143
 21
330.6640190883066
 31
0.0
  0
LINE
  5
1350
330
1F
100
AcDbEntity
  8
0
 62
     7
100
AcDbLine
 10
454.8361029881269
 20
356.483232955494
 30
0.0
 11
469.7428412693769
 21
330.6640190883066
 31
0.0
  0
ARC
  5
1351
330
1F
100
AcDbEntity
  8
0
 62
     7
100
AcDbCircle
 10
415.3768134373454
 20
272.8901085658456
 30
0.0
 40
2.000000000009495
100
AcDbArc
 50
112.2322777012223
 51
180.0000025044784
  0
ARC
  5
1352
330
1F
100
AcDbEntity
  8
0
 62
     7
100
AcDbCircle
 10
474.3768134373456
 20
272.8901085658456
 30
0.0
 40
2.000000000009499
100
AcDbArc
 50
359.9999974955216
 51
67.76772229877764
  0
LINE
  5
1353
330
1F
100
AcDbEntity
  8
0
 62
     7
 48
0.1083946693181346
100
AcDbLine
 10
471.1200843113691
 20
276.381914596119
 30
0.0
 11
475.1335425633222
 21
274.7414269252206
 31
0.0
  0
LINE
  5
1354
330
1F
100
AcDbEntity
  8
0
 62
     7
 48
0.1083939630970639
100
AcDbLine
 10
418.633527304533
 20
276.381914596119
 30
0.0
 11
414.6200995701581
 21
274.7414269252206
 31
0.0
  0
ARC
  5
1355
330
1F
100
AcDbEntity
  8
0
 62
     7
100
AcDbCircle
 10
471.8768134373457
 20
278.233232955494
 30
0.0
 40
1.999999986602694
100
AcDbArc
 50
180.0000025044784
 51
247.7677256001896
  0
ARC
  5
1356
330
1F
100
AcDbEntity
  8
0
 62
     7
100
AcDbCircle
 10
417.8768134373457
 20
278.233232955494
 30
0.0
 40
1.999999986602694
100
AcDbArc
 50
292.2322743998103
 51
359.9999974955216
  0
LINE
  5
1357
330
1F
100
AcDbEntity
  8
0
 62
     7
100
AcDbLine
 10
469.8768134373456
 20
330.1640190883065
 30
0.0
 11
469.8768134373456
 21
278.233232955494
 31
0.0
  0
LINE
  5
1358
330
1F
100
AcDbEntity
  8
0
 62
     7
100
AcDbLine
 10
419.8768134373456
 20
330.1640190883065
 30
0.0
 11
419.8768134373456
 21
278.233232955494
 31
0.0
  0
ARC
  5
1359
330
1F
100
AcDbEntity
  8
0
 62
     7
100
AcDbCircle
 10
468.8768134373455
 20
330.1640190883065
 30
0.0
 40
1.000000000359454
100
AcDbArc
 50
359.9999974955216
 51
29.99999833035114
  0
ARC
  5
135A
330
1F
100
AcDbEntity
  8
0
 62
     7
100
AcDbCircle
 10
420.8768134373456
 20
330.1640190883065
 30
0.0
 40
1.000000000359454
100
AcDbArc
 50
150.0000016696488
 51
180.0000025044784
  0
ARC
  5
135B
330
1F
100
AcDbEntity
  8
0
 62
     7
100
AcDbCircle
 10
444.8768134373456
 20
350.7332329554941
 30
0.0
 40
11.49999995799636
100
AcDbArc
 50
29.99999833035114
 51
90.00000008240577
  0
LINE
  5
135C
330
1F
100
AcDbEntity
  8
0
 62
     7
 48
0.0639217376708984
100
AcDbLine
 10
413.3768134373457
 20
272.8901085658456
 30
0.0
 11
413.3768134373457
 21
270.3332390590097
 31
0.0
  0
LINE
  5
135D
330
1F
100
AcDbEntity
  8
0
 62
     7
 48
0.0639217376708984
100
AcDbLine
 10
476.3768134373457
 20
272.8901085658456
 30
0.0
 11
476.3768134373457
 21
270.3332390590097
 31
0.0
  0
ARC
  5
135E
330
1F
100
AcDbEntity
  8
0
 62
     7
100
AcDbCircle
 10
413.4768805760175
 20
270.333315352955
 30
0.0
 40
0.1000711212962392
100
AcDbArc
 50
180.0460653002403
 51
269.9539285528148
  0
ARC
  5
135F
330
1F
100
AcDbEntity
  8
0
 62
     7
100
AcDbCircle
 10
476.2767310398847
 20
270.333315352955
 30
0.0
 40
0.1000711212962421
100
AcDbArc
 50
270.0460714471852
 51
359.9539346997596
  0
LINE
  5
1360
330
1F
100
AcDbEntity
  8
0
 62
     7
100
AcDbLine
 10
444.8768134373456
 20
362.233232955494
 30
0.0
 11
412.9768195408613
 21
362.233232955494
 31
0.0
  0
LINE
  5
1361
330
1F
100
AcDbEntity
  8
0
 62
     7
 48
0.1696311950683594
100
AcDbLine
 10
419.7620673435956
 20
339.233232955494
 30
0.0
 11
412.9768195408613
 21
339.233232955494
 31
0.0
  0
ARC
  5
1362
330
1F
100
AcDbEntity
  8
0
 62
     7
100
AcDbCircle
 10
412.9768805760175
 20
362.1331658168222
 30
0.0
 40
0.1000711528630428
100
AcDbArc
 50
90.0460841167572
 51
179.9539192181473
  0
ARC
  5
1363
330
1F
100
AcDbEntity
  8
0
 62
     7
100
AcDbCircle
 10
412.9768805760175
 20
339.3333000941659
 30
0.0
 40
0.1000711528630594
100
AcDbArc
 50
180.0460857908079
 51
269.9539148924385
  0
LINE
  5
1364
330
1F
100
AcDbEntity
  8
0
 62
     7
 48
0.2974998474121094
100
AcDbLine
 10
412.77680733383
 20
340.2557244105722
 30
0.0
 11
400.8768134373458
 21
340.2557244105722
 31
0.0
  0
LINE
  5
1365
330
1F
100
AcDbEntity
  8
0
 62
     7
 48
0.2974998474121094
100
AcDbLine
 10
412.77680733383
 20
361.2107415004159
 30
0.0
 11
400.8768134373458
 21
361.2107415004159
 31
0.0
  0
ARC
  5
1366
330
1F
100
AcDbEntity
  8
0
 62
     7
100
AcDbCircle
 10
412.7767157810954
 20
361.3108086390878
 30
0.0
 40
0.1000711528630798
100
AcDbArc
 50
270.0460851075615
 51
359.9539142091921
  0
ARC
  5
1367
330
1F
100
AcDbEntity
  8
0
 62
     7
100
AcDbCircle
 10
412.7767157810954
 20
340.1556572719003
 30
0.0
 40
0.1000711528630697
100
AcDbArc
 50
0.0460807818510072
 51
89.95391588324279
  0
LINE
  5
1368
330
1F
100
AcDbEntity
  8
0
 62
     7
 48
0.025
100
AcDbLine
 10
399.8768134373459
 20
341.4177422328378
 30
0.0
 11
400.8768134373458
 21
341.4177422328378
 31
0.0
  0
LINE
  5
1369
330
1F
100
AcDbEntity
  8
0
 62
     7
 48
0.2974998474121094
100
AcDbLine
 10
400.8768134373458
 20
341.4177422328378
 30
0.0
 11
412.77680733383
 21
341.4177422328378
 31
0.0
  0
LINE
  5
136A
330
1F
100
AcDbEntity
  8
0
 62
     7
 48
0.0025001525878906
100
AcDbLine
 10
412.77680733383
 20
341.4177422328378
 30
0.0
 11
412.8768134373457
 21
341.4177422328378
 31
0.0
  0
LINE
  5
136B
330
1F
100
AcDbEntity
  8
0
 62
     7
 48
0.025
100
AcDbLine
 10
399.8768134373459
 20
360.0487236781503
 30
0.0
 11
400.8768134373458
 21
360.0487236781503
 31
0.0
  0
LINE
  5
136C
330
1F
100
AcDbEntity
  8
0
 62
     7
 48
0.2974998474121094
100
AcDbLine
 10
400.8768134373458
 20
360.0487236781503
 30
0.0
 11
412.77680733383
 21
360.0487236781503
 31
0.0
  0
LINE
  5
136D
330
1F
100
AcDbEntity
  8
0
 62
     7
 48
0.0025001525878906
100
AcDbLine
 10
412.77680733383
 20
360.0487236781503
 30
0.0
 11
412.8768134373457
 21
360.0487236781503
 31
0.0
  0
LINE
  5
136E
330
1F
100
AcDbEntity
  8
0
 62
     7
 48
0.2619377136230469
100
AcDbLine
 10
412.8768134373457
 20
350.7332329554941
 30
0.0
 11
412.8768134373457
 21
340.2557244105722
 31
0.0
  0
LINE
  5
136F
330
1F
100
AcDbEntity
  8
0
 62
     7
 48
0.2619354248046875
100
AcDbLine
 10
412.8768134373457
 20
361.2106499476815
 30
0.0
 11
412.8768134373457
 21
350.7332329554941
 31
0.0
  0
DIMENSION
  5
1370
330
1F
100
AcDbEntity
  8
AM_5
100
AcDbDimension
  2
*D15
 10
383.8990286052283
 20
340.2557244105722
 30
0.0
 11
377.3983396288504
 21
321.7557244105722
 31
0.0
 70
    32
  1
R1/2"
 71
     5
 42
20.95501708984375
  3
AM_DIN$0
100
AcDbAlignedDimension
 13
400.8768134373458
 23
361.2107415004159
 33
0.0
 14
400.8768134373458
 24
340.2557244105722
 34
0.0
 50
90.0
100
AcDbRotatedDimension
1001
ACAD
1000
DSTYLE
1002
{
1070
    40
1040
2.0
1002
}
  0
DIMENSION
  5
1371
330
1F
100
AcDbEntity
  8
AM_5
100
AcDbDimension
  2
*D16
 10
476.3768134373457
 20
383.2721056793296
 30
0.0
 11
437.6268134373455
 21
389.7721056793296
 31
0.0
 70
    32
  1
L
 71
     5
 42
77.49999999999977
  3
AM_DIN$0
100
AcDbAlignedDimension
 13
398.8768134373459
 23
350.7332329554941
 33
0.0
 14
476.3768134373457
 24
271.6116738124276
 34
0.0
100
AcDbRotatedDimension
1001
ACAD
1000
DSTYLE
1002
{
1070
    40
1040
2.0
1002
}
  0
DIMENSION
  5
1372
330
1F
100
AcDbEntity
  8
AM_5
100
AcDbDimension
  2
*D17
 10
506.7906621164731
 20
362.233232955494
 30
0.0
 11
506.7906621164731
 21
296.2524752787582
 31
0.0
 70
   160
  1
H
 71
     5
 42
121.9999999999999
  3
AM_DIN$0
100
AcDbAlignedDimension
 13
445.6426062840253
 23
240.2332329554941
 33
0.0
 14
428.9268164891034
 24
362.233232955494
 34
0.0
 50
90.0
100
AcDbRotatedDimension
1001
ACAD
1000
DSTYLE
1002
{
1070
    40
1040
2.0
1002
}
  0
DIMENSION
  5
1373
330
1F
100
AcDbEntity
  8
AM_5
100
AcDbDimension
  2
*D18
 10
454.1757636326582
 20
223.9203890253857
 30
0.0
 11
482.5842774121857
 21
230.4203890253857
 31
0.0
 70
    32
  1
Anschluss
 71
     5
 42
18.5860595703125
  3
AM_DIN$0
100
AcDbAlignedDimension
 13
435.5897040623457
 23
240.2332329554941
 33
0.0
 14
454.1757636326582
 24
240.2332329554941
 34
0.0
100
AcDbRotatedDimension
1001
ACAD
1000
DSTYLE
1002
{
1070
    40
1040
2.0
1002
}
  0
DIMENSION
  5
1374
330
1F
100
AcDbEntity
  8
AM_5
100
AcDbDimension
  2
*D19
 10
413.3768134373457
 20
200.2312259720057
 30
0.0
 11
444.8768134373456
 21
206.7312259720057
 31
0.0
 70
    32
  1
%%c<>
 71
     5
 42
63.0
  3
AM_DIN$0
100
AcDbAlignedDimension
 13
476.3768134373457
 23
268.9332299037362
 33
0.0
 14
413.3768134373457
 24
268.9332299037362
 34
0.0
100
AcDbRotatedDimension
1001
ACAD
1000
DSTYLE
1002
{
1070
    40
1040
2.0
1002
}
  0
MTEXT
  5
1624
330
1F
100
AcDbEntity
  8
0
100
AcDbMText
 10
307.7338924640051
 20
166.9716627918773
 30
0.0
 40
14.0
 41
264.5209046832822
 71
     2
 72
     5
  1
{\Fisocp,bigfont|c0;Exvoid T}
 73
     1
 44
1.0
  0
MTEXT
  5
1625
330
1F
100
AcDbEntity
  8
0
100
AcDbMText
 10
299.8653652336837
 20
138.0588312836996
 30
0.0
 40
14.0
 41
264.5209046832822
 71
     2
 72
     5
  1
{\Fisocp,bigfont|c0; 1/2S}
 73
     1
 44
1.0
  0
MTEXT
  5
1626
330
1F
100
AcDbEntity
  8
0
100
AcDbMText
 10
251.6078398584532
 20
108.9293734523581
 30
0.0
 40
14.0
 41
264.5209046832822
 71
     1
 72
     5
  1
{\Fisocp,bigfont|c0;10\Fisocp,bigfont|c238;bar - \Fisocp,bigfont|c0;180\Fisocp,bigfont|c238;%%DC}
 73
     1
 44
1.0
  0
LINE
  5
1627
330
1F
100
AcDbEntity
  8
LOGO_VON_SCHLASSE_120709
 62
     7
100
AcDbLine
 10
510.7563722146188
 20
83.71673601040578
 30
0.0
 11
510.7563722146188
 21
86.52329383232695
 31
0.0
  0
LINE
  5
1628
330
1F
100
AcDbEntity
  8
LOGO_VON_SCHLASSE_120709
 62
     7
100
AcDbLine
 10
510.7563722146188
 20
86.52329383232695
 30
0.0
 11
508.6526429737956
 21
86.52329383232695
 31
0.0
  0
SPLINE
  5
1629
330
1F
100
AcDbEntity
  8
LOGO_VON_SCHLASSE_120709
 62
     7
100
AcDbSpline
210
0.0
220
0.0
230
1.0
 70
     8
 71
     3
 72
     8
 73
     4
 74
     0
 42
0.0000000001
 43
0.0000000001
 40
8.739716666666684
 40
8.739716666666684
 40
8.739716666666684
 40
8.739716666666684
 40
9.739716666666687
 40
9.739716666666687
 40
9.739716666666687
 40
9.739716666666687
 10
508.6526431298608
 20
86.52329364504835
 30
0.0
 10
505.6589818526727
 20
86.52329364504835
 30
0.0
 10
504.2834515783291
 20
84.68813012773603
 30
0.0
 10
504.2834515783291
 20
81.80050756766195
 30
0.0
  0
LINE
  5
162A
330
1F
100
AcDbEntity
  8
LOGO_VON_SCHLASSE_120709
 62
     7
100
AcDbLine
 10
504.2834516095423
 20
81.80050769251463
 30
0.0
 11
504.2834516095423
 21
72.76541438473959
 31
0.0
  0
LINE
  5
162B
330
1F
100
AcDbEntity
  8
LOGO_VON_SCHLASSE_120709
 62
     7
100
AcDbLine
 10
504.2834516095423
 20
72.76541438473959
 30
0.0
 11
507.2503557031446
 21
72.76541438473959
 31
0.0
  0
LINE
  5
162C
330
1F
100
AcDbEntity
  8
LOGO_VON_SCHLASSE_120709
 62
     7
100
AcDbLine
 10
507.2503557031446
 20
72.76541438473959
 30
0.0
 11
507.2503557031446
 21
81.53075287459911
 31
0.0
  0
SPLINE
  5
162D
330
1F
100
AcDbEntity
  8
LOGO_VON_SCHLASSE_120709
 62
     7
100
AcDbSpline
210
0.0
220
0.0
230
1.0
 70
     8
 71
     3
 72
     8
 73
     4
 74
     0
 42
0.0000000001
 43
0.0000000001
 40
46.70306666666665
 40
46.70306666666665
 40
46.70306666666665
 40
46.70306666666665
 40
47.70306666666665
 40
47.70306666666665
 40
47.70306666666665
 40
47.70306666666665
 10
507.2503554222272
 20
81.53075299945143
 30
0.0
 10
507.2503554222272
 20
82.87992224692368
 30
0.0
 10
507.8166219919381
 20
83.71673619768449
 30
0.0
 10
509.2730191757826
 20
83.71673619768449
 30
0.0
  0
LINE
  5
162E
330
1F
100
AcDbEntity
  8
LOGO_VON_SCHLASSE_120709
 62
     7
100
AcDbLine
 10
509.2730193318483
 20
83.71673601040578
 30
0.0
 11
510.7563722146188
 21
83.71673601040578
 31
0.0
  0
LINE
  5
162F
330
1F
100
AcDbEntity
  8
LOGO_VON_SCHLASSE_120709
 62
     7
100
AcDbLine
 10
522.0021643799401
 20
78.51021536704675
 30
0.0
 11
522.0021643799401
 21
81.20696798661015
 31
0.0
  0
SPLINE
  5
1630
330
1F
100
AcDbEntity
  8
LOGO_VON_SCHLASSE_120709
 62
     7
100
AcDbSpline
210
0.0
220
0.0
230
1.0
 70
     8
 71
     3
 72
     8
 73
     4
 74
     0
 42
0.0000000001
 43
0.0000000001
 40
4.799894444444444
 40
4.799894444444444
 40
4.799894444444444
 40
4.799894444444444
 40
5.799894444444443
 40
5.799894444444443
 40
5.799894444444443
 40
5.799894444444443
 10
522.0021644423667
 20
81.20696823631485
 30
0.0
 10
522.0021644423667
 20
84.39169740751859
 30
0.0
 10
520.3840334395212
 20
86.52357112954176
 30
0.0
 10
517.2012863004132
 20
86.52357112954176
 30
0.0
  0
LINE
  5
1631
330
1F
100
AcDbEntity
  8
LOGO_VON_SCHLASSE_120709
 62
     7
100
AcDbLine
 10
517.2012864252661
 20
86.52357137924672
 30
0.0
 11
516.6352176842068
 21
86.52357137924672
 31
0.0
  0
SPLINE
  5
1632
330
1F
100
AcDbEntity
  8
LOGO_VON_SCHLASSE_120709
 62
     7
100
AcDbSpline
210
0.0
220
0.0
230
1.0
 70
     8
 71
     3
 72
     8
 73
     4
 74
     0
 42
0.0000000001
 43
0.0000000001
 40
6.807427777777782
 40
6.807427777777782
 40
6.807427777777782
 40
6.807427777777782
 40
7.807427777777782
 40
7.807427777777782
 40
7.807427777777782
 40
7.807427777777782
 10
516.6352179339122
 20
86.52357112954176
 30
0.0
 10
513.4255151583032
 20
86.52357112954176
 30
0.0
 10
511.7534728824583
 20
84.39169740751859
 30
0.0
 10
511.7534728824583
 20
81.20696823631485
 30
0.0
  0
LINE
  5
1633
330
1F
100
AcDbEntity
  8
LOGO_VON_SCHLASSE_120709
 62
     7
100
AcDbLine
 10
511.7534730073113
 20
81.20696798661015
 30
0.0
 11
511.7534730073113
 21
78.07872710468789
 31
0.0
  0
SPLINE
  5
1634
330
1F
100
AcDbEntity
  8
LOGO_VON_SCHLASSE_120709
 62
     7
100
AcDbSpline
210
0.0
220
0.0
230
1.0
 70
     8
 71
     3
 72
     8
 73
     4
 74
     0
 42
0.0000000001
 43
0.0000000001
 40
13.37531944444445
 40
13.37531944444445
 40
13.37531944444445
 40
13.37531944444445
 40
14.37531944444445
 40
14.37531944444445
 40
14.37531944444445
 40
14.37531944444445
 10
511.7534728824583
 20
78.07872697983558
 30
0.0
 10
511.7534728824583
 20
74.54555656622588
 30
0.0
 10
513.7222253630142
 20
72.76549354117108
 30
0.0
 10
516.9854430052033
 20
72.76549354117108
 30
0.0
  0
LINE
  5
1635
330
1F
100
AcDbEntity
  8
LOGO_VON_SCHLASSE_120709
 62
     7
100
AcDbLine
 10
516.9854431300563
 20
72.76549360359729
 30
0.0
 11
521.3278770610187
 21
72.76549360359729
 31
0.0
  0
LINE
  5
1636
330
1F
100
AcDbEntity
  8
LOGO_VON_SCHLASSE_120709
 62
     7
100
AcDbLine
 10
521.3278770610187
 20
72.76549360359729
 30
0.0
 11
521.3278770610187
 21
75.40873135657938
 31
0.0
  0
LINE
  5
1637
330
1F
100
AcDbEntity
  8
LOGO_VON_SCHLASSE_120709
 62
     7
100
AcDbLine
 10
521.3278770610187
 20
75.40873135657938
 30
0.0
 11
517.2553957141973
 21
75.40873135657938
 31
0.0
  0
SPLINE
  5
1638
330
1F
100
AcDbEntity
  8
LOGO_VON_SCHLASSE_120709
 62
     7
100
AcDbSpline
210
0.0
220
0.0
230
1.0
 70
     8
 71
     3
 72
     8
 73
     4
 74
     0
 42
0.0000000001
 43
0.0000000001
 40
34.05749722222223
 40
34.05749722222223
 40
34.05749722222223
 40
34.05749722222223
 40
35.05749722222223
 40
35.05749722222223
 40
35.05749722222223
 40
35.05749722222223
 10
517.2553957766227
 20
75.40873154385798
 30
0.0
 10
515.5563978642781
 20
75.40873154385798
 30
0.0
 10
514.7199803199363
 20
76.46039777378129
 30
0.0
 10
514.7199803199363
 20
77.88983932112504
 30
0.0
  0
LINE
  5
1639
330
1F
100
AcDbEntity
  8
LOGO_VON_SCHLASSE_120709
 62
     7
100
AcDbLine
 10
514.7199804447892
 20
77.88983957082994
 30
0.0
 11
514.7199804447892
 21
78.51021536704675
 31
0.0
  0
LINE
  5
163A
330
1F
100
AcDbEntity
  8
LOGO_VON_SCHLASSE_120709
 62
     7
100
AcDbLine
 10
514.7199804447892
 20
78.51021536704675
 30
0.0
 11
522.0021643799401
 21
78.51021536704675
 31
0.0
  0
LINE
  5
163B
330
1F
100
AcDbEntity
  8
LOGO_VON_SCHLASSE_120709
 62
     7
100
AcDbLine
 10
519.0352608481738
 20
80.721766529608
 30
0.0
 11
514.7199804447892
 21
80.721766529608
 31
0.0
  0
LINE
  5
163C
330
1F
100
AcDbEntity
  8
LOGO_VON_SCHLASSE_120709
 62
     7
100
AcDbLine
 10
514.7199804447892
 20
80.721766529608
 30
0.0
 11
514.7199804447892
 21
81.47692113258733
 31
0.0
  0
SPLINE
  5
163D
330
1F
100
AcDbEntity
  8
LOGO_VON_SCHLASSE_120709
 62
     7
100
AcDbSpline
210
0.0
220
0.0
230
1.0
 70
     8
 71
     3
 72
     8
 73
     4
 74
     0
 42
0.0000000001
 43
0.0000000001
 40
9.024761111111118
 40
9.024761111111118
 40
9.024761111111118
 40
9.024761111111118
 40
10.02476111111112
 40
10.02476111111112
 40
10.02476111111112
 40
10.02476111111112
 10
514.7199803199363
 20
81.47692100773495
 30
0.0
 10
514.7199803199363
 20
82.82609025520725
 30
0.0
 10
515.2327320230682
 20
84.04067952338868
 30
0.0
 10
516.6621735704112
 20
84.04067952338868
 30
0.0
  0
LINE
  5
163E
330
1F
100
AcDbEntity
  8
LOGO_VON_SCHLASSE_120709
 62
     7
100
AcDbLine
 10
516.6621734455592
 20
84.04067933610983
 30
0.0
 11
517.1204191412088
 21
84.04067933610983
 31
0.0
  0
SPLINE
  5
163F
330
1F
100
AcDbEntity
  8
LOGO_VON_SCHLASSE_120709
 62
     7
100
AcDbSpline
210
0.0
220
0.0
230
1.0
 70
     8
 71
     3
 72
     8
 73
     4
 74
     0
 42
0.0000000001
 43
0.0000000001
 40
10.84038333333334
 40
10.84038333333334
 40
10.84038333333334
 40
10.84038333333334
 40
11.84038333333335
 40
11.84038333333335
 40
11.84038333333335
 40
11.84038333333335
 10
517.1204193909128
 20
84.04067952338868
 30
0.0
 10
518.5500591414662
 20
84.04067952338868
 30
0.0
 10
519.0352605984686
 20
82.82609025520725
 30
0.0
 10
519.0352605984686
 20
81.47692100773495
 30
0.0
  0
LINE
  5
1640
330
1F
100
AcDbEntity
  8
LOGO_VON_SCHLASSE_120709
 62
     7
100
AcDbLine
 10
519.0352608481738
 20
81.47692113258733
 30
0.0
 11
519.0352608481738
 21
80.721766529608
 31
0.0
  0
LINE
  5
1641
330
1F
100
AcDbEntity
  8
LOGO_VON_SCHLASSE_120709
 62
     7
100
AcDbLine
 10
530.0249547400623
 20
89.1663534833385
 30
0.0
 11
530.0249547400623
 21
91.91721539183275
 31
0.0
  0
LINE
  5
1642
330
1F
100
AcDbEntity
  8
LOGO_VON_SCHLASSE_120709
 62
     7
100
AcDbLine
 10
530.0249547400623
 20
91.91721539183275
 30
0.0
 11
528.0562020722287
 21
91.91721539183275
 31
0.0
  0
SPLINE
  5
1643
330
1F
100
AcDbEntity
  8
LOGO_VON_SCHLASSE_120709
 62
     7
100
AcDbSpline
210
0.0
220
0.0
230
1.0
 70
     8
 71
     3
 72
     8
 73
     4
 74
     0
 42
0.0000000001
 43
0.0000000001
 40
8.400344444444426
 40
8.400344444444426
 40
8.400344444444426
 40
8.400344444444426
 40
9.400344444444426
 40
9.400344444444426
 40
9.400344444444426
 40
9.400344444444426
 10
528.0562021970803
 20
91.91721561032466
 30
0.0
 10
526.0602958768157
 20
91.91721561032466
 30
0.0
 10
524.4958779437612
 20
90.91946065340151
 30
0.0
 10
524.4958779437612
 20
88.03362192221346
 30
0.0
  0
LINE
  5
1644
330
1F
100
AcDbEntity
  8
LOGO_VON_SCHLASSE_120709
 62
     7
100
AcDbLine
 10
524.4958779437623
 20
88.03362214070522
 30
0.0
 11
524.4958779437623
 21
86.52331349658243
 31
0.0
  0
LINE
  5
1645
330
1F
100
AcDbEntity
  8
LOGO_VON_SCHLASSE_120709
 62
     7
100
AcDbLine
 10
524.4958779437623
 20
86.52331349658243
 30
0.0
 11
522.6081903262111
 21
86.52331349658243
 31
0.0
  0
LINE
  5
1646
330
1F
100
AcDbEntity
  8
LOGO_VON_SCHLASSE_120709
 62
     7
100
AcDbLine
 10
522.6081903262111
 20
86.52331349658243
 30
0.0
 11
522.6081903262111
 21
83.90564377035508
 31
0.0
  0
LINE
  5
1647
330
1F
100
AcDbEntity
  8
LOGO_VON_SCHLASSE_120709
 62
     7
100
AcDbLine
 10
522.6081903262111
 20
83.90564377035508
 30
0.0
 11
524.4958779437623
 21
83.90564377035508
 31
0.0
  0
LINE
  5
1648
330
1F
100
AcDbEntity
  8
LOGO_VON_SCHLASSE_120709
 62
     7
100
AcDbLine
 10
524.4958779437623
 20
83.90564377035508
 30
0.0
 11
524.4958779437623
 21
72.76563237705699
 31
0.0
  0
LINE
  5
1649
330
1F
100
AcDbEntity
  8
LOGO_VON_SCHLASSE_120709
 62
     7
100
AcDbLine
 10
524.4958779437623
 20
72.76563237705699
 30
0.0
 11
527.4627820373646
 21
72.76563237705699
 31
0.0
  0
LINE
  5
164A
330
1F
100
AcDbEntity
  8
LOGO_VON_SCHLASSE_120709
 62
     7
100
AcDbLine
 10
527.4627820373646
 20
72.76563237705699
 30
0.0
 11
527.4627820373646
 21
83.90564377035508
 31
0.0
  0
LINE
  5
164B
330
1F
100
AcDbEntity
  8
LOGO_VON_SCHLASSE_120709
 62
     7
100
AcDbLine
 10
527.4627820373646
 20
83.90564377035508
 30
0.0
 11
529.7551999221472
 21
83.90564377035508
 31
0.0
  0
LINE
  5
164C
330
1F
100
AcDbEntity
  8
LOGO_VON_SCHLASSE_120709
 62
     7
100
AcDbLine
 10
529.7551999221472
 20
83.90564377035508
 30
0.0
 11
529.7551999221472
 21
86.52331349658243
 31
0.0
  0
LINE
  5
164D
330
1F
100
AcDbEntity
  8
LOGO_VON_SCHLASSE_120709
 62
     7
100
AcDbLine
 10
529.7551999221472
 20
86.52331349658243
 30
0.0
 11
527.4627820373646
 21
86.52331349658243
 31
0.0
  0
LINE
  5
164E
330
1F
100
AcDbEntity
  8
LOGO_VON_SCHLASSE_120709
 62
     7
100
AcDbLine
 10
527.4627820373646
 20
86.52331349658243
 30
0.0
 11
527.4627820373646
 21
87.92579909529525
 31
0.0
  0
SPLINE
  5
164F
330
1F
100
AcDbEntity
  8
LOGO_VON_SCHLASSE_120709
 62
     7
100
AcDbSpline
210
0.0
220
0.0
230
1.0
 70
     8
 71
     3
 72
     8
 73
     4
 74
     0
 42
0.0000000001
 43
0.0000000001
 40
83.7196861111111
 40
83.7196861111111
 40
83.7196861111111
 40
83.7196861111111
 40
84.7196861111111
 40
84.7196861111111
 40
84.7196861111111
 40
84.7196861111111
 10
527.4627817876588
 20
87.92579937621296
 30
0.0
 10
527.4627817876588
 20
88.92355433313605
 30
0.0
 10
528.0022909240807
 20
89.16635326484669
 30
0.0
 10
528.6224687667921
 20
89.16635326484669
 30
0.0
  0
LINE
  5
1650
330
1F
100
AcDbEntity
  8
LOGO_VON_SCHLASSE_120709
 62
     7
100
AcDbLine
 10
528.6224685795142
 20
89.1663534833385
 30
0.0
 11
530.0249547400623
 21
89.1663534833385
 31
0.0
  0
LINE
  5
1651
330
1F
100
AcDbEntity
  8
LOGO_VON_SCHLASSE_120709
 62
     7
100
AcDbLine
 10
534.5420454641417
 20
91.9170968444644
 30
0.0
 11
531.5753396986012
 21
91.9170968444644
 31
0.0
  0
LINE
  5
1652
330
1F
100
AcDbEntity
  8
LOGO_VON_SCHLASSE_120709
 62
     7
100
AcDbLine
 10
531.5753396986012
 20
91.9170968444644
 30
0.0
 11
531.5753396986012
 21
72.76511717356473
 31
0.0
  0
LINE
  5
1653
330
1F
100
AcDbEntity
  8
LOGO_VON_SCHLASSE_120709
 62
     7
100
AcDbLine
 10
531.5753396986012
 20
72.76511717356473
 30
0.0
 11
534.5420454641417
 21
72.76511717356473
 31
0.0
  0
LINE
  5
1654
330
1F
100
AcDbEntity
  8
LOGO_VON_SCHLASSE_120709
 62
     7
100
AcDbLine
 10
534.5420454641417
 20
72.76511717356473
 30
0.0
 11
534.5420454641417
 21
91.9170968444644
 31
0.0
  0
LINE
  5
1655
330
1F
100
AcDbEntity
  8
LOGO_VON_SCHLASSE_120709
 62
     7
100
AcDbLine
 10
546.8416445164763
 20
78.5100170389847
 30
0.0
 11
546.8416445164763
 21
81.20696798661015
 31
0.0
  0
SPLINE
  5
1656
330
1F
100
AcDbEntity
  8
LOGO_VON_SCHLASSE_120709
 62
     7
100
AcDbSpline
210
0.0
220
0.0
230
1.0
 70
     8
 71
     3
 72
     8
 73
     4
 74
     0
 42
0.0000000001
 43
0.0000000001
 40
4.800247222222195
 40
4.800247222222195
 40
4.800247222222195
 40
4.800247222222195
 40
5.800247222222195
 40
5.800247222222195
 40
5.800247222222195
 40
5.800247222222195
 10
546.8416447349683
 20
81.20696823631485
 30
0.0
 10
546.8416447349683
 20
84.39130100109943
 30
0.0
 10
545.2235137321228
 20
86.5233729263322
 30
0.0
 10
542.0407665930157
 20
86.5233729263322
 30
0.0
  0
LINE
  5
1657
330
1F
100
AcDbEntity
  8
LOGO_VON_SCHLASSE_120709
 62
     7
100
AcDbLine
 10
542.0407665618023
 20
86.52337305118454
 30
0.0
 11
541.4743017264542
 21
86.52337305118454
 31
0.0
  0
SPLINE
  5
1658
330
1F
100
AcDbEntity
  8
LOGO_VON_SCHLASSE_120709
 62
     7
100
AcDbSpline
210
0.0
220
0.0
230
1.0
 70
     8
 71
     3
 72
     8
 73
     4
 74
     0
 42
0.0000000001
 43
0.0000000001
 40
6.808486111111077
 40
6.808486111111077
 40
6.808486111111077
 40
6.808486111111077
 40
7.808486111111077
 40
7.808486111111077
 40
7.808486111111077
 40
7.808486111111077
 10
541.4743018200937
 20
86.5233729263322
 30
0.0
 10
538.2649954509048
 20
86.5233729263322
 30
0.0
 10
536.5927549718502
 20
84.39130100109943
 30
0.0
 10
536.5927549718502
 20
81.20696823631485
 30
0.0
  0
LINE
  5
1659
330
1F
100
AcDbEntity
  8
LOGO_VON_SCHLASSE_120709
 62
     7
100
AcDbLine
 10
536.5927548157852
 20
81.20696798661015
 30
0.0
 11
536.5927548157852
 21
78.07852877662608
 31
0.0
  0
SPLINE
  5
165A
330
1F
100
AcDbEntity
  8
LOGO_VON_SCHLASSE_120709
 62
     7
100
AcDbSpline
210
0.0
220
0.0
230
1.0
 70
     8
 71
     3
 72
     8
 73
     4
 74
     0
 42
0.0000000001
 43
0.0000000001
 40
13.37673055555552
 40
13.37673055555552
 40
13.37673055555552
 40
13.37673055555552
 40
14.37673055555552
 40
14.37673055555552
 40
14.37673055555552
 40
14.37673055555552
 10
536.5927549718502
 20
78.078528776626
 30
0.0
 10
536.5927549718502
 20
74.54535836301625
 30
0.0
 10
538.5619038588248
 20
72.76549354117108
 30
0.0
 10
541.8249232978047
 20
72.76549354117108
 30
0.0
  0
LINE
  5
165B
330
1F
100
AcDbEntity
  8
LOGO_VON_SCHLASSE_120709
 62
     7
100
AcDbLine
 10
541.8249232665917
 20
72.76549360359729
 30
0.0
 11
546.1673571975553
 21
72.76549360359729
 31
0.0
  0
LINE
  5
165C
330
1F
100
AcDbEntity
  8
LOGO_VON_SCHLASSE_120709
 62
     7
100
AcDbLine
 10
546.1673571975553
 20
72.76549360359729
 30
0.0
 11
546.1673571975553
 21
75.40873135657938
 31
0.0
  0
LINE
  5
165D
330
1F
100
AcDbEntity
  8
LOGO_VON_SCHLASSE_120709
 62
     7
100
AcDbLine
 10
546.1673571975553
 20
75.40873135657938
 30
0.0
 11
542.0948758507337
 21
75.40873135657938
 31
0.0
  0
SPLINE
  5
165E
330
1F
100
AcDbEntity
  8
LOGO_VON_SCHLASSE_120709
 62
     7
100
AcDbSpline
210
0.0
220
0.0
230
1.0
 70
     8
 71
     3
 72
     8
 73
     4
 74
     0
 42
0.0000000001
 43
0.0000000001
 40
34.05890833333331
 40
34.05890833333331
 40
34.05890833333331
 40
34.05890833333331
 40
35.05890833333331
 40
35.05890833333331
 40
35.05890833333331
 40
35.05890833333331
 10
542.0948760692253
 20
75.40873154385798
 30
0.0
 10
540.3958781568807
 20
75.40873154385798
 30
0.0
 10
539.5596588157482
 20
76.4601995705716
 30
0.0
 10
539.5596588157482
 20
77.8896411179156
 30
0.0
  0
LINE
  5
165F
330
1F
100
AcDbEntity
  8
LOGO_VON_SCHLASSE_120709
 62
     7
100
AcDbLine
 10
539.5596589093878
 20
77.88964124276799
 30
0.0
 11
539.5596589093878
 21
78.5100170389847
 31
0.0
  0
LINE
  5
1660
330
1F
100
AcDbEntity
  8
LOGO_VON_SCHLASSE_120709
 62
     7
100
AcDbLine
 10
539.5596589093878
 20
78.5100170389847
 30
0.0
 11
546.8416445164763
 21
78.5100170389847
 31
0.0
  0
LINE
  5
1661
330
1F
100
AcDbEntity
  8
LOGO_VON_SCHLASSE_120709
 62
     7
100
AcDbLine
 10
543.8747409847093
 20
80.72156876338183
 30
0.0
 11
539.5596589093878
 21
80.72156876338183
 31
0.0
  0
LINE
  5
1662
330
1F
100
AcDbEntity
  8
LOGO_VON_SCHLASSE_120709
 62
     7
100
AcDbLine
 10
539.5596589093878
 20
80.72156876338183
 30
0.0
 11
539.5596589093878
 21
81.47692113258733
 31
0.0
  0
SPLINE
  5
1663
330
1F
100
AcDbEntity
  8
LOGO_VON_SCHLASSE_120709
 62
     7
100
AcDbSpline
210
0.0
220
0.0
230
1.0
 70
     8
 71
     3
 72
     8
 73
     4
 74
     0
 42
0.0000000001
 43
0.0000000001
 40
9.024761111111132
 40
9.024761111111132
 40
9.024761111111132
 40
9.024761111111132
 40
10.02476111111113
 40
10.02476111111113
 40
10.02476111111113
 40
10.02476111111113
 10
539.5596588157482
 20
81.47692100773495
 30
0.0
 10
539.5596588157482
 20
82.82609025520725
 30
0.0
 10
540.0722123156698
 20
84.0404813201788
 30
0.0
 10
541.5014556598038
 20
84.0404813201788
 30
0.0
  0
LINE
  5
1664
330
1F
100
AcDbEntity
  8
LOGO_VON_SCHLASSE_120709
 62
     7
100
AcDbLine
 10
541.5014558158697
 20
84.04048156988379
 30
0.0
 11
541.9598998395803
 21
84.04048156988379
 31
0.0
  0
SPLINE
  5
1665
330
1F
100
AcDbEntity
  8
LOGO_VON_SCHLASSE_120709
 62
     7
100
AcDbSpline
210
0.0
220
0.0
230
1.0
 70
     8
 71
     3
 72
     8
 73
     4
 74
     0
 42
0.0000000001
 43
0.0000000001
 40
10.84073611111112
 40
10.84073611111112
 40
10.84073611111112
 40
10.84073611111112
 40
11.84073611111112
 40
11.84073611111112
 40
11.84073611111112
 40
11.84073611111112
 10
541.9598996835146
 20
84.0404813201788
 30
0.0
 10
543.3893412308588
 20
84.0404813201788
 30
0.0
 10
543.8747408910702
 20
82.82609025520725
 30
0.0
 10
543.8747408910702
 20
81.47692100773495
 30
0.0
  0
LINE
  5
1666
330
1F
100
AcDbEntity
  8
LOGO_VON_SCHLASSE_120709
 62
     7
100
AcDbLine
 10
543.8747409847093
 20
81.47692113258733
 30
0.0
 11
543.8747409847093
 21
80.72156876338183
 31
0.0
  0
SPLINE
  5
1667
330
1F
100
AcDbEntity
  8
LOGO_VON_SCHLASSE_120709
 62
     7
100
AcDbSpline
210
0.0
220
0.0
230
1.0
 70
     8
 71
     3
 72
     8
 73
     4
 74
     0
 42
0.0000000001
 43
0.0000000001
 40
0.0
 40
0.0
 40
0.0
 40
0.0
 40
1.0
 40
1.0
 40
1.0
 40
1.0
 10
556.6774790093638
 20
79.6679797750472
 30
0.0
 10
557.8898880422396
 20
80.58665165135588
 30
0.0
 10
558.5151755344046
 20
82.06861705537338
 30
0.0
 10
558.5150209651907
 20
84.0141797542704
 30
0.0
  0
LINE
  5
1668
330
1F
100
AcDbEntity
  8
LOGO_VON_SCHLASSE_120709
 62
     7
100
AcDbLine
 10
558.5150207466991
 20
84.01417978548355
 30
0.0
 11
558.5148229804728
 21
86.50896364663649
 31
0.0
  0
LINE
  5
1669
330
1F
100
AcDbEntity
  8
LOGO_VON_SCHLASSE_120709
 62
     7
100
AcDbLine
 10
558.5148229804728
 20
86.50896364663649
 30
0.0
 11
555.5360265070182
 21
86.50896364663649
 31
0.0
  0
LINE
  5
166A
330
1F
100
AcDbEntity
  8
LOGO_VON_SCHLASSE_120709
 62
     7
100
AcDbLine
 10
555.5360265070182
 20
86.50896364663649
 30
0.0
 11
555.5360265070182
 21
83.74323612286785
 31
0.0
  0
SPLINE
  5
166B
330
1F
100
AcDbEntity
  8
LOGO_VON_SCHLASSE_120709
 62
     7
100
AcDbSpline
210
0.0
220
0.0
230
1.0
 70
     8
 71
     3
 72
     8
 73
     4
 74
     0
 42
0.0000000001
 43
0.0000000001
 40
15.66497223623581
 40
15.66497223623581
 40
15.66497223623581
 40
15.66497223623581
 40
16.66497223623581
 40
16.66497223623581
 40
16.66497223623581
 40
16.66497223623581
 10
555.5360267255101
 20
83.74323596680254
 30
0.0
 10
555.5360267255101
 20
82.38812062304338
 30
0.0
 10
555.0214911934932
 20
81.18007206077743
 30
0.0
 10
553.5861035498627
 20
81.18007206077743
 30
0.0
  0
LINE
  5
166C
330
1F
100
AcDbEntity
  8
LOGO_VON_SCHLASSE_120709
 62
     7
100
AcDbLine
 10
553.5861037683547
 20
81.18007234169544
 30
0.0
 11
553.1256775876946
 21
81.18007234169544
 31
0.0
  0
SPLINE
  5
166D
330
1F
100
AcDbEntity
  8
LOGO_VON_SCHLASSE_120709
 62
     7
100
AcDbSpline
210
0.0
220
0.0
230
1.0
 70
     8
 71
     3
 72
     8
 73
     4
 74
     0
 42
0.0000000001
 43
0.0000000001
 40
17.48447501401361
 40
17.48447501401361
 40
17.48447501401361
 40
17.48447501401361
 40
18.48447501401361
 40
18.48447501401361
 40
18.48447501401361
 40
18.48447501401361
 10
553.1256774940563
 20
81.18007206077743
 30
0.0
 10
551.6902898504253
 20
81.18007206077743
 30
0.0
 10
551.2029081581178
 20
82.38812062304338
 30
0.0
 10
551.2029081581178
 20
83.74323596680254
 30
0.0
  0
LINE
  5
166E
330
1F
100
AcDbEntity
  8
LOGO_VON_SCHLASSE_120709
 62
     7
100
AcDbLine
 10
551.2029083766098
 20
83.74323612286785
 30
0.0
 11
551.2029083766098
 21
86.50896364663649
 31
0.0
  0
LINE
  5
166F
330
1F
100
AcDbEntity
  8
LOGO_VON_SCHLASSE_120709
 62
     7
100
AcDbLine
 10
551.2029083766098
 20
86.50896364663649
 30
0.0
 11
548.2237158088667
 21
86.50896364663649
 31
0.0
  0
LINE
  5
1670
330
1F
100
AcDbEntity
  8
LOGO_VON_SCHLASSE_120709
 62
     7
100
AcDbLine
 10
548.2237158088667
 20
86.50896364663649
 30
0.0
 11
548.2237158088667
 21
84.01417978548355
 31
0.0
  0
SPLINE
  5
1671
330
1F
100
AcDbEntity
  8
LOGO_VON_SCHLASSE_120709
 62
     7
100
AcDbSpline
210
0.0
220
0.0
230
1.0
 70
     8
 71
     3
 72
     8
 73
     4
 74
     0
 42
0.0000000001
 43
0.0000000001
 40
33.1501527917914
 40
33.1501527917914
 40
33.1501527917914
 40
33.1501527917914
 40
34.1501527917914
 40
34.1501527917914
 40
34.1501527917914
 40
34.1501527917914
 10
548.2237157152272
 20
84.0141797542704
 30
0.0
 10
548.2237157152272
 20
82.02303031103435
 30
0.0
 10
548.8543983280457
 20
80.51073982209473
 30
0.0
 10
550.1010965161757
 20
79.60138349663523
 30
0.0
  0
SPLINE
  5
1672
330
1F
100
AcDbEntity
  8
LOGO_VON_SCHLASSE_120709
 62
     7
100
AcDbSpline
210
0.0
220
0.0
230
1.0
 70
     8
 71
     3
 72
     8
 73
     4
 74
     0
 42
0.0000000001
 43
0.0000000001
 40
34.1501527917914
 40
34.1501527917914
 40
34.1501527917914
 40
34.1501527917914
 40
35.1501527917914
 40
35.1501527917914
 40
35.1501527917914
 40
35.1501527917914
 10
550.1010965161757
 20
79.60138349663523
 30
0.0
 10
548.8886874832993
 20
78.6831080267456
 30
0.0
 10
548.2632351361713
 20
77.12225772522325
 30
0.0
 10
548.2635545603483
 20
75.17808246889365
 30
0.0
  0
LINE
  5
1673
330
1F
100
AcDbEntity
  8
LOGO_VON_SCHLASSE_120709
 62
     7
100
AcDbLine
 10
548.2635544667092
 20
75.17808256253295
 30
0.0
 11
548.2639511228332
 21
72.76535483013745
 31
0.0
  0
LINE
  5
1674
330
1F
100
AcDbEntity
  8
LOGO_VON_SCHLASSE_120709
 62
     7
100
AcDbLine
 10
548.2639511228332
 20
72.76535483013745
 30
0.0
 11
551.2425487063902
 21
72.76535483013745
 31
0.0
  0
LINE
  5
1675
330
1F
100
AcDbEntity
  8
LOGO_VON_SCHLASSE_120709
 62
     7
100
AcDbLine
 10
551.2425487063902
 20
72.76535483013745
 30
0.0
 11
551.2425487063902
 21
75.44902622514823
 31
0.0
  0
SPLINE
  5
1676
330
1F
100
AcDbEntity
  8
LOGO_VON_SCHLASSE_120709
 62
     7
100
AcDbSpline
210
0.0
220
0.0
230
1.0
 70
     8
 71
     3
 72
     8
 73
     4
 74
     0
 42
0.0000000001
 43
0.0000000001
 40
49.52267229419653
 40
49.52267229419653
 40
49.52267229419653
 40
49.52267229419653
 40
50.52267229419655
 40
50.52267229419655
 40
50.52267229419655
 40
50.52267229419655
 10
551.2425488000293
 20
75.44902625636138
 30
0.0
 10
551.2425488000293
 20
76.8031505840728
 30
0.0
 10
551.7572825352557
 20
78.08909300769554
 30
0.0
 10
553.1924719756768
 20
78.08909300769554
 30
0.0
  0
LINE
  5
1677
330
1F
100
AcDbEntity
  8
LOGO_VON_SCHLASSE_120709
 62
     7
100
AcDbLine
 10
553.1924720068901
 20
78.08909297648233
 30
0.0
 11
553.6528981875502
 21
78.08909297648233
 31
0.0
  0
SPLINE
  5
1678
330
1F
100
AcDbEntity
  8
LOGO_VON_SCHLASSE_120709
 62
     7
100
AcDbSpline
210
0.0
220
0.0
230
1.0
 70
     8
 71
     3
 72
     8
 73
     4
 74
     0
 42
0.0000000001
 43
0.0000000001
 40
51.34217507197432
 40
51.34217507197432
 40
51.34217507197432
 40
51.34217507197432
 40
52.34217507197431
 40
52.34217507197431
 40
52.34217507197431
 40
52.34217507197431
 10
553.6528980314832
 20
78.08909300769554
 30
0.0
 10
555.0882856751142
 20
78.08909300769554
 30
0.0
 10
555.5756673674228
 20
76.8031505840728
 30
0.0
 10
555.5756673674228
 20
75.44902625636138
 30
0.0
  0
LINE
  5
1679
330
1F
100
AcDbEntity
  8
LOGO_VON_SCHLASSE_120709
 62
     7
100
AcDbLine
 10
555.5756673986346
 20
75.44902622514823
 30
0.0
 11
555.5756673986346
 21
72.76535483013745
 31
0.0
  0
LINE
  5
167A
330
1F
100
AcDbEntity
  8
LOGO_VON_SCHLASSE_120709
 62
     7
100
AcDbLine
 10
555.5756673986346
 20
72.76535483013745
 30
0.0
 11
558.5546616383163
 21
72.76535483013745
 31
0.0
  0
LINE
  5
167B
330
1F
100
AcDbEntity
  8
LOGO_VON_SCHLASSE_120709
 62
     7
100
AcDbLine
 10
558.5546616383163
 20
72.76535483013745
 30
0.0
 11
558.5546616383163
 21
75.17808256253295
 31
0.0
  0
SPLINE
  5
167C
330
1F
100
AcDbEntity
  8
LOGO_VON_SCHLASSE_120709
 62
     7
100
AcDbSpline
210
0.0
220
0.0
230
1.0
 70
     8
 71
     3
 72
     8
 73
     4
 74
     0
 42
0.0000000001
 43
0.0000000001
 40
66.71540007197433
 40
66.71540007197433
 40
66.71540007197433
 40
66.71540007197433
 40
67.71540007197433
 40
67.71540007197433
 40
67.71540007197433
 40
67.71540007197433
 10
558.5546616071026
 20
75.17808246889365
 30
0.0
 10
558.5546616071026
 20
77.16784448966229
 30
0.0
 10
557.9241771974933
 20
78.75862344958779
 30
0.0
 10
556.6774790093638
 20
79.6679797750472
 30
0.0
  0
ARC
  5
167D
330
1F
100
AcDbEntity
  8
AM_0
 62
     7
100
AcDbCircle
 10
501.1370572488369
 20
70.77914311265499
 30
0.0
 40
2.809136648562855
100
AcDbArc
 50
180.000047999999
 51
269.9999519999848
  0
LINE
  5
167E
330
1F
100
AcDbEntity
  8
AM_0
 62
     7
100
AcDbLine
 10
501.1370550014929
 20
67.97000646409205
 30
0.0
 11
561.8153817327862
 21
67.97000646409205
 31
0.0
  0
ARC
  5
167F
330
1F
100
AcDbEntity
  8
AM_0
 62
     7
100
AcDbCircle
 10
561.8155008419907
 20
70.77902175610683
 30
0.0
 40
2.809015292015017
100
AcDbArc
 50
269.9975760000107
 51
0.0024240000056259
  0
LINE
  5
1680
330
1F
100
AcDbEntity
  8
AM_0
 62
     7
100
AcDbLine
 10
564.6245161340062
 20
70.77914086531141
 30
0.0
 11
564.6245161340062
 21
92.128797723808
 31
0.0
  0
ARC
  5
1681
330
1F
100
AcDbEntity
  8
AM_0
 62
     7
100
AcDbCircle
 10
561.8153794854428
 20
92.12879491462855
 30
0.0
 40
2.809136648562855
100
AcDbArc
 50
0.0000479999989685
 51
89.99995199998474
  0
LINE
  5
1682
330
1F
100
AcDbEntity
  8
AM_0
 62
     7
100
AcDbLine
 10
561.8153817327862
 20
94.93793156319165
 30
0.0
 11
501.1370550014929
 21
94.93793156319165
 31
0.0
  0
ARC
  5
1683
330
1F
100
AcDbEntity
  8
AM_0
 62
     7
100
AcDbCircle
 10
501.1370943300049
 20
92.1287578334612
 30
0.0
 40
2.809173729730249
100
AcDbArc
 50
90.00080599999776
 51
179.9991939999989
  0
LINE
  5
1684
330
1F
100
AcDbEntity
  8
AM_0
 62
     7
100
AcDbLine
 10
498.3279206002743
 20
92.128797723808
 30
0.0
 11
498.3279206002743
 21
70.77914086531141
 31
0.0
  0
ARC
  5
1685
330
1F
100
AcDbEntity
  8
AM_0
 62
     7
100
AcDbCircle
 10
499.6203065946333
 20
67.57679270851503
 30
0.0
 40
4.10140072453812
100
AcDbArc
 50
179.9997459999952
 51
270.0002540000047
  0
LINE
  5
1686
330
1F
100
AcDbEntity
  8
AM_0
 62
     7
100
AcDbLine
 10
499.6203245733807
 20
63.47539198397703
 30
0.0
 11
575.6928968249423
 21
63.47539198397703
 31
0.0
  0
ARC
  5
1687
330
1F
100
AcDbEntity
  8
AM_0
 62
     7
100
AcDbCircle
 10
575.6930417785967
 20
67.57666573360845
 30
0.0
 40
4.101273749631586
100
AcDbArc
 50
269.9979730000275
 51
0.0020269999985906
  0
LINE
  5
1688
330
1F
100
AcDbEntity
  8
AM_0
 62
     7
100
AcDbLine
 10
579.7943155282283
 20
67.5768112490986
 30
0.0
 11
579.7943155282283
 21
95.33120655887811
 31
0.0
  0
ARC
  5
1689
330
1F
100
AcDbEntity
  8
AM_0
 62
     7
100
AcDbCircle
 10
575.6928726660001
 20
95.3313807279979
 30
0.0
 40
4.101442862228342
100
AcDbArc
 50
359.9975680000027
 51
89.99966299998954
  0
LINE
  5
168A
330
1F
100
AcDbEntity
  8
AM_0
 62
     7
100
AcDbLine
 10
575.6928968249423
 20
99.43282359022616
 30
0.0
 11
499.6203245733807
 21
99.43282359022616
 31
0.0
  0
ARC
  5
168B
330
1F
100
AcDbEntity
  8
AM_0
 62
     7
100
AcDbCircle
 10
499.6204757072298
 20
95.33125375309134
 30
0.0
 40
4.101569837134874
100
AcDbArc
 50
90.00210899998343
 51
180.000659999998
  0
LINE
  5
168C
330
1F
100
AcDbEntity
  8
AM_0
 62
     7
100
AcDbLine
 10
495.5189058700948
 20
95.33120655887811
 30
0.0
 11
495.5189058700948
 21
67.5768112490986
 31
0.0
  0
TEXT
  5
168D
330
1F
100
AcDbEntity
  8
6
100
AcDbText
 10
509.0692960559588
 20
42.29501844330994
 30
0.0
 40
7.584784239840154
  1
59227 Ahlen
 72
     1
 11
536.9044606746732
 21
42.29501844330994
 31
0.0
100
AcDbText
  0
TEXT
  5
168E
330
1F
100
AcDbEntity
  8
6
100
AcDbText
 10
483.4597999157458
 20
52.93620409330774
 30
0.0
 40
7.584784239840154
  1
Reflex Winkelmann GmbH
 41
0.95
 72
     1
 11
536.7808331218221
 21
52.93620409330774
 31
0.0
100
AcDbText
  0
VIEWPORT
  5
6F
330
55
100
AcDbEntity
 67
     1
  8
0
100
AcDbViewport
 10
141.0
 20
85.0
 30
0.0
 40
384.7606204379562
 41
222.18
 68
     1
 69
     1
 12
141.0
 22
85.0
 13
0.0
 23
0.0
 14
10.0
 24
10.0
 15
10.0
 25
10.0
 16
0.0
 26
0.0
 36
1.0
 17
0.0
 27
0.0
 37
0.0
 42
50.0
 43
0.0
 44
0.0
 45
222.18
 50
0.0
 51
0.0
 72
   100
 90
    32800
  1

281
     0
 71
     1
 74
     0
110
0.0
120
0.0
130
0.0
111
1.0
121
0.0
131
0.0
112
0.0
122
1.0
132
0.0
 79
     0
146
0.0
170
     0
1001
GENIUS_GENOBJ-N-SDF_13
1002
{
1000
OWNER
1000
GEN
1002
}
1001
GENIUS_GENODEF_13
1002
{
1000
HIER
1070
     0
1002
}
1002
{
1000
MANEDIT
1070
     0
1002
}
1002
{
1000
NOSEL
1070
     0
1002
}
1002
{
1000
BEHIND
1070
     0
1002
}
1002
{
1000
OTHER
1070
     0
1002
}
1002
{
1000
REACTOR
1002
}
1001
GENIUS_GENSCREG_15
1000
PF
1040
1.0
1000
DF
1040
1.0
1000
MIN
1011
-51.38031021897808
1021
-26.09
1031
0.0
1000
MAX
1011
333.3803102189782
1021
196.09
1031
0.0
1000
FLAGS
1070
     2
  0
VIEWPORT
  5
71
330
55
100
AcDbEntity
 67
     1
  8
0
100
AcDbViewport
 10
141.0
 20
85.0
 30
0.0
 40
225.6
 41
136.0
 68
     2
 69
     2
 12
210.0
 22
148.5
 13
0.0
 23
0.0
 14
10.0
 24
10.0
 15
10.0
 25
10.0
 16
0.0
 26
0.0
 36
1.0
 17
0.0
 27
0.0
 37
0.0
 42
50.0
 43
0.0
 44
0.0
 45
302.3194029850746
 50
0.0
 51
0.0
 72
   100
 90
    32864
  1

281
     0
 71
     1
 74
     0
110
0.0
120
0.0
130
0.0
111
1.0
121
0.0
131
0.0
112
0.0
122
1.0
132
0.0
 79
     0
146
0.0
170
     0
1001
GENIUS_GENODEF_13
1002
{
1000
HIER
1070
     0
1002
}
1002
{
1000
MANEDIT
1070
     0
1002
}
1002
{
1000
NOSEL
1070
     0
1002
}
1002
{
1000
BEHIND
1070
     0
1002
}
1002
{
1000
OTHER
1070
     0
1002
}
1002
{
1000
REACTOR
1002
}
1001
GENIUS_GENOBJ-N-SDF_13
1002
{
1000
OWNER
1000
GEN
1002
}
1001
GENIUS_GENSCREG_15
1000
PF
1040
0.0
1000
DF
1040
0.0
1000
MIN
1011
28.20000000000002
1021
17.0
1031
0.0
1000
MAX
1011
253.8
1021
153.0
1031
0.0
1000
FLAGS
1070
     2
  0
ENDSEC
  0
SECTION
  2
OBJECTS
  0
DICTIONARY
  5
C
330
0
100
AcDbDictionary
281
     1
  3
ACAD_COLOR
350
F6
  3
ACAD_GROUP
350
D
  3
ACAD_LAYOUT
350
1A
  3
ACAD_MATERIAL
350
F5
  3
ACAD_MLINESTYLE
350
17
  3
ACAD_PLOTSETTINGS
350
19
  3
ACAD_PLOTSTYLENAME
350
E
  3
ACAD_TABLESTYLE
350
16F
  3
ACAD_VISUALSTYLE
350
1EE
  3
AcDbVariableDictionary
350
DA
  3
AcmDictionary
350
97
  3
AMG
350
7D
  3
AMGSNAPSETTINGS
350
8E1
  3
ASE_INDEX_DICTIONARY
350
1412
  0
DICTIONARY
  5
15B2
330
2
100
AcDbDictionary
280
     1
281
     1
  3
ACAD_LAYERSTATES
360
15B3
  0
DICTIONARY
  5
D5
330
1F
100
AcDbDictionary
280
     1
281
     1
  0
DICTIONARY
  5
A08
330
94B
100
AcDbDictionary
280
     1
281
     1
  0
DICTIONARY
  5
F6
102
{ACAD_REACTORS
330
C
102
}
330
C
100
AcDbDictionary
281
     1
  0
DICTIONARY
  5
D
102
{ACAD_REACTORS
330
C
102
}
330
C
100
AcDbDictionary
281
     1
  0
DICTIONARY
  5
1A
102
{ACAD_REACTORS
330
C
102
}
330
C
100
AcDbDictionary
281
     1
  3
Layout1
350
51
  3
Layout2
350
56
  3
Model
350
22
  0
DICTIONARY
  5
F5
102
{ACAD_REACTORS
330
C
102
}
330
C
100
AcDbDictionary
281
     1
  3
ByBlock
350
1EC
  3
ByLayer
350
1EB
  3
Global
350
1ED
  0
DICTIONARY
  5
17
102
{ACAD_REACTORS
330
C
102
}
330
C
100
AcDbDictionary
281
     1
  3
Standard
350
18
  0
DICTIONARY
  5
19
102
{ACAD_REACTORS
330
C
102
}
330
C
100
AcDbDictionary
281
     1
  0
ACDBDICTIONARYWDFLT
  5
E
102
{ACAD_REACTORS
330
C
102
}
330
C
100
AcDbDictionary
281
     1
  3
Normal
350
F
100
AcDbDictionaryWithDefault
340
F
  0
DICTIONARY
  5
16F
102
{ACAD_REACTORS
330
C
102
}
330
C
100
AcDbDictionary
281
     1
  3
Standard
350
170
  0
DICTIONARY
  5
1EE
102
{ACAD_REACTORS
330
C
102
}
330
C
100
AcDbDictionary
281
     1
  3
2dWireframe
350
1F4
  3
3D Hidden
350
1F6
  3
3dWireframe
350
1F5
  3
Basic
350
1F3
  3
Brighten
350
1FA
  3
ColorChange
350
1FE
  3
Conceptual
350
1F7
  3
Dim
350
1F9
  3
EdgeColorOff
350
1079
  3
Facepattern
350
1FD
  3
Flat
350
1EF
  3
FlatWithEdges
350
1F0
  3
Gouraud
350
1F1
  3
GouraudWithEdges
350
1F2
  3
JitterOff
350
107C
  3
Linepattern
350
1FC
  3
OverhangOff
350
107F
  3
Realistic
350
1F8
  3
Thicken
350
1FB
  0
DICTIONARY
  5
DA
102
{ACAD_REACTORS
330
C
102
}
330
C
100
AcDbDictionary
281
     1
  3
CTABLESTYLE
350
18F
  3
DIMASSOC
350
DC
  3
INDEXCTL
350
DB
  0
DICTIONARY
  5
97
102
{ACAD_REACTORS
330
C
102
}
330
C
100
AcDbDictionary
281
     1
  3
AcmStdDictionary
350
9D
  3
AMDTSECTSYM_ARROWCOLOR
350
186
  0
DICTIONARY
  5
7D
102
{ACAD_REACTORS
330
C
102
}
330
C
100
AcDbDictionary
281
     1
  0
DICTIONARY
  5
8E1
102
{ACAD_REACTORS
330
C
102
}
330
C
100
AcDbDictionary
281
     1
  0
DICTIONARY
  5
1412
102
{ACAD_REACTORS
330
C
102
}
330
C
100
AcDbDictionary
281
     1
  3
ASEBlockHierarchyIndexRecord
350
1413
1001
DCO15
1040
1755511437.998
  0
DICTIONARY
  5
15B3
102
{ACAD_REACTORS
330
15B2
102
}
330
15B2
100
AcDbDictionary
281
     1
  0
LAYOUT
  5
51
102
{ACAD_REACTORS
330
1A
102
}
330
1A
100
AcDbPlotSettings
  1

  2
none_device
  4
ISO_A4_(210.00_x_297.00_MM)
  6

 40
7.5
 41
20.0
 42
7.5
 43
20.0
 44
210.0
 45
297.0
 46
0.0
 47
0.0
 48
0.0
 49
0.0
140
0.0
141
0.0
142
1.0
143
1.0
 70
   688
 72
     1
 73
     1
 74
     5
  7
ganz_fein_1.ctb
 75
    16
147
1.0
 76
     0
 77
     2
 78
   300
148
0.0
149
0.0
100
AcDbLayout
  1
Layout1
 70
     1
 71
     1
 10
-20.0
 20
-7.5
 11
277.0
 21
202.5
 12
0.0
 22
0.0
 32
0.0
 14
25.69999999999999
 24
19.5
 34
0.0
 15
231.3
 25
175.5
 35
0.0
146
0.0
 13
0.0
 23
0.0
 33
0.0
 16
1.0
 26
0.0
 36
0.0
 17
0.0
 27
1.0
 37
0.0
 76
     0
330
50
331
69
  0
LAYOUT
  5
56
102
{ACAD_REACTORS
330
1A
102
}
330
1A
100
AcDbPlotSettings
  1

  2
none_device
  4
ISO_A4_(297.00_x_210.00_MM)
  6

 40
7.5
 41
20.0
 42
7.5
 43
20.0
 44
297.0
 45
210.0
 46
0.0
 47
0.0
 48
0.0
 49
0.0
140
0.0
141
0.0
142
1.0
143
1.0
 70
   688
 72
     1
 73
     0
 74
     5
  7
ganz_fein_1.ctb
 75
    16
147
1.0
 76
     0
 77
     2
 78
   300
148
0.0
149
0.0
100
AcDbLayout
  1
Layout2
 70
     1
 71
     2
 10
-7.5
 20
-20.0
 11
289.5
 21
190.0
 12
0.0
 22
0.0
 32
0.0
 14
28.19999999999999
 24
17.0
 34
0.0
 15
253.8
 25
153.0
 35
0.0
146
0.0
 13
0.0
 23
0.0
 33
0.0
 16
1.0
 26
0.0
 36
0.0
 17
0.0
 27
1.0
 37
0.0
 76
     0
330
55
331
6F
  0
LAYOUT
  5
22
102
{ACAD_REACTORS
330
1A
102
}
330
1A
100
AcDbPlotSettings
  1

  2
Adobe PDF
  4
A4
  6

 40
3.174999952316284
 41
3.174999952316284
 42
3.175003051757812
 43
3.17498779296875
 44
209.9733276367187
 45
297.0318298339844
 46
0.0
 47
1.364832920257478
 48
0.0
 49
0.0
140
0.0
141
0.0
142
1.0
143
2.187863304971191
 70
 11956
 72
     1
 73
     1
 74
     2
  7
ganz_fein_1.ctb
 75
     0
147
0.4570669464256895
 76
     0
 77
     2
 78
   300
148
0.0000000000000568
149
0.0
100
AcDbLayout
  1
Model
 70
     1
 71
     0
 10
0.0
 20
0.0
 11
12.0
 21
9.0
 12
0.0
 22
0.0
 32
0.0
 14
0.0
 24
0.0
 34
0.0
 15
0.0
 25
0.0
 35
0.0
146
0.0
 13
0.0
 23
0.0
 33
0.0
 16
1.0
 26
0.0
 36
0.0
 17
0.0
 27
1.0
 37
0.0
 76
     0
330
1F
331
1E9
1001
ACAD_PSEXT
1000
Adobe PDF
1000
Adobe PDF Converter
1000
Documents\*.pdf
1000

1070
     0
  0
MATERIAL
  5
1EC
102
{ACAD_XDICTIONARY
360
10DB
102
}
102
{ACAD_REACTORS
330
F5
102
}
330
F5
100
AcDbMaterial
  1
ByBlock
  0
MATERIAL
  5
1EB
102
{ACAD_XDICTIONARY
360
10D9
102
}
102
{ACAD_REACTORS
330
F5
102
}
330
F5
100
AcDbMaterial
  1
ByLayer
  0
MATERIAL
  5
1ED
102
{ACAD_XDICTIONARY
360
10DD
102
}
102
{ACAD_REACTORS
330
F5
102
}
330
F5
100
AcDbMaterial
  1
Global
  0
MLINESTYLE
  5
18
102
{ACAD_REACTORS
330
17
102
}
330
17
100
AcDbMlineStyle
  2
STANDARD
 70
     0
  3

 62
   256
 51
90.0
 52
90.0
 71
     2
 49
0.5
 62
   256
  6
BYLAYER
 49
-0.5
 62
   256
  6
BYLAYER
  0
ACDBPLACEHOLDER
  5
F
102
{ACAD_REACTORS
330
E
102
}
330
E
  0
TABLESTYLE
  5
170
102
{ACAD_XDICTIONARY
360
1697
102
}
102
{ACAD_REACTORS
330
16F
102
}
330
16F
100
AcDbTableStyle
  3
Standard
 70
     0
 71
     0
 40
1.5
 41
1.5
280
     0
281
     0
  7
STANDARD
140
4.5
170
     2
 62
     0
 63
     7
283
     0
274
    -2
284
     1
 64
     0
275
    -2
285
     1
 65
     0
276
    -2
286
     1
 66
     0
277
    -2
287
     1
 67
     0
278
    -2
288
     1
 68
     0
279
    -2
289
     1
 69
     0
  7
STANDARD
140
6.0
170
     5
 62
     0
 63
     7
283
     0
274
    -2
284
     1
 64
     0
275
    -2
285
     1
 65
     0
276
    -2
286
     1
 66
     0
277
    -2
287
     1
 67
     0
278
    -2
288
     1
 68
     0
279
    -2
289
     1
 69
     0
  7
STANDARD
140
4.5
170
     5
 62
     0
 63
     7
283
     0
274
    -2
284
     1
 64
     0
275
    -2
285
     1
 65
     0
276
    -2
286
     1
 66
     0
277
    -2
287
     1
 67
     0
278
    -2
288
     1
 68
     0
279
    -2
289
     1
 69
     0
  0
VISUALSTYLE
  5
1F4
102
{ACAD_REACTORS
330
1EE
102
}
330
1EE
100
AcDbVisualStyle
  2
2dWireframe
 70
     4
 71
     0
 72
     2
 73
     0
 90
        0
 40
-0.6
 41
-30.0
 62
     5
 63
     7
421
 16777215
 74
     1
 91
        4
 64
     7
 65
   257
 75
     1
175
     1
 42
1.0
 92
        0
 66
   257
 43
1.0
 76
     1
 77
     6
 78
     2
 67
     7
 79
     5
170
     0
171
     0
290
     0
174
     0
 93
        1
 44
0.0
173
     0
291
     0
 45
0.0
1001
ACAD
1000
AcDbSavedByObjectVersion
1070
     0
1000
AcDbSavedByObjectVersion
1070
     0
1000
AcDbSavedByObjectVersion
1070
     0
1000
AcDbSavedByObjectVersion
1070
     0
  0
VISUALSTYLE
  5
1F6
102
{ACAD_REACTORS
330
1EE
102
}
330
1EE
100
AcDbVisualStyle
  2
3D Hidden
 70
     6
 71
     1
 72
     2
 73
     2
 90
        0
 40
-0.6
 41
-30.0
 62
     5
 63
     7
421
 16777215
 74
     2
 91
        2
 64
     7
 65
   257
 75
     2
175
     1
 42
40.0
 92
        0
 66
   257
 43
1.0
 76
     1
 77
     6
 78
     2
 67
     7
 79
     3
170
     0
171
     0
290
     0
174
     0
 93
        1
 44
0.0
173
     0
291
     0
 45
0.0
1001
ACAD
1000
AcDbSavedByObjectVersion
1070
     0
1000
AcDbSavedByObjectVersion
1070
     0
1000
AcDbSavedByObjectVersion
1070
     0
1000
AcDbSavedByObjectVersion
1070
     0
  0
VISUALSTYLE
  5
1F5
102
{ACAD_REACTORS
330
1EE
102
}
330
1EE
100
AcDbVisualStyle
  2
3dWireframe
 70
     5
 71
     0
 72
     2
 73
     0
 90
        0
 40
-0.6
 41
-30.0
 62
     5
 63
     7
421
 16777215
 74
     1
 91
        4
 64
     7
 65
   257
 75
     1
175
     1
 42
1.0
 92
        0
 66
   257
 43
1.0
 76
     1
 77
     6
 78
     2
 67
     7
 79
     5
170
     0
171
     0
290
     0
174
     0
 93
        1
 44
0.0
173
     0
291
     0
 45
0.0
1001
ACAD
1000
AcDbSavedByObjectVersion
1070
     0
1000
AcDbSavedByObjectVersion
1070
     0
1000
AcDbSavedByObjectVersion
1070
     0
1000
AcDbSavedByObjectVersion
1070
     0
  0
VISUALSTYLE
  5
1F3
102
{ACAD_REACTORS
330
1EE
102
}
330
1EE
100
AcDbVisualStyle
  2
Basic
 70
     7
 71
     1
 72
     0
 73
     1
 90
        0
 40
-0.6
 41
-30.0
 62
     5
 63
     7
421
 16777215
 74
     0
 91
        4
 64
     7
 65
   257
 75
     1
175
     1
 42
1.0
 92
        8
 66
     7
 43
1.0
 76
     1
 77
     6
 78
     2
 67
     7
 79
     5
170
     0
171
     0
290
     0
174
     0
 93
        1
 44
0.0
173
     0
291
     1
 45
0.0
1001
ACAD
1000
AcDbSavedByObjectVersion
1070
     0
1000
AcDbSavedByObjectVersion
1070
     0
1000
AcDbSavedByObjectVersion
1070
     0
1000
AcDbSavedByObjectVersion
1070
     0
  0
VISUALSTYLE
  5
1FA
102
{ACAD_REACTORS
330
1EE
102
}
330
1EE
100
AcDbVisualStyle
  2
Brighten
 70
    12
 71
     2
 72
     2
 73
     0
 90
        0
 40
-0.6
 41
-30.0
 62
     5
 63
     7
421
 16777215
 74
     1
 91
        4
 64
     7
 65
   257
 75
     1
175
     1
 42
1.0
 92
        8
 66
     7
 43
1.0
 76
     1
 77
     6
 78
     2
 67
     7
 79
     5
170
     0
171
     0
290
     0
174
     0
 93
        1
 44
50.0
173
     0
291
     1
 45
0.0
1001
ACAD
1000
AcDbSavedByObjectVersion
1070
     0
1000
AcDbSavedByObjectVersion
1070
     0
1000
AcDbSavedByObjectVersion
1070
     0
1000
AcDbSavedByObjectVersion
1070
     0
  0
VISUALSTYLE
  5
1FE
102
{ACAD_REACTORS
330
1EE
102
}
330
1EE
100
AcDbVisualStyle
  2
ColorChange
 70
    16
 71
     2
 72
     2
 73
     3
 90
        0
 40
-0.6
 41
-30.0
 62
     5
 63
     8
421
  8421504
 74
     1
 91
        4
 64
     7
 65
   257
 75
     1
175
     1
 42
1.0
 92
        8
 66
     8
424
  8421504
 43
1.0
 76
     1
 77
     6
 78
     2
 67
     7
 79
     5
170
     0
171
     0
290
     0
174
     0
 93
        1
 44
0.0
173
     0
291
     1
 45
0.0
1001
ACAD
1000
AcDbSavedByObjectVersion
1070
     0
1000
AcDbSavedByObjectVersion
1070
     0
1000
AcDbSavedByObjectVersion
1070
     0
1000
AcDbSavedByObjectVersion
1070
     0
  0
VISUALSTYLE
  5
1F7
102
{ACAD_REACTORS
330
1EE
102
}
330
1EE
100
AcDbVisualStyle
  2
Conceptual
 70
     9
 71
     3
 72
     2
 73
     0
 90
        0
 40
-0.6
 41
-30.0
 62
     5
 63
     7
421
 16777215
 74
     2
 91
        2
 64
     7
 65
   257
 75
     1
175
     1
 42
40.0
 92
        8
 66
     7
 43
1.0
 76
     1
 77
     6
 78
     2
 67
     7
 79
     3
170
     0
171
     0
290
     0
174
     0
 93
        1
 44
0.0
173
     0
291
     0
 45
0.0
1001
ACAD
1000
AcDbSavedByObjectVersion
1070
     0
1000
AcDbSavedByObjectVersion
1070
     0
1000
AcDbSavedByObjectVersion
1070
     0
1000
AcDbSavedByObjectVersion
1070
     0
  0
VISUALSTYLE
  5
1F9
102
{ACAD_REACTORS
330
1EE
102
}
330
1EE
100
AcDbVisualStyle
  2
Dim
 70
    11
 71
     2
 72
     2
 73
     0
 90
        0
 40
-0.6
 41
-30.0
 62
     5
 63
     7
421
 16777215
 74
     1
 91
        4
 64
     7
 65
   257
 75
     1
175
     1
 42
1.0
 92
        8
 66
     7
 43
1.0
 76
     1
 77
     6
 78
     2
 67
     7
 79
     5
170
     0
171
     0
290
     0
174
     0
 93
        1
 44
-50.0
173
     0
291
     1
 45
0.0
1001
ACAD
1000
AcDbSavedByObjectVersion
1070
     0
1000
AcDbSavedByObjectVersion
1070
     0
1000
AcDbSavedByObjectVersion
1070
     0
1000
AcDbSavedByObjectVersion
1070
     0
  0
VISUALSTYLE
  5
1079
102
{ACAD_XDICTIONARY
360
107A
102
}
102
{ACAD_REACTORS
330
1EE
102
}
330
1EE
100
AcDbVisualStyle
  2
EdgeColorOff
 70
    22
 71
     2
 72
     2
 73
     0
 90
        0
 40
-0.6
 41
-30.0
 62
     5
 63
     7
 74
     1
 91
        4
 64
     7
 65
   257
 75
     1
175
     1
 42
1.0
 92
        8
 66
     7
 43
1.0
 76
     1
 77
     6
 78
     2
 67
     7
 79
     5
170
     0
171
     0
290
     0
174
     0
 93
        1
 44
0.0
173
     0
291
     1
 45
0.0
1001
ACAD
1000
AcDbSavedByObjectVersion
1070
     0
1000
AcDbSavedByObjectVersion
1070
     0
1000
AcDbSavedByObjectVersion
1070
     0
1000
AcDbSavedByObjectVersion
1070
     0
  0
VISUALSTYLE
  5
1FD
102
{ACAD_REACTORS
330
1EE
102
}
330
1EE
100
AcDbVisualStyle
  2
Facepattern
 70
    15
 71
     2
 72
     2
 73
     0
 90
        0
 40
-0.6
 41
-30.0
 62
     5
 63
     7
421
 16777215
 74
     1
 91
        4
 64
     7
 65
   257
 75
     1
175
     1
 42
1.0
 92
        8
 66
     7
 43
1.0
 76
     1
 77
     6
 78
     2
 67
     7
 79
     5
170
     0
171
     0
290
     0
174
     0
 93
        1
 44
0.0
173
     0
291
     1
 45
0.0
1001
ACAD
1000
AcDbSavedByObjectVersion
1070
     0
1000
AcDbSavedByObjectVersion
1070
     0
1000
AcDbSavedByObjectVersion
1070
     0
1000
AcDbSavedByObjectVersion
1070
     0
  0
VISUALSTYLE
  5
1EF
102
{ACAD_REACTORS
330
1EE
102
}
330
1EE
100
AcDbVisualStyle
  2
Flat
 70
     0
 71
     2
 72
     1
 73
     1
 90
        2
 40
-0.6
 41
30.0
 62
     5
 63
     7
421
 16777215
 74
     0
 91
        4
 64
     7
 65
   257
 75
     1
175
     1
 42
1.0
 92
        8
 66
     7
 43
1.0
 76
     1
 77
     6
 78
     2
 67
     7
 79
     5
170
     0
171
     0
290
     0
174
     0
 93
       13
 44
0.0
173
     0
291
     1
 45
0.0
1001
ACAD
1000
AcDbSavedByObjectVersion
1070
     0
1000
AcDbSavedByObjectVersion
1070
     0
1000
AcDbSavedByObjectVersion
1070
     0
1000
AcDbSavedByObjectVersion
1070
     0
  0
VISUALSTYLE
  5
1F0
102
{ACAD_REACTORS
330
1EE
102
}
330
1EE
100
AcDbVisualStyle
  2
FlatWithEdges
 70
     1
 71
     2
 72
     1
 73
     1
 90
        2
 40
-0.6
 41
30.0
 62
     5
 63
     7
421
 16777215
 74
     1
 91
        4
 64
     7
 65
   257
 75
     1
175
     1
 42
1.0
 92
        0
 66
   257
 43
1.0
 76
     1
 77
     6
 78
     2
 67
     7
 79
     5
170
     0
171
     0
290
     0
174
     0
 93
       13
 44
0.0
173
     0
291
     1
 45
0.0
1001
ACAD
1000
AcDbSavedByObjectVersion
1070
     0
1000
AcDbSavedByObjectVersion
1070
     0
1000
AcDbSavedByObjectVersion
1070
     0
1000
AcDbSavedByObjectVersion
1070
     0
  0
VISUALSTYLE
  5
1F1
102
{ACAD_REACTORS
330
1EE
102
}
330
1EE
100
AcDbVisualStyle
  2
Gouraud
 70
     2
 71
     2
 72
     2
 73
     1
 90
        2
 40
-0.6
 41
30.0
 62
     5
 63
     7
421
 16777215
 74
     0
 91
        4
 64
     7
 65
   257
 75
     1
175
     1
 42
1.0
 92
        0
 66
     7
 43
1.0
 76
     1
 77
     6
 78
     2
 67
     7
 79
     5
170
     0
171
     0
290
     0
174
     0
 93
       13
 44
0.0
173
     0
291
     1
 45
0.0
1001
ACAD
1000
AcDbSavedByObjectVersion
1070
     0
1000
AcDbSavedByObjectVersion
1070
     0
1000
AcDbSavedByObjectVersion
1070
     0
1000
AcDbSavedByObjectVersion
1070
     0
  0
VISUALSTYLE
  5
1F2
102
{ACAD_REACTORS
330
1EE
102
}
330
1EE
100
AcDbVisualStyle
  2
GouraudWithEdges
 70
     3
 71
     2
 72
     2
 73
     1
 90
        2
 40
-0.6
 41
30.0
 62
     5
 63
     7
421
 16777215
 74
     1
 91
        4
 64
     7
 65
   257
 75
     1
175
     1
 42
1.0
 92
        0
 66
   257
 43
1.0
 76
     1
 77
     6
 78
     2
 67
     7
 79
     5
170
     0
171
     0
290
     0
174
     0
 93
       13
 44
0.0
173
     0
291
     1
 45
0.0
1001
ACAD
1000
AcDbSavedByObjectVersion
1070
     0
1000
AcDbSavedByObjectVersion
1070
     0
1000
AcDbSavedByObjectVersion
1070
     0
1000
AcDbSavedByObjectVersion
1070
     0
  0
VISUALSTYLE
  5
107C
102
{ACAD_XDICTIONARY
360
107D
102
}
102
{ACAD_REACTORS
330
1EE
102
}
330
1EE
100
AcDbVisualStyle
  2
JitterOff
 70
    20
 71
     2
 72
     2
 73
     0
 90
        0
 40
-0.6
 41
-30.0
 62
     5
 63
     7
 74
     1
 91
        4
 64
     7
 65
   257
 75
     1
175
     1
 42
1.0
 92
       10
 66
     7
 43
1.0
 76
     1
 77
     6
 78
     2
 67
     7
 79
     5
170
     0
171
     0
290
     0
174
     0
 93
        1
 44
0.0
173
     0
291
     1
 45
0.0
1001
ACAD
1000
AcDbSavedByObjectVersion
1070
     0
1000
AcDbSavedByObjectVersion
1070
     0
1000
AcDbSavedByObjectVersion
1070
     0
1000
AcDbSavedByObjectVersion
1070
     0
  0
VISUALSTYLE
  5
1FC
102
{ACAD_REACTORS
330
1EE
102
}
330
1EE
100
AcDbVisualStyle
  2
Linepattern
 70
    14
 71
     2
 72
     2
 73
     0
 90
        0
 40
-0.6
 41
-30.0
 62
     5
 63
     7
421
 16777215
 74
     1
 91
        4
 64
     7
 65
   257
 75
     7
175
     7
 42
1.0
 92
        8
 66
     7
 43
1.0
 76
     1
 77
     6
 78
     2
 67
     7
 79
     5
170
     0
171
     0
290
     0
174
     0
 93
        1
 44
0.0
173
     0
291
     1
 45
0.0
1001
ACAD
1000
AcDbSavedByObjectVersion
1070
     0
1000
AcDbSavedByObjectVersion
1070
     0
1000
AcDbSavedByObjectVersion
1070
     0
1000
AcDbSavedByObjectVersion
1070
     0
  0
VISUALSTYLE
  5
107F
102
{ACAD_XDICTIONARY
360
1080
102
}
102
{ACAD_REACTORS
330
1EE
102
}
330
1EE
100
AcDbVisualStyle
  2
OverhangOff
 70
    21
 71
     2
 72
     2
 73
     0
 90
        0
 40
-0.6
 41
-30.0
 62
     5
 63
     7
 74
     1
 91
        4
 64
     7
 65
   257
 75
     1
175
     1
 42
1.0
 92
        9
 66
     7
 43
1.0
 76
     1
 77
     6
 78
     2
 67
     7
 79
     5
170
     0
171
     0
290
     0
174
     0
 93
        1
 44
0.0
173
     0
291
     1
 45
0.0
1001
ACAD
1000
AcDbSavedByObjectVersion
1070
     0
1000
AcDbSavedByObjectVersion
1070
     0
1000
AcDbSavedByObjectVersion
1070
     0
1000
AcDbSavedByObjectVersion
1070
     0
  0
VISUALSTYLE
  5
1F8
102
{ACAD_REACTORS
330
1EE
102
}
330
1EE
100
AcDbVisualStyle
  2
Realistic
 70
     8
 71
     2
 72
     2
 73
     0
 90
        0
 40
-0.6
 41
-30.0
 62
     5
 63
     7
421
 16777215
 74
     1
 91
        0
 64
     7
 65
   257
 75
     1
175
     1
 42
1.0
 92
        8
 66
     8
424
  7895160
 43
1.0
 76
     1
 77
     6
 78
     2
 67
     7
 79
     5
170
     0
171
     0
290
     0
174
     0
 93
       13
 44
0.0
173
     0
291
     0
 45
0.0
1001
ACAD
1000
AcDbSavedByObjectVersion
1070
     0
1000
AcDbSavedByObjectVersion
1070
     0
1000
AcDbSavedByObjectVersion
1070
     0
1000
AcDbSavedByObjectVersion
1070
     0
  0
VISUALSTYLE
  5
1FB
102
{ACAD_REACTORS
330
1EE
102
}
330
1EE
100
AcDbVisualStyle
  2
Thicken
 70
    13
 71
     2
 72
     2
 73
     0
 90
        0
 40
-0.6
 41
-30.0
 62
     5
 63
     7
421
 16777215
 74
     1
 91
        4
 64
     7
 65
   257
 75
     1
175
     1
 42
1.0
 92
       12
 66
     7
 43
1.0
 76
     1
 77
     6
 78
     2
 67
     7
 79
     5
170
     0
171
     0
290
     0
174
     0
 93
        1
 44
0.0
173
     0
291
     1
 45
0.0
1001
ACAD
1000
AcDbSavedByObjectVersion
1070
     0
1000
AcDbSavedByObjectVersion
1070
     0
1000
AcDbSavedByObjectVersion
1070
     0
1000
AcDbSavedByObjectVersion
1070
     0
  0
DICTIONARYVAR
  5
18F
102
{ACAD_REACTORS
330
DA
102
}
330
DA
100
DictionaryVariables
280
     0
  1
STANDARD
  0
DICTIONARYVAR
  5
DC
102
{ACAD_REACTORS
330
DA
102
}
330
DA
100
DictionaryVariables
280
     0
  1
1
  0
DICTIONARYVAR
  5
DB
102
{ACAD_REACTORS
330
DA
102
}
330
DA
100
DictionaryVariables
280
     0
  1
1
  0
DICTIONARY
  5
9D
102
{ACAD_REACTORS
330
97
102
}
330
97
100
AcDbDictionary
281
     1
  0
XRECORD
  5
186
102
{ACAD_REACTORS
330
97
102
}
330
97
100
AcDbXrecord
280
     1
 90
-1023410169
  0
XRECORD
  5
1413
102
{ACAD_REACTORS
330
1412
102
}
330
1412
100
AcDbXrecord
280
     1
330
8E8
330
A06
  0
DICTIONARY
  5
10DB
330
1EC
100
AcDbDictionary
280
     1
281
     1
  3
ACAD_XREC_ROUNDTRIP
360
10DC
  0
DICTIONARY
  5
10D9
330
1EB
100
AcDbDictionary
280
     1
281
     1
  3
ACAD_XREC_ROUNDTRIP
360
10DA
  0
DICTIONARY
  5
10DD
330
1ED
100
AcDbDictionary
280
     1
281
     1
  3
ACAD_XREC_ROUNDTRIP
360
10DE
  0
DICTIONARY
  5
1697
330
170
100
AcDbDictionary
280
     1
281
     1
  3
ACAD_XREC_ROUNDTRIP
360
1698
  0
DICTIONARY
  5
107A
330
1079
100
AcDbDictionary
280
     1
281
     1
  3
ACAD_XREC_ROUNDTRIP
360
107B
  0
DICTIONARY
  5
107D
330
107C
100
AcDbDictionary
280
     1
281
     1
  3
ACAD_XREC_ROUNDTRIP
360
107E
  0
DICTIONARY
  5
1080
330
107F
100
AcDbDictionary
280
     1
281
     1
  3
ACAD_XREC_ROUNDTRIP
360
1081
  0
XRECORD
  5
10DC
102
{ACAD_REACTORS
330
10DB
102
}
330
10DB
100
AcDbXrecord
280
     1
102
MATERIAL
148
0.0
149
0.0
149
0.0
 93
        0
 94
       63
282
     0
 72
     1
 77
     1
171
     1
175
     1
179
     1
273
     0
  0
XRECORD
  5
10DA
102
{ACAD_REACTORS
330
10D9
102
}
330
10D9
100
AcDbXrecord
280
     1
102
MATERIAL
148
0.0
149
0.0
149
0.0
 93
        0
 94
       63
282
     0
 72
     1
 77
     1
171
     1
175
     1
179
     1
273
     0
  0
XRECORD
  5
10DE
102
{ACAD_REACTORS
330
10DD
102
}
330
10DD
100
AcDbXrecord
280
     1
102
MATERIAL
148
0.0
149
0.0
149
0.0
 93
        0
 94
       63
282
     0
 72
     1
 77
     1
171
     1
175
     1
179
     1
273
     0
  0
XRECORD
  5
1698
102
{ACAD_REACTORS
330
1697
102
}
330
1697
100
AcDbXrecord
280
     1
102
ACAD_ROUNDTRIP_PRE2007_TABLESTYLE
 90
        4
 91
        0
  1

 92
        4
 93
        0
  2

 94
        4
 95
        0
  3

  0
XRECORD
  5
107B
102
{ACAD_REACTORS
330
107A
102
}
330
107A
100
AcDbXrecord
280
     1
102
RTVSPropertyOp0
 70
     0
102
RTVSPropertyOp1
 70
     0
102
RTVSPropertyOp2
 70
     0
102
RTVSPropertyOp3
 70
     0
102
RTVSPropertyOp4
 70
     0
102
RTVSPropertyOp5
 70
     0
102
RTVSPropertyOp6
 70
     0
102
RTVSPropertyOp7
 70
     0
102
RTVSPropertyOp8
 70
     0
102
RTVSPropertyOp9
 70
     0
102
RTVSPropertyOp10
 70
     0
102
RTVSPropertyOp11
 70
     0
102
RTVSPropertyOp12
 70
     0
102
RTVSPropertyOp13
 70
     0
102
RTVSPropertyOp14
 70
     2
102
RTVSPropertyOp15
 70
     0
102
RTVSPropertyOp16
 70
     0
102
RTVSPropertyOp17
 70
     0
102
RTVSPropertyOp18
 70
     0
102
RTVSPropertyOp19
 70
     0
102
RTVSPropertyOp20
 70
     0
102
RTVSPropertyOp21
 70
     0
102
RTVSPropertyOp22
 70
     0
102
RTVSPropertyOp23
 70
     0
102
RTVSPropertyOp24
 70
     0
102
RTVSPropertyOp25
 70
     0
102
RTVSPropertyOp26
 70
     0
102
RTVSPropertyOp27
 70
     0
  0
XRECORD
  5
107E
102
{ACAD_REACTORS
330
107D
102
}
330
107D
100
AcDbXrecord
280
     1
102
RTVSPropertyOp0
 70
     0
102
RTVSPropertyOp1
 70
     0
102
RTVSPropertyOp2
 70
     0
102
RTVSPropertyOp3
 70
     0
102
RTVSPropertyOp4
 70
     0
102
RTVSPropertyOp5
 70
     0
102
RTVSPropertyOp6
 70
     0
102
RTVSPropertyOp7
 70
     0
102
RTVSPropertyOp8
 70
     0
102
RTVSPropertyOp9
 70
     0
102
RTVSPropertyOp10
 70
     0
102
RTVSPropertyOp11
 70
     0
102
RTVSPropertyOp12
 70
     0
102
RTVSPropertyOp13
 70
     0
102
RTVSPropertyOp14
 70
     2
102
RTVSPropertyOp15
 70
     0
102
RTVSPropertyOp16
 70
     0
102
RTVSPropertyOp17
 70
     0
102
RTVSPropertyOp18
 70
     0
102
RTVSPropertyOp19
 70
     0
102
RTVSPropertyOp20
 70
     0
102
RTVSPropertyOp21
 70
     0
102
RTVSPropertyOp22
 70
     0
102
RTVSPropertyOp23
 70
     0
102
RTVSPropertyOp24
 70
     0
102
RTVSPropertyOp25
 70
     0
102
RTVSPropertyOp26
 70
     0
102
RTVSPropertyOp27
 70
     0
  0
XRECORD
  5
1081
102
{ACAD_REACTORS
330
1080
102
}
330
1080
100
AcDbXrecord
280
     1
102
RTVSPropertyOp0
 70
     0
102
RTVSPropertyOp1
 70
     0
102
RTVSPropertyOp2
 70
     0
102
RTVSPropertyOp3
 70
     0
102
RTVSPropertyOp4
 70
     0
102
RTVSPropertyOp5
 70
     0
102
RTVSPropertyOp6
 70
     0
102
RTVSPropertyOp7
 70
     0
102
RTVSPropertyOp8
 70
     0
102
RTVSPropertyOp9
 70
     0
102
RTVSPropertyOp10
 70
     0
102
RTVSPropertyOp11
 70
     0
102
RTVSPropertyOp12
 70
     0
102
RTVSPropertyOp13
 70
     0
102
RTVSPropertyOp14
 70
     2
102
RTVSPropertyOp15
 70
     0
102
RTVSPropertyOp16
 70
     0
102
RTVSPropertyOp17
 70
     0
102
RTVSPropertyOp18
 70
     0
102
RTVSPropertyOp19
 70
     0
102
RTVSPropertyOp20
 70
     0
102
RTVSPropertyOp21
 70
     0
102
RTVSPropertyOp22
 70
     0
102
RTVSPropertyOp23
 70
     0
102
RTVSPropertyOp24
 70
     0
102
RTVSPropertyOp25
 70
     0
102
RTVSPropertyOp26
 70
     0
102
RTVSPropertyOp27
 70
     0
  0
ENDSEC
  0
EOF
