  0
SECTION
  2
HEADER
  9
$ACADVER
  1
AC1018
  9
$ACADMAINTVER
 70
   104
  9
$DWGCODEPAGE
  3
ANSI_1252
  9
$LASTSAVEDBY
  1
Oberdoer
  9
$CUSTOMPROPERTYTAG
  1
AmdtFileType
  9
$CUSTOMPROPERTY
  1
84
  9
$INSBASE
 10
0.0
 20
0.0
 30
0.0
  9
$EXTMIN
 10
-0.0384408529054803
 20
-0.0271831745545735
 30
-0.000000000000001
  9
$EXTMAX
 10
630.0384606563825
 20
445.5271971784417
 30
0.0000000000000142
  9
$LIMMIN
 10
-0.0000000000000568
 20
0.0
  9
$LIMMAX
 10
630.0
 20
445.5
  9
$ORTHOMODE
 70
     0
  9
$REGENMODE
 70
     1
  9
$FILLMODE
 70
     1
  9
$QTEXTMODE
 70
     0
  9
$MIRRTEXT
 70
     1
  9
$LTSCALE
 40
1.5
  9
$ATTMODE
 70
     1
  9
$TEXTSIZE
 40
2.5
  9
$TRACEWID
 40
1.0
  9
$TEXTSTYLE
  7
STANDARD
  9
$CLAYER
  8
0
  9
$CELTYPE
  6
ByLayer
  9
$CECOLOR
 62
   256
  9
$CELTSCALE
 40
1.0
  9
$DISPSILH
 70
     0
  9
$DIMSCALE
 40
1.0
  9
$DIMASZ
 40
2.5
  9
$DIMEXO
 40
0.0
  9
$DIMDLI
 40
10.0
  9
$DIMRND
 40
0.0
  9
$DIMDLE
 40
0.0
  9
$DIMEXE
 40
2.0
  9
$DIMTP
 40
0.1
  9
$DIMTM
 40
0.1
  9
$DIMTXT
 40
3.5
  9
$DIMCEN
 40
0.0
  9
$DIMTSZ
 40
0.0
  9
$DIMTOL
 70
     0
  9
$DIMLIM
 70
     0
  9
$DIMTIH
 70
     0
  9
$DIMTOH
 70
     0
  9
$DIMSE1
 70
     0
  9
$DIMSE2
 70
     0
  9
$DIMTAD
 70
     1
  9
$DIMZIN
 70
     8
  9
$DIMBLK
  1

  9
$DIMASO
 70
     1
  9
$DIMSHO
 70
     1
  9
$DIMPOST
  1

  9
$DIMAPOST
  1
"
  9
$DIMALT
 70
     0
  9
$DIMALTD
 70
     2
  9
$DIMALTF
 40
0.0393701
  9
$DIMLFAC
 40
1.0
  9
$DIMTOFL
 70
     1
  9
$DIMTVP
 40
0.0
  9
$DIMTIX
 70
     0
  9
$DIMSOXD
 70
     0
  9
$DIMSAH
 70
     0
  9
$DIMBLK1
  1

  9
$DIMBLK2
  1

  9
$DIMSTYLE
  2
AM_DIN
  9
$DIMCLRD
 70
   256
  9
$DIMCLRE
 70
   256
  9
$DIMCLRT
 70
     2
  9
$DIMTFAC
 40
0.71
  9
$DIMGAP
 40
1.5
  9
$DIMJUST
 70
     0
  9
$DIMSD1
 70
     0
  9
$DIMSD2
 70
     0
  9
$DIMTOLJ
 70
     0
  9
$DIMTZIN
 70
     8
  9
$DIMALTZ
 70
     0
  9
$DIMALTTZ
 70
     0
  9
$DIMUPT
 70
     0
  9
$DIMDEC
 70
     2
  9
$DIMTDEC
 70
     2
  9
$DIMALTU
 70
     2
  9
$DIMALTTD
 70
     2
  9
$DIMTXSTY
  7
STANDARD
  9
$DIMAUNIT
 70
     0
  9
$DIMADEC
 70
     0
  9
$DIMALTRND
 40
0.0
  9
$DIMAZIN
 70
     2
  9
$DIMDSEP
 70
    46
  9
$DIMATFIT
 70
     3
  9
$DIMFRAC
 70
     0
  9
$DIMLDRBLK
  1

  9
$DIMLUNIT
 70
     2
  9
$DIMLWD
 70
    -1
  9
$DIMLWE
 70
    -1
  9
$DIMTMOVE
 70
     0
  9
$LUNITS
 70
     2
  9
$LUPREC
 70
     2
  9
$SKETCHINC
 40
1.0
  9
$FILLETRAD
 40
3.75
  9
$AUNITS
 70
     0
  9
$AUPREC
 70
     0
  9
$MENU
  1
.
  9
$ELEVATION
 40
0.0
  9
$PELEVATION
 40
0.0
  9
$THICKNESS
 40
0.0
  9
$LIMCHECK
 70
     0
  9
$CHAMFERA
 40
3.75
  9
$CHAMFERB
 40
3.75
  9
$CHAMFERC
 40
20.0
  9
$CHAMFERD
 40
0.0
  9
$SKPOLY
 70
     0
  9
$TDCREATE
 40
2455117.353566979
  9
$TDUCREATE
 40
2455117.270233646
  9
$TDUPDATE
 40
2456486.643544387
  9
$TDUUPDATE
 40
2456486.560211053
  9
$TDINDWG
 40
0.1861264120
  9
$TDUSRTIMER
 40
0.1861253009
  9
$USRTIMER
 70
     1
  9
$ANGBASE
 50
0.0
  9
$ANGDIR
 70
     0
  9
$PDMODE
 70
     0
  9
$PDSIZE
 40
0.0
  9
$PLINEWID
 40
0.0
  9
$SPLFRAME
 70
     0
  9
$SPLINETYPE
 70
     6
  9
$SPLINESEGS
 70
     8
  9
$HANDSEED
  5
1862
  9
$SURFTAB1
 70
     6
  9
$SURFTAB2
 70
     6
  9
$SURFTYPE
 70
     6
  9
$SURFU
 70
     6
  9
$SURFV
 70
     6
  9
$UCSBASE
  2

  9
$UCSNAME
  2

  9
$UCSORG
 10
0.0
 20
0.0
 30
0.0
  9
$UCSXDIR
 10
1.0
 20
0.0
 30
0.0
  9
$UCSYDIR
 10
0.0
 20
1.0
 30
0.0
  9
$UCSORTHOREF
  2

  9
$UCSORTHOVIEW
 70
     0
  9
$UCSORGTOP
 10
0.0
 20
0.0
 30
0.0
  9
$UCSORGBOTTOM
 10
0.0
 20
0.0
 30
0.0
  9
$UCSORGLEFT
 10
0.0
 20
0.0
 30
0.0
  9
$UCSORGRIGHT
 10
0.0
 20
0.0
 30
0.0
  9
$UCSORGFRONT
 10
0.0
 20
0.0
 30
0.0
  9
$UCSORGBACK
 10
0.0
 20
0.0
 30
0.0
  9
$PUCSBASE
  2

  9
$PUCSNAME
  2

  9
$PUCSORG
 10
0.0
 20
0.0
 30
0.0
  9
$PUCSXDIR
 10
1.0
 20
0.0
 30
0.0
  9
$PUCSYDIR
 10
0.0
 20
1.0
 30
0.0
  9
$PUCSORTHOREF
  2

  9
$PUCSORTHOVIEW
 70
     0
  9
$PUCSORGTOP
 10
0.0
 20
0.0
 30
0.0
  9
$PUCSORGBOTTOM
 10
0.0
 20
0.0
 30
0.0
  9
$PUCSORGLEFT
 10
0.0
 20
0.0
 30
0.0
  9
$PUCSORGRIGHT
 10
0.0
 20
0.0
 30
0.0
  9
$PUCSORGFRONT
 10
0.0
 20
0.0
 30
0.0
  9
$PUCSORGBACK
 10
0.0
 20
0.0
 30
0.0
  9
$USERI1
 70
     0
  9
$USERI2
 70
     0
  9
$USERI3
 70
     0
  9
$USERI4
 70
     0
  9
$USERI5
 70
     0
  9
$USERR1
 40
0.0
  9
$USERR2
 40
0.0
  9
$USERR3
 40
0.0
  9
$USERR4
 40
0.0
  9
$USERR5
 40
0.0
  9
$WORLDVIEW
 70
     1
  9
$SHADEDGE
 70
     3
  9
$SHADEDIF
 70
    70
  9
$TILEMODE
 70
     1
  9
$MAXACTVP
 70
    64
  9
$PINSBASE
 10
0.0
 20
0.0
 30
0.0
  9
$PLIMCHECK
 70
     0
  9
$PEXTMIN
 10
28.19999999999999
 20
17.0
 30
0.0
  9
$PEXTMAX
 10
253.8
 20
153.0
 30
0.0
  9
$PLIMMIN
 10
-7.5
 20
-20.0
  9
$PLIMMAX
 10
289.5
 20
190.0
  9
$UNITMODE
 70
     0
  9
$VISRETAIN
 70
     1
  9
$PLINEGEN
 70
     0
  9
$PSLTSCALE
 70
     1
  9
$TREEDEPTH
 70
  3020
  9
$CMLSTYLE
  2
Standard
  9
$CMLJUST
 70
     0
  9
$CMLSCALE
 40
20.0
  9
$PROXYGRAPHICS
 70
     1
  9
$MEASUREMENT
 70
     1
  9
$CELWEIGHT
370
    -1
  9
$ENDCAPS
280
     0
  9
$JOINSTYLE
280
     0
  9
$LWDISPLAY
290
     0
  9
$INSUNITS
 70
     4
  9
$HYPERLINKBASE
  1

  9
$STYLESHEET
  1
ganz_fein_1.ctb
  9
$XEDIT
290
     1
  9
$CEPSNTYPE
380
     0
  9
$PSTYLEMODE
290
     1
  9
$FINGERPRINTGUID
  2
{2E81949C-6763-4D56-B2DA-DEDDB010D0F9}
  9
$VERSIONGUID
  2
{370412EA-F4D4-416E-8BD9-8897B49EB16B}
  9
$EXTNAMES
290
     1
  9
$PSVPSCALE
 40
0.0
  9
$OLESTARTUP
290
     0
  9
$SORTENTS
280
   127
  9
$INDEXCTL
280
     0
  9
$HIDETEXT
280
     0
  9
$XCLIPFRAME
290
     0
  9
$HALOGAP
280
     0
  9
$OBSCOLOR
 70
   257
  9
$OBSLTYPE
280
     0
  9
$INTERSECTIONDISPLAY
280
     0
  9
$INTERSECTIONCOLOR
 70
   257
  9
$DIMASSOC
280
     1
  9
$PROJECTNAME
  1

  0
ENDSEC
  0
SECTION
  2
CLASSES
  0
CLASS
  1
ACDBDICTIONARYWDFLT
  2
AcDbDictionaryWithDefault
  3
ObjectDBX Classes
 90
        0
 91
        1
280
     0
281
     0
  0
CLASS
  1
ACME_DOCUMENT
  2
AcMeDbDoc
  3
AcMeServices
 90
        0
 91
        1
280
     0
281
     0
  0
CLASS
  1
AMGSETTINGSOBJ
  2
AmgSettingsObj
  3
"AcadM|Product Description: AutoCAD Mechanical|Company: Autodesk"
 90
        0
 91
        2
280
     0
281
     0
  0
CLASS
  1
ACMESCOPE
  2
AcMeScope
  3
AcMeServices
 90
        0
 91
        1
280
     0
281
     0
  0
CLASS
  1
ACMECOMMANDHISTORY
  2
AcMeCommandHistory
  3
AcMeServices
 90
        0
 91
        1
280
     0
281
     0
  0
CLASS
  1
ACIMSYSVARMAN
  2
AcImSysVarManager
  3
AcMeServices
 90
        0
 91
        5
280
     0
281
     0
  0
CLASS
  1
ACIMREALSYSVAR
  2
AcImRealSysVar
  3
AcMeServices
 90
        0
 91
        1
280
     0
281
     0
  0
CLASS
  1
ACIMINTSYSVAR
  2
AcImIntSysVar
  3
AcMeServices
 90
        0
 91
       27
280
     0
281
     0
  0
CLASS
  1
ACMEDRAWINGMAN
  2
AcMeDrawingMan
  3
AcMeServices
 90
        0
 91
        1
280
     0
281
     0
  0
CLASS
  1
ACMEVIEW
  2
AcMeView
  3
AcMeServices
 90
        0
 91
        1
280
     0
281
     0
  0
CLASS
  1
ACDBENTITYCACHE
  2
AcMeEntityCache
  3
AcMeServices
 90
        0
 91
        1
280
     0
281
     0
  0
CLASS
  1
GSMANAGER
  2
AcMeGSManager
  3
AcMeServices
 90
        0
 91
        1
280
     0
281
     0
  0
CLASS
  1
AMDTINTERNALREACTOR
  2
AmdtInternalReactor
  3
AcMeServices
 90
        0
 91
        2
280
     0
281
     0
  0
CLASS
  1
ACMESTATEMGR
  2
AcMeStateMgr
  3
AcMeServices
 90
        0
 91
        1
280
     0
281
     0
  0
CLASS
  1
ACGREFMASTER
  2
AcGrefMaster
  3
AcAttribServices
 90
        0
 91
        1
280
     0
281
     0
  0
CLASS
  1
ACME_DATABASE
  2
AcMeDbDatabase
  3
AcMeServices
 90
        0
 91
        3
280
     0
281
     0
  0
CLASS
  1
ACRFINSADJUSTERMGR
  2
AcRfInsAdjusterMgr
  3
AcMeServices
 90
        0
 91
        1
280
     0
281
     0
  0
CLASS
  1
ACGREFACADMASTER
  2
AcGrefacadMaster
  3
AcGrefServices
 90
        0
 91
        1
280
     0
281
     0
  0
CLASS
  1
AMIMASTER
  2
AmiMaster
  3
AmiServices
 90
        0
 91
        1
280
     0
281
     0
  0
CLASS
  1
ACMDATADICTIONARY
  2
AcmDataDictionary
  3
"AcmSymBB|Product Description: AutoCAD Mechanical|Company: Autodesk"
 90
        0
 91
        1
280
     0
281
     0
  0
CLASS
  1
ACMDATAENTRYBLOCK
  2
AcmDataEntryBlock
  3
"AcmSymBB|Product Description: AutoCAD Mechanical|Company: Autodesk"
 90
        0
 91
        0
280
     0
281
     0
  0
CLASS
  1
ACIMSTRSYSVAR
  2
AcImStrSysVar
  3
AcMeServices
 90
        0
 91
        5
280
     0
281
     0
  0
CLASS
  1
ACMSTANDARDDIN
  2
AcmStandardDIN
  3
"Amdt_StdImp|Product Description: AutoCAD Mechanical|Company: Autodesk"
 90
        0
 91
        1
280
     0
281
     0
  0
CLASS
  1
AMGOBJPROPCFG
  2
AmgObjPropCfg
  3
"AmgLay|Product Description: AutoCAD Mechanical|Company: Autodesk"
 90
        1
 91
        2
280
     0
281
     0
  0
CLASS
  1
AMDTEDGESTANDARDDIN
  2
AmdtEdgeStdDIN
  3
"Amdt_StdImp|Product Description: AutoCAD Mechanical|Company: Autodesk"
 90
        0
 91
        0
280
     0
281
     0
  0
CLASS
  1
ACMSURFSTANDARDDIN
  2
AcmSurfTextStdDIN
  3
"Amdt_StdImp|Product Description: AutoCAD Mechanical|Company: Autodesk"
 90
        0
 91
        1
280
     0
281
     0
  0
CLASS
  1
ACMFCFSTANDARDDIN
  2
AcmFCFStdDIN
  3
"Amdt_StdImp|Product Description: AutoCAD Mechanical|Company: Autodesk"
 90
        0
 91
        1
280
     0
281
     0
  0
CLASS
  1
ACMWELDSTANDARDDIN
  2
AcmWeldingStdDIN
  3
"Amdt_StdImp|Product Description: AutoCAD Mechanical|Company: Autodesk"
 90
        0
 91
        1
280
     0
281
     0
  0
CLASS
  1
ACMIDSTANDARDDIN
  2
AcmIdStdDIN
  3
"Amdt_StdImp|Product Description: AutoCAD Mechanical|Company: Autodesk"
 90
        0
 91
        1
280
     0
281
     0
  0
CLASS
  1
ACMDATUMSTANDARDDIN
  2
AcmDatumStdDIN
  3
"Amdt_StdImp|Product Description: AutoCAD Mechanical|Company: Autodesk"
 90
        0
 91
        1
280
     0
281
     0
  0
CLASS
  1
ACMBOMSTANDARDDIN
  2
AcmBOMStdDIN
  3
"Amdt_StdImp|Product Description: AutoCAD Mechanical|Company: Autodesk"
 90
        0
 91
        1
280
     0
281
     0
  0
CLASS
  1
ACMDETAILSTANDARDDIN
  2
AmdtDetailSymStdDIN
  3
"Amdt_StdImp|Product Description: AutoCAD Mechanical|Company: Autodesk"
 90
        0
 91
        1
280
     0
281
     0
  0
CLASS
  1
ACMSECTIONSTANDARDDIN
  2
AmdtSectionSymStdDIN
  3
"Amdt_StdImp|Product Description: AutoCAD Mechanical|Company: Autodesk"
 90
        0
 91
        1
280
     0
281
     0
  0
CLASS
  1
ACMCENTERLINESTANDARDDIN
  2
AmdtCenterLineStdDIN
  3
"Amdt_StdImp|Product Description: AutoCAD Mechanical|Company: Autodesk"
 90
        0
 91
        1
280
     0
281
     0
  0
CLASS
  1
ACMNOTESTANDARDDIN
  2
AmdtNoteStdDIN
  3
"Amdt_StdImp|Product Description: AutoCAD Mechanical|Company: Autodesk"
 90
        0
 91
        1
280
     0
281
     0
  0
CLASS
  1
ACAMGLAYSTD
  2
AcAmgLayStd
  3
"AmgLay|Product Description: AutoCAD Mechanical|Company: Autodesk"
 90
        0
 91
        2
280
     0
281
     0
  0
CLASS
  1
ACAMGDIMSTD
  2
AcAmgDimStd
  3
"AmgDim|Product Description: AutoCAD Mechanical|Company: Autodesk"
 90
        0
 91
        2
280
     0
281
     0
  0
CLASS
  1
ACAMGHOLECHARTSTDDIN
  2
AcAmgHoleChartStdDIN
  3
ACMSYMBB_MODULE_NAME
 90
        0
 91
        1
280
     0
281
     0
  0
CLASS
  1
ACAMGTITLESTD
  2
AcAmgTitleStd
  3
"AmgTitle|Product Description: AutoCAD Mechanical|Company: Autodesk"
 90
        0
 91
        2
280
     0
281
     0
  0
CLASS
  1
LAYER_INDEX
  2
AcDbLayerIndex
  3
ObjectDBX Classes
 90
        0
 91
        0
280
     0
281
     0
  0
CLASS
  1
IDBUFFER
  2
AcDbIdBuffer
  3
ObjectDBX Classes
 90
        0
 91
        0
280
     0
281
     0
  0
CLASS
  1
DICTIONARYVAR
  2
AcDbDictionaryVar
  3
ObjectDBX Classes
 90
        0
 91
        3
280
     0
281
     0
  0
CLASS
  1
AM_DRAWING_MGR
  2
AcDmDwgMgr
  3
AcMechDwgViewMgmt
 90
        0
 91
        1
280
     0
281
     0
  0
CLASS
  1
AM_DWG_DOCUMENT
  2
AcDmDwgDocument
  3
AcMechDwgViewMgmt
 90
        0
 91
        1
280
     0
281
     0
  0
CLASS
  1
AM_DWG_SHEET
  2
AcDmSheet
  3
AcMechDwgViewMgmt
 90
        0
 91
        2
280
     0
281
     0
  0
CLASS
  1
AM_VIEWDIMPARMAP
  2
AcDmViewDimParMap
  3
AcMechDwgViewMgmt
 90
        0
 91
        2
280
     0
281
     0
  0
CLASS
  1
AM_DWGMGR_NAME
  2
AcDmDwgMgrName
  3
AcMechDwgViewMgmt
 90
        0
 91
        1
280
     0
281
     0
  0
CLASS
  1
AMDTMENUSTATEMGR
  2
AmdtMenuStateMgr
  3
McadcomServices
 90
        0
 91
        1
280
     0
281
     0
  0
CLASS
  1
AMDTMCOMMENUSTATE
  2
AmdtMcomMenuState
  3
McadcomServices
 90
        0
 91
        1
280
     0
281
     0
  0
CLASS
  1
MAPIAMMOUDLE
  2
MApiAmModule
  3
MApiAmServices
 90
        0
 91
        1
280
     0
281
     0
  0
CLASS
  1
AMDTADMENUSTATE
  2
AmdtAdMenuState
  3
DesignerServices
 90
        0
 91
        1
280
     0
281
     0
  0
CLASS
  1
ADAPPL
  2
AcAdAppl
  3
DesignerServices
 90
        0
 91
        1
280
     0
281
     0
  0
CLASS
  1
DEPMGR
  2
AcAdDepMgr
  3
DesignerServices
 90
        0
 91
        1
280
     0
281
     0
  0
CLASS
  1
PARAMMGR
  2
AcAdParamMgr
  3
DesignerServices
 90
        0
 91
        1
280
     0
281
     0
  0
CLASS
  1
PARAMSCOPE
  2
AcAdParamScope
  3
DesignerServices
 90
        0
 91
        1
280
     0
281
     0
  0
CLASS
  1
NAMEDAPPL
  2
AcAdNamedAppl
  3
DesignerServices
 90
        0
 91
        1
280
     0
281
     0
  0
CLASS
  1
AMDTDMMENUSTATE
  2
AmdtDmMenuState
  3
AcMechDwgViewMgmt
 90
        0
 91
        1
280
     0
281
     0
  0
CLASS
  1
AMDTAMMENUSTATE
  2
AmdtAmMenuState
  3
DesignerAssemblies
 90
        0
 91
        1
280
     0
281
     0
  0
CLASS
  1
ACAMPROJECT
  2
AcAmProject
  3
DesignerAssemblies
 90
        0
 91
        1
280
     0
281
     0
  0
CLASS
  1
ACAMGRCOMPDEF
  2
AcAmGrCompDef
  3
DesignerAssemblies
 90
        0
 91
        1
280
     0
281
     0
  0
CLASS
  1
ACCMCONTEXT
  2
AcCmContext
  3
DesignerAssemblies
 90
        0
 91
        1
280
     0
281
     0
  0
CLASS
  1
ACAMCOMPDEF
  2
AcAmCompDef
  3
DesignerAssemblies
 90
        0
 91
        1
280
     0
281
     0
  0
CLASS
  1
ACAMCOMPDEFMGR
  2
AcAmCompDefMgr
  3
DesignerAssemblies
 90
        0
 91
        1
280
     0
281
     0
  0
CLASS
  1
AMCONTEXTMGR
  2
AcAmContextMgr
  3
DesignerAssemblies
 90
        0
 91
        1
280
     0
281
     0
  0
CLASS
  1
ACAMCONTEXTMODELER
  2
AcAmContextModeler
  3
DesignerAssemblies
 90
        0
 91
        1
280
     0
281
     0
  0
CLASS
  1
ACMTHREADLINESTANDARDDIN
  2
AmdtThreadLineStdDIN
  3
"Amdt_StdImp|Product Description: AutoCAD Mechanical|Company: Autodesk"
 90
        0
 91
        1
280
     0
281
     0
  0
CLASS
  1
CATALOGSTATE
  2
AcAmCatalogState
  3
DesignerAssemblies
 90
        0
 91
        1
280
     0
281
     0
  0
CLASS
  1
ACAMGRCOMPDEFSET
  2
AcAmGrCompDefSet
  3
DesignerAssemblies
 90
        0
 91
        1
280
     0
281
     0
  0
CLASS
  1
AMDTBROWSERDBTAB
  2
AmdtBrowserDbTab
  3
McadcomServices
 90
        0
 91
        1
280
     0
281
     0
  0
CLASS
  1
CBROWSERAPPOBJECT
  2
CBrowserAppObject
  3
McadcomServices
 90
        0
 91
        3
280
     0
281
     0
  0
CLASS
  1
DM_PLACEHOLDER
  2
AcDmSelsetPlaceholder
  3
AcMechDwgViewMgmt
 90
        0
 91
        1
280
     0
281
     0
  0
CLASS
  1
TABLESTYLE
  2
AcDbTableStyle
  3
ObjectDBX Classes
 90
     4095
 91
        1
280
     0
281
     0
  0
CLASS
  1
MATERIAL
  2
AcDbMaterial
  3
ObjectDBX Classes
 90
     1024
 91
        3
280
     0
281
     0
  0
CLASS
  1
VISUALSTYLE
  2
AcDbVisualStyle
  3
ObjectDBX Classes
 90
     4095
 91
       19
280
     0
281
     0
  0
CLASS
  1
ACRFATTGENMGR
  2
AcRfAttGeneralMgr
  3
AcAttribServices
 90
        0
 91
        0
280
     0
281
     0
  0
CLASS
  1
ACRFOBJATTMGR
  2
AcRfObjAttGroupMgr
  3
AcAttribServices
 90
        0
 91
        0
280
     0
281
     0
  0
CLASS
  1
ACRFMCADAPIATTHOLDER
  2
AcRfMCADAPIAttHolder
  3
AcAttribServices
 90
        0
 91
        0
280
     0
281
     0
  0
CLASS
  1
AMDTSYSATTR
  2
AmdtSystemAttribute
  3
AcAttribServices
 90
        0
 91
        0
280
     0
281
     0
  0
CLASS
  1
ACMTAPERSTANDARDDIN
  2
AcmTaperStdDIN
  3
"Amdt_StdImp|Product Description: AutoCAD Mechanical|Company: Autodesk"
 90
        0
 91
        1
280
     0
281
     0
  0
CLASS
  1
CAMSSTRUCTBTNSTATE
  2
StructBtnState
  3
L"DesignerAssemblies"
 90
        0
 91
        0
280
     0
281
     0
  0
CLASS
  1
ACMSTANDARDANSI
  2
AcmStandardANSI
  3
"Amdt_StdImp|Product Description: AutoCAD Mechanical|Company: Autodesk"
 90
        0
 91
        0
280
     0
281
     0
  0
CLASS
  1
ACMSURFSTANDARDANSI
  2
AcmSurfTextStdANSI
  3
"Amdt_StdImp|Product Description: AutoCAD Mechanical|Company: Autodesk"
 90
        0
 91
        0
280
     0
281
     0
  0
CLASS
  1
ACMFCFSTANDARDANSI
  2
AcmFCFStdANSI
  3
"Amdt_StdImp|Product Description: AutoCAD Mechanical|Company: Autodesk"
 90
        0
 91
        0
280
     0
281
     0
  0
CLASS
  1
ACMWELDSTANDARDANSI
  2
AcmWeldingStdANSI
  3
"Amdt_StdImp|Product Description: AutoCAD Mechanical|Company: Autodesk"
 90
        0
 91
        0
280
     0
281
     0
  0
CLASS
  1
ACMIDSTANDARDANSI
  2
AcmIdStdANSI
  3
"Amdt_StdImp|Product Description: AutoCAD Mechanical|Company: Autodesk"
 90
        0
 91
        0
280
     0
281
     0
  0
CLASS
  1
ACMDATUMSTANDARDANSI
  2
AcmDatumStdANSI
  3
"Amdt_StdImp|Product Description: AutoCAD Mechanical|Company: Autodesk"
 90
        0
 91
        0
280
     0
281
     0
  0
CLASS
  1
ACMBOMSTANDARDANSI
  2
AcmBOMStdANSI
  3
"Amdt_StdImp|Product Description: AutoCAD Mechanical|Company: Autodesk"
 90
        0
 91
        0
280
     0
281
     0
  0
CLASS
  1
ACMDETAILSTANDARDANSI
  2
AmdtDetailSymStdANSI
  3
"Amdt_StdImp|Product Description: AutoCAD Mechanical|Company: Autodesk"
 90
        0
 91
        0
280
     0
281
     0
  0
CLASS
  1
ACMSECTIONSTANDARDANSI
  2
AmdtSectionSymStdANSI
  3
"Amdt_StdImp|Product Description: AutoCAD Mechanical|Company: Autodesk"
 90
        0
 91
        0
280
     0
281
     0
  0
CLASS
  1
ACMCENTERLINESTANDARDANSI
  2
AmdtCenterLineStdANSI
  3
"Amdt_StdImp|Product Description: AutoCAD Mechanical|Company: Autodesk"
 90
        0
 91
        0
280
     0
281
     0
  0
CLASS
  1
ACMTHREADLINESTANDARDANSI
  2
AmdtThreadLineStdANSI
  3
"Amdt_StdImp|Product Description: AutoCAD Mechanical|Company: Autodesk"
 90
        0
 91
        0
280
     0
281
     0
  0
CLASS
  1
ACMNOTESTANDARDANSI
  2
AmdtNoteStdANSI
  3
"Amdt_StdImp|Product Description: AutoCAD Mechanical|Company: Autodesk"
 90
        0
 91
        0
280
     0
281
     0
  0
CLASS
  1
AMDTNOTETEMPLATEDB
  2
AmdtNoteTemplateDB
  3
AMDT_STDIMP_MODULE_NAME
 90
        0
 91
        9
280
     0
281
     0
  0
CLASS
  1
ACAMGHOLECHARTSTDANSI
  2
AcAmgHoleChartStdANSI
  3
ACMSYMBB_MODULE_NAME
 90
        0
 91
        0
280
     0
281
     0
  0
CLASS
  1
ACMTAPERSTANDARDANSI
  2
AcmTaperStdANSI
  3
"Amdt_StdImp|Product Description: AutoCAD Mechanical|Company: Autodesk"
 90
        0
 91
        0
280
     0
281
     0
  0
CLASS
  1
ACAMGFILTERDAT
  2
AcAmgFilterDat
  3
"AcadM|Product Description: AutoCAD Mechanical|Company: Autodesk"
 90
        0
 91
        0
280
     0
281
     0
  0
CLASS
  1
ACMSTANDARDISO
  2
AcmStandardISO
  3
"Amdt_StdImp|Product Description: AutoCAD Mechanical|Company: Autodesk"
 90
        0
 91
        1
280
     0
281
     0
  0
CLASS
  1
AMDTEDGESTANDARDISO
  2
AmdtEdgeStdISO
  3
"Amdt_StdImp|Product Description: AutoCAD Mechanical|Company: Autodesk"
 90
        0
 91
        1
280
     0
281
     0
  0
CLASS
  1
ACMSURFSTANDARDISO
  2
AcmSurfTextStdISO
  3
"Amdt_StdImp|Product Description: AutoCAD Mechanical|Company: Autodesk"
 90
        0
 91
        1
280
     0
281
     0
  0
CLASS
  1
ACMFCFSTANDARDISO
  2
AcmFCFStdISO
  3
"Amdt_StdImp|Product Description: AutoCAD Mechanical|Company: Autodesk"
 90
        0
 91
        1
280
     0
281
     0
  0
CLASS
  1
ACMWELDSTANDARDISO
  2
AcmWeldingStdISO
  3
"Amdt_StdImp|Product Description: AutoCAD Mechanical|Company: Autodesk"
 90
        0
 91
        1
280
     0
281
     0
  0
CLASS
  1
ACMIDSTANDARDISO
  2
AcmIdStdISO
  3
"Amdt_StdImp|Product Description: AutoCAD Mechanical|Company: Autodesk"
 90
        0
 91
        1
280
     0
281
     0
  0
CLASS
  1
ACMDATUMSTANDARDISO
  2
AcmDatumStdISO
  3
"Amdt_StdImp|Product Description: AutoCAD Mechanical|Company: Autodesk"
 90
        0
 91
        1
280
     0
281
     0
  0
CLASS
  1
ACMBOMSTANDARDISO
  2
AcmBOMStdISO
  3
"Amdt_StdImp|Product Description: AutoCAD Mechanical|Company: Autodesk"
 90
        0
 91
        1
280
     0
281
     0
  0
CLASS
  1
ACMDETAILSTANDARDISO
  2
AmdtDetailSymStdISO
  3
"Amdt_StdImp|Product Description: AutoCAD Mechanical|Company: Autodesk"
 90
        0
 91
        1
280
     0
281
     0
  0
CLASS
  1
ACMSECTIONSTANDARDISO
  2
AmdtSectionSymStdISO
  3
"Amdt_StdImp|Product Description: AutoCAD Mechanical|Company: Autodesk"
 90
        0
 91
        1
280
     0
281
     0
  0
CLASS
  1
ACMCENTERLINESTANDARDISO
  2
AmdtCenterLineStdISO
  3
"Amdt_StdImp|Product Description: AutoCAD Mechanical|Company: Autodesk"
 90
        0
 91
        1
280
     0
281
     0
  0
CLASS
  1
ACMNOTESTANDARDISO
  2
AmdtNoteStdISO
  3
"Amdt_StdImp|Product Description: AutoCAD Mechanical|Company: Autodesk"
 90
        0
 91
        1
280
     0
281
     0
  0
CLASS
  1
ACAMGHOLECHARTSTDISO
  2
AcAmgHoleChartStdISO
  3
ACMSYMBB_MODULE_NAME
 90
        0
 91
        1
280
     0
281
     0
  0
CLASS
  1
ACMTHREADLINESTANDARDISO
  2
AmdtThreadLineStdISO
  3
"Amdt_StdImp|Product Description: AutoCAD Mechanical|Company: Autodesk"
 90
        0
 91
        1
280
     0
281
     0
  0
CLASS
  1
ACMTAPERSTANDARDISO
  2
AcmTaperStdISO
  3
"Amdt_StdImp|Product Description: AutoCAD Mechanical|Company: Autodesk"
 90
        0
 91
        1
280
     0
281
     0
  0
CLASS
  1
SORTENTSTABLE
  2
AcDbSortentsTable
  3
ObjectDBX Classes
 90
        0
 91
        1
280
     0
281
     0
  0
CLASS
  1
AMDTEDGESTANDARDDIN13715
  2
AmdtEdgeStdDIN13715
  3
"Amdt_StdImp|Product Description: AutoCAD Mechanical|Company: Autodesk"
 90
        0
 91
        1
280
     0
281
     0
  0
ENDSEC
  0
SECTION
  2
TABLES
  0
TABLE
  2
VPORT
  5
8
330
0
100
AcDbSymbolTable
 70
     1
  0
VPORT
  5
1E9
330
8
100
AcDbSymbolTableRecord
100
AcDbViewportTableRecord
  2
*Active
 70
     0
 10
0.0
 20
0.0
 11
1.0
 21
1.0
 12
311.7610903254959
 22
217.9819035876426
 13
0.0
 23
0.0
 14
3.75
 24
3.75
 15
15.0
 25
15.0
 16
0.0
 26
0.0
 36
1.0
 17
0.0
 27
0.0
 37
0.0
 40
443.897479240685
 41
1.50790513833992
 42
50.0
 43
0.0
 44
0.0
 50
0.0
 51
0.0
 71
    16
 72
   100
 73
     1
 74
     3
 75
     0
 76
     0
 77
     0
 78
     0
281
     0
 65
     1
110
0.0
120
0.0
130
0.0
111
1.0
121
0.0
131
0.0
112
0.0
122
1.0
132
0.0
 79
     0
146
0.0
  0
ENDTAB
  0
TABLE
  2
LTYPE
  5
5
330
0
100
AcDbSymbolTable
 70
    91
  0
LTYPE
  5
14
330
5
100
AcDbSymbolTableRecord
100
AcDbLinetypeTableRecord
  2
ByBlock
 70
     0
  3

 72
    65
 73
     0
 40
0.0
  0
LTYPE
  5
15
330
5
100
AcDbSymbolTableRecord
100
AcDbLinetypeTableRecord
  2
ByLayer
 70
     0
  3

 72
    65
 73
     0
 40
0.0
  0
LTYPE
  5
16
330
5
100
AcDbSymbolTableRecord
100
AcDbLinetypeTableRecord
  2
Continuous
 70
     0
  3
Solid line
 72
    65
 73
     0
 40
0.0
  0
LTYPE
  5
A0
330
5
100
AcDbSymbolTableRecord
100
AcDbLinetypeTableRecord
  2
AM_ISO02W050
 70
     0
  3
__ __ __ __ __ __ __ __ __ __ __ __ __ __ __
 72
    65
 73
     2
 40
7.5
 49
6.0
 74
     0
 49
-1.5
 74
     0
  0
LTYPE
  5
A1
330
5
100
AcDbSymbolTableRecord
100
AcDbLinetypeTableRecord
  2
AM_ISO08W050
 70
     0
  3
____ . ____ . ____ . ____ . ____ . ____ . ____
 72
    65
 73
     4
 40
18.0
 49
12.0
 74
     0
 49
-1.5
 74
     0
 49
3.0
 74
     0
 49
-1.5
 74
     0
  0
LTYPE
  5
A2
330
5
100
AcDbSymbolTableRecord
100
AcDbLinetypeTableRecord
  2
AM_ISO09W050
 70
     0
  3
_____ . . _____ . . _____ . . ____ .. ____
 72
    65
 73
     6
 40
22.5
 49
12.0
 74
     0
 49
-1.5
 74
     0
 49
3.0
 74
     0
 49
-1.5
 74
     0
 49
3.0
 74
     0
 49
-1.5
 74
     0
  0
LTYPE
  5
A3
330
5
100
AcDbSymbolTableRecord
100
AcDbLinetypeTableRecord
  2
Amconstr
 70
     0
  3
_______________________
 72
    65
 73
     2
 40
9999.0
 49
9999.0
 74
     0
 49
0.0
 74
     0
  0
LTYPE
  5
A4
330
5
100
AcDbSymbolTableRecord
100
AcDbLinetypeTableRecord
  2
AM_ISO08W050x2
 70
     0
  3
__ . __ . __ . __ . __ . __
 72
    65
 73
     4
 40
9.0
 49
6.0
 74
     0
 49
-0.75
 74
     0
 49
1.5
 74
     0
 49
-0.75
 74
     0
  0
LTYPE
  5
A5
330
5
100
AcDbSymbolTableRecord
100
AcDbLinetypeTableRecord
  2
AM_ISO02W050x2
 70
     0
  3
 _ _ _ _ _ _ _ _ _ _ _ _
 72
    65
 73
     2
 40
3.75
 49
3.0
 74
     0
 49
-0.75
 74
     0
  0
LTYPE
  5
A8
330
5
100
AcDbSymbolTableRecord
100
AcDbLinetypeTableRecord
  2
Amzigzag
 70
     0
  3
/\/-/\/-/\/-/\/-/\/-/\/
 72
    65
 73
     2
 40
11.0001
 49
0.0001
 74
     4
 75
   135
340
A7
 46
0.04
 50
0.0
 44
0.0
 45
0.0
 49
-11.0
 74
     0
  0
LTYPE
  5
A9
330
5
100
AcDbSymbolTableRecord
100
AcDbLinetypeTableRecord
  2
AM_DIN_F_W050
 70
     0
  3
__ __ __ __ __ __ __ __ __ __ __ __ __ __ __
 72
    65
 73
     2
 40
6.25
 49
4.75
 74
     0
 49
-1.5
 74
     0
  0
LTYPE
  5
AA
330
5
100
AcDbSymbolTableRecord
100
AcDbLinetypeTableRecord
  2
AM_DIN_G_W050
 70
     0
  3
____ . ____ . ____ . ____ . ____ . ____ . ____
 72
    65
 73
     4
 40
13.75
 49
9.75
 74
     0
 49
-1.5
 74
     0
 49
1.0
 74
     0
 49
-1.5
 74
     0
  0
LTYPE
  5
AB
330
5
100
AcDbSymbolTableRecord
100
AcDbLinetypeTableRecord
  2
AM_DIN_K_W050
 70
     0
  3
_____ . . _____ . . _____ . . ____ .. ____
 72
    65
 73
     6
 40
16.25
 49
9.75
 74
     0
 49
-1.5
 74
     0
 49
1.0
 74
     0
 49
-1.5
 74
     0
 49
1.0
 74
     0
 49
-1.5
 74
     0
  0
LTYPE
  5
AC
330
5
100
AcDbSymbolTableRecord
100
AcDbLinetypeTableRecord
  2
AM_DIN_G_W050x2
 70
     0
  3
__ . __ . __ . __ . __ . __
 72
    65
 73
     4
 40
6.875
 49
4.75
 74
     0
 49
-0.875
 74
     0
 49
0.375
 74
     0
 49
-0.875
 74
     0
  0
LTYPE
  5
AD
330
5
100
AcDbSymbolTableRecord
100
AcDbLinetypeTableRecord
  2
AM_DIN_F_W050x2
 70
     0
  3
 _ _ _ _ _ _ _ _ _ _ _ _
 72
    65
 73
     2
 40
3.125
 49
2.25
 74
     0
 49
-0.875
 74
     0
  0
LTYPE
  5
BB
330
5
100
AcDbSymbolTableRecord
100
AcDbLinetypeTableRecord
  2
ACDINWELD
 70
     0
  3
_ _ _ _ _
 72
    65
 73
     2
 40
2.0
 49
2.0
 74
     0
 49
-1.0
 74
     0
  0
LTYPE
  5
BC
330
5
100
AcDbSymbolTableRecord
100
AcDbLinetypeTableRecord
  2
ACDINTGB
 70
     0
  3
__ . . __ . .
 72
    65
 73
     6
 40
9.0
 49
4.0
 74
     0
 49
-1.0
 74
     0
 49
1.0
 74
     0
 49
-1.0
 74
     0
 49
1.0
 74
     0
 49
-1.0
 74
     0
  0
LTYPE
  5
BD
330
5
100
AcDbSymbolTableRecord
100
AcDbLinetypeTableRecord
  2
ACDINTGL
 70
     0
  3
_ _ _ _ _
 72
    65
 73
     2
 40
3.0
 49
2.0
 74
     0
 49
-1.0
 74
     0
  0
LTYPE
  5
BF
330
5
100
AcDbSymbolTableRecord
100
AcDbLinetypeTableRecord
  2
CENTER
 70
     0
  3
__ . __
 72
    65
 73
     4
 40
7.0
 49
4.0
 74
     0
 49
-1.0
 74
     0
 49
1.0
 74
     0
 49
-1.0
 74
     0
  0
LTYPE
  5
10F
330
5
100
AcDbSymbolTableRecord
100
AcDbLinetypeTableRecord
  2
HIDDEN
 70
     0
  3
Verdeckt
 72
    65
 73
     2
 40
9.525
 49
6.349999999999996
 74
     0
 49
-3.174999999999998
 74
     0
  0
LTYPE
  5
110
330
5
100
AcDbSymbolTableRecord
100
AcDbLinetypeTableRecord
  2
PHANTOM2
 70
     0
  3
Phantom (.5x) ___ _ _ ___ _ _ ___ _ _ ___ _ _
 72
    65
 73
     6
 40
31.75
 49
15.875
 74
     0
 49
-3.174999999999998
 74
     0
 49
3.174999999999998
 74
     0
 49
-3.174999999999998
 74
     0
 49
3.174999999999998
 74
     0
 49
-3.174999999999998
 74
     0
  0
LTYPE
  5
29A
330
5
100
AcDbSymbolTableRecord
100
AcDbLinetypeTableRecord
  2
BORDER
 70
     0
  3
Border __ __ . __ __ . __ __ . __ __ . __ __ .
 72
    65
 73
     6
 40
1.75
 49
0.5
 74
     0
 49
-0.25
 74
     0
 49
0.5
 74
     0
 49
-0.25
 74
     0
 49
0.0
 74
     0
 49
-0.25
 74
     0
  0
LTYPE
  5
29B
330
5
100
AcDbSymbolTableRecord
100
AcDbLinetypeTableRecord
  2
BORDER2
 70
     0
  3
Border (.5x) __.__.__.__.__.__.__.__.__.__.__.
 72
    65
 73
     6
 40
0.875
 49
0.25
 74
     0
 49
-0.125
 74
     0
 49
0.25
 74
     0
 49
-0.125
 74
     0
 49
0.0
 74
     0
 49
-0.125
 74
     0
  0
LTYPE
  5
29C
330
5
100
AcDbSymbolTableRecord
100
AcDbLinetypeTableRecord
  2
BORDERX2
 70
     0
  3
Border (2x) ____  ____  .  ____  ____  .  ___
 72
    65
 73
     6
 40
3.5
 49
1.0
 74
     0
 49
-0.5
 74
     0
 49
1.0
 74
     0
 49
-0.5
 74
     0
 49
0.0
 74
     0
 49
-0.5
 74
     0
  0
LTYPE
  5
29D
330
5
100
AcDbSymbolTableRecord
100
AcDbLinetypeTableRecord
  2
CENTER2
 70
     0
  3
Center (.5x) ___ _ ___ _ ___ _ ___ _ ___ _ ___
 72
    65
 73
     4
 40
1.125
 49
0.75
 74
     0
 49
-0.125
 74
     0
 49
0.125
 74
     0
 49
-0.125
 74
     0
  0
LTYPE
  5
29E
330
5
100
AcDbSymbolTableRecord
100
AcDbLinetypeTableRecord
  2
CENTERX2
 70
     0
  3
Center (2x) ________  __  ________  __  _____
 72
    65
 73
     4
 40
4.0
 49
2.5
 74
     0
 49
-0.5
 74
     0
 49
0.5
 74
     0
 49
-0.5
 74
     0
  0
LTYPE
  5
29F
330
5
100
AcDbSymbolTableRecord
100
AcDbLinetypeTableRecord
  2
DASHDOT
 70
     0
  3
Dash dot __ . __ . __ . __ . __ . __ . __ . __
 72
    65
 73
     4
 40
1.0
 49
0.5
 74
     0
 49
-0.25
 74
     0
 49
0.0
 74
     0
 49
-0.25
 74
     0
  0
LTYPE
  5
2A0
330
5
100
AcDbSymbolTableRecord
100
AcDbLinetypeTableRecord
  2
DASHDOT2
 70
     0
  3
Dash dot (.5x) _._._._._._._._._._._._._._._.
 72
    65
 73
     4
 40
0.5
 49
0.25
 74
     0
 49
-0.125
 74
     0
 49
0.0
 74
     0
 49
-0.125
 74
     0
  0
LTYPE
  5
2A1
330
5
100
AcDbSymbolTableRecord
100
AcDbLinetypeTableRecord
  2
DASHDOTX2
 70
     0
  3
Dash dot (2x) ____  .  ____  .  ____  .  ___
 72
    65
 73
     4
 40
2.0
 49
1.0
 74
     0
 49
-0.5
 74
     0
 49
0.0
 74
     0
 49
-0.5
 74
     0
  0
LTYPE
  5
2A2
330
5
100
AcDbSymbolTableRecord
100
AcDbLinetypeTableRecord
  2
DASHED
 70
     0
  3
Dashed __ __ __ __ __ __ __ __ __ __ __ __ __ _
 72
    65
 73
     2
 40
0.75
 49
0.5
 74
     0
 49
-0.25
 74
     0
  0
LTYPE
  5
2A3
330
5
100
AcDbSymbolTableRecord
100
AcDbLinetypeTableRecord
  2
DASHED2
 70
     0
  3
Dashed (.5x) _ _ _ _ _ _ _ _ _ _ _ _ _ _ _ _ _
 72
    65
 73
     2
 40
0.375
 49
0.25
 74
     0
 49
-0.125
 74
     0
  0
LTYPE
  5
2A4
330
5
100
AcDbSymbolTableRecord
100
AcDbLinetypeTableRecord
  2
DASHEDX2
 70
     0
  3
Dashed (2x) ____  ____  ____  ____  ____  ___
 72
    65
 73
     2
 40
1.5
 49
1.0
 74
     0
 49
-0.5
 74
     0
  0
LTYPE
  5
2A5
330
5
100
AcDbSymbolTableRecord
100
AcDbLinetypeTableRecord
  2
DIVIDE
 70
     0
  3
Divide ____ . . ____ . . ____ . . ____ . . ____
 72
    65
 73
     6
 40
1.25
 49
0.5
 74
     0
 49
-0.25
 74
     0
 49
0.0
 74
     0
 49
-0.25
 74
     0
 49
0.0
 74
     0
 49
-0.25
 74
     0
  0
LTYPE
  5
2A6
330
5
100
AcDbSymbolTableRecord
100
AcDbLinetypeTableRecord
  2
DIVIDE2
 70
     0
  3
Divide (.5x) __..__..__..__..__..__..__..__.._
 72
    65
 73
     6
 40
0.625
 49
0.25
 74
     0
 49
-0.125
 74
     0
 49
0.0
 74
     0
 49
-0.125
 74
     0
 49
0.0
 74
     0
 49
-0.125
 74
     0
  0
LTYPE
  5
2A7
330
5
100
AcDbSymbolTableRecord
100
AcDbLinetypeTableRecord
  2
DIVIDEX2
 70
     0
  3
Divide (2x) ________  .  .  ________  .  .  _
 72
    65
 73
     6
 40
2.5
 49
1.0
 74
     0
 49
-0.5
 74
     0
 49
0.0
 74
     0
 49
-0.5
 74
     0
 49
0.0
 74
     0
 49
-0.5
 74
     0
  0
LTYPE
  5
2A8
330
5
100
AcDbSymbolTableRecord
100
AcDbLinetypeTableRecord
  2
DOT
 70
     0
  3
Dot . . . . . . . . . . . . . . . . . . . . . .
 72
    65
 73
     2
 40
0.25
 49
0.0
 74
     0
 49
-0.25
 74
     0
  0
LTYPE
  5
2A9
330
5
100
AcDbSymbolTableRecord
100
AcDbLinetypeTableRecord
  2
DOT2
 70
     0
  3
Dot (.5x) .....................................
 72
    65
 73
     2
 40
0.125
 49
0.0
 74
     0
 49
-0.125
 74
     0
  0
LTYPE
  5
2AA
330
5
100
AcDbSymbolTableRecord
100
AcDbLinetypeTableRecord
  2
DOTX2
 70
     0
  3
Dot (2x) .  .  .  .  .  .  .  .  .  .  .  .  . 
 72
    65
 73
     2
 40
0.5
 49
0.0
 74
     0
 49
-0.5
 74
     0
  0
LTYPE
  5
2AB
330
5
100
AcDbSymbolTableRecord
100
AcDbLinetypeTableRecord
  2
GAS_LINE
 70
     0
  3
Gas line ----GAS----GAS----GAS----GAS----GAS---
 72
    65
 73
     3
 40
0.95
 49
0.5
 74
     0
 49
-0.2
 74
     2
 75
     0
340
11
 46
0.1
 50
0.0
 44
-0.1
 45
-0.05
  9
GAS
 49
-0.25
 74
     0
  0
LTYPE
  5
2AC
330
5
100
AcDbSymbolTableRecord
100
AcDbLinetypeTableRecord
  2
HIDDEN2
 70
     0
  3
Hidden (.5x) _ _ _ _ _ _ _ _ _ _ _ _ _ _ _ _ _
 72
    65
 73
     2
 40
0.1875
 49
0.125
 74
     0
 49
-0.0625
 74
     0
  0
LTYPE
  5
2AD
330
5
100
AcDbSymbolTableRecord
100
AcDbLinetypeTableRecord
  2
HIDDENX2
 70
     0
  3
Hidden (2x) ____ ____ ____ ____ ____ ____ ____
 72
    65
 73
     2
 40
0.75
 49
0.5
 74
     0
 49
-0.25
 74
     0
  0
LTYPE
  5
2AE
330
5
100
AcDbSymbolTableRecord
100
AcDbLinetypeTableRecord
  2
PHANTOM
 70
     0
  3
Phantom ______  __  __  ______  __  __  ______
 72
    65
 73
     6
 40
2.5
 49
1.25
 74
     0
 49
-0.25
 74
     0
 49
0.25
 74
     0
 49
-0.25
 74
     0
 49
0.25
 74
     0
 49
-0.25
 74
     0
  0
LTYPE
  5
2AF
330
5
100
AcDbSymbolTableRecord
100
AcDbLinetypeTableRecord
  2
PHANTOMX2
 70
     0
  3
Phantom (2x) ____________    ____    ____   _
 72
    65
 73
     6
 40
5.0
 49
2.5
 74
     0
 49
-0.5
 74
     0
 49
0.5
 74
     0
 49
-0.5
 74
     0
 49
0.5
 74
     0
 49
-0.5
 74
     0
  0
LTYPE
  5
2B0
330
5
100
AcDbSymbolTableRecord
100
AcDbLinetypeTableRecord
  2
ZIGZAG
 70
     0
  3
Zig zag /\/\/\/\/\/\/\/\/\/\/\/\/\/\/\/\/\/\/\/
 72
    65
 73
     4
 40
0.8001000000000001
 49
0.0001
 74
     0
 49
-0.2
 74
     4
 75
   131
340
2CE
 46
0.2
 50
0.0
 44
-0.2
 45
0.0
 49
-0.4
 74
     4
 75
   131
340
2CE
 46
0.2
 50
180.0
 44
0.2
 45
0.0
 49
-0.2
 74
     0
  0
LTYPE
  5
2B1
330
5
100
AcDbSymbolTableRecord
100
AcDbLinetypeTableRecord
  2
CPFLEX
 70
     0
  3
CP flex /\/\/\/\/\/\/\/\/\/\/\/\/\/\/\/\/\/\/\/
 72
    65
 73
     4
 40
0.8001000000000001
 49
0.0001
 74
     0
 49
-0.2
 74
     4
 75
   131
340
2CE
 46
0.2
 50
0.0
 44
-0.2
 45
0.0
 49
-0.4
 74
     4
 75
   131
340
2CE
 46
0.2
 50
180.0
 44
0.2
 45
0.0
 49
-0.2
 74
     0
  0
LTYPE
  5
2B2
330
5
100
AcDbSymbolTableRecord
100
AcDbLinetypeTableRecord
  2
CIRC
 70
     0
  3
 ----- ~ ----- ~ ---- ~ -----
 72
    65
 73
     3
 40
9.0
 49
7.0
 74
     0
 49
-1.0
 74
     2
 75
     0
340
11
 46
1.0
 50
0.0
 44
-0.3
 45
-0.6
  9
~
 49
-1.0
 74
     0
  0
LTYPE
  5
2B3
330
5
100
AcDbSymbolTableRecord
100
AcDbLinetypeTableRecord
  2
GETRENNT
 70
     0
  3
Getrennt ____ . . ____ . . ____ . . ____ . . __
 72
    65
 73
     6
 40
1.25
 49
0.5
 74
     0
 49
-0.25
 74
     0
 49
0.0
 74
     0
 49
-0.25
 74
     0
 49
0.0
 74
     0
 49
-0.25
 74
     0
  0
LTYPE
  5
2B4
330
5
100
AcDbSymbolTableRecord
100
AcDbLinetypeTableRecord
  2
GETRENNT2
 70
     0
  3
Getrennt (.5x) __..__..__..__..__..__..__..__..
 72
    65
 73
     6
 40
0.625
 49
0.25
 74
     0
 49
-0.125
 74
     0
 49
0.0
 74
     0
 49
-0.125
 74
     0
 49
0.0
 74
     0
 49
-0.125
 74
     0
  0
LTYPE
  5
2B5
330
5
100
AcDbSymbolTableRecord
100
AcDbLinetypeTableRecord
  2
GETRENNTX2
 70
     0
  3
Getrennt (2x) ________  .  .  ________  .  .  _
 72
    65
 73
     6
 40
2.5
 49
1.0
 74
     0
 49
-0.5
 74
     0
 49
0.0
 74
     0
 49
-0.5
 74
     0
 49
0.0
 74
     0
 49
-0.5
 74
     0
  0
LTYPE
  5
2B6
330
5
100
AcDbSymbolTableRecord
100
AcDbLinetypeTableRecord
  2
HOT_WATER_SUPPLY
 70
     0
  3
Hot water supply ---- HW ---- HW ---- HW ----
 72
    65
 73
     3
 40
0.9
 49
0.5
 74
     0
 49
-0.2
 74
     2
 75
     0
340
11
 46
0.1
 50
0.0
 44
-0.1
 45
-0.05
  9
HW
 49
-0.2
 74
     0
  0
LTYPE
  5
2B7
330
5
100
AcDbSymbolTableRecord
100
AcDbLinetypeTableRecord
  2
MITTE
 70
     0
  3
Mitte ____ _ ____ _ ____ _ ____ _ ____ _ ____
 72
    65
 73
     4
 40
2.0
 49
1.25
 74
     0
 49
-0.25
 74
     0
 49
0.25
 74
     0
 49
-0.25
 74
     0
  0
LTYPE
  5
2B8
330
5
100
AcDbSymbolTableRecord
100
AcDbLinetypeTableRecord
  2
MITTE2
 70
     0
  3
Mitte (.5x) ___ _ ___ _ ___ _ ___ _ ___ _ ___
 72
    65
 73
     4
 40
1.125
 49
0.75
 74
     0
 49
-0.125
 74
     0
 49
0.125
 74
     0
 49
-0.125
 74
     0
  0
LTYPE
  5
2B9
330
5
100
AcDbSymbolTableRecord
100
AcDbLinetypeTableRecord
  2
MITTEX2
 70
     0
  3
Mitte (2x) ________  __  ________  __  _____
 72
    65
 73
     4
 40
4.0
 49
2.5
 74
     0
 49
-0.5
 74
     0
 49
0.5
 74
     0
 49
-0.5
 74
     0
  0
LTYPE
  5
2BA
330
5
100
AcDbSymbolTableRecord
100
AcDbLinetypeTableRecord
  2
PUNKT
 70
     0
  3
Punkt . . . . . . . . . . . . . . . . . . . . .
 72
    65
 73
     2
 40
0.25
 49
0.0
 74
     0
 49
-0.25
 74
     0
  0
LTYPE
  5
2BB
330
5
100
AcDbSymbolTableRecord
100
AcDbLinetypeTableRecord
  2
PUNKT2
 70
     0
  3
Punkt (.5x) ...................................
 72
    65
 73
     2
 40
0.125
 49
0.0
 74
     0
 49
-0.125
 74
     0
  0
LTYPE
  5
2BC
330
5
100
AcDbSymbolTableRecord
100
AcDbLinetypeTableRecord
  2
PUNKTX2
 70
     0
  3
Punkt (2x) .  .  .  .  .  .  .  .  .  .  .  .  
 72
    65
 73
     2
 40
0.5
 49
0.0
 74
     0
 49
-0.5
 74
     0
  0
LTYPE
  5
2BD
330
5
100
AcDbSymbolTableRecord
100
AcDbLinetypeTableRecord
  2
RAND
 70
     0
  3
Rand __ __ . __ __ . __ __ . __ __ . __ __ .
 72
    65
 73
     6
 40
1.75
 49
0.5
 74
     0
 49
-0.25
 74
     0
 49
0.5
 74
     0
 49
-0.25
 74
     0
 49
0.0
 74
     0
 49
-0.25
 74
     0
  0
LTYPE
  5
2BE
330
5
100
AcDbSymbolTableRecord
100
AcDbLinetypeTableRecord
  2
RAND2
 70
     0
  3
Rand (.5x) __.__.__.__.__.__.__.__.__.__.__.
 72
    65
 73
     6
 40
0.875
 49
0.25
 74
     0
 49
-0.125
 74
     0
 49
0.25
 74
     0
 49
-0.125
 74
     0
 49
0.0
 74
     0
 49
-0.125
 74
     0
  0
LTYPE
  5
2BF
330
5
100
AcDbSymbolTableRecord
100
AcDbLinetypeTableRecord
  2
RANDX2
 70
     0
  3
Rand (2x) ____  ____  .  ____  ____  .  ___
 72
    65
 73
     6
 40
3.5
 49
1.0
 74
     0
 49
-0.5
 74
     0
 49
1.0
 74
     0
 49
-0.5
 74
     0
 49
0.0
 74
     0
 49
-0.5
 74
     0
  0
LTYPE
  5
2C0
330
5
100
AcDbSymbolTableRecord
100
AcDbLinetypeTableRecord
  2
STRICHPUNKT
 70
     0
  3
Strichpunkt __ . __ . __ . __ . __ . __ . __ . 
 72
    65
 73
     4
 40
1.0
 49
0.5
 74
     0
 49
-0.25
 74
     0
 49
0.0
 74
     0
 49
-0.25
 74
     0
  0
LTYPE
  5
2C1
330
5
100
AcDbSymbolTableRecord
100
AcDbLinetypeTableRecord
  2
STRICHPUNKT2
 70
     0
  3
Strichpunkt (.5x) _._._._._._._._._._._._._._._
 72
    65
 73
     4
 40
0.5
 49
0.25
 74
     0
 49
-0.125
 74
     0
 49
0.0
 74
     0
 49
-0.125
 74
     0
  0
LTYPE
  5
2C2
330
5
100
AcDbSymbolTableRecord
100
AcDbLinetypeTableRecord
  2
STRICHPUNKTX2
 70
     0
  3
Strichpunkt (2x) ____  .  ____  .  ____  .  ___
 72
    65
 73
     4
 40
2.0
 49
1.0
 74
     0
 49
-0.5
 74
     0
 49
0.0
 74
     0
 49
-0.5
 74
     0
  0
LTYPE
  5
2C3
330
5
100
AcDbSymbolTableRecord
100
AcDbLinetypeTableRecord
  2
TRACKS
 70
     0
  3
Tracks -|-|-|-|-|-|-|-|-|-|-|-|-|-|-|-|-|-|-|-|
 72
    65
 73
     2
 40
0.3
 49
0.15
 74
     4
 75
   130
340
2CE
 46
0.25
 50
0.0
 44
0.0
 45
0.0
 49
0.15
 74
     0
  0
LTYPE
  5
2C4
330
5
100
AcDbSymbolTableRecord
100
AcDbLinetypeTableRecord
  2
VERDECKT
 70
     0
  3
Verdeckt __ __ __ __ __ __ __ __ __ __ __ __ __
 72
    65
 73
     2
 40
0.375
 49
0.25
 74
     0
 49
-0.125
 74
     0
  0
LTYPE
  5
2C5
330
5
100
AcDbSymbolTableRecord
100
AcDbLinetypeTableRecord
  2
VERDECKT2
 70
     0
  3
Verdeckt (.5x) _ _ _ _ _ _ _ _ _ _ _ _ _ _ _ _ 
 72
    65
 73
     2
 40
0.1875
 49
0.125
 74
     0
 49
-0.0625
 74
     0
  0
LTYPE
  5
2C6
330
5
100
AcDbSymbolTableRecord
100
AcDbLinetypeTableRecord
  2
VERDECKTX2
 70
     0
  3
Verdeckt (2x) ____ ____ ____ ____ ____ ____ ___
 72
    65
 73
     2
 40
0.75
 49
0.5
 74
     0
 49
-0.25
 74
     0
  0
LTYPE
  5
2C7
330
5
100
AcDbSymbolTableRecord
100
AcDbLinetypeTableRecord
  2
BATTING
 70
     0
  3
Batting SSSSSSSSSSSSSSSSSSSSSSSSSSSSSSSSSSSSSSS
 72
    65
 73
     4
 40
0.4001000000000002
 49
0.0001
 74
     0
 49
-0.1
 74
     4
 75
   134
340
2CE
 46
0.1
 50
0.0
 44
-0.1
 45
0.0
 49
-0.2
 74
     4
 75
   134
340
2CE
 46
0.1
 50
180.0
 44
0.1
 45
0.0
 49
-0.1
 74
     0
  0
LTYPE
  5
2C8
330
5
100
AcDbSymbolTableRecord
100
AcDbLinetypeTableRecord
  2
FENCELINE1
 70
     0
  3
Fenceline circle ----0-----0----0-----0----0---
 72
    65
 73
     4
 40
1.449999999999999
 49
0.25
 74
     0
 49
-0.1
 74
     4
 75
   133
340
2CE
 46
0.1
 50
0.0
 44
-0.1
 45
0.0
 49
-0.1
 74
     0
 49
1.0
 74
     0
  0
LTYPE
  5
2C9
330
5
100
AcDbSymbolTableRecord
100
AcDbLinetypeTableRecord
  2
FENCELINE2
 70
     0
  3
Fenceline square ----[]-----[]----[]-----[]----
 72
    65
 73
     4
 40
1.449999999999999
 49
0.25
 74
     0
 49
-0.1
 74
     4
 75
   132
340
2CE
 46
0.1
 50
0.0
 44
-0.1
 45
0.0
 49
-0.1
 74
     0
 49
1.0
 74
     0
  0
LTYPE
  5
2CA
330
5
100
AcDbSymbolTableRecord
100
AcDbLinetypeTableRecord
  2
STRICHLINIE
 70
     0
  3
Strichlinie __ __ __ __ __ __ __ __ __ __ __ __
 72
    65
 73
     2
 40
0.75
 49
0.5
 74
     0
 49
-0.25
 74
     0
  0
LTYPE
  5
2CB
330
5
100
AcDbSymbolTableRecord
100
AcDbLinetypeTableRecord
  2
STRICHLINIE2
 70
     0
  3
Strichlinie (.5x) _ _ _ _ _ _ _ _ _ _ _ _ _ _ _
 72
    65
 73
     2
 40
0.375
 49
0.25
 74
     0
 49
-0.125
 74
     0
  0
LTYPE
  5
2CC
330
5
100
AcDbSymbolTableRecord
100
AcDbLinetypeTableRecord
  2
STRICHLINIEX2
 70
     0
  3
Strichlinie (2x) ____  ____  ____  ____  ____  
 72
    65
 73
     2
 40
1.5
 49
1.0
 74
     0
 49
-0.5
 74
     0
  0
LTYPE
  5
874
330
5
100
AcDbSymbolTableRecord
100
AcDbLinetypeTableRecord
  2
Amzigzag2
 70
     0
  3
/\/-/\/-/\/-/\/-/\/-/\/
 72
    65
 73
     2
 40
0.4401
 49
0.0001
 74
     4
 75
   135
340
A7
 46
0.0016
 50
0.0
 44
0.0
 45
0.0
 49
-0.4400000000000003
 74
     0
  0
LTYPE
  5
875
330
5
100
AcDbSymbolTableRecord
100
AcDbLinetypeTableRecord
  2
ACANSTGB
 70
     0
  3
__ . . __ . .
 72
    65
 73
     6
 40
0.35433070866
 49
0.15748031496
 74
     0
 49
-0.03937007874
 74
     0
 49
0.03937007874
 74
     0
 49
-0.03937007874
 74
     0
 49
0.03937007874
 74
     0
 49
-0.03937007874
 74
     0
  0
LTYPE
  5
876
330
5
100
AcDbSymbolTableRecord
100
AcDbLinetypeTableRecord
  2
ACANSTGL
 70
     0
  3
_ _ _ _ _
 72
    65
 73
     2
 40
0.11811023622
 49
0.07874015748
 74
     0
 49
-0.03937007874
 74
     0
  0
LTYPE
  5
8F6
330
5
100
AcDbSymbolTableRecord
100
AcDbLinetypeTableRecord
  2
ACISOWELD
 70
     0
  3
_ _ _ _ _
 72
    65
 73
     2
 40
2.0
 49
2.0
 74
     0
 49
-1.0
 74
     0
  0
LTYPE
  5
8F7
330
5
100
AcDbSymbolTableRecord
100
AcDbLinetypeTableRecord
  2
ACISOTGB
 70
     0
  3
__ . . __ . .
 72
    65
 73
     6
 40
9.0
 49
4.0
 74
     0
 49
-1.0
 74
     0
 49
1.0
 74
     0
 49
-1.0
 74
     0
 49
1.0
 74
     0
 49
-1.0
 74
     0
  0
LTYPE
  5
8F8
330
5
100
AcDbSymbolTableRecord
100
AcDbLinetypeTableRecord
  2
ACISOTGL
 70
     0
  3
_ _ _ _ _
 72
    65
 73
     2
 40
3.0
 49
2.0
 74
     0
 49
-1.0
 74
     0
  0
LTYPE
  5
1084
330
5
100
AcDbSymbolTableRecord
100
AcDbLinetypeTableRecord
  2
DN 010
 70
     0
  3
 DN10  ---- 10 ---- 10 ---- 10 ----
 72
    65
 73
     3
 40
9.0
 49
5.0
 74
     0
 49
-2.0
 74
     2
 75
     0
340
11
 46
1.0
 50
0.0
 44
-0.5
 45
-0.5
  9
10
 49
-2.0
 74
     0
  0
LTYPE
  5
1085
330
5
100
AcDbSymbolTableRecord
100
AcDbLinetypeTableRecord
  2
DN 015
 70
     0
  3
 DN15  ---- 15 ---- 15 ---- 15 ----
 72
    65
 73
     3
 40
9.0
 49
5.0
 74
     0
 49
-2.0
 74
     2
 75
     0
340
11
 46
1.0
 50
0.0
 44
-0.5
 45
-0.5
  9
15
 49
-2.0
 74
     0
  0
LTYPE
  5
1086
330
5
100
AcDbSymbolTableRecord
100
AcDbLinetypeTableRecord
  2
DN 020
 70
     0
  3
 DN20  ---- 20 ---- 20 ---- 20 ----
 72
    65
 73
     3
 40
9.0
 49
5.0
 74
     0
 49
-2.0
 74
     2
 75
     0
340
11
 46
1.0
 50
0.0
 44
-0.5
 45
-0.5
  9
20
 49
-2.0
 74
     0
  0
LTYPE
  5
1087
330
5
100
AcDbSymbolTableRecord
100
AcDbLinetypeTableRecord
  2
DN 025
 70
     0
  3
 DN25  ---- 25 ---- 25 ---- 25 ----
 72
    65
 73
     3
 40
9.0
 49
5.0
 74
     0
 49
-2.0
 74
     2
 75
     0
340
11
 46
1.0
 50
0.0
 44
-0.5
 45
-0.5
  9
25
 49
-2.0
 74
     0
  0
LTYPE
  5
1088
330
5
100
AcDbSymbolTableRecord
100
AcDbLinetypeTableRecord
  2
DN 032
 70
     0
  3
 DN32  ---- 32 ---- 32 ---- 32 ----
 72
    65
 73
     3
 40
9.0
 49
5.0
 74
     0
 49
-2.0
 74
     2
 75
     0
340
11
 46
1.0
 50
0.0
 44
-0.5
 45
-0.5
  9
32
 49
-2.0
 74
     0
  0
LTYPE
  5
1089
330
5
100
AcDbSymbolTableRecord
100
AcDbLinetypeTableRecord
  2
DN 040
 70
     0
  3
 DN40  ---- 40 ---- 40 ---- 40 ----
 72
    65
 73
     3
 40
9.0
 49
5.0
 74
     0
 49
-2.0
 74
     2
 75
     0
340
11
 46
1.0
 50
0.0
 44
-0.5
 45
-0.5
  9
40
 49
-2.0
 74
     0
  0
LTYPE
  5
108A
330
5
100
AcDbSymbolTableRecord
100
AcDbLinetypeTableRecord
  2
DN 050
 70
     0
  3
 DN50  ---- 50 ---- 50 ---- 50 ----
 72
    65
 73
     3
 40
9.0
 49
5.0
 74
     0
 49
-2.0
 74
     2
 75
     0
340
11
 46
1.0
 50
0.0
 44
-0.5
 45
-0.5
  9
50
 49
-2.0
 74
     0
  0
LTYPE
  5
108B
330
5
100
AcDbSymbolTableRecord
100
AcDbLinetypeTableRecord
  2
DN 065
 70
     0
  3
 DN65  ---- 65 ---- 65 ---- 65 ----
 72
    65
 73
     3
 40
9.0
 49
5.0
 74
     0
 49
-2.0
 74
     2
 75
     0
340
11
 46
1.0
 50
0.0
 44
-0.5
 45
-0.5
  9
65
 49
-2.0
 74
     0
  0
LTYPE
  5
108C
330
5
100
AcDbSymbolTableRecord
100
AcDbLinetypeTableRecord
  2
DN 080
 70
     0
  3
 DN80  ---- 80 ---- 80 ---- 80 ----
 72
    65
 73
     3
 40
9.0
 49
5.0
 74
     0
 49
-2.0
 74
     2
 75
     0
340
11
 46
1.0
 50
0.0
 44
-0.5
 45
-0.5
  9
80
 49
-2.0
 74
     0
  0
LTYPE
  5
108D
330
5
100
AcDbSymbolTableRecord
100
AcDbLinetypeTableRecord
  2
DN 100
 70
     0
  3
 DN100 ---- 100 --- 100 --- 100 ---
 72
    65
 73
     3
 40
9.0
 49
5.0
 74
     0
 49
-2.0
 74
     2
 75
     0
340
11
 46
1.0
 50
0.0
 44
-1.0
 45
-0.5
  9
100
 49
-2.0
 74
     0
  0
LTYPE
  5
108E
330
5
100
AcDbSymbolTableRecord
100
AcDbLinetypeTableRecord
  2
DN 125
 70
     0
  3
 DN125 ---- 125 --- 125 --- 125 ---
 72
    65
 73
     3
 40
9.0
 49
5.0
 74
     0
 49
-2.0
 74
     2
 75
     0
340
11
 46
1.0
 50
0.0
 44
-1.0
 45
-0.5
  9
125
 49
-2.0
 74
     0
  0
LTYPE
  5
108F
330
5
100
AcDbSymbolTableRecord
100
AcDbLinetypeTableRecord
  2
DN 150
 70
     0
  3
 DN150 ---- 150 --- 150 --- 150 ---
 72
    65
 73
     3
 40
9.0
 49
5.0
 74
     0
 49
-2.0
 74
     2
 75
     0
340
11
 46
1.0
 50
0.0
 44
-1.0
 45
-0.5
  9
150
 49
-2.0
 74
     0
  0
LTYPE
  5
1090
330
5
100
AcDbSymbolTableRecord
100
AcDbLinetypeTableRecord
  2
DN 200
 70
     0
  3
 DN200 ---- 200 --- 200 --- 200 ---
 72
    65
 73
     3
 40
9.0
 49
5.0
 74
     0
 49
-2.0
 74
     2
 75
     0
340
11
 46
1.0
 50
0.0
 44
-1.0
 45
-0.5
  9
200
 49
-2.0
 74
     0
  0
LTYPE
  5
1091
330
5
100
AcDbSymbolTableRecord
100
AcDbLinetypeTableRecord
  2
DN 250
 70
     0
  3
 DN250 ---- 250 --- 250 --- 250 ---
 72
    65
 73
     3
 40
9.0
 49
5.0
 74
     0
 49
-2.0
 74
     2
 75
     0
340
11
 46
1.0
 50
0.0
 44
-1.0
 45
-0.5
  9
250
 49
-2.0
 74
     0
  0
LTYPE
  5
1092
330
5
100
AcDbSymbolTableRecord
100
AcDbLinetypeTableRecord
  2
DN 300
 70
     0
  3
 DN300 ---- 300 --- 300 --- 300 ---
 72
    65
 73
     3
 40
9.0
 49
5.0
 74
     0
 49
-2.0
 74
     2
 75
     0
340
11
 46
1.0
 50
0.0
 44
-1.0
 45
-0.5
  9
300
 49
-2.0
 74
     0
  0
ENDTAB
  0
TABLE
  2
LAYER
  5
2
102
{ACAD_XDICTIONARY
360
169C
102
}
330
0
100
AcDbSymbolTable
 70
    11
  0
LAYER
  5
10
330
2
100
AcDbSymbolTableRecord
100
AcDbLayerTableRecord
  2
0
 70
     0
 62
     7
  6
Continuous
370
    -3
390
F
  0
LAYER
  5
F0
330
2
100
AcDbSymbolTableRecord
100
AcDbLayerTableRecord
  2
AM_5
 70
     0
 62
     3
  6
Continuous
370
    25
390
F
  0
LAYER
  5
877
330
2
100
AcDbSymbolTableRecord
100
AcDbLayerTableRecord
  2
AM_BOR
 70
     0
 62
     7
  6
Continuous
370
    50
390
F
  0
LAYER
  5
8F9
330
2
100
AcDbSymbolTableRecord
100
AcDbLayerTableRecord
  2
AM_0
 70
     0
 62
     7
  6
Continuous
370
    50
390
F
  0
LAYER
  5
8FA
330
2
100
AcDbSymbolTableRecord
100
AcDbLayerTableRecord
  2
UMRISS05
 70
     0
 62
     7
  6
Continuous
370
    -3
390
F
  0
LAYER
  5
8FB
330
2
100
AcDbSymbolTableRecord
100
AcDbLayerTableRecord
  2
6
 70
     0
 62
     2
  6
Continuous
370
    -3
390
F
  0
LAYER
  5
AC1
330
2
100
AcDbSymbolTableRecord
100
AcDbLayerTableRecord
  2
Defpoints
 70
     0
 62
     7
  6
Continuous
290
     0
370
    -3
390
F
  0
LAYER
  5
AC2
330
2
100
AcDbSymbolTableRecord
100
AcDbLayerTableRecord
  2
AM_7
 70
     0
 62
     4
  6
AM_DIN_G_W050
370
    25
390
F
1001
AcAecLayerStandard
1000

1000

  0
LAYER
  5
AC3
330
2
100
AcDbSymbolTableRecord
100
AcDbLayerTableRecord
  2
AM_4
 70
     0
 62
     3
  6
Continuous
370
    25
390
F
  0
LAYER
  5
AC4
330
2
100
AcDbSymbolTableRecord
100
AcDbLayerTableRecord
  2
AM_6
 70
     0
 62
     2
  6
Continuous
370
    35
390
F
  0
LAYER
  5
169B
330
2
100
AcDbSymbolTableRecord
100
AcDbLayerTableRecord
  2
LOGO_VON_SCHLASSE_120709
 70
     0
 62
     7
  6
Continuous
370
    -3
390
F
  0
ENDTAB
  0
TABLE
  2
STYLE
  5
3
330
0
100
AcDbSymbolTable
 70
    20
  0
STYLE
  5
11
330
3
100
AcDbSymbolTableRecord
100
AcDbTextStyleTableRecord
  2
STANDARD
 70
     0
 40
0.0
 41
1.0
 50
0.0
 71
     0
 42
2.5
  3
ISOCP.SHX
  4

  0
STYLE
  5
A7
330
3
100
AcDbSymbolTableRecord
100
AcDbTextStyleTableRecord
  2

 70
     1
 40
0.0
 41
1.0
 50
0.0
 71
     0
 42
2.5
  3
ltypeshp.shx
  4

  0
STYLE
  5
AE
330
3
100
AcDbSymbolTableRecord
100
AcDbTextStyleTableRecord
  2
ACDINTS
 70
     0
 40
1.0
 41
1.0
 50
0.0
 71
     0
 42
2.5
  3
isocp.shx
  4

  0
STYLE
  5
BA
330
3
100
AcDbSymbolTableRecord
100
AcDbTextStyleTableRecord
  2
ACDINGDT
 70
     0
 40
0.0
 41
1.0
 50
0.0
 71
     0
 42
2.5
  3
amgdt.shx
  4

  0
STYLE
  5
23D
330
3
100
AcDbSymbolTableRecord
100
AcDbTextStyleTableRecord
  2
USER1
 70
     0
 40
0.0
 41
1.0
 50
0.0
 71
     0
 42
2.5
  3
TXT.SHX
  4

  0
STYLE
  5
23E
330
3
100
AcDbSymbolTableRecord
100
AcDbTextStyleTableRecord
  2
USER2
 70
     0
 40
0.0
 41
1.0
 50
0.0
 71
     0
 42
2.5
  3
SIMPLEX.SHX
  4

  0
STYLE
  5
23F
330
3
100
AcDbSymbolTableRecord
100
AcDbTextStyleTableRecord
  2
USER3
 70
     0
 40
0.0
 41
1.0
 50
0.0
 71
     0
 42
2.5
  3
ITALIC.SHX
  4

  0
STYLE
  5
2CD
330
3
100
AcDbSymbolTableRecord
100
AcDbTextStyleTableRecord
  2
CP_TXT
 70
     0
 40
0.0
 41
1.0
 50
0.0
 71
     0
 42
2.5
  3
ROMANS.SHX
  4

  0
STYLE
  5
2CE
330
3
100
AcDbSymbolTableRecord
100
AcDbTextStyleTableRecord
  2

 70
     1
 40
0.0
 41
1.0
 50
0.0
 71
     0
 42
2.5
  3
LTYPESHP.SHX
  4

  0
STYLE
  5
2CF
330
3
100
AcDbSymbolTableRecord
100
AcDbTextStyleTableRecord
  2
CP_ATTR
 70
     0
 40
0.0
 41
1.0
 50
0.0
 71
     0
 42
0.2
  3
ROMANS.SHX
  4

  0
STYLE
  5
2D0
330
3
100
AcDbSymbolTableRecord
100
AcDbTextStyleTableRecord
  2
CP_TXT_IT
 70
     0
 40
0.0
 41
1.0
 50
15.0
 71
     0
 42
2.5
  3
ROMANS.SHX
  4

  0
STYLE
  5
2D1
330
3
100
AcDbSymbolTableRecord
100
AcDbTextStyleTableRecord
  2
CP_TXTCON
 70
     0
 40
0.0
 41
0.8
 50
0.0
 71
     0
 42
2.5
  3
ROMANS.SHX
  4

  0
STYLE
  5
2D2
330
3
100
AcDbSymbolTableRecord
100
AcDbTextStyleTableRecord
  2
CP_TXTCON_IT
 70
     0
 40
0.0
 41
0.8
 50
15.0
 71
     0
 42
2.5
  3
ROMANS.SHX
  4

  0
STYLE
  5
878
330
3
100
AcDbSymbolTableRecord
100
AcDbTextStyleTableRecord
  2
ACANSTS
 70
     0
 40
1.0
 41
1.0
 50
0.0
 71
     0
 42
0.2
  3
romans.shx
  4

  0
STYLE
  5
879
330
3
100
AcDbSymbolTableRecord
100
AcDbTextStyleTableRecord
  2
ACANSGDT
 70
     0
 40
0.0
 41
1.0
 50
0.0
 71
     0
 42
0.2
  3
amgdtans.shx
  4

  0
STYLE
  5
8FC
330
3
100
AcDbSymbolTableRecord
100
AcDbTextStyleTableRecord
  2
ACISOTS
 70
     0
 40
1.0
 41
1.0
 50
0.0
 71
     0
 42
2.5
  3
isocp.shx
  4
bigfont.shx
  0
STYLE
  5
8FD
330
3
100
AcDbSymbolTableRecord
100
AcDbTextStyleTableRecord
  2
ACISOGDT
 70
     0
 40
0.0
 41
1.0
 50
0.0
 71
     0
 42
2.5
  3
amgdt.shx
  4
bigfont.shx
  0
STYLE
  5
1093
330
3
100
AcDbSymbolTableRecord
100
AcDbTextStyleTableRecord
  2
Annotative
 70
     0
 40
0.0
 41
1.0
 50
0.0
 71
     0
 42
2.5
  3
ARIAL.TTF
  4

1001
ACADANNOTATIVE
1000
AnnotativeData
1002
{
1070
     1
1070
     1
1002
}
1001
ACAD
1000
Arial
1071
       34
  0
ENDTAB
  0
TABLE
  2
VIEW
  5
6
330
0
100
AcDbSymbolTable
 70
     6
  0
VIEW
  5
A7C
330
6
100
AcDbSymbolTableRecord
100
AcDbViewTableRecord
  2
AM_VIEW1
 70
     0
 40
222.75
 10
208.7708333333333
 20
334.125
 41
417.5416666666666
 11
0.0
 21
0.0
 31
1.0
 12
0.0
 22
0.0
 32
0.0
 42
50.0
 43
0.0
 44
0.0
 50
0.0
 71
    16
281
     0
 72
     0
  0
VIEW
  5
A7D
330
6
100
AcDbSymbolTableRecord
100
AcDbViewTableRecord
  2
AM_VIEW2
 70
     0
 40
222.75
 10
421.2291666666665
 20
334.125
 41
417.5416666666666
 11
0.0
 21
0.0
 31
1.0
 12
0.0
 22
0.0
 32
0.0
 42
50.0
 43
0.0
 44
0.0
 50
0.0
 71
    16
281
     0
 72
     0
  0
VIEW
  5
A7E
330
6
100
AcDbSymbolTableRecord
100
AcDbViewTableRecord
  2
AM_VIEW3
 70
     0
 40
222.75
 10
208.7708333333333
 20
111.375
 41
417.5416666666666
 11
0.0
 21
0.0
 31
1.0
 12
0.0
 22
0.0
 32
0.0
 42
50.0
 43
0.0
 44
0.0
 50
0.0
 71
    16
281
     0
 72
     0
  0
VIEW
  5
A7F
330
6
100
AcDbSymbolTableRecord
100
AcDbViewTableRecord
  2
AM_VIEW4
 70
     0
 40
222.75
 10
421.2291666666665
 20
111.375
 41
417.5416666666666
 11
0.0
 21
0.0
 31
1.0
 12
0.0
 22
0.0
 32
0.0
 42
50.0
 43
0.0
 44
0.0
 50
0.0
 71
    16
281
     0
 72
     0
  0
VIEW
  5
A80
330
6
100
AcDbSymbolTableRecord
100
AcDbViewTableRecord
  2
AM_VIEW5
 70
     0
 40
222.75
 10
314.9999999999999
 20
222.75
 41
417.5416666666666
 11
0.0
 21
0.0
 31
1.0
 12
0.0
 22
0.0
 32
0.0
 42
50.0
 43
0.0
 44
0.0
 50
0.0
 71
    16
281
     0
 72
     0
  0
VIEW
  5
A81
330
6
100
AcDbSymbolTableRecord
100
AcDbViewTableRecord
  2
AM_VIEW6
 70
     0
 40
445.4955449999998
 10
314.9999999999999
 20
222.75
 41
835.0749825000001
 11
0.0
 21
0.0
 31
1.0
 12
0.0
 22
0.0
 32
0.0
 42
50.0
 43
0.0
 44
0.0
 50
0.0
 71
    16
281
     0
 72
     0
  0
ENDTAB
  0
TABLE
  2
UCS
  5
7
330
0
100
AcDbSymbolTable
 70
     0
  0
ENDTAB
  0
TABLE
  2
APPID
  5
9
330
0
100
AcDbSymbolTable
 70
    89
  0
APPID
  5
12
330
9
100
AcDbSymbolTableRecord
100
AcDbRegAppTableRecord
  2
ACAD
 70
     0
  0
APPID
  5
82
330
9
100
AcDbSymbolTableRecord
100
AcDbRegAppTableRecord
  2
MCAD_NO_VIS
 70
     0
  0
APPID
  5
83
330
9
100
AcDbSymbolTableRecord
100
AcDbRegAppTableRecord
  2
ACAD_TEMP_GRAPHIC
 70
     0
  0
APPID
  5
94
330
9
100
AcDbSymbolTableRecord
100
AcDbRegAppTableRecord
  2
ACATTRIBSERVICES
 70
     0
  0
APPID
  5
CF
330
9
100
AcDbSymbolTableRecord
100
AcDbRegAppTableRecord
  2
GENIUS_GENSCREG_15
 70
     0
  0
APPID
  5
D0
330
9
100
AcDbSymbolTableRecord
100
AcDbRegAppTableRecord
  2
GENIUS_GENOBJ-N-SDF_13
 70
     0
  0
APPID
  5
D1
330
9
100
AcDbSymbolTableRecord
100
AcDbRegAppTableRecord
  2
GENIUS_GENODEF_13
 70
     0
  0
APPID
  5
125
330
9
100
AcDbSymbolTableRecord
100
AcDbRegAppTableRecord
  2
AD_DRAW
 70
     0
  0
APPID
  5
143
330
9
100
AcDbSymbolTableRecord
100
AcDbRegAppTableRecord
  2
DESIGNERASSEMBLIES
 70
     0
  0
APPID
  5
148
330
9
100
AcDbSymbolTableRecord
100
AcDbRegAppTableRecord
  2
ACADM_DIM_EDIT
 70
     0
  0
APPID
  5
149
330
9
100
AcDbSymbolTableRecord
100
AcDbRegAppTableRecord
  2
AMDT_DM_ADJ
 70
     0
  0
APPID
  5
2D4
330
9
100
AcDbSymbolTableRecord
100
AcDbRegAppTableRecord
  2
DCO15
 70
     0
  0
APPID
  5
880
330
9
100
AcDbSymbolTableRecord
100
AcDbRegAppTableRecord
  2
GENIUS_GENBLLY_14
 70
     0
  0
APPID
  5
906
330
9
100
AcDbSymbolTableRecord
100
AcDbRegAppTableRecord
  2
GENIUS_GENCFG_13
 70
     0
  0
APPID
  5
907
330
9
100
AcDbSymbolTableRecord
100
AcDbRegAppTableRecord
  2
GENIUS_GENCFG0_13
 70
     0
  0
APPID
  5
908
330
9
100
AcDbSymbolTableRecord
100
AcDbRegAppTableRecord
  2
GENIUS_GENCFG1_13
 70
     0
  0
APPID
  5
909
330
9
100
AcDbSymbolTableRecord
100
AcDbRegAppTableRecord
  2
GENIUS_GENCFG2_13
 70
     0
  0
APPID
  5
90A
330
9
100
AcDbSymbolTableRecord
100
AcDbRegAppTableRecord
  2
GENIUS_GENCFG3_13
 70
     0
  0
APPID
  5
90B
330
9
100
AcDbSymbolTableRecord
100
AcDbRegAppTableRecord
  2
GENIUS_GENCFG4_13
 70
     0
  0
APPID
  5
90C
330
9
100
AcDbSymbolTableRecord
100
AcDbRegAppTableRecord
  2
GENIUS_GEVCFG0_13
 70
     0
  0
APPID
  5
90D
330
9
100
AcDbSymbolTableRecord
100
AcDbRegAppTableRecord
  2
GENIUS_GENOENT_13
 70
     0
  0
APPID
  5
90E
330
9
100
AcDbSymbolTableRecord
100
AcDbRegAppTableRecord
  2
GENIUS_VERSION1
 70
     0
  0
APPID
  5
90F
330
9
100
AcDbSymbolTableRecord
100
AcDbRegAppTableRecord
  2
GENIUS_GENDIM_13
 70
     0
  0
APPID
  5
910
330
9
100
AcDbSymbolTableRecord
100
AcDbRegAppTableRecord
  2
GENIUS_GENDTOL_13
 70
     0
  0
APPID
  5
911
330
9
100
AcDbSymbolTableRecord
100
AcDbRegAppTableRecord
  2
GENIUS_GE3DTOL_13
 70
     0
  0
APPID
  5
912
330
9
100
AcDbSymbolTableRecord
100
AcDbRegAppTableRecord
  2
ASURF_PCURVE_APPNAME
 70
     0
  0
APPID
  5
913
330
9
100
AcDbSymbolTableRecord
100
AcDbRegAppTableRecord
  2
AMG_3D2D_5.0
 70
     0
  0
APPID
  5
914
330
9
100
AcDbSymbolTableRecord
100
AcDbRegAppTableRecord
  2
GENIUS_GEFCFG0_13
 70
     0
  0
APPID
  5
915
330
9
100
AcDbSymbolTableRecord
100
AcDbRegAppTableRecord
  2
GENIUS_GENBLKED_14
 70
     0
  0
APPID
  5
916
330
9
100
AcDbSymbolTableRecord
100
AcDbRegAppTableRecord
  2
GENIUS_GENTRA_14
 70
     0
  0
APPID
  5
917
330
9
100
AcDbSymbolTableRecord
100
AcDbRegAppTableRecord
  2
GENIUS_GENOBJ-N-TIT_13
 70
     0
  0
APPID
  5
918
330
9
100
AcDbSymbolTableRecord
100
AcDbRegAppTableRecord
  2
GENIUS_GENTITLE_13
 70
     0
  0
APPID
  5
919
330
9
100
AcDbSymbolTableRecord
100
AcDbRegAppTableRecord
  2
GENIUS_GENOREF_13
 70
     0
  0
APPID
  5
91A
330
9
100
AcDbSymbolTableRecord
100
AcDbRegAppTableRecord
  2
GENIUS_GENOLIS_13
 70
     0
  0
APPID
  5
91B
330
9
100
AcDbSymbolTableRecord
100
AcDbRegAppTableRecord
  2
GENIUS_GENZVEED_13
 70
     0
  0
APPID
  5
91C
330
9
100
AcDbSymbolTableRecord
100
AcDbRegAppTableRecord
  2
GENIUS_GENSCREG_13
 70
     0
  0
APPID
  5
91D
330
9
100
AcDbSymbolTableRecord
100
AcDbRegAppTableRecord
  2
GENIUS_GENOBJ-N-FIL_13
 70
     0
  0
APPID
  5
91E
330
9
100
AcDbSymbolTableRecord
100
AcDbRegAppTableRecord
  2
GENIUS_GENOBJ-N-HTC_13
 70
     0
  0
APPID
  5
91F
330
9
100
AcDbSymbolTableRecord
100
AcDbRegAppTableRecord
  2
GENIUS_GENHATCH_13
 70
     0
  0
APPID
  5
920
330
9
100
AcDbSymbolTableRecord
100
AcDbRegAppTableRecord
  2
GENIUS_GENOBJ-N-CEN_13
 70
     0
  0
APPID
  5
921
330
9
100
AcDbSymbolTableRecord
100
AcDbRegAppTableRecord
  2
GENIUS_GENBH_13
 70
     0
  0
APPID
  5
922
330
9
100
AcDbSymbolTableRecord
100
AcDbRegAppTableRecord
  2
GENIUS_GENOBJ-NBEHI-BHB_13
 70
     0
  0
APPID
  5
923
330
9
100
AcDbSymbolTableRecord
100
AcDbRegAppTableRecord
  2
GENIUS_GENREC_14
 70
     0
  0
APPID
  5
924
330
9
100
AcDbSymbolTableRecord
100
AcDbRegAppTableRecord
  2
GENIUS_GENHINW_13
 70
     0
  0
APPID
  5
925
330
9
100
AcDbSymbolTableRecord
100
AcDbRegAppTableRecord
  2
GENIUS_FIRSTVISTXT_14
 70
     0
  0
APPID
  5
926
330
9
100
AcDbSymbolTableRecord
100
AcDbRegAppTableRecord
  2
GENIUS_GENOBJ-N-LEADER_13
 70
     0
  0
APPID
  5
927
330
9
100
AcDbSymbolTableRecord
100
AcDbRegAppTableRecord
  2
GENIUS_SECONDVISTXT_14
 70
     0
  0
APPID
  5
928
330
9
100
AcDbSymbolTableRecord
100
AcDbRegAppTableRecord
  2
GENIUS_GENOBJ-N-HINW_13
 70
     0
  0
APPID
  5
929
330
9
100
AcDbSymbolTableRecord
100
AcDbRegAppTableRecord
  2
GENIUS_GEFWELD_13
 70
     0
  0
APPID
  5
92A
330
9
100
AcDbSymbolTableRecord
100
AcDbRegAppTableRecord
  2
GENIUS_GENOBJ-F-WEL_13
 70
     0
  0
APPID
  5
92B
330
9
100
AcDbSymbolTableRecord
100
AcDbRegAppTableRecord
  2
GENIUS_GENOBJ-N-REC_13
 70
     0
  0
APPID
  5
92C
330
9
100
AcDbSymbolTableRecord
100
AcDbRegAppTableRecord
  2
GEVID980252217
 70
     0
  0
APPID
  5
92D
330
9
100
AcDbSymbolTableRecord
100
AcDbRegAppTableRecord
  2
GEVPT
 70
     0
  0
APPID
  5
92E
330
9
100
AcDbSymbolTableRecord
100
AcDbRegAppTableRecord
  2
GEVIT
 70
     0
  0
APPID
  5
92F
330
9
100
AcDbSymbolTableRecord
100
AcDbRegAppTableRecord
  2
VCC
 70
     0
  0
APPID
  5
930
330
9
100
AcDbSymbolTableRecord
100
AcDbRegAppTableRecord
  2
GENBH
 70
     0
  0
APPID
  5
931
330
9
100
AcDbSymbolTableRecord
100
AcDbRegAppTableRecord
  2
GENIUS_GENOBJ-NBEHI-BHF_13
 70
     0
  0
APPID
  5
932
330
9
100
AcDbSymbolTableRecord
100
AcDbRegAppTableRecord
  2
GENIUS_GENOBJ-F-PART_13
 70
     0
  0
APPID
  5
933
330
9
100
AcDbSymbolTableRecord
100
AcDbRegAppTableRecord
  2
GENIUS_GEFSTDP_13
 70
     0
  0
APPID
  5
934
330
9
100
AcDbSymbolTableRecord
100
AcDbRegAppTableRecord
  2
GENIUS_GEFPARTINS_13
 70
     0
  0
APPID
  5
935
330
9
100
AcDbSymbolTableRecord
100
AcDbRegAppTableRecord
  2
GEVID980252219
 70
     0
  0
APPID
  5
936
330
9
100
AcDbSymbolTableRecord
100
AcDbRegAppTableRecord
  2
GENIUS_GENDREL_13
 70
     0
  0
APPID
  5
937
330
9
100
AcDbSymbolTableRecord
100
AcDbRegAppTableRecord
  2
GEV_VCCNULL_SWITCH_OFF
 70
     0
  0
APPID
  5
938
330
9
100
AcDbSymbolTableRecord
100
AcDbRegAppTableRecord
  2
ACA_CADIMENU
 70
     0
  0
APPID
  5
939
330
9
100
AcDbSymbolTableRecord
100
AcDbRegAppTableRecord
  2
GENIUS_GENCFG5_13
 70
     0
  0
APPID
  5
93A
330
9
100
AcDbSymbolTableRecord
100
AcDbRegAppTableRecord
  2
GENIUS_GENOBJ-N-CRS_13
 70
     0
  0
APPID
  5
93B
330
9
100
AcDbSymbolTableRecord
100
AcDbRegAppTableRecord
  2
GENIUS_GENDIMSH_14
 70
     0
  0
APPID
  5
93C
330
9
100
AcDbSymbolTableRecord
100
AcDbRegAppTableRecord
  2
GENIUS_GENOBJ-F-SCPASSM_13
 70
     0
  0
APPID
  5
93D
330
9
100
AcDbSymbolTableRecord
100
AcDbRegAppTableRecord
  2
GENIUS_GENIUS_GENBHEDTMP_13
 70
     0
  0
APPID
  5
93E
330
9
100
AcDbSymbolTableRecord
100
AcDbRegAppTableRecord
  2
GEVID1032351709
 70
     0
  0
APPID
  5
93F
330
9
100
AcDbSymbolTableRecord
100
AcDbRegAppTableRecord
  2
GEVDC
 70
     0
  0
APPID
  5
940
330
9
100
AcDbSymbolTableRecord
100
AcDbRegAppTableRecord
  2
GENIUS_GENOBJ-F-WELS_13
 70
     0
  0
APPID
  5
941
330
9
100
AcDbSymbolTableRecord
100
AcDbRegAppTableRecord
  2
GEVID1036052968
 70
     0
  0
APPID
  5
942
330
9
100
AcDbSymbolTableRecord
100
AcDbRegAppTableRecord
  2
GEVID1036052969
 70
     0
  0
APPID
  5
943
330
9
100
AcDbSymbolTableRecord
100
AcDbRegAppTableRecord
  2
GEVID1036052971
 70
     0
  0
APPID
  5
944
330
9
100
AcDbSymbolTableRecord
100
AcDbRegAppTableRecord
  2
GENIUS_GENOBJ-N-DIM_13
 70
     0
  0
APPID
  5
945
330
9
100
AcDbSymbolTableRecord
100
AcDbRegAppTableRecord
  2
EDB_
 70
     0
  0
APPID
  5
946
330
9
100
AcDbSymbolTableRecord
100
AcDbRegAppTableRecord
  2
EDBFRAME_
 70
     0
  0
APPID
  5
947
330
9
100
AcDbSymbolTableRecord
100
AcDbRegAppTableRecord
  2
EDBXREF_
 70
     0
  0
APPID
  5
948
330
9
100
AcDbSymbolTableRecord
100
AcDbRegAppTableRecord
  2
EDBSHEET
 70
     0
  0
APPID
  5
949
330
9
100
AcDbSymbolTableRecord
100
AcDbRegAppTableRecord
  2
EDBMODELINFO
 70
     0
  0
APPID
  5
94A
330
9
100
AcDbSymbolTableRecord
100
AcDbRegAppTableRecord
  2
ACAD_PSEXT
 70
     0
  0
APPID
  5
AC6
330
9
100
AcDbSymbolTableRecord
100
AcDbRegAppTableRecord
  2
AcAecLayerStandard
 70
     0
  0
APPID
  5
AC7
330
9
100
AcDbSymbolTableRecord
100
AcDbRegAppTableRecord
  2
GENIUS_GENCEN_19
 70
     0
  0
APPID
  5
1095
330
9
100
AcDbSymbolTableRecord
100
AcDbRegAppTableRecord
  2
ACADANNOPO
 70
     0
  0
APPID
  5
1096
330
9
100
AcDbSymbolTableRecord
100
AcDbRegAppTableRecord
  2
ACADANNOTATIVE
 70
     0
  0
APPID
  5
1097
330
9
100
AcDbSymbolTableRecord
100
AcDbRegAppTableRecord
  2
ACAD_DSTYLE_DIMJAG
 70
     0
  0
APPID
  5
1098
330
9
100
AcDbSymbolTableRecord
100
AcDbRegAppTableRecord
  2
ACAD_DSTYLE_DIMTALN
 70
     0
  0
APPID
  5
1099
330
9
100
AcDbSymbolTableRecord
100
AcDbRegAppTableRecord
  2
ACAD_MLEADERVER
 70
     0
  0
ENDTAB
  0
TABLE
  2
DIMSTYLE
  5
A
330
0
100
AcDbSymbolTable
 70
    27
100
AcDbDimStyleTable
 71
     2
340
C2
340
27
  0
DIMSTYLE
105
27
330
A
100
AcDbSymbolTableRecord
100
AcDbDimStyleTableRecord
  2
ISO-25
 70
     0
 41
2.5
 42
0.625
 43
3.75
 44
1.25
 73
     0
 74
     0
 77
     1
 78
     8
140
2.5
141
2.5
143
0.03937007874016
147
0.625
171
     3
172
     1
271
     2
272
     2
274
     3
278
    44
283
     0
284
     8
340
11
  0
DIMSTYLE
105
C2
330
A
100
AcDbSymbolTableRecord
100
AcDbDimStyleTableRecord
  2
AM_DIN
 70
     0
  4
"
 41
2.5
 42
1.0
 43
10.0
 44
1.0
 47
0.1
 48
0.1
 73
     0
 74
     0
 77
     1
 78
     8
 79
     2
140
3.5
141
0.0
143
0.0393701
146
0.71
147
1.5
172
     1
176
   256
177
   256
178
     2
271
     2
272
     3
274
     4
283
     0
284
     8
340
11
371
    -1
372
    -1
  0
DIMSTYLE
105
C3
330
A
100
AcDbSymbolTableRecord
100
AcDbDimStyleTableRecord
  2
AM_DIN$3
 70
     0
  4
"
 41
2.5
 42
1.0
 43
10.0
 44
1.0
 47
0.1
 48
0.1
 73
     0
 77
     1
 78
     8
 79
     2
140
3.5
141
0.0
143
0.0393701
146
0.71
147
1.5
176
   256
177
   256
178
     2
271
     2
272
     3
274
     4
283
     0
284
     8
288
     1
289
     0
340
11
371
    -1
372
    -1
  0
DIMSTYLE
105
C4
330
A
100
AcDbSymbolTableRecord
100
AcDbDimStyleTableRecord
  2
AM_DIN$4
 70
     0
  4
"
 41
2.5
 42
1.0
 43
10.0
 44
1.0
 47
0.1
 48
0.1
 73
     0
 77
     1
 78
     8
 79
     2
140
3.5
141
0.0
143
0.0393701
146
0.71
147
1.5
176
   256
177
   256
178
     2
271
     2
272
     3
274
     4
283
     0
284
     8
288
     1
289
     0
340
11
371
    -1
372
    -1
  0
DIMSTYLE
105
C5
330
A
100
AcDbSymbolTableRecord
100
AcDbDimStyleTableRecord
  2
AM_DIN$6
 70
     0
  4
"
 41
2.5
 42
1.0
 43
10.0
 44
1.0
 47
0.1
 48
0.1
 73
     0
 74
     0
 78
     8
 79
     2
140
3.5
141
0.0
143
0.0393701
146
0.71
147
1.5
172
     1
176
   256
177
   256
178
     2
271
     2
272
     3
274
     4
283
     0
284
     8
340
11
371
    -1
372
    -1
  0
DIMSTYLE
105
C6
330
A
100
AcDbSymbolTableRecord
100
AcDbDimStyleTableRecord
  2
AM_DIN$7
 70
     0
  4
"
 41
2.5
 42
1.0
 43
10.0
 44
1.0
 47
0.1
 48
0.1
 73
     0
 74
     0
 77
     1
 78
     8
 79
     2
140
5.0
141
0.0
143
0.0393701
146
0.71
147
1.5
172
     1
176
   256
177
   256
178
     2
271
     2
272
     3
274
     4
283
     0
284
     8
340
11
371
    -1
372
    -1
  0
DIMSTYLE
105
C7
330
A
100
AcDbSymbolTableRecord
100
AcDbDimStyleTableRecord
  2
AM_DIN$SF
 70
     0
  4
"
 41
2.5
 42
1.0
 43
10.0
 44
1.0
 47
0.1
 48
0.1
 73
     0
 74
     0
 75
     1
 76
     1
 77
     1
 78
     8
 79
     2
140
3.5
141
0.0
143
0.0393701
146
0.71
147
1.5
172
     1
176
   256
177
   256
178
     2
271
     2
272
     3
274
     4
283
     0
284
     8
340
11
371
    -1
372
    -1
  0
DIMSTYLE
105
CC
330
A
100
AcDbSymbolTableRecord
100
AcDbDimStyleTableRecord
  2
AM_DIN$SH
 70
     0
  4
"
 41
2.5
 42
1.0
 43
10.0
 44
1.0
 47
0.1
 48
0.1
 73
     0
 74
     0
 75
     1
 76
     1
 77
     1
 78
     8
 79
     2
140
3.5
141
0.0
143
0.0393701
144
2.0
146
0.71
147
1.5
172
     1
173
     1
176
   256
177
   256
178
     2
271
     2
272
     3
274
     4
283
     0
284
     8
340
11
343
C8
371
    -1
372
    -1
  0
DIMSTYLE
105
2D3
330
A
100
AcDbSymbolTableRecord
100
AcDbDimStyleTableRecord
  2
STANDARD
 70
     0
340
2CD
  0
DIMSTYLE
105
87A
330
A
100
AcDbSymbolTableRecord
100
AcDbDimStyleTableRecord
  2
AM_ANSI
 70
     0
  4
mm
 41
0.1
 42
0.05
 43
0.5
 44
0.1
 47
0.1
 48
0.1
 78
     7
 79
     2
140
0.12
141
0.0
146
0.71
147
0.06
176
   256
177
   256
178
     2
274
     4
284
     7
340
11
371
    -1
372
    -1
  0
DIMSTYLE
105
87B
330
A
100
AcDbSymbolTableRecord
100
AcDbDimStyleTableRecord
  2
AM_ANSI$3
 70
     0
  4
mm
 41
0.1
 42
0.05
 43
0.5
 44
0.1
 47
0.1
 48
0.1
 78
     7
 79
     2
140
0.12
141
0.0
146
0.71
147
0.06
176
   256
177
   256
178
     2
274
     4
284
     7
288
     1
289
     0
340
11
371
    -1
372
    -1
  0
DIMSTYLE
105
87C
330
A
100
AcDbSymbolTableRecord
100
AcDbDimStyleTableRecord
  2
AM_ANSI$4
 70
     0
  4
mm
 41
0.1
 42
0.05
 43
0.5
 44
0.1
 47
0.1
 48
0.1
 78
     7
 79
     2
140
0.12
141
0.0
146
0.71
147
0.06
176
   256
177
   256
178
     2
274
     4
284
     7
288
     1
289
     0
340
11
371
    -1
372
    -1
  0
DIMSTYLE
105
87D
330
A
100
AcDbSymbolTableRecord
100
AcDbDimStyleTableRecord
  2
AM_ANSI$7
 70
     0
  4
mm
 41
0.1
 42
0.05
 43
0.5
 44
0.1
 47
0.1
 48
0.1
 78
     7
 79
     2
140
0.24
141
0.0
146
0.71
147
0.06
176
   256
177
   256
178
     2
274
     4
284
     7
340
11
371
    -1
372
    -1
  0
DIMSTYLE
105
87E
330
A
100
AcDbSymbolTableRecord
100
AcDbDimStyleTableRecord
  2
AM_ANSI$SF
 70
     0
  4
mm
 41
0.1
 42
0.05
 43
0.5
 44
0.1
 47
0.1
 48
0.1
 75
     1
 76
     1
 78
     7
 79
     2
140
0.12
141
0.0
146
0.71
147
0.06
176
   256
177
   256
178
     2
274
     4
284
     7
340
11
371
    -1
372
    -1
  0
DIMSTYLE
105
87F
330
A
100
AcDbSymbolTableRecord
100
AcDbDimStyleTableRecord
  2
AM_ANSI$SH
 70
     0
  4
mm
 41
0.1
 42
0.05
 43
0.5
 44
0.1
 47
0.1
 48
0.1
 75
     1
 76
     1
 78
     7
 79
     2
140
0.12
141
0.0
146
0.71
147
0.06
173
     1
176
   256
177
   256
178
     2
274
     4
284
     7
340
11
343
C8
371
    -1
372
    -1
  0
DIMSTYLE
105
8FE
330
A
100
AcDbSymbolTableRecord
100
AcDbDimStyleTableRecord
  2
AM_ISO
 70
     0
  4
"
 41
2.5
 42
1.0
 43
10.0
 44
1.0
 47
0.1
 48
0.1
 73
     0
 74
     0
 77
     1
 78
     8
 79
     2
140
3.5
141
0.0
143
0.0393701
146
0.71
147
1.5
172
     1
176
   256
177
   256
178
     2
271
     2
272
     3
274
     4
283
     0
284
     8
340
11
371
    -1
372
    -1
  0
DIMSTYLE
105
8FF
330
A
100
AcDbSymbolTableRecord
100
AcDbDimStyleTableRecord
  2
AM_ISO$3
 70
     0
  4
"
 41
2.5
 42
1.0
 43
10.0
 44
1.0
 47
0.1
 48
0.1
 73
     0
 77
     1
 78
     8
 79
     2
140
3.5
141
0.0
143
0.0393701
146
0.71
147
1.5
176
   256
177
   256
178
     2
271
     2
272
     3
274
     4
283
     0
284
     8
288
     1
289
     0
340
11
371
    -1
372
    -1
  0
DIMSTYLE
105
900
330
A
100
AcDbSymbolTableRecord
100
AcDbDimStyleTableRecord
  2
AM_ISO$4
 70
     0
  4
"
 41
2.5
 42
1.0
 43
10.0
 44
1.0
 47
0.1
 48
0.1
 73
     0
 77
     1
 78
     8
 79
     2
140
3.5
141
0.0
143
0.0393701
146
0.71
147
1.5
176
   256
177
   256
178
     2
271
     2
272
     3
274
     4
283
     0
284
     8
288
     1
289
     0
340
11
371
    -1
372
    -1
  0
DIMSTYLE
105
901
330
A
100
AcDbSymbolTableRecord
100
AcDbDimStyleTableRecord
  2
AM_ISO$6
 70
     0
  4
"
 41
2.5
 42
1.0
 43
10.0
 44
1.0
 47
0.1
 48
0.1
 73
     0
 74
     0
 78
     8
 79
     2
140
3.5
141
0.0
143
0.0393701
146
0.71
147
1.5
172
     1
176
   256
177
   256
178
     2
271
     2
272
     3
274
     4
283
     0
284
     8
340
11
371
    -1
372
    -1
  0
DIMSTYLE
105
902
330
A
100
AcDbSymbolTableRecord
100
AcDbDimStyleTableRecord
  2
AM_ISO$7
 70
     0
  4
"
 41
2.5
 42
1.0
 43
10.0
 44
1.0
 47
0.1
 48
0.1
 73
     0
 74
     0
 77
     1
 78
     8
 79
     2
140
5.0
141
0.0
143
0.0393701
146
0.71
147
1.5
172
     1
176
   256
177
   256
178
     2
271
     2
272
     3
274
     4
283
     0
284
     8
340
11
371
    -1
372
    -1
  0
DIMSTYLE
105
903
330
A
100
AcDbSymbolTableRecord
100
AcDbDimStyleTableRecord
  2
AM_ISO$SF
 70
     0
  4
"
 41
2.5
 42
1.0
 43
10.0
 44
1.0
 47
0.1
 48
0.1
 73
     0
 74
     0
 75
     1
 76
     1
 77
     1
 78
     8
 79
     2
140
3.5
141
0.0
143
0.0393701
146
0.71
147
1.5
172
     1
176
   256
177
   256
178
     2
271
     2
272
     3
274
     4
283
     0
284
     8
340
11
371
    -1
372
    -1
  0
DIMSTYLE
105
904
330
A
100
AcDbSymbolTableRecord
100
AcDbDimStyleTableRecord
  2
AM_ISO$SH
 70
     0
  4
"
 41
2.5
 42
1.0
 43
10.0
 44
1.0
 47
0.1
 48
0.1
 73
     0
 74
     0
 75
     1
 76
     1
 77
     1
 78
     8
 79
     2
140
3.5
141
0.0
143
0.0393701
144
2.0
146
0.71
147
1.5
172
     1
173
     1
176
   256
177
   256
178
     2
271
     2
272
     3
274
     4
283
     0
284
     8
340
11
343
C8
371
    -1
372
    -1
  0
DIMSTYLE
105
905
330
A
100
AcDbSymbolTableRecord
100
AcDbDimStyleTableRecord
  2
GEN-ISO
 70
     0
  4
"
 41
2.5
 42
1.0
 43
7.0
 44
1.0
 47
0.1
 48
0.1
 73
     0
 74
     0
 77
     1
 78
     8
140
3.5
141
0.0
143
0.0393701
146
0.71
147
0.6
172
     1
176
   256
177
   256
178
     2
271
     2
272
     3
274
     4
283
     0
340
11
  0
DIMSTYLE
105
AC5
102
{ACAD_REACTORS
330
13A7
330
13A8
330
13A9
330
13AA
330
13AB
102
}
330
A
100
AcDbSymbolTableRecord
100
AcDbDimStyleTableRecord
  2
AM_DIN$0
 70
     0
  4
"
 41
2.5
 42
0.0
 43
10.0
 44
2.0
 47
0.1
 48
0.1
 73
     0
 74
     0
 77
     1
 78
     8
 79
     2
140
3.5
141
0.0
143
0.0393701
146
0.71
147
1.5
172
     1
176
   256
177
   256
178
     2
271
     2
272
     2
283
     0
284
     8
340
11
371
    -1
372
    -1
  0
DIMSTYLE
105
1094
330
A
100
AcDbSymbolTableRecord
100
AcDbDimStyleTableRecord
  2
Opisowy
 70
     0
 40
0.0
 41
2.5
 42
0.625
 43
3.75
 44
1.25
 73
     0
 74
     0
 77
     1
 78
     8
140
2.5
141
2.5
143
0.03937007874016
147
0.625
171
     3
172
     1
271
     2
272
     2
274
     3
278
    44
283
     0
284
     8
340
11
1001
ACADANNOTATIVE
1000
AnnotativeData
1002
{
1070
     1
1070
     1
1002
}
1001
ACAD_DSTYLE_DIMJAG
1070
   388
1040
1.5
1001
ACAD_DSTYLE_DIMTALN
1070
   392
1070
     0
  0
ENDTAB
  0
TABLE
  2
BLOCK_RECORD
  5
1
330
0
100
AcDbSymbolTable
 70
    25
  0
BLOCK_RECORD
  5
1F
102
{ACAD_XDICTIONARY
360
D5
102
}
330
1
100
AcDbSymbolTableRecord
100
AcDbBlockTableRecord
  2
*Model_Space
340
22
  0
BLOCK_RECORD
  5
55
330
1
100
AcDbSymbolTableRecord
100
AcDbBlockTableRecord
  2
*Paper_Space
340
56
  0
BLOCK_RECORD
  5
50
330
1
100
AcDbSymbolTableRecord
100
AcDbBlockTableRecord
  2
*Paper_Space0
340
51
  0
BLOCK_RECORD
  5
C8
330
1
100
AcDbSymbolTableRecord
100
AcDbBlockTableRecord
  2
GENAXEH
340
0
  0
BLOCK_RECORD
  5
881
330
1
100
AcDbSymbolTableRecord
100
AcDbBlockTableRecord
  2
DIN_A3
340
0
102
{BLKREFS
331
8E8
102
}
  0
BLOCK_RECORD
  5
8ED
330
1
100
AcDbSymbolTableRecord
100
AcDbBlockTableRecord
  2
sfm
340
0
102
{BLKREFS
331
A06
102
}
  0
BLOCK_RECORD
  5
94B
102
{ACAD_XDICTIONARY
360
A08
102
}
330
1
100
AcDbSymbolTableRecord
100
AcDbBlockTableRecord
  2
REFLEX_EDBTITLE
340
0
  0
BLOCK_RECORD
  5
FCD
330
1
100
AcDbSymbolTableRecord
100
AcDbBlockTableRecord
  2
*D5
340
0
  0
BLOCK_RECORD
  5
FDA
330
1
100
AcDbSymbolTableRecord
100
AcDbBlockTableRecord
  2
*D6
340
0
  0
BLOCK_RECORD
  5
FE6
330
1
100
AcDbSymbolTableRecord
100
AcDbBlockTableRecord
  2
*D7
340
0
  0
BLOCK_RECORD
  5
FF2
330
1
100
AcDbSymbolTableRecord
100
AcDbBlockTableRecord
  2
*D8
340
0
  0
BLOCK_RECORD
  5
FFF
330
1
100
AcDbSymbolTableRecord
100
AcDbBlockTableRecord
  2
*D9
340
0
  0
BLOCK_RECORD
  5
135F
330
1
100
AcDbSymbolTableRecord
100
AcDbBlockTableRecord
  2
*D10
340
0
  0
BLOCK_RECORD
  5
136C
330
1
100
AcDbSymbolTableRecord
100
AcDbBlockTableRecord
  2
*D11
340
0
  0
BLOCK_RECORD
  5
1378
330
1
100
AcDbSymbolTableRecord
100
AcDbBlockTableRecord
  2
*D12
340
0
  0
BLOCK_RECORD
  5
1384
330
1
100
AcDbSymbolTableRecord
100
AcDbBlockTableRecord
  2
*D13
340
0
  0
BLOCK_RECORD
  5
1391
330
1
100
AcDbSymbolTableRecord
100
AcDbBlockTableRecord
  2
*D14
340
0
  0
BLOCK_RECORD
  5
13AC
330
1
100
AcDbSymbolTableRecord
100
AcDbBlockTableRecord
  2
*D15
340
0
  0
BLOCK_RECORD
  5
13B9
330
1
100
AcDbSymbolTableRecord
100
AcDbBlockTableRecord
  2
*D16
340
0
  0
BLOCK_RECORD
  5
13C5
330
1
100
AcDbSymbolTableRecord
100
AcDbBlockTableRecord
  2
*D17
340
0
  0
BLOCK_RECORD
  5
13D1
330
1
100
AcDbSymbolTableRecord
100
AcDbBlockTableRecord
  2
*D18
340
0
  0
BLOCK_RECORD
  5
13DE
330
1
100
AcDbSymbolTableRecord
100
AcDbBlockTableRecord
  2
*D19
340
0
  0
ENDTAB
  0
ENDSEC
  0
SECTION
  2
BLOCKS
  0
BLOCK
  5
20
330
1F
100
AcDbEntity
  8
0
100
AcDbBlockBegin
  2
*Model_Space
 70
     0
 10
0.0
 20
0.0
 30
0.0
  3
*Model_Space
  1

  0
ENDBLK
  5
21
330
1F
100
AcDbEntity
  8
0
100
AcDbBlockEnd
  0
BLOCK
  5
57
330
55
100
AcDbEntity
 67
     1
  8
0
100
AcDbBlockBegin
  2
*Paper_Space
 70
     0
 10
0.0
 20
0.0
 30
0.0
  3
*Paper_Space
  1

  0
ENDBLK
  5
58
330
55
100
AcDbEntity
 67
     1
  8
0
100
AcDbBlockEnd
  0
BLOCK
  5
52
330
50
100
AcDbEntity
 67
     1
  8
0
100
AcDbBlockBegin
  2
*Paper_Space0
 70
     0
 10
0.0
 20
0.0
 30
0.0
  3
*Paper_Space0
  1

  0
VIEWPORT
  5
69
330
50
100
AcDbEntity
 67
     1
  8
0
100
AcDbViewport
 10
128.5
 20
97.5
 30
0.0
 40
384.7606204379562
 41
222.18
 68
     0
 69
     0
 12
128.5
 22
97.5
 13
0.0
 23
0.0
 14
10.0
 24
10.0
 15
10.0
 25
10.0
 16
0.0
 26
0.0
 36
1.0
 17
0.0
 27
0.0
 37
0.0
 42
50.0
 43
0.0
 44
0.0
 45
222.18
 50
0.0
 51
0.0
 72
   100
 90
    32800
  1

281
     0
 71
     1
 74
     0
110
0.0
120
0.0
130
0.0
111
1.0
121
0.0
131
0.0
112
0.0
122
1.0
132
0.0
 79
     0
146
0.0
170
     0
1001
GENIUS_GENOBJ-N-SDF_13
1002
{
1000
OWNER
1000
GEN
1002
}
1001
GENIUS_GENODEF_13
1002
{
1000
HIER
1070
     0
1002
}
1002
{
1000
MANEDIT
1070
     0
1002
}
1002
{
1000
NOSEL
1070
     0
1002
}
1002
{
1000
BEHIND
1070
     0
1002
}
1002
{
1000
OTHER
1070
     0
1002
}
1002
{
1000
REACTOR
1002
}
1001
GENIUS_GENSCREG_15
1000
PF
1040
1.0
1000
DF
1040
1.0
1000
MIN
1011
-63.88031021897808
1021
-13.59
1031
0.0
1000
MAX
1011
320.8803102189782
1021
208.59
1031
0.0
1000
FLAGS
1070
     2
  0
VIEWPORT
  5
6B
330
50
100
AcDbEntity
 67
     1
  8
0
100
AcDbViewport
 10
128.5
 20
97.5
 30
0.0
 40
205.6
 41
156.0
 68
     0
 69
     0
 12
210.0
 22
148.5
 13
0.0
 23
0.0
 14
10.0
 24
10.0
 15
10.0
 25
10.0
 16
0.0
 26
0.0
 36
1.0
 17
0.0
 27
0.0
 37
0.0
 42
50.0
 43
0.0
 44
0.0
 45
322.4558219652112
 50
0.0
 51
0.0
 72
   100
 90
    32864
  1

281
     0
 71
     1
 74
     0
110
0.0
120
0.0
130
0.0
111
1.0
121
0.0
131
0.0
112
0.0
122
1.0
132
0.0
 79
     0
146
0.0
170
     0
1001
GENIUS_GENOBJ-N-SDF_13
1002
{
1000
OWNER
1000
GEN
1002
}
1001
GENIUS_GENODEF_13
1002
{
1000
HIER
1070
     0
1002
}
1002
{
1000
MANEDIT
1070
     0
1002
}
1002
{
1000
NOSEL
1070
     0
1002
}
1002
{
1000
BEHIND
1070
     0
1002
}
1002
{
1000
OTHER
1070
     0
1002
}
1002
{
1000
REACTOR
1002
}
1001
GENIUS_GENSCREG_15
1000
PF
1040
0.0
1000
DF
1040
0.0
1000
MIN
1011
25.70000000000002
1021
19.5
1031
0.0
1000
MAX
1011
231.3
1021
175.5
1031
0.0
1000
FLAGS
1070
     2
  0
ENDBLK
  5
53
330
50
100
AcDbEntity
 67
     1
  8
0
100
AcDbBlockEnd
  0
BLOCK
  5
164B
330
C8
100
AcDbEntity
  8
0
100
AcDbBlockBegin
  2
GENAXEH
 70
     0
 10
0.0
 20
0.0
 30
0.0
  3
GENAXEH
  1

  0
LINE
  5
164C
330
C8
100
AcDbEntity
  8
0
100
AcDbLine
 10
-1.0
 20
0.0
 30
0.0
 11
1.0
 21
0.0
 31
0.0
  0
ENDBLK
  5
164D
330
C8
100
AcDbEntity
  8
0
100
AcDbBlockEnd
  0
BLOCK
  5
8C8
330
881
100
AcDbEntity
  8
0
100
AcDbBlockBegin
  2
DIN_A3
 70
     0
 10
0.0
 20
0.0
 30
0.0
  3
DIN_A3
  1

  0
LINE
  5
882
330
881
100
AcDbEntity
  8
AM_BOR
 62
     1
370
    25
100
AcDbLine
 10
420.0
 20
297.0
 30
0.0
 11
419.9999999999997
 21
0.0
 31
0.0
  0
LINE
  5
883
330
881
100
AcDbEntity
  8
AM_BOR
 62
     1
370
    25
100
AcDbLine
 10
230.0
 20
5.000000000000047
 30
0.0
 11
230.0
 21
0.0000000000000233
 31
0.0
  0
LINE
  5
884
330
881
100
AcDbEntity
  8
AM_BOR
 62
     1
370
    25
100
AcDbLine
 10
409.9999999999996
 20
10.0
 30
0.0
 11
9.999999999999943
 21
10.00000000000005
 31
0.0
  0
TEXT
  5
885
330
881
100
AcDbEntity
  8
AM_BOR
 62
     1
370
    25
100
AcDbText
 10
411.0
 20
262.0
 30
0.0
 40
4.0
  1
A
  7
ACDINTS
100
AcDbText
  0
TEXT
  5
886
330
881
100
AcDbEntity
  8
AM_BOR
 62
     1
370
    25
100
AcDbText
 10
411.0
 20
216.0
 30
0.0
 40
4.0
  1
B
  7
ACDINTS
100
AcDbText
  0
TEXT
  5
887
330
881
100
AcDbEntity
  8
AM_BOR
 62
     1
370
    25
100
AcDbText
 10
411.0
 20
170.0
 30
0.0
 40
4.0
  1
C
  7
ACDINTS
100
AcDbText
  0
TEXT
  5
888
330
881
100
AcDbEntity
  8
AM_BOR
 62
     1
370
    25
100
AcDbText
 10
411.0
 20
123.0
 30
0.0
 40
4.0
  1
D
  7
ACDINTS
100
AcDbText
  0
TEXT
  5
889
330
881
100
AcDbEntity
  8
AM_BOR
 62
     1
370
    25
100
AcDbText
 10
411.0
 20
77.0
 30
0.0
 40
4.0
  1
E
  7
ACDINTS
100
AcDbText
  0
TEXT
  5
88A
330
881
100
AcDbEntity
  8
AM_BOR
 62
     1
370
    25
100
AcDbText
 10
411.0
 20
31.0
 30
0.0
 40
4.0
  1
F
  7
ACDINTS
100
AcDbText
  0
LINE
  5
88B
330
881
100
AcDbEntity
  8
AM_BOR
 62
     1
370
    25
100
AcDbLine
 10
415.0
 20
240.83
 30
0.0
 11
410.0
 21
240.83
 31
0.0
  0
LINE
  5
88C
330
881
100
AcDbEntity
  8
AM_BOR
 62
     1
370
    25
100
AcDbLine
 10
415.0
 20
194.664
 30
0.0
 11
410.0
 21
194.664
 31
0.0
  0
LINE
  5
88D
330
881
100
AcDbEntity
  8
AM_BOR
 62
     1
370
    25
100
AcDbLine
 10
415.0
 20
102.332
 30
0.0
 11
410.0
 21
102.332
 31
0.0
  0
LINE
  5
88E
330
881
100
AcDbEntity
  8
AM_BOR
 62
     1
370
    25
100
AcDbLine
 10
415.0
 20
56.166
 30
0.0
 11
410.0
 21
56.166
 31
0.0
  0
LINE
  5
88F
330
881
100
AcDbEntity
  8
AM_BOR
 62
     1
370
    25
100
AcDbLine
 10
60.0
 20
291.9999999999999
 30
0.0
 11
60.0
 21
287.0
 31
0.0
  0
LINE
  5
890
330
881
100
AcDbEntity
  8
AM_BOR
 62
     1
370
    25
100
AcDbLine
 10
110.0
 20
291.9999999999999
 30
0.0
 11
110.0
 21
287.0
 31
0.0
  0
LINE
  5
891
330
881
100
AcDbEntity
  8
AM_BOR
 62
     1
370
    25
100
AcDbLine
 10
160.0
 20
291.9999999999999
 30
0.0
 11
160.0
 21
287.0
 31
0.0
  0
LINE
  5
892
330
881
100
AcDbEntity
  8
AM_BOR
 62
     1
370
    25
100
AcDbLine
 10
260.0
 20
291.9999999999999
 30
0.0
 11
260.0
 21
287.0
 31
0.0
  0
LINE
  5
893
330
881
100
AcDbEntity
  8
AM_BOR
 62
     1
370
    25
100
AcDbLine
 10
310.0
 20
291.9999999999999
 30
0.0
 11
310.0
 21
287.0
 31
0.0
  0
LINE
  5
894
330
881
100
AcDbEntity
  8
AM_BOR
 62
     1
370
    25
100
AcDbLine
 10
360.0
 20
291.9999999999999
 30
0.0
 11
360.0
 21
287.0
 31
0.0
  0
TEXT
  5
895
330
881
100
AcDbEntity
  8
AM_BOR
 62
     1
370
    25
100
AcDbText
 10
384.0
 20
287.5
 30
0.0
 40
4.0
  1
8
  7
ACDINTS
100
AcDbText
  0
TEXT
  5
896
330
881
100
AcDbEntity
  8
AM_BOR
 62
     1
370
    25
100
AcDbText
 10
334.0
 20
287.5
 30
0.0
 40
4.0
  1
7
  7
ACDINTS
100
AcDbText
  0
TEXT
  5
897
330
881
100
AcDbEntity
  8
AM_BOR
 62
     1
370
    25
100
AcDbText
 10
284.0
 20
287.5
 30
0.0
 40
4.0
  1
6
  7
ACDINTS
100
AcDbText
  0
TEXT
  5
898
330
881
100
AcDbEntity
  8
AM_BOR
 62
     1
370
    25
100
AcDbText
 10
233.5
 20
287.5
 30
0.0
 40
4.0
  1
5
  7
ACDINTS
100
AcDbText
  0
TEXT
  5
899
330
881
100
AcDbEntity
  8
AM_BOR
 62
     1
370
    25
100
AcDbText
 10
183.5
 20
287.5
 30
0.0
 40
4.0
  1
4
  7
ACDINTS
100
AcDbText
  0
TEXT
  5
89A
330
881
100
AcDbEntity
  8
AM_BOR
 62
     1
370
    25
100
AcDbText
 10
133.5
 20
287.5
 30
0.0
 40
4.0
  1
3
  7
ACDINTS
100
AcDbText
  0
TEXT
  5
89B
330
881
100
AcDbEntity
  8
AM_BOR
 62
     1
370
    25
100
AcDbText
 10
83.49999999999999
 20
287.5
 30
0.0
 40
4.0
  1
2
  7
ACDINTS
100
AcDbText
  0
TEXT
  5
89C
330
881
100
AcDbEntity
  8
AM_BOR
 62
     1
370
    25
100
AcDbText
 10
33.5
 20
287.5
 30
0.0
 40
4.0
  1
1
  7
ACDINTS
100
AcDbText
  0
TEXT
  5
89D
330
881
100
AcDbEntity
  8
AM_BOR
 62
     1
370
    25
100
AcDbText
 10
33.5
 20
5.5
 30
0.0
 40
4.0
  1
1
  7
ACDINTS
100
AcDbText
  0
TEXT
  5
89E
330
881
100
AcDbEntity
  8
AM_BOR
 62
     1
370
    25
100
AcDbText
 10
83.49999999999999
 20
5.5
 30
0.0
 40
4.0
  1
2
  7
ACDINTS
100
AcDbText
  0
TEXT
  5
89F
330
881
100
AcDbEntity
  8
AM_BOR
 62
     1
370
    25
100
AcDbText
 10
133.5
 20
5.5
 30
0.0
 40
4.0
  1
3
  7
ACDINTS
100
AcDbText
  0
TEXT
  5
8A0
330
881
100
AcDbEntity
  8
AM_BOR
 62
     1
370
    25
100
AcDbText
 10
183.5
 20
5.5
 30
0.0
 40
4.0
  1
4
  7
ACDINTS
100
AcDbText
  0
TEXT
  5
8A1
330
881
100
AcDbEntity
  8
AM_BOR
 62
     1
370
    25
100
AcDbText
 10
6.0
 20
262.0
 30
0.0
 40
4.0
  1
A
  7
ACDINTS
100
AcDbText
  0
TEXT
  5
8A2
330
881
100
AcDbEntity
  8
AM_BOR
 62
     1
370
    25
100
AcDbText
 10
6.0
 20
216.0
 30
0.0
 40
4.0
  1
B
  7
ACDINTS
100
AcDbText
  0
TEXT
  5
8A3
330
881
100
AcDbEntity
  8
AM_BOR
 62
     1
370
    25
100
AcDbText
 10
6.0
 20
170.0
 30
0.0
 40
4.0
  1
C
  7
ACDINTS
100
AcDbText
  0
TEXT
  5
8A4
330
881
100
AcDbEntity
  8
AM_BOR
 62
     1
370
    25
100
AcDbText
 10
6.0
 20
123.0
 30
0.0
 40
4.0
  1
D
  7
ACDINTS
100
AcDbText
  0
TEXT
  5
8A5
330
881
100
AcDbEntity
  8
AM_BOR
 62
     1
370
    25
100
AcDbText
 10
6.0
 20
77.0
 30
0.0
 40
4.0
  1
E
  7
ACDINTS
100
AcDbText
  0
TEXT
  5
8A6
330
881
100
AcDbEntity
  8
AM_BOR
 62
     1
370
    25
100
AcDbText
 10
6.0
 20
31.0
 30
0.0
 40
4.0
  1
F
  7
ACDINTS
100
AcDbText
  0
LINE
  5
8A7
330
881
100
AcDbEntity
  8
AM_BOR
 62
     1
370
    25
100
AcDbLine
 10
160.0
 20
10.0
 30
0.0
 11
160.0
 21
5.0
 31
0.0
  0
LINE
  5
8A8
330
881
100
AcDbEntity
  8
AM_BOR
 62
     1
370
    25
100
AcDbLine
 10
110.0
 20
10.0
 30
0.0
 11
110.0
 21
5.0
 31
0.0
  0
LINE
  5
8A9
330
881
100
AcDbEntity
  8
AM_BOR
 62
     1
370
    25
100
AcDbLine
 10
60.0
 20
10.0
 30
0.0
 11
60.0
 21
5.0
 31
0.0
  0
LINE
  5
8AA
330
881
100
AcDbEntity
  8
AM_BOR
 62
     1
370
    25
100
AcDbLine
 10
10.0
 20
240.83
 30
0.0
 11
5.0
 21
240.83
 31
0.0
  0
LINE
  5
8AB
330
881
100
AcDbEntity
  8
AM_BOR
 62
     1
370
    25
100
AcDbLine
 10
10.0
 20
194.664
 30
0.0
 11
5.0
 21
194.664
 31
0.0
  0
LINE
  5
8AC
330
881
100
AcDbEntity
  8
AM_BOR
 62
     1
370
    25
100
AcDbLine
 10
10.0
 20
102.332
 30
0.0
 11
5.0
 21
102.332
 31
0.0
  0
LINE
  5
8AD
330
881
100
AcDbEntity
  8
AM_BOR
 62
     1
370
    25
100
AcDbLine
 10
10.0
 20
56.166
 30
0.0
 11
5.0
 21
56.166
 31
0.0
  0
LINE
  5
8AE
330
881
100
AcDbEntity
  8
AM_BOR
 62
     1
370
    25
100
AcDbLine
 10
410.0
 20
287.0
 30
0.0
 11
409.9999999999996
 21
10.0
 31
0.0
  0
LINE
  5
8AF
330
881
100
AcDbEntity
  8
AM_BOR
 62
     1
370
    25
100
AcDbLine
 10
10.00000000000001
 20
287.0
 30
0.0
 11
410.0
 21
287.0
 31
0.0
  0
LINE
  5
8B0
330
881
100
AcDbEntity
  8
AM_BOR
 62
     1
370
    25
100
AcDbLine
 10
10.0
 20
10.0
 30
0.0
 11
10.00000000000001
 21
287.0
 31
0.0
  0
LINE
  5
8B1
330
881
100
AcDbEntity
  8
0
100
AcDbLine
 10
414.9999999999996
 20
5.0
 30
0.0
 11
4.999999999999943
 21
5.000000000000047
 31
0.0
  0
LINE
  5
8B2
330
881
100
AcDbEntity
  8
0
100
AcDbLine
 10
415.0
 20
292.0
 30
0.0
 11
414.9999999999996
 21
5.0
 31
0.0
  0
LINE
  5
8B3
330
881
100
AcDbEntity
  8
0
100
AcDbLine
 10
5.000000000000015
 20
292.0
 30
0.0
 11
415.0
 21
292.0
 31
0.0
  0
LINE
  5
8B4
330
881
100
AcDbEntity
  8
AM_BOR
 62
     1
370
    25
100
AcDbLine
 10
0.0000000000000182
 20
297.0
 30
0.0
 11
420.0
 21
297.0
 31
0.0
  0
LINE
  5
8B5
330
881
100
AcDbEntity
  8
AM_BOR
 62
     1
370
    25
100
AcDbLine
 10
0.0
 20
0.0
 30
0.0
 11
0.0000000000000182
 21
297.0
 31
0.0
  0
LINE
  5
8B6
330
881
100
AcDbEntity
  8
AM_BOR
 62
     1
370
    25
100
AcDbLine
 10
125.0
 20
0.0000000000000514
 30
0.0
 11
125.0
 21
5.000000000000033
 31
0.0
  0
TEXT
  5
8B7
330
881
100
AcDbEntity
  8
0
 60
     1
100
AcDbText
 10
420.0
 20
297.0
 30
0.0
 40
2.0
  1
!GENTITLE-MAX
  7
ACDINTS
100
AcDbText
  0
TEXT
  5
8B8
330
881
100
AcDbEntity
  8
0
 60
     1
100
AcDbText
 10
410.0
 20
287.0
 30
0.0
 40
2.0
  1
!GENTITLE-RU
  7
ACDINTS
100
AcDbText
  0
TEXT
  5
8B9
330
881
100
AcDbEntity
  8
0
 60
     1
100
AcDbText
 10
409.9999999999996
 20
10.0
 30
0.0
 40
2.0
  1
!GENTITLE-INSERT
  7
ACDINTS
100
AcDbText
  0
TEXT
  5
8BA
330
881
100
AcDbEntity
  8
0
 60
     1
100
AcDbText
 10
10.0
 20
10.00000000000005
 30
0.0
 40
2.0
  1
!GENTITLE-LL
  7
ACDINTS
100
AcDbText
  0
LINE
  5
8BB
330
881
100
AcDbEntity
  8
0
100
AcDbLine
 10
5.0
 20
5.0
 30
0.0
 11
5.000000000000015
 21
292.0
 31
0.0
  0
LINE
  5
8BC
330
881
100
AcDbEntity
  8
AM_BOR
 62
     1
370
    25
100
AcDbLine
 10
419.9999999999997
 20
0.0
 30
0.0
 11
-0.0000000000000568
 21
0.0000000000000514
 31
0.0
  0
LINE
  5
8BD
330
881
100
AcDbEntity
  8
AM_BOR
 62
     2
370
    35
100
AcDbLine
 10
210.0
 20
5.000000000000023
 30
0.0
 11
210.0
 21
20.00000000000003
 31
0.0
  0
LINE
  5
8BE
330
881
100
AcDbEntity
  8
AM_BOR
 62
     2
370
    35
100
AcDbLine
 10
415.0
 20
148.5
 30
0.0
 11
400.0
 21
148.5
 31
0.0
  0
LINE
  5
8BF
330
881
100
AcDbEntity
  8
AM_BOR
 62
     2
370
    35
100
AcDbLine
 10
5.000000000000007
 20
148.5
 30
0.0
 11
20.00000000000001
 21
148.5
 31
0.0
  0
LINE
  5
8C0
330
881
100
AcDbEntity
  8
AM_BOR
 62
     2
370
    35
100
AcDbLine
 10
210.0
 20
292.0
 30
0.0
 11
210.0
 21
277.0
 31
0.0
  0
TEXT
  5
8C1
330
881
100
AcDbEntity
  8
AM_BOR
 62
     1
370
    25
100
AcDbText
 10
233.4999999999999
 20
5.499999999999943
 30
0.0
 40
4.0
  1
5
  7
ACDINTS
100
AcDbText
  0
TEXT
  5
8C2
330
881
100
AcDbEntity
  8
AM_BOR
 62
     1
370
    25
100
AcDbText
 10
283.9999999999999
 20
5.499999999999943
 30
0.0
 40
4.0
  1
6
  7
ACDINTS
100
AcDbText
  0
LINE
  5
8C3
330
881
100
AcDbEntity
  8
AM_BOR
 62
     1
370
    25
100
AcDbLine
 10
260.0
 20
9.999999999999943
 30
0.0
 11
260.0
 21
4.999999999999943
 31
0.0
  0
TEXT
  5
8C4
330
881
100
AcDbEntity
  8
AM_BOR
 62
     1
370
    25
100
AcDbText
 10
333.9999999999999
 20
5.499999999999943
 30
0.0
 40
4.0
  1
7
  7
ACDINTS
100
AcDbText
  0
LINE
  5
8C5
330
881
100
AcDbEntity
  8
AM_BOR
 62
     1
370
    25
100
AcDbLine
 10
359.9999999999998
 20
9.999999999999943
 30
0.0
 11
359.9999999999998
 21
4.999999999999943
 31
0.0
  0
LINE
  5
8C6
330
881
100
AcDbEntity
  8
AM_BOR
 62
     1
370
    25
100
AcDbLine
 10
309.9999999999999
 20
9.999999999999943
 30
0.0
 11
309.9999999999999
 21
4.999999999999943
 31
0.0
  0
TEXT
  5
8C7
330
881
100
AcDbEntity
  8
AM_BOR
 62
     1
370
    25
100
AcDbText
 10
383.9999999999998
 20
5.499999999999943
 30
0.0
 40
4.0
  1
8
  7
ACDINTS
100
AcDbText
  0
ENDBLK
  5
8C9
330
881
100
AcDbEntity
  8
0
100
AcDbBlockEnd
  0
BLOCK
  5
8EE
330
8ED
100
AcDbEntity
  8
0
100
AcDbBlockBegin
  2
sfm
 70
     0
 10
0.0
 20
0.0
 30
0.0
  3
sfm
  1

  0
ARC
  5
8EF
330
8ED
100
AcDbEntity
  8
6
100
AcDbCircle
 10
4.790170910187725
 20
3.5
 30
0.0
 40
3.5
100
AcDbArc
 50
270.0
 51
90.0
  0
ARC
  5
8F0
330
8ED
100
AcDbEntity
  8
6
100
AcDbCircle
 10
0.0
 20
3.5
 30
0.0
 40
3.5
100
AcDbArc
 50
90.0
 51
270.0
  0
MTEXT
  5
8F1
330
8ED
100
AcDbEntity
  8
UMRISS05
 62
     2
100
AcDbMText
 10
-2.394073030151957
 20
5.872859090629845
 30
0.0
 40
3.0
 41
14.07
 71
     1
 72
     5
  1
\fArial Black|b0|i0|c0|p34;SFM
 73
     1
 44
1.0
  0
LINE
  5
8F2
330
8ED
100
AcDbEntity
  8
6
100
AcDbLine
 10
0.0
 20
0.0
 30
0.0
 11
4.790170910187725
 21
0.0
 31
0.0
  0
TEXT
  5
8F3
330
8ED
100
AcDbEntity
  8
UMRISS05
 62
     2
100
AcDbText
 10
-0.9325486328996246
 20
0.8119783732929588
 30
0.0
 40
1.5
  1
geprüft
100
AcDbText
  0
LINE
  5
8F4
330
8ED
100
AcDbEntity
  8
6
100
AcDbLine
 10
0.0
 20
7.0
 30
0.0
 11
4.790170910187725
 21
7.0
 31
0.0
  0
ENDBLK
  5
8F5
330
8ED
100
AcDbEntity
  8
0
100
AcDbBlockEnd
  0
BLOCK
  5
A09
330
94B
100
AcDbEntity
  8
0
100
AcDbBlockBegin
  2
REFLEX_EDBTITLE
 70
     2
 10
0.0
 20
0.0
 30
0.0
  3
REFLEX_EDBTITLE
  1

  0
LINE
  5
94C
330
94B
100
AcDbEntity
  8
AM_BOR
 62
     2
370
    35
100
AcDbLine
 10
0.0
 20
0.0
 30
0.0
 11
-190.0000000000076
 21
0.0
 31
0.0
  0
TEXT
  5
94D
330
94B
100
AcDbEntity
  8
AM_BOR
 62
     1
370
    25
100
AcDbText
 10
-115.7901946630717
 20
76.45962598719686
 30
0.0
 40
2.2
  1
Beschreibung der Änderung
100
AcDbText
  0
LINE
  5
94E
330
94B
100
AcDbEntity
  8
AM_BOR
 62
     2
370
    35
100
AcDbLine
 10
-190.0000000000076
 20
95.66666666667151
 30
0.0
 11
0.0
 21
95.66666666667151
 31
0.0
  0
LINE
  5
94F
330
94B
100
AcDbEntity
  8
AM_BOR
 62
     2
370
    35
100
AcDbLine
 10
-190.0000000000076
 20
90.66666666667151
 30
0.0
 11
0.0
 21
90.66666666667151
 31
0.0
  0
LINE
  5
950
330
94B
100
AcDbEntity
  8
AM_BOR
 62
     2
370
    35
100
AcDbLine
 10
-190.0000000000076
 20
85.66666666667151
 30
0.0
 11
0.0
 21
85.66666666667151
 31
0.0
  0
LINE
  5
951
330
94B
100
AcDbEntity
  8
AM_BOR
100
AcDbLine
 10
-190.0000000000076
 20
80.66666666667151
 30
0.0
 11
0.0
 21
80.66666666667151
 31
0.0
  0
LINE
  5
952
330
94B
100
AcDbEntity
  8
AM_BOR
100
AcDbLine
 10
0.0
 20
0.0
 30
0.0
 11
-190.0000000000076
 21
0.0
 31
0.0
  0
LINE
  5
953
330
94B
100
AcDbEntity
  8
AM_BOR
100
AcDbLine
 10
-190.0000000000076
 20
74.00000000000297
 30
0.0
 11
0.0
 21
74.00000000000297
 31
0.0
  0
LINE
  5
954
330
94B
100
AcDbEntity
  8
AM_BOR
100
AcDbLine
 10
-148.5000000000076
 20
53.00000000000284
 30
0.0
 11
-110.5000000000077
 21
53.00000000000281
 31
0.0
  0
LINE
  5
955
330
94B
100
AcDbEntity
  8
AM_BOR
 62
     2
370
    35
100
AcDbLine
 10
-148.5000000000076
 20
48.00000000000287
 30
0.0
 11
-110.5000000000077
 21
48.00000000000281
 31
0.0
  0
LINE
  5
956
330
94B
100
AcDbEntity
  8
AM_BOR
 62
     2
370
    35
100
AcDbLine
 10
-148.5000000000076
 20
43.00000000000287
 30
0.0
 11
-110.5000000000077
 21
43.0000000000028
 31
0.0
  0
LINE
  5
957
330
94B
100
AcDbEntity
  8
AM_BOR
100
AcDbLine
 10
-148.5000000000076
 20
38.00000000000284
 30
0.0
 11
0.0
 21
38.00000000000284
 31
0.0
  0
LINE
  5
958
330
94B
100
AcDbEntity
  8
AM_BOR
100
AcDbLine
 10
-148.5000000000076
 20
58.00000000000284
 30
0.0
 11
0.0
 21
58.00000000000284
 31
0.0
  0
TEXT
  5
959
330
94B
100
AcDbEntity
  8
AM_BOR
 62
     1
370
    25
100
AcDbText
 10
-184.5453046083921
 20
53.82399366428876
 30
0.0
 40
2.5
  1
Allgemeintoleranzen
 72
     1
 11
-169.2500000000076
 21
53.82399366428876
 31
0.0
100
AcDbText
  0
LINE
  5
95A
330
94B
100
AcDbEntity
  8
AM_BOR
100
AcDbLine
 10
-190.0000000000076
 20
135.6666666666715
 30
0.0
 11
-190.0000000000076
 21
0.0
 31
0.0
  0
TEXT
  5
95B
330
94B
100
AcDbEntity
  8
AM_BOR
 62
     1
370
    25
100
AcDbText
 10
-147.0000000000076
 20
71.0
 30
0.0
 40
2.0
  1
Werkstoff:
100
AcDbText
  0
LINE
  5
95C
330
94B
100
AcDbEntity
  8
AM_BOR
100
AcDbLine
 10
-148.5000000000076
 20
0.0
 30
0.0
 11
-148.5000000000076
 21
74.00000000000297
 31
0.0
  0
TEXT
  5
95D
330
94B
100
AcDbEntity
  8
AM_BOR
 62
     1
370
    25
100
AcDbText
 10
-187.0000452657501
 20
2.857790465878093
 30
0.0
 40
2.5
  1
Alle Rechte vorbehalten.
100
AcDbText
  0
TEXT
  5
95E
330
94B
100
AcDbEntity
  8
AM_BOR
 62
     1
370
    25
100
AcDbText
 10
-182.0372162604731
 20
7.81972563291301
 30
0.0
 40
2.5
  1
1995 Reflex,Ahlen
100
AcDbText
1001
GENIUS_GENTRA_14
1002
{
1070
     1
1000
/
1000
1995 Reflex,Ahlen
1000
DEU
1070
     0
1040
1.0
1070
     0
1002
}
  0
LINE
  5
95F
330
94B
100
AcDbEntity
  8
AM_BOR
100
AcDbLine
 10
-190.0000000000076
 20
14.00000000000297
 30
0.0
 11
-148.5000000000076
 21
14.00000000000297
 31
0.0
  0
LINE
  5
960
330
94B
100
AcDbEntity
  8
AM_BOR
100
AcDbLine
 10
-190.0000000000076
 20
25.00000000000297
 30
0.0
 11
-148.5000000000076
 21
25.00000000000297
 31
0.0
  0
LINE
  5
961
330
94B
100
AcDbEntity
  8
AM_BOR
100
AcDbLine
 10
-190.0000000000076
 20
36.00000000000297
 30
0.0
 11
-148.5000000000076
 21
36.00000000000297
 31
0.0
  0
LINE
  5
962
330
94B
100
AcDbEntity
  8
AM_BOR
100
AcDbLine
 10
-190.0000000000076
 20
47.00000000000295
 30
0.0
 11
-148.5000000000076
 21
47.00000000000295
 31
0.0
  0
LINE
  5
963
330
94B
100
AcDbEntity
  8
AM_BOR
100
AcDbLine
 10
-190.0000000000076
 20
58.00000000000296
 30
0.0
 11
-148.5000000000076
 21
58.00000000000296
 31
0.0
  0
TEXT
  5
964
330
94B
100
AcDbEntity
  8
AM_BOR
 62
     1
370
    25
100
AcDbText
 10
-188.5453046083921
 20
42.66491288036503
 30
0.0
 40
2.5
  1
Form-und Lagetoleranzen
 72
     1
 11
-169.2500000000076
 21
42.66491288036503
 31
0.0
100
AcDbText
  0
TEXT
  5
965
330
94B
100
AcDbEntity
  8
AM_BOR
 62
     1
370
    25
100
AcDbText
 10
-184.4203046083922
 20
31.50583411760111
 30
0.0
 40
2.5
  1
Oberflächenangaben
 72
     1
 11
-169.2500000000076
 21
31.50583411760111
 31
0.0
100
AcDbText
  0
TEXT
  5
966
330
94B
100
AcDbEntity
  8
AM_BOR
 62
     1
370
    25
100
AcDbText
 10
-182.4234296083921
 20
20.64555149180674
 30
0.0
 40
2.5
  1
Werkstückkanten
 72
     1
 11
-169.2500000000076
 21
20.64555149180674
 31
0.0
100
AcDbText
  0
CIRCLE
  5
967
330
94B
100
AcDbEntity
  8
AM_BOR
 62
     1
370
    25
100
AcDbCircle
 10
-185.5283738569115
 20
9.105009442083563
 30
0.0
 40
1.682013222792722
  0
TEXT
  5
968
330
94B
100
AcDbEntity
  8
AM_BOR
 62
     1
370
    25
100
AcDbText
 10
-186.4808982796636
 20
7.852145036007374
 30
0.0
 40
2.5
  1
C
100
AcDbText
  0
LINE
  5
969
330
94B
100
AcDbEntity
  8
AM_BOR
100
AcDbLine
 10
-134.7819501338923
 20
0.0
 30
0.0
 11
-134.7819501338922
 21
58.00000000000284
 31
0.0
  0
TEXT
  5
96A
330
94B
100
AcDbEntity
  8
AM_BOR
 62
     1
370
    25
100
AcDbText
 10
-147.0000000000076
 20
16.0
 30
0.0
 40
2.0
  1
Format
 41
1.234567901234567
 72
     5
 11
-137.0000000000076
 21
16.0
 31
0.0
100
AcDbText
  0
LINE
  5
96B
330
94B
100
AcDbEntity
  8
AM_BOR
100
AcDbLine
 10
-134.7819501338922
 20
19.0
 30
0.0
 11
-148.5000000000076
 21
19.0
 31
0.0
  0
TEXT
  5
96C
330
94B
100
AcDbEntity
  8
AM_BOR
 62
     1
370
    25
100
AcDbText
 10
-147.0000000000076
 20
34.81005903951976
 30
0.0
 40
2.0
  1
Maßstab
 41
1.002256342277585
 72
     5
 11
-137.0000000000076
 21
34.81005903951976
 31
0.0
100
AcDbText
  0
TEXT
  5
96D
330
94B
100
AcDbEntity
  8
AM_BOR
 62
     1
370
    25
100
AcDbText
 10
-147.0000000000076
 20
39.0
 30
0.0
 40
2.0
  1
Normg.
 41
1.298701298701298
 72
     5
 11
-137.0000000000076
 21
39.0
 31
0.0
100
AcDbText
  0
TEXT
  5
96E
330
94B
100
AcDbEntity
  8
AM_BOR
 62
     1
370
    25
100
AcDbText
 10
-147.0000000000076
 20
44.0
 30
0.0
 40
2.0
  1
gepr.
 41
1.75438596491228
 72
     5
 11
-137.0000000000076
 21
44.0
 31
0.0
100
AcDbText
  0
TEXT
  5
96F
330
94B
100
AcDbEntity
  8
AM_BOR
 62
     1
370
    25
100
AcDbText
 10
-147.0000000000076
 20
49.0
 30
0.0
 40
2.0
  1
Bearb.
 41
1.369863013698629
 72
     5
 11
-137.0000000000076
 21
49.0
 31
0.0
100
AcDbText
  0
TEXT
  5
970
330
94B
100
AcDbEntity
  8
AM_BOR
 62
     1
370
    25
100
AcDbText
 10
-178.3250738189052
 20
26.50908286748418
 30
0.0
 40
2.5
  1
DIN ISO 1302
 72
     1
 11
-169.2500000000076
 21
26.50908286748418
 31
0.0
100
AcDbText
  0
TEXT
  5
971
330
94B
100
AcDbEntity
  8
AM_BOR
 62
     1
370
    25
100
AcDbText
 10
-175.7500000000076
 20
15.81434939808754
 30
0.0
 40
2.5
  1
DIN 6784
 72
     1
 11
-169.2500000000076
 21
15.81434939808754
 31
0.0
100
AcDbText
  0
TEXT
  5
972
330
94B
100
AcDbEntity
  8
AM_BOR
 62
     1
370
    25
100
AcDbText
 10
-177.7500000000076
 20
37.66816163024811
 30
0.0
 40
2.5
  1
DIN ISO 1101
 72
     1
 11
-169.2500000000076
 21
37.66816163024811
 31
0.0
100
AcDbText
  0
LINE
  5
973
330
94B
100
AcDbEntity
  8
AM_BOR
100
AcDbLine
 10
-123.5000000000076
 20
38.00000000000284
 30
0.0
 11
-123.5000000000076
 21
58.00000000000284
 31
0.0
  0
TEXT
  5
974
330
94B
100
AcDbEntity
  8
AM_BOR
 62
     1
370
    25
100
AcDbText
 10
-134.0000000000076
 20
54.0
 30
0.0
 40
2.0
  1
Tag
 41
1.677656365025809
 72
     5
 11
-127.0000000000076
 21
54.0
 31
0.0
100
AcDbText
  0
TEXT
  5
975
330
94B
100
AcDbEntity
  8
AM_BOR
 62
     1
370
    25
100
AcDbText
 10
-123.0000000000076
 20
54.0
 30
0.0
 40
2.0
  1
Name
 41
1.694915254237286
 72
     5
 11
-113.0000000000076
 21
54.0
 31
0.0
100
AcDbText
  0
LINE
  5
976
330
94B
100
AcDbEntity
  8
AM_BOR
100
AcDbLine
 10
-182.8025158264765
 20
135.6666666666715
 30
0.0
 11
-182.8025158264765
 21
74.00000000000297
 31
0.0
  0
TEXT
  5
977
330
94B
100
AcDbEntity
  8
AM_BOR
 62
     1
370
    25
100
AcDbText
 10
-189.1672017515284
 20
76.45962598719686
 30
0.0
 40
2.2
  1
Index
100
AcDbText
  0
TEXT
  5
978
330
94B
100
AcDbEntity
  8
AM_BOR
 62
     1
370
    25
100
AcDbText
 10
-45.00000000000748
 20
71.00000000000001
 30
0.0
 40
2.0
  1
Oberflächenbehandlung:
100
AcDbText
  0
TEXT
  5
979
330
94B
100
AcDbEntity
  8
AM_BOR
 62
     1
370
    25
100
AcDbText
 10
-92.00000000000747
 20
71.00000000000001
 30
0.0
 40
2.0
  1
Nachbehandlung:
100
AcDbText
  0
LINE
  5
97A
330
94B
100
AcDbEntity
  8
AM_BOR
 62
     2
370
    35
100
AcDbLine
 10
-46.50000000000749
 20
74.00000000000297
 30
0.0
 11
-46.50000000000761
 21
58.00000000000284
 31
0.0
  0
LINE
  5
97B
330
94B
100
AcDbEntity
  8
AM_BOR
100
AcDbLine
 10
-93.50000000000759
 20
38.00000000000284
 30
0.0
 11
-93.50000000000774
 21
74.00000000000297
 31
0.0
  0
LINE
  5
97C
330
94B
100
AcDbEntity
  8
AM_BOR
 62
     2
370
    35
100
AcDbLine
 10
-65.50000000000773
 20
7.000000000000028
 30
0.0
 11
-26.50000000000762
 21
7.000000000000028
 31
0.0
  0
LINE
  5
97D
330
94B
100
AcDbEntity
  8
AM_BOR
 62
     2
370
    35
100
AcDbLine
 10
-65.50000000000773
 20
31.00000000000282
 30
0.0
 11
-26.50000000000762
 21
31.00000000000282
 31
0.0
  0
LINE
  5
97E
330
94B
100
AcDbEntity
  8
AM_BOR
100
AcDbLine
 10
-65.50000000000761
 20
0.0
 30
0.0
 11
-65.50000000000773
 21
58.00000000000281
 31
0.0
  0
TEXT
  5
97F
330
94B
100
AcDbEntity
  8
AM_BOR
 62
     1
370
    25
100
AcDbText
 10
-64.00000000000762
 20
4.0
 30
0.0
 40
2.0
  1
Ersetzt durch:
100
AcDbText
  0
TEXT
  5
980
330
94B
100
AcDbEntity
  8
AM_BOR
 62
     1
370
    25
100
AcDbText
 10
-87.00000000000761
 20
42.0
 30
0.0
 40
2.0
  1
geprüft
100
AcDbText
  0
TEXT
  5
981
330
94B
100
AcDbEntity
  8
AM_BOR
 62
     1
370
    25
100
AcDbText
 10
-92.00000000000761
 20
48.0
 30
0.0
 40
2.0
  1
werden besonders
100
AcDbText
  0
LINE
  5
982
330
94B
100
AcDbEntity
  8
AM_BOR
 62
     1
370
    25
100
AcDbLine
 10
-82.00000000000761
 20
54.0
 30
0.0
 11
-76.00000000000761
 21
54.0
 31
0.0
  0
LINE
  5
983
330
94B
100
AcDbEntity
  8
AM_BOR
 62
     1
370
    25
100
AcDbLine
 10
-82.00000000000761
 20
56.0
 30
0.0
 11
-76.00000000000761
 21
56.0
 31
0.0
  0
LINE
  5
984
330
94B
100
AcDbEntity
  8
AM_BOR
100
AcDbLine
 10
-110.5000000000076
 20
38.00000000000284
 30
0.0
 11
-110.5000000000077
 21
58.00000000000284
 31
0.0
  0
TEXT
  5
985
330
94B
100
AcDbEntity
  8
AM_BOR
 62
     1
370
    25
100
AcDbText
 10
-109.0000000000076
 20
54.0
 30
0.0
 40
2.0
  1
Gesehen:
 41
1.26152353226589
 72
     5
 11
-96.00000000000761
 21
54.0
 31
0.0
100
AcDbText
  0
TEXT
  5
986
330
94B
100
AcDbEntity
  8
AM_BOR
 62
     1
370
    25
100
AcDbText
 10
-92.00000000000761
 20
54.0
 30
0.0
 40
2.0
  1
Diese
 41
1.146601146601141
 72
     5
 11
-85.00000000000763
 21
54.0
 31
0.0
100
AcDbText
  0
ARC
  5
987
330
94B
100
AcDbEntity
  8
AM_BOR
 62
     1
370
    25
100
AcDbCircle
 10
-82.00000000000761
 20
55.0
 30
0.0
 40
1.0
100
AcDbArc
 50
90.00000000000005
 51
270.0000000000001
  0
TEXT
  5
988
330
94B
100
AcDbEntity
  8
AM_BOR
 62
     1
370
    25
100
AcDbText
 10
-64.00000000000762
 20
35.0
 30
0.0
 40
2.0
  1
Ersatz für:
100
AcDbText
  0
TEXT
  5
989
330
94B
100
AcDbEntity
  8
AM_BOR
 62
     1
370
    25
100
AcDbText
 10
-74.00000000000763
 20
54.0
 30
0.0
 40
2.0
  1
Maße
100
AcDbText
  0
ARC
  5
98A
330
94B
100
AcDbEntity
  8
AM_BOR
 62
     1
370
    25
100
AcDbCircle
 10
-76.00000000000761
 20
55.0
 30
0.0
 40
1.0
100
AcDbArc
 50
270.0
 51
90.0
  0
LINE
  5
98B
330
94B
100
AcDbEntity
  8
AM_BOR
 62
     2
370
    35
100
AcDbLine
 10
-10.00000000000011
 20
0.0
 30
0.0
 11
-10.00000000000011
 21
38.00000000000284
 31
0.0
  0
LINE
  5
98C
330
94B
100
AcDbEntity
  8
AM_BOR
 62
     2
370
    35
100
AcDbLine
 10
-15.04433005655051
 20
38.00000000000284
 30
0.0
 11
-15.04433005655051
 21
0.0
 31
0.0
  0
LINE
  5
98D
330
94B
100
AcDbEntity
  8
AM_BOR
 62
     2
370
    35
100
AcDbLine
 10
-26.50000000000762
 20
7.000000000000028
 30
0.0
 11
-26.50000000000762
 21
0.0
 31
0.0
  0
LINE
  5
98E
330
94B
100
AcDbEntity
  8
AM_BOR
 62
     2
370
    35
100
AcDbLine
 10
-15.04433005655051
 20
34.54545000000285
 30
0.0
 11
0.0
 21
34.54545000000285
 31
0.0
  0
LINE
  5
98F
330
94B
100
AcDbEntity
  8
AM_BOR
 62
     2
370
    35
100
AcDbLine
 10
-26.50000000000762
 20
31.00000000000282
 30
0.0
 11
-26.50000000000762
 21
38.00000000000284
 31
0.0
  0
LINE
  5
990
330
94B
100
AcDbEntity
  8
AM_BOR
 62
     2
370
    35
100
AcDbLine
 10
-10.00000000000011
 20
34.20000000000283
 30
0.0
 11
-10.00000000000011
 21
38.00000000000284
 31
0.0
  0
TEXT
  5
991
330
94B
100
AcDbEntity
  8
AM_BOR
 62
     1
370
    25
100
AcDbText
 10
-10.22624575893451
 20
76.45962598719686
 30
0.0
 40
2.2
  1
Name
100
AcDbText
  0
LINE
  5
992
330
94B
100
AcDbEntity
  8
AM_BOR
100
AcDbLine
 10
-29.34186369022667
 20
135.6666666666715
 30
0.0
 11
-29.34186369022689
 21
74.00000000000298
 31
0.0
  0
LINE
  5
993
330
94B
100
AcDbEntity
  8
AM_BOR
100
AcDbLine
 10
-15.46099918964126
 20
135.6666666666715
 30
0.0
 11
-15.46099918964148
 21
74.00000000000298
 31
0.0
  0
TEXT
  5
994
330
94B
100
AcDbEntity
  8
AM_BOR
 62
     1
370
    25
100
AcDbText
 10
-26.39399351883265
 20
76.45962598719686
 30
0.0
 40
2.2
  1
Datum
100
AcDbText
  0
LINE
  5
995
330
94B
100
AcDbEntity
  8
AM_BOR
 62
     2
370
    35
100
AcDbLine
 10
-190.0000000000076
 20
100.6666666666715
 30
0.0
 11
0.0
 21
100.6666666666715
 31
0.0
  0
TEXT
  5
996
330
94B
100
AcDbEntity
  8
AM_BOR
 62
     2
370
    35
100
AcDbText
 10
-50.90840094456416
 20
39.49079626827336
 30
0.0
 40
3.0
  1
59227 Ahlen(Westf.)
 72
     1
 11
-32.75000000000386
 21
39.49079626827336
 31
0.0
100
AcDbText
  0
TEXT
  5
997
330
94B
100
AcDbEntity
  8
AM_BOR
 62
     2
370
    35
100
AcDbText
 10
-62.15750000000387
 20
44.15746293494001
 30
0.0
 40
3.0
  1
Reflex Winkelmann GmbH + Co.KG
 72
     1
 11
-32.75000000000386
 21
44.15746293494001
 31
0.0
100
AcDbText
  0
LINE
  5
998
330
94B
100
AcDbEntity
  8
AM_BOR
100
AcDbLine
 10
0.0
 20
135.6666666666715
 30
0.0
 11
0.0
 21
0.0
 31
0.0
  0
TEXT
  5
999
330
94B
100
AcDbEntity
  8
AM_BOR
 62
     1
370
    25
100
AcDbText
 10
-188.5000000000076
 20
71.0
 30
0.0
 40
2.0
  1
Sachnummer:
100
AcDbText
  0
ATTDEF
  5
99A
330
94B
100
AcDbEntity
  8
AM_BOR
100
AcDbText
 10
-169.2500000000076
 20
63.66666000000002
 30
0.0
 40
4.5
  1

 72
     1
 11
-169.2500000000076
 21
63.66666000000002
 31
0.0
100
AcDbAttributeDefinition
  3
Sachnummer
  2
R_SACH
 70
     0
  0
ATTDEF
  5
99B
330
94B
100
AcDbEntity
  8
AM_BOR
100
AcDbText
 10
-100.14097506695
 20
24.72359202704005
 30
0.0
 40
4.5
  1

 72
     1
 11
-100.14097506695
 21
24.72359202704005
 31
0.0
100
AcDbAttributeDefinition
  3
Benennung1
  2
R_BENENN1
 70
     0
  0
ATTDEF
  5
99C
330
94B
100
AcDbEntity
  8
AM_BOR
100
AcDbText
 10
-100.14097506695
 20
16.72359202704005
 30
0.0
 40
4.5
  1

 72
     1
 11
-100.14097506695
 21
16.72359202704005
 31
0.0
100
AcDbAttributeDefinition
  3
Benennung2
  2
R_BENENN2
 70
     0
  0
ATTDEF
  5
99D
330
94B
100
AcDbEntity
  8
AM_BOR
100
AcDbText
 10
-100.14097506695
 20
8.723592027040048
 30
0.0
 40
4.5
  1

 72
     1
 11
-100.14097506695
 21
8.723592027040048
 31
0.0
100
AcDbAttributeDefinition
  3
Benennung3
  2
R_BENENN3
 70
     0
  0
ATTDEF
  5
99E
330
94B
100
AcDbEntity
  8
AM_BOR
 62
     1
370
    25
100
AcDbText
 10
-134.2819501338922
 20
49.50000000000287
 30
0.0
 40
2.0
  1

 41
0.6099885807078702
 72
     5
 11
-123.8511454037876
 21
49.50000000000287
 31
0.0
100
AcDbAttributeDefinition
  3
Bearbeitet Datum
  2
R_BEAR_DAT
 70
     0
  0
ATTDEF
  5
99F
330
94B
100
AcDbEntity
  8
AM_BOR
 62
     1
370
    25
100
AcDbText
 10
-123.0000000000076
 20
49.50000000000282
 30
0.0
 40
2.0
  1

100
AcDbAttributeDefinition
  3
Bearbeitet Name
  2
R_BEAR_NAM
 70
     0
  0
ATTDEF
  5
9A0
330
94B
100
AcDbEntity
  8
AM_BOR
100
AcDbText
 10
-147.0000000000076
 20
28.66665999999984
 30
0.0
 40
4.5
  1

100
AcDbAttributeDefinition
  3
Maßstab
  2
GEN-TITLE-SCA{5.42}
 70
     0
1001
GENIUS_GENTRA_14
1002
{
1070
     3
1000
GENTRAPR,%s,(GENMSG gendwg 83)
1000
Maßstab
1000
DEU
1070
     0
1070
     0
1002
}
  0
ATTDEF
  5
9A1
330
94B
100
AcDbEntity
  8
AM_BOR
 62
     2
370
    35
100
AcDbText
 10
-147.0000000000076
 20
23.33332999999985
 30
0.0
 40
3.0
  1

100
AcDbAttributeDefinition
  3
Maßstab2
  2
R_MASSTAB2
 70
     0
  0
ATTDEF
  5
9A2
330
94B
100
AcDbEntity
  8
AM_BOR
 62
     1
370
    25
100
AcDbText
 10
-64.00000000000762
 20
32.00000000000282
 30
0.0
 40
2.0
  1

100
AcDbAttributeDefinition
  3
Ersatz für
  2
R_ERSA_FUR
 70
     0
  0
ATTDEF
  5
9A3
330
94B
100
AcDbEntity
  8
AM_BOR
 62
     1
370
    25
100
AcDbText
 10
-64.00000000000756
 20
0.9999999999999795
 30
0.0
 40
2.0
  1

100
AcDbAttributeDefinition
  3
Ersetzt durch
  2
R_ERSE_DUR
 70
     0
  0
ATTDEF
  5
9A4
330
94B
100
AcDbEntity
  8
AM_BOR
 62
     2
370
    35
100
AcDbText
 10
-147.0000000000076
 20
65.66666000000002
 30
0.0
 40
3.0
  1

100
AcDbAttributeDefinition
  3
Werkstoff1
  2
R_WERK1
 70
     0
  0
ATTDEF
  5
9A5
330
94B
100
AcDbEntity
  8
AM_BOR
 62
     2
370
    35
100
AcDbText
 10
-147.0000000000076
 20
60.33332999999997
 30
0.0
 40
3.0
  1

100
AcDbAttributeDefinition
  3
Werkstoff2
  2
R_WERK2
 70
     0
  0
ATTDEF
  5
9A6
330
94B
100
AcDbEntity
  8
AM_BOR
 62
     2
370
    35
100
AcDbText
 10
-92.00000000000768
 20
65.66666000000002
 30
0.0
 40
3.0
  1

100
AcDbAttributeDefinition
  3
Nachbehandlung1
  2
R_NACHBE1
 70
     0
  0
ATTDEF
  5
9A7
330
94B
100
AcDbEntity
  8
AM_BOR
 62
     2
370
    35
100
AcDbText
 10
-92.00000000000768
 20
60.33332999999997
 30
0.0
 40
3.0
  1

100
AcDbAttributeDefinition
  3
Nachbehandlung2
  2
R_NACHBE2
 70
     0
  0
ATTDEF
  5
9A8
330
94B
100
AcDbEntity
  8
AM_BOR
 62
     2
370
    35
100
AcDbText
 10
-45.00000000000762
 20
65.66666000000002
 30
0.0
 40
3.0
  1

100
AcDbAttributeDefinition
  3
Oberflächenbehandlung1
  2
R_OBERFL1
 70
     0
  0
ATTDEF
  5
9A9
330
94B
100
AcDbEntity
  8
AM_BOR
 62
     2
370
    35
100
AcDbText
 10
-45.00000000000762
 20
60.33332999999997
 30
0.0
 40
3.0
  1

100
AcDbAttributeDefinition
  3
Oberflächenbehandlung2
  2
R_OBERFL2
 70
     0
  0
ATTDEF
  5
9AA
330
94B
100
AcDbEntity
  8
AM_BOR
100
AcDbText
 10
-147.0000000000076
 20
7.666659999996999
 30
0.0
 40
4.5
  1

100
AcDbAttributeDefinition
  3
Blattformat
  2
BLATTFORMAT
 70
     0
  0
ATTDEF
  5
9AB
330
94B
100
AcDbEntity
  8
AM_BOR
 62
     1
370
    25
100
AcDbText
 10
-186.4012579132421
 20
82.16666666667149
 30
0.0
 40
2.0
  1

 72
     1
 11
-186.4012579132421
 21
82.16666666667149
 31
0.0
100
AcDbAttributeDefinition
  3
Änderungsindex 1
  2
R_AEIND1
 70
     0
  0
ATTDEF
  5
9AC
330
94B
100
AcDbEntity
  8
AM_BOR
 62
     1
370
    25
100
AcDbText
 10
-12.3315588552569
 20
35.34215080509318
 30
0.0
 40
2.0
  1

 72
     1
 11
-12.3315588552569
 21
35.34215080509318
 31
0.0
100
AcDbAttributeDefinition
  3
Änderungsindex 1
  2
R_AEIND1
 70
     0
  0
ATTDEF
  5
9AD
330
94B
100
AcDbEntity
  8
AM_BOR
 62
     1
370
    25
100
AcDbText
 10
-8.809393826981702
 20
35.34215080509318
 30
0.0
 40
2.0
  1

100
AcDbAttributeDefinition
  3
Änderungsnummer 1
  2
R_AENR1
 70
     0
  0
ATTDEF
  5
9AE
330
94B
100
AcDbEntity
  8
AM_BOR
 62
     1
370
    25
100
AcDbText
 10
-181.3025158264765
 20
82.16666666667149
 30
0.0
 40
2.0
  1

100
AcDbAttributeDefinition
  3
Änderungsbeschreibung 1
  2
R_AETEXT1
 70
     0
  0
ATTDEF
  5
9AF
330
94B
100
AcDbEntity
  8
AM_BOR
 62
     1
370
    25
100
AcDbText
 10
-27.84186369022683
 20
82.16666666667149
 30
0.0
 40
2.0
  1

100
AcDbAttributeDefinition
  3
Änderungsdatum 1
  2
R_AEDAT1
 70
     0
  0
ATTDEF
  5
9B0
330
94B
100
AcDbEntity
  8
AM_BOR
 62
     1
370
    25
100
AcDbText
 10
-13.96099918964142
 20
82.16666666667149
 30
0.0
 40
2.0
  1

100
AcDbAttributeDefinition
  3
Änderungsname 1
  2
R_AENAM1
 70
     0
  0
ATTDEF
  5
9B1
330
94B
100
AcDbEntity
  8
AM_BOR
 62
     1
370
    25
100
AcDbText
 10
-181.8252586544574
 20
48.99279157056955
 30
0.0
 40
2.5
  1

100
AcDbAttributeDefinition
  3
Allgemeintoleranzen
  2
R_TOLALL
 70
     0
  0
ATTDEF
  5
9B2
330
94B
100
AcDbEntity
  8
AM_BOR
100
AcDbText
 10
-53.24838027179692
 20
9.657306607706779
 30
0.0
 40
3.5
  1

100
AcDbAttributeDefinition
  3
Projekt
  2
R_PROJEKT
 70
     0
  0
ATTDEF
  5
9B3
330
94B
100
AcDbEntity
  8
AM_BOR
100
AcDbText
 10
-62.56400243277346
 20
19.16161098446256
 30
0.0
 40
6.0
  1

100
AcDbAttributeDefinition
  3
Projekt
  2
R_ZEICHNR
 70
     0
  0
LINE
  5
9B4
330
94B
100
AcDbEntity
  8
AM_BOR
 62
     2
370
    35
100
AcDbLine
 10
-190.0000000000076
 20
105.6666666666715
 30
0.0
 11
0.0
 21
105.6666666666715
 31
0.0
  0
LINE
  5
9B5
330
94B
100
AcDbEntity
  8
AM_BOR
 62
     2
370
    35
100
AcDbLine
 10
-190.0000000000076
 20
110.6666666666715
 30
0.0
 11
0.0
 21
110.6666666666715
 31
0.0
  0
LINE
  5
9B6
330
94B
100
AcDbEntity
  8
AM_BOR
 62
     2
370
    35
100
AcDbLine
 10
-190.0000000000076
 20
115.6666666666715
 30
0.0
 11
0.0
 21
115.6666666666715
 31
0.0
  0
LINE
  5
9B7
330
94B
100
AcDbEntity
  8
AM_BOR
 62
     2
370
    35
100
AcDbLine
 10
-190.0000000000076
 20
120.6666666666715
 30
0.0
 11
0.0
 21
120.6666666666715
 31
0.0
1001
GENIUS_VERSION1
1070
     1
  0
LINE
  5
9B8
330
94B
100
AcDbEntity
  8
AM_BOR
 62
     2
370
    35
100
AcDbLine
 10
-190.0000000000076
 20
115.6666666666715
 30
0.0
 11
0.0
 21
115.6666666666715
 31
0.0
  0
LINE
  5
9B9
330
94B
100
AcDbEntity
  8
AM_BOR
 62
     2
370
    35
100
AcDbLine
 10
-190.0000000000076
 20
120.6666666666715
 30
0.0
 11
0.0
 21
120.6666666666715
 31
0.0
  0
LINE
  5
9BA
330
94B
100
AcDbEntity
  8
AM_BOR
 62
     2
370
    35
100
AcDbLine
 10
-190.0000000000076
 20
125.6666666666715
 30
0.0
 11
0.0
 21
125.6666666666715
 31
0.0
1001
GENIUS_VERSION1
1070
     1
  0
LINE
  5
9BB
330
94B
100
AcDbEntity
  8
AM_BOR
100
AcDbLine
 10
-190.0000000000076
 20
135.6666666666715
 30
0.0
 11
0.0
 21
135.6666666666715
 31
0.0
1001
GENIUS_VERSION1
1070
     1
  0
LINE
  5
9BC
330
94B
100
AcDbEntity
  8
AM_BOR
 62
     2
370
    35
100
AcDbLine
 10
-190.0000000000076
 20
130.6666666666715
 30
0.0
 11
0.0
 21
130.6666666666715
 31
0.0
1001
GENIUS_VERSION1
1070
     1
  0
LINE
  5
9BD
330
94B
100
AcDbEntity
  8
AM_BOR
 62
     2
370
    35
100
AcDbLine
 10
-15.04433005655051
 20
31.09090000000285
 30
0.0
 11
0.0
 21
31.09090000000285
 31
0.0
  0
LINE
  5
9BE
330
94B
100
AcDbEntity
  8
AM_BOR
 62
     2
370
    35
100
AcDbLine
 10
-15.04433005655051
 20
27.63635000000285
 30
0.0
 11
0.0
 21
27.63635000000285
 31
0.0
  0
LINE
  5
9BF
330
94B
100
AcDbEntity
  8
AM_BOR
 62
     2
370
    35
100
AcDbLine
 10
-15.04433005655051
 20
24.18180000000285
 30
0.0
 11
0.0
 21
24.18180000000285
 31
0.0
  0
LINE
  5
9C0
330
94B
100
AcDbEntity
  8
AM_BOR
 62
     2
370
    35
100
AcDbLine
 10
-15.04433005655051
 20
20.72725000000286
 30
0.0
 11
0.0
 21
20.72725000000286
 31
0.0
  0
LINE
  5
9C1
330
94B
100
AcDbEntity
  8
AM_BOR
 62
     2
370
    35
100
AcDbLine
 10
-15.04433005655051
 20
17.27270000000285
 30
0.0
 11
0.0
 21
17.27270000000285
 31
0.0
  0
LINE
  5
9C2
330
94B
100
AcDbEntity
  8
AM_BOR
 62
     2
370
    35
100
AcDbLine
 10
-15.04433005655051
 20
13.81815000000285
 30
0.0
 11
0.0
 21
13.81815000000285
 31
0.0
  0
LINE
  5
9C3
330
94B
100
AcDbEntity
  8
AM_BOR
 62
     2
370
    35
100
AcDbLine
 10
-15.04433005655051
 20
10.36360000000286
 30
0.0
 11
0.0
 21
10.36360000000286
 31
0.0
  0
LINE
  5
9C4
330
94B
100
AcDbEntity
  8
AM_BOR
 62
     2
370
    35
100
AcDbLine
 10
-15.04433005655051
 20
6.909050000002857
 30
0.0
 11
0.0
 21
6.909050000002857
 31
0.0
  0
LINE
  5
9C5
330
94B
100
AcDbEntity
  8
AM_BOR
 62
     2
370
    35
100
AcDbLine
 10
-15.04433005655051
 20
3.454500000002861
 30
0.0
 11
0.0
 21
3.454500000002861
 31
0.0
1001
GENIUS_VERSION1
1070
     1
  0
ATTDEF
  5
9C6
330
94B
100
AcDbEntity
  8
AM_BOR
 62
     1
370
    25
100
AcDbText
 10
-12.3315588552569
 20
31.88760080509319
 30
0.0
 40
2.0
  1

 72
     1
 11
-12.3315588552569
 21
31.88760080509319
 31
0.0
100
AcDbAttributeDefinition
  3
Änderungsindex 2
  2
R_AEIND2
 70
     0
  0
ATTDEF
  5
9C7
330
94B
100
AcDbEntity
  8
AM_BOR
 62
     1
370
    25
100
AcDbText
 10
-8.809393826981702
 20
31.88760080509319
 30
0.0
 40
2.0
  1

100
AcDbAttributeDefinition
  3
Änderungsnummer 2
  2
R_AENR2
 70
     0
  0
ATTDEF
  5
9C8
330
94B
100
AcDbEntity
  8
AM_BOR
 62
     1
370
    25
100
AcDbText
 10
-12.3315588552569
 20
28.43305080509319
 30
0.0
 40
2.0
  1

 72
     1
 11
-12.3315588552569
 21
28.43305080509319
 31
0.0
100
AcDbAttributeDefinition
  3
Änderungsindex 3
  2
R_AEIND3
 70
     0
  0
ATTDEF
  5
9C9
330
94B
100
AcDbEntity
  8
AM_BOR
 62
     1
370
    25
100
AcDbText
 10
-8.809393826981702
 20
28.43305080509319
 30
0.0
 40
2.0
  1

100
AcDbAttributeDefinition
  3
Änderungsnummer 3
  2
R_AENR3
 70
     0
  0
ATTDEF
  5
9CA
330
94B
100
AcDbEntity
  8
AM_BOR
 62
     1
370
    25
100
AcDbText
 10
-12.3315588552569
 20
24.9785008050932
 30
0.0
 40
2.0
  1

 72
     1
 11
-12.3315588552569
 21
24.9785008050932
 31
0.0
100
AcDbAttributeDefinition
  3
Änderungsindex 4
  2
R_AEIND4
 70
     0
  0
ATTDEF
  5
9CB
330
94B
100
AcDbEntity
  8
AM_BOR
 62
     1
370
    25
100
AcDbText
 10
-8.809393826981702
 20
24.9785008050932
 30
0.0
 40
2.0
  1

100
AcDbAttributeDefinition
  3
Änderungsnummer 4
  2
R_AENR4
 70
     0
  0
ATTDEF
  5
9CC
330
94B
100
AcDbEntity
  8
AM_BOR
 62
     1
370
    25
100
AcDbText
 10
-12.3315588552569
 20
21.5239508050932
 30
0.0
 40
2.0
  1

 72
     1
 11
-12.3315588552569
 21
21.5239508050932
 31
0.0
100
AcDbAttributeDefinition
  3
Änderungsindex 5
  2
R_AEIND5
 70
     0
  0
ATTDEF
  5
9CD
330
94B
100
AcDbEntity
  8
AM_BOR
 62
     1
370
    25
100
AcDbText
 10
-8.809393826981702
 20
21.5239508050932
 30
0.0
 40
2.0
  1

100
AcDbAttributeDefinition
  3
Änderungsnummer 5
  2
R_AENR5
 70
     0
  0
ATTDEF
  5
9CE
330
94B
100
AcDbEntity
  8
AM_BOR
 62
     1
370
    25
100
AcDbText
 10
-12.3315588552569
 20
18.06940080509319
 30
0.0
 40
2.0
  1

 72
     1
 11
-12.3315588552569
 21
18.06940080509319
 31
0.0
100
AcDbAttributeDefinition
  3
Änderungsindex 6
  2
R_AEIND6
 70
     0
  0
ATTDEF
  5
9CF
330
94B
100
AcDbEntity
  8
AM_BOR
 62
     1
370
    25
100
AcDbText
 10
-8.809393826981702
 20
18.06940080509319
 30
0.0
 40
2.0
  1

100
AcDbAttributeDefinition
  3
Änderungsnummer 6
  2
R_AENR6
 70
     0
  0
ATTDEF
  5
9D0
330
94B
100
AcDbEntity
  8
AM_BOR
 62
     1
370
    25
100
AcDbText
 10
-12.3315588552569
 20
14.61485080509319
 30
0.0
 40
2.0
  1

 72
     1
 11
-12.3315588552569
 21
14.61485080509319
 31
0.0
100
AcDbAttributeDefinition
  3
Änderungsindex 7
  2
R_AEIND7
 70
     0
  0
ATTDEF
  5
9D1
330
94B
100
AcDbEntity
  8
AM_BOR
 62
     1
370
    25
100
AcDbText
 10
-8.809393826981702
 20
14.61485080509319
 30
0.0
 40
2.0
  1

100
AcDbAttributeDefinition
  3
Änderungsnummer 7
  2
R_AENR7
 70
     0
  0
ATTDEF
  5
9D2
330
94B
100
AcDbEntity
  8
AM_BOR
 62
     1
370
    25
100
AcDbText
 10
-12.3315588552569
 20
11.16030080509319
 30
0.0
 40
2.0
  1

 72
     1
 11
-12.3315588552569
 21
11.16030080509319
 31
0.0
100
AcDbAttributeDefinition
  3
Änderungsindex 8
  2
R_AEIND8
 70
     0
  0
ATTDEF
  5
9D3
330
94B
100
AcDbEntity
  8
AM_BOR
 62
     1
370
    25
100
AcDbText
 10
-8.809393826981702
 20
11.16030080509319
 30
0.0
 40
2.0
  1

100
AcDbAttributeDefinition
  3
Änderungsnummer 8
  2
R_AENR8
 70
     0
  0
ATTDEF
  5
9D4
330
94B
100
AcDbEntity
  8
AM_BOR
 62
     1
370
    25
100
AcDbText
 10
-12.3315588552569
 20
7.705750805093199
 30
0.0
 40
2.0
  1

 72
     1
 11
-12.3315588552569
 21
7.705750805093199
 31
0.0
100
AcDbAttributeDefinition
  3
Änderungsindex 9
  2
R_AEIND9
 70
     0
  0
ATTDEF
  5
9D5
330
94B
100
AcDbEntity
  8
AM_BOR
 62
     1
370
    25
100
AcDbText
 10
-8.809393826981702
 20
7.705750805093199
 30
0.0
 40
2.0
  1

100
AcDbAttributeDefinition
  3
Änderungsnummer 9
  2
R_AENR9
 70
     0
  0
ATTDEF
  5
9D6
330
94B
100
AcDbEntity
  8
AM_BOR
 62
     1
370
    25
100
AcDbText
 10
-12.3315588552569
 20
4.251200805093199
 30
0.0
 40
2.0
  1

 72
     1
 11
-12.3315588552569
 21
4.251200805093199
 31
0.0
100
AcDbAttributeDefinition
  3
Änderungsindex 10
  2
R_AEIND10
 70
     0
  0
ATTDEF
  5
9D7
330
94B
100
AcDbEntity
  8
AM_BOR
 62
     1
370
    25
100
AcDbText
 10
-8.809393826981702
 20
4.251200805093199
 30
0.0
 40
2.0
  1

100
AcDbAttributeDefinition
  3
Änderungsnummer 10
  2
R_AENR10
 70
     0
  0
ATTDEF
  5
9D8
330
94B
100
AcDbEntity
  8
AM_BOR
 62
     1
370
    25
100
AcDbText
 10
-12.3315588552569
 20
0.7967008050903388
 30
0.0
 40
2.0
  1

 72
     1
 11
-12.3315588552569
 21
0.7967008050903388
 31
0.0
100
AcDbAttributeDefinition
  3
Änderungsindex 11
  2
R_AEIND11
 70
     0
  0
ATTDEF
  5
9D9
330
94B
100
AcDbEntity
  8
AM_BOR
 62
     1
370
    25
100
AcDbText
 10
-8.809393826981702
 20
0.7967008050903388
 30
0.0
 40
2.0
  1

100
AcDbAttributeDefinition
  3
Änderungsnummer 11
  2
R_AENR11
 70
     0
  0
ATTDEF
  5
9DA
330
94B
100
AcDbEntity
  8
AM_BOR
 62
     1
370
    25
100
AcDbText
 10
-134.2819501338922
 20
44.50000000000289
 30
0.0
 40
2.0
  1

 41
0.6029366896014201
 72
     5
 11
-123.8511454037876
 21
44.50000000000289
 31
0.0
100
AcDbAttributeDefinition
  3
Geprüft Datum
  2
R_PROV_DAT
 70
     0
  0
ATTDEF
  5
9DB
330
94B
100
AcDbEntity
  8
AM_BOR
 62
     1
370
    25
100
AcDbText
 10
-123.0000000000076
 20
44.50000000000284
 30
0.0
 40
2.0
  1

100
AcDbAttributeDefinition
  3
Geprüft Name
  2
R_PROV_NAM
 70
     0
  0
ATTDEF
  5
9DC
330
94B
100
AcDbEntity
  8
AM_BOR
 62
     2
100
AcDbText
 10
-192.0000000000076
 20
2.0
 30
0.0
 40
3.5
  1

 50
90.0
100
AcDbAttributeDefinition
  3
Stempeltext
  2
STEMPELTEXT
 70
     0
  0
ATTDEF
  5
9DD
330
94B
100
AcDbEntity
  8
AM_BOR
 62
     1
370
    25
100
AcDbText
 10
-186.4012579132421
 20
87.16666666667149
 30
0.0
 40
2.0
  1

 72
     1
 11
-186.4012579132421
 21
87.16666666667149
 31
0.0
100
AcDbAttributeDefinition
  3
Änderungsindex 2
  2
R_AEIND2
 70
     0
  0
ATTDEF
  5
9DE
330
94B
100
AcDbEntity
  8
AM_BOR
 62
     1
370
    25
100
AcDbText
 10
-181.3025158264765
 20
87.16666666667149
 30
0.0
 40
2.0
  1

100
AcDbAttributeDefinition
  3
Änderungsbeschreibung 2
  2
R_AETEXT2
 70
     0
  0
ATTDEF
  5
9DF
330
94B
100
AcDbEntity
  8
AM_BOR
 62
     1
370
    25
100
AcDbText
 10
-27.84186369022683
 20
87.16666666667149
 30
0.0
 40
2.0
  1

100
AcDbAttributeDefinition
  3
Änderungsdatum 2
  2
R_AEDAT2
 70
     0
  0
ATTDEF
  5
9E0
330
94B
100
AcDbEntity
  8
AM_BOR
 62
     1
370
    25
100
AcDbText
 10
-13.96099918964142
 20
87.16666666667149
 30
0.0
 40
2.0
  1

100
AcDbAttributeDefinition
  3
Änderungsname 2
  2
R_AENAM2
 70
     0
  0
ATTDEF
  5
9E1
330
94B
100
AcDbEntity
  8
AM_BOR
 62
     1
370
    25
100
AcDbText
 10
-186.4012579132421
 20
92.16666666667148
 30
0.0
 40
2.0
  1

 72
     1
 11
-186.4012579132421
 21
92.16666666667148
 31
0.0
100
AcDbAttributeDefinition
  3
Änderungsindex 3
  2
R_AEIND3
 70
     0
  0
ATTDEF
  5
9E2
330
94B
100
AcDbEntity
  8
AM_BOR
 62
     1
370
    25
100
AcDbText
 10
-181.3025158264765
 20
92.16666666667148
 30
0.0
 40
2.0
  1

100
AcDbAttributeDefinition
  3
Änderungsbeschreibung 3
  2
R_AETEXT3
 70
     0
  0
ATTDEF
  5
9E3
330
94B
100
AcDbEntity
  8
AM_BOR
 62
     1
370
    25
100
AcDbText
 10
-27.84186369022683
 20
92.16666666667148
 30
0.0
 40
2.0
  1

100
AcDbAttributeDefinition
  3
Änderungsdatum 3
  2
R_AEDAT3
 70
     0
  0
ATTDEF
  5
9E4
330
94B
100
AcDbEntity
  8
AM_BOR
 62
     1
370
    25
100
AcDbText
 10
-13.96099918964142
 20
92.16666666667148
 30
0.0
 40
2.0
  1

100
AcDbAttributeDefinition
  3
Änderungsname 3
  2
R_AENAM3
 70
     0
  0
ATTDEF
  5
9E5
330
94B
100
AcDbEntity
  8
AM_BOR
 62
     1
370
    25
100
AcDbText
 10
-186.4012579132421
 20
97.16666666667151
 30
0.0
 40
2.0
  1

 72
     1
 11
-186.4012579132421
 21
97.16666666667151
 31
0.0
100
AcDbAttributeDefinition
  3
Änderungsindex 4
  2
R_AEIND4
 70
     0
  0
ATTDEF
  5
9E6
330
94B
100
AcDbEntity
  8
AM_BOR
 62
     1
370
    25
100
AcDbText
 10
-181.3025158264765
 20
97.16666666667151
 30
0.0
 40
2.0
  1

100
AcDbAttributeDefinition
  3
Änderungsbeschreibung 4
  2
R_AETEXT4
 70
     0
  0
ATTDEF
  5
9E7
330
94B
100
AcDbEntity
  8
AM_BOR
 62
     1
370
    25
100
AcDbText
 10
-27.84186369022683
 20
97.16666666667151
 30
0.0
 40
2.0
  1

100
AcDbAttributeDefinition
  3
Änderungsdatum 4
  2
R_AEDAT4
 70
     0
  0
ATTDEF
  5
9E8
330
94B
100
AcDbEntity
  8
AM_BOR
 62
     1
370
    25
100
AcDbText
 10
-13.96099918964142
 20
97.16666666667151
 30
0.0
 40
2.0
  1

100
AcDbAttributeDefinition
  3
Änderungsname 4
  2
R_AENAM4
 70
     0
  0
ATTDEF
  5
9E9
330
94B
100
AcDbEntity
  8
AM_BOR
 62
     1
370
    25
100
AcDbText
 10
-186.4012579132421
 20
102.1666666666715
 30
0.0
 40
2.0
  1

 72
     1
 11
-186.4012579132421
 21
102.1666666666715
 31
0.0
100
AcDbAttributeDefinition
  3
Änderungsindex 5
  2
R_AEIND5
 70
     0
  0
ATTDEF
  5
9EA
330
94B
100
AcDbEntity
  8
AM_BOR
 62
     1
370
    25
100
AcDbText
 10
-181.3025158264765
 20
102.1666666666715
 30
0.0
 40
2.0
  1

100
AcDbAttributeDefinition
  3
Änderungsbeschreibung 5
  2
R_AETEXT5
 70
     0
  0
ATTDEF
  5
9EB
330
94B
100
AcDbEntity
  8
AM_BOR
 62
     1
370
    25
100
AcDbText
 10
-27.84186369022683
 20
102.1666666666715
 30
0.0
 40
2.0
  1

100
AcDbAttributeDefinition
  3
Änderungsdatum 5
  2
R_AEDAT5
 70
     0
  0
ATTDEF
  5
9EC
330
94B
100
AcDbEntity
  8
AM_BOR
 62
     1
370
    25
100
AcDbText
 10
-13.96099918964142
 20
102.1666666666715
 30
0.0
 40
2.0
  1

100
AcDbAttributeDefinition
  3
Änderungsname 5
  2
R_AENAM5
 70
     0
  0
ATTDEF
  5
9ED
330
94B
100
AcDbEntity
  8
AM_BOR
 62
     1
370
    25
100
AcDbText
 10
-186.4012579132421
 20
107.1666666666715
 30
0.0
 40
2.0
  1

 72
     1
 11
-186.4012579132421
 21
107.1666666666715
 31
0.0
100
AcDbAttributeDefinition
  3
Änderungsindex 6
  2
R_AEIND6
 70
     0
  0
ATTDEF
  5
9EE
330
94B
100
AcDbEntity
  8
AM_BOR
 62
     1
370
    25
100
AcDbText
 10
-181.3025158264765
 20
107.1666666666715
 30
0.0
 40
2.0
  1

100
AcDbAttributeDefinition
  3
Änderungsbeschreibung 6
  2
R_AETEXT6
 70
     0
  0
ATTDEF
  5
9EF
330
94B
100
AcDbEntity
  8
AM_BOR
 62
     1
370
    25
100
AcDbText
 10
-27.84186369022683
 20
107.1666666666715
 30
0.0
 40
2.0
  1

100
AcDbAttributeDefinition
  3
Änderungsdatum 6
  2
R_AEDAT6
 70
     0
  0
ATTDEF
  5
9F0
330
94B
100
AcDbEntity
  8
AM_BOR
 62
     1
370
    25
100
AcDbText
 10
-13.96099918964142
 20
107.1666666666715
 30
0.0
 40
2.0
  1

100
AcDbAttributeDefinition
  3
Änderungsname 6
  2
R_AENAM6
 70
     0
  0
ATTDEF
  5
9F1
330
94B
100
AcDbEntity
  8
AM_BOR
 62
     1
370
    25
100
AcDbText
 10
-186.4012579132421
 20
112.1666666666715
 30
0.0
 40
2.0
  1

 72
     1
 11
-186.4012579132421
 21
112.1666666666715
 31
0.0
100
AcDbAttributeDefinition
  3
Änderungsindex 7
  2
R_AEIND7
 70
     0
  0
ATTDEF
  5
9F2
330
94B
100
AcDbEntity
  8
AM_BOR
 62
     1
370
    25
100
AcDbText
 10
-181.3025158264765
 20
112.1666666666715
 30
0.0
 40
2.0
  1

100
AcDbAttributeDefinition
  3
Änderungsbeschreibung 7
  2
R_AETEXT7
 70
     0
  0
ATTDEF
  5
9F3
330
94B
100
AcDbEntity
  8
AM_BOR
 62
     1
370
    25
100
AcDbText
 10
-27.84186369022683
 20
112.1666666666715
 30
0.0
 40
2.0
  1

100
AcDbAttributeDefinition
  3
Änderungsdatum 7
  2
R_AEDAT7
 70
     0
  0
ATTDEF
  5
9F4
330
94B
100
AcDbEntity
  8
AM_BOR
 62
     1
370
    25
100
AcDbText
 10
-13.96099918964142
 20
112.1666666666715
 30
0.0
 40
2.0
  1

100
AcDbAttributeDefinition
  3
Änderungsname 7
  2
R_AENAM7
 70
     0
  0
ATTDEF
  5
9F5
330
94B
100
AcDbEntity
  8
AM_BOR
 62
     1
370
    25
100
AcDbText
 10
-186.4012579132421
 20
117.1666666666715
 30
0.0
 40
2.0
  1

 72
     1
 11
-186.4012579132421
 21
117.1666666666715
 31
0.0
100
AcDbAttributeDefinition
  3
Änderungsindex 8
  2
R_AEIND8
 70
     0
  0
ATTDEF
  5
9F6
330
94B
100
AcDbEntity
  8
AM_BOR
 62
     1
370
    25
100
AcDbText
 10
-181.3025158264765
 20
117.1666666666715
 30
0.0
 40
2.0
  1

100
AcDbAttributeDefinition
  3
Änderungsbeschreibung 8
  2
R_AETEXT8
 70
     0
  0
ATTDEF
  5
9F7
330
94B
100
AcDbEntity
  8
AM_BOR
 62
     1
370
    25
100
AcDbText
 10
-27.84186369022683
 20
117.1666666666715
 30
0.0
 40
2.0
  1

100
AcDbAttributeDefinition
  3
Änderungsdatum 8
  2
R_AEDAT8
 70
     0
  0
ATTDEF
  5
9F8
330
94B
100
AcDbEntity
  8
AM_BOR
 62
     1
370
    25
100
AcDbText
 10
-13.96099918964142
 20
117.1666666666715
 30
0.0
 40
2.0
  1

100
AcDbAttributeDefinition
  3
Änderungsname 8
  2
R_AENAM8
 70
     0
  0
ATTDEF
  5
9F9
330
94B
100
AcDbEntity
  8
AM_BOR
 62
     1
370
    25
100
AcDbText
 10
-186.4012579132421
 20
122.1666666666715
 30
0.0
 40
2.0
  1

 72
     1
 11
-186.4012579132421
 21
122.1666666666715
 31
0.0
100
AcDbAttributeDefinition
  3
Änderungsindex 9
  2
R_AEIND9
 70
     0
  0
ATTDEF
  5
9FA
330
94B
100
AcDbEntity
  8
AM_BOR
 62
     1
370
    25
100
AcDbText
 10
-181.3025158264765
 20
122.1666666666715
 30
0.0
 40
2.0
  1

100
AcDbAttributeDefinition
  3
Änderungsbeschreibung 9
  2
R_AETEXT9
 70
     0
  0
ATTDEF
  5
9FB
330
94B
100
AcDbEntity
  8
AM_BOR
 62
     1
370
    25
100
AcDbText
 10
-27.84186369022683
 20
122.1666666666715
 30
0.0
 40
2.0
  1

100
AcDbAttributeDefinition
  3
Änderungsdatum 9
  2
R_AEDAT9
 70
     0
  0
ATTDEF
  5
9FC
330
94B
100
AcDbEntity
  8
AM_BOR
 62
     1
370
    25
100
AcDbText
 10
-13.96099918964142
 20
122.1666666666715
 30
0.0
 40
2.0
  1

100
AcDbAttributeDefinition
  3
Änderungsname 9
  2
R_AENAM9
 70
     0
  0
ATTDEF
  5
9FD
330
94B
100
AcDbEntity
  8
AM_BOR
 62
     1
370
    25
100
AcDbText
 10
-186.4012579132421
 20
127.1666666666715
 30
0.0
 40
2.0
  1

 72
     1
 11
-186.4012579132421
 21
127.1666666666715
 31
0.0
100
AcDbAttributeDefinition
  3
Änderungsindex 10
  2
R_AEIND10
 70
     0
  0
ATTDEF
  5
9FE
330
94B
100
AcDbEntity
  8
AM_BOR
 62
     1
370
    25
100
AcDbText
 10
-181.3025158264765
 20
127.1666666666715
 30
0.0
 40
2.0
  1

100
AcDbAttributeDefinition
  3
Änderungsbeschreibung 10
  2
R_AETEXT10
 70
     0
  0
ATTDEF
  5
9FF
330
94B
100
AcDbEntity
  8
AM_BOR
 62
     1
370
    25
100
AcDbText
 10
-27.84186369022683
 20
127.1666666666715
 30
0.0
 40
2.0
  1

100
AcDbAttributeDefinition
  3
Änderungsdatum 10
  2
R_AEDAT10
 70
     0
  0
ATTDEF
  5
A00
330
94B
100
AcDbEntity
  8
AM_BOR
 62
     1
370
    25
100
AcDbText
 10
-13.96099918964142
 20
127.1666666666715
 30
0.0
 40
2.0
  1

100
AcDbAttributeDefinition
  3
Änderungsname 10
  2
R_AENAM10
 70
     0
  0
ATTDEF
  5
A01
330
94B
100
AcDbEntity
  8
AM_BOR
 62
     1
370
    25
100
AcDbText
 10
-186.4012579132421
 20
132.1666666666715
 30
0.0
 40
2.0
  1

 72
     1
 11
-186.4012579132421
 21
132.1666666666715
 31
0.0
100
AcDbAttributeDefinition
  3
Änderungsindex 11
  2
R_AEIND11
 70
     0
  0
ATTDEF
  5
A02
330
94B
100
AcDbEntity
  8
AM_BOR
 62
     1
370
    25
100
AcDbText
 10
-181.3025158264765
 20
132.1666666666715
 30
0.0
 40
2.0
  1

100
AcDbAttributeDefinition
  3
Änderungsbeschreibung 11
  2
R_AETEXT11
 70
     0
  0
ATTDEF
  5
A03
330
94B
100
AcDbEntity
  8
AM_BOR
 62
     1
370
    25
100
AcDbText
 10
-27.84186369022683
 20
132.1666666666715
 30
0.0
 40
2.0
  1

100
AcDbAttributeDefinition
  3
Änderungsdatum 11
  2
R_AEDAT11
 70
     0
  0
ATTDEF
  5
A04
330
94B
100
AcDbEntity
  8
AM_BOR
 62
     1
370
    25
100
AcDbText
 10
-13.96099918964142
 20
132.1666666666715
 30
0.0
 40
2.0
  1

100
AcDbAttributeDefinition
  3
Änderungsname 11
  2
R_AENAM11
 70
     0
  0
TEXT
  5
A05
330
94B
100
AcDbEntity
  8
AM_BOR
 62
     1
370
    25
100
AcDbText
 10
-64.0000000000075
 20
10.99999999999721
 30
0.0
 40
2.0
  1
Projekt:
100
AcDbText
  0
INSERT
  5
A06
330
94B
100
AcDbEntity
  8
0
100
AcDbBlockReference
  2
sfm
 10
-104.3551519040817
 20
43.22232415594513
 30
0.0
  0
OLE2FRAME
  5
A07
330
94B
100
AcDbEntity
  8
0
100
AcDbOle2Frame
 70
     2
 73
     1
 90
        0
1001
ACAD
1000
OLEBEGIN
1070
    70
1070
     1
1070
    71
1070
     1
1070
    40
1040
0.0
1070
    41
1040
18.0240675839691
1070
    42
1040
7.376026658314117
1070
    72
1070
     0
1070
     3
1000
\U+6954\U+656D\U+2073\U+654E\U+2077\U+6F52\U+616Dn
1070
    90
1071
       12
1070
    43
1040
4.233333333333329
1070
     4
1000
\U+6954\U+656D\U+2073\U+654E\U+2077\U+6F52\U+616Dn
1070
    91
1071
       12
1070
    44
1040
4.233333333333329
1000
OLEEND
  0
ENDBLK
  5
A0A
330
94B
100
AcDbEntity
  8
0
100
AcDbBlockEnd
  0
BLOCK
  5
FD8
330
FCD
100
AcDbEntity
  8
0
100
AcDbBlockBegin
  2
*D5
 70
     1
 10
0.0
 20
0.0
 30
0.0
  3
*D5
  1

  0
LINE
  5
100B
330
FCD
100
AcDbEntity
  8
AM_5
100
AcDbLine
 10
398.2350972140778
 20
340.6475910187932
 30
0.0
 11
370.2350972140778
 21
340.6475910187932
 31
0.0
  0
LINE
  5
100C
330
FCD
100
AcDbEntity
  8
AM_5
100
AcDbLine
 10
398.2350972140778
 20
320.0056357441897
 30
0.0
 11
370.2350972140778
 21
320.0056357441898
 31
0.0
  0
LINE
  5
100D
330
FCD
100
AcDbEntity
  8
AM_5
100
AcDbLine
 10
374.2350972140778
 20
335.6475910187932
 30
0.0
 11
374.2350972140778
 21
325.0056357441898
 31
0.0
  0
LINE
  5
100E
330
FCD
100
AcDbEntity
  8
AM_5
100
AcDbLine
 10
374.2350972140778
 20
320.0056357441898
 30
0.0
 11
374.2350972140778
 21
288.0056357441898
 31
0.0
  0
SOLID
  5
100F
330
FCD
100
AcDbEntity
  8
AM_5
100
AcDbTrace
 10
373.4017638807444
 20
335.6475910187932
 30
0.0
 11
375.0684305474111
 21
335.6475910187932
 31
0.0
 12
374.2350972140778
 22
340.6475910187932
 32
0.0
 13
374.2350972140778
 23
340.6475910187932
 33
0.0
  0
SOLID
  5
1010
330
FCD
100
AcDbEntity
  8
AM_5
100
AcDbTrace
 10
373.4017638807444
 20
325.0056357441898
 30
0.0
 11
375.0684305474111
 21
325.0056357441898
 31
0.0
 12
374.2350972140778
 22
320.0056357441898
 32
0.0
 13
374.2350972140778
 23
320.0056357441898
 33
0.0
  0
MTEXT
  5
1011
330
FCD
100
AcDbEntity
  8
AM_5
 62
     2
100
AcDbMText
 10
367.7344082376998
 20
301.5056357441898
 30
0.0
 40
7.0
 41
0.0
 71
     5
 72
     1
  1
R1/2"
 11
0.0000000000000001
 21
1.0
 31
0.0
 73
     1
 44
1.0
  0
POINT
  5
1012
330
FCD
100
AcDbEntity
  8
Defpoints
 62
     0
100
AcDbPoint
 10
398.2350972140778
 20
340.6475910187932
 30
0.0
  0
POINT
  5
1013
330
FCD
100
AcDbEntity
  8
Defpoints
 62
     0
100
AcDbPoint
 10
398.2350972140778
 20
320.0056357441897
 30
0.0
  0
POINT
  5
1014
330
FCD
100
AcDbEntity
  8
Defpoints
 62
     0
100
AcDbPoint
 10
374.2350972140778
 20
320.0056357441898
 30
0.0
  0
ENDBLK
  5
FD9
330
FCD
100
AcDbEntity
  8
0
100
AcDbBlockEnd
  0
BLOCK
  5
FE4
330
FDA
100
AcDbEntity
  8
0
100
AcDbBlockBegin
  2
*D6
 70
     1
 10
0.0
 20
0.0
 30
0.0
  3
*D6
  1

  0
LINE
  5
1015
330
FDA
100
AcDbEntity
  8
AM_5
100
AcDbLine
 10
389.8474949030942
 20
333.688217476063
 30
0.0
 11
389.8474949030942
 21
368.647592028793
 31
0.0
  0
LINE
  5
1016
330
FDA
100
AcDbEntity
  8
AM_5
100
AcDbLine
 10
441.8474949030941
 20
346.6475910187932
 30
0.0
 11
441.8474949030941
 21
368.647592028793
 31
0.0
  0
LINE
  5
1017
330
FDA
100
AcDbEntity
  8
AM_5
100
AcDbLine
 10
394.8474949030942
 20
364.647592028793
 30
0.0
 11
436.847494903094
 21
364.647592028793
 31
0.0
  0
SOLID
  5
1018
330
FDA
100
AcDbEntity
  8
AM_5
100
AcDbTrace
 10
394.8474949030942
 20
365.4809253621264
 30
0.0
 11
394.8474949030942
 21
363.8142586954597
 31
0.0
 12
389.8474949030942
 22
364.647592028793
 32
0.0
 13
389.8474949030942
 23
364.647592028793
 33
0.0
  0
SOLID
  5
1019
330
FDA
100
AcDbEntity
  8
AM_5
100
AcDbTrace
 10
436.847494903094
 20
365.4809253621264
 30
0.0
 11
436.847494903094
 21
363.8142586954597
 31
0.0
 12
441.8474949030941
 22
364.647592028793
 32
0.0
 13
441.8474949030941
 23
364.647592028793
 33
0.0
  0
MTEXT
  5
101A
330
FDA
100
AcDbEntity
  8
AM_5
 62
     2
100
AcDbMText
 10
415.847494903094
 20
371.147592028793
 30
0.0
 40
7.0
 41
0.0
 71
     5
 72
     1
  1
L
 73
     1
 44
1.0
  0
POINT
  5
101B
330
FDA
100
AcDbEntity
  8
Defpoints
 62
     0
100
AcDbPoint
 10
389.8474949030942
 20
333.688217476063
 30
0.0
  0
POINT
  5
101C
330
FDA
100
AcDbEntity
  8
Defpoints
 62
     0
100
AcDbPoint
 10
441.8474949030941
 20
346.6475910187932
 30
0.0
  0
POINT
  5
101D
330
FDA
100
AcDbEntity
  8
Defpoints
 62
     0
100
AcDbPoint
 10
441.8474949030941
 20
364.647592028793
 30
0.0
  0
ENDBLK
  5
FE5
330
FDA
100
AcDbEntity
  8
0
100
AcDbBlockEnd
  0
BLOCK
  5
FF0
330
FE6
100
AcDbEntity
  8
0
100
AcDbBlockBegin
  2
*D7
 70
     1
 10
0.0
 20
0.0
 30
0.0
  3
*D7
  1

  0
LINE
  5
101E
330
FE6
100
AcDbEntity
  8
AM_5
100
AcDbLine
 10
461.7608174561145
 20
228.6475910187935
 30
0.0
 11
502.3474959030941
 21
228.6475910187935
 31
0.0
  0
LINE
  5
101F
330
FE6
100
AcDbEntity
  8
AM_5
100
AcDbLine
 10
441.8474949030952
 20
340.647591018793
 30
0.0
 11
502.3474959030941
 21
340.647591018793
 31
0.0
  0
LINE
  5
1020
330
FE6
100
AcDbEntity
  8
AM_5
100
AcDbLine
 10
498.3474959030941
 20
233.6475910187935
 30
0.0
 11
498.3474959030941
 21
335.647591018793
 31
0.0
  0
SOLID
  5
1021
330
FE6
100
AcDbEntity
  8
AM_5
100
AcDbTrace
 10
497.5141625697608
 20
233.6475910187935
 30
0.0
 11
499.1808292364273
 21
233.6475910187935
 31
0.0
 12
498.3474959030941
 22
228.6475910187935
 32
0.0
 13
498.3474959030941
 23
228.6475910187935
 33
0.0
  0
SOLID
  5
1022
330
FE6
100
AcDbEntity
  8
AM_5
100
AcDbTrace
 10
497.5141625697608
 20
335.647591018793
 30
0.0
 11
499.1808292364273
 21
335.647591018793
 31
0.0
 12
498.3474959030941
 22
340.647591018793
 32
0.0
 13
498.3474959030941
 23
340.647591018793
 33
0.0
  0
MTEXT
  5
1023
330
FE6
100
AcDbEntity
  8
AM_5
 62
     2
100
AcDbMText
 10
491.8474959030938
 20
284.6475910187933
 30
0.0
 40
7.0
 41
0.0
 71
     5
 72
     1
  1
H
 11
0.0000000000000001
 21
1.0
 31
0.0
 73
     1
 44
1.0
  0
POINT
  5
1024
330
FE6
100
AcDbEntity
  8
Defpoints
 62
     0
100
AcDbPoint
 10
461.7608174561145
 20
228.6475910187935
 30
0.0
  0
POINT
  5
1025
330
FE6
100
AcDbEntity
  8
Defpoints
 62
     0
100
AcDbPoint
 10
441.8474949030952
 20
340.647591018793
 30
0.0
  0
POINT
  5
1026
330
FE6
100
AcDbEntity
  8
Defpoints
 62
     0
100
AcDbPoint
 10
498.3474959030941
 20
340.647591018793
 30
0.0
  0
ENDBLK
  5
FF1
330
FE6
100
AcDbEntity
  8
0
100
AcDbBlockEnd
  0
BLOCK
  5
FFD
330
FF2
100
AcDbEntity
  8
0
100
AcDbBlockBegin
  2
*D8
 70
     1
 10
0.0
 20
0.0
 30
0.0
  3
*D8
  1

  0
LINE
  5
1027
330
FF2
100
AcDbEntity
  8
AM_5
100
AcDbLine
 10
424.8908336265841
 20
228.6475910187935
 30
0.0
 11
424.8908336265841
 21
200.6475910187935
 31
0.0
  0
LINE
  5
1028
330
FF2
100
AcDbEntity
  8
AM_5
100
AcDbLine
 10
458.8041561796043
 20
228.6475910187935
 30
0.0
 11
458.8041561796043
 21
200.6475910187935
 31
0.0
  0
LINE
  5
1029
330
FF2
100
AcDbEntity
  8
AM_5
100
AcDbLine
 10
429.890833626584
 20
204.6475910187935
 30
0.0
 11
453.8041561796045
 21
204.6475910187935
 31
0.0
  0
LINE
  5
102A
330
FF2
100
AcDbEntity
  8
AM_5
100
AcDbLine
 10
458.8041561796043
 20
204.6475910187935
 30
0.0
 11
510.6211837386593
 21
204.6475910187935
 31
0.0
  0
SOLID
  5
102B
330
FF2
100
AcDbEntity
  8
AM_5
100
AcDbTrace
 10
429.890833626584
 20
205.4809243521269
 30
0.0
 11
429.890833626584
 21
203.8142576854601
 31
0.0
 12
424.8908336265841
 22
204.6475910187935
 32
0.0
 13
424.8908336265841
 23
204.6475910187935
 33
0.0
  0
SOLID
  5
102C
330
FF2
100
AcDbEntity
  8
AM_5
100
AcDbTrace
 10
453.8041561796045
 20
205.4809243521269
 30
0.0
 11
453.8041561796045
 21
203.8142576854601
 31
0.0
 12
458.8041561796043
 22
204.6475910187935
 32
0.0
 13
458.8041561796043
 23
204.6475910187935
 33
0.0
  0
MTEXT
  5
102D
330
FF2
100
AcDbEntity
  8
AM_5
 62
     2
100
AcDbMText
 10
487.2126699591318
 20
211.1475910187935
 30
0.0
 40
7.0
 41
0.0
 71
     5
 72
     1
  1
Anschluss
 73
     1
 44
1.0
  0
POINT
  5
102E
330
FF2
100
AcDbEntity
  8
Defpoints
 62
     0
100
AcDbPoint
 10
424.8908336265841
 20
228.6475910187935
 30
0.0
  0
POINT
  5
102F
330
FF2
100
AcDbEntity
  8
Defpoints
 62
     0
100
AcDbPoint
 10
458.8041561796043
 20
228.6475910187935
 30
0.0
  0
POINT
  5
1030
330
FF2
100
AcDbEntity
  8
Defpoints
 62
     0
100
AcDbPoint
 10
458.8041561796043
 20
204.6475910187935
 30
0.0
  0
ENDBLK
  5
FFE
330
FF2
100
AcDbEntity
  8
0
100
AcDbBlockEnd
  0
BLOCK
  5
1009
330
FFF
100
AcDbEntity
  8
0
100
AcDbBlockBegin
  2
*D9
 70
     1
 10
0.0
 20
0.0
 30
0.0
  3
*D9
  1

  0
LINE
  5
1031
330
FFF
100
AcDbEntity
  8
AM_5
100
AcDbLine
 10
474.347494903094
 20
267.1032038152822
 30
0.0
 11
474.347494903094
 21
180.6475910187946
 31
0.0
  0
LINE
  5
1032
330
FFF
100
AcDbEntity
  8
AM_5
100
AcDbLine
 10
409.3474949030941
 20
267.1032038152821
 30
0.0
 11
409.3474949030941
 21
180.6475910187946
 31
0.0
  0
LINE
  5
1033
330
FFF
100
AcDbEntity
  8
AM_5
100
AcDbLine
 10
469.3474949030941
 20
184.6475910187946
 30
0.0
 11
414.3474949030942
 21
184.6475910187946
 31
0.0
  0
SOLID
  5
1034
330
FFF
100
AcDbEntity
  8
AM_5
100
AcDbTrace
 10
469.3474949030941
 20
185.480924352128
 30
0.0
 11
469.3474949030941
 21
183.8142576854614
 31
0.0
 12
474.347494903094
 22
184.6475910187946
 32
0.0
 13
474.347494903094
 23
184.6475910187946
 33
0.0
  0
SOLID
  5
1035
330
FFF
100
AcDbEntity
  8
AM_5
100
AcDbTrace
 10
414.3474949030942
 20
185.480924352128
 30
0.0
 11
414.3474949030942
 21
183.8142576854614
 31
0.0
 12
409.3474949030941
 22
184.6475910187946
 32
0.0
 13
409.3474949030941
 23
184.6475910187946
 33
0.0
  0
MTEXT
  5
1036
330
FFF
100
AcDbEntity
  8
AM_5
 62
     2
100
AcDbMText
 10
441.8474949030941
 20
191.1475910187946
 30
0.0
 40
7.0
 41
0.0
 71
     5
 72
     1
  1
%%c65
 73
     1
 44
1.0
  0
POINT
  5
1037
330
FFF
100
AcDbEntity
  8
Defpoints
 62
     0
100
AcDbPoint
 10
474.347494903094
 20
267.1032038152822
 30
0.0
  0
POINT
  5
1038
330
FFF
100
AcDbEntity
  8
Defpoints
 62
     0
100
AcDbPoint
 10
409.3474949030941
 20
267.1032038152821
 30
0.0
  0
POINT
  5
1039
330
FFF
100
AcDbEntity
  8
Defpoints
 62
     0
100
AcDbPoint
 10
409.3474949030941
 20
184.6475910187946
 30
0.0
  0
ENDBLK
  5
100A
330
FFF
100
AcDbEntity
  8
0
100
AcDbBlockEnd
  0
BLOCK
  5
1360
330
135F
100
AcDbEntity
  8
0
100
AcDbBlockBegin
  2
*D10
 70
     1
 10
0.0
 20
0.0
 30
0.0
  3
*D10
  1

  0
LINE
  5
1361
330
135F
100
AcDbEntity
  8
AM_5
100
AcDbLine
 10
398.2350972140778
 20
340.6475910187932
 30
0.0
 11
370.2350972140778
 21
340.6475910187932
 31
0.0
  0
LINE
  5
1362
330
135F
100
AcDbEntity
  8
AM_5
100
AcDbLine
 10
398.2350972140778
 20
320.0056357441897
 30
0.0
 11
370.2350972140778
 21
320.0056357441898
 31
0.0
  0
LINE
  5
1363
330
135F
100
AcDbEntity
  8
AM_5
100
AcDbLine
 10
374.2350972140778
 20
335.6475910187932
 30
0.0
 11
374.2350972140778
 21
325.0056357441898
 31
0.0
  0
LINE
  5
1364
330
135F
100
AcDbEntity
  8
AM_5
100
AcDbLine
 10
374.2350972140778
 20
320.0056357441898
 30
0.0
 11
374.2350972140778
 21
288.0056357441898
 31
0.0
  0
SOLID
  5
1365
330
135F
100
AcDbEntity
  8
AM_5
100
AcDbTrace
 10
373.4017638807444
 20
335.6475910187932
 30
0.0
 11
375.0684305474111
 21
335.6475910187932
 31
0.0
 12
374.2350972140778
 22
340.6475910187932
 32
0.0
 13
374.2350972140778
 23
340.6475910187932
 33
0.0
  0
SOLID
  5
1366
330
135F
100
AcDbEntity
  8
AM_5
100
AcDbTrace
 10
373.4017638807444
 20
325.0056357441898
 30
0.0
 11
375.0684305474111
 21
325.0056357441898
 31
0.0
 12
374.2350972140778
 22
320.0056357441898
 32
0.0
 13
374.2350972140778
 23
320.0056357441898
 33
0.0
  0
MTEXT
  5
1367
330
135F
100
AcDbEntity
  8
AM_5
 62
     2
100
AcDbMText
 10
367.7344082376998
 20
301.5056357441898
 30
0.0
 40
7.0
 41
0.0
 71
     5
 72
     1
  1
R1/2"
 11
0.0000000000000001
 21
1.0
 31
0.0
 73
     1
 44
1.0
  0
POINT
  5
1368
330
135F
100
AcDbEntity
  8
Defpoints
 62
     0
100
AcDbPoint
 10
398.2350972140778
 20
340.6475910187932
 30
0.0
  0
POINT
  5
1369
330
135F
100
AcDbEntity
  8
Defpoints
 62
     0
100
AcDbPoint
 10
398.2350972140778
 20
320.0056357441897
 30
0.0
  0
POINT
  5
136A
330
135F
100
AcDbEntity
  8
Defpoints
 62
     0
100
AcDbPoint
 10
374.2350972140778
 20
320.0056357441898
 30
0.0
  0
ENDBLK
  5
136B
330
135F
100
AcDbEntity
  8
0
100
AcDbBlockEnd
  0
BLOCK
  5
136D
330
136C
100
AcDbEntity
  8
0
100
AcDbBlockBegin
  2
*D11
 70
     1
 10
0.0
 20
0.0
 30
0.0
  3
*D11
  1

  0
LINE
  5
136E
330
136C
100
AcDbEntity
  8
AM_5
100
AcDbLine
 10
389.8474949030942
 20
333.688217476063
 30
0.0
 11
389.8474949030942
 21
368.647592028793
 31
0.0
  0
LINE
  5
136F
330
136C
100
AcDbEntity
  8
AM_5
100
AcDbLine
 10
441.8474949030941
 20
346.6475910187932
 30
0.0
 11
441.8474949030941
 21
368.647592028793
 31
0.0
  0
LINE
  5
1370
330
136C
100
AcDbEntity
  8
AM_5
100
AcDbLine
 10
394.8474949030942
 20
364.647592028793
 30
0.0
 11
436.847494903094
 21
364.647592028793
 31
0.0
  0
SOLID
  5
1371
330
136C
100
AcDbEntity
  8
AM_5
100
AcDbTrace
 10
394.8474949030942
 20
365.4809253621264
 30
0.0
 11
394.8474949030942
 21
363.8142586954597
 31
0.0
 12
389.8474949030942
 22
364.647592028793
 32
0.0
 13
389.8474949030942
 23
364.647592028793
 33
0.0
  0
SOLID
  5
1372
330
136C
100
AcDbEntity
  8
AM_5
100
AcDbTrace
 10
436.847494903094
 20
365.4809253621264
 30
0.0
 11
436.847494903094
 21
363.8142586954597
 31
0.0
 12
441.8474949030941
 22
364.647592028793
 32
0.0
 13
441.8474949030941
 23
364.647592028793
 33
0.0
  0
MTEXT
  5
1373
330
136C
100
AcDbEntity
  8
AM_5
 62
     2
100
AcDbMText
 10
415.847494903094
 20
371.147592028793
 30
0.0
 40
7.0
 41
0.0
 71
     5
 72
     1
  1
L
 73
     1
 44
1.0
  0
POINT
  5
1374
330
136C
100
AcDbEntity
  8
Defpoints
 62
     0
100
AcDbPoint
 10
389.8474949030942
 20
333.688217476063
 30
0.0
  0
POINT
  5
1375
330
136C
100
AcDbEntity
  8
Defpoints
 62
     0
100
AcDbPoint
 10
441.8474949030941
 20
346.6475910187932
 30
0.0
  0
POINT
  5
1376
330
136C
100
AcDbEntity
  8
Defpoints
 62
     0
100
AcDbPoint
 10
441.8474949030941
 20
364.647592028793
 30
0.0
  0
ENDBLK
  5
1377
330
136C
100
AcDbEntity
  8
0
100
AcDbBlockEnd
  0
BLOCK
  5
1379
330
1378
100
AcDbEntity
  8
0
100
AcDbBlockBegin
  2
*D12
 70
     1
 10
0.0
 20
0.0
 30
0.0
  3
*D12
  1

  0
LINE
  5
137A
330
1378
100
AcDbEntity
  8
AM_5
100
AcDbLine
 10
461.7608174561145
 20
228.6475910187935
 30
0.0
 11
502.3474959030941
 21
228.6475910187935
 31
0.0
  0
LINE
  5
137B
330
1378
100
AcDbEntity
  8
AM_5
100
AcDbLine
 10
441.8474949030952
 20
340.647591018793
 30
0.0
 11
502.3474959030941
 21
340.647591018793
 31
0.0
  0
LINE
  5
137C
330
1378
100
AcDbEntity
  8
AM_5
100
AcDbLine
 10
498.3474959030941
 20
233.6475910187935
 30
0.0
 11
498.3474959030941
 21
335.647591018793
 31
0.0
  0
SOLID
  5
137D
330
1378
100
AcDbEntity
  8
AM_5
100
AcDbTrace
 10
497.5141625697608
 20
233.6475910187935
 30
0.0
 11
499.1808292364273
 21
233.6475910187935
 31
0.0
 12
498.3474959030941
 22
228.6475910187935
 32
0.0
 13
498.3474959030941
 23
228.6475910187935
 33
0.0
  0
SOLID
  5
137E
330
1378
100
AcDbEntity
  8
AM_5
100
AcDbTrace
 10
497.5141625697608
 20
335.647591018793
 30
0.0
 11
499.1808292364273
 21
335.647591018793
 31
0.0
 12
498.3474959030941
 22
340.647591018793
 32
0.0
 13
498.3474959030941
 23
340.647591018793
 33
0.0
  0
MTEXT
  5
137F
330
1378
100
AcDbEntity
  8
AM_5
 62
     2
100
AcDbMText
 10
491.8474959030938
 20
284.6475910187933
 30
0.0
 40
7.0
 41
0.0
 71
     5
 72
     1
  1
H
 11
0.0000000000000001
 21
1.0
 31
0.0
 73
     1
 44
1.0
  0
POINT
  5
1380
330
1378
100
AcDbEntity
  8
Defpoints
 62
     0
100
AcDbPoint
 10
461.7608174561145
 20
228.6475910187935
 30
0.0
  0
POINT
  5
1381
330
1378
100
AcDbEntity
  8
Defpoints
 62
     0
100
AcDbPoint
 10
441.8474949030952
 20
340.647591018793
 30
0.0
  0
POINT
  5
1382
330
1378
100
AcDbEntity
  8
Defpoints
 62
     0
100
AcDbPoint
 10
498.3474959030941
 20
340.647591018793
 30
0.0
  0
ENDBLK
  5
1383
330
1378
100
AcDbEntity
  8
0
100
AcDbBlockEnd
  0
BLOCK
  5
1385
330
1384
100
AcDbEntity
  8
0
100
AcDbBlockBegin
  2
*D13
 70
     1
 10
0.0
 20
0.0
 30
0.0
  3
*D13
  1

  0
LINE
  5
1386
330
1384
100
AcDbEntity
  8
AM_5
100
AcDbLine
 10
424.8908336265841
 20
228.6475910187935
 30
0.0
 11
424.8908336265841
 21
200.6475910187935
 31
0.0
  0
LINE
  5
1387
330
1384
100
AcDbEntity
  8
AM_5
100
AcDbLine
 10
458.8041561796043
 20
228.6475910187935
 30
0.0
 11
458.8041561796043
 21
200.6475910187935
 31
0.0
  0
LINE
  5
1388
330
1384
100
AcDbEntity
  8
AM_5
100
AcDbLine
 10
429.890833626584
 20
204.6475910187935
 30
0.0
 11
453.8041561796045
 21
204.6475910187935
 31
0.0
  0
LINE
  5
1389
330
1384
100
AcDbEntity
  8
AM_5
100
AcDbLine
 10
458.8041561796043
 20
204.6475910187935
 30
0.0
 11
510.6211837386593
 21
204.6475910187935
 31
0.0
  0
SOLID
  5
138A
330
1384
100
AcDbEntity
  8
AM_5
100
AcDbTrace
 10
429.890833626584
 20
205.4809243521269
 30
0.0
 11
429.890833626584
 21
203.8142576854601
 31
0.0
 12
424.8908336265841
 22
204.6475910187935
 32
0.0
 13
424.8908336265841
 23
204.6475910187935
 33
0.0
  0
SOLID
  5
138B
330
1384
100
AcDbEntity
  8
AM_5
100
AcDbTrace
 10
453.8041561796045
 20
205.4809243521269
 30
0.0
 11
453.8041561796045
 21
203.8142576854601
 31
0.0
 12
458.8041561796043
 22
204.6475910187935
 32
0.0
 13
458.8041561796043
 23
204.6475910187935
 33
0.0
  0
MTEXT
  5
138C
330
1384
100
AcDbEntity
  8
AM_5
 62
     2
100
AcDbMText
 10
487.2126699591318
 20
211.1475910187935
 30
0.0
 40
7.0
 41
0.0
 71
     5
 72
     1
  1
Anschluss
 73
     1
 44
1.0
  0
POINT
  5
138D
330
1384
100
AcDbEntity
  8
Defpoints
 62
     0
100
AcDbPoint
 10
424.8908336265841
 20
228.6475910187935
 30
0.0
  0
POINT
  5
138E
330
1384
100
AcDbEntity
  8
Defpoints
 62
     0
100
AcDbPoint
 10
458.8041561796043
 20
228.6475910187935
 30
0.0
  0
POINT
  5
138F
330
1384
100
AcDbEntity
  8
Defpoints
 62
     0
100
AcDbPoint
 10
458.8041561796043
 20
204.6475910187935
 30
0.0
  0
ENDBLK
  5
1390
330
1384
100
AcDbEntity
  8
0
100
AcDbBlockEnd
  0
BLOCK
  5
1392
330
1391
100
AcDbEntity
  8
0
100
AcDbBlockBegin
  2
*D14
 70
     1
 10
0.0
 20
0.0
 30
0.0
  3
*D14
  1

  0
LINE
  5
1393
330
1391
100
AcDbEntity
  8
AM_5
100
AcDbLine
 10
474.347494903094
 20
267.1032038152822
 30
0.0
 11
474.347494903094
 21
180.6475910187946
 31
0.0
  0
LINE
  5
1394
330
1391
100
AcDbEntity
  8
AM_5
100
AcDbLine
 10
409.3474949030941
 20
267.1032038152821
 30
0.0
 11
409.3474949030941
 21
180.6475910187946
 31
0.0
  0
LINE
  5
1395
330
1391
100
AcDbEntity
  8
AM_5
100
AcDbLine
 10
469.3474949030941
 20
184.6475910187946
 30
0.0
 11
414.3474949030942
 21
184.6475910187946
 31
0.0
  0
SOLID
  5
1396
330
1391
100
AcDbEntity
  8
AM_5
100
AcDbTrace
 10
469.3474949030941
 20
185.480924352128
 30
0.0
 11
469.3474949030941
 21
183.8142576854614
 31
0.0
 12
474.347494903094
 22
184.6475910187946
 32
0.0
 13
474.347494903094
 23
184.6475910187946
 33
0.0
  0
SOLID
  5
1397
330
1391
100
AcDbEntity
  8
AM_5
100
AcDbTrace
 10
414.3474949030942
 20
185.480924352128
 30
0.0
 11
414.3474949030942
 21
183.8142576854614
 31
0.0
 12
409.3474949030941
 22
184.6475910187946
 32
0.0
 13
409.3474949030941
 23
184.6475910187946
 33
0.0
  0
MTEXT
  5
1398
330
1391
100
AcDbEntity
  8
AM_5
 62
     2
100
AcDbMText
 10
441.8474949030941
 20
191.1475910187946
 30
0.0
 40
7.0
 41
0.0
 71
     5
 72
     1
  1
%%c65
 73
     1
 44
1.0
  0
POINT
  5
1399
330
1391
100
AcDbEntity
  8
Defpoints
 62
     0
100
AcDbPoint
 10
474.347494903094
 20
267.1032038152822
 30
0.0
  0
POINT
  5
139A
330
1391
100
AcDbEntity
  8
Defpoints
 62
     0
100
AcDbPoint
 10
409.3474949030941
 20
267.1032038152821
 30
0.0
  0
POINT
  5
139B
330
1391
100
AcDbEntity
  8
Defpoints
 62
     0
100
AcDbPoint
 10
409.3474949030941
 20
184.6475910187946
 30
0.0
  0
ENDBLK
  5
139C
330
1391
100
AcDbEntity
  8
0
100
AcDbBlockEnd
  0
BLOCK
  5
13B7
330
13AC
100
AcDbEntity
  8
0
100
AcDbBlockBegin
  2
*D15
 70
     1
 10
0.0
 20
0.0
 30
0.0
  3
*D15
  1

  0
LINE
  5
14C2
330
13AC
100
AcDbEntity
  8
AM_5
100
AcDbLine
 10
422.6567907362919
 20
342.1433411613971
 30
0.0
 11
401.6790059041745
 21
342.1433411613971
 31
0.0
  0
LINE
  5
14C3
330
13AC
100
AcDbEntity
  8
AM_5
100
AcDbLine
 10
422.6567907362919
 20
321.1883240715533
 30
0.0
 11
401.6790059041745
 21
321.1883240715533
 31
0.0
  0
LINE
  5
14C4
330
13AC
100
AcDbEntity
  8
AM_5
100
AcDbLine
 10
405.6790059041745
 20
337.1433411613971
 30
0.0
 11
405.6790059041745
 21
326.1883240715533
 31
0.0
  0
LINE
  5
14C5
330
13AC
100
AcDbEntity
  8
AM_5
100
AcDbLine
 10
405.6790059041745
 20
321.1883240715533
 30
0.0
 11
405.6790059041745
 21
289.1883240715533
 31
0.0
  0
SOLID
  5
14C6
330
13AC
100
AcDbEntity
  8
AM_5
100
AcDbTrace
 10
404.8456725708412
 20
337.1433411613971
 30
0.0
 11
406.5123392375078
 21
337.1433411613971
 31
0.0
 12
405.6790059041745
 22
342.1433411613971
 32
0.0
 13
405.6790059041745
 23
342.1433411613971
 33
0.0
  0
SOLID
  5
14C7
330
13AC
100
AcDbEntity
  8
AM_5
100
AcDbTrace
 10
404.8456725708412
 20
326.1883240715533
 30
0.0
 11
406.5123392375078
 21
326.1883240715533
 31
0.0
 12
405.6790059041745
 22
321.1883240715533
 32
0.0
 13
405.6790059041745
 23
321.1883240715533
 33
0.0
  0
MTEXT
  5
14C8
330
13AC
100
AcDbEntity
  8
AM_5
 62
     2
100
AcDbMText
 10
399.1783169277965
 20
302.6883240715534
 30
0.0
 40
7.0
 41
0.0
 71
     5
 72
     1
  1
R1/2"
 11
0.0000000000000001
 21
1.0
 31
0.0
 73
     1
 44
1.0
  0
POINT
  5
14C9
330
13AC
100
AcDbEntity
  8
Defpoints
 62
     0
100
AcDbPoint
 10
422.6567907362919
 20
342.1433411613971
 30
0.0
  0
POINT
  5
14CA
330
13AC
100
AcDbEntity
  8
Defpoints
 62
     0
100
AcDbPoint
 10
422.6567907362919
 20
321.1883240715533
 30
0.0
  0
POINT
  5
14CB
330
13AC
100
AcDbEntity
  8
Defpoints
 62
     0
100
AcDbPoint
 10
405.6790059041745
 20
321.1883240715533
 30
0.0
  0
ENDBLK
  5
13B8
330
13AC
100
AcDbEntity
  8
0
100
AcDbBlockEnd
  0
BLOCK
  5
13C3
330
13B9
100
AcDbEntity
  8
0
100
AcDbBlockBegin
  2
*D16
 70
     1
 10
0.0
 20
0.0
 30
0.0
  3
*D16
  1

  0
LINE
  5
14F8
330
13B9
100
AcDbEntity
  8
AM_5
100
AcDbLine
 10
420.6567907362917
 20
331.6658326164752
 30
0.0
 11
420.6567907362917
 21
368.2047053403108
 31
0.0
  0
LINE
  5
14F9
330
13B9
100
AcDbEntity
  8
AM_5
100
AcDbLine
 10
498.1567907362918
 20
252.5442734734089
 30
0.0
 11
498.1567907362918
 21
368.2047053403108
 31
0.0
  0
LINE
  5
14FA
330
13B9
100
AcDbEntity
  8
AM_5
100
AcDbLine
 10
425.6567907362919
 20
364.2047053403108
 30
0.0
 11
493.1567907362917
 21
364.2047053403108
 31
0.0
  0
SOLID
  5
14FB
330
13B9
100
AcDbEntity
  8
AM_5
100
AcDbTrace
 10
425.6567907362919
 20
365.0380386736441
 30
0.0
 11
425.6567907362919
 21
363.3713720069775
 31
0.0
 12
420.6567907362917
 22
364.2047053403108
 32
0.0
 13
420.6567907362917
 23
364.2047053403108
 33
0.0
  0
SOLID
  5
14FC
330
13B9
100
AcDbEntity
  8
AM_5
100
AcDbTrace
 10
493.1567907362917
 20
365.0380386736441
 30
0.0
 11
493.1567907362917
 21
363.3713720069775
 31
0.0
 12
498.1567907362918
 22
364.2047053403108
 32
0.0
 13
498.1567907362918
 23
364.2047053403108
 33
0.0
  0
MTEXT
  5
14FD
330
13B9
100
AcDbEntity
  8
AM_5
 62
     2
100
AcDbMText
 10
459.4067907362918
 20
370.7047053403108
 30
0.0
 40
7.0
 41
0.0
 71
     5
 72
     1
  1
L
 73
     1
 44
1.0
  0
POINT
  5
14FE
330
13B9
100
AcDbEntity
  8
Defpoints
 62
     0
100
AcDbPoint
 10
420.6567907362917
 20
331.6658326164752
 30
0.0
  0
POINT
  5
14FF
330
13B9
100
AcDbEntity
  8
Defpoints
 62
     0
100
AcDbPoint
 10
498.1567907362918
 20
252.5442734734089
 30
0.0
  0
POINT
  5
1500
330
13B9
100
AcDbEntity
  8
Defpoints
 62
     0
100
AcDbPoint
 10
498.1567907362918
 20
364.2047053403108
 30
0.0
  0
ENDBLK
  5
13C4
330
13B9
100
AcDbEntity
  8
0
100
AcDbBlockEnd
  0
BLOCK
  5
13CF
330
13C5
100
AcDbEntity
  8
0
100
AcDbBlockBegin
  2
*D17
 70
     1
 10
0.0
 20
0.0
 30
0.0
  3
*D17
  1

  0
LINE
  5
14D5
330
13C5
100
AcDbEntity
  8
AM_5
100
AcDbLine
 10
467.4225835829715
 20
221.1658326164752
 30
0.0
 11
532.5706394154192
 21
221.1658326164752
 31
0.0
  0
LINE
  5
14D6
330
13C5
100
AcDbEntity
  8
AM_5
100
AcDbLine
 10
450.7067937880496
 20
343.1658326164752
 30
0.0
 11
532.5706394154194
 21
343.1658326164752
 31
0.0
  0
LINE
  5
14D7
330
13C5
100
AcDbEntity
  8
AM_5
100
AcDbLine
 10
528.5706394154192
 20
226.1658326164752
 30
0.0
 11
528.5706394154193
 21
338.1658326164752
 31
0.0
  0
SOLID
  5
14D8
330
13C5
100
AcDbEntity
  8
AM_5
100
AcDbTrace
 10
527.7373060820857
 20
226.1658326164752
 30
0.0
 11
529.4039727487525
 21
226.1658326164752
 31
0.0
 12
528.5706394154192
 22
221.1658326164752
 32
0.0
 13
528.5706394154192
 23
221.1658326164752
 33
0.0
  0
SOLID
  5
14D9
330
13C5
100
AcDbEntity
  8
AM_5
100
AcDbTrace
 10
527.737306082086
 20
338.1658326164752
 30
0.0
 11
529.4039727487527
 21
338.1658326164752
 31
0.0
 12
528.5706394154193
 22
343.1658326164752
 32
0.0
 13
528.5706394154193
 23
343.1658326164752
 33
0.0
  0
MTEXT
  5
14DA
330
13C5
100
AcDbEntity
  8
AM_5
 62
     2
100
AcDbMText
 10
522.0706394154192
 20
277.1850749397394
 30
0.0
 40
7.0
 41
0.0
 71
     5
 72
     1
  1
H
 11
0.0000000000000001
 21
1.0
 31
0.0
 73
     1
 44
1.0
  0
POINT
  5
14DB
330
13C5
100
AcDbEntity
  8
Defpoints
 62
     0
100
AcDbPoint
 10
467.4225835829715
 20
221.1658326164752
 30
0.0
  0
POINT
  5
14DC
330
13C5
100
AcDbEntity
  8
Defpoints
 62
     0
100
AcDbPoint
 10
450.7067937880496
 20
343.1658326164752
 30
0.0
  0
POINT
  5
14DD
330
13C5
100
AcDbEntity
  8
Defpoints
 62
     0
100
AcDbPoint
 10
528.5706394154193
 20
343.1658326164752
 30
0.0
  0
ENDBLK
  5
13D0
330
13C5
100
AcDbEntity
  8
0
100
AcDbBlockEnd
  0
BLOCK
  5
13DC
330
13D1
100
AcDbEntity
  8
0
100
AcDbBlockBegin
  2
*D18
 70
     1
 10
0.0
 20
0.0
 30
0.0
  3
*D18
  1

  0
LINE
  5
14DE
330
13D1
100
AcDbEntity
  8
AM_5
100
AcDbLine
 10
457.3696813612918
 20
221.1658326164752
 30
0.0
 11
457.3696813612918
 21
200.8529886863668
 31
0.0
  0
LINE
  5
14DF
330
13D1
100
AcDbEntity
  8
AM_5
100
AcDbLine
 10
475.9557409316043
 20
221.1658326164752
 30
0.0
 11
475.9557409316043
 21
200.8529886863668
 31
0.0
  0
LINE
  5
14E0
330
13D1
100
AcDbEntity
  8
AM_5
100
AcDbLine
 10
462.3696813612918
 20
204.8529886863668
 30
0.0
 11
470.9557409316042
 21
204.8529886863668
 31
0.0
  0
LINE
  5
14E1
330
13D1
100
AcDbEntity
  8
AM_5
100
AcDbLine
 10
475.9557409316043
 20
204.8529886863668
 30
0.0
 11
527.7727684906595
 21
204.8529886863668
 31
0.0
  0
SOLID
  5
14E2
330
13D1
100
AcDbEntity
  8
AM_5
100
AcDbTrace
 10
462.3696813612918
 20
205.6863220197002
 30
0.0
 11
462.3696813612918
 21
204.0196553530335
 31
0.0
 12
457.3696813612918
 22
204.8529886863668
 32
0.0
 13
457.3696813612918
 23
204.8529886863668
 33
0.0
  0
SOLID
  5
14E3
330
13D1
100
AcDbEntity
  8
AM_5
100
AcDbTrace
 10
470.9557409316042
 20
205.6863220197002
 30
0.0
 11
470.9557409316042
 21
204.0196553530335
 31
0.0
 12
475.9557409316043
 22
204.8529886863668
 32
0.0
 13
475.9557409316043
 23
204.8529886863668
 33
0.0
  0
MTEXT
  5
14E4
330
13D1
100
AcDbEntity
  8
AM_5
 62
     2
100
AcDbMText
 10
504.3642547111319
 20
211.3529886863668
 30
0.0
 40
7.0
 41
0.0
 71
     5
 72
     1
  1
Anschluss
 73
     1
 44
1.0
  0
POINT
  5
14E5
330
13D1
100
AcDbEntity
  8
Defpoints
 62
     0
100
AcDbPoint
 10
457.3696813612918
 20
221.1658326164752
 30
0.0
  0
POINT
  5
14E6
330
13D1
100
AcDbEntity
  8
Defpoints
 62
     0
100
AcDbPoint
 10
475.9557409316043
 20
221.1658326164752
 30
0.0
  0
POINT
  5
14E7
330
13D1
100
AcDbEntity
  8
Defpoints
 62
     0
100
AcDbPoint
 10
475.9557409316043
 20
204.8529886863668
 30
0.0
  0
ENDBLK
  5
13DD
330
13D1
100
AcDbEntity
  8
0
100
AcDbBlockEnd
  0
BLOCK
  5
13E8
330
13DE
100
AcDbEntity
  8
0
100
AcDbBlockBegin
  2
*D19
 70
     1
 10
0.0
 20
0.0
 30
0.0
  3
*D19
  1

  0
LINE
  5
14E8
330
13DE
100
AcDbEntity
  8
AM_5
100
AcDbLine
 10
498.1567907362918
 20
249.8658295647175
 30
0.0
 11
498.1567907362918
 21
177.1638256329869
 31
0.0
  0
LINE
  5
14E9
330
13DE
100
AcDbEntity
  8
AM_5
100
AcDbLine
 10
435.1567907362918
 20
249.8658295647175
 30
0.0
 11
435.1567907362918
 21
177.1638256329869
 31
0.0
  0
LINE
  5
14EA
330
13DE
100
AcDbEntity
  8
AM_5
100
AcDbLine
 10
493.1567907362917
 20
181.1638256329869
 30
0.0
 11
440.1567907362918
 21
181.1638256329869
 31
0.0
  0
SOLID
  5
14EB
330
13DE
100
AcDbEntity
  8
AM_5
100
AcDbTrace
 10
493.1567907362917
 20
181.9971589663202
 30
0.0
 11
493.1567907362917
 21
180.3304922996535
 31
0.0
 12
498.1567907362918
 22
181.1638256329869
 32
0.0
 13
498.1567907362918
 23
181.1638256329869
 33
0.0
  0
SOLID
  5
14EC
330
13DE
100
AcDbEntity
  8
AM_5
100
AcDbTrace
 10
440.1567907362918
 20
181.9971589663202
 30
0.0
 11
440.1567907362918
 21
180.3304922996535
 31
0.0
 12
435.1567907362918
 22
181.1638256329869
 32
0.0
 13
435.1567907362918
 23
181.1638256329869
 33
0.0
  0
MTEXT
  5
14ED
330
13DE
100
AcDbEntity
  8
AM_5
 62
     2
100
AcDbMText
 10
466.6567907362916
 20
187.6638256329869
 30
0.0
 40
7.0
 41
0.0
 71
     5
 72
     1
  1
%%c63
 73
     1
 44
1.0
  0
POINT
  5
14EE
330
13DE
100
AcDbEntity
  8
Defpoints
 62
     0
100
AcDbPoint
 10
498.1567907362918
 20
249.8658295647175
 30
0.0
  0
POINT
  5
14EF
330
13DE
100
AcDbEntity
  8
Defpoints
 62
     0
100
AcDbPoint
 10
435.1567907362918
 20
249.8658295647175
 30
0.0
  0
POINT
  5
14F0
330
13DE
100
AcDbEntity
  8
Defpoints
 62
     0
100
AcDbPoint
 10
435.1567907362918
 20
181.1638256329869
 30
0.0
  0
ENDBLK
  5
13E9
330
13DE
100
AcDbEntity
  8
0
100
AcDbBlockEnd
  0
ENDSEC
  0
SECTION
  2
ENTITIES
  0
INSERT
  5
8E8
330
1F
100
AcDbEntity
  8
0
370
     0
100
AcDbBlockReference
  2
DIN_A3
 10
0.0
 20
0.0
 30
0.0
 41
1.5
 42
1.5
 43
1.5
1001
GENIUS_GENOREF_13
1005
A7B
1001
GENIUS_GENODEF_13
1002
{
1000
HIER
1070
     0
1002
}
1002
{
1000
MANEDIT
1070
     0
1002
}
1002
{
1000
NOSEL
1070
     0
1002
}
1002
{
1000
BEHIND
1070
     0
1002
}
1002
{
1000
OTHER
1070
     0
1002
}
1002
{
1000
REACTOR
1002
}
1001
GENIUS_GENOBJ-N-SDF_13
1002
{
1000
OWNER
1000
GEN
1002
}
1001
GENIUS_GENSCREG_15
1040
1.5
1040
1.0
1011
-0.0000000000000568
1021
0.0
1031
0.0
1011
630.0
1021
445.5
1031
0.0
1070
     3
  0
POINT
  5
A7B
330
1F
100
AcDbEntity
  8
0
 60
     1
100
AcDbPoint
 10
0.0
 20
0.0
 30
0.0
1001
GENIUS_GENOLIS_13
1002
{
1000
ENT
1005
A20
1005
8E8
1002
}
1001
GENIUS_GENOENT_13
1002
{
1000
MYREF
1005
A7B
1002
}
1002
{
1000
GRP
1005
0
1002
}
1001
GENIUS_GENOBJ-N-TIT_13
1002
{
1000
OWNER
1000
GEN
1002
}
1001
GENIUS_GENTITLE_13
1002
{
1000
BORDER
1000
G:\Umgebung_ACAD\MDT2007\Reflex\Dwg\Format\din_a3
1002
}
1002
{
1000
TITLE
1000
G:\Umgebung_ACAD\MDT2007\Reflex\Dwg\Title\REFLEX_EDBTITLE
1002
}
1002
{
1000
SCALE
1000
1:1.5
1002
}
1002
{
1000
TITLESTD
1000
DIN
1002
}
1002
{
1000
HRA
1005
8E8
1002
}
1002
{
1000
HTIT
1005
A20
1002
}
1002
{
1000
INVTXTID
1005
0
1002
}
1002
{
1000
UNCHG
1002
{
1000
GEN-TITLE-SIZ
1000
GEN-TITLE-SCA
1002
}
1002
}
1002
{
1000
GENIUSID
1005
A7B
1002
}
1001
GENIUS_GENODEF_13
1002
{
1000
HIER
1070
     1
1002
}
1002
{
1000
MANEDIT
1070
     1
1002
}
1002
{
1000
NOSEL
1070
     0
1002
}
1002
{
1000
BEHIND
1070
     0
1002
}
1002
{
1000
OTHER
1070
     0
1002
}
1002
{
1000
REACTOR
1002
}
  0
LINE
  5
D4F
330
1F
100
AcDbEntity
  8
AM_0
100
AcDbLine
 10
83.20350379498869
 20
198.7067725586353
 30
0.0
 11
240.7035037949888
 21
198.7067725586353
 31
0.0
  0
LINE
  5
D50
330
1F
100
AcDbEntity
  8
AM_0
100
AcDbLine
 10
240.7035037949888
 20
324.7067725586354
 30
0.0
 11
83.20350379498869
 21
324.7067725586354
 31
0.0
  0
LINE
  5
D51
330
1F
100
AcDbEntity
  8
AM_0
100
AcDbLine
 10
240.7035037949888
 20
308.9567725586353
 30
0.0
 11
83.20350379498869
 21
308.9567725586353
 31
0.0
  0
LINE
  5
D52
330
1F
100
AcDbEntity
  8
AM_0
100
AcDbLine
 10
240.7035037949888
 20
293.2067725586351
 30
0.0
 11
83.20350379498869
 21
293.206772558635
 31
0.0
  0
LINE
  5
D53
330
1F
100
AcDbEntity
  8
AM_0
100
AcDbLine
 10
240.7035037949888
 20
277.4567725586353
 30
0.0
 11
83.20350379498869
 21
277.4567725586353
 31
0.0
  0
LINE
  5
D54
330
1F
100
AcDbEntity
  8
AM_0
100
AcDbLine
 10
240.7035037949888
 20
261.7067725586354
 30
0.0
 11
83.20350379498869
 21
261.7067725586354
 31
0.0
  0
LINE
  5
D55
330
1F
100
AcDbEntity
  8
AM_0
100
AcDbLine
 10
240.7035037949888
 20
245.9567725586353
 30
0.0
 11
83.20350379498869
 21
245.9567725586353
 31
0.0
  0
LINE
  5
D56
330
1F
100
AcDbEntity
  8
AM_0
100
AcDbLine
 10
240.7035037949888
 20
230.2067725586353
 30
0.0
 11
83.20350379498869
 21
230.2067725586353
 31
0.0
  0
LINE
  5
D57
330
1F
100
AcDbEntity
  8
AM_0
100
AcDbLine
 10
240.7035037949888
 20
214.4567725586353
 30
0.0
 11
83.20350379498869
 21
214.4567725586353
 31
0.0
  0
LINE
  5
D58
330
1F
100
AcDbEntity
  8
AM_0
100
AcDbLine
 10
193.4535037949888
 20
324.7067725586354
 30
0.0
 11
193.4535037949888
 21
198.7067725586353
 31
0.0
  0
LINE
  5
D59
330
1F
100
AcDbEntity
  8
AM_0
100
AcDbLine
 10
240.7035037949888
 20
324.7067725586354
 30
0.0
 11
240.7035037949888
 21
198.7067725586353
 31
0.0
  0
MTEXT
  5
D5A
330
1F
100
AcDbEntity
  8
AM_0
100
AcDbMText
 10
90.40041188070503
 20
320.6984346856082
 30
0.0
 40
7.875
 41
19.52151176441592
 71
     1
 72
     5
  1
{\Fisocp,bigfont|c238;Typ}
 73
     1
 44
1.0
  0
MTEXT
  5
D5B
330
1F
100
AcDbEntity
  8
0
100
AcDbMText
 10
197.235126311685
 20
320.6984346856082
 30
0.0
 40
7.875
 41
66.86634038358286
 71
     1
 72
     5
  1
{\Fisocp,bigfont|c0;T 1/2}
 73
     1
 44
1.0
  0
MTEXT
  5
D5C
330
1F
100
AcDbEntity
  8
AM_0
100
AcDbMText
 10
90.37686741988167
 20
304.948434685608
 30
0.0
 40
7.875
 41
58.54898793639438
 71
     1
 72
     5
  1
{\Fisocp,bigfont|c238;H}
 73
     1
 44
1.0
  0
MTEXT
  5
D5D
330
1F
100
AcDbEntity
  8
AM_0
100
AcDbMText
 10
90.37686741988167
 20
241.948434685608
 30
0.0
 40
7.875
 41
58.54898793639438
 71
     1
 72
     5
  1
{\Fisocp,bigfont|c0;Anschluss}
 73
     1
 44
1.0
  0
MTEXT
  5
D5E
330
1F
100
AcDbEntity
  8
AM_0
100
AcDbMText
 10
90.37686741988167
 20
210.448434685608
 30
0.0
 40
7.875
 41
58.54898793639438
 71
     1
 72
     5
  1
{\Fisocp,bigfont|c0;Gewicht}
 73
     1
 44
1.0
  0
LINE
  5
D5F
330
1F
100
AcDbEntity
  8
AM_0
100
AcDbLine
 10
146.2035037949888
 20
308.9567725586353
 30
0.0
 11
146.2035037949888
 21
198.7067725586353
 31
0.0
  0
MTEXT
  5
D60
330
1F
100
AcDbEntity
  8
AM_5
100
AcDbMText
 10
153.3768674198816
 20
304.948434685608
 30
0.0
 40
5.5125
 41
71.74988985542885
 71
     1
 72
     5
  1
{\Fisocp,bigfont|c238;mm}
 73
     1
 44
1.0
  0
MTEXT
  5
D61
330
1F
100
AcDbEntity
  8
AM_5
100
AcDbMText
 10
153.3768674198816
 20
273.448434685608
 30
0.0
 40
5.5125
 41
19.52151176441592
 71
     1
 72
     5
  1
{\Fisocp,bigfont|c238;mm}
 73
     1
 44
1.0
  0
MTEXT
  5
D62
330
1F
100
AcDbEntity
  8
AM_5
100
AcDbMText
 10
153.3768674198816
 20
241.948434685608
 30
0.0
 40
5.5125
 41
63.34592853708397
 71
     1
 72
     5
  1
{\Fisocp,bigfont|c0;Zoll}
 73
     1
 44
1.0
  0
MTEXT
  5
D63
330
1F
100
AcDbEntity
  8
AM_5
100
AcDbMText
 10
153.3768674198816
 20
210.448434685608
 30
0.0
 40
5.5125
 41
63.34592853708397
 71
     1
 72
     5
  1
{\Fisocp,bigfont|c0;kg}
 73
     1
 44
1.0
  0
MTEXT
  5
D64
330
1F
100
AcDbEntity
  8
AM_5
100
AcDbMText
 10
211.383447200097
 20
304.948434685608
 30
0.0
 40
5.5125
 41
71.74988985542885
 71
     1
 72
     5
  1
{\Fisocp,bigfont|c0;120}
 73
     1
 44
1.0
  0
MTEXT
  5
D65
330
1F
100
AcDbEntity
  8
AM_5
100
AcDbMText
 10
211.383447200097
 20
273.448434685608
 30
0.0
 40
5.5125
 41
19.52151176441592
 71
     1
 72
     5
  1
{\Fisocp,bigfont|c0;78}
 73
     1
 44
1.0
  0
MTEXT
  5
D66
330
1F
100
AcDbEntity
  8
AM_5
100
AcDbMText
 10
206.2195667773223
 20
241.6409887635607
 30
0.0
 40
5.5125
 41
63.34592853708397
 71
     1
 72
     5
  1
{\Fisocp,bigfont|c0;R1/2"}
 73
     1
 44
1.0
  0
MTEXT
  5
D67
330
1F
100
AcDbEntity
  8
AM_5
100
AcDbMText
 10
211.383447200097
 20
210.448434685608
 30
0.0
 40
5.5125
 41
63.34592853708397
 71
     1
 72
     5
  1
{\Fisocp,bigfont|c0;0,7}
 73
     1
 44
1.0
  0
MTEXT
  5
D68
330
1F
100
AcDbEntity
  8
0
100
AcDbMText
 10
317.5574712259364
 20
159.6349730955089
 30
0.0
 40
14.0
 41
264.5209046832822
 71
     2
 72
     5
  1
{\Fisocp,bigfont|c0;Exvoid T}
 73
     1
 44
1.0
  0
MTEXT
  5
D69
330
1F
100
AcDbEntity
  8
0
100
AcDbMText
 10
309.6889439956151
 20
130.7221415873312
 30
0.0
 40
14.0
 41
264.5209046832822
 71
     2
 72
     5
  1
{\Fisocp,bigfont|c0; 1/2}
 73
     1
 44
1.0
  0
MTEXT
  5
D6A
330
1F
100
AcDbEntity
  8
0
100
AcDbMText
 10
261.4314186203845
 20
101.5926837559897
 30
0.0
 40
14.0
 41
264.5209046832822
 71
     1
 72
     5
  1
{\Fisocp,bigfont|c0;10\Fisocp,bigfont|c238;bar - \Fisocp,bigfont|c0;110\Fisocp,bigfont|c238;%%DC}
 73
     1
 44
1.0
  0
MTEXT
  5
FA7
330
1F
100
AcDbEntity
  8
AM_0
100
AcDbMText
 10
90.37686741988167
 20
273.4484338670909
 30
0.0
 40
7.875
 41
58.54898793639438
 71
     1
 72
     5
  1
{\Fisocp,bigfont|c0;L}
 73
     1
 44
1.0
  0
LINE
  5
FA8
330
1F
100
AcDbEntity
  8
AM_0
370
    60
100
AcDbLine
 10
83.20350658964763
 20
324.7067725586354
 30
0.0
 11
83.20350658964763
 21
198.7067725586353
 31
0.0
  0
LINE
  5
129C
330
1F
100
AcDbEntity
  8
0
 62
     7
100
AcDbLine
 10
498.1567907362918
 20
251.0658265129596
 30
0.0
 11
466.6567907362916
 21
251.0658265129596
 31
0.0
  0
LINE
  5
129D
330
1F
100
AcDbEntity
  8
0
 62
     7
100
AcDbLine
 10
498.0567846327762
 20
251.1658326164753
 30
0.0
 11
466.6567907362916
 21
251.1658326164753
 31
0.0
  0
LINE
  5
129E
330
1F
100
AcDbEntity
  8
0
 62
     7
100
AcDbLine
 10
466.6567907362916
 20
251.0658265129596
 30
0.0
 11
435.1567907362918
 21
251.0658265129596
 31
0.0
  0
LINE
  5
129F
330
1F
100
AcDbEntity
  8
0
 62
     7
100
AcDbLine
 10
466.6567907362916
 20
251.1658326164753
 30
0.0
 11
435.2567968398075
 21
251.1658326164753
 31
0.0
  0
LINE
  5
12A0
330
1F
100
AcDbEntity
  8
0
 62
     7
 48
0.0382896423339844
100
AcDbLine
 10
455.6772680312136
 20
221.1658326164752
 30
0.0
 11
454.1456823378543
 21
221.1658326164752
 31
0.0
  0
LINE
  5
12A1
330
1F
100
AcDbEntity
  8
0
 62
     7
100
AcDbLine
 10
479.1678991347293
 20
221.1658326164752
 30
0.0
 11
455.6772680312136
 21
221.1658326164752
 31
0.0
  0
POLYLINE
  5
12A2
330
1F
100
AcDbEntity
  8
0
 62
     7
100
AcDb2dPolyline
 66
     1
 10
0.0
 20
0.0
 30
0.0
  0
VERTEX
  5
12A3
330
12A2
100
AcDbEntity
  8
0
100
AcDbVertex
100
AcDb2dVertex
 10
474.3066930800416
 20
222.1089325920612
 30
0.0
  0
VERTEX
  5
12A4
330
12A2
100
AcDbEntity
  8
0
100
AcDbVertex
100
AcDb2dVertex
 10
475.1356725722293
 20
221.8168488518268
 30
0.0
  0
VERTEX
  5
12A5
330
12A2
100
AcDbEntity
  8
0
100
AcDbVertex
100
AcDb2dVertex
 10
475.9557409316043
 20
221.5925141350299
 30
0.0
  0
VERTEX
  5
12A6
330
12A2
100
AcDbEntity
  8
0
100
AcDbVertex
100
AcDb2dVertex
 10
476.8235082655887
 20
221.4342194572956
 30
0.0
  0
VERTEX
  5
12A7
330
12A2
100
AcDbEntity
  8
0
100
AcDbVertex
100
AcDb2dVertex
 10
477.6840124159792
 20
221.3646698967487
 30
0.0
  0
VERTEX
  5
12A8
330
12A2
100
AcDbEntity
  8
0
100
AcDbVertex
100
AcDb2dVertex
 10
478.7602300673465
 20
221.4051514641315
 30
0.0
  0
VERTEX
  5
12A9
330
12A2
100
AcDbEntity
  8
0
100
AcDbVertex
100
AcDb2dVertex
 10
479.8454504042606
 20
221.5858460442096
 30
0.0
  0
VERTEX
  5
12AA
330
12A2
100
AcDbEntity
  8
0
100
AcDbVertex
100
AcDb2dVertex
 10
480.6798620253543
 20
221.8122254387409
 30
0.0
  0
VERTEX
  5
12AB
330
12A2
100
AcDbEntity
  8
0
100
AcDbVertex
100
AcDb2dVertex
 10
481.5235662489871
 20
222.1089325920612
 30
0.0
  0
SEQEND
  5
12AC
330
12A2
100
AcDbEntity
  8
0
  0
POLYLINE
  5
12AD
330
1F
100
AcDbEntity
  8
0
 62
     7
100
AcDb2dPolyline
 66
     1
 10
0.0
 20
0.0
 30
0.0
  0
VERTEX
  5
12AE
330
12AD
100
AcDbEntity
  8
0
100
AcDbVertex
100
AcDb2dVertex
 10
474.3066930800416
 20
222.1089325920612
 30
0.0
  0
VERTEX
  5
12AF
330
12AD
100
AcDbEntity
  8
0
100
AcDbVertex
100
AcDb2dVertex
 10
474.2308568984012
 20
222.1277619377643
 30
0.0
  0
VERTEX
  5
12B0
330
12AD
100
AcDbEntity
  8
0
100
AcDbVertex
100
AcDb2dVertex
 10
474.0303258925417
 20
222.130844213155
 30
0.0
  0
VERTEX
  5
12B1
330
12AD
100
AcDbEntity
  8
0
100
AcDbVertex
100
AcDb2dVertex
 10
473.8736791640262
 20
222.1089325920612
 30
0.0
  0
SEQEND
  5
12B2
330
12AD
100
AcDbEntity
  8
0
  0
POLYLINE
  5
12B3
330
1F
100
AcDbEntity
  8
0
 62
     7
100
AcDb2dPolyline
 66
     1
 10
0.0
 20
0.0
 30
0.0
  0
VERTEX
  5
12B4
330
12B3
100
AcDbEntity
  8
0
100
AcDbVertex
100
AcDb2dVertex
 10
459.4399023085574
 20
222.1089325920612
 30
0.0
  0
VERTEX
  5
12B5
330
12B3
100
AcDbEntity
  8
0
100
AcDbVertex
100
AcDb2dVertex
 10
461.0979223280887
 20
221.8168488518268
 30
0.0
  0
VERTEX
  5
12B6
330
12B3
100
AcDbEntity
  8
0
100
AcDbVertex
100
AcDb2dVertex
 10
462.7379980116824
 20
221.5925141350299
 30
0.0
  0
VERTEX
  5
12B7
330
12B3
100
AcDbEntity
  8
0
100
AcDbVertex
100
AcDb2dVertex
 10
464.4735326796512
 20
221.4342194572956
 30
0.0
  0
VERTEX
  5
12B8
330
12B3
100
AcDbEntity
  8
0
100
AcDbVertex
100
AcDb2dVertex
 10
466.1945714980104
 20
221.3646698967487
 30
0.0
  0
VERTEX
  5
12B9
330
12B3
100
AcDbEntity
  8
0
100
AcDbVertex
100
AcDb2dVertex
 10
468.347006800745
 20
221.4051514641315
 30
0.0
  0
VERTEX
  5
12BA
330
12B3
100
AcDbEntity
  8
0
100
AcDbVertex
100
AcDb2dVertex
 10
470.5174474745731
 20
221.5858460442096
 30
0.0
  0
VERTEX
  5
12BB
330
12B3
100
AcDbEntity
  8
0
100
AcDbVertex
100
AcDb2dVertex
 10
472.1862707167606
 20
221.8122254387409
 30
0.0
  0
VERTEX
  5
12BC
330
12B3
100
AcDbEntity
  8
0
100
AcDbVertex
100
AcDb2dVertex
 10
473.8736791640262
 20
222.1089325920612
 30
0.0
  0
SEQEND
  5
12BD
330
12B3
100
AcDbEntity
  8
0
  0
POLYLINE
  5
12BE
330
1F
100
AcDbEntity
  8
0
 62
     7
100
AcDb2dPolyline
 66
     1
 10
0.0
 20
0.0
 30
0.0
  0
VERTEX
  5
12BF
330
12BE
100
AcDbEntity
  8
0
100
AcDbVertex
100
AcDb2dVertex
 10
459.4399023085574
 20
222.1089325920612
 30
0.0
  0
VERTEX
  5
12C0
330
12BE
100
AcDbEntity
  8
0
100
AcDbVertex
100
AcDb2dVertex
 10
459.2188329726199
 20
222.1344910637409
 30
0.0
  0
VERTEX
  5
12C1
330
12BE
100
AcDbEntity
  8
0
100
AcDbVertex
100
AcDb2dVertex
 10
459.0068883925417
 20
222.1089325920612
 30
0.0
  0
SEQEND
  5
12C2
330
12BE
100
AcDbEntity
  8
0
  0
POLYLINE
  5
12C3
330
1F
100
AcDbEntity
  8
0
 62
     7
100
AcDb2dPolyline
 66
     1
 10
0.0
 20
0.0
 30
0.0
  0
VERTEX
  5
12C4
330
12C3
100
AcDbEntity
  8
0
100
AcDbVertex
100
AcDb2dVertex
 10
455.2450475722292
 20
221.3628388420612
 30
0.0
  0
VERTEX
  5
12C5
330
12C3
100
AcDbEntity
  8
0
100
AcDbVertex
100
AcDb2dVertex
 10
456.3027257948855
 20
221.4114686028034
 30
0.0
  0
VERTEX
  5
12C6
330
12C3
100
AcDbEntity
  8
0
100
AcDbVertex
100
AcDb2dVertex
 10
457.3696813612918
 20
221.5952454582721
 30
0.0
  0
VERTEX
  5
12C7
330
12C3
100
AcDbEntity
  8
0
100
AcDbVertex
100
AcDb2dVertex
 10
458.1838903456667
 20
221.8187256828815
 30
0.0
  0
VERTEX
  5
12C8
330
12C3
100
AcDbEntity
  8
0
100
AcDbVertex
100
AcDb2dVertex
 10
459.0068883925417
 20
222.1089325920612
 30
0.0
  0
SEQEND
  5
12C9
330
12C3
100
AcDbEntity
  8
0
  0
LINE
  5
12CA
330
1F
100
AcDbEntity
  8
0
 62
     7
 48
0.0017959690741944
100
AcDbLine
 10
481.5905523329715
 20
222.1348877922565
 30
0.0
 11
481.5235662489871
 21
222.1089325920612
 31
0.0
  0
POLYLINE
  5
12CB
330
1F
100
AcDbEntity
  8
0
 62
     7
100
AcDb2dPolyline
 66
     1
 10
0.0
 20
0.0
 30
0.0
  0
VERTEX
  5
12CC
330
12CB
100
AcDbEntity
  8
0
100
AcDbVertex
100
AcDb2dVertex
 10
455.2450475722292
 20
221.3628388420612
 30
0.0
  0
VERTEX
  5
12CD
330
12CB
100
AcDbEntity
  8
0
100
AcDbVertex
100
AcDb2dVertex
 10
454.2418432265262
 20
221.4430695549518
 30
0.0
  0
VERTEX
  5
12CE
330
12CB
100
AcDbEntity
  8
0
100
AcDbVertex
100
AcDb2dVertex
 10
453.2284765273074
 20
221.6435090080768
 30
0.0
  0
VERTEX
  5
12CF
330
12CB
100
AcDbEntity
  8
0
100
AcDbVertex
100
AcDb2dVertex
 10
452.5125951796511
 20
221.8508606926471
 30
0.0
  0
VERTEX
  5
12D0
330
12CB
100
AcDbEntity
  8
0
100
AcDbVertex
100
AcDb2dVertex
 10
451.7900304823855
 20
222.1089325920612
 30
0.0
  0
SEQEND
  5
12D1
330
12CB
100
AcDbEntity
  8
0
  0
LINE
  5
12D2
330
1F
100
AcDbEntity
  8
0
 62
     7
 48
0.0017959690741944
100
AcDbLine
 10
451.7900304823855
 20
222.1089325920612
 30
0.0
 11
451.723044398401
 21
222.1348877922565
 31
0.0
  0
LINE
  5
12D3
330
1F
100
AcDbEntity
  8
0
 62
     7
 48
0.2514225006103516
100
AcDbLine
 10
451.7900304823855
 20
222.1089325920612
 30
0.0
 11
451.7900304823855
 21
232.1658326164753
 31
0.0
  0
LINE
  5
12D4
330
1F
100
AcDbEntity
  8
0
 62
     7
 48
0.0016746520996094
100
AcDbLine
 10
451.7900304823855
 20
232.1658326164753
 30
0.0
 11
451.723044398401
 21
232.1658326164753
 31
0.0
  0
LINE
  5
12D5
330
1F
100
AcDbEntity
  8
0
 62
     7
 48
0.2514225006103516
100
AcDbLine
 10
459.0068883925417
 20
222.1089325920612
 30
0.0
 11
459.0068883925417
 21
232.1658326164753
 31
0.0
  0
LINE
  5
12D6
330
1F
100
AcDbEntity
  8
0
 62
     7
 48
0.1804214477539062
100
AcDbLine
 10
459.0068883925417
 20
232.1658326164753
 30
0.0
 11
451.7900304823855
 21
232.1658326164753
 31
0.0
  0
LINE
  5
12D7
330
1F
100
AcDbEntity
  8
0
 62
     7
 48
0.2514225006103516
100
AcDbLine
 10
459.4399023085574
 20
222.1089325920612
 30
0.0
 11
459.4399023085574
 21
232.1658326164753
 31
0.0
  0
LINE
  5
12D8
330
1F
100
AcDbEntity
  8
0
 62
     7
 48
0.0108253479003906
100
AcDbLine
 10
459.4399023085574
 20
232.1658326164753
 30
0.0
 11
459.0068883925417
 21
232.1658326164753
 31
0.0
  0
LINE
  5
12D9
330
1F
100
AcDbEntity
  8
0
 62
     7
 48
0.2514225006103516
100
AcDbLine
 10
473.8736791640262
 20
222.1089325920612
 30
0.0
 11
473.8736791640262
 21
232.1658326164753
 31
0.0
  0
LINE
  5
12DA
330
1F
100
AcDbEntity
  8
0
 62
     7
 48
0.3608444213867187
100
AcDbLine
 10
473.8736791640262
 20
232.1658326164753
 30
0.0
 11
459.4399023085574
 21
232.1658326164753
 31
0.0
  0
LINE
  5
12DB
330
1F
100
AcDbEntity
  8
0
 62
     7
 48
0.2514225006103516
100
AcDbLine
 10
474.3066930800416
 20
222.1089325920612
 30
0.0
 11
474.3066930800416
 21
232.1658326164753
 31
0.0
  0
LINE
  5
12DC
330
1F
100
AcDbEntity
  8
0
 62
     7
 48
0.0108253479003906
100
AcDbLine
 10
474.3066930800416
 20
232.1658326164753
 30
0.0
 11
473.8736791640262
 21
232.1658326164753
 31
0.0
  0
LINE
  5
12DD
330
1F
100
AcDbEntity
  8
0
 62
     7
 48
0.2514225006103516
100
AcDbLine
 10
481.5235662489871
 20
222.1089325920612
 30
0.0
 11
481.5235662489871
 21
232.1658326164753
 31
0.0
  0
LINE
  5
12DE
330
1F
100
AcDbEntity
  8
0
 62
     7
 48
0.1804218292236328
100
AcDbLine
 10
481.5235662489871
 20
232.1658326164753
 30
0.0
 11
474.3066930800416
 21
232.1658326164753
 31
0.0
  0
LINE
  5
12DF
330
1F
100
AcDbEntity
  8
0
 62
     7
 48
0.0016746520996094
100
AcDbLine
 10
481.5905523329715
 20
232.1658326164753
 30
0.0
 11
481.5235662489871
 21
232.1658326164753
 31
0.0
  0
ELLIPSE
  5
12E0
330
1F
100
AcDbEntity
  8
0
 62
     7
100
AcDbEllipse
 10
482.3895788222293
 20
232.1658326164753
 30
0.0
 11
-0.0000000000000001
 21
-1.0
 31
0.0
210
0.0
220
0.0
230
1.0
 40
0.8660254037844442
 41
3.141592653589793
 42
4.712388980384687
  0
ELLIPSE
  5
12E1
330
1F
100
AcDbEntity
  8
0
 62
     7
100
AcDbEllipse
 10
475.1727209120731
 20
232.1658326164753
 30
0.0
 11
-0.0000000000000001
 21
-1.0
 31
0.0
210
0.0
220
0.0
230
1.0
 40
0.866025403784439
 41
3.14159265358979
 42
4.712388980384687
  0
LINE
  5
12E2
330
1F
100
AcDbEntity
  8
0
 62
     7
 48
0.025
100
AcDbLine
 10
473.8736791640262
 20
232.1658326164753
 30
0.0
 11
473.8736791640262
 21
233.1658326164752
 31
0.0
  0
LINE
  5
12E3
330
1F
100
AcDbEntity
  8
0
 62
     7
 48
0.025
100
AcDbLine
 10
459.4399023085574
 20
232.1658326164753
 30
0.0
 11
459.4399023085574
 21
233.1658326164752
 31
0.0
  0
ELLIPSE
  5
12E4
330
1F
100
AcDbEntity
  8
0
 62
     7
100
AcDbEllipse
 10
458.1408605605106
 20
232.1658326164753
 30
0.0
 11
-0.0000000000000001
 21
-1.0
 31
0.0
210
0.0
220
0.0
230
1.0
 40
0.8660254037844364
 41
1.570796326794895
 42
3.141592653589794
  0
ELLIPSE
  5
12E5
330
1F
100
AcDbEntity
  8
0
 62
     7
100
AcDbEllipse
 10
450.9240026503542
 20
232.1658326164753
 30
0.0
 11
-0.0000000000000001
 21
-1.0
 31
0.0
210
0.0
220
0.0
230
1.0
 40
0.8660254037844389
 41
1.570796326794897
 42
3.14159265358979
  0
LINE
  5
12E6
330
1F
100
AcDbEntity
  8
0
 62
     7
 48
0.0811012268066406
100
AcDbLine
 10
443.4008398085572
 20
233.1658326164752
 30
0.0
 11
440.1567907362918
 21
233.1658326164752
 31
0.0
  0
LINE
  5
12E7
330
1F
100
AcDbEntity
  8
0
 62
     7
100
AcDbLine
 10
493.1567907362917
 20
233.1658326164752
 30
0.0
 11
443.4008398085572
 21
233.1658326164752
 31
0.0
  0
LINE
  5
12E8
330
1F
100
AcDbEntity
  8
0
 62
     7
 48
0.0872222900390625
100
AcDbLine
 10
441.6456823378543
 20
235.1658326164753
 30
0.0
 11
438.1567907362917
 21
235.1658326164753
 31
0.0
  0
LINE
  5
12E9
330
1F
100
AcDbEntity
  8
0
 62
     7
100
AcDbLine
 10
495.1567907362917
 20
235.1658326164753
 30
0.0
 11
441.6456823378543
 21
235.1658326164753
 31
0.0
  0
LINE
  5
12EA
330
1F
100
AcDbEntity
  8
0
 62
     7
100
AcDbLine
 10
495.1567907362917
 20
245.6658326164752
 30
0.0
 11
441.6456823378543
 21
245.6658326164752
 31
0.0
  0
LINE
  5
12EB
330
1F
100
AcDbEntity
  8
0
 62
     7
 48
0.0872222900390625
100
AcDbLine
 10
441.6456823378543
 20
245.6658326164752
 30
0.0
 11
438.1567907362917
 21
245.6658326164752
 31
0.0
  0
LINE
  5
12EC
330
1F
100
AcDbEntity
  8
0
 62
     7
 48
0.0918128967285156
100
AcDbLine
 10
440.3293066054324
 20
247.1658326164753
 30
0.0
 11
436.6567907362917
 21
247.1658326164753
 31
0.0
  0
LINE
  5
12ED
330
1F
100
AcDbEntity
  8
0
 62
     7
100
AcDbLine
 10
466.6567907362916
 20
247.1658326164753
 30
0.0
 11
440.3293066054324
 21
247.1658326164753
 31
0.0
  0
LINE
  5
12EE
330
1F
100
AcDbEntity
  8
0
 62
     7
100
AcDbLine
 10
496.6567907362917
 20
247.1658326164753
 30
0.0
 11
466.6567907362916
 21
247.1658326164753
 31
0.0
  0
LINE
  5
12EF
330
1F
100
AcDbEntity
  8
0
 62
     7
100
AcDbLine
 10
498.1567907362918
 20
248.6658326164753
 30
0.0
 11
466.6567907362916
 21
248.6658326164753
 31
0.0
  0
LINE
  5
12F0
330
1F
100
AcDbEntity
  8
0
 62
     7
100
AcDbLine
 10
466.6567907362916
 20
248.6658326164753
 30
0.0
 11
435.1567907362918
 21
248.6658326164753
 31
0.0
  0
ARC
  5
12F1
330
1F
100
AcDbEntity
  8
0
 62
     7
100
AcDbCircle
 10
498.0567083388309
 20
251.0657502190143
 30
0.0
 40
0.1000711528630453
100
AcDbArc
 50
0.0460807818510072
 51
89.95391588324279
  0
ARC
  5
12F2
330
1F
100
AcDbEntity
  8
0
 62
     7
100
AcDbCircle
 10
435.2568578749637
 20
251.0657502190143
 30
0.0
 40
0.1000711528630585
100
AcDbArc
 50
90.0460841167572
 51
179.9539192181473
  0
LINE
  5
12F3
330
1F
100
AcDbEntity
  8
0
 62
     7
 48
0.0652318770457624
100
AcDbLine
 10
479.1678991347293
 20
221.1658326164752
 30
0.0
 11
481.5905523329715
 21
222.1348877922565
 31
0.0
  0
LINE
  5
12F4
330
1F
100
AcDbEntity
  8
0
 62
     7
 48
0.0652315228598591
100
AcDbLine
 10
454.1456823378543
 20
221.1658326164752
 30
0.0
 11
451.723044398401
 21
222.1348877922565
 31
0.0
  0
LINE
  5
12F5
330
1F
100
AcDbEntity
  8
0
 62
     7
 48
0.2507736206054687
100
AcDbLine
 10
451.723044398401
 20
222.1348877922565
 30
0.0
 11
451.723044398401
 21
232.1658326164753
 31
0.0
  0
LINE
  5
12F6
330
1F
100
AcDbEntity
  8
0
 62
     7
 48
0.2507736206054687
100
AcDbLine
 10
481.5905523329715
 20
222.1348877922565
 30
0.0
 11
481.5905523329715
 21
232.1658326164753
 31
0.0
  0
ARC
  5
12F7
330
1F
100
AcDbEntity
  8
0
 62
     7
100
AcDbCircle
 10
482.5905523329715
 20
232.1658326164753
 30
0.0
 40
1.0
100
AcDbArc
 50
89.99999999999349
 51
180.0000025044784
  0
ARC
  5
12F8
330
1F
100
AcDbEntity
  8
0
 62
     7
100
AcDbCircle
 10
450.7230443984012
 20
232.1658326164753
 30
0.0
 40
1.0
100
AcDbArc
 50
359.9999974955216
 51
90.00000000000651
  0
ARC
  5
12F9
330
1F
100
AcDbEntity
  8
0
 62
     7
100
AcDbCircle
 10
440.1567907362918
 20
235.1658326164753
 30
0.0
 40
1.9999999994454
100
AcDbArc
 50
180.0000025044784
 51
269.9999949910431
  0
ARC
  5
12FA
330
1F
100
AcDbEntity
  8
0
 62
     7
100
AcDbCircle
 10
493.1567907362917
 20
235.1658326164753
 30
0.0
 40
1.9999999994454
100
AcDbArc
 50
270.0000050089569
 51
359.9999974955216
  0
LINE
  5
12FB
330
1F
100
AcDbEntity
  8
0
 62
     7
 48
0.2625
100
AcDbLine
 10
495.1567907362917
 20
235.1658326164753
 30
0.0
 11
495.1567907362917
 21
245.6658326164752
 31
0.0
  0
LINE
  5
12FC
330
1F
100
AcDbEntity
  8
0
 62
     7
 48
0.2625
100
AcDbLine
 10
438.1567907362917
 20
235.1658326164753
 30
0.0
 11
438.1567907362917
 21
245.6658326164752
 31
0.0
  0
ARC
  5
12FD
330
1F
100
AcDbEntity
  8
0
 62
     7
100
AcDbCircle
 10
436.6567907362917
 20
245.6658326164752
 30
0.0
 40
1.500000022193243
100
AcDbArc
 50
359.9999974955216
 51
89.99999926366323
  0
ARC
  5
12FE
330
1F
100
AcDbEntity
  8
0
 62
     7
100
AcDbCircle
 10
496.6567907362917
 20
245.6658326164752
 30
0.0
 40
1.500000022193251
100
AcDbArc
 50
90.00000073633676
 51
180.0000025044784
  0
LINE
  5
12FF
330
1F
100
AcDbEntity
  8
0
 62
     7
 48
0.0599998474121094
100
AcDbLine
 10
498.1567907362918
 20
248.6658326164753
 30
0.0
 11
498.1567907362918
 21
251.0658265129596
 31
0.0
  0
LINE
  5
1300
330
1F
100
AcDbEntity
  8
0
 62
     7
 48
0.0599998474121094
100
AcDbLine
 10
435.1567907362918
 20
248.6658326164753
 30
0.0
 11
435.1567907362918
 21
251.0658265129596
 31
0.0
  0
ARC
  5
1301
330
1F
100
AcDbEntity
  8
0
 62
     7
100
AcDbCircle
 10
436.6567907362917
 20
248.6658326164753
 30
0.0
 40
1.499999999374088
100
AcDbArc
 50
180.0000025044784
 51
269.9999949910431
  0
ARC
  5
1302
330
1F
100
AcDbEntity
  8
0
 62
     7
100
AcDbCircle
 10
496.6567907362917
 20
248.6658326164753
 30
0.0
 40
1.499999999374074
100
AcDbArc
 50
270.0000050089569
 51
359.9999974955216
  0
LINE
  5
1303
330
1F
100
AcDbEntity
  8
0
 62
     7
 48
0.0176776695296637
100
AcDbLine
 10
420.6567907362917
 20
323.8348389641315
 30
0.0
 11
421.1567907362917
 21
323.3348389641315
 31
0.0
  0
LINE
  5
1304
330
1F
100
AcDbEntity
  8
0
 62
     7
 48
0.0176776695296637
100
AcDbLine
 10
420.6567907362917
 20
339.496826268819
 30
0.0
 11
421.1567907362917
 21
339.996826268819
 31
0.0
  0
LINE
  5
1305
330
1F
100
AcDbEntity
  8
0
 62
     7
 48
0.3915496826171875
100
AcDbLine
 10
420.6567907362917
 20
323.8348389641315
 30
0.0
 11
420.6567907362917
 21
339.496826268819
 31
0.0
  0
LINE
  5
1306
330
1F
100
AcDbEntity
  8
0
 62
     7
 48
0.4165496826171875
100
AcDbLine
 10
421.1567907362917
 20
323.3348389641315
 30
0.0
 11
421.1567907362917
 21
339.996826268819
 31
0.0
  0
LINE
  5
1307
330
1F
100
AcDbEntity
  8
0
 62
     7
 48
0.0125
100
AcDbLine
 10
421.1567907362917
 20
323.3348389641315
 30
0.0
 11
421.6567907362919
 21
323.3348389641315
 31
0.0
  0
LINE
  5
1308
330
1F
100
AcDbEntity
  8
0
 62
     7
 48
0.0125
100
AcDbLine
 10
421.1567907362917
 20
339.996826268819
 30
0.0
 11
421.6567907362919
 21
339.996826268819
 31
0.0
  0
LINE
  5
1309
330
1F
100
AcDbEntity
  8
0
 62
     7
 48
0.0125
100
AcDbLine
 10
420.6567907362917
 20
339.1408387199909
 30
0.0
 11
421.1567907362917
 21
339.1408387199909
 31
0.0
  0
LINE
  5
130A
330
1F
100
AcDbEntity
  8
0
 62
     7
 48
0.0125
100
AcDbLine
 10
421.1567907362917
 20
339.1408387199909
 30
0.0
 11
421.6567907362919
 21
339.1408387199909
 31
0.0
  0
LINE
  5
130B
330
1F
100
AcDbEntity
  8
0
 62
     7
 48
0.0125
100
AcDbLine
 10
420.6567907362917
 20
324.1908265129596
 30
0.0
 11
421.1567907362917
 21
324.1908265129596
 31
0.0
  0
LINE
  5
130C
330
1F
100
AcDbEntity
  8
0
 62
     7
 48
0.0125
100
AcDbLine
 10
421.1567907362917
 20
324.1908265129596
 30
0.0
 11
421.6567907362919
 21
324.1908265129596
 31
0.0
  0
LINE
  5
130D
330
1F
100
AcDbEntity
  8
0
 62
     7
 48
0.2369377136230469
100
AcDbLine
 10
421.6567907362919
 20
331.6658326164752
 30
0.0
 11
421.6567907362919
 21
322.1883240715534
 31
0.0
  0
LINE
  5
130E
330
1F
100
AcDbEntity
  8
0
 62
     7
 48
0.2369377136230469
100
AcDbLine
 10
421.6567907362919
 20
341.1433411613971
 30
0.0
 11
421.6567907362919
 21
331.6658326164752
 31
0.0
  0
LINE
  5
130F
330
1F
100
AcDbEntity
  8
0
 62
     7
 48
0.2619377136230469
100
AcDbLine
 10
422.6567907362919
 20
331.6658326164752
 30
0.0
 11
422.6567907362919
 21
321.1883240715534
 31
0.0
  0
LINE
  5
1310
330
1F
100
AcDbEntity
  8
0
 62
     7
 48
0.2619377136230469
100
AcDbLine
 10
422.6567907362919
 20
342.1433411613971
 30
0.0
 11
422.6567907362919
 21
331.6658326164752
 31
0.0
  0
LINE
  5
1311
330
1F
100
AcDbEntity
  8
0
 62
     7
 48
0.2539019073701838
100
AcDbLine
 10
466.6567907362916
 20
337.4158326164752
 30
0.0
 11
458.2852087050418
 21
331.6658326164752
 31
0.0
  0
POLYLINE
  5
1312
330
1F
100
AcDbEntity
  8
0
 62
     7
100
AcDb2dPolyline
 66
     1
 10
0.0
 20
0.0
 30
0.0
  0
VERTEX
  5
1313
330
1312
100
AcDbEntity
  8
0
100
AcDbVertex
100
AcDb2dVertex
 10
466.6567907362916
 20
337.4158326164752
 30
0.0
  0
VERTEX
  5
1314
330
1312
100
AcDbEntity
  8
0
100
AcDbVertex
100
AcDb2dVertex
 10
466.0463781386353
 20
336.7538453117878
 30
0.0
  0
VERTEX
  5
1315
330
1312
100
AcDbEntity
  8
0
100
AcDbVertex
100
AcDb2dVertex
 10
464.7503271132449
 20
335.3795472160846
 30
0.0
  0
VERTEX
  5
1316
330
1312
100
AcDbEntity
  8
0
100
AcDbVertex
100
AcDb2dVertex
 10
462.243308070276
 20
332.8067933098346
 30
0.0
  0
VERTEX
  5
1317
330
1312
100
AcDbEntity
  8
0
100
AcDbVertex
100
AcDb2dVertex
 10
459.5842504530887
 20
330.1658326164753
 30
0.0
  0
SEQEND
  5
1318
330
1312
100
AcDbEntity
  8
0
  0
LINE
  5
1319
330
1F
100
AcDbEntity
  8
0
 62
     7
 48
0.14375
100
AcDbLine
 10
466.6567907362916
 20
343.1658326164753
 30
0.0
 11
466.6567907362916
 21
337.4158326164752
 31
0.0
  0
LINE
  5
131A
330
1F
100
AcDbEntity
  8
0
 62
     7
 48
0.2185028076171875
100
AcDbLine
 10
466.6567907362916
 20
337.4158326164752
 30
0.0
 11
475.3969030409792
 21
337.4158326164752
 31
0.0
  0
LINE
  5
131B
330
1F
100
AcDbEntity
  8
0
 62
     7
100
AcDbLine
 10
458.2852087050418
 20
331.6658326164752
 30
0.0
 11
441.5420446425417
 21
320.1658326164753
 31
0.0
  0
POLYLINE
  5
131C
330
1F
100
AcDbEntity
  8
0
 62
     7
100
AcDb2dPolyline
 66
     1
 10
0.0
 20
0.0
 30
0.0
  0
VERTEX
  5
131D
330
131C
100
AcDbEntity
  8
0
100
AcDbVertex
100
AcDb2dVertex
 10
459.5842504530887
 20
330.1658326164753
 30
0.0
  0
VERTEX
  5
131E
330
131C
100
AcDbEntity
  8
0
100
AcDbVertex
100
AcDb2dVertex
 10
455.9921789198853
 20
326.6941529289753
 30
0.0
  0
VERTEX
  5
131F
330
131C
100
AcDbEntity
  8
0
100
AcDbVertex
100
AcDb2dVertex
 10
452.3341894179322
 20
323.2361756340534
 30
0.0
  0
VERTEX
  5
1320
330
131C
100
AcDbEntity
  8
0
100
AcDbVertex
100
AcDb2dVertex
 10
448.7412328749637
 20
319.8926697746784
 30
0.0
  0
VERTEX
  5
1321
330
131C
100
AcDbEntity
  8
0
100
AcDbVertex
100
AcDb2dVertex
 10
444.1401281386355
 20
315.6658326164753
 30
0.0
  0
SEQEND
  5
1322
330
131C
100
AcDbEntity
  8
0
  0
LINE
  5
1323
330
1F
100
AcDbEntity
  8
0
 62
     7
100
AcDbLine
 10
441.7907629042606
 20
311.5966187492877
 30
0.0
 11
488.4787817030887
 21
311.5966187492877
 31
0.0
  0
LINE
  5
1324
330
1F
100
AcDbEntity
  8
0
 62
     7
 48
0.0304794311523438
100
AcDbLine
 10
475.3969030409792
 20
337.4158326164752
 30
0.0
 11
476.616080287073
 21
337.4158326164752
 31
0.0
  0
LINE
  5
1325
330
1F
100
AcDbEntity
  8
0
 62
     7
 48
0.0761009216308594
100
AcDbLine
 10
488.4787817030887
 20
311.5966187492877
 30
0.0
 11
491.5228185683231
 21
311.5966187492877
 31
0.0
  0
LINE
  5
1326
330
1F
100
AcDbEntity
  8
0
 62
     7
100
AcDbLine
 10
435.1567907362918
 20
253.8227082268268
 30
0.0
 11
494.300635340784
 21
253.8227082268268
 31
0.0
  0
LINE
  5
1327
330
1F
100
AcDbEntity
  8
0
 62
     7
100
AcDbLine
 10
436.4000768691043
 20
255.6740265862018
 30
0.0
 11
493.209570887659
 21
255.6740265862018
 31
0.0
  0
LINE
  5
1328
330
1F
100
AcDbEntity
  8
0
 62
     7
 48
0.0964038848876953
100
AcDbLine
 10
494.300635340784
 20
253.8227082268268
 30
0.0
 11
498.1567907362918
 21
253.8227082268268
 31
0.0
  0
LINE
  5
1329
330
1F
100
AcDbEntity
  8
0
 62
     7
 48
0.0925987243652344
100
AcDbLine
 10
493.209570887659
 20
255.6740265862018
 30
0.0
 11
496.9135198622684
 21
255.6740265862018
 31
0.0
  0
LINE
  5
132A
330
1F
100
AcDbEntity
  8
0
 62
     7
 48
0.0803157806396485
100
AcDbLine
 10
489.6874303847292
 20
257.3145142571003
 30
0.0
 11
492.900061610315
 21
257.3145142571003
 31
0.0
  0
LINE
  5
132B
330
1F
100
AcDbEntity
  8
0
 62
     7
100
AcDbLine
 10
440.4135046034792
 20
257.3145142571003
 30
0.0
 11
489.6874303847292
 21
257.3145142571003
 31
0.0
  0
LINE
  5
132C
330
1F
100
AcDbEntity
  8
0
 62
     7
 48
0.0765110015869141
100
AcDbLine
 10
488.5963506728153
 20
259.1658326164753
 30
0.0
 11
491.6567907362916
 21
259.1658326164753
 31
0.0
  0
LINE
  5
132D
330
1F
100
AcDbEntity
  8
0
 62
     7
100
AcDbLine
 10
441.6567907362916
 20
259.1658326164753
 30
0.0
 11
488.5963506728153
 21
259.1658326164753
 31
0.0
  0
LINE
  5
132E
330
1F
100
AcDbEntity
  8
0
 62
     7
 48
0.0765110015869141
100
AcDbLine
 10
488.5963506728153
 20
311.0966187492878
 30
0.0
 11
491.6567907362916
 21
311.0966187492878
 31
0.0
  0
LINE
  5
132F
330
1F
100
AcDbEntity
  8
0
 62
     7
100
AcDbLine
 10
441.6567907362916
 20
311.0966187492878
 30
0.0
 11
488.5963506728153
 21
311.0966187492878
 31
0.0
  0
LINE
  5
1330
330
1F
100
AcDbEntity
  8
0
 62
     7
100
AcDbLine
 10
435.1567907362918
 20
251.2658387199909
 30
0.0
 11
494.300635340784
 21
251.2658387199909
 31
0.0
  0
LINE
  5
1331
330
1F
100
AcDbEntity
  8
0
 62
     7
 48
0.0964038848876953
100
AcDbLine
 10
494.300635340784
 20
251.2658387199909
 30
0.0
 11
498.1567907362918
 21
251.2658387199909
 31
0.0
  0
LINE
  5
1332
330
1F
100
AcDbEntity
  8
0
 62
     7
100
AcDbLine
 10
435.2567968398075
 20
251.1658326164753
 30
0.0
 11
494.2128820448854
 21
251.1658326164753
 31
0.0
  0
LINE
  5
1333
330
1F
100
AcDbEntity
  8
0
 62
     7
 48
0.0960975646972656
100
AcDbLine
 10
494.2128820448854
 20
251.1658326164753
 30
0.0
 11
498.0567846327762
 21
251.1658326164753
 31
0.0
  0
LINE
  5
1334
330
1F
100
AcDbEntity
  8
0
 62
     7
 48
0.2875
100
AcDbLine
 10
434.7567968398074
 20
343.1658326164753
 30
0.0
 11
434.7567968398074
 21
331.6658326164752
 31
0.0
  0
LINE
  5
1335
330
1F
100
AcDbEntity
  8
0
 62
     7
 48
0.2875
100
AcDbLine
 10
434.7567968398074
 20
331.6658326164752
 30
0.0
 11
434.7567968398074
 21
320.1658326164753
 31
0.0
  0
LINE
  5
1336
330
1F
100
AcDbEntity
  8
0
 62
     7
 48
0.2849998474121094
100
AcDbLine
 10
434.6567907362917
 20
343.0658265129596
 30
0.0
 11
434.6567907362917
 21
331.6658326164752
 31
0.0
  0
LINE
  5
1337
330
1F
100
AcDbEntity
  8
0
 62
     7
 48
0.2849998474121094
100
AcDbLine
 10
434.6567907362917
 20
331.6658326164752
 30
0.0
 11
434.6567907362917
 21
320.2658387199909
 31
0.0
  0
LINE
  5
1338
330
1F
100
AcDbEntity
  8
0
 62
     7
 48
0.2619377136230469
100
AcDbLine
 10
434.5567846327762
 20
331.6658326164752
 30
0.0
 11
434.5567846327762
 21
321.1883240715534
 31
0.0
  0
LINE
  5
1339
330
1F
100
AcDbEntity
  8
0
 62
     7
 48
0.2619377136230469
100
AcDbLine
 10
434.5567846327762
 20
342.1433411613971
 30
0.0
 11
434.5567846327762
 21
331.6658326164752
 31
0.0
  0
LINE
  5
133A
330
1F
100
AcDbEntity
  8
0
 62
     7
 48
0.0353553390593274
100
AcDbLine
 10
421.6567907362919
 20
322.1883240715534
 30
0.0
 11
422.6567907362919
 21
321.1883240715534
 31
0.0
  0
LINE
  5
133B
330
1F
100
AcDbEntity
  8
0
 62
     7
 48
0.0353553390593274
100
AcDbLine
 10
421.6567907362919
 20
341.1433411613971
 30
0.0
 11
422.6567907362919
 21
342.1433411613971
 31
0.0
  0
ARC
  5
133C
330
1F
100
AcDbEntity
  8
0
 62
     7
100
AcDbCircle
 10
441.5420446425417
 20
317.1658326164753
 30
0.0
 40
3.000000379431257
100
AcDbArc
 50
330.0000103210765
 51
89.99999237464162
  0
LINE
  5
133D
330
1F
100
AcDbEntity
  8
0
 62
     7
 48
0.1174681299901194
100
AcDbLine
 10
444.1401281386355
 20
315.6658326164753
 30
0.0
 11
441.7907629042606
 21
311.5966187492877
 31
0.0
  0
LINE
  5
133E
330
1F
100
AcDbEntity
  8
0
 62
     7
100
AcDbLine
 10
476.616080287073
 20
337.4158326164752
 30
0.0
 11
491.5228185683231
 21
311.5966187492877
 31
0.0
  0
ARC
  5
133F
330
1F
100
AcDbEntity
  8
0
 62
     7
100
AcDbCircle
 10
437.1567907362917
 20
253.8227082268268
 30
0.0
 40
2.000000000009495
100
AcDbArc
 50
112.2322777012223
 51
180.0000025044784
  0
ARC
  5
1340
330
1F
100
AcDbEntity
  8
0
 62
     7
100
AcDbCircle
 10
496.1567907362917
 20
253.8227082268268
 30
0.0
 40
2.000000000009499
100
AcDbArc
 50
359.9999974955216
 51
67.76772229877764
  0
LINE
  5
1341
330
1F
100
AcDbEntity
  8
0
 62
     7
 48
0.1083946693181346
100
AcDbLine
 10
492.900061610315
 20
257.3145142571003
 30
0.0
 11
496.9135198622684
 21
255.6740265862018
 31
0.0
  0
LINE
  5
1342
330
1F
100
AcDbEntity
  8
0
 62
     7
 48
0.1083939630970639
100
AcDbLine
 10
440.4135046034792
 20
257.3145142571003
 30
0.0
 11
436.4000768691043
 21
255.6740265862018
 31
0.0
  0
ARC
  5
1343
330
1F
100
AcDbEntity
  8
0
 62
     7
100
AcDbCircle
 10
493.6567907362918
 20
259.1658326164753
 30
0.0
 40
1.999999986602694
100
AcDbArc
 50
180.0000025044784
 51
247.7677256001897
  0
ARC
  5
1344
330
1F
100
AcDbEntity
  8
0
 62
     7
100
AcDbCircle
 10
439.6567907362918
 20
259.1658326164753
 30
0.0
 40
1.999999986602694
100
AcDbArc
 50
292.2322743998103
 51
359.9999974955216
  0
LINE
  5
1345
330
1F
100
AcDbEntity
  8
0
 62
     7
100
AcDbLine
 10
491.6567907362916
 20
311.0966187492878
 30
0.0
 11
491.6567907362916
 21
259.1658326164753
 31
0.0
  0
LINE
  5
1346
330
1F
100
AcDbEntity
  8
0
 62
     7
100
AcDbLine
 10
441.6567907362916
 20
311.0966187492878
 30
0.0
 11
441.6567907362916
 21
259.1658326164753
 31
0.0
  0
ARC
  5
1347
330
1F
100
AcDbEntity
  8
0
 62
     7
100
AcDbCircle
 10
490.6567907362918
 20
311.0966187492878
 30
0.0
 40
1.000000000359454
100
AcDbArc
 50
359.9999974955216
 51
29.99999833035007
  0
ARC
  5
1348
330
1F
100
AcDbEntity
  8
0
 62
     7
100
AcDbCircle
 10
442.6567907362917
 20
311.0966187492878
 30
0.0
 40
1.000000000359454
100
AcDbArc
 50
150.0000016696499
 51
180.0000025044784
  0
ARC
  5
1349
330
1F
100
AcDbEntity
  8
0
 62
     7
100
AcDbCircle
 10
466.6567907362916
 20
331.6658326164752
 30
0.0
 40
11.49999995799636
100
AcDbArc
 50
29.99999833035007
 51
90.00000008240577
  0
LINE
  5
134A
330
1F
100
AcDbEntity
  8
0
 62
     7
 48
0.0639217376708984
100
AcDbLine
 10
435.1567907362918
 20
253.8227082268268
 30
0.0
 11
435.1567907362918
 21
251.2658387199909
 31
0.0
  0
LINE
  5
134B
330
1F
100
AcDbEntity
  8
0
 62
     7
 48
0.0639217376708984
100
AcDbLine
 10
498.1567907362918
 20
253.8227082268268
 30
0.0
 11
498.1567907362918
 21
251.2658387199909
 31
0.0
  0
ARC
  5
134C
330
1F
100
AcDbEntity
  8
0
 62
     7
100
AcDbCircle
 10
435.2568578749637
 20
251.2659150139362
 30
0.0
 40
0.1000711212962392
100
AcDbArc
 50
180.0460653002403
 51
269.9539285528148
  0
ARC
  5
134D
330
1F
100
AcDbEntity
  8
0
 62
     7
100
AcDbCircle
 10
498.0567083388309
 20
251.2659150139362
 30
0.0
 40
0.1000711212962421
100
AcDbArc
 50
270.0460714471852
 51
359.9539346997596
  0
LINE
  5
134E
330
1F
100
AcDbEntity
  8
0
 62
     7
100
AcDbLine
 10
466.6567907362916
 20
343.1658326164753
 30
0.0
 11
434.7567968398074
 21
343.1658326164753
 31
0.0
  0
LINE
  5
134F
330
1F
100
AcDbEntity
  8
0
 62
     7
 48
0.1696311950683594
100
AcDbLine
 10
441.5420446425417
 20
320.1658326164753
 30
0.0
 11
434.7567968398074
 21
320.1658326164753
 31
0.0
  0
ARC
  5
1350
330
1F
100
AcDbEntity
  8
0
 62
     7
100
AcDbCircle
 10
434.7568578749637
 20
343.0657654778034
 30
0.0
 40
0.1000711528630428
100
AcDbArc
 50
90.0460841167572
 51
179.9539192181473
  0
ARC
  5
1351
330
1F
100
AcDbEntity
  8
0
 62
     7
100
AcDbCircle
 10
434.7568578749637
 20
320.2658997551471
 30
0.0
 40
0.1000711528630594
100
AcDbArc
 50
180.0460857908079
 51
269.9539148924385
  0
LINE
  5
1352
330
1F
100
AcDbEntity
  8
0
 62
     7
 48
0.2974998474121094
100
AcDbLine
 10
434.5567846327762
 20
321.1883240715534
 30
0.0
 11
422.6567907362919
 21
321.1883240715534
 31
0.0
  0
LINE
  5
1353
330
1F
100
AcDbEntity
  8
0
 62
     7
 48
0.2974998474121094
100
AcDbLine
 10
434.5567846327762
 20
342.1433411613971
 30
0.0
 11
422.6567907362919
 21
342.1433411613971
 31
0.0
  0
ARC
  5
1354
330
1F
100
AcDbEntity
  8
0
 62
     7
100
AcDbCircle
 10
434.5566930800417
 20
342.243408300069
 30
0.0
 40
0.1000711528630798
100
AcDbArc
 50
270.0460851075615
 51
359.9539142091921
  0
ARC
  5
1355
330
1F
100
AcDbEntity
  8
0
 62
     7
100
AcDbCircle
 10
434.5566930800417
 20
321.0882569328815
 30
0.0
 40
0.1000711528630697
100
AcDbArc
 50
0.0460807818510072
 51
89.95391588324279
  0
LINE
  5
1356
330
1F
100
AcDbEntity
  8
0
 62
     7
 48
0.025
100
AcDbLine
 10
421.6567907362919
 20
322.350341893819
 30
0.0
 11
422.6567907362919
 21
322.350341893819
 31
0.0
  0
LINE
  5
1357
330
1F
100
AcDbEntity
  8
0
 62
     7
 48
0.2974998474121094
100
AcDbLine
 10
422.6567907362919
 20
322.350341893819
 30
0.0
 11
434.5567846327762
 21
322.350341893819
 31
0.0
  0
LINE
  5
1358
330
1F
100
AcDbEntity
  8
0
 62
     7
 48
0.0025001525878906
100
AcDbLine
 10
434.5567846327762
 20
322.350341893819
 30
0.0
 11
434.6567907362917
 21
322.350341893819
 31
0.0
  0
LINE
  5
1359
330
1F
100
AcDbEntity
  8
0
 62
     7
 48
0.025
100
AcDbLine
 10
421.6567907362919
 20
340.9813233391315
 30
0.0
 11
422.6567907362919
 21
340.9813233391315
 31
0.0
  0
LINE
  5
135A
330
1F
100
AcDbEntity
  8
0
 62
     7
 48
0.2974998474121094
100
AcDbLine
 10
422.6567907362919
 20
340.9813233391315
 30
0.0
 11
434.5567846327762
 21
340.9813233391315
 31
0.0
  0
LINE
  5
135B
330
1F
100
AcDbEntity
  8
0
 62
     7
 48
0.0025001525878906
100
AcDbLine
 10
434.5567846327762
 20
340.9813233391315
 30
0.0
 11
434.6567907362917
 21
340.9813233391315
 31
0.0
  0
LINE
  5
135C
330
1F
100
AcDbEntity
  8
0
 62
     7
 48
0.2619377136230469
100
AcDbLine
 10
434.6567907362917
 20
331.6658326164752
 30
0.0
 11
434.6567907362917
 21
321.1883240715534
 31
0.0
  0
LINE
  5
135D
330
1F
100
AcDbEntity
  8
0
 62
     7
 48
0.2619354248046875
100
AcDbLine
 10
434.6567907362917
 20
342.1432496086628
 30
0.0
 11
434.6567907362917
 21
331.6658326164752
 31
0.0
  0
DIMENSION
  5
13A7
330
1F
100
AcDbEntity
  8
AM_5
100
AcDbDimension
  2
*D15
 10
405.6790059041745
 20
321.1883240715533
 30
0.0
 11
399.1783169277965
 21
302.6883240715534
 31
0.0
 70
    32
  1
R1/2"
 71
     5
 42
20.95501708984375
  3
AM_DIN$0
100
AcDbAlignedDimension
 13
422.6567907362919
 23
342.1433411613971
 33
0.0
 14
422.6567907362919
 24
321.1883240715534
 34
0.0
 50
90.0
100
AcDbRotatedDimension
1001
ACAD
1000
DSTYLE
1002
{
1070
    40
1040
2.0
1002
}
  0
DIMENSION
  5
13A8
330
1F
100
AcDbEntity
  8
AM_5
100
AcDbDimension
  2
*D16
 10
498.1567907362918
 20
364.2047053403108
 30
0.0
 11
459.4067907362918
 21
370.7047053403108
 31
0.0
 70
    32
  1
L
 71
     5
 42
77.49999999999989
  3
AM_DIN$0
100
AcDbAlignedDimension
 13
420.6567907362917
 23
331.6658326164752
 33
0.0
 14
498.1567907362918
 24
252.5442734734089
 34
0.0
100
AcDbRotatedDimension
1001
ACAD
1000
DSTYLE
1002
{
1070
    40
1040
2.0
1002
}
  0
DIMENSION
  5
13A9
330
1F
100
AcDbEntity
  8
AM_5
100
AcDbDimension
  2
*D17
 10
528.5706394154193
 20
343.1658326164752
 30
0.0
 11
528.5706394154192
 21
277.1850749397394
 31
0.0
 70
   160
  1
H
 71
     5
 42
121.9999999999999
  3
AM_DIN$0
100
AcDbAlignedDimension
 13
467.4225835829715
 23
221.1658326164752
 33
0.0
 14
450.7067937880496
 24
343.1658326164753
 34
0.0
 50
90.0
100
AcDbRotatedDimension
1001
ACAD
1000
DSTYLE
1002
{
1070
    40
1040
2.0
1002
}
  0
DIMENSION
  5
13AA
330
1F
100
AcDbEntity
  8
AM_5
100
AcDbDimension
  2
*D18
 10
475.9557409316043
 20
204.8529886863668
 30
0.0
 11
504.3642547111319
 21
211.3529886863668
 31
0.0
 70
    32
  1
Anschluss
 71
     5
 42
18.5860595703125
  3
AM_DIN$0
100
AcDbAlignedDimension
 13
457.3696813612918
 23
221.1658326164752
 33
0.0
 14
475.9557409316043
 24
221.1658326164752
 34
0.0
100
AcDbRotatedDimension
1001
ACAD
1000
DSTYLE
1002
{
1070
    40
1040
2.0
1002
}
  0
DIMENSION
  5
13AB
330
1F
100
AcDbEntity
  8
AM_5
100
AcDbDimension
  2
*D19
 10
435.1567907362918
 20
181.1638256329869
 30
0.0
 11
466.6567907362916
 21
187.6638256329869
 31
0.0
 70
    32
  1
%%c<>
 71
     5
 42
63.0
  3
AM_DIN$0
100
AcDbAlignedDimension
 13
498.1567907362918
 23
249.8658295647175
 33
0.0
 14
435.1567907362918
 24
249.8658295647175
 34
0.0
100
AcDbRotatedDimension
1001
ACAD
1000
DSTYLE
1002
{
1070
    40
1040
2.0
1002
}
  0
LINE
  5
17E2
330
1F
100
AcDbEntity
  8
LOGO_VON_SCHLASSE_120709
 62
     7
100
AcDbLine
 10
520.5799509765502
 20
76.38004631403738
 30
0.0
 11
520.5799509765502
 21
79.18660413595855
 31
0.0
  0
LINE
  5
17E3
330
1F
100
AcDbEntity
  8
LOGO_VON_SCHLASSE_120709
 62
     7
100
AcDbLine
 10
520.5799509765502
 20
79.18660413595855
 30
0.0
 11
518.476221735727
 21
79.18660413595855
 31
0.0
  0
SPLINE
  5
17E4
330
1F
100
AcDbEntity
  8
LOGO_VON_SCHLASSE_120709
 62
     7
100
AcDbSpline
210
0.0
220
0.0
230
1.0
 70
     8
 71
     3
 72
     8
 73
     4
 74
     0
 42
0.0000000001
 43
0.0000000001
 40
8.739716666666684
 40
8.739716666666684
 40
8.739716666666684
 40
8.739716666666684
 40
9.739716666666687
 40
9.739716666666687
 40
9.739716666666687
 40
9.739716666666687
 10
518.4762218917922
 20
79.18660394867995
 30
0.0
 10
515.4825606146041
 20
79.18660394867995
 30
0.0
 10
514.1070303402605
 20
77.35144043136763
 30
0.0
 10
514.1070303402605
 20
74.46381787129356
 30
0.0
  0
LINE
  5
17E5
330
1F
100
AcDbEntity
  8
LOGO_VON_SCHLASSE_120709
 62
     7
100
AcDbLine
 10
514.1070303714736
 20
74.46381799614623
 30
0.0
 11
514.1070303714736
 21
65.42872468837119
 31
0.0
  0
LINE
  5
17E6
330
1F
100
AcDbEntity
  8
LOGO_VON_SCHLASSE_120709
 62
     7
100
AcDbLine
 10
514.1070303714736
 20
65.42872468837119
 30
0.0
 11
517.073934465076
 21
65.42872468837119
 31
0.0
  0
LINE
  5
17E7
330
1F
100
AcDbEntity
  8
LOGO_VON_SCHLASSE_120709
 62
     7
100
AcDbLine
 10
517.073934465076
 20
65.42872468837119
 30
0.0
 11
517.073934465076
 21
74.19406317823071
 31
0.0
  0
SPLINE
  5
17E8
330
1F
100
AcDbEntity
  8
LOGO_VON_SCHLASSE_120709
 62
     7
100
AcDbSpline
210
0.0
220
0.0
230
1.0
 70
     8
 71
     3
 72
     8
 73
     4
 74
     0
 42
0.0000000001
 43
0.0000000001
 40
46.70306666666665
 40
46.70306666666665
 40
46.70306666666665
 40
46.70306666666665
 40
47.70306666666665
 40
47.70306666666665
 40
47.70306666666665
 40
47.70306666666665
 10
517.0739341841586
 20
74.19406330308304
 30
0.0
 10
517.0739341841586
 20
75.54323255055528
 30
0.0
 10
517.6402007538695
 20
76.3800465013161
 30
0.0
 10
519.096597937714
 20
76.3800465013161
 30
0.0
  0
LINE
  5
17E9
330
1F
100
AcDbEntity
  8
LOGO_VON_SCHLASSE_120709
 62
     7
100
AcDbLine
 10
519.0965980937797
 20
76.38004631403738
 30
0.0
 11
520.5799509765502
 21
76.38004631403738
 31
0.0
  0
LINE
  5
17EA
330
1F
100
AcDbEntity
  8
LOGO_VON_SCHLASSE_120709
 62
     7
100
AcDbLine
 10
531.8257431418714
 20
71.17352567067836
 30
0.0
 11
531.8257431418714
 21
73.87027829024176
 31
0.0
  0
SPLINE
  5
17EB
330
1F
100
AcDbEntity
  8
LOGO_VON_SCHLASSE_120709
 62
     7
100
AcDbSpline
210
0.0
220
0.0
230
1.0
 70
     8
 71
     3
 72
     8
 73
     4
 74
     0
 42
0.0000000001
 43
0.0000000001
 40
4.799894444444444
 40
4.799894444444444
 40
4.799894444444444
 40
4.799894444444444
 40
5.799894444444443
 40
5.799894444444443
 40
5.799894444444443
 40
5.799894444444443
 10
531.825743204298
 20
73.87027853994645
 30
0.0
 10
531.825743204298
 20
77.05500771115019
 30
0.0
 10
530.2076122014525
 20
79.18688143317336
 30
0.0
 10
527.0248650623446
 20
79.18688143317336
 30
0.0
  0
LINE
  5
17EC
330
1F
100
AcDbEntity
  8
LOGO_VON_SCHLASSE_120709
 62
     7
100
AcDbLine
 10
527.0248651871975
 20
79.18688168287833
 30
0.0
 11
526.4587964461382
 21
79.18688168287833
 31
0.0
  0
SPLINE
  5
17ED
330
1F
100
AcDbEntity
  8
LOGO_VON_SCHLASSE_120709
 62
     7
100
AcDbSpline
210
0.0
220
0.0
230
1.0
 70
     8
 71
     3
 72
     8
 73
     4
 74
     0
 42
0.0000000001
 43
0.0000000001
 40
6.807427777777782
 40
6.807427777777782
 40
6.807427777777782
 40
6.807427777777782
 40
7.807427777777782
 40
7.807427777777782
 40
7.807427777777782
 40
7.807427777777782
 10
526.4587966958436
 20
79.18688143317336
 30
0.0
 10
523.2490939202346
 20
79.18688143317336
 30
0.0
 10
521.5770516443897
 20
77.05500771115019
 30
0.0
 10
521.5770516443897
 20
73.87027853994645
 30
0.0
  0
LINE
  5
17EE
330
1F
100
AcDbEntity
  8
LOGO_VON_SCHLASSE_120709
 62
     7
100
AcDbLine
 10
521.5770517692426
 20
73.87027829024176
 30
0.0
 11
521.5770517692426
 21
70.74203740831949
 31
0.0
  0
SPLINE
  5
17EF
330
1F
100
AcDbEntity
  8
LOGO_VON_SCHLASSE_120709
 62
     7
100
AcDbSpline
210
0.0
220
0.0
230
1.0
 70
     8
 71
     3
 72
     8
 73
     4
 74
     0
 42
0.0000000001
 43
0.0000000001
 40
13.37531944444445
 40
13.37531944444445
 40
13.37531944444445
 40
13.37531944444445
 40
14.37531944444445
 40
14.37531944444445
 40
14.37531944444445
 40
14.37531944444445
 10
521.5770516443897
 20
70.74203728346718
 30
0.0
 10
521.5770516443897
 20
67.20886686985749
 30
0.0
 10
523.5458041249455
 20
65.42880384480269
 30
0.0
 10
526.8090217671347
 20
65.42880384480269
 30
0.0
  0
LINE
  5
17F0
330
1F
100
AcDbEntity
  8
LOGO_VON_SCHLASSE_120709
 62
     7
100
AcDbLine
 10
526.8090218919876
 20
65.42880390722889
 30
0.0
 11
531.15145582295
 21
65.42880390722889
 31
0.0
  0
LINE
  5
17F1
330
1F
100
AcDbEntity
  8
LOGO_VON_SCHLASSE_120709
 62
     7
100
AcDbLine
 10
531.15145582295
 20
65.42880390722889
 30
0.0
 11
531.15145582295
 21
68.07204166021098
 31
0.0
  0
LINE
  5
17F2
330
1F
100
AcDbEntity
  8
LOGO_VON_SCHLASSE_120709
 62
     7
100
AcDbLine
 10
531.15145582295
 20
68.07204166021098
 30
0.0
 11
527.0789744761287
 21
68.07204166021098
 31
0.0
  0
SPLINE
  5
17F3
330
1F
100
AcDbEntity
  8
LOGO_VON_SCHLASSE_120709
 62
     7
100
AcDbSpline
210
0.0
220
0.0
230
1.0
 70
     8
 71
     3
 72
     8
 73
     4
 74
     0
 42
0.0000000001
 43
0.0000000001
 40
34.05749722222223
 40
34.05749722222223
 40
34.05749722222223
 40
34.05749722222223
 40
35.05749722222223
 40
35.05749722222223
 40
35.05749722222223
 40
35.05749722222223
 10
527.0789745385541
 20
68.07204184748958
 30
0.0
 10
525.3799766262095
 20
68.07204184748958
 30
0.0
 10
524.5435590818677
 20
69.12370807741289
 30
0.0
 10
524.5435590818677
 20
70.55314962475664
 30
0.0
  0
LINE
  5
17F4
330
1F
100
AcDbEntity
  8
LOGO_VON_SCHLASSE_120709
 62
     7
100
AcDbLine
 10
524.5435592067206
 20
70.55314987446154
 30
0.0
 11
524.5435592067206
 21
71.17352567067836
 31
0.0
  0
LINE
  5
17F5
330
1F
100
AcDbEntity
  8
LOGO_VON_SCHLASSE_120709
 62
     7
100
AcDbLine
 10
524.5435592067206
 20
71.17352567067836
 30
0.0
 11
531.8257431418714
 21
71.17352567067836
 31
0.0
  0
LINE
  5
17F6
330
1F
100
AcDbEntity
  8
LOGO_VON_SCHLASSE_120709
 62
     7
100
AcDbLine
 10
528.8588396101052
 20
73.3850768332396
 30
0.0
 11
524.5435592067206
 21
73.3850768332396
 31
0.0
  0
LINE
  5
17F7
330
1F
100
AcDbEntity
  8
LOGO_VON_SCHLASSE_120709
 62
     7
100
AcDbLine
 10
524.5435592067206
 20
73.3850768332396
 30
0.0
 11
524.5435592067206
 21
74.14023143621894
 31
0.0
  0
SPLINE
  5
17F8
330
1F
100
AcDbEntity
  8
LOGO_VON_SCHLASSE_120709
 62
     7
100
AcDbSpline
210
0.0
220
0.0
230
1.0
 70
     8
 71
     3
 72
     8
 73
     4
 74
     0
 42
0.0000000001
 43
0.0000000001
 40
9.024761111111118
 40
9.024761111111118
 40
9.024761111111118
 40
9.024761111111118
 40
10.02476111111112
 40
10.02476111111112
 40
10.02476111111112
 40
10.02476111111112
 10
524.5435590818677
 20
74.14023131136655
 30
0.0
 10
524.5435590818677
 20
75.48940055883885
 30
0.0
 10
525.0563107849996
 20
76.70398982702029
 30
0.0
 10
526.4857523323426
 20
76.70398982702029
 30
0.0
  0
LINE
  5
17F9
330
1F
100
AcDbEntity
  8
LOGO_VON_SCHLASSE_120709
 62
     7
100
AcDbLine
 10
526.4857522074906
 20
76.70398963974143
 30
0.0
 11
526.9439979031401
 21
76.70398963974143
 31
0.0
  0
SPLINE
  5
17FA
330
1F
100
AcDbEntity
  8
LOGO_VON_SCHLASSE_120709
 62
     7
100
AcDbSpline
210
0.0
220
0.0
230
1.0
 70
     8
 71
     3
 72
     8
 73
     4
 74
     0
 42
0.0000000001
 43
0.0000000001
 40
10.84038333333334
 40
10.84038333333334
 40
10.84038333333334
 40
10.84038333333334
 40
11.84038333333335
 40
11.84038333333335
 40
11.84038333333335
 40
11.84038333333335
 10
526.9439981528441
 20
76.70398982702029
 30
0.0
 10
528.3736379033975
 20
76.70398982702029
 30
0.0
 10
528.8588393603999
 20
75.48940055883885
 30
0.0
 10
528.8588393603999
 20
74.14023131136655
 30
0.0
  0
LINE
  5
17FB
330
1F
100
AcDbEntity
  8
LOGO_VON_SCHLASSE_120709
 62
     7
100
AcDbLine
 10
528.8588396101052
 20
74.14023143621894
 30
0.0
 11
528.8588396101052
 21
73.3850768332396
 31
0.0
  0
LINE
  5
17FC
330
1F
100
AcDbEntity
  8
LOGO_VON_SCHLASSE_120709
 62
     7
100
AcDbLine
 10
539.8485335019936
 20
81.8296637869701
 30
0.0
 11
539.8485335019936
 21
84.58052569546435
 31
0.0
  0
LINE
  5
17FD
330
1F
100
AcDbEntity
  8
LOGO_VON_SCHLASSE_120709
 62
     7
100
AcDbLine
 10
539.8485335019936
 20
84.58052569546435
 30
0.0
 11
537.8797808341601
 21
84.58052569546435
 31
0.0
  0
SPLINE
  5
17FE
330
1F
100
AcDbEntity
  8
LOGO_VON_SCHLASSE_120709
 62
     7
100
AcDbSpline
210
0.0
220
0.0
230
1.0
 70
     8
 71
     3
 72
     8
 73
     4
 74
     0
 42
0.0000000001
 43
0.0000000001
 40
8.400344444444426
 40
8.400344444444426
 40
8.400344444444426
 40
8.400344444444426
 40
9.400344444444426
 40
9.400344444444426
 40
9.400344444444426
 40
9.400344444444426
 10
537.8797809590117
 20
84.58052591395626
 30
0.0
 10
535.8838746387471
 20
84.58052591395626
 30
0.0
 10
534.3194567056925
 20
83.58277095703311
 30
0.0
 10
534.3194567056925
 20
80.69693222584506
 30
0.0
  0
LINE
  5
17FF
330
1F
100
AcDbEntity
  8
LOGO_VON_SCHLASSE_120709
 62
     7
100
AcDbLine
 10
534.3194567056936
 20
80.69693244433684
 30
0.0
 11
534.3194567056936
 21
79.18662380021403
 31
0.0
  0
LINE
  5
1800
330
1F
100
AcDbEntity
  8
LOGO_VON_SCHLASSE_120709
 62
     7
100
AcDbLine
 10
534.3194567056936
 20
79.18662380021403
 30
0.0
 11
532.4317690881425
 21
79.18662380021403
 31
0.0
  0
LINE
  5
1801
330
1F
100
AcDbEntity
  8
LOGO_VON_SCHLASSE_120709
 62
     7
100
AcDbLine
 10
532.4317690881425
 20
79.18662380021403
 30
0.0
 11
532.4317690881425
 21
76.56895407398669
 31
0.0
  0
LINE
  5
1802
330
1F
100
AcDbEntity
  8
LOGO_VON_SCHLASSE_120709
 62
     7
100
AcDbLine
 10
532.4317690881425
 20
76.56895407398669
 30
0.0
 11
534.3194567056936
 21
76.56895407398669
 31
0.0
  0
LINE
  5
1803
330
1F
100
AcDbEntity
  8
LOGO_VON_SCHLASSE_120709
 62
     7
100
AcDbLine
 10
534.3194567056936
 20
76.56895407398669
 30
0.0
 11
534.3194567056936
 21
65.42894268068859
 31
0.0
  0
LINE
  5
1804
330
1F
100
AcDbEntity
  8
LOGO_VON_SCHLASSE_120709
 62
     7
100
AcDbLine
 10
534.3194567056936
 20
65.42894268068859
 30
0.0
 11
537.286360799296
 21
65.42894268068859
 31
0.0
  0
LINE
  5
1805
330
1F
100
AcDbEntity
  8
LOGO_VON_SCHLASSE_120709
 62
     7
100
AcDbLine
 10
537.286360799296
 20
65.42894268068859
 30
0.0
 11
537.286360799296
 21
76.56895407398669
 31
0.0
  0
LINE
  5
1806
330
1F
100
AcDbEntity
  8
LOGO_VON_SCHLASSE_120709
 62
     7
100
AcDbLine
 10
537.286360799296
 20
76.56895407398669
 30
0.0
 11
539.5787786840785
 21
76.56895407398669
 31
0.0
  0
LINE
  5
1807
330
1F
100
AcDbEntity
  8
LOGO_VON_SCHLASSE_120709
 62
     7
100
AcDbLine
 10
539.5787786840785
 20
76.56895407398669
 30
0.0
 11
539.5787786840785
 21
79.18662380021403
 31
0.0
  0
LINE
  5
1808
330
1F
100
AcDbEntity
  8
LOGO_VON_SCHLASSE_120709
 62
     7
100
AcDbLine
 10
539.5787786840785
 20
79.18662380021403
 30
0.0
 11
537.286360799296
 21
79.18662380021403
 31
0.0
  0
LINE
  5
1809
330
1F
100
AcDbEntity
  8
LOGO_VON_SCHLASSE_120709
 62
     7
100
AcDbLine
 10
537.286360799296
 20
79.18662380021403
 30
0.0
 11
537.286360799296
 21
80.58910939892685
 31
0.0
  0
SPLINE
  5
180A
330
1F
100
AcDbEntity
  8
LOGO_VON_SCHLASSE_120709
 62
     7
100
AcDbSpline
210
0.0
220
0.0
230
1.0
 70
     8
 71
     3
 72
     8
 73
     4
 74
     0
 42
0.0000000001
 43
0.0000000001
 40
83.7196861111111
 40
83.7196861111111
 40
83.7196861111111
 40
83.7196861111111
 40
84.7196861111111
 40
84.7196861111111
 40
84.7196861111111
 40
84.7196861111111
 10
537.2863605495902
 20
80.58910967984456
 30
0.0
 10
537.2863605495902
 20
81.58686463676765
 30
0.0
 10
537.8258696860121
 20
81.82966356847829
 30
0.0
 10
538.4460475287235
 20
81.82966356847829
 30
0.0
  0
LINE
  5
180B
330
1F
100
AcDbEntity
  8
LOGO_VON_SCHLASSE_120709
 62
     7
100
AcDbLine
 10
538.4460473414455
 20
81.8296637869701
 30
0.0
 11
539.8485335019936
 21
81.8296637869701
 31
0.0
  0
LINE
  5
180C
330
1F
100
AcDbEntity
  8
LOGO_VON_SCHLASSE_120709
 62
     7
100
AcDbLine
 10
544.3656242260731
 20
84.580407148096
 30
0.0
 11
541.3989184605325
 21
84.580407148096
 31
0.0
  0
LINE
  5
180D
330
1F
100
AcDbEntity
  8
LOGO_VON_SCHLASSE_120709
 62
     7
100
AcDbLine
 10
541.3989184605325
 20
84.580407148096
 30
0.0
 11
541.3989184605325
 21
65.42842747719634
 31
0.0
  0
LINE
  5
180E
330
1F
100
AcDbEntity
  8
LOGO_VON_SCHLASSE_120709
 62
     7
100
AcDbLine
 10
541.3989184605325
 20
65.42842747719634
 30
0.0
 11
544.3656242260731
 21
65.42842747719634
 31
0.0
  0
LINE
  5
180F
330
1F
100
AcDbEntity
  8
LOGO_VON_SCHLASSE_120709
 62
     7
100
AcDbLine
 10
544.3656242260731
 20
65.42842747719634
 30
0.0
 11
544.3656242260731
 21
84.580407148096
 31
0.0
  0
LINE
  5
1810
330
1F
100
AcDbEntity
  8
LOGO_VON_SCHLASSE_120709
 62
     7
100
AcDbLine
 10
556.6652232784076
 20
71.1733273426163
 30
0.0
 11
556.6652232784076
 21
73.87027829024176
 31
0.0
  0
SPLINE
  5
1811
330
1F
100
AcDbEntity
  8
LOGO_VON_SCHLASSE_120709
 62
     7
100
AcDbSpline
210
0.0
220
0.0
230
1.0
 70
     8
 71
     3
 72
     8
 73
     4
 74
     0
 42
0.0000000001
 43
0.0000000001
 40
4.800247222222195
 40
4.800247222222195
 40
4.800247222222195
 40
4.800247222222195
 40
5.800247222222195
 40
5.800247222222195
 40
5.800247222222195
 40
5.800247222222195
 10
556.6652234968996
 20
73.87027853994645
 30
0.0
 10
556.6652234968996
 20
77.05461130473103
 30
0.0
 10
555.0470924940541
 20
79.18668322996381
 30
0.0
 10
551.864345354947
 20
79.18668322996381
 30
0.0
  0
LINE
  5
1812
330
1F
100
AcDbEntity
  8
LOGO_VON_SCHLASSE_120709
 62
     7
100
AcDbLine
 10
551.8643453237337
 20
79.18668335481614
 30
0.0
 11
551.2978804883855
 21
79.18668335481614
 31
0.0
  0
SPLINE
  5
1813
330
1F
100
AcDbEntity
  8
LOGO_VON_SCHLASSE_120709
 62
     7
100
AcDbSpline
210
0.0
220
0.0
230
1.0
 70
     8
 71
     3
 72
     8
 73
     4
 74
     0
 42
0.0000000001
 43
0.0000000001
 40
6.808486111111077
 40
6.808486111111077
 40
6.808486111111077
 40
6.808486111111077
 40
7.808486111111077
 40
7.808486111111077
 40
7.808486111111077
 40
7.808486111111077
 10
551.297880582025
 20
79.18668322996381
 30
0.0
 10
548.0885742128362
 20
79.18668322996381
 30
0.0
 10
546.4163337337815
 20
77.05461130473103
 30
0.0
 10
546.4163337337815
 20
73.87027853994645
 30
0.0
  0
LINE
  5
1814
330
1F
100
AcDbEntity
  8
LOGO_VON_SCHLASSE_120709
 62
     7
100
AcDbLine
 10
546.4163335777166
 20
73.87027829024176
 30
0.0
 11
546.4163335777166
 21
70.74183908025769
 31
0.0
  0
SPLINE
  5
1815
330
1F
100
AcDbEntity
  8
LOGO_VON_SCHLASSE_120709
 62
     7
100
AcDbSpline
210
0.0
220
0.0
230
1.0
 70
     8
 71
     3
 72
     8
 73
     4
 74
     0
 42
0.0000000001
 43
0.0000000001
 40
13.37673055555552
 40
13.37673055555552
 40
13.37673055555552
 40
13.37673055555552
 40
14.37673055555552
 40
14.37673055555552
 40
14.37673055555552
 40
14.37673055555552
 10
546.4163337337815
 20
70.7418390802576
 30
0.0
 10
546.4163337337815
 20
67.20866866664785
 30
0.0
 10
548.3854826207561
 20
65.42880384480269
 30
0.0
 10
551.648502059736
 20
65.42880384480269
 30
0.0
  0
LINE
  5
1816
330
1F
100
AcDbEntity
  8
LOGO_VON_SCHLASSE_120709
 62
     7
100
AcDbLine
 10
551.6485020285231
 20
65.42880390722889
 30
0.0
 11
555.9909359594866
 21
65.42880390722889
 31
0.0
  0
LINE
  5
1817
330
1F
100
AcDbEntity
  8
LOGO_VON_SCHLASSE_120709
 62
     7
100
AcDbLine
 10
555.9909359594866
 20
65.42880390722889
 30
0.0
 11
555.9909359594866
 21
68.07204166021098
 31
0.0
  0
LINE
  5
1818
330
1F
100
AcDbEntity
  8
LOGO_VON_SCHLASSE_120709
 62
     7
100
AcDbLine
 10
555.9909359594866
 20
68.07204166021098
 30
0.0
 11
551.918454612665
 21
68.07204166021098
 31
0.0
  0
SPLINE
  5
1819
330
1F
100
AcDbEntity
  8
LOGO_VON_SCHLASSE_120709
 62
     7
100
AcDbSpline
210
0.0
220
0.0
230
1.0
 70
     8
 71
     3
 72
     8
 73
     4
 74
     0
 42
0.0000000001
 43
0.0000000001
 40
34.05890833333331
 40
34.05890833333331
 40
34.05890833333331
 40
34.05890833333331
 40
35.05890833333331
 40
35.05890833333331
 40
35.05890833333331
 40
35.05890833333331
 10
551.9184548311566
 20
68.07204184748958
 30
0.0
 10
550.219456918812
 20
68.07204184748958
 30
0.0
 10
549.3832375776796
 20
69.12350987420321
 30
0.0
 10
549.3832375776796
 20
70.5529514215472
 30
0.0
  0
LINE
  5
181A
330
1F
100
AcDbEntity
  8
LOGO_VON_SCHLASSE_120709
 62
     7
100
AcDbLine
 10
549.3832376713192
 20
70.5529515463996
 30
0.0
 11
549.3832376713192
 21
71.1733273426163
 31
0.0
  0
LINE
  5
181B
330
1F
100
AcDbEntity
  8
LOGO_VON_SCHLASSE_120709
 62
     7
100
AcDbLine
 10
549.3832376713192
 20
71.1733273426163
 30
0.0
 11
556.6652232784076
 21
71.1733273426163
 31
0.0
  0
LINE
  5
181C
330
1F
100
AcDbEntity
  8
LOGO_VON_SCHLASSE_120709
 62
     7
100
AcDbLine
 10
553.6983197466406
 20
73.38487906701344
 30
0.0
 11
549.3832376713192
 21
73.38487906701344
 31
0.0
  0
LINE
  5
181D
330
1F
100
AcDbEntity
  8
LOGO_VON_SCHLASSE_120709
 62
     7
100
AcDbLine
 10
549.3832376713192
 20
73.38487906701344
 30
0.0
 11
549.3832376713192
 21
74.14023143621894
 31
0.0
  0
SPLINE
  5
181E
330
1F
100
AcDbEntity
  8
LOGO_VON_SCHLASSE_120709
 62
     7
100
AcDbSpline
210
0.0
220
0.0
230
1.0
 70
     8
 71
     3
 72
     8
 73
     4
 74
     0
 42
0.0000000001
 43
0.0000000001
 40
9.024761111111132
 40
9.024761111111132
 40
9.024761111111132
 40
9.024761111111132
 40
10.02476111111113
 40
10.02476111111113
 40
10.02476111111113
 40
10.02476111111113
 10
549.3832375776796
 20
74.14023131136655
 30
0.0
 10
549.3832375776796
 20
75.48940055883885
 30
0.0
 10
549.8957910776011
 20
76.7037916238104
 30
0.0
 10
551.3250344217351
 20
76.7037916238104
 30
0.0
  0
LINE
  5
181F
330
1F
100
AcDbEntity
  8
LOGO_VON_SCHLASSE_120709
 62
     7
100
AcDbLine
 10
551.325034577801
 20
76.70379187351539
 30
0.0
 11
551.7834786015116
 21
76.70379187351539
 31
0.0
  0
SPLINE
  5
1820
330
1F
100
AcDbEntity
  8
LOGO_VON_SCHLASSE_120709
 62
     7
100
AcDbSpline
210
0.0
220
0.0
230
1.0
 70
     8
 71
     3
 72
     8
 73
     4
 74
     0
 42
0.0000000001
 43
0.0000000001
 40
10.84073611111112
 40
10.84073611111112
 40
10.84073611111112
 40
10.84073611111112
 40
11.84073611111112
 40
11.84073611111112
 40
11.84073611111112
 40
11.84073611111112
 10
551.783478445446
 20
76.7037916238104
 30
0.0
 10
553.2129199927901
 20
76.7037916238104
 30
0.0
 10
553.6983196530015
 20
75.48940055883885
 30
0.0
 10
553.6983196530015
 20
74.14023131136655
 30
0.0
  0
LINE
  5
1821
330
1F
100
AcDbEntity
  8
LOGO_VON_SCHLASSE_120709
 62
     7
100
AcDbLine
 10
553.6983197466406
 20
74.14023143621894
 30
0.0
 11
553.6983197466406
 21
73.38487906701344
 31
0.0
  0
SPLINE
  5
1822
330
1F
100
AcDbEntity
  8
LOGO_VON_SCHLASSE_120709
 62
     7
100
AcDbSpline
210
0.0
220
0.0
230
1.0
 70
     8
 71
     3
 72
     8
 73
     4
 74
     0
 42
0.0000000001
 43
0.0000000001
 40
0.0
 40
0.0
 40
0.0
 40
0.0
 40
1.0
 40
1.0
 40
1.0
 40
1.0
 10
566.501057771295
 20
72.3312900786788
 30
0.0
 10
567.713466804171
 20
73.24996195498748
 30
0.0
 10
568.338754296336
 20
74.73192735900498
 30
0.0
 10
568.338599727122
 20
76.677490057902
 30
0.0
  0
LINE
  5
1823
330
1F
100
AcDbEntity
  8
LOGO_VON_SCHLASSE_120709
 62
     7
100
AcDbLine
 10
568.3385995086305
 20
76.67749008911515
 30
0.0
 11
568.3384017424041
 21
79.17227395026809
 31
0.0
  0
LINE
  5
1824
330
1F
100
AcDbEntity
  8
LOGO_VON_SCHLASSE_120709
 62
     7
100
AcDbLine
 10
568.3384017424041
 20
79.17227395026809
 30
0.0
 11
565.3596052689494
 21
79.17227395026809
 31
0.0
  0
LINE
  5
1825
330
1F
100
AcDbEntity
  8
LOGO_VON_SCHLASSE_120709
 62
     7
100
AcDbLine
 10
565.3596052689494
 20
79.17227395026809
 30
0.0
 11
565.3596052689494
 21
76.40654642649945
 31
0.0
  0
SPLINE
  5
1826
330
1F
100
AcDbEntity
  8
LOGO_VON_SCHLASSE_120709
 62
     7
100
AcDbSpline
210
0.0
220
0.0
230
1.0
 70
     8
 71
     3
 72
     8
 73
     4
 74
     0
 42
0.0000000001
 43
0.0000000001
 40
15.66497223623581
 40
15.66497223623581
 40
15.66497223623581
 40
15.66497223623581
 40
16.66497223623581
 40
16.66497223623581
 40
16.66497223623581
 40
16.66497223623581
 10
565.3596054874415
 20
76.40654627043414
 30
0.0
 10
565.3596054874415
 20
75.05143092667499
 30
0.0
 10
564.8450699554246
 20
73.84338236440903
 30
0.0
 10
563.4096823117941
 20
73.84338236440903
 30
0.0
  0
LINE
  5
1827
330
1F
100
AcDbEntity
  8
LOGO_VON_SCHLASSE_120709
 62
     7
100
AcDbLine
 10
563.4096825302861
 20
73.84338264532705
 30
0.0
 11
562.949256349626
 21
73.84338264532705
 31
0.0
  0
SPLINE
  5
1828
330
1F
100
AcDbEntity
  8
LOGO_VON_SCHLASSE_120709
 62
     7
100
AcDbSpline
210
0.0
220
0.0
230
1.0
 70
     8
 71
     3
 72
     8
 73
     4
 74
     0
 42
0.0000000001
 43
0.0000000001
 40
17.48447501401361
 40
17.48447501401361
 40
17.48447501401361
 40
17.48447501401361
 40
18.48447501401361
 40
18.48447501401361
 40
18.48447501401361
 40
18.48447501401361
 10
562.9492562559875
 20
73.84338236440903
 30
0.0
 10
561.5138686123566
 20
73.84338236440903
 30
0.0
 10
561.0264869200491
 20
75.05143092667499
 30
0.0
 10
561.0264869200491
 20
76.40654627043414
 30
0.0
  0
LINE
  5
1829
330
1F
100
AcDbEntity
  8
LOGO_VON_SCHLASSE_120709
 62
     7
100
AcDbLine
 10
561.0264871385411
 20
76.40654642649945
 30
0.0
 11
561.0264871385411
 21
79.17227395026809
 31
0.0
  0
LINE
  5
182A
330
1F
100
AcDbEntity
  8
LOGO_VON_SCHLASSE_120709
 62
     7
100
AcDbLine
 10
561.0264871385411
 20
79.17227395026809
 30
0.0
 11
558.0472945707981
 21
79.17227395026809
 31
0.0
  0
LINE
  5
182B
330
1F
100
AcDbEntity
  8
LOGO_VON_SCHLASSE_120709
 62
     7
100
AcDbLine
 10
558.0472945707981
 20
79.17227395026809
 30
0.0
 11
558.0472945707981
 21
76.67749008911515
 31
0.0
  0
SPLINE
  5
182C
330
1F
100
AcDbEntity
  8
LOGO_VON_SCHLASSE_120709
 62
     7
100
AcDbSpline
210
0.0
220
0.0
230
1.0
 70
     8
 71
     3
 72
     8
 73
     4
 74
     0
 42
0.0000000001
 43
0.0000000001
 40
33.1501527917914
 40
33.1501527917914
 40
33.1501527917914
 40
33.1501527917914
 40
34.1501527917914
 40
34.1501527917914
 40
34.1501527917914
 40
34.1501527917914
 10
558.0472944771586
 20
76.677490057902
 30
0.0
 10
558.0472944771586
 20
74.68634061466595
 30
0.0
 10
558.677977089977
 20
73.17405012572634
 30
0.0
 10
559.9246752781071
 20
72.26469380026684
 30
0.0
  0
SPLINE
  5
182D
330
1F
100
AcDbEntity
  8
LOGO_VON_SCHLASSE_120709
 62
     7
100
AcDbSpline
210
0.0
220
0.0
230
1.0
 70
     8
 71
     3
 72
     8
 73
     4
 74
     0
 42
0.0000000001
 43
0.0000000001
 40
34.1501527917914
 40
34.1501527917914
 40
34.1501527917914
 40
34.1501527917914
 40
35.1501527917914
 40
35.1501527917914
 40
35.1501527917914
 40
35.1501527917914
 10
559.9246752781071
 20
72.26469380026684
 30
0.0
 10
558.7122662452307
 20
71.3464183303772
 30
0.0
 10
558.0868138981027
 20
69.78556802885485
 30
0.0
 10
558.0871333222797
 20
67.84139277252525
 30
0.0
  0
LINE
  5
182E
330
1F
100
AcDbEntity
  8
LOGO_VON_SCHLASSE_120709
 62
     7
100
AcDbLine
 10
558.0871332286405
 20
67.84139286616455
 30
0.0
 11
558.0875298847645
 21
65.42866513376906
 31
0.0
  0
LINE
  5
182F
330
1F
100
AcDbEntity
  8
LOGO_VON_SCHLASSE_120709
 62
     7
100
AcDbLine
 10
558.0875298847645
 20
65.42866513376906
 30
0.0
 11
561.0661274683216
 21
65.42866513376906
 31
0.0
  0
LINE
  5
1830
330
1F
100
AcDbEntity
  8
LOGO_VON_SCHLASSE_120709
 62
     7
100
AcDbLine
 10
561.0661274683216
 20
65.42866513376906
 30
0.0
 11
561.0661274683216
 21
68.11233652877984
 31
0.0
  0
SPLINE
  5
1831
330
1F
100
AcDbEntity
  8
LOGO_VON_SCHLASSE_120709
 62
     7
100
AcDbSpline
210
0.0
220
0.0
230
1.0
 70
     8
 71
     3
 72
     8
 73
     4
 74
     0
 42
0.0000000001
 43
0.0000000001
 40
49.52267229419653
 40
49.52267229419653
 40
49.52267229419653
 40
49.52267229419653
 40
50.52267229419655
 40
50.52267229419655
 40
50.52267229419655
 40
50.52267229419655
 10
561.0661275619606
 20
68.11233655999298
 30
0.0
 10
561.0661275619606
 20
69.4664608877044
 30
0.0
 10
561.580861297187
 20
70.75240331132714
 30
0.0
 10
563.0160507376081
 20
70.75240331132714
 30
0.0
  0
LINE
  5
1832
330
1F
100
AcDbEntity
  8
LOGO_VON_SCHLASSE_120709
 62
     7
100
AcDbLine
 10
563.0160507688215
 20
70.75240328011394
 30
0.0
 11
563.4764769494815
 21
70.75240328011394
 31
0.0
  0
SPLINE
  5
1833
330
1F
100
AcDbEntity
  8
LOGO_VON_SCHLASSE_120709
 62
     7
100
AcDbSpline
210
0.0
220
0.0
230
1.0
 70
     8
 71
     3
 72
     8
 73
     4
 74
     0
 42
0.0000000001
 43
0.0000000001
 40
51.34217507197432
 40
51.34217507197432
 40
51.34217507197432
 40
51.34217507197432
 40
52.34217507197431
 40
52.34217507197431
 40
52.34217507197431
 40
52.34217507197431
 10
563.4764767934146
 20
70.75240331132714
 30
0.0
 10
564.9118644370455
 20
70.75240331132714
 30
0.0
 10
565.3992461293541
 20
69.4664608877044
 30
0.0
 10
565.3992461293541
 20
68.11233655999298
 30
0.0
  0
LINE
  5
1834
330
1F
100
AcDbEntity
  8
LOGO_VON_SCHLASSE_120709
 62
     7
100
AcDbLine
 10
565.399246160566
 20
68.11233652877984
 30
0.0
 11
565.399246160566
 21
65.42866513376906
 31
0.0
  0
LINE
  5
1835
330
1F
100
AcDbEntity
  8
LOGO_VON_SCHLASSE_120709
 62
     7
100
AcDbLine
 10
565.399246160566
 20
65.42866513376906
 30
0.0
 11
568.3782404002477
 21
65.42866513376906
 31
0.0
  0
LINE
  5
1836
330
1F
100
AcDbEntity
  8
LOGO_VON_SCHLASSE_120709
 62
     7
100
AcDbLine
 10
568.3782404002477
 20
65.42866513376906
 30
0.0
 11
568.3782404002477
 21
67.84139286616455
 31
0.0
  0
SPLINE
  5
1837
330
1F
100
AcDbEntity
  8
LOGO_VON_SCHLASSE_120709
 62
     7
100
AcDbSpline
210
0.0
220
0.0
230
1.0
 70
     8
 71
     3
 72
     8
 73
     4
 74
     0
 42
0.0000000001
 43
0.0000000001
 40
66.71540007197433
 40
66.71540007197433
 40
66.71540007197433
 40
66.71540007197433
 40
67.71540007197433
 40
67.71540007197433
 40
67.71540007197433
 40
67.71540007197433
 10
568.378240369034
 20
67.84139277252525
 30
0.0
 10
568.378240369034
 20
69.83115479329389
 30
0.0
 10
567.7477559594247
 20
71.42193375321939
 30
0.0
 10
566.501057771295
 20
72.3312900786788
 30
0.0
  0
ARC
  5
1838
330
1F
100
AcDbEntity
  8
AM_0
 62
     7
100
AcDbCircle
 10
510.9606360107681
 20
63.4424534162866
 30
0.0
 40
2.809136648562855
100
AcDbArc
 50
180.000047999999
 51
269.9999519999848
  0
LINE
  5
1839
330
1F
100
AcDbEntity
  8
AM_0
 62
     7
100
AcDbLine
 10
510.9606337634241
 20
60.63331676772365
 30
0.0
 11
571.6389604947176
 21
60.63331676772365
 31
0.0
  0
ARC
  5
183A
330
1F
100
AcDbEntity
  8
AM_0
 62
     7
100
AcDbCircle
 10
571.6390796039219
 20
63.44233205973843
 30
0.0
 40
2.809015292015017
100
AcDbArc
 50
269.9975760000107
 51
0.0024240000056259
  0
LINE
  5
183B
330
1F
100
AcDbEntity
  8
AM_0
 62
     7
100
AcDbLine
 10
574.4480948959376
 20
63.44245116894301
 30
0.0
 11
574.4480948959376
 21
84.7921080274396
 31
0.0
  0
ARC
  5
183C
330
1F
100
AcDbEntity
  8
AM_0
 62
     7
100
AcDbCircle
 10
571.6389582473741
 20
84.79210521826015
 30
0.0
 40
2.809136648562855
100
AcDbArc
 50
0.0000479999989685
 51
89.99995199998474
  0
LINE
  5
183D
330
1F
100
AcDbEntity
  8
AM_0
 62
     7
100
AcDbLine
 10
571.6389604947176
 20
87.60124186682325
 30
0.0
 11
510.9606337634241
 21
87.60124186682325
 31
0.0
  0
ARC
  5
183E
330
1F
100
AcDbEntity
  8
AM_0
 62
     7
100
AcDbCircle
 10
510.9606730919361
 20
84.7920681370928
 30
0.0
 40
2.809173729730249
100
AcDbArc
 50
90.00080599999776
 51
179.9991939999989
  0
LINE
  5
183F
330
1F
100
AcDbEntity
  8
AM_0
 62
     7
100
AcDbLine
 10
508.1514993622056
 20
84.7921080274396
 30
0.0
 11
508.1514993622056
 21
63.44245116894301
 31
0.0
  0
ARC
  5
1840
330
1F
100
AcDbEntity
  8
AM_0
 62
     7
100
AcDbCircle
 10
509.4438853565646
 20
60.24010301214663
 30
0.0
 40
4.10140072453812
100
AcDbArc
 50
179.9997459999952
 51
270.0002540000047
  0
LINE
  5
1841
330
1F
100
AcDbEntity
  8
AM_0
 62
     7
100
AcDbLine
 10
509.443903335312
 20
56.13870228760863
 30
0.0
 11
585.5164755868736
 21
56.13870228760863
 31
0.0
  0
ARC
  5
1842
330
1F
100
AcDbEntity
  8
AM_0
 62
     7
100
AcDbCircle
 10
585.516620540528
 20
60.23997603724005
 30
0.0
 40
4.101273749631586
100
AcDbArc
 50
269.9979730000275
 51
0.0020269999985906
  0
LINE
  5
1843
330
1F
100
AcDbEntity
  8
AM_0
 62
     7
100
AcDbLine
 10
589.6178942901597
 20
60.2401215527302
 30
0.0
 11
589.6178942901597
 21
87.99451686250971
 31
0.0
  0
ARC
  5
1844
330
1F
100
AcDbEntity
  8
AM_0
 62
     7
100
AcDbCircle
 10
585.5164514279315
 20
87.9946910316295
 30
0.0
 40
4.101442862228342
100
AcDbArc
 50
359.9975680000027
 51
89.99966299998954
  0
LINE
  5
1845
330
1F
100
AcDbEntity
  8
AM_0
 62
     7
100
AcDbLine
 10
585.5164755868736
 20
92.09613389385776
 30
0.0
 11
509.443903335312
 21
92.09613389385776
 31
0.0
  0
ARC
  5
1846
330
1F
100
AcDbEntity
  8
AM_0
 62
     7
100
AcDbCircle
 10
509.4440544691611
 20
87.99456405672295
 30
0.0
 40
4.101569837134874
100
AcDbArc
 50
90.00210899998343
 51
180.000659999998
  0
LINE
  5
1847
330
1F
100
AcDbEntity
  8
AM_0
 62
     7
100
AcDbLine
 10
505.3424846320261
 20
87.99451686250971
 30
0.0
 11
505.3424846320261
 21
60.2401215527302
 31
0.0
  0
TEXT
  5
1848
330
1F
100
AcDbEntity
  8
6
100
AcDbText
 10
518.8928748178902
 20
34.95832874694155
 30
0.0
 40
7.584784239840154
  1
59227 Ahlen
 72
     1
 11
546.7280394366046
 21
34.95832874694155
 31
0.0
100
AcDbText
  0
TEXT
  5
1849
330
1F
100
AcDbEntity
  8
6
100
AcDbText
 10
493.2833786776771
 20
45.59951439693934
 30
0.0
 40
7.584784239840154
  1
Reflex Winkelmann GmbH
 41
0.95
 72
     1
 11
546.6044118837535
 21
45.59951439693934
 31
0.0
100
AcDbText
  0
VIEWPORT
  5
6F
330
55
100
AcDbEntity
 67
     1
  8
0
100
AcDbViewport
 10
141.0
 20
85.0
 30
0.0
 40
384.7606204379562
 41
222.18
 68
     1
 69
     1
 12
141.0
 22
85.0
 13
0.0
 23
0.0
 14
10.0
 24
10.0
 15
10.0
 25
10.0
 16
0.0
 26
0.0
 36
1.0
 17
0.0
 27
0.0
 37
0.0
 42
50.0
 43
0.0
 44
0.0
 45
222.18
 50
0.0
 51
0.0
 72
   100
 90
    32800
  1

281
     0
 71
     1
 74
     0
110
0.0
120
0.0
130
0.0
111
1.0
121
0.0
131
0.0
112
0.0
122
1.0
132
0.0
 79
     0
146
0.0
170
     0
1001
GENIUS_GENOBJ-N-SDF_13
1002
{
1000
OWNER
1000
GEN
1002
}
1001
GENIUS_GENODEF_13
1002
{
1000
HIER
1070
     0
1002
}
1002
{
1000
MANEDIT
1070
     0
1002
}
1002
{
1000
NOSEL
1070
     0
1002
}
1002
{
1000
BEHIND
1070
     0
1002
}
1002
{
1000
OTHER
1070
     0
1002
}
1002
{
1000
REACTOR
1002
}
1001
GENIUS_GENSCREG_15
1000
PF
1040
1.0
1000
DF
1040
1.0
1000
MIN
1011
-51.38031021897808
1021
-26.09
1031
0.0
1000
MAX
1011
333.3803102189782
1021
196.09
1031
0.0
1000
FLAGS
1070
     2
  0
VIEWPORT
  5
71
330
55
100
AcDbEntity
 67
     1
  8
0
100
AcDbViewport
 10
141.0
 20
85.0
 30
0.0
 40
225.6
 41
136.0
 68
     2
 69
     2
 12
210.0
 22
148.5
 13
0.0
 23
0.0
 14
10.0
 24
10.0
 15
10.0
 25
10.0
 16
0.0
 26
0.0
 36
1.0
 17
0.0
 27
0.0
 37
0.0
 42
50.0
 43
0.0
 44
0.0
 45
302.3194029850746
 50
0.0
 51
0.0
 72
   100
 90
    32864
  1

281
     0
 71
     1
 74
     0
110
0.0
120
0.0
130
0.0
111
1.0
121
0.0
131
0.0
112
0.0
122
1.0
132
0.0
 79
     0
146
0.0
170
     0
1001
GENIUS_GENODEF_13
1002
{
1000
HIER
1070
     0
1002
}
1002
{
1000
MANEDIT
1070
     0
1002
}
1002
{
1000
NOSEL
1070
     0
1002
}
1002
{
1000
BEHIND
1070
     0
1002
}
1002
{
1000
OTHER
1070
     0
1002
}
1002
{
1000
REACTOR
1002
}
1001
GENIUS_GENOBJ-N-SDF_13
1002
{
1000
OWNER
1000
GEN
1002
}
1001
GENIUS_GENSCREG_15
1000
PF
1040
0.0
1000
DF
1040
0.0
1000
MIN
1011
28.20000000000002
1021
17.0
1031
0.0
1000
MAX
1011
253.8
1021
153.0
1031
0.0
1000
FLAGS
1070
     2
  0
ENDSEC
  0
SECTION
  2
OBJECTS
  0
DICTIONARY
  5
C
330
0
100
AcDbDictionary
281
     1
  3
ACAD_COLOR
350
F6
  3
ACAD_GROUP
350
D
  3
ACAD_LAYOUT
350
1A
  3
ACAD_MATERIAL
350
F5
  3
ACAD_MLINESTYLE
350
17
  3
ACAD_PLOTSETTINGS
350
19
  3
ACAD_PLOTSTYLENAME
350
E
  3
ACAD_TABLESTYLE
350
16F
  3
ACAD_VISUALSTYLE
350
1EE
  3
AcDbVariableDictionary
350
DA
  3
AcmDictionary
350
97
  3
AMG
350
7D
  3
AMGSNAPSETTINGS
350
8E1
  3
ASE_INDEX_DICTIONARY
350
15D2
  0
DICTIONARY
  5
169C
330
2
100
AcDbDictionary
280
     1
281
     1
  3
ACAD_LAYERSTATES
360
169D
  0
DICTIONARY
  5
D5
330
1F
100
AcDbDictionary
280
     1
281
     1
  0
DICTIONARY
  5
A08
330
94B
100
AcDbDictionary
280
     1
281
     1
  0
DICTIONARY
  5
F6
102
{ACAD_REACTORS
330
C
102
}
330
C
100
AcDbDictionary
281
     1
  0
DICTIONARY
  5
D
102
{ACAD_REACTORS
330
C
102
}
330
C
100
AcDbDictionary
281
     1
  0
DICTIONARY
  5
1A
102
{ACAD_REACTORS
330
C
102
}
330
C
100
AcDbDictionary
281
     1
  3
Layout1
350
51
  3
Layout2
350
56
  3
Model
350
22
  0
DICTIONARY
  5
F5
102
{ACAD_REACTORS
330
C
102
}
330
C
100
AcDbDictionary
281
     1
  3
ByBlock
350
1EC
  3
ByLayer
350
1EB
  3
Global
350
1ED
  0
DICTIONARY
  5
17
102
{ACAD_REACTORS
330
C
102
}
330
C
100
AcDbDictionary
281
     1
  3
Standard
350
18
  0
DICTIONARY
  5
19
102
{ACAD_REACTORS
330
C
102
}
330
C
100
AcDbDictionary
281
     1
  0
ACDBDICTIONARYWDFLT
  5
E
102
{ACAD_REACTORS
330
C
102
}
330
C
100
AcDbDictionary
281
     1
  3
Normal
350
F
100
AcDbDictionaryWithDefault
340
F
  0
DICTIONARY
  5
16F
102
{ACAD_REACTORS
330
C
102
}
330
C
100
AcDbDictionary
281
     1
  3
Standard
350
170
  0
DICTIONARY
  5
1EE
102
{ACAD_REACTORS
330
C
102
}
330
C
100
AcDbDictionary
281
     1
  3
2dWireframe
350
1F4
  3
3D Hidden
350
1F6
  3
3dWireframe
350
1F5
  3
Basic
350
1F3
  3
Brighten
350
1FA
  3
ColorChange
350
1FE
  3
Conceptual
350
1F7
  3
Dim
350
1F9
  3
EdgeColorOff
350
109A
  3
Facepattern
350
1FD
  3
Flat
350
1EF
  3
FlatWithEdges
350
1F0
  3
Gouraud
350
1F1
  3
GouraudWithEdges
350
1F2
  3
JitterOff
350
109D
  3
Linepattern
350
1FC
  3
OverhangOff
350
10A0
  3
Realistic
350
1F8
  3
Thicken
350
1FB
  0
DICTIONARY
  5
DA
102
{ACAD_REACTORS
330
C
102
}
330
C
100
AcDbDictionary
281
     1
  3
CTABLESTYLE
350
18F
  3
DIMASSOC
350
DC
  3
INDEXCTL
350
DB
  0
DICTIONARY
  5
97
102
{ACAD_REACTORS
330
C
102
}
330
C
100
AcDbDictionary
281
     1
  3
AcmStdDictionary
350
9D
  3
AMDTSECTSYM_ARROWCOLOR
350
186
  0
DICTIONARY
  5
7D
102
{ACAD_REACTORS
330
C
102
}
330
C
100
AcDbDictionary
281
     1
  0
DICTIONARY
  5
8E1
102
{ACAD_REACTORS
330
C
102
}
330
C
100
AcDbDictionary
281
     1
  0
DICTIONARY
  5
15D2
102
{ACAD_REACTORS
330
C
102
}
330
C
100
AcDbDictionary
281
     1
  3
ASEBlockHierarchyIndexRecord
350
15D3
1001
DCO15
1040
1755511348.892
  0
DICTIONARY
  5
169D
102
{ACAD_REACTORS
330
169C
102
}
330
169C
100
AcDbDictionary
281
     1
  0
LAYOUT
  5
51
102
{ACAD_REACTORS
330
1A
102
}
330
1A
100
AcDbPlotSettings
  1

  2
none_device
  4
ISO_A4_(210.00_x_297.00_MM)
  6

 40
7.5
 41
20.0
 42
7.5
 43
20.0
 44
210.0
 45
297.0
 46
0.0
 47
0.0
 48
0.0
 49
0.0
140
0.0
141
0.0
142
1.0
143
1.0
 70
   688
 72
     1
 73
     1
 74
     5
  7
ganz_fein_1.ctb
 75
    16
147
1.0
 76
     0
 77
     2
 78
   300
148
0.0
149
0.0
100
AcDbLayout
  1
Layout1
 70
     1
 71
     1
 10
-20.0
 20
-7.5
 11
277.0
 21
202.5
 12
0.0
 22
0.0
 32
0.0
 14
25.69999999999999
 24
19.5
 34
0.0
 15
231.3
 25
175.5
 35
0.0
146
0.0
 13
0.0
 23
0.0
 33
0.0
 16
1.0
 26
0.0
 36
0.0
 17
0.0
 27
1.0
 37
0.0
 76
     0
330
50
331
69
  0
LAYOUT
  5
56
102
{ACAD_REACTORS
330
1A
102
}
330
1A
100
AcDbPlotSettings
  1

  2
none_device
  4
ISO_A4_(297.00_x_210.00_MM)
  6

 40
7.5
 41
20.0
 42
7.5
 43
20.0
 44
297.0
 45
210.0
 46
0.0
 47
0.0
 48
0.0
 49
0.0
140
0.0
141
0.0
142
1.0
143
1.0
 70
   688
 72
     1
 73
     0
 74
     5
  7
ganz_fein_1.ctb
 75
    16
147
1.0
 76
     0
 77
     2
 78
   300
148
0.0
149
0.0
100
AcDbLayout
  1
Layout2
 70
     1
 71
     2
 10
-7.5
 20
-20.0
 11
289.5
 21
190.0
 12
0.0
 22
0.0
 32
0.0
 14
28.19999999999999
 24
17.0
 34
0.0
 15
253.8
 25
153.0
 35
0.0
146
0.0
 13
0.0
 23
0.0
 33
0.0
 16
1.0
 26
0.0
 36
0.0
 17
0.0
 27
1.0
 37
0.0
 76
     0
330
55
331
6F
  0
LAYOUT
  5
22
102
{ACAD_REACTORS
330
1A
102
}
330
1A
100
AcDbPlotSettings
  1

  2
Adobe PDF
  4
A4
  6

 40
3.174999952316284
 41
3.174999952316284
 42
3.175003051757812
 43
3.17498779296875
 44
209.9733276367187
 45
297.0318298339844
 46
0.0
 47
1.364832920257478
 48
0.0
 49
0.0
140
0.0
141
0.0
142
1.0
143
2.187863304971191
 70
 11956
 72
     1
 73
     1
 74
     2
  7
ganz_fein_1.ctb
 75
     0
147
0.4570669464256895
 76
     0
 77
     2
 78
   300
148
0.0000000000000568
149
0.0
100
AcDbLayout
  1
Model
 70
     1
 71
     0
 10
0.0
 20
0.0
 11
12.0
 21
9.0
 12
0.0
 22
0.0
 32
0.0
 14
0.0
 24
0.0
 34
0.0
 15
0.0
 25
0.0
 35
0.0
146
0.0
 13
0.0
 23
0.0
 33
0.0
 16
1.0
 26
0.0
 36
0.0
 17
0.0
 27
1.0
 37
0.0
 76
     0
330
1F
331
1E9
1001
ACAD_PSEXT
1000
Adobe PDF
1000
Adobe PDF Converter
1000
Documents\*.pdf
1000

1070
     0
  0
MATERIAL
  5
1EC
102
{ACAD_XDICTIONARY
360
110C
102
}
102
{ACAD_REACTORS
330
F5
102
}
330
F5
100
AcDbMaterial
  1
ByBlock
  0
MATERIAL
  5
1EB
102
{ACAD_XDICTIONARY
360
110A
102
}
102
{ACAD_REACTORS
330
F5
102
}
330
F5
100
AcDbMaterial
  1
ByLayer
  0
MATERIAL
  5
1ED
102
{ACAD_XDICTIONARY
360
110E
102
}
102
{ACAD_REACTORS
330
F5
102
}
330
F5
100
AcDbMaterial
  1
Global
  0
MLINESTYLE
  5
18
102
{ACAD_REACTORS
330
17
102
}
330
17
100
AcDbMlineStyle
  2
STANDARD
 70
     0
  3

 62
   256
 51
90.0
 52
90.0
 71
     2
 49
0.5
 62
   256
  6
BYLAYER
 49
-0.5
 62
   256
  6
BYLAYER
  0
ACDBPLACEHOLDER
  5
F
102
{ACAD_REACTORS
330
E
102
}
330
E
  0
TABLESTYLE
  5
170
102
{ACAD_XDICTIONARY
360
1860
102
}
102
{ACAD_REACTORS
330
16F
102
}
330
16F
100
AcDbTableStyle
  3
Standard
 70
     0
 71
     0
 40
1.5
 41
1.5
280
     0
281
     0
  7
STANDARD
140
4.5
170
     2
 62
     0
 63
     7
283
     0
274
    -2
284
     1
 64
     0
275
    -2
285
     1
 65
     0
276
    -2
286
     1
 66
     0
277
    -2
287
     1
 67
     0
278
    -2
288
     1
 68
     0
279
    -2
289
     1
 69
     0
  7
STANDARD
140
6.0
170
     5
 62
     0
 63
     7
283
     0
274
    -2
284
     1
 64
     0
275
    -2
285
     1
 65
     0
276
    -2
286
     1
 66
     0
277
    -2
287
     1
 67
     0
278
    -2
288
     1
 68
     0
279
    -2
289
     1
 69
     0
  7
STANDARD
140
4.5
170
     5
 62
     0
 63
     7
283
     0
274
    -2
284
     1
 64
     0
275
    -2
285
     1
 65
     0
276
    -2
286
     1
 66
     0
277
    -2
287
     1
 67
     0
278
    -2
288
     1
 68
     0
279
    -2
289
     1
 69
     0
  0
VISUALSTYLE
  5
1F4
102
{ACAD_REACTORS
330
1EE
102
}
330
1EE
100
AcDbVisualStyle
  2
2dWireframe
 70
     4
 71
     0
 72
     2
 73
     0
 90
        0
 40
-0.6
 41
-30.0
 62
     5
 63
     7
421
 16777215
 74
     1
 91
        4
 64
     7
 65
   257
 75
     1
175
     1
 42
1.0
 92
        0
 66
   257
 43
1.0
 76
     1
 77
     6
 78
     2
 67
     7
 79
     5
170
     0
171
     0
290
     0
174
     0
 93
        1
 44
0.0
173
     0
291
     0
 45
0.0
1001
ACAD
1000
AcDbSavedByObjectVersion
1070
     0
1000
AcDbSavedByObjectVersion
1070
     0
1000
AcDbSavedByObjectVersion
1070
     0
1000
AcDbSavedByObjectVersion
1070
     0
  0
VISUALSTYLE
  5
1F6
102
{ACAD_REACTORS
330
1EE
102
}
330
1EE
100
AcDbVisualStyle
  2
3D Hidden
 70
     6
 71
     1
 72
     2
 73
     2
 90
        0
 40
-0.6
 41
-30.0
 62
     5
 63
     7
421
 16777215
 74
     2
 91
        2
 64
     7
 65
   257
 75
     2
175
     1
 42
40.0
 92
        0
 66
   257
 43
1.0
 76
     1
 77
     6
 78
     2
 67
     7
 79
     3
170
     0
171
     0
290
     0
174
     0
 93
        1
 44
0.0
173
     0
291
     0
 45
0.0
1001
ACAD
1000
AcDbSavedByObjectVersion
1070
     0
1000
AcDbSavedByObjectVersion
1070
     0
1000
AcDbSavedByObjectVersion
1070
     0
1000
AcDbSavedByObjectVersion
1070
     0
  0
VISUALSTYLE
  5
1F5
102
{ACAD_REACTORS
330
1EE
102
}
330
1EE
100
AcDbVisualStyle
  2
3dWireframe
 70
     5
 71
     0
 72
     2
 73
     0
 90
        0
 40
-0.6
 41
-30.0
 62
     5
 63
     7
421
 16777215
 74
     1
 91
        4
 64
     7
 65
   257
 75
     1
175
     1
 42
1.0
 92
        0
 66
   257
 43
1.0
 76
     1
 77
     6
 78
     2
 67
     7
 79
     5
170
     0
171
     0
290
     0
174
     0
 93
        1
 44
0.0
173
     0
291
     0
 45
0.0
1001
ACAD
1000
AcDbSavedByObjectVersion
1070
     0
1000
AcDbSavedByObjectVersion
1070
     0
1000
AcDbSavedByObjectVersion
1070
     0
1000
AcDbSavedByObjectVersion
1070
     0
  0
VISUALSTYLE
  5
1F3
102
{ACAD_REACTORS
330
1EE
102
}
330
1EE
100
AcDbVisualStyle
  2
Basic
 70
     7
 71
     1
 72
     0
 73
     1
 90
        0
 40
-0.6
 41
-30.0
 62
     5
 63
     7
421
 16777215
 74
     0
 91
        4
 64
     7
 65
   257
 75
     1
175
     1
 42
1.0
 92
        8
 66
     7
 43
1.0
 76
     1
 77
     6
 78
     2
 67
     7
 79
     5
170
     0
171
     0
290
     0
174
     0
 93
        1
 44
0.0
173
     0
291
     1
 45
0.0
1001
ACAD
1000
AcDbSavedByObjectVersion
1070
     0
1000
AcDbSavedByObjectVersion
1070
     0
1000
AcDbSavedByObjectVersion
1070
     0
1000
AcDbSavedByObjectVersion
1070
     0
  0
VISUALSTYLE
  5
1FA
102
{ACAD_REACTORS
330
1EE
102
}
330
1EE
100
AcDbVisualStyle
  2
Brighten
 70
    12
 71
     2
 72
     2
 73
     0
 90
        0
 40
-0.6
 41
-30.0
 62
     5
 63
     7
421
 16777215
 74
     1
 91
        4
 64
     7
 65
   257
 75
     1
175
     1
 42
1.0
 92
        8
 66
     7
 43
1.0
 76
     1
 77
     6
 78
     2
 67
     7
 79
     5
170
     0
171
     0
290
     0
174
     0
 93
        1
 44
50.0
173
     0
291
     1
 45
0.0
1001
ACAD
1000
AcDbSavedByObjectVersion
1070
     0
1000
AcDbSavedByObjectVersion
1070
     0
1000
AcDbSavedByObjectVersion
1070
     0
1000
AcDbSavedByObjectVersion
1070
     0
  0
VISUALSTYLE
  5
1FE
102
{ACAD_REACTORS
330
1EE
102
}
330
1EE
100
AcDbVisualStyle
  2
ColorChange
 70
    16
 71
     2
 72
     2
 73
     3
 90
        0
 40
-0.6
 41
-30.0
 62
     5
 63
     8
421
  8421504
 74
     1
 91
        4
 64
     7
 65
   257
 75
     1
175
     1
 42
1.0
 92
        8
 66
     8
424
  8421504
 43
1.0
 76
     1
 77
     6
 78
     2
 67
     7
 79
     5
170
     0
171
     0
290
     0
174
     0
 93
        1
 44
0.0
173
     0
291
     1
 45
0.0
1001
ACAD
1000
AcDbSavedByObjectVersion
1070
     0
1000
AcDbSavedByObjectVersion
1070
     0
1000
AcDbSavedByObjectVersion
1070
     0
1000
AcDbSavedByObjectVersion
1070
     0
  0
VISUALSTYLE
  5
1F7
102
{ACAD_REACTORS
330
1EE
102
}
330
1EE
100
AcDbVisualStyle
  2
Conceptual
 70
     9
 71
     3
 72
     2
 73
     0
 90
        0
 40
-0.6
 41
-30.0
 62
     5
 63
     7
421
 16777215
 74
     2
 91
        2
 64
     7
 65
   257
 75
     1
175
     1
 42
40.0
 92
        8
 66
     7
 43
1.0
 76
     1
 77
     6
 78
     2
 67
     7
 79
     3
170
     0
171
     0
290
     0
174
     0
 93
        1
 44
0.0
173
     0
291
     0
 45
0.0
1001
ACAD
1000
AcDbSavedByObjectVersion
1070
     0
1000
AcDbSavedByObjectVersion
1070
     0
1000
AcDbSavedByObjectVersion
1070
     0
1000
AcDbSavedByObjectVersion
1070
     0
  0
VISUALSTYLE
  5
1F9
102
{ACAD_REACTORS
330
1EE
102
}
330
1EE
100
AcDbVisualStyle
  2
Dim
 70
    11
 71
     2
 72
     2
 73
     0
 90
        0
 40
-0.6
 41
-30.0
 62
     5
 63
     7
421
 16777215
 74
     1
 91
        4
 64
     7
 65
   257
 75
     1
175
     1
 42
1.0
 92
        8
 66
     7
 43
1.0
 76
     1
 77
     6
 78
     2
 67
     7
 79
     5
170
     0
171
     0
290
     0
174
     0
 93
        1
 44
-50.0
173
     0
291
     1
 45
0.0
1001
ACAD
1000
AcDbSavedByObjectVersion
1070
     0
1000
AcDbSavedByObjectVersion
1070
     0
1000
AcDbSavedByObjectVersion
1070
     0
1000
AcDbSavedByObjectVersion
1070
     0
  0
VISUALSTYLE
  5
109A
102
{ACAD_XDICTIONARY
360
109B
102
}
102
{ACAD_REACTORS
330
1EE
102
}
330
1EE
100
AcDbVisualStyle
  2
EdgeColorOff
 70
    22
 71
     2
 72
     2
 73
     0
 90
        0
 40
-0.6
 41
-30.0
 62
     5
 63
     7
 74
     1
 91
        4
 64
     7
 65
   257
 75
     1
175
     1
 42
1.0
 92
        8
 66
     7
 43
1.0
 76
     1
 77
     6
 78
     2
 67
     7
 79
     5
170
     0
171
     0
290
     0
174
     0
 93
        1
 44
0.0
173
     0
291
     1
 45
0.0
1001
ACAD
1000
AcDbSavedByObjectVersion
1070
     0
1000
AcDbSavedByObjectVersion
1070
     0
1000
AcDbSavedByObjectVersion
1070
     0
1000
AcDbSavedByObjectVersion
1070
     0
  0
VISUALSTYLE
  5
1FD
102
{ACAD_REACTORS
330
1EE
102
}
330
1EE
100
AcDbVisualStyle
  2
Facepattern
 70
    15
 71
     2
 72
     2
 73
     0
 90
        0
 40
-0.6
 41
-30.0
 62
     5
 63
     7
421
 16777215
 74
     1
 91
        4
 64
     7
 65
   257
 75
     1
175
     1
 42
1.0
 92
        8
 66
     7
 43
1.0
 76
     1
 77
     6
 78
     2
 67
     7
 79
     5
170
     0
171
     0
290
     0
174
     0
 93
        1
 44
0.0
173
     0
291
     1
 45
0.0
1001
ACAD
1000
AcDbSavedByObjectVersion
1070
     0
1000
AcDbSavedByObjectVersion
1070
     0
1000
AcDbSavedByObjectVersion
1070
     0
1000
AcDbSavedByObjectVersion
1070
     0
  0
VISUALSTYLE
  5
1EF
102
{ACAD_REACTORS
330
1EE
102
}
330
1EE
100
AcDbVisualStyle
  2
Flat
 70
     0
 71
     2
 72
     1
 73
     1
 90
        2
 40
-0.6
 41
30.0
 62
     5
 63
     7
421
 16777215
 74
     0
 91
        4
 64
     7
 65
   257
 75
     1
175
     1
 42
1.0
 92
        8
 66
     7
 43
1.0
 76
     1
 77
     6
 78
     2
 67
     7
 79
     5
170
     0
171
     0
290
     0
174
     0
 93
       13
 44
0.0
173
     0
291
     1
 45
0.0
1001
ACAD
1000
AcDbSavedByObjectVersion
1070
     0
1000
AcDbSavedByObjectVersion
1070
     0
1000
AcDbSavedByObjectVersion
1070
     0
1000
AcDbSavedByObjectVersion
1070
     0
  0
VISUALSTYLE
  5
1F0
102
{ACAD_REACTORS
330
1EE
102
}
330
1EE
100
AcDbVisualStyle
  2
FlatWithEdges
 70
     1
 71
     2
 72
     1
 73
     1
 90
        2
 40
-0.6
 41
30.0
 62
     5
 63
     7
421
 16777215
 74
     1
 91
        4
 64
     7
 65
   257
 75
     1
175
     1
 42
1.0
 92
        0
 66
   257
 43
1.0
 76
     1
 77
     6
 78
     2
 67
     7
 79
     5
170
     0
171
     0
290
     0
174
     0
 93
       13
 44
0.0
173
     0
291
     1
 45
0.0
1001
ACAD
1000
AcDbSavedByObjectVersion
1070
     0
1000
AcDbSavedByObjectVersion
1070
     0
1000
AcDbSavedByObjectVersion
1070
     0
1000
AcDbSavedByObjectVersion
1070
     0
  0
VISUALSTYLE
  5
1F1
102
{ACAD_REACTORS
330
1EE
102
}
330
1EE
100
AcDbVisualStyle
  2
Gouraud
 70
     2
 71
     2
 72
     2
 73
     1
 90
        2
 40
-0.6
 41
30.0
 62
     5
 63
     7
421
 16777215
 74
     0
 91
        4
 64
     7
 65
   257
 75
     1
175
     1
 42
1.0
 92
        0
 66
     7
 43
1.0
 76
     1
 77
     6
 78
     2
 67
     7
 79
     5
170
     0
171
     0
290
     0
174
     0
 93
       13
 44
0.0
173
     0
291
     1
 45
0.0
1001
ACAD
1000
AcDbSavedByObjectVersion
1070
     0
1000
AcDbSavedByObjectVersion
1070
     0
1000
AcDbSavedByObjectVersion
1070
     0
1000
AcDbSavedByObjectVersion
1070
     0
  0
VISUALSTYLE
  5
1F2
102
{ACAD_REACTORS
330
1EE
102
}
330
1EE
100
AcDbVisualStyle
  2
GouraudWithEdges
 70
     3
 71
     2
 72
     2
 73
     1
 90
        2
 40
-0.6
 41
30.0
 62
     5
 63
     7
421
 16777215
 74
     1
 91
        4
 64
     7
 65
   257
 75
     1
175
     1
 42
1.0
 92
        0
 66
   257
 43
1.0
 76
     1
 77
     6
 78
     2
 67
     7
 79
     5
170
     0
171
     0
290
     0
174
     0
 93
       13
 44
0.0
173
     0
291
     1
 45
0.0
1001
ACAD
1000
AcDbSavedByObjectVersion
1070
     0
1000
AcDbSavedByObjectVersion
1070
     0
1000
AcDbSavedByObjectVersion
1070
     0
1000
AcDbSavedByObjectVersion
1070
     0
  0
VISUALSTYLE
  5
109D
102
{ACAD_XDICTIONARY
360
109E
102
}
102
{ACAD_REACTORS
330
1EE
102
}
330
1EE
100
AcDbVisualStyle
  2
JitterOff
 70
    20
 71
     2
 72
     2
 73
     0
 90
        0
 40
-0.6
 41
-30.0
 62
     5
 63
     7
 74
     1
 91
        4
 64
     7
 65
   257
 75
     1
175
     1
 42
1.0
 92
       10
 66
     7
 43
1.0
 76
     1
 77
     6
 78
     2
 67
     7
 79
     5
170
     0
171
     0
290
     0
174
     0
 93
        1
 44
0.0
173
     0
291
     1
 45
0.0
1001
ACAD
1000
AcDbSavedByObjectVersion
1070
     0
1000
AcDbSavedByObjectVersion
1070
     0
1000
AcDbSavedByObjectVersion
1070
     0
1000
AcDbSavedByObjectVersion
1070
     0
  0
VISUALSTYLE
  5
1FC
102
{ACAD_REACTORS
330
1EE
102
}
330
1EE
100
AcDbVisualStyle
  2
Linepattern
 70
    14
 71
     2
 72
     2
 73
     0
 90
        0
 40
-0.6
 41
-30.0
 62
     5
 63
     7
421
 16777215
 74
     1
 91
        4
 64
     7
 65
   257
 75
     7
175
     7
 42
1.0
 92
        8
 66
     7
 43
1.0
 76
     1
 77
     6
 78
     2
 67
     7
 79
     5
170
     0
171
     0
290
     0
174
     0
 93
        1
 44
0.0
173
     0
291
     1
 45
0.0
1001
ACAD
1000
AcDbSavedByObjectVersion
1070
     0
1000
AcDbSavedByObjectVersion
1070
     0
1000
AcDbSavedByObjectVersion
1070
     0
1000
AcDbSavedByObjectVersion
1070
     0
  0
VISUALSTYLE
  5
10A0
102
{ACAD_XDICTIONARY
360
10A1
102
}
102
{ACAD_REACTORS
330
1EE
102
}
330
1EE
100
AcDbVisualStyle
  2
OverhangOff
 70
    21
 71
     2
 72
     2
 73
     0
 90
        0
 40
-0.6
 41
-30.0
 62
     5
 63
     7
 74
     1
 91
        4
 64
     7
 65
   257
 75
     1
175
     1
 42
1.0
 92
        9
 66
     7
 43
1.0
 76
     1
 77
     6
 78
     2
 67
     7
 79
     5
170
     0
171
     0
290
     0
174
     0
 93
        1
 44
0.0
173
     0
291
     1
 45
0.0
1001
ACAD
1000
AcDbSavedByObjectVersion
1070
     0
1000
AcDbSavedByObjectVersion
1070
     0
1000
AcDbSavedByObjectVersion
1070
     0
1000
AcDbSavedByObjectVersion
1070
     0
  0
VISUALSTYLE
  5
1F8
102
{ACAD_REACTORS
330
1EE
102
}
330
1EE
100
AcDbVisualStyle
  2
Realistic
 70
     8
 71
     2
 72
     2
 73
     0
 90
        0
 40
-0.6
 41
-30.0
 62
     5
 63
     7
421
 16777215
 74
     1
 91
        0
 64
     7
 65
   257
 75
     1
175
     1
 42
1.0
 92
        8
 66
     8
424
  7895160
 43
1.0
 76
     1
 77
     6
 78
     2
 67
     7
 79
     5
170
     0
171
     0
290
     0
174
     0
 93
       13
 44
0.0
173
     0
291
     0
 45
0.0
1001
ACAD
1000
AcDbSavedByObjectVersion
1070
     0
1000
AcDbSavedByObjectVersion
1070
     0
1000
AcDbSavedByObjectVersion
1070
     0
1000
AcDbSavedByObjectVersion
1070
     0
  0
VISUALSTYLE
  5
1FB
102
{ACAD_REACTORS
330
1EE
102
}
330
1EE
100
AcDbVisualStyle
  2
Thicken
 70
    13
 71
     2
 72
     2
 73
     0
 90
        0
 40
-0.6
 41
-30.0
 62
     5
 63
     7
421
 16777215
 74
     1
 91
        4
 64
     7
 65
   257
 75
     1
175
     1
 42
1.0
 92
       12
 66
     7
 43
1.0
 76
     1
 77
     6
 78
     2
 67
     7
 79
     5
170
     0
171
     0
290
     0
174
     0
 93
        1
 44
0.0
173
     0
291
     1
 45
0.0
1001
ACAD
1000
AcDbSavedByObjectVersion
1070
     0
1000
AcDbSavedByObjectVersion
1070
     0
1000
AcDbSavedByObjectVersion
1070
     0
1000
AcDbSavedByObjectVersion
1070
     0
  0
DICTIONARYVAR
  5
18F
102
{ACAD_REACTORS
330
DA
102
}
330
DA
100
DictionaryVariables
280
     0
  1
STANDARD
  0
DICTIONARYVAR
  5
DC
102
{ACAD_REACTORS
330
DA
102
}
330
DA
100
DictionaryVariables
280
     0
  1
1
  0
DICTIONARYVAR
  5
DB
102
{ACAD_REACTORS
330
DA
102
}
330
DA
100
DictionaryVariables
280
     0
  1
1
  0
DICTIONARY
  5
9D
102
{ACAD_REACTORS
330
97
102
}
330
97
100
AcDbDictionary
281
     1
  0
XRECORD
  5
186
102
{ACAD_REACTORS
330
97
102
}
330
97
100
AcDbXrecord
280
     1
 90
-1023410169
  0
XRECORD
  5
15D3
102
{ACAD_REACTORS
330
15D2
102
}
330
15D2
100
AcDbXrecord
280
     1
330
8E8
330
A06
  0
DICTIONARY
  5
110C
330
1EC
100
AcDbDictionary
280
     1
281
     1
  3
ACAD_XREC_ROUNDTRIP
360
110D
  0
DICTIONARY
  5
110A
330
1EB
100
AcDbDictionary
280
     1
281
     1
  3
ACAD_XREC_ROUNDTRIP
360
110B
  0
DICTIONARY
  5
110E
330
1ED
100
AcDbDictionary
280
     1
281
     1
  3
ACAD_XREC_ROUNDTRIP
360
110F
  0
DICTIONARY
  5
1860
330
170
100
AcDbDictionary
280
     1
281
     1
  3
ACAD_XREC_ROUNDTRIP
360
1861
  0
DICTIONARY
  5
109B
330
109A
100
AcDbDictionary
280
     1
281
     1
  3
ACAD_XREC_ROUNDTRIP
360
109C
  0
DICTIONARY
  5
109E
330
109D
100
AcDbDictionary
280
     1
281
     1
  3
ACAD_XREC_ROUNDTRIP
360
109F
  0
DICTIONARY
  5
10A1
330
10A0
100
AcDbDictionary
280
     1
281
     1
  3
ACAD_XREC_ROUNDTRIP
360
10A2
  0
XRECORD
  5
110D
102
{ACAD_REACTORS
330
110C
102
}
330
110C
100
AcDbXrecord
280
     1
102
MATERIAL
148
0.0
149
0.0
149
0.0
 93
        0
 94
       63
282
     0
 72
     1
 77
     1
171
     1
175
     1
179
     1
273
     0
  0
XRECORD
  5
110B
102
{ACAD_REACTORS
330
110A
102
}
330
110A
100
AcDbXrecord
280
     1
102
MATERIAL
148
0.0
149
0.0
149
0.0
 93
        0
 94
       63
282
     0
 72
     1
 77
     1
171
     1
175
     1
179
     1
273
     0
  0
XRECORD
  5
110F
102
{ACAD_REACTORS
330
110E
102
}
330
110E
100
AcDbXrecord
280
     1
102
MATERIAL
148
0.0
149
0.0
149
0.0
 93
        0
 94
       63
282
     0
 72
     1
 77
     1
171
     1
175
     1
179
     1
273
     0
  0
XRECORD
  5
1861
102
{ACAD_REACTORS
330
1860
102
}
330
1860
100
AcDbXrecord
280
     1
102
ACAD_ROUNDTRIP_PRE2007_TABLESTYLE
 90
        4
 91
        0
  1

 92
        4
 93
        0
  2

 94
        4
 95
        0
  3

  0
XRECORD
  5
109C
102
{ACAD_REACTORS
330
109B
102
}
330
109B
100
AcDbXrecord
280
     1
102
RTVSPropertyOp0
 70
     0
102
RTVSPropertyOp1
 70
     0
102
RTVSPropertyOp2
 70
     0
102
RTVSPropertyOp3
 70
     0
102
RTVSPropertyOp4
 70
     0
102
RTVSPropertyOp5
 70
     0
102
RTVSPropertyOp6
 70
     0
102
RTVSPropertyOp7
 70
     0
102
RTVSPropertyOp8
 70
     0
102
RTVSPropertyOp9
 70
     0
102
RTVSPropertyOp10
 70
     0
102
RTVSPropertyOp11
 70
     0
102
RTVSPropertyOp12
 70
     0
102
RTVSPropertyOp13
 70
     0
102
RTVSPropertyOp14
 70
     2
102
RTVSPropertyOp15
 70
     0
102
RTVSPropertyOp16
 70
     0
102
RTVSPropertyOp17
 70
     0
102
RTVSPropertyOp18
 70
     0
102
RTVSPropertyOp19
 70
     0
102
RTVSPropertyOp20
 70
     0
102
RTVSPropertyOp21
 70
     0
102
RTVSPropertyOp22
 70
     0
102
RTVSPropertyOp23
 70
     0
102
RTVSPropertyOp24
 70
     0
102
RTVSPropertyOp25
 70
     0
102
RTVSPropertyOp26
 70
     0
102
RTVSPropertyOp27
 70
     0
  0
XRECORD
  5
109F
102
{ACAD_REACTORS
330
109E
102
}
330
109E
100
AcDbXrecord
280
     1
102
RTVSPropertyOp0
 70
     0
102
RTVSPropertyOp1
 70
     0
102
RTVSPropertyOp2
 70
     0
102
RTVSPropertyOp3
 70
     0
102
RTVSPropertyOp4
 70
     0
102
RTVSPropertyOp5
 70
     0
102
RTVSPropertyOp6
 70
     0
102
RTVSPropertyOp7
 70
     0
102
RTVSPropertyOp8
 70
     0
102
RTVSPropertyOp9
 70
     0
102
RTVSPropertyOp10
 70
     0
102
RTVSPropertyOp11
 70
     0
102
RTVSPropertyOp12
 70
     0
102
RTVSPropertyOp13
 70
     0
102
RTVSPropertyOp14
 70
     2
102
RTVSPropertyOp15
 70
     0
102
RTVSPropertyOp16
 70
     0
102
RTVSPropertyOp17
 70
     0
102
RTVSPropertyOp18
 70
     0
102
RTVSPropertyOp19
 70
     0
102
RTVSPropertyOp20
 70
     0
102
RTVSPropertyOp21
 70
     0
102
RTVSPropertyOp22
 70
     0
102
RTVSPropertyOp23
 70
     0
102
RTVSPropertyOp24
 70
     0
102
RTVSPropertyOp25
 70
     0
102
RTVSPropertyOp26
 70
     0
102
RTVSPropertyOp27
 70
     0
  0
XRECORD
  5
10A2
102
{ACAD_REACTORS
330
10A1
102
}
330
10A1
100
AcDbXrecord
280
     1
102
RTVSPropertyOp0
 70
     0
102
RTVSPropertyOp1
 70
     0
102
RTVSPropertyOp2
 70
     0
102
RTVSPropertyOp3
 70
     0
102
RTVSPropertyOp4
 70
     0
102
RTVSPropertyOp5
 70
     0
102
RTVSPropertyOp6
 70
     0
102
RTVSPropertyOp7
 70
     0
102
RTVSPropertyOp8
 70
     0
102
RTVSPropertyOp9
 70
     0
102
RTVSPropertyOp10
 70
     0
102
RTVSPropertyOp11
 70
     0
102
RTVSPropertyOp12
 70
     0
102
RTVSPropertyOp13
 70
     0
102
RTVSPropertyOp14
 70
     2
102
RTVSPropertyOp15
 70
     0
102
RTVSPropertyOp16
 70
     0
102
RTVSPropertyOp17
 70
     0
102
RTVSPropertyOp18
 70
     0
102
RTVSPropertyOp19
 70
     0
102
RTVSPropertyOp20
 70
     0
102
RTVSPropertyOp21
 70
     0
102
RTVSPropertyOp22
 70
     0
102
RTVSPropertyOp23
 70
     0
102
RTVSPropertyOp24
 70
     0
102
RTVSPropertyOp25
 70
     0
102
RTVSPropertyOp26
 70
     0
102
RTVSPropertyOp27
 70
     0
  0
ENDSEC
  0
EOF
