  0
SECTION
  2
HEADER
  9
$ACADVER
  1
AC1018
  9
$ACADMAINTVER
 70
   104
  9
$DWGCODEPAGE
  3
ANSI_1252
  9
$LASTSAVEDBY
  1
Siekaup
  9
$CUSTOMPROPERTYTAG
  1
AmdtFileType
  9
$CUSTOMPROPERTY
  1
84
  9
$INSBASE
 10
0.0
 20
0.0
 30
0.0
  9
$EXTMIN
 10
91.13204105531918
 20
104.4964317794833
 30
-0.000000000000001
  9
$EXTMAX
 10
1773.205398711815
 20
1292.556525962408
 30
0.0000000000000142
  9
$LIMMIN
 10
0.0
 20
0.0
  9
$LIMMAX
 10
420.0
 20
297.0
  9
$ORTHOMODE
 70
     0
  9
$REGENMODE
 70
     1
  9
$FILLMODE
 70
     1
  9
$QTEXTMODE
 70
     0
  9
$MIRRTEXT
 70
     1
  9
$LTSCALE
 40
1.0
  9
$ATTMODE
 70
     1
  9
$TEXTSIZE
 40
2.5
  9
$TRACEWID
 40
1.0
  9
$TEXTSTYLE
  7
Standard
  9
$CLAYER
  8
0
  9
$CELTYPE
  6
ByLayer
  9
$CECOLOR
 62
   256
  9
$CELTSCALE
 40
1.0
  9
$DISPSILH
 70
     0
  9
$DIMSCALE
 40
1.0
  9
$DIMASZ
 40
2.5
  9
$DIMEXO
 40
1.0
  9
$DIMDLI
 40
10.0
  9
$DIMRND
 40
0.0
  9
$DIMDLE
 40
0.0
  9
$DIMEXE
 40
1.0
  9
$DIMTP
 40
0.1
  9
$DIMTM
 40
0.1
  9
$DIMTXT
 40
3.5
  9
$DIMCEN
 40
0.0
  9
$DIMTSZ
 40
0.0
  9
$DIMTOL
 70
     0
  9
$DIMLIM
 70
     0
  9
$DIMTIH
 70
     0
  9
$DIMTOH
 70
     0
  9
$DIMSE1
 70
     0
  9
$DIMSE2
 70
     0
  9
$DIMTAD
 70
     1
  9
$DIMZIN
 70
     8
  9
$DIMBLK
  1

  9
$DIMASO
 70
     1
  9
$DIMSHO
 70
     1
  9
$DIMPOST
  1

  9
$DIMAPOST
  1
"
  9
$DIMALT
 70
     0
  9
$DIMALTD
 70
     2
  9
$DIMALTF
 40
0.0393701
  9
$DIMLFAC
 40
1.0
  9
$DIMTOFL
 70
     1
  9
$DIMTVP
 40
0.0
  9
$DIMTIX
 70
     0
  9
$DIMSOXD
 70
     0
  9
$DIMSAH
 70
     0
  9
$DIMBLK1
  1

  9
$DIMBLK2
  1

  9
$DIMSTYLE
  2
AM_DIN
  9
$DIMCLRD
 70
   256
  9
$DIMCLRE
 70
   256
  9
$DIMCLRT
 70
     2
  9
$DIMTFAC
 40
0.71
  9
$DIMGAP
 40
1.5
  9
$DIMJUST
 70
     0
  9
$DIMSD1
 70
     0
  9
$DIMSD2
 70
     0
  9
$DIMTOLJ
 70
     0
  9
$DIMTZIN
 70
     8
  9
$DIMALTZ
 70
     0
  9
$DIMALTTZ
 70
     0
  9
$DIMUPT
 70
     0
  9
$DIMDEC
 70
     0
  9
$DIMTDEC
 70
     3
  9
$DIMALTU
 70
     2
  9
$DIMALTTD
 70
     4
  9
$DIMTXSTY
  7
Standard
  9
$DIMAUNIT
 70
     0
  9
$DIMADEC
 70
     0
  9
$DIMALTRND
 40
0.0
  9
$DIMAZIN
 70
     2
  9
$DIMDSEP
 70
    46
  9
$DIMATFIT
 70
     3
  9
$DIMFRAC
 70
     0
  9
$DIMLDRBLK
  1

  9
$DIMLUNIT
 70
     2
  9
$DIMLWD
 70
    -1
  9
$DIMLWE
 70
    -1
  9
$DIMTMOVE
 70
     0
  9
$LUNITS
 70
     2
  9
$LUPREC
 70
     4
  9
$SKETCHINC
 40
1.0
  9
$FILLETRAD
 40
10.0
  9
$AUNITS
 70
     0
  9
$AUPREC
 70
     0
  9
$MENU
  1
.
  9
$ELEVATION
 40
0.0
  9
$PELEVATION
 40
0.0
  9
$THICKNESS
 40
0.0
  9
$LIMCHECK
 70
     0
  9
$CHAMFERA
 40
10.0
  9
$CHAMFERB
 40
10.0
  9
$CHAMFERC
 40
20.0
  9
$CHAMFERD
 40
0.0
  9
$SKPOLY
 70
     0
  9
$TDCREATE
 40
2456043.498115521
  9
$TDUCREATE
 40
2456043.414782187
  9
$TDUPDATE
 40
2456484.560368704
  9
$TDUUPDATE
 40
2456484.477035370
  9
$TDINDWG
 40
0.0451835069
  9
$TDUSRTIMER
 40
0.0451426852
  9
$USRTIMER
 70
     1
  9
$ANGBASE
 50
0.0
  9
$ANGDIR
 70
     0
  9
$PDMODE
 70
     0
  9
$PDSIZE
 40
0.0
  9
$PLINEWID
 40
0.0
  9
$SPLFRAME
 70
     0
  9
$SPLINETYPE
 70
     6
  9
$SPLINESEGS
 70
     8
  9
$HANDSEED
  5
120D
  9
$SURFTAB1
 70
     6
  9
$SURFTAB2
 70
     6
  9
$SURFTYPE
 70
     6
  9
$SURFU
 70
     6
  9
$SURFV
 70
     6
  9
$UCSBASE
  2

  9
$UCSNAME
  2

  9
$UCSORG
 10
0.0
 20
0.0
 30
0.0
  9
$UCSXDIR
 10
1.0
 20
0.0
 30
0.0
  9
$UCSYDIR
 10
0.0
 20
1.0
 30
0.0
  9
$UCSORTHOREF
  2

  9
$UCSORTHOVIEW
 70
     0
  9
$UCSORGTOP
 10
0.0
 20
0.0
 30
0.0
  9
$UCSORGBOTTOM
 10
0.0
 20
0.0
 30
0.0
  9
$UCSORGLEFT
 10
0.0
 20
0.0
 30
0.0
  9
$UCSORGRIGHT
 10
0.0
 20
0.0
 30
0.0
  9
$UCSORGFRONT
 10
0.0
 20
0.0
 30
0.0
  9
$UCSORGBACK
 10
0.0
 20
0.0
 30
0.0
  9
$PUCSBASE
  2

  9
$PUCSNAME
  2

  9
$PUCSORG
 10
0.0
 20
0.0
 30
0.0
  9
$PUCSXDIR
 10
1.0
 20
0.0
 30
0.0
  9
$PUCSYDIR
 10
0.0
 20
1.0
 30
0.0
  9
$PUCSORTHOREF
  2

  9
$PUCSORTHOVIEW
 70
     0
  9
$PUCSORGTOP
 10
0.0
 20
0.0
 30
0.0
  9
$PUCSORGBOTTOM
 10
0.0
 20
0.0
 30
0.0
  9
$PUCSORGLEFT
 10
0.0
 20
0.0
 30
0.0
  9
$PUCSORGRIGHT
 10
0.0
 20
0.0
 30
0.0
  9
$PUCSORGFRONT
 10
0.0
 20
0.0
 30
0.0
  9
$PUCSORGBACK
 10
0.0
 20
0.0
 30
0.0
  9
$USERI1
 70
     0
  9
$USERI2
 70
     0
  9
$USERI3
 70
     0
  9
$USERI4
 70
     0
  9
$USERI5
 70
     0
  9
$USERR1
 40
0.0
  9
$USERR2
 40
0.0
  9
$USERR3
 40
0.0
  9
$USERR4
 40
0.0
  9
$USERR5
 40
0.0
  9
$WORLDVIEW
 70
     1
  9
$SHADEDGE
 70
     3
  9
$SHADEDIF
 70
    70
  9
$TILEMODE
 70
     1
  9
$MAXACTVP
 70
    64
  9
$PINSBASE
 10
0.0
 20
0.0
 30
0.0
  9
$PLIMCHECK
 70
     0
  9
$PEXTMIN
 10
1.000000000000000E+20
 20
1.000000000000000E+20
 30
1.000000000000000E+20
  9
$PEXTMAX
 10
-1.000000000000000E+20
 20
-1.000000000000000E+20
 30
-1.000000000000000E+20
  9
$PLIMMIN
 10
0.0
 20
0.0
  9
$PLIMMAX
 10
420.0
 20
297.0
  9
$UNITMODE
 70
     0
  9
$VISRETAIN
 70
     1
  9
$PLINEGEN
 70
     0
  9
$PSLTSCALE
 70
     1
  9
$TREEDEPTH
 70
  3020
  9
$CMLSTYLE
  2
Standard
  9
$CMLJUST
 70
     0
  9
$CMLSCALE
 40
20.0
  9
$PROXYGRAPHICS
 70
     1
  9
$MEASUREMENT
 70
     1
  9
$CELWEIGHT
370
    -1
  9
$ENDCAPS
280
     0
  9
$JOINSTYLE
280
     0
  9
$LWDISPLAY
290
     0
  9
$INSUNITS
 70
     4
  9
$HYPERLINKBASE
  1

  9
$STYLESHEET
  1
monochrome.ctb
  9
$XEDIT
290
     1
  9
$CEPSNTYPE
380
     0
  9
$PSTYLEMODE
290
     1
  9
$FINGERPRINTGUID
  2
{1F7A7584-89C6-45FE-AFC8-4FF8E6A66233}
  9
$VERSIONGUID
  2
{C753EB24-59CA-4C8F-97B0-8A72B84ADC88}
  9
$EXTNAMES
290
     1
  9
$PSVPSCALE
 40
0.0
  9
$OLESTARTUP
290
     0
  9
$SORTENTS
280
   127
  9
$INDEXCTL
280
     0
  9
$HIDETEXT
280
     0
  9
$XCLIPFRAME
290
     0
  9
$HALOGAP
280
     0
  9
$OBSCOLOR
 70
   257
  9
$OBSLTYPE
280
     0
  9
$INTERSECTIONDISPLAY
280
     0
  9
$INTERSECTIONCOLOR
 70
   257
  9
$DIMASSOC
280
     2
  9
$PROJECTNAME
  1

  0
ENDSEC
  0
SECTION
  2
CLASSES
  0
CLASS
  1
ACDBDICTIONARYWDFLT
  2
AcDbDictionaryWithDefault
  3
ObjectDBX Classes
 90
        0
 91
        1
280
     0
281
     0
  0
CLASS
  1
ACME_DOCUMENT
  2
AcMeDbDoc
  3
AcMeServices
 90
        0
 91
        1
280
     0
281
     0
  0
CLASS
  1
AMGSETTINGSOBJ
  2
AmgSettingsObj
  3
"AcadM|Product Description: AutoCAD Mechanical|Company: Autodesk"
 90
        0
 91
        2
280
     0
281
     0
  0
CLASS
  1
ACMESCOPE
  2
AcMeScope
  3
AcMeServices
 90
        0
 91
        1
280
     0
281
     0
  0
CLASS
  1
ACMECOMMANDHISTORY
  2
AcMeCommandHistory
  3
AcMeServices
 90
        0
 91
        1
280
     0
281
     0
  0
CLASS
  1
ACIMSYSVARMAN
  2
AcImSysVarManager
  3
AcMeServices
 90
        0
 91
        5
280
     0
281
     0
  0
CLASS
  1
ACIMREALSYSVAR
  2
AcImRealSysVar
  3
AcMeServices
 90
        0
 91
        1
280
     0
281
     0
  0
CLASS
  1
ACIMINTSYSVAR
  2
AcImIntSysVar
  3
AcMeServices
 90
        0
 91
       28
280
     0
281
     0
  0
CLASS
  1
ACMEDRAWINGMAN
  2
AcMeDrawingMan
  3
AcMeServices
 90
        0
 91
        1
280
     0
281
     0
  0
CLASS
  1
ACMEVIEW
  2
AcMeView
  3
AcMeServices
 90
        0
 91
        1
280
     0
281
     0
  0
CLASS
  1
ACDBENTITYCACHE
  2
AcMeEntityCache
  3
AcMeServices
 90
        0
 91
        1
280
     0
281
     0
  0
CLASS
  1
GSMANAGER
  2
AcMeGSManager
  3
AcMeServices
 90
        0
 91
        1
280
     0
281
     0
  0
CLASS
  1
AMDTINTERNALREACTOR
  2
AmdtInternalReactor
  3
AcMeServices
 90
        0
 91
        2
280
     0
281
     0
  0
CLASS
  1
ACMESTATEMGR
  2
AcMeStateMgr
  3
AcMeServices
 90
        0
 91
        1
280
     0
281
     0
  0
CLASS
  1
ACGREFMASTER
  2
AcGrefMaster
  3
AcAttribServices
 90
        0
 91
        1
280
     0
281
     0
  0
CLASS
  1
ACME_DATABASE
  2
AcMeDbDatabase
  3
AcMeServices
 90
        0
 91
        1
280
     0
281
     0
  0
CLASS
  1
ACRFINSADJUSTERMGR
  2
AcRfInsAdjusterMgr
  3
AcMeServices
 90
        0
 91
        1
280
     0
281
     0
  0
CLASS
  1
ACGREFACADMASTER
  2
AcGrefacadMaster
  3
AcGrefServices
 90
        0
 91
        1
280
     0
281
     0
  0
CLASS
  1
AMIMASTER
  2
AmiMaster
  3
AmiServices
 90
        0
 91
        1
280
     0
281
     0
  0
CLASS
  1
ACMDATADICTIONARY
  2
AcmDataDictionary
  3
"AcmSymBB|Product Description: AutoCAD Mechanical|Company: Autodesk"
 90
        0
 91
        1
280
     0
281
     0
  0
CLASS
  1
ACMDATAENTRYBLOCK
  2
AcmDataEntryBlock
  3
"AcmSymBB|Product Description: AutoCAD Mechanical|Company: Autodesk"
 90
        0
 91
        0
280
     0
281
     0
  0
CLASS
  1
ACIMSTRSYSVAR
  2
AcImStrSysVar
  3
AcMeServices
 90
        0
 91
        5
280
     0
281
     0
  0
CLASS
  1
ACMSTANDARDISO
  2
AcmStandardISO
  3
"Amdt_StdImp|Product Description: AutoCAD Mechanical|Company: Autodesk"
 90
        0
 91
        1
280
     0
281
     0
  0
CLASS
  1
AMGOBJPROPCFG
  2
AmgObjPropCfg
  3
"AmgLay|Product Description: AutoCAD Mechanical|Company: Autodesk"
 90
        1
 91
        2
280
     0
281
     0
  0
CLASS
  1
AMDTEDGESTANDARDISO
  2
AmdtEdgeStdISO
  3
"Amdt_StdImp|Product Description: AutoCAD Mechanical|Company: Autodesk"
 90
        0
 91
        1
280
     0
281
     0
  0
CLASS
  1
ACMSURFSTANDARDISO
  2
AcmSurfTextStdISO
  3
"Amdt_StdImp|Product Description: AutoCAD Mechanical|Company: Autodesk"
 90
        0
 91
        1
280
     0
281
     0
  0
CLASS
  1
ACMFCFSTANDARDISO
  2
AcmFCFStdISO
  3
"Amdt_StdImp|Product Description: AutoCAD Mechanical|Company: Autodesk"
 90
        0
 91
        1
280
     0
281
     0
  0
CLASS
  1
ACMWELDSTANDARDISO
  2
AcmWeldingStdISO
  3
"Amdt_StdImp|Product Description: AutoCAD Mechanical|Company: Autodesk"
 90
        0
 91
        1
280
     0
281
     0
  0
CLASS
  1
ACMIDSTANDARDISO
  2
AcmIdStdISO
  3
"Amdt_StdImp|Product Description: AutoCAD Mechanical|Company: Autodesk"
 90
        0
 91
        1
280
     0
281
     0
  0
CLASS
  1
ACMDATUMSTANDARDISO
  2
AcmDatumStdISO
  3
"Amdt_StdImp|Product Description: AutoCAD Mechanical|Company: Autodesk"
 90
        0
 91
        1
280
     0
281
     0
  0
CLASS
  1
ACMBOMSTANDARDISO
  2
AcmBOMStdISO
  3
"Amdt_StdImp|Product Description: AutoCAD Mechanical|Company: Autodesk"
 90
        0
 91
        1
280
     0
281
     0
  0
CLASS
  1
ACMDETAILSTANDARDISO
  2
AmdtDetailSymStdISO
  3
"Amdt_StdImp|Product Description: AutoCAD Mechanical|Company: Autodesk"
 90
        0
 91
        1
280
     0
281
     0
  0
CLASS
  1
ACMSECTIONSTANDARDISO
  2
AmdtSectionSymStdISO
  3
"Amdt_StdImp|Product Description: AutoCAD Mechanical|Company: Autodesk"
 90
        0
 91
        1
280
     0
281
     0
  0
CLASS
  1
ACMCENTERLINESTANDARDISO
  2
AmdtCenterLineStdISO
  3
"Amdt_StdImp|Product Description: AutoCAD Mechanical|Company: Autodesk"
 90
        0
 91
        1
280
     0
281
     0
  0
CLASS
  1
ACMNOTESTANDARDISO
  2
AmdtNoteStdISO
  3
"Amdt_StdImp|Product Description: AutoCAD Mechanical|Company: Autodesk"
 90
        0
 91
        1
280
     0
281
     0
  0
CLASS
  1
ACAMGLAYSTD
  2
AcAmgLayStd
  3
"AmgLay|Product Description: AutoCAD Mechanical|Company: Autodesk"
 90
        0
 91
        2
280
     0
281
     0
  0
CLASS
  1
ACAMGDIMSTD
  2
AcAmgDimStd
  3
"AmgDim|Product Description: AutoCAD Mechanical|Company: Autodesk"
 90
        0
 91
        2
280
     0
281
     0
  0
CLASS
  1
ACAMGHOLECHARTSTDISO
  2
AcAmgHoleChartStdISO
  3
ACMSYMBB_MODULE_NAME
 90
        0
 91
        1
280
     0
281
     0
  0
CLASS
  1
ACAMGTITLESTD
  2
AcAmgTitleStd
  3
"AmgTitle|Product Description: AutoCAD Mechanical|Company: Autodesk"
 90
        0
 91
        2
280
     0
281
     0
  0
CLASS
  1
LAYER_INDEX
  2
AcDbLayerIndex
  3
ObjectDBX Classes
 90
        0
 91
        0
280
     0
281
     0
  0
CLASS
  1
IDBUFFER
  2
AcDbIdBuffer
  3
ObjectDBX Classes
 90
        0
 91
        0
280
     0
281
     0
  0
CLASS
  1
DICTIONARYVAR
  2
AcDbDictionaryVar
  3
ObjectDBX Classes
 90
        0
 91
        3
280
     0
281
     0
  0
CLASS
  1
AM_DRAWING_MGR
  2
AcDmDwgMgr
  3
AcMechDwgViewMgmt
 90
        0
 91
        1
280
     0
281
     0
  0
CLASS
  1
AM_DWG_DOCUMENT
  2
AcDmDwgDocument
  3
AcMechDwgViewMgmt
 90
        0
 91
        1
280
     0
281
     0
  0
CLASS
  1
AM_DWG_SHEET
  2
AcDmSheet
  3
AcMechDwgViewMgmt
 90
        0
 91
        2
280
     0
281
     0
  0
CLASS
  1
AM_VIEWDIMPARMAP
  2
AcDmViewDimParMap
  3
AcMechDwgViewMgmt
 90
        0
 91
        2
280
     0
281
     0
  0
CLASS
  1
AM_DWGMGR_NAME
  2
AcDmDwgMgrName
  3
AcMechDwgViewMgmt
 90
        0
 91
        1
280
     0
281
     0
  0
CLASS
  1
AMDTMENUSTATEMGR
  2
AmdtMenuStateMgr
  3
McadcomServices
 90
        0
 91
        1
280
     0
281
     0
  0
CLASS
  1
AMDTMCOMMENUSTATE
  2
AmdtMcomMenuState
  3
McadcomServices
 90
        0
 91
        1
280
     0
281
     0
  0
CLASS
  1
MAPIAMMOUDLE
  2
MApiAmModule
  3
MApiAmServices
 90
        0
 91
        1
280
     0
281
     0
  0
CLASS
  1
AMDTADMENUSTATE
  2
AmdtAdMenuState
  3
DesignerServices
 90
        0
 91
        1
280
     0
281
     0
  0
CLASS
  1
ADAPPL
  2
AcAdAppl
  3
DesignerServices
 90
        0
 91
        1
280
     0
281
     0
  0
CLASS
  1
DEPMGR
  2
AcAdDepMgr
  3
DesignerServices
 90
        0
 91
        1
280
     0
281
     0
  0
CLASS
  1
PARAMMGR
  2
AcAdParamMgr
  3
DesignerServices
 90
        0
 91
        1
280
     0
281
     0
  0
CLASS
  1
PARAMSCOPE
  2
AcAdParamScope
  3
DesignerServices
 90
        0
 91
        1
280
     0
281
     0
  0
CLASS
  1
NAMEDAPPL
  2
AcAdNamedAppl
  3
DesignerServices
 90
        0
 91
        1
280
     0
281
     0
  0
CLASS
  1
AMDTDMMENUSTATE
  2
AmdtDmMenuState
  3
AcMechDwgViewMgmt
 90
        0
 91
        1
280
     0
281
     0
  0
CLASS
  1
AMDTAMMENUSTATE
  2
AmdtAmMenuState
  3
DesignerAssemblies
 90
        0
 91
        1
280
     0
281
     0
  0
CLASS
  1
ACAMPROJECT
  2
AcAmProject
  3
DesignerAssemblies
 90
        0
 91
        1
280
     0
281
     0
  0
CLASS
  1
ACAMGRCOMPDEF
  2
AcAmGrCompDef
  3
DesignerAssemblies
 90
        0
 91
        1
280
     0
281
     0
  0
CLASS
  1
ACCMCONTEXT
  2
AcCmContext
  3
DesignerAssemblies
 90
        0
 91
        1
280
     0
281
     0
  0
CLASS
  1
ACAMCOMPDEF
  2
AcAmCompDef
  3
DesignerAssemblies
 90
        0
 91
        1
280
     0
281
     0
  0
CLASS
  1
ACAMCOMPDEFMGR
  2
AcAmCompDefMgr
  3
DesignerAssemblies
 90
        0
 91
        1
280
     0
281
     0
  0
CLASS
  1
AMCONTEXTMGR
  2
AcAmContextMgr
  3
DesignerAssemblies
 90
        0
 91
        1
280
     0
281
     0
  0
CLASS
  1
ACAMCONTEXTMODELER
  2
AcAmContextModeler
  3
DesignerAssemblies
 90
        0
 91
        1
280
     0
281
     0
  0
CLASS
  1
ACMTHREADLINESTANDARDISO
  2
AmdtThreadLineStdISO
  3
"Amdt_StdImp|Product Description: AutoCAD Mechanical|Company: Autodesk"
 90
        0
 91
        1
280
     0
281
     0
  0
CLASS
  1
CATALOGSTATE
  2
AcAmCatalogState
  3
DesignerAssemblies
 90
        0
 91
        1
280
     0
281
     0
  0
CLASS
  1
ACAMGRCOMPDEFSET
  2
AcAmGrCompDefSet
  3
DesignerAssemblies
 90
        0
 91
        1
280
     0
281
     0
  0
CLASS
  1
AMDTBROWSERDBTAB
  2
AmdtBrowserDbTab
  3
McadcomServices
 90
        0
 91
        1
280
     0
281
     0
  0
CLASS
  1
CBROWSERAPPOBJECT
  2
CBrowserAppObject
  3
McadcomServices
 90
        0
 91
        3
280
     0
281
     0
  0
CLASS
  1
DM_PLACEHOLDER
  2
AcDmSelsetPlaceholder
  3
AcMechDwgViewMgmt
 90
        0
 91
        1
280
     0
281
     0
  0
CLASS
  1
TABLESTYLE
  2
AcDbTableStyle
  3
ObjectDBX Classes
 90
     4095
 91
        1
280
     0
281
     0
  0
CLASS
  1
VAACXREFPANELOBJECT
  2
VaAcXREFPanelObject
  3
VAAC_ADDIN
 90
        0
 91
        0
280
     0
281
     0
  0
CLASS
  1
VAACIMAGEINVENTORY
  2
VaAcImageInventory
  3
VAAC_ADDIN
 90
        0
 91
        0
280
     0
281
     0
  0
CLASS
  1
AMDTNOTETEMPLATEDB
  2
AmdtNoteTemplateDB
  3
AMDT_STDIMP_MODULE_NAME
 90
        0
 91
        9
280
     0
281
     0
  0
CLASS
  1
ACMBOM
  2
AcmBom
  3
"AcmSymBB|Product Description: AutoCAD Mechanical|Company: Autodesk"
 90
        0
 91
        0
280
     0
281
     0
  0
CLASS
  1
AMDTFORMULAUPDATEDISPATCHER
  2
AmdtFormulaUpdateDispatcher
  3
AcMeServices
 90
        0
 91
        0
280
     0
281
     0
  0
CLASS
  1
ACAMGFILTERDAT
  2
AcAmgFilterDat
  3
"AcadM|Product Description: AutoCAD Mechanical|Company: Autodesk"
 90
        0
 91
        0
280
     0
281
     0
  0
CLASS
  1
ACMSTANDARDDIN
  2
AcmStandardDIN
  3
"Amdt_StdImp|Product Description: AutoCAD Mechanical|Company: Autodesk"
 90
        0
 91
        1
280
     0
281
     0
  0
CLASS
  1
AMDTEDGESTANDARDDIN13715
  2
AmdtEdgeStdDIN13715
  3
"Amdt_StdImp|Product Description: AutoCAD Mechanical|Company: Autodesk"
 90
        0
 91
        1
280
     0
281
     0
  0
CLASS
  1
ACMSURFSTANDARDDIN
  2
AcmSurfTextStdDIN
  3
"Amdt_StdImp|Product Description: AutoCAD Mechanical|Company: Autodesk"
 90
        0
 91
        1
280
     0
281
     0
  0
CLASS
  1
ACMFCFSTANDARDDIN
  2
AcmFCFStdDIN
  3
"Amdt_StdImp|Product Description: AutoCAD Mechanical|Company: Autodesk"
 90
        0
 91
        1
280
     0
281
     0
  0
CLASS
  1
ACMWELDSTANDARDDIN
  2
AcmWeldingStdDIN
  3
"Amdt_StdImp|Product Description: AutoCAD Mechanical|Company: Autodesk"
 90
        0
 91
        1
280
     0
281
     0
  0
CLASS
  1
ACMIDSTANDARDDIN
  2
AcmIdStdDIN
  3
"Amdt_StdImp|Product Description: AutoCAD Mechanical|Company: Autodesk"
 90
        0
 91
        1
280
     0
281
     0
  0
CLASS
  1
ACMDATUMSTANDARDDIN
  2
AcmDatumStdDIN
  3
"Amdt_StdImp|Product Description: AutoCAD Mechanical|Company: Autodesk"
 90
        0
 91
        1
280
     0
281
     0
  0
CLASS
  1
ACMBOMSTANDARDDIN
  2
AcmBOMStdDIN
  3
"Amdt_StdImp|Product Description: AutoCAD Mechanical|Company: Autodesk"
 90
        0
 91
        1
280
     0
281
     0
  0
CLASS
  1
ACMDETAILSTANDARDDIN
  2
AmdtDetailSymStdDIN
  3
"Amdt_StdImp|Product Description: AutoCAD Mechanical|Company: Autodesk"
 90
        0
 91
        1
280
     0
281
     0
  0
CLASS
  1
ACMSECTIONSTANDARDDIN
  2
AmdtSectionSymStdDIN
  3
"Amdt_StdImp|Product Description: AutoCAD Mechanical|Company: Autodesk"
 90
        0
 91
        1
280
     0
281
     0
  0
CLASS
  1
ACMCENTERLINESTANDARDDIN
  2
AmdtCenterLineStdDIN
  3
"Amdt_StdImp|Product Description: AutoCAD Mechanical|Company: Autodesk"
 90
        0
 91
        1
280
     0
281
     0
  0
CLASS
  1
ACMTHREADLINESTANDARDDIN
  2
AmdtThreadLineStdDIN
  3
"Amdt_StdImp|Product Description: AutoCAD Mechanical|Company: Autodesk"
 90
        0
 91
        1
280
     0
281
     0
  0
CLASS
  1
ACMNOTESTANDARDDIN
  2
AmdtNoteStdDIN
  3
"Amdt_StdImp|Product Description: AutoCAD Mechanical|Company: Autodesk"
 90
        0
 91
        1
280
     0
281
     0
  0
CLASS
  1
ACAMGHOLECHARTSTDDIN
  2
AcAmgHoleChartStdDIN
  3
ACMSYMBB_MODULE_NAME
 90
        0
 91
        1
280
     0
281
     0
  0
CLASS
  1
MATERIAL
  2
AcDbMaterial
  3
ObjectDBX Classes
 90
     1024
 91
        3
280
     0
281
     0
  0
CLASS
  1
VISUALSTYLE
  2
AcDbVisualStyle
  3
ObjectDBX Classes
 90
     4095
 91
       16
280
     0
281
     0
  0
CLASS
  1
ACRFATTGENMGR
  2
AcRfAttGeneralMgr
  3
AcAttribServices
 90
        0
 91
        0
280
     0
281
     0
  0
CLASS
  1
ACRFOBJATTMGR
  2
AcRfObjAttGroupMgr
  3
AcAttribServices
 90
        0
 91
        0
280
     0
281
     0
  0
CLASS
  1
ACRFMCADAPIATTHOLDER
  2
AcRfMCADAPIAttHolder
  3
AcAttribServices
 90
        0
 91
        0
280
     0
281
     0
  0
CLASS
  1
AMDTSYSATTR
  2
AmdtSystemAttribute
  3
AcAttribServices
 90
        0
 91
        0
280
     0
281
     0
  0
CLASS
  1
ACMTAPERSTANDARDISO
  2
AcmTaperStdISO
  3
"Amdt_StdImp|Product Description: AutoCAD Mechanical|Company: Autodesk"
 90
        0
 91
        1
280
     0
281
     0
  0
CLASS
  1
ACMTAPERSTANDARDDIN
  2
AcmTaperStdDIN
  3
"Amdt_StdImp|Product Description: AutoCAD Mechanical|Company: Autodesk"
 90
        0
 91
        1
280
     0
281
     0
  0
CLASS
  1
CAMSSTRUCTBTNSTATE
  2
StructBtnState
  3
L"DesignerAssemblies"
 90
        0
 91
        0
280
     0
281
     0
  0
CLASS
  1
STDPART2D
  2
AmgStdPart
  3
"g3vace|Class: AmgStdPart|Product Description: AutoCAD Mechanical|Company: Autodesk"
 90
     3071
 91
        0
280
     0
281
     1
  0
CLASS
  1
ACMWELDSYM
  2
AcmWelding
  3
"AcmSymBB|Product Description: AutoCAD Mechanical|Company: Autodesk"
 90
     3071
 91
        0
280
     0
281
     1
  0
CLASS
  1
AMDTNOTE
  2
AmdtNote
  3
"AcmSymBB|Product Description: AutoCAD Mechanical|Company: Autodesk"
 90
     3071
 91
        0
280
     0
281
     1
  0
CLASS
  1
ACDBLINERES
  2
AcDbLineRes
  3
AcGrefServices
 90
        0
 91
        0
280
     0
281
     0
  0
CLASS
  1
SORTENTSTABLE
  2
AcDbSortentsTable
  3
ObjectDBX Classes
 90
        0
 91
        0
280
     0
281
     0
  0
CLASS
  1
DIMASSOC
  2
AcDbDimAssoc
  3
"AcDbDimAssoc|Product Desc:     AcDim ARX App For Dimension|Company:          Autodesk, Inc.|WEB Address:      www.autodesk.com"
 90
        0
 91
        3
280
     0
281
     0
  0
ENDSEC
  0
SECTION
  2
TABLES
  0
TABLE
  2
VPORT
  5
8
330
0
100
AcDbSymbolTable
 70
     1
  0
VPORT
  5
253
330
8
100
AcDbSymbolTableRecord
100
AcDbViewportTableRecord
  2
*Active
 70
     0
 10
0.0
 20
0.0
 11
1.0
 21
1.0
 12
1478.686604319395
 22
963.1292046626377
 13
0.0
 23
0.0
 14
10.0
 24
10.0
 15
10.0
 25
10.0
 16
0.0
 26
0.0
 36
1.0
 17
0.0
 27
0.0
 37
0.0
 40
1875.374935424656
 41
1.651898734177215
 42
50.0
 43
0.0
 44
0.0
 50
0.0
 51
0.0
 71
     0
 72
  8000
 73
     1
 74
     3
 75
     0
 76
     0
 77
     0
 78
     0
281
     0
 65
     1
110
0.0
120
0.0
130
0.0
111
1.0
121
0.0
131
0.0
112
0.0
122
1.0
132
0.0
 79
     0
146
0.0
  0
ENDTAB
  0
TABLE
  2
LTYPE
  5
5
330
0
100
AcDbSymbolTable
 70
    24
  0
LTYPE
  5
14
330
5
100
AcDbSymbolTableRecord
100
AcDbLinetypeTableRecord
  2
ByBlock
 70
     0
  3

 72
    65
 73
     0
 40
0.0
  0
LTYPE
  5
15
330
5
100
AcDbSymbolTableRecord
100
AcDbLinetypeTableRecord
  2
ByLayer
 70
     0
  3

 72
    65
 73
     0
 40
0.0
  0
LTYPE
  5
16
330
5
100
AcDbSymbolTableRecord
100
AcDbLinetypeTableRecord
  2
Continuous
 70
     0
  3
Solid line
 72
    65
 73
     0
 40
0.0
  0
LTYPE
  5
64
330
5
100
AcDbSymbolTableRecord
100
AcDbLinetypeTableRecord
  2
AM_ISO02W050
 70
     0
  3
__ __ __ __ __ __ __ __ __ __ __ __ __ __ __
 72
    65
 73
     2
 40
7.5
 49
6.0
 74
     0
 49
-1.5
 74
     0
  0
LTYPE
  5
65
330
5
100
AcDbSymbolTableRecord
100
AcDbLinetypeTableRecord
  2
AM_ISO08W050
 70
     0
  3
____ . ____ . ____ . ____ . ____ . ____ . ____
 72
    65
 73
     4
 40
18.0
 49
12.0
 74
     0
 49
-1.5
 74
     0
 49
3.0
 74
     0
 49
-1.5
 74
     0
  0
LTYPE
  5
66
330
5
100
AcDbSymbolTableRecord
100
AcDbLinetypeTableRecord
  2
AM_ISO09W050
 70
     0
  3
_____ . . _____ . . _____ . . ____ .. ____
 72
    65
 73
     6
 40
22.5
 49
12.0
 74
     0
 49
-1.5
 74
     0
 49
3.0
 74
     0
 49
-1.5
 74
     0
 49
3.0
 74
     0
 49
-1.5
 74
     0
  0
LTYPE
  5
67
330
5
100
AcDbSymbolTableRecord
100
AcDbLinetypeTableRecord
  2
Amconstr
 70
     0
  3
_______________________
 72
    65
 73
     2
 40
9999.0
 49
9999.0
 74
     0
 49
0.0
 74
     0
  0
LTYPE
  5
68
330
5
100
AcDbSymbolTableRecord
100
AcDbLinetypeTableRecord
  2
AM_ISO08W050x2
 70
     0
  3
__ . __ . __ . __ . __ . __
 72
    65
 73
     4
 40
9.0
 49
6.0
 74
     0
 49
-0.75
 74
     0
 49
1.5
 74
     0
 49
-0.75
 74
     0
  0
LTYPE
  5
69
330
5
100
AcDbSymbolTableRecord
100
AcDbLinetypeTableRecord
  2
AM_ISO02W050x2
 70
     0
  3
 _ _ _ _ _ _ _ _ _ _ _ _
 72
    65
 73
     2
 40
3.75
 49
3.0
 74
     0
 49
-0.75
 74
     0
  0
LTYPE
  5
6C
330
5
100
AcDbSymbolTableRecord
100
AcDbLinetypeTableRecord
  2
Amzigzag
 70
     0
  3
/\/-/\/-/\/-/\/-/\/-/\/
 72
    65
 73
     2
 40
11.0001
 49
0.0001
 74
     4
 75
   135
340
6B
 46
0.04
 50
0.0
 44
0.0
 45
0.0
 49
-11.0
 74
     0
  0
LTYPE
  5
7A
330
5
100
AcDbSymbolTableRecord
100
AcDbLinetypeTableRecord
  2
ACISOWELD
 70
     0
  3
_ _ _ _ _
 72
    65
 73
     2
 40
2.0
 49
2.0
 74
     0
 49
-1.0
 74
     0
  0
LTYPE
  5
7B
330
5
100
AcDbSymbolTableRecord
100
AcDbLinetypeTableRecord
  2
ACISOTGB
 70
     0
  3
__ . . __ . .
 72
    65
 73
     6
 40
9.0
 49
4.0
 74
     0
 49
-1.0
 74
     0
 49
1.0
 74
     0
 49
-1.0
 74
     0
 49
1.0
 74
     0
 49
-1.0
 74
     0
  0
LTYPE
  5
7C
330
5
100
AcDbSymbolTableRecord
100
AcDbLinetypeTableRecord
  2
ACISOTGL
 70
     0
  3
_ _ _ _ _
 72
    65
 73
     2
 40
3.0
 49
2.0
 74
     0
 49
-1.0
 74
     0
  0
LTYPE
  5
7E
330
5
100
AcDbSymbolTableRecord
100
AcDbLinetypeTableRecord
  2
CENTER
 70
     0
  3
__ . __
 72
    65
 73
     4
 40
7.0
 49
4.0
 74
     0
 49
-1.0
 74
     0
 49
1.0
 74
     0
 49
-1.0
 74
     0
  0
LTYPE
  5
D8
330
5
100
AcDbSymbolTableRecord
100
AcDbLinetypeTableRecord
  2
HIDDEN
 70
     0
  3
Hidden __ __ __ __ __ __ __ __ __ __ __ __ __ _
 72
    65
 73
     2
 40
9.524999999999996
 49
6.349999999999997
 74
     0
 49
-3.174999999999998
 74
     0
  0
LTYPE
  5
D9
330
5
100
AcDbSymbolTableRecord
100
AcDbLinetypeTableRecord
  2
PHANTOM2
 70
     0
  3
Phantom (.5x) ___ _ _ ___ _ _ ___ _ _ ___ _ _
 72
    65
 73
     6
 40
31.75
 49
15.875
 74
     0
 49
-3.174999999999998
 74
     0
 49
3.174999999999998
 74
     0
 49
-3.174999999999998
 74
     0
 49
3.174999999999998
 74
     0
 49
-3.174999999999998
 74
     0
  0
LTYPE
  5
23B
330
5
100
AcDbSymbolTableRecord
100
AcDbLinetypeTableRecord
  2
ACDINWELD
 70
     0
  3
_ _ _ _ _
 72
    65
 73
     2
 40
2.0
 49
2.0
 74
     0
 49
-1.0
 74
     0
  0
LTYPE
  5
23C
330
5
100
AcDbSymbolTableRecord
100
AcDbLinetypeTableRecord
  2
ACDINTGB
 70
     0
  3
__ . . __ . .
 72
    65
 73
     6
 40
9.0
 49
4.0
 74
     0
 49
-1.0
 74
     0
 49
1.0
 74
     0
 49
-1.0
 74
     0
 49
1.0
 74
     0
 49
-1.0
 74
     0
  0
LTYPE
  5
23D
330
5
100
AcDbSymbolTableRecord
100
AcDbLinetypeTableRecord
  2
ACDINTGL
 70
     0
  3
_ _ _ _ _
 72
    65
 73
     2
 40
3.0
 49
2.0
 74
     0
 49
-1.0
 74
     0
  0
LTYPE
  5
24E
330
5
100
AcDbSymbolTableRecord
100
AcDbLinetypeTableRecord
  2
AM_DIN_F_W050
 70
     0
  3
__ __ __ __ __ __ __ __ __ __ __ __ __ __ __
 72
    65
 73
     2
 40
6.25
 49
4.75
 74
     0
 49
-1.5
 74
     0
  0
LTYPE
  5
24F
330
5
100
AcDbSymbolTableRecord
100
AcDbLinetypeTableRecord
  2
AM_DIN_G_W050
 70
     0
  3
____ . ____ . ____ . ____ . ____ . ____ . ____
 72
    65
 73
     4
 40
13.75
 49
9.75
 74
     0
 49
-1.5
 74
     0
 49
1.0
 74
     0
 49
-1.5
 74
     0
  0
LTYPE
  5
250
330
5
100
AcDbSymbolTableRecord
100
AcDbLinetypeTableRecord
  2
AM_DIN_K_W050
 70
     0
  3
_____ . . _____ . . _____ . . ____ .. ____
 72
    65
 73
     6
 40
16.25
 49
9.75
 74
     0
 49
-1.5
 74
     0
 49
1.0
 74
     0
 49
-1.5
 74
     0
 49
1.0
 74
     0
 49
-1.5
 74
     0
  0
LTYPE
  5
251
330
5
100
AcDbSymbolTableRecord
100
AcDbLinetypeTableRecord
  2
AM_DIN_G_W050x2
 70
     0
  3
__ . __ . __ . __ . __ . __
 72
    65
 73
     4
 40
6.875
 49
4.75
 74
     0
 49
-0.875
 74
     0
 49
0.375
 74
     0
 49
-0.875
 74
     0
  0
LTYPE
  5
252
330
5
100
AcDbSymbolTableRecord
100
AcDbLinetypeTableRecord
  2
AM_DIN_F_W050x2
 70
     0
  3
 _ _ _ _ _ _ _ _ _ _ _ _
 72
    65
 73
     2
 40
3.125
 49
2.25
 74
     0
 49
-0.875
 74
     0
  0
LTYPE
  5
AE3
330
5
100
AcDbSymbolTableRecord
100
AcDbLinetypeTableRecord
  2
DASHDOT
 70
     0
  3
 __ . __ . __ . __ . __ . __ . __ . 
 72
    65
 73
     4
 40
18.5
 49
12.0
 74
     0
 49
-3.0
 74
     0
 49
0.5
 74
     0
 49
-3.0
 74
     0
  0
ENDTAB
  0
TABLE
  2
LAYER
  5
2
102
{ACAD_XDICTIONARY
360
5B8
102
}
330
0
100
AcDbSymbolTable
 70
    14
  0
LAYER
  5
10
330
2
100
AcDbSymbolTableRecord
100
AcDbLayerTableRecord
  2
0
 70
     0
 62
     7
  6
Continuous
370
    -3
390
F
  0
LAYER
  5
597
330
2
100
AcDbSymbolTableRecord
100
AcDbLayerTableRecord
  2
AM_5
 70
     0
 62
     3
  6
Continuous
370
    25
390
F
  0
LAYER
  5
598
330
2
100
AcDbSymbolTableRecord
100
AcDbLayerTableRecord
  2
AM_7
 70
     0
 62
     4
  6
AM_DIN_G_W050
370
    25
390
F
1001
AcAecLayerStandard
1000

1000

  0
LAYER
  5
599
330
2
100
AcDbSymbolTableRecord
100
AcDbLayerTableRecord
  2
AM_0
 70
     0
 62
     7
  6
Continuous
370
    50
390
F
  0
LAYER
  5
59A
330
2
100
AcDbSymbolTableRecord
100
AcDbLayerTableRecord
  2
DEFPOINTS
 70
     0
 62
     7
  6
Continuous
290
     0
370
    -3
390
F
  0
LAYER
  5
59B
330
2
100
AcDbSymbolTableRecord
100
AcDbLayerTableRecord
  2
AM_3
 70
     0
 62
     6
  6
AM_DIN_F_W050
370
    25
390
F
  0
LAYER
  5
59C
330
2
100
AcDbSymbolTableRecord
100
AcDbLayerTableRecord
  2
AM_4
 70
     0
 62
     3
  6
Continuous
370
    25
390
F
1001
AcAecLayerStandard
1000

1000

  0
LAYER
  5
59D
330
2
100
AcDbSymbolTableRecord
100
AcDbLayerTableRecord
  2
AM_9
 70
     0
 62
  -253
  6
Continuous
370
     0
390
F
1001
AcAecLayerStandard
1000

1000

  0
LAYER
  5
59E
330
2
100
AcDbSymbolTableRecord
100
AcDbLayerTableRecord
  2
AM_8
 70
     0
 62
     1
  6
Continuous
370
    25
390
F
1001
AcAecLayerStandard
1000

1000

  0
LAYER
  5
59F
330
2
100
AcDbSymbolTableRecord
100
AcDbLayerTableRecord
  2
AM_BOR
 70
     0
 62
     7
  6
Continuous
370
    50
390
F
  0
LAYER
  5
5A0
330
2
100
AcDbSymbolTableRecord
100
AcDbLayerTableRecord
  2
UMRISS05
 70
     0
 62
     7
  6
Continuous
370
    -3
390
F
  0
LAYER
  5
5A1
330
2
100
AcDbSymbolTableRecord
100
AcDbLayerTableRecord
  2
6
 70
     0
 62
     2
  6
Continuous
370
    -3
390
F
  0
LAYER
  5
AE4
330
2
100
AcDbSymbolTableRecord
100
AcDbLayerTableRecord
  2
LOGO_VON_SCHLASSE_120709
 70
     0
 62
     7
  6
Continuous
370
    -3
390
F
  0
LAYER
  5
F87
330
2
100
AcDbSymbolTableRecord
100
AcDbLayerTableRecord
  2
AM_CL
 70
     0
 62
     1
  6
Amconstr
370
    25
390
F
1001
AcAecLayerStandard
1000

1000

  0
ENDTAB
  0
TABLE
  2
STYLE
  5
3
330
0
100
AcDbSymbolTable
 70
     7
  0
STYLE
  5
11
330
3
100
AcDbSymbolTableRecord
100
AcDbTextStyleTableRecord
  2
Standard
 70
     0
 40
0.0
 41
1.0
 50
0.0
 71
     0
 42
2.5
  3
ISOCP.SHX
  4
bigfont.shx
  0
STYLE
  5
6B
330
3
100
AcDbSymbolTableRecord
100
AcDbTextStyleTableRecord
  2

 70
     1
 40
0.0
 41
1.0
 50
0.0
 71
     0
 42
2.5
  3
ltypeshp.shx
  4

  0
STYLE
  5
6D
330
3
100
AcDbSymbolTableRecord
100
AcDbTextStyleTableRecord
  2
ACISOTS
 70
     0
 40
1.0
 41
1.0
 50
0.0
 71
     0
 42
2.5
  3
isocp.shx
  4
bigfont.shx
  0
STYLE
  5
79
330
3
100
AcDbSymbolTableRecord
100
AcDbTextStyleTableRecord
  2
ACISOGDT
 70
     0
 40
0.0
 41
1.0
 50
0.0
 71
     0
 42
2.5
  3
amgdt.shx
  4
bigfont.shx
  0
STYLE
  5
22D
330
3
100
AcDbSymbolTableRecord
100
AcDbTextStyleTableRecord
  2
ACDINTS
 70
     0
 40
1.0
 41
1.0
 50
0.0
 71
     0
 42
2.5
  3
isocp.shx
  4

  0
STYLE
  5
23A
330
3
100
AcDbSymbolTableRecord
100
AcDbTextStyleTableRecord
  2
ACDINGDT
 70
     0
 40
0.0
 41
1.0
 50
0.0
 71
     0
 42
2.5
  3
amgdt.shx
  4

  0
ENDTAB
  0
TABLE
  2
VIEW
  5
6
330
0
100
AcDbSymbolTable
 70
     0
  0
ENDTAB
  0
TABLE
  2
UCS
  5
7
330
0
100
AcDbSymbolTable
 70
     0
  0
ENDTAB
  0
TABLE
  2
APPID
  5
9
330
0
100
AcDbSymbolTable
 70
    32
  0
APPID
  5
12
330
9
100
AcDbSymbolTableRecord
100
AcDbRegAppTableRecord
  2
ACAD
 70
     0
  0
APPID
  5
46
330
9
100
AcDbSymbolTableRecord
100
AcDbRegAppTableRecord
  2
MCAD_NO_VIS
 70
     0
  0
APPID
  5
47
330
9
100
AcDbSymbolTableRecord
100
AcDbRegAppTableRecord
  2
ACAD_TEMP_GRAPHIC
 70
     0
  0
APPID
  5
58
330
9
100
AcDbSymbolTableRecord
100
AcDbRegAppTableRecord
  2
ACATTRIBSERVICES
 70
     0
  0
APPID
  5
EE
330
9
100
AcDbSymbolTableRecord
100
AcDbRegAppTableRecord
  2
AD_DRAW
 70
     0
  0
APPID
  5
10C
330
9
100
AcDbSymbolTableRecord
100
AcDbRegAppTableRecord
  2
DESIGNERASSEMBLIES
 70
     0
  0
APPID
  5
111
330
9
100
AcDbSymbolTableRecord
100
AcDbRegAppTableRecord
  2
ACADM_DIM_EDIT
 70
     0
  0
APPID
  5
112
330
9
100
AcDbSymbolTableRecord
100
AcDbRegAppTableRecord
  2
AMDT_DM_ADJ
 70
     0
  0
APPID
  5
5A3
330
9
100
AcDbSymbolTableRecord
100
AcDbRegAppTableRecord
  2
GENIUS_GENSCREG_15
 70
     0
  0
APPID
  5
5A4
330
9
100
AcDbSymbolTableRecord
100
AcDbRegAppTableRecord
  2
GENIUS_GENOBJ-N-SDF_13
 70
     0
  0
APPID
  5
5A5
330
9
100
AcDbSymbolTableRecord
100
AcDbRegAppTableRecord
  2
GENIUS_GENODEF_13
 70
     0
  0
APPID
  5
5A6
330
9
100
AcDbSymbolTableRecord
100
AcDbRegAppTableRecord
  2
AcAecLayerStandard
 70
     0
  0
APPID
  5
5A7
330
9
100
AcDbSymbolTableRecord
100
AcDbRegAppTableRecord
  2
GENIUS_GENOLIS_13
 70
     0
  0
APPID
  5
5A8
330
9
100
AcDbSymbolTableRecord
100
AcDbRegAppTableRecord
  2
GENIUS_GENOENT_13
 70
     0
  0
APPID
  5
5A9
330
9
100
AcDbSymbolTableRecord
100
AcDbRegAppTableRecord
  2
GENIUS_GENOREF_13
 70
     0
  0
APPID
  5
5AA
330
9
100
AcDbSymbolTableRecord
100
AcDbRegAppTableRecord
  2
GENIUS_GENOBJ-N-CEN_13
 70
     0
  0
APPID
  5
5AB
330
9
100
AcDbSymbolTableRecord
100
AcDbRegAppTableRecord
  2
GENIUS_GENCEN_19
 70
     0
  0
APPID
  5
5AC
330
9
100
AcDbSymbolTableRecord
100
AcDbRegAppTableRecord
  2
GENIUS_GENOBJ-N-FIL_13
 70
     0
  0
APPID
  5
5AD
330
9
100
AcDbSymbolTableRecord
100
AcDbRegAppTableRecord
  2
AMG_2DSTRUCT_BTR
 70
     0
  0
APPID
  5
5AE
330
9
100
AcDbSymbolTableRecord
100
AcDbRegAppTableRecord
  2
GENIUS_GENOBJ-N-HTC_13
 70
     0
  0
APPID
  5
5AF
330
9
100
AcDbSymbolTableRecord
100
AcDbRegAppTableRecord
  2
GENIUS_GENHATCH_13
 70
     0
  0
APPID
  5
5B0
330
9
100
AcDbSymbolTableRecord
100
AcDbRegAppTableRecord
  2
GENIUS_VERSION1
 70
     0
  0
APPID
  5
5B1
330
9
100
AcDbSymbolTableRecord
100
AcDbRegAppTableRecord
  2
GENIUS_GENTRA_14
 70
     0
  0
APPID
  5
5B2
330
9
100
AcDbSymbolTableRecord
100
AcDbRegAppTableRecord
  2
GENIUS_GENOBJ-N-TIT_13
 70
     0
  0
APPID
  5
5B3
330
9
100
AcDbSymbolTableRecord
100
AcDbRegAppTableRecord
  2
GENIUS_GENTITLE_13
 70
     0
  0
APPID
  5
5B4
330
9
100
AcDbSymbolTableRecord
100
AcDbRegAppTableRecord
  2
GENIUS_GENDTOL_13
 70
     0
  0
APPID
  5
5B5
330
9
100
AcDbSymbolTableRecord
100
AcDbRegAppTableRecord
  2
GENIUS_GENREC_14
 70
     0
  0
APPID
  5
5B6
330
9
100
AcDbSymbolTableRecord
100
AcDbRegAppTableRecord
  2
GENIUS_GENOBJ-N-REC_13
 70
     0
  0
APPID
  5
5B7
330
9
100
AcDbSymbolTableRecord
100
AcDbRegAppTableRecord
  2
GENIUS_GENOBJ-N-CRS_13
 70
     0
  0
APPID
  5
AE5
330
9
100
AcDbSymbolTableRecord
100
AcDbRegAppTableRecord
  2
ACAD_PSEXT
 70
     0
  0
APPID
  5
AE6
330
9
100
AcDbSymbolTableRecord
100
AcDbRegAppTableRecord
  2
DCO15
 70
     0
  0
APPID
  5
F38
330
9
100
AcDbSymbolTableRecord
100
AcDbRegAppTableRecord
  2
ACAD_EXEMPT_FROM_CAD_STANDARDS
 70
     0
  0
ENDTAB
  0
TABLE
  2
DIMSTYLE
  5
A
330
0
100
AcDbSymbolTable
 70
    18
100
AcDbDimStyleTable
 71
     1
340
245
  0
DIMSTYLE
105
27
330
A
100
AcDbSymbolTableRecord
100
AcDbDimStyleTableRecord
  2
ISO-25
 70
     0
 41
2.5
 42
0.625
 43
3.75
 44
1.25
 73
     0
 74
     0
 77
     1
 78
     8
140
2.5
141
2.5
143
0.03937007874016
147
0.625
171
     3
172
     1
271
     2
272
     2
274
     3
278
    44
283
     0
284
     8
340
11
  0
DIMSTYLE
105
81
330
A
100
AcDbSymbolTableRecord
100
AcDbDimStyleTableRecord
  2
AM_ISO
 70
     0
  4
"
 41
2.5
 42
1.0
 43
10.0
 44
1.0
 47
0.1
 48
0.1
 73
     0
 74
     0
 77
     1
 78
     8
 79
     2
140
3.5
141
0.0
143
0.0393701
146
0.71
147
1.5
172
     1
176
   256
177
   256
178
     2
271
     2
272
     3
274
     4
283
     0
284
     8
340
11
371
    -1
372
    -1
  0
DIMSTYLE
105
82
330
A
100
AcDbSymbolTableRecord
100
AcDbDimStyleTableRecord
  2
AM_ISO$3
 70
     0
  4
"
 41
2.5
 42
1.0
 43
10.0
 44
1.0
 47
0.1
 48
0.1
 73
     0
 77
     1
 78
     8
 79
     2
140
3.5
141
0.0
143
0.0393701
146
0.71
147
1.5
176
   256
177
   256
178
     2
271
     2
272
     3
274
     4
283
     0
284
     8
288
     1
289
     0
340
11
371
    -1
372
    -1
  0
DIMSTYLE
105
83
330
A
100
AcDbSymbolTableRecord
100
AcDbDimStyleTableRecord
  2
AM_ISO$4
 70
     0
  4
"
 41
2.5
 42
1.0
 43
10.0
 44
1.0
 47
0.1
 48
0.1
 73
     0
 77
     1
 78
     8
 79
     2
140
3.5
141
0.0
143
0.0393701
146
0.71
147
1.5
176
   256
177
   256
178
     2
271
     2
272
     3
274
     4
283
     0
284
     8
288
     1
289
     0
340
11
371
    -1
372
    -1
  0
DIMSTYLE
105
84
330
A
100
AcDbSymbolTableRecord
100
AcDbDimStyleTableRecord
  2
AM_ISO$6
 70
     0
  4
"
 41
2.5
 42
1.0
 43
10.0
 44
1.0
 47
0.1
 48
0.1
 73
     0
 74
     0
 78
     8
 79
     2
140
3.5
141
0.0
143
0.0393701
146
0.71
147
1.5
172
     1
176
   256
177
   256
178
     2
271
     2
272
     3
274
     4
283
     0
284
     8
340
11
371
    -1
372
    -1
  0
DIMSTYLE
105
85
330
A
100
AcDbSymbolTableRecord
100
AcDbDimStyleTableRecord
  2
AM_ISO$7
 70
     0
  4
"
 41
2.5
 42
1.0
 43
10.0
 44
1.0
 47
0.1
 48
0.1
 73
     0
 74
     0
 77
     1
 78
     8
 79
     2
140
5.0
141
0.0
143
0.0393701
146
0.71
147
1.5
172
     1
176
   256
177
   256
178
     2
271
     2
272
     3
274
     4
283
     0
284
     8
340
11
371
    -1
372
    -1
  0
DIMSTYLE
105
86
330
A
100
AcDbSymbolTableRecord
100
AcDbDimStyleTableRecord
  2
AM_ISO$SF
 70
     0
  4
"
 41
2.5
 42
1.0
 43
10.0
 44
1.0
 47
0.1
 48
0.1
 73
     0
 74
     0
 75
     1
 76
     1
 77
     1
 78
     8
 79
     2
140
3.5
141
0.0
143
0.0393701
146
0.71
147
1.5
172
     1
176
   256
177
   256
178
     2
271
     2
272
     3
274
     4
283
     0
284
     8
340
11
371
    -1
372
    -1
  0
DIMSTYLE
105
8B
330
A
100
AcDbSymbolTableRecord
100
AcDbDimStyleTableRecord
  2
AM_ISO$SH
 70
     0
  4
"
 41
2.5
 42
1.0
 43
10.0
 44
1.0
 47
0.1
 48
0.1
 73
     0
 74
     0
 75
     1
 76
     1
 77
     1
 78
     8
 79
     2
140
3.5
141
0.0
143
0.0393701
144
2.0
146
0.71
147
1.5
172
     1
173
     1
176
   256
177
   256
178
     2
271
     2
272
     3
274
     4
283
     0
284
     8
340
11
343
87
371
    -1
372
    -1
  0
DIMSTYLE
105
245
330
A
100
AcDbSymbolTableRecord
100
AcDbDimStyleTableRecord
  2
AM_DIN
 70
     0
  4
"
 41
2.5
 42
1.0
 43
10.0
 44
1.0
 47
0.1
 48
0.1
 73
     0
 74
     0
 77
     1
 78
     8
 79
     2
140
3.5
141
0.0
143
0.0393701
146
0.71
147
1.5
172
     1
176
   256
177
   256
178
     2
271
     2
272
     3
274
     4
283
     0
284
     8
340
11
371
    -1
372
    -1
  0
DIMSTYLE
105
246
330
A
100
AcDbSymbolTableRecord
100
AcDbDimStyleTableRecord
  2
AM_DIN$3
 70
     0
  4
"
 41
2.5
 42
1.0
 43
10.0
 44
1.0
 47
0.1
 48
0.1
 73
     0
 77
     1
 78
     8
 79
     2
140
3.5
141
0.0
143
0.0393701
146
0.71
147
1.5
176
   256
177
   256
178
     2
271
     2
272
     3
274
     4
283
     0
284
     8
288
     1
289
     0
340
11
371
    -1
372
    -1
  0
DIMSTYLE
105
247
330
A
100
AcDbSymbolTableRecord
100
AcDbDimStyleTableRecord
  2
AM_DIN$4
 70
     0
  4
"
 41
2.5
 42
1.0
 43
10.0
 44
1.0
 47
0.1
 48
0.1
 73
     0
 77
     1
 78
     8
 79
     2
140
3.5
141
0.0
143
0.0393701
146
0.71
147
1.5
176
   256
177
   256
178
     2
271
     2
272
     3
274
     4
283
     0
284
     8
288
     1
289
     0
340
11
371
    -1
372
    -1
  0
DIMSTYLE
105
248
330
A
100
AcDbSymbolTableRecord
100
AcDbDimStyleTableRecord
  2
AM_DIN$6
 70
     0
  4
"
 41
2.5
 42
1.0
 43
10.0
 44
1.0
 47
0.1
 48
0.1
 73
     0
 74
     0
 78
     8
 79
     2
140
3.5
141
0.0
143
0.0393701
146
0.71
147
1.5
172
     1
176
   256
177
   256
178
     2
271
     2
272
     3
274
     4
283
     0
284
     8
340
11
371
    -1
372
    -1
  0
DIMSTYLE
105
249
330
A
100
AcDbSymbolTableRecord
100
AcDbDimStyleTableRecord
  2
AM_DIN$7
 70
     0
  4
"
 41
2.5
 42
1.0
 43
10.0
 44
1.0
 47
0.1
 48
0.1
 73
     0
 74
     0
 77
     1
 78
     8
 79
     2
140
5.0
141
0.0
143
0.0393701
146
0.71
147
1.5
172
     1
176
   256
177
   256
178
     2
271
     2
272
     3
274
     4
283
     0
284
     8
340
11
371
    -1
372
    -1
  0
DIMSTYLE
105
24A
330
A
100
AcDbSymbolTableRecord
100
AcDbDimStyleTableRecord
  2
AM_DIN$SF
 70
     0
  4
"
 41
2.5
 42
1.0
 43
10.0
 44
1.0
 47
0.1
 48
0.1
 73
     0
 74
     0
 75
     1
 76
     1
 77
     1
 78
     8
 79
     2
140
3.5
141
0.0
143
0.0393701
146
0.71
147
1.5
172
     1
176
   256
177
   256
178
     2
271
     2
272
     3
274
     4
283
     0
284
     8
340
11
371
    -1
372
    -1
  0
DIMSTYLE
105
24B
330
A
100
AcDbSymbolTableRecord
100
AcDbDimStyleTableRecord
  2
AM_DIN$SH
 70
     0
  4
"
 41
2.5
 42
1.0
 43
10.0
 44
1.0
 47
0.1
 48
0.1
 73
     0
 74
     0
 75
     1
 76
     1
 77
     1
 78
     8
 79
     2
140
3.5
141
0.0
143
0.0393701
144
2.0
146
0.71
147
1.5
172
     1
173
     1
176
   256
177
   256
178
     2
271
     2
272
     3
274
     4
283
     0
284
     8
340
11
343
87
371
    -1
372
    -1
  0
DIMSTYLE
105
5A2
102
{ACAD_REACTORS
330
924
330
925
330
926
330
FCB
330
FE3
330
11D0
102
}
330
A
100
AcDbSymbolTableRecord
100
AcDbDimStyleTableRecord
  2
AM_DIN$0
 70
     0
  4
"
 41
2.5
 42
0.0
 43
10.0
 44
2.0
 47
0.1
 48
0.1
 73
     0
 74
     0
 77
     1
 78
     8
 79
     2
140
3.5
141
0.0
143
0.0393701
146
0.71
147
1.5
172
     1
176
   256
177
   256
178
     2
271
     2
272
     2
283
     0
284
     8
340
11
371
    -1
372
    -1
  0
ENDTAB
  0
TABLE
  2
BLOCK_RECORD
  5
1
330
0
100
AcDbSymbolTable
 70
    24
  0
BLOCK_RECORD
  5
1F
102
{ACAD_XDICTIONARY
360
8F
102
}
330
1
100
AcDbSymbolTableRecord
100
AcDbBlockTableRecord
  2
*Model_Space
340
22
  0
BLOCK_RECORD
  5
1B
330
1
100
AcDbSymbolTableRecord
100
AcDbBlockTableRecord
  2
*Paper_Space
340
1E
  0
BLOCK_RECORD
  5
23
330
1
100
AcDbSymbolTableRecord
100
AcDbBlockTableRecord
  2
*Paper_Space0
340
26
  0
BLOCK_RECORD
  5
87
330
1
100
AcDbSymbolTableRecord
100
AcDbBlockTableRecord
  2
GENAXEH
340
0
  0
BLOCK_RECORD
  5
2BF
330
1
100
AcDbSymbolTableRecord
100
AcDbBlockTableRecord
  2
sfm
340
0
102
{BLKREFS
331
384
102
}
  0
BLOCK_RECORD
  5
2C8
102
{ACAD_XDICTIONARY
360
2C9
102
}
330
1
100
AcDbSymbolTableRecord
100
AcDbBlockTableRecord
  2
REFLEX_EDBTITLE
340
0
  0
BLOCK_RECORD
  5
387
330
1
100
AcDbSymbolTableRecord
100
AcDbBlockTableRecord
  2
DIN_A1
340
0
102
{BLKREFS
331
80B
102
}
  0
BLOCK_RECORD
  5
40D
330
1
100
AcDbSymbolTableRecord
100
AcDbBlockTableRecord
  2
4
340
0
310
2800000020000000200000000100080000000000000400000000000000000000000000000000000000000000000080000080000000808000800000008000800080800000C0C0C000C0DCC000F0CAA6000020400000206000002080000020A0000020C0000020E00000400000004020000040400000406000004080000040A0
310
000040C0000040E00000600000006020000060400000606000006080000060A0000060C0000060E00000800000008020000080400000806000008080000080A0000080C0000080E00000A0000000A0200000A0400000A0600000A0800000A0A00000A0C00000A0E00000C0000000C0200000C0400000C0600000C0800000C0
310
A00000C0C00000C0E00000E0000000E0200000E0400000E0600000E0800000E0A00000E0C00000E0E00040000000400020004000400040006000400080004000A0004000C0004000E00040200000402020004020400040206000402080004020A0004020C0004020E000404000004040200040404000404060004040800040
310
40A0004040C0004040E00040600000406020004060400040606000406080004060A0004060C0004060E00040800000408020004080400040806000408080004080A0004080C0004080E00040A0000040A0200040A0400040A0600040A0800040A0A00040A0C00040A0E00040C0000040C0200040C0400040C0600040C08000
310
40C0A00040C0C00040C0E00040E0000040E0200040E0400040E0600040E0800040E0A00040E0C00040E0E00080000000800020008000400080006000800080008000A0008000C0008000E00080200000802020008020400080206000802080008020A0008020C0008020E00080400000804020008040400080406000804080
310
008040A0008040C0008040E00080600000806020008060400080606000806080008060A0008060C0008060E00080800000808020008080400080806000808080008080A0008080C0008080E00080A0000080A0200080A0400080A0600080A0800080A0A00080A0C00080A0E00080C0000080C0200080C0400080C0600080C0
310
800080C0A00080C0C00080C0E00080E0000080E0200080E0400080E0600080E0800080E0A00080E0C00080E0E000C0000000C0002000C0004000C0006000C0008000C000A000C000C000C000E000C0200000C0202000C0204000C0206000C0208000C020A000C020C000C020E000C0400000C0402000C0404000C0406000C0
310
408000C040A000C040C000C040E000C0600000C0602000C0604000C0606000C0608000C060A000C060C000C060E000C0800000C0802000C0804000C0806000C0808000C080A000C080C000C080E000C0A00000C0A02000C0A04000C0A06000C0A08000C0A0A000C0A0C000C0A0E000C0C00000C0C02000C0C04000C0C06000
310
C0C08000C0C0A000F0FBFF00A4A0A000808080000000FF0000FF000000FFFF00FF000000FF00FF00FFFF0000FFFFFF000000000000000000000000000000000000000000000000000000000000000000000000000000000000000000000000FD0000000000000000000000000000000000000000000000000000000000FDFD
310
FDFDFDFD0000000000000000000000000000000000000000000000000000FDFDFDFDFDFD0000000000000000000000000000000000000000000000000000FDFDFDFDFDFD0000000000000000000000000000000000000000000000000000FDFDFDFDFDFD0000000000000000000000000000000000000000000000000000FD
310
FDFDFDFDFD0000000000000000000000000000000000000000000000000000FDFDFDFDFDFD0000000000000000000000000000000000000000000000000000FDFDFDFDFDFD0000000000000000000000000000000000000000000000000000FDFDFDFDFDFD0000000000000000000000000000000000000000000000000000
310
FDFDFDFDFDFD0000000000000000000000000000000000000000000000000000FDFDFDFDFDFD0000000000000000000000000000000000000000000000000000FDFDFDFDFDFD0000000000000000000000000000000000000000000000000000FDFDFDFDFDFD00000000000000000000000000000000000000000000000000
310
00FDFDFDFDFDFD0000000000000000000000000000000000000000000000000000FDFDFDFDFDFD0000000000000000000000000000000000000000000000000000FDFDFDFDFDFD0000000000000000000000000000000000000000000000000000FDFDFDFDFDFD000000000000000000000000000000000000000000000000
310
0000FDFDFDFDFDFD0000000000000000000000000000000000000000000000000000FDFDFDFDFDFD0000000000000000000000000000000000000000000000000000FDFDFDFDFDFD0000000000000000000000000000000000000000000000000000FDFDFDFDFDFD0000000000000000000000000000000000000000000000
310
000000FDFDFDFDFDFD0000000000000000000000000000000000000000000000000000FDFDFDFDFDFD0000000000000000000000000000000000000000000000000000FDFDFDFDFDFD0000000000000000000000000000000000000000000000000000FDFDFDFDFDFD00000000000000000000000000000000000000000000
310
00000000FDFDFDFDFDFD0000000000000000000000000000000000000000000000000000FDFDFDFDFDFD0000000000000000000000000000000000000000000000000000FDFDFDFDFDFD0000000000000000000000000000000000000000000000000000FDFDFDFDFDFD000000000000000000000000000000000000000000
310
0000000000FDFDFDFDFDFD000000000000000000000000000000000000000000000000000000000000000000000000000000000000000000
1001
ACAD
1000
DesignCenter Data
1002
{
1070
     1
1070
     4
1002
}
  0
BLOCK_RECORD
  5
4FE
330
1
100
AcDbSymbolTableRecord
100
AcDbBlockTableRecord
  2
7
340
0
310
2800000020000000200000000100080000000000000400000000000000000000000000000000000000000000000080000080000000808000800000008000800080800000C0C0C000C0DCC000F0CAA6000020400000206000002080000020A0000020C0000020E00000400000004020000040400000406000004080000040A0
310
000040C0000040E00000600000006020000060400000606000006080000060A0000060C0000060E00000800000008020000080400000806000008080000080A0000080C0000080E00000A0000000A0200000A0400000A0600000A0800000A0A00000A0C00000A0E00000C0000000C0200000C0400000C0600000C0800000C0
310
A00000C0C00000C0E00000E0000000E0200000E0400000E0600000E0800000E0A00000E0C00000E0E00040000000400020004000400040006000400080004000A0004000C0004000E00040200000402020004020400040206000402080004020A0004020C0004020E000404000004040200040404000404060004040800040
310
40A0004040C0004040E00040600000406020004060400040606000406080004060A0004060C0004060E00040800000408020004080400040806000408080004080A0004080C0004080E00040A0000040A0200040A0400040A0600040A0800040A0A00040A0C00040A0E00040C0000040C0200040C0400040C0600040C08000
310
40C0A00040C0C00040C0E00040E0000040E0200040E0400040E0600040E0800040E0A00040E0C00040E0E00080000000800020008000400080006000800080008000A0008000C0008000E00080200000802020008020400080206000802080008020A0008020C0008020E00080400000804020008040400080406000804080
310
008040A0008040C0008040E00080600000806020008060400080606000806080008060A0008060C0008060E00080800000808020008080400080806000808080008080A0008080C0008080E00080A0000080A0200080A0400080A0600080A0800080A0A00080A0C00080A0E00080C0000080C0200080C0400080C0600080C0
310
800080C0A00080C0C00080C0E00080E0000080E0200080E0400080E0600080E0800080E0A00080E0C00080E0E000C0000000C0002000C0004000C0006000C0008000C000A000C000C000C000E000C0200000C0202000C0204000C0206000C0208000C020A000C020C000C020E000C0400000C0402000C0404000C0406000C0
310
408000C040A000C040C000C040E000C0600000C0602000C0604000C0606000C0608000C060A000C060C000C060E000C0800000C0802000C0804000C0806000C0808000C080A000C080C000C080E000C0A00000C0A02000C0A04000C0A06000C0A08000C0A0A000C0A0C000C0A0E000C0C00000C0C02000C0C04000C0C06000
310
C0C08000C0C0A000F0FBFF00A4A0A000808080000000FF0000FF000000FFFF00FF000000FF00FF00FFFF0000FFFFFF0000000000000000000000000000000000000000000000000000000000000000000000000000000000000000000000000000000000000000000000000000000000000000000000000000000000000000
310
0000000000000000000000000000000000000000000000000000000000000000000000000000000000000000000000000000000000000000000000000000000000000000000000000000000000FFFF00000000000000000000000000000000000000000000000000000000FFFFFEFEFF000000000000000000000000000000
310
000000000000000000000000FEFE00FFFF0000000000000000000000000000000000000000000000000000FFFEFFFF00000000000000000000000000000000000000000000000000000000FFFF0000000000000000000000000000000000000000000000000000000000FFFEFF000000000000000000000000000000000000
310
0000000000000000000000FFFF0000000000000000000000000000000000000000000000000000000000FFFE00FF000000000000000000000000000000000000000000FE000000000000FF00FEFF0000000000000000FFFFFF00000000000000000000FE00000000000000FFFE00FF0000000000FFFF00FEFEFFFFFF000000
310
0000000000FE000000000000FFFE00FF000000000000FFFEFFFFFFFE00FFFF000000000000FE000000000000FFFE00FF000000000000FFFF000000FFFFFEFF00000000000000FE0000000000FFFE00FF000000000000000000000000FFFE00FF000000000000FE0000000000FFFE00FF00000000000000000000000000FFFE
310
FF000000000000FE0000000000FFFE00FF00000000000000000000000000FFFE00FF000000000000FE00000000FFFE00FF0000000000000000000000000000FFFE00FF0000000000FE000000FFFE00FF000000000000000000000000000000FF00FE00FF0000000000FE00FF00FEFF00000000000000000000000000000000
310
00FFFE0000FFFFFF0000FEFF00FE00FF0000000000000000000000000000000000FF00FEFEFE0000FFFFFEFEFEFEFF00000000000000000000000000000000000000FFFF0000FEFEFEFEFEFEFFFF00000000000000000000000000000000000000000000FFFFFF000000FFFE00000000000000000000000000000000000000
310
0000000000000000FFFFFF0000FE00000000000000000000000000000000000000000000000000000000000000FE000000000000000000000000000000000000000000000000000000000000000000000000000000000000000000000000000000000000000000000000000000000000000000000000000000000000000000
310
0000000000000000000000000000000000000000000000000000000000000000000000000000000000000000000000000000000000000000
102
{BLKREFS
331
956
331
957
102
}
1001
ACAD
1000
DesignCenter Data
1002
{
1070
     1
1070
     4
1002
}
  0
BLOCK_RECORD
  5
519
330
1
100
AcDbSymbolTableRecord
100
AcDbBlockTableRecord
  2
6
340
0
310
2800000020000000200000000100080000000000000400000000000000000000000000000000000000000000000080000080000000808000800000008000800080800000C0C0C000C0DCC000F0CAA6000020400000206000002080000020A0000020C0000020E00000400000004020000040400000406000004080000040A0
310
000040C0000040E00000600000006020000060400000606000006080000060A0000060C0000060E00000800000008020000080400000806000008080000080A0000080C0000080E00000A0000000A0200000A0400000A0600000A0800000A0A00000A0C00000A0E00000C0000000C0200000C0400000C0600000C0800000C0
310
A00000C0C00000C0E00000E0000000E0200000E0400000E0600000E0800000E0A00000E0C00000E0E00040000000400020004000400040006000400080004000A0004000C0004000E00040200000402020004020400040206000402080004020A0004020C0004020E000404000004040200040404000404060004040800040
310
40A0004040C0004040E00040600000406020004060400040606000406080004060A0004060C0004060E00040800000408020004080400040806000408080004080A0004080C0004080E00040A0000040A0200040A0400040A0600040A0800040A0A00040A0C00040A0E00040C0000040C0200040C0400040C0600040C08000
310
40C0A00040C0C00040C0E00040E0000040E0200040E0400040E0600040E0800040E0A00040E0C00040E0E00080000000800020008000400080006000800080008000A0008000C0008000E00080200000802020008020400080206000802080008020A0008020C0008020E00080400000804020008040400080406000804080
310
008040A0008040C0008040E00080600000806020008060400080606000806080008060A0008060C0008060E00080800000808020008080400080806000808080008080A0008080C0008080E00080A0000080A0200080A0400080A0600080A0800080A0A00080A0C00080A0E00080C0000080C0200080C0400080C0600080C0
310
800080C0A00080C0C00080C0E00080E0000080E0200080E0400080E0600080E0800080E0A00080E0C00080E0E000C0000000C0002000C0004000C0006000C0008000C000A000C000C000C000E000C0200000C0202000C0204000C0206000C0208000C020A000C020C000C020E000C0400000C0402000C0404000C0406000C0
310
408000C040A000C040C000C040E000C0600000C0602000C0604000C0606000C0608000C060A000C060C000C060E000C0800000C0802000C0804000C0806000C0808000C080A000C080C000C080E000C0A00000C0A02000C0A04000C0A06000C0A08000C0A0A000C0A0C000C0A0E000C0C00000C0C02000C0C04000C0C06000
310
C0C08000C0C0A000F0FBFF00A4A0A000808080000000FF0000FF000000FFFF00FF000000FF00FF00FFFF0000FFFFFF00000000000000000000000000000000000000000000000000000000000000000000000000000000000000000000000000FD000000000000000000000000000000000000000000000000000000000000
310
00FD0000000000000000000000000000000000000000000000000000000000FDFDFDFD00000000000000000000000000000000000000000000000000FDFDFD00FDFD00FDFDFD0000000000000000000000000000000000000000FDFDFDFD0000FDFD0000FDFDFD000000000000000000000000000000000000FD000000FDFD
310
00FDFD00FDFD0000FDFD000000000000000000000000000000FD00FD0000FDFD00FDFD00FDFD0000FD00FD00000000000000000000000000FD0000FDFD00FDFDFDFDFDFDFDFD00FDFD0000FD0000000000000000000000FDFD000000FDFDFDFDFDFDFDFDFDFDFDFD000000FDFD00000000000000000000FDFDFDFD0000FDFD
310
FD00FDFDFDFDFDFD0000FDFDFDFD000000000000000000FD0000FDFDFDFDFDFDFDFDFDFDFDFDFDFDFDFDFDFD0000FD0000000000000000FDFD0000FDFDFDFDFDFDFDFDFDFDFDFDFDFDFDFD0000FDFD0000000000000000FDFDFDFDFDFDFDFDFDFDFD00FDFDFDFDFDFDFDFDFDFDFDFD00000000000000FD0000FDFDFDFDFDFD
310
FDFD0000FD00FDFDFDFDFDFDFDFD0000FD000000000000FD00000000FDFDFDFDFD000000FD0000FDFDFDFDFD00000000FD00000000FDFDFDFDFDFDFDFDFDFDFDFDFDFDFDFDFDFDFDFDFDFDFDFDFDFDFDFDFDFD00000000FDFDFDFDFDFDFDFDFDFDFD0000FD0000FDFDFDFDFDFDFDFDFDFD00000000000000FD000000FDFDFD
310
FDFDFDFD00FD00FDFDFDFDFDFD00000000FD00000000000000FD00FDFDFDFDFDFD00FDFDFDFDFDFD00FDFDFDFDFDFD00FD0000000000000000FDFDFDFD0000FD00FDFDFDFDFDFDFDFD00FD0000FDFDFDFD0000000000000000FDFD000000FDFDFDFDFDFDFDFDFDFDFDFDFDFD000000FDFD00000000000000000000FD00FDFD
310
0000FDFDFDFDFDFDFDFDFD00FDFD0000FD0000000000000000000000FDFDFD0000FDFD00FDFDFDFD00FDFD0000FDFDFD000000000000000000000000FDFD000000FD0000FDFDFDFDFD00FDFD0000FDFD0000000000000000000000000000FDFDFDFD00FDFDFDFDFDFD00FDFD00FD0000000000000000000000000000000000
310
00FD0000FDFDFDFDFDFD0000FDFD0000000000000000000000000000000000000000FDFDFDFD00FDFDFDFDFD000000000000000000000000000000000000000000000000FDFDFDFDFDFD0000000000000000000000000000000000000000000000000000000000FD0000000000000000000000000000000000000000000000
310
0000000000000000FD0000000000000000000000000000000000000000000000000000000000000000000000000000000000000000000000
1001
ACAD
1000
DesignCenter Data
1002
{
1070
     1
1070
     4
1002
}
  0
BLOCK_RECORD
  5
978
330
1
100
AcDbSymbolTableRecord
100
AcDbBlockTableRecord
  2
*D8
340
0
  0
BLOCK_RECORD
  5
984
330
1
100
AcDbSymbolTableRecord
100
AcDbBlockTableRecord
  2
*D9
340
0
  0
BLOCK_RECORD
  5
990
330
1
100
AcDbSymbolTableRecord
100
AcDbBlockTableRecord
  2
*D10
340
0
  0
BLOCK_RECORD
  5
99C
330
1
100
AcDbSymbolTableRecord
100
AcDbBlockTableRecord
  2
*D11
340
0
  0
BLOCK_RECORD
  5
9A8
330
1
100
AcDbSymbolTableRecord
100
AcDbBlockTableRecord
  2
*D12
340
0
  0
BLOCK_RECORD
  5
9B4
330
1
100
AcDbSymbolTableRecord
100
AcDbBlockTableRecord
  2
*D13
340
0
  0
BLOCK_RECORD
  5
9C0
330
1
100
AcDbSymbolTableRecord
100
AcDbBlockTableRecord
  2
*D14
340
0
  0
BLOCK_RECORD
  5
9CC
330
1
100
AcDbSymbolTableRecord
100
AcDbBlockTableRecord
  2
*D15
340
0
  0
BLOCK_RECORD
  5
9D8
330
1
100
AcDbSymbolTableRecord
100
AcDbBlockTableRecord
  2
*D16
340
0
  0
BLOCK_RECORD
  5
9E4
330
1
100
AcDbSymbolTableRecord
100
AcDbBlockTableRecord
  2
*D17
340
0
  0
BLOCK_RECORD
  5
FCC
330
1
100
AcDbSymbolTableRecord
100
AcDbBlockTableRecord
  2
*D18
340
0
  0
BLOCK_RECORD
  5
FE4
330
1
100
AcDbSymbolTableRecord
100
AcDbBlockTableRecord
  2
*D19
340
0
  0
BLOCK_RECORD
  5
11D1
330
1
100
AcDbSymbolTableRecord
100
AcDbBlockTableRecord
  2
*D21
340
0
  0
ENDTAB
  0
ENDSEC
  0
SECTION
  2
BLOCKS
  0
BLOCK
  5
20
330
1F
100
AcDbEntity
  8
0
100
AcDbBlockBegin
  2
*Model_Space
 70
     0
 10
0.0
 20
0.0
 30
0.0
  3
*Model_Space
  1

  0
ENDBLK
  5
21
330
1F
100
AcDbEntity
  8
0
100
AcDbBlockEnd
  0
BLOCK
  5
1C
330
1B
100
AcDbEntity
 67
     1
  8
0
100
AcDbBlockBegin
  2
*Paper_Space
 70
     0
 10
0.0
 20
0.0
 30
0.0
  3
*Paper_Space
  1

  0
ENDBLK
  5
1D
330
1B
100
AcDbEntity
 67
     1
  8
0
100
AcDbBlockEnd
  0
BLOCK
  5
24
330
23
100
AcDbEntity
 67
     1
  8
0
100
AcDbBlockBegin
  2
*Paper_Space0
 70
     0
 10
0.0
 20
0.0
 30
0.0
  3
*Paper_Space0
  1

  0
ENDBLK
  5
25
330
23
100
AcDbEntity
 67
     1
  8
0
100
AcDbBlockEnd
  0
BLOCK
  5
1180
330
87
100
AcDbEntity
  8
0
100
AcDbBlockBegin
  2
GENAXEH
 70
     0
 10
0.0
 20
0.0
 30
0.0
  3
GENAXEH
  1

  0
LINE
  5
1181
330
87
100
AcDbEntity
  8
0
100
AcDbLine
 10
-1.0
 20
0.0
 30
0.0
 11
1.0
 21
0.0
 31
0.0
  0
ENDBLK
  5
1182
330
87
100
AcDbEntity
  8
0
100
AcDbBlockEnd
  0
BLOCK
  5
2C0
330
2BF
100
AcDbEntity
  8
0
100
AcDbBlockBegin
  2
sfm
 70
     0
 10
0.0
 20
0.0
 30
0.0
  3
sfm
  1

  0
ARC
  5
2C1
330
2BF
100
AcDbEntity
  8
6
100
AcDbCircle
 10
4.790170910187725
 20
3.5
 30
0.0
 40
3.5
100
AcDbArc
 50
270.0
 51
90.0
  0
ARC
  5
2C2
330
2BF
100
AcDbEntity
  8
6
100
AcDbCircle
 10
0.0
 20
3.5
 30
0.0
 40
3.5
100
AcDbArc
 50
90.0
 51
270.0
  0
MTEXT
  5
2C3
330
2BF
100
AcDbEntity
  8
UMRISS05
 62
     2
100
AcDbMText
 10
-2.394073030151957
 20
5.872859090629845
 30
0.0
 40
3.0
 41
14.07
 71
     1
 72
     5
  1
\fArial Black|b0|i0|c0|p34;SFM
 73
     1
 44
1.0
  0
LINE
  5
2C4
330
2BF
100
AcDbEntity
  8
6
100
AcDbLine
 10
0.0
 20
0.0
 30
0.0
 11
4.790170910187725
 21
0.0
 31
0.0
  0
TEXT
  5
2C5
330
2BF
100
AcDbEntity
  8
UMRISS05
 62
     2
100
AcDbText
 10
-0.9325486328996246
 20
0.8119783732929588
 30
0.0
 40
1.5
  1
geprüft
100
AcDbText
  0
LINE
  5
2C6
330
2BF
100
AcDbEntity
  8
6
100
AcDbLine
 10
0.0
 20
7.0
 30
0.0
 11
4.790170910187725
 21
7.0
 31
0.0
  0
ENDBLK
  5
2C7
330
2BF
100
AcDbEntity
  8
0
100
AcDbBlockEnd
  0
BLOCK
  5
2CA
330
2C8
100
AcDbEntity
  8
0
100
AcDbBlockBegin
  2
REFLEX_EDBTITLE
 70
     2
 10
0.0
 20
0.0
 30
0.0
  3
REFLEX_EDBTITLE
  1

  0
LINE
  5
2CB
330
2C8
100
AcDbEntity
  8
AM_BOR
 62
     2
370
    35
100
AcDbLine
 10
0.0
 20
0.0
 30
0.0
 11
-190.0000000000076
 21
0.0
 31
0.0
  0
TEXT
  5
2CC
330
2C8
100
AcDbEntity
  8
AM_BOR
 62
     1
370
    25
100
AcDbText
 10
-115.7901946630717
 20
76.45962598719686
 30
0.0
 40
2.2
  1
Beschreibung der Änderung
100
AcDbText
  0
LINE
  5
2CD
330
2C8
100
AcDbEntity
  8
AM_BOR
 62
     2
370
    35
100
AcDbLine
 10
-190.0000000000076
 20
95.66666666667151
 30
0.0
 11
0.0
 21
95.66666666667151
 31
0.0
  0
LINE
  5
2CE
330
2C8
100
AcDbEntity
  8
AM_BOR
 62
     2
370
    35
100
AcDbLine
 10
-190.0000000000076
 20
90.66666666667151
 30
0.0
 11
0.0
 21
90.66666666667151
 31
0.0
  0
LINE
  5
2CF
330
2C8
100
AcDbEntity
  8
AM_BOR
 62
     2
370
    35
100
AcDbLine
 10
-190.0000000000076
 20
85.66666666667151
 30
0.0
 11
0.0
 21
85.66666666667151
 31
0.0
  0
LINE
  5
2D0
330
2C8
100
AcDbEntity
  8
AM_BOR
100
AcDbLine
 10
-190.0000000000076
 20
80.66666666667151
 30
0.0
 11
0.0
 21
80.66666666667151
 31
0.0
  0
LINE
  5
2D1
330
2C8
100
AcDbEntity
  8
AM_BOR
100
AcDbLine
 10
0.0
 20
0.0
 30
0.0
 11
-190.0000000000076
 21
0.0
 31
0.0
  0
LINE
  5
2D2
330
2C8
100
AcDbEntity
  8
AM_BOR
100
AcDbLine
 10
-190.0000000000076
 20
74.00000000000297
 30
0.0
 11
0.0
 21
74.00000000000297
 31
0.0
  0
LINE
  5
2D3
330
2C8
100
AcDbEntity
  8
AM_BOR
100
AcDbLine
 10
-148.5000000000075
 20
53.00000000000284
 30
0.0
 11
-110.5000000000077
 21
53.00000000000281
 31
0.0
  0
LINE
  5
2D4
330
2C8
100
AcDbEntity
  8
AM_BOR
 62
     2
370
    35
100
AcDbLine
 10
-148.5000000000075
 20
48.00000000000287
 30
0.0
 11
-110.5000000000077
 21
48.00000000000281
 31
0.0
  0
LINE
  5
2D5
330
2C8
100
AcDbEntity
  8
AM_BOR
 62
     2
370
    35
100
AcDbLine
 10
-148.5000000000075
 20
43.00000000000287
 30
0.0
 11
-110.5000000000077
 21
43.0000000000028
 31
0.0
  0
LINE
  5
2D6
330
2C8
100
AcDbEntity
  8
AM_BOR
100
AcDbLine
 10
-148.5000000000075
 20
38.00000000000284
 30
0.0
 11
0.0
 21
38.00000000000284
 31
0.0
  0
LINE
  5
2D7
330
2C8
100
AcDbEntity
  8
AM_BOR
100
AcDbLine
 10
-148.5000000000075
 20
58.00000000000284
 30
0.0
 11
0.0
 21
58.00000000000284
 31
0.0
  0
TEXT
  5
2D8
330
2C8
100
AcDbEntity
  8
AM_BOR
 62
     1
370
    25
100
AcDbText
 10
-184.5453046083921
 20
53.82399366428876
 30
0.0
 40
2.5
  1
Allgemeintoleranzen
 72
     1
 11
-169.2500000000076
 21
53.82399366428876
 31
0.0
100
AcDbText
  0
LINE
  5
2D9
330
2C8
100
AcDbEntity
  8
AM_BOR
100
AcDbLine
 10
-190.0000000000076
 20
135.6666666666715
 30
0.0
 11
-190.0000000000076
 21
0.0
 31
0.0
  0
TEXT
  5
2DA
330
2C8
100
AcDbEntity
  8
AM_BOR
 62
     1
370
    25
100
AcDbText
 10
-147.0000000000076
 20
71.0
 30
0.0
 40
2.0
  1
Werkstoff:
100
AcDbText
  0
LINE
  5
2DB
330
2C8
100
AcDbEntity
  8
AM_BOR
100
AcDbLine
 10
-148.5000000000075
 20
0.0
 30
0.0
 11
-148.5000000000075
 21
74.00000000000297
 31
0.0
  0
TEXT
  5
2DC
330
2C8
100
AcDbEntity
  8
AM_BOR
 62
     1
370
    25
100
AcDbText
 10
-187.0000452657501
 20
2.857790465878093
 30
0.0
 40
2.5
  1
Alle Rechte vorbehalten.
100
AcDbText
  0
TEXT
  5
2DD
330
2C8
100
AcDbEntity
  8
AM_BOR
 62
     1
370
    25
100
AcDbText
 10
-182.0372162604731
 20
7.819725632913011
 30
0.0
 40
2.5
  1
1995 Reflex,Ahlen
100
AcDbText
1001
GENIUS_GENTRA_14
1002
{
1070
     1
1000
/
1000
1995 Reflex,Ahlen
1000
DEU
1070
     0
1040
1.0
1070
     0
1002
}
  0
LINE
  5
2DE
330
2C8
100
AcDbEntity
  8
AM_BOR
100
AcDbLine
 10
-190.0000000000076
 20
14.00000000000297
 30
0.0
 11
-148.5000000000075
 21
14.00000000000297
 31
0.0
  0
LINE
  5
2DF
330
2C8
100
AcDbEntity
  8
AM_BOR
100
AcDbLine
 10
-190.0000000000076
 20
25.00000000000297
 30
0.0
 11
-148.5000000000075
 21
25.00000000000297
 31
0.0
  0
LINE
  5
2E0
330
2C8
100
AcDbEntity
  8
AM_BOR
100
AcDbLine
 10
-190.0000000000076
 20
36.00000000000297
 30
0.0
 11
-148.5000000000075
 21
36.00000000000297
 31
0.0
  0
LINE
  5
2E1
330
2C8
100
AcDbEntity
  8
AM_BOR
100
AcDbLine
 10
-190.0000000000076
 20
47.00000000000295
 30
0.0
 11
-148.5000000000075
 21
47.00000000000295
 31
0.0
  0
LINE
  5
2E2
330
2C8
100
AcDbEntity
  8
AM_BOR
100
AcDbLine
 10
-190.0000000000076
 20
58.00000000000296
 30
0.0
 11
-148.5000000000075
 21
58.00000000000296
 31
0.0
  0
TEXT
  5
2E3
330
2C8
100
AcDbEntity
  8
AM_BOR
 62
     1
370
    25
100
AcDbText
 10
-188.7953046083922
 20
42.66491288036503
 30
0.0
 40
2.5
  1
Form-und Lagetoleranzen
 72
     1
 11
-169.2500000000076
 21
42.66491288036503
 31
0.0
100
AcDbText
  0
TEXT
  5
2E4
330
2C8
100
AcDbEntity
  8
AM_BOR
 62
     1
370
    25
100
AcDbText
 10
-184.4203046083922
 20
31.50583411760111
 30
0.0
 40
2.5
  1
Oberflächenangaben
 72
     1
 11
-169.2500000000076
 21
31.50583411760111
 31
0.0
100
AcDbText
  0
TEXT
  5
2E5
330
2C8
100
AcDbEntity
  8
AM_BOR
 62
     1
370
    25
100
AcDbText
 10
-182.4234296083921
 20
20.64555149180674
 30
0.0
 40
2.5
  1
Werkstückkanten
 72
     1
 11
-169.2500000000076
 21
20.64555149180674
 31
0.0
100
AcDbText
  0
CIRCLE
  5
2E6
330
2C8
100
AcDbEntity
  8
AM_BOR
 62
     1
370
    25
100
AcDbCircle
 10
-185.5283738569115
 20
9.105009442083563
 30
0.0
 40
1.682013222792722
  0
TEXT
  5
2E7
330
2C8
100
AcDbEntity
  8
AM_BOR
 62
     1
370
    25
100
AcDbText
 10
-186.4808982796636
 20
7.852145036007374
 30
0.0
 40
2.5
  1
C
100
AcDbText
  0
LINE
  5
2E8
330
2C8
100
AcDbEntity
  8
AM_BOR
100
AcDbLine
 10
-134.7819501338923
 20
0.0
 30
0.0
 11
-134.7819501338922
 21
58.00000000000284
 31
0.0
  0
TEXT
  5
2E9
330
2C8
100
AcDbEntity
  8
AM_BOR
 62
     1
370
    25
100
AcDbText
 10
-147.0000000000076
 20
16.0
 30
0.0
 40
2.0
  1
Format
 41
1.234567901234567
 72
     5
 11
-137.0000000000076
 21
16.0
 31
0.0
100
AcDbText
  0
LINE
  5
2EA
330
2C8
100
AcDbEntity
  8
AM_BOR
100
AcDbLine
 10
-134.7819501338922
 20
19.0
 30
0.0
 11
-148.5000000000075
 21
19.0
 31
0.0
  0
TEXT
  5
2EB
330
2C8
100
AcDbEntity
  8
AM_BOR
 62
     1
370
    25
100
AcDbText
 10
-147.0000000000076
 20
34.81005903951976
 30
0.0
 40
2.0
  1
Maßstab
 41
1.002256342277585
 72
     5
 11
-137.0000000000076
 21
34.81005903951976
 31
0.0
100
AcDbText
  0
TEXT
  5
2EC
330
2C8
100
AcDbEntity
  8
AM_BOR
 62
     1
370
    25
100
AcDbText
 10
-147.0000000000076
 20
39.0
 30
0.0
 40
2.0
  1
Normg.
 41
1.298701298701298
 72
     5
 11
-137.0000000000076
 21
39.0
 31
0.0
100
AcDbText
  0
TEXT
  5
2ED
330
2C8
100
AcDbEntity
  8
AM_BOR
 62
     1
370
    25
100
AcDbText
 10
-147.0000000000076
 20
44.0
 30
0.0
 40
2.0
  1
gepr.
 41
1.75438596491228
 72
     5
 11
-137.0000000000076
 21
44.0
 31
0.0
100
AcDbText
  0
TEXT
  5
2EE
330
2C8
100
AcDbEntity
  8
AM_BOR
 62
     1
370
    25
100
AcDbText
 10
-147.0000000000076
 20
49.0
 30
0.0
 40
2.0
  1
Bearb.
 41
1.369863013698629
 72
     5
 11
-137.0000000000076
 21
49.0
 31
0.0
100
AcDbText
  0
TEXT
  5
2EF
330
2C8
100
AcDbEntity
  8
AM_BOR
 62
     1
370
    25
100
AcDbText
 10
-178.8250738189052
 20
26.50908286748418
 30
0.0
 40
2.5
  1
DIN ISO 1302
 72
     1
 11
-169.2500000000076
 21
26.50908286748418
 31
0.0
100
AcDbText
  0
TEXT
  5
2F0
330
2C8
100
AcDbEntity
  8
AM_BOR
 62
     1
370
    25
100
AcDbText
 10
-176.0000000000076
 20
15.81434939808754
 30
0.0
 40
2.5
  1
DIN 6784
 72
     1
 11
-169.2500000000076
 21
15.81434939808754
 31
0.0
100
AcDbText
  0
TEXT
  5
2F1
330
2C8
100
AcDbEntity
  8
AM_BOR
 62
     1
370
    25
100
AcDbText
 10
-178.2500000000076
 20
37.66816163024811
 30
0.0
 40
2.5
  1
DIN ISO 1101
 72
     1
 11
-169.2500000000076
 21
37.66816163024811
 31
0.0
100
AcDbText
  0
LINE
  5
2F2
330
2C8
100
AcDbEntity
  8
AM_BOR
100
AcDbLine
 10
-123.5000000000076
 20
38.00000000000284
 30
0.0
 11
-123.5000000000076
 21
58.00000000000284
 31
0.0
  0
TEXT
  5
2F3
330
2C8
100
AcDbEntity
  8
AM_BOR
 62
     1
370
    25
100
AcDbText
 10
-134.0000000000076
 20
54.0
 30
0.0
 40
2.0
  1
Tag
 41
1.677656365025809
 72
     5
 11
-127.0000000000076
 21
54.0
 31
0.0
100
AcDbText
  0
TEXT
  5
2F4
330
2C8
100
AcDbEntity
  8
AM_BOR
 62
     1
370
    25
100
AcDbText
 10
-123.0000000000076
 20
54.0
 30
0.0
 40
2.0
  1
Name
 41
1.694915254237288
 72
     5
 11
-113.0000000000076
 21
54.0
 31
0.0
100
AcDbText
  0
LINE
  5
2F5
330
2C8
100
AcDbEntity
  8
AM_BOR
100
AcDbLine
 10
-182.8025158264765
 20
135.6666666666715
 30
0.0
 11
-182.8025158264765
 21
74.00000000000297
 31
0.0
  0
TEXT
  5
2F6
330
2C8
100
AcDbEntity
  8
AM_BOR
 62
     1
370
    25
100
AcDbText
 10
-189.1672017515284
 20
76.45962598719686
 30
0.0
 40
2.2
  1
Index
100
AcDbText
  0
TEXT
  5
2F7
330
2C8
100
AcDbEntity
  8
AM_BOR
 62
     1
370
    25
100
AcDbText
 10
-45.00000000000748
 20
71.00000000000001
 30
0.0
 40
2.0
  1
Oberflächenbehandlung:
100
AcDbText
  0
TEXT
  5
2F8
330
2C8
100
AcDbEntity
  8
AM_BOR
 62
     1
370
    25
100
AcDbText
 10
-92.00000000000747
 20
71.00000000000001
 30
0.0
 40
2.0
  1
Nachbehandlung:
100
AcDbText
  0
LINE
  5
2F9
330
2C8
100
AcDbEntity
  8
AM_BOR
 62
     2
370
    35
100
AcDbLine
 10
-46.50000000000749
 20
74.00000000000297
 30
0.0
 11
-46.50000000000761
 21
58.00000000000284
 31
0.0
  0
LINE
  5
2FA
330
2C8
100
AcDbEntity
  8
AM_BOR
100
AcDbLine
 10
-93.50000000000759
 20
38.00000000000284
 30
0.0
 11
-93.50000000000774
 21
74.00000000000297
 31
0.0
  0
LINE
  5
2FB
330
2C8
100
AcDbEntity
  8
AM_BOR
 62
     2
370
    35
100
AcDbLine
 10
-65.50000000000773
 20
7.000000000000028
 30
0.0
 11
-26.50000000000762
 21
7.000000000000028
 31
0.0
  0
LINE
  5
2FC
330
2C8
100
AcDbEntity
  8
AM_BOR
 62
     2
370
    35
100
AcDbLine
 10
-65.50000000000773
 20
31.00000000000282
 30
0.0
 11
-26.50000000000762
 21
31.00000000000282
 31
0.0
  0
LINE
  5
2FD
330
2C8
100
AcDbEntity
  8
AM_BOR
100
AcDbLine
 10
-65.50000000000761
 20
0.0
 30
0.0
 11
-65.50000000000773
 21
58.00000000000281
 31
0.0
  0
TEXT
  5
2FE
330
2C8
100
AcDbEntity
  8
AM_BOR
 62
     1
370
    25
100
AcDbText
 10
-64.00000000000762
 20
4.0
 30
0.0
 40
2.0
  1
Ersetzt durch:
100
AcDbText
  0
TEXT
  5
2FF
330
2C8
100
AcDbEntity
  8
AM_BOR
 62
     1
370
    25
100
AcDbText
 10
-87.00000000000761
 20
42.0
 30
0.0
 40
2.0
  1
geprüft
100
AcDbText
  0
TEXT
  5
300
330
2C8
100
AcDbEntity
  8
AM_BOR
 62
     1
370
    25
100
AcDbText
 10
-92.00000000000761
 20
48.0
 30
0.0
 40
2.0
  1
werden besonders
100
AcDbText
  0
LINE
  5
301
330
2C8
100
AcDbEntity
  8
AM_BOR
 62
     1
370
    25
100
AcDbLine
 10
-82.00000000000761
 20
54.0
 30
0.0
 11
-76.00000000000761
 21
54.0
 31
0.0
  0
LINE
  5
302
330
2C8
100
AcDbEntity
  8
AM_BOR
 62
     1
370
    25
100
AcDbLine
 10
-82.00000000000761
 20
56.0
 30
0.0
 11
-76.00000000000761
 21
56.0
 31
0.0
  0
LINE
  5
303
330
2C8
100
AcDbEntity
  8
AM_BOR
100
AcDbLine
 10
-110.5000000000076
 20
38.00000000000284
 30
0.0
 11
-110.5000000000077
 21
58.00000000000284
 31
0.0
  0
TEXT
  5
304
330
2C8
100
AcDbEntity
  8
AM_BOR
 62
     1
370
    25
100
AcDbText
 10
-109.0000000000076
 20
54.0
 30
0.0
 40
2.0
  1
Gesehen:
 41
1.261523532265889
 72
     5
 11
-96.00000000000761
 21
54.0
 31
0.0
100
AcDbText
  0
TEXT
  5
305
330
2C8
100
AcDbEntity
  8
AM_BOR
 62
     1
370
    25
100
AcDbText
 10
-92.00000000000761
 20
54.0
 30
0.0
 40
2.0
  1
Diese
 41
1.146601146601141
 72
     5
 11
-85.00000000000763
 21
54.0
 31
0.0
100
AcDbText
  0
ARC
  5
306
330
2C8
100
AcDbEntity
  8
AM_BOR
 62
     1
370
    25
100
AcDbCircle
 10
-82.00000000000761
 20
55.0
 30
0.0
 40
1.0
100
AcDbArc
 50
90.00000000000005
 51
270.0000000000001
  0
TEXT
  5
307
330
2C8
100
AcDbEntity
  8
AM_BOR
 62
     1
370
    25
100
AcDbText
 10
-64.00000000000762
 20
35.0
 30
0.0
 40
2.0
  1
Ersatz für:
100
AcDbText
  0
TEXT
  5
308
330
2C8
100
AcDbEntity
  8
AM_BOR
 62
     1
370
    25
100
AcDbText
 10
-74.00000000000763
 20
54.0
 30
0.0
 40
2.0
  1
Maße
100
AcDbText
  0
ARC
  5
309
330
2C8
100
AcDbEntity
  8
AM_BOR
 62
     1
370
    25
100
AcDbCircle
 10
-76.00000000000761
 20
55.0
 30
0.0
 40
1.0
100
AcDbArc
 50
270.0
 51
90.0
  0
LINE
  5
30A
330
2C8
100
AcDbEntity
  8
AM_BOR
 62
     2
370
    35
100
AcDbLine
 10
-10.00000000000011
 20
0.0
 30
0.0
 11
-10.00000000000011
 21
38.00000000000284
 31
0.0
  0
LINE
  5
30B
330
2C8
100
AcDbEntity
  8
AM_BOR
 62
     2
370
    35
100
AcDbLine
 10
-15.04433005655051
 20
38.00000000000284
 30
0.0
 11
-15.04433005655051
 21
0.0
 31
0.0
  0
LINE
  5
30C
330
2C8
100
AcDbEntity
  8
AM_BOR
 62
     2
370
    35
100
AcDbLine
 10
-26.50000000000762
 20
7.000000000000028
 30
0.0
 11
-26.50000000000762
 21
0.0
 31
0.0
  0
LINE
  5
30D
330
2C8
100
AcDbEntity
  8
AM_BOR
 62
     2
370
    35
100
AcDbLine
 10
-15.04433005655051
 20
34.54545000000285
 30
0.0
 11
0.0
 21
34.54545000000285
 31
0.0
  0
LINE
  5
30E
330
2C8
100
AcDbEntity
  8
AM_BOR
 62
     2
370
    35
100
AcDbLine
 10
-26.50000000000762
 20
31.00000000000282
 30
0.0
 11
-26.50000000000762
 21
38.00000000000284
 31
0.0
  0
LINE
  5
30F
330
2C8
100
AcDbEntity
  8
AM_BOR
 62
     2
370
    35
100
AcDbLine
 10
-10.00000000000011
 20
34.20000000000283
 30
0.0
 11
-10.00000000000011
 21
38.00000000000284
 31
0.0
  0
TEXT
  5
310
330
2C8
100
AcDbEntity
  8
AM_BOR
 62
     1
370
    25
100
AcDbText
 10
-10.22624575893451
 20
76.45962598719686
 30
0.0
 40
2.2
  1
Name
100
AcDbText
  0
LINE
  5
311
330
2C8
100
AcDbEntity
  8
AM_BOR
100
AcDbLine
 10
-29.34186369022667
 20
135.6666666666715
 30
0.0
 11
-29.34186369022689
 21
74.00000000000298
 31
0.0
  0
LINE
  5
312
330
2C8
100
AcDbEntity
  8
AM_BOR
100
AcDbLine
 10
-15.46099918964126
 20
135.6666666666715
 30
0.0
 11
-15.46099918964148
 21
74.00000000000298
 31
0.0
  0
TEXT
  5
313
330
2C8
100
AcDbEntity
  8
AM_BOR
 62
     1
370
    25
100
AcDbText
 10
-26.39399351883265
 20
76.45962598719686
 30
0.0
 40
2.2
  1
Datum
100
AcDbText
  0
LINE
  5
314
330
2C8
100
AcDbEntity
  8
AM_BOR
 62
     2
370
    35
100
AcDbLine
 10
-190.0000000000076
 20
100.6666666666715
 30
0.0
 11
0.0
 21
100.6666666666715
 31
0.0
  0
TEXT
  5
315
330
2C8
100
AcDbEntity
  8
AM_BOR
 62
     2
370
    35
100
AcDbText
 10
-58.18101464137427
 20
40.59186368739278
 30
0.0
 40
3.0
  1
Reflex - POLSKA Sp z o.o.
 72
     1
 11
-33.27351464137429
 21
40.59186368739278
 31
0.0
100
AcDbText
  0
LINE
  5
316
330
2C8
100
AcDbEntity
  8
AM_BOR
100
AcDbLine
 10
0.0
 20
135.6666666666715
 30
0.0
 11
0.0
 21
0.0
 31
0.0
  0
TEXT
  5
317
330
2C8
100
AcDbEntity
  8
AM_BOR
 62
     1
370
    25
100
AcDbText
 10
-188.5000000000076
 20
71.0
 30
0.0
 40
2.0
  1
Sachnummer:
100
AcDbText
  0
ATTDEF
  5
318
330
2C8
100
AcDbEntity
  8
AM_BOR
100
AcDbText
 10
-169.2500000000076
 20
63.66666000000002
 30
0.0
 40
4.5
  1

 72
     1
 11
-169.2500000000076
 21
63.66666000000002
 31
0.0
100
AcDbAttributeDefinition
  3
Sachnummer
  2
R_SACH
 70
     0
  0
ATTDEF
  5
319
330
2C8
100
AcDbEntity
  8
AM_BOR
100
AcDbText
 10
-100.14097506695
 20
24.72359202704005
 30
0.0
 40
4.5
  1

 72
     1
 11
-100.14097506695
 21
24.72359202704005
 31
0.0
100
AcDbAttributeDefinition
  3
Benennung1
  2
R_BENENN1
 70
     0
  0
ATTDEF
  5
31A
330
2C8
100
AcDbEntity
  8
AM_BOR
100
AcDbText
 10
-100.14097506695
 20
16.72359202704005
 30
0.0
 40
4.5
  1

 72
     1
 11
-100.14097506695
 21
16.72359202704005
 31
0.0
100
AcDbAttributeDefinition
  3
Benennung2
  2
R_BENENN2
 70
     0
  0
ATTDEF
  5
31B
330
2C8
100
AcDbEntity
  8
AM_BOR
100
AcDbText
 10
-100.14097506695
 20
8.723592027040048
 30
0.0
 40
4.5
  1

 72
     1
 11
-100.14097506695
 21
8.723592027040048
 31
0.0
100
AcDbAttributeDefinition
  3
Benennung3
  2
R_BENENN3
 70
     0
  0
ATTDEF
  5
31C
330
2C8
100
AcDbEntity
  8
AM_BOR
 62
     1
370
    25
100
AcDbText
 10
-134.2819501338922
 20
49.50000000000287
 30
0.0
 40
2.0
  1

 41
0.6099885807078702
 72
     5
 11
-123.8511454037876
 21
49.50000000000287
 31
0.0
100
AcDbAttributeDefinition
  3
Bearbeitet Datum
  2
R_BEAR_DAT
 70
     0
  0
ATTDEF
  5
31D
330
2C8
100
AcDbEntity
  8
AM_BOR
 62
     1
370
    25
100
AcDbText
 10
-123.0000000000076
 20
49.50000000000282
 30
0.0
 40
2.0
  1

100
AcDbAttributeDefinition
  3
Bearbeitet Name
  2
R_BEAR_NAM
 70
     0
  0
ATTDEF
  5
31E
330
2C8
100
AcDbEntity
  8
AM_BOR
100
AcDbText
 10
-147.0000000000076
 20
28.66665999999984
 30
0.0
 40
4.5
  1

100
AcDbAttributeDefinition
  3
Maßstab
  2
GEN-TITLE-SCA{5.42}
 70
     0
1001
GENIUS_GENTRA_14
1002
{
1070
     3
1000
GENTRAPR,%s,(GENMSG gendwg 83)
1000
Maßstab
1000
DEU
1070
     0
1070
     0
1002
}
  0
ATTDEF
  5
31F
330
2C8
100
AcDbEntity
  8
AM_BOR
 62
     2
370
    35
100
AcDbText
 10
-147.0000000000076
 20
23.33332999999985
 30
0.0
 40
3.0
  1

100
AcDbAttributeDefinition
  3
Maßstab2
  2
R_MASSTAB2
 70
     0
  0
ATTDEF
  5
320
330
2C8
100
AcDbEntity
  8
AM_BOR
 62
     1
370
    25
100
AcDbText
 10
-64.00000000000762
 20
32.00000000000282
 30
0.0
 40
2.0
  1

100
AcDbAttributeDefinition
  3
Ersatz für
  2
R_ERSA_FUR
 70
     0
  0
ATTDEF
  5
321
330
2C8
100
AcDbEntity
  8
AM_BOR
 62
     1
370
    25
100
AcDbText
 10
-64.00000000000756
 20
0.9999999999999795
 30
0.0
 40
2.0
  1

100
AcDbAttributeDefinition
  3
Ersetzt durch
  2
R_ERSE_DUR
 70
     0
  0
ATTDEF
  5
322
330
2C8
100
AcDbEntity
  8
AM_BOR
 62
     2
370
    35
100
AcDbText
 10
-147.0000000000076
 20
65.66666000000002
 30
0.0
 40
3.0
  1

100
AcDbAttributeDefinition
  3
Werkstoff1
  2
R_WERK1
 70
     0
  0
ATTDEF
  5
323
330
2C8
100
AcDbEntity
  8
AM_BOR
 62
     2
370
    35
100
AcDbText
 10
-147.0000000000076
 20
60.33332999999997
 30
0.0
 40
3.0
  1

100
AcDbAttributeDefinition
  3
Werkstoff2
  2
R_WERK2
 70
     0
  0
ATTDEF
  5
324
330
2C8
100
AcDbEntity
  8
AM_BOR
 62
     2
370
    35
100
AcDbText
 10
-92.00000000000768
 20
65.66666000000002
 30
0.0
 40
3.0
  1

100
AcDbAttributeDefinition
  3
Nachbehandlung1
  2
R_NACHBE1
 70
     0
  0
ATTDEF
  5
325
330
2C8
100
AcDbEntity
  8
AM_BOR
 62
     2
370
    35
100
AcDbText
 10
-92.00000000000768
 20
60.33332999999997
 30
0.0
 40
3.0
  1

100
AcDbAttributeDefinition
  3
Nachbehandlung2
  2
R_NACHBE2
 70
     0
  0
ATTDEF
  5
326
330
2C8
100
AcDbEntity
  8
AM_BOR
 62
     2
370
    35
100
AcDbText
 10
-45.00000000000762
 20
65.66666000000002
 30
0.0
 40
3.0
  1

100
AcDbAttributeDefinition
  3
Oberflächenbehandlung1
  2
R_OBERFL1
 70
     0
  0
ATTDEF
  5
327
330
2C8
100
AcDbEntity
  8
AM_BOR
 62
     2
370
    35
100
AcDbText
 10
-45.00000000000762
 20
60.33332999999997
 30
0.0
 40
3.0
  1

100
AcDbAttributeDefinition
  3
Oberflächenbehandlung2
  2
R_OBERFL2
 70
     0
  0
ATTDEF
  5
328
330
2C8
100
AcDbEntity
  8
AM_BOR
100
AcDbText
 10
-147.0000000000076
 20
7.666659999996999
 30
0.0
 40
4.5
  1

100
AcDbAttributeDefinition
  3
Blattformat
  2
BLATTFORMAT
 70
     0
  0
ATTDEF
  5
329
330
2C8
100
AcDbEntity
  8
AM_BOR
 62
     1
370
    25
100
AcDbText
 10
-186.4012579132421
 20
82.16666666667149
 30
0.0
 40
2.0
  1

 72
     1
 11
-186.4012579132421
 21
82.16666666667149
 31
0.0
100
AcDbAttributeDefinition
  3
Änderungsindex 1
  2
R_AEIND1
 70
     0
  0
ATTDEF
  5
32A
330
2C8
100
AcDbEntity
  8
AM_BOR
 62
     1
370
    25
100
AcDbText
 10
-12.3315588552569
 20
35.34215080509318
 30
0.0
 40
2.0
  1

 72
     1
 11
-12.3315588552569
 21
35.34215080509318
 31
0.0
100
AcDbAttributeDefinition
  3
Änderungsindex 1
  2
R_AEIND1
 70
     0
  0
ATTDEF
  5
32B
330
2C8
100
AcDbEntity
  8
AM_BOR
 62
     1
370
    25
100
AcDbText
 10
-8.809393826981702
 20
35.34215080509318
 30
0.0
 40
2.0
  1

100
AcDbAttributeDefinition
  3
Änderungsnummer 1
  2
R_AENR1
 70
     0
  0
ATTDEF
  5
32C
330
2C8
100
AcDbEntity
  8
AM_BOR
 62
     1
370
    25
100
AcDbText
 10
-181.3025158264765
 20
82.16666666667149
 30
0.0
 40
2.0
  1

100
AcDbAttributeDefinition
  3
Änderungsbeschreibung 1
  2
R_AETEXT1
 70
     0
  0
ATTDEF
  5
32D
330
2C8
100
AcDbEntity
  8
AM_BOR
 62
     1
370
    25
100
AcDbText
 10
-27.84186369022683
 20
82.16666666667149
 30
0.0
 40
2.0
  1

100
AcDbAttributeDefinition
  3
Änderungsdatum 1
  2
R_AEDAT1
 70
     0
  0
ATTDEF
  5
32E
330
2C8
100
AcDbEntity
  8
AM_BOR
 62
     1
370
    25
100
AcDbText
 10
-13.96099918964142
 20
82.16666666667149
 30
0.0
 40
2.0
  1

100
AcDbAttributeDefinition
  3
Änderungsname 1
  2
R_AENAM1
 70
     0
  0
ATTDEF
  5
32F
330
2C8
100
AcDbEntity
  8
AM_BOR
 62
     1
370
    25
100
AcDbText
 10
-181.8252586544574
 20
48.99279157056955
 30
0.0
 40
2.5
  1

100
AcDbAttributeDefinition
  3
Allgemeintoleranzen
  2
R_TOLALL
 70
     0
  0
ATTDEF
  5
330
330
2C8
100
AcDbEntity
  8
AM_BOR
100
AcDbText
 10
-53.24838027179692
 20
9.657306607706779
 30
0.0
 40
3.5
  1

100
AcDbAttributeDefinition
  3
Projekt
  2
R_PROJEKT
 70
     0
  0
ATTDEF
  5
331
330
2C8
100
AcDbEntity
  8
AM_BOR
100
AcDbText
 10
-62.56400243277346
 20
19.16161098446256
 30
0.0
 40
6.0
  1

100
AcDbAttributeDefinition
  3
Projekt
  2
R_ZEICHNR
 70
     0
  0
LINE
  5
332
330
2C8
100
AcDbEntity
  8
AM_BOR
 62
     2
370
    35
100
AcDbLine
 10
-190.0000000000076
 20
105.6666666666715
 30
0.0
 11
0.0
 21
105.6666666666715
 31
0.0
  0
LINE
  5
333
330
2C8
100
AcDbEntity
  8
AM_BOR
 62
     2
370
    35
100
AcDbLine
 10
-190.0000000000076
 20
110.6666666666715
 30
0.0
 11
0.0
 21
110.6666666666715
 31
0.0
  0
LINE
  5
334
330
2C8
100
AcDbEntity
  8
AM_BOR
 62
     2
370
    35
100
AcDbLine
 10
-190.0000000000076
 20
115.6666666666715
 30
0.0
 11
0.0
 21
115.6666666666715
 31
0.0
  0
LINE
  5
335
330
2C8
100
AcDbEntity
  8
AM_BOR
 62
     2
370
    35
100
AcDbLine
 10
-190.0000000000076
 20
120.6666666666715
 30
0.0
 11
0.0
 21
120.6666666666715
 31
0.0
1001
GENIUS_VERSION1
1070
     1
  0
LINE
  5
336
330
2C8
100
AcDbEntity
  8
AM_BOR
 62
     2
370
    35
100
AcDbLine
 10
-190.0000000000076
 20
115.6666666666715
 30
0.0
 11
0.0
 21
115.6666666666715
 31
0.0
  0
LINE
  5
337
330
2C8
100
AcDbEntity
  8
AM_BOR
 62
     2
370
    35
100
AcDbLine
 10
-190.0000000000076
 20
120.6666666666715
 30
0.0
 11
0.0
 21
120.6666666666715
 31
0.0
  0
LINE
  5
338
330
2C8
100
AcDbEntity
  8
AM_BOR
 62
     2
370
    35
100
AcDbLine
 10
-190.0000000000076
 20
125.6666666666715
 30
0.0
 11
0.0
 21
125.6666666666715
 31
0.0
1001
GENIUS_VERSION1
1070
     1
  0
LINE
  5
339
330
2C8
100
AcDbEntity
  8
AM_BOR
100
AcDbLine
 10
-190.0000000000076
 20
135.6666666666715
 30
0.0
 11
0.0
 21
135.6666666666715
 31
0.0
1001
GENIUS_VERSION1
1070
     1
  0
LINE
  5
33A
330
2C8
100
AcDbEntity
  8
AM_BOR
 62
     2
370
    35
100
AcDbLine
 10
-190.0000000000076
 20
130.6666666666715
 30
0.0
 11
0.0
 21
130.6666666666715
 31
0.0
1001
GENIUS_VERSION1
1070
     1
  0
LINE
  5
33B
330
2C8
100
AcDbEntity
  8
AM_BOR
 62
     2
370
    35
100
AcDbLine
 10
-15.04433005655051
 20
31.09090000000285
 30
0.0
 11
0.0
 21
31.09090000000285
 31
0.0
  0
LINE
  5
33C
330
2C8
100
AcDbEntity
  8
AM_BOR
 62
     2
370
    35
100
AcDbLine
 10
-15.04433005655051
 20
27.63635000000285
 30
0.0
 11
0.0
 21
27.63635000000285
 31
0.0
  0
LINE
  5
33D
330
2C8
100
AcDbEntity
  8
AM_BOR
 62
     2
370
    35
100
AcDbLine
 10
-15.04433005655051
 20
24.18180000000285
 30
0.0
 11
0.0
 21
24.18180000000285
 31
0.0
  0
LINE
  5
33E
330
2C8
100
AcDbEntity
  8
AM_BOR
 62
     2
370
    35
100
AcDbLine
 10
-15.04433005655051
 20
20.72725000000286
 30
0.0
 11
0.0
 21
20.72725000000286
 31
0.0
  0
LINE
  5
33F
330
2C8
100
AcDbEntity
  8
AM_BOR
 62
     2
370
    35
100
AcDbLine
 10
-15.04433005655051
 20
17.27270000000285
 30
0.0
 11
0.0
 21
17.27270000000285
 31
0.0
  0
LINE
  5
340
330
2C8
100
AcDbEntity
  8
AM_BOR
 62
     2
370
    35
100
AcDbLine
 10
-15.04433005655051
 20
13.81815000000285
 30
0.0
 11
0.0
 21
13.81815000000285
 31
0.0
  0
LINE
  5
341
330
2C8
100
AcDbEntity
  8
AM_BOR
 62
     2
370
    35
100
AcDbLine
 10
-15.04433005655051
 20
10.36360000000286
 30
0.0
 11
0.0
 21
10.36360000000286
 31
0.0
  0
LINE
  5
342
330
2C8
100
AcDbEntity
  8
AM_BOR
 62
     2
370
    35
100
AcDbLine
 10
-15.04433005655051
 20
6.909050000002858
 30
0.0
 11
0.0
 21
6.909050000002858
 31
0.0
  0
LINE
  5
343
330
2C8
100
AcDbEntity
  8
AM_BOR
 62
     2
370
    35
100
AcDbLine
 10
-15.04433005655051
 20
3.454500000002861
 30
0.0
 11
0.0
 21
3.454500000002861
 31
0.0
1001
GENIUS_VERSION1
1070
     1
  0
ATTDEF
  5
344
330
2C8
100
AcDbEntity
  8
AM_BOR
 62
     1
370
    25
100
AcDbText
 10
-12.3315588552569
 20
31.88760080509319
 30
0.0
 40
2.0
  1

 72
     1
 11
-12.3315588552569
 21
31.88760080509319
 31
0.0
100
AcDbAttributeDefinition
  3
Änderungsindex 2
  2
R_AEIND2
 70
     0
  0
ATTDEF
  5
345
330
2C8
100
AcDbEntity
  8
AM_BOR
 62
     1
370
    25
100
AcDbText
 10
-8.809393826981702
 20
31.88760080509319
 30
0.0
 40
2.0
  1

100
AcDbAttributeDefinition
  3
Änderungsnummer 2
  2
R_AENR2
 70
     0
  0
ATTDEF
  5
346
330
2C8
100
AcDbEntity
  8
AM_BOR
 62
     1
370
    25
100
AcDbText
 10
-12.3315588552569
 20
28.43305080509319
 30
0.0
 40
2.0
  1

 72
     1
 11
-12.3315588552569
 21
28.43305080509319
 31
0.0
100
AcDbAttributeDefinition
  3
Änderungsindex 3
  2
R_AEIND3
 70
     0
  0
ATTDEF
  5
347
330
2C8
100
AcDbEntity
  8
AM_BOR
 62
     1
370
    25
100
AcDbText
 10
-8.809393826981702
 20
28.43305080509319
 30
0.0
 40
2.0
  1

100
AcDbAttributeDefinition
  3
Änderungsnummer 3
  2
R_AENR3
 70
     0
  0
ATTDEF
  5
348
330
2C8
100
AcDbEntity
  8
AM_BOR
 62
     1
370
    25
100
AcDbText
 10
-12.3315588552569
 20
24.9785008050932
 30
0.0
 40
2.0
  1

 72
     1
 11
-12.3315588552569
 21
24.9785008050932
 31
0.0
100
AcDbAttributeDefinition
  3
Änderungsindex 4
  2
R_AEIND4
 70
     0
  0
ATTDEF
  5
349
330
2C8
100
AcDbEntity
  8
AM_BOR
 62
     1
370
    25
100
AcDbText
 10
-8.809393826981702
 20
24.9785008050932
 30
0.0
 40
2.0
  1

100
AcDbAttributeDefinition
  3
Änderungsnummer 4
  2
R_AENR4
 70
     0
  0
ATTDEF
  5
34A
330
2C8
100
AcDbEntity
  8
AM_BOR
 62
     1
370
    25
100
AcDbText
 10
-12.3315588552569
 20
21.5239508050932
 30
0.0
 40
2.0
  1

 72
     1
 11
-12.3315588552569
 21
21.5239508050932
 31
0.0
100
AcDbAttributeDefinition
  3
Änderungsindex 5
  2
R_AEIND5
 70
     0
  0
ATTDEF
  5
34B
330
2C8
100
AcDbEntity
  8
AM_BOR
 62
     1
370
    25
100
AcDbText
 10
-8.809393826981702
 20
21.5239508050932
 30
0.0
 40
2.0
  1

100
AcDbAttributeDefinition
  3
Änderungsnummer 5
  2
R_AENR5
 70
     0
  0
ATTDEF
  5
34C
330
2C8
100
AcDbEntity
  8
AM_BOR
 62
     1
370
    25
100
AcDbText
 10
-12.3315588552569
 20
18.06940080509319
 30
0.0
 40
2.0
  1

 72
     1
 11
-12.3315588552569
 21
18.06940080509319
 31
0.0
100
AcDbAttributeDefinition
  3
Änderungsindex 6
  2
R_AEIND6
 70
     0
  0
ATTDEF
  5
34D
330
2C8
100
AcDbEntity
  8
AM_BOR
 62
     1
370
    25
100
AcDbText
 10
-8.809393826981702
 20
18.06940080509319
 30
0.0
 40
2.0
  1

100
AcDbAttributeDefinition
  3
Änderungsnummer 6
  2
R_AENR6
 70
     0
  0
ATTDEF
  5
34E
330
2C8
100
AcDbEntity
  8
AM_BOR
 62
     1
370
    25
100
AcDbText
 10
-12.3315588552569
 20
14.61485080509319
 30
0.0
 40
2.0
  1

 72
     1
 11
-12.3315588552569
 21
14.61485080509319
 31
0.0
100
AcDbAttributeDefinition
  3
Änderungsindex 7
  2
R_AEIND7
 70
     0
  0
ATTDEF
  5
34F
330
2C8
100
AcDbEntity
  8
AM_BOR
 62
     1
370
    25
100
AcDbText
 10
-8.809393826981702
 20
14.61485080509319
 30
0.0
 40
2.0
  1

100
AcDbAttributeDefinition
  3
Änderungsnummer 7
  2
R_AENR7
 70
     0
  0
ATTDEF
  5
350
330
2C8
100
AcDbEntity
  8
AM_BOR
 62
     1
370
    25
100
AcDbText
 10
-12.3315588552569
 20
11.16030080509319
 30
0.0
 40
2.0
  1

 72
     1
 11
-12.3315588552569
 21
11.16030080509319
 31
0.0
100
AcDbAttributeDefinition
  3
Änderungsindex 8
  2
R_AEIND8
 70
     0
  0
ATTDEF
  5
351
330
2C8
100
AcDbEntity
  8
AM_BOR
 62
     1
370
    25
100
AcDbText
 10
-8.809393826981702
 20
11.16030080509319
 30
0.0
 40
2.0
  1

100
AcDbAttributeDefinition
  3
Änderungsnummer 8
  2
R_AENR8
 70
     0
  0
ATTDEF
  5
352
330
2C8
100
AcDbEntity
  8
AM_BOR
 62
     1
370
    25
100
AcDbText
 10
-12.3315588552569
 20
7.705750805093199
 30
0.0
 40
2.0
  1

 72
     1
 11
-12.3315588552569
 21
7.705750805093199
 31
0.0
100
AcDbAttributeDefinition
  3
Änderungsindex 9
  2
R_AEIND9
 70
     0
  0
ATTDEF
  5
353
330
2C8
100
AcDbEntity
  8
AM_BOR
 62
     1
370
    25
100
AcDbText
 10
-8.809393826981702
 20
7.705750805093199
 30
0.0
 40
2.0
  1

100
AcDbAttributeDefinition
  3
Änderungsnummer 9
  2
R_AENR9
 70
     0
  0
ATTDEF
  5
354
330
2C8
100
AcDbEntity
  8
AM_BOR
 62
     1
370
    25
100
AcDbText
 10
-12.3315588552569
 20
4.2512008050932
 30
0.0
 40
2.0
  1

 72
     1
 11
-12.3315588552569
 21
4.2512008050932
 31
0.0
100
AcDbAttributeDefinition
  3
Änderungsindex 10
  2
R_AEIND10
 70
     0
  0
ATTDEF
  5
355
330
2C8
100
AcDbEntity
  8
AM_BOR
 62
     1
370
    25
100
AcDbText
 10
-8.809393826981702
 20
4.2512008050932
 30
0.0
 40
2.0
  1

100
AcDbAttributeDefinition
  3
Änderungsnummer 10
  2
R_AENR10
 70
     0
  0
ATTDEF
  5
356
330
2C8
100
AcDbEntity
  8
AM_BOR
 62
     1
370
    25
100
AcDbText
 10
-12.3315588552569
 20
0.7967008050903388
 30
0.0
 40
2.0
  1

 72
     1
 11
-12.3315588552569
 21
0.7967008050903388
 31
0.0
100
AcDbAttributeDefinition
  3
Änderungsindex 11
  2
R_AEIND11
 70
     0
  0
ATTDEF
  5
357
330
2C8
100
AcDbEntity
  8
AM_BOR
 62
     1
370
    25
100
AcDbText
 10
-8.809393826981702
 20
0.7967008050903388
 30
0.0
 40
2.0
  1

100
AcDbAttributeDefinition
  3
Änderungsnummer 11
  2
R_AENR11
 70
     0
  0
ATTDEF
  5
358
330
2C8
100
AcDbEntity
  8
AM_BOR
 62
     1
370
    25
100
AcDbText
 10
-134.2819501338922
 20
44.50000000000289
 30
0.0
 40
2.0
  1

 41
0.6029366896014201
 72
     5
 11
-123.8511454037876
 21
44.50000000000289
 31
0.0
100
AcDbAttributeDefinition
  3
Geprüft Datum
  2
R_PROV_DAT
 70
     0
  0
ATTDEF
  5
359
330
2C8
100
AcDbEntity
  8
AM_BOR
 62
     1
370
    25
100
AcDbText
 10
-123.0000000000076
 20
44.50000000000284
 30
0.0
 40
2.0
  1

100
AcDbAttributeDefinition
  3
Geprüft Name
  2
R_PROV_NAM
 70
     0
  0
ATTDEF
  5
35A
330
2C8
100
AcDbEntity
  8
AM_BOR
 62
     2
100
AcDbText
 10
-192.0000000000076
 20
2.0
 30
0.0
 40
3.5
  1

 50
90.0
100
AcDbAttributeDefinition
  3
Stempeltext
  2
STEMPELTEXT
 70
     0
  0
ATTDEF
  5
35B
330
2C8
100
AcDbEntity
  8
AM_BOR
 62
     1
370
    25
100
AcDbText
 10
-186.4012579132421
 20
87.16666666667149
 30
0.0
 40
2.0
  1

 72
     1
 11
-186.4012579132421
 21
87.16666666667149
 31
0.0
100
AcDbAttributeDefinition
  3
Änderungsindex 2
  2
R_AEIND2
 70
     0
  0
ATTDEF
  5
35C
330
2C8
100
AcDbEntity
  8
AM_BOR
 62
     1
370
    25
100
AcDbText
 10
-181.3025158264765
 20
87.16666666667149
 30
0.0
 40
2.0
  1

100
AcDbAttributeDefinition
  3
Änderungsbeschreibung 2
  2
R_AETEXT2
 70
     0
  0
ATTDEF
  5
35D
330
2C8
100
AcDbEntity
  8
AM_BOR
 62
     1
370
    25
100
AcDbText
 10
-27.84186369022683
 20
87.16666666667149
 30
0.0
 40
2.0
  1

100
AcDbAttributeDefinition
  3
Änderungsdatum 2
  2
R_AEDAT2
 70
     0
  0
ATTDEF
  5
35E
330
2C8
100
AcDbEntity
  8
AM_BOR
 62
     1
370
    25
100
AcDbText
 10
-13.96099918964142
 20
87.16666666667149
 30
0.0
 40
2.0
  1

100
AcDbAttributeDefinition
  3
Änderungsname 2
  2
R_AENAM2
 70
     0
  0
ATTDEF
  5
35F
330
2C8
100
AcDbEntity
  8
AM_BOR
 62
     1
370
    25
100
AcDbText
 10
-186.4012579132421
 20
92.16666666667148
 30
0.0
 40
2.0
  1

 72
     1
 11
-186.4012579132421
 21
92.16666666667148
 31
0.0
100
AcDbAttributeDefinition
  3
Änderungsindex 3
  2
R_AEIND3
 70
     0
  0
ATTDEF
  5
360
330
2C8
100
AcDbEntity
  8
AM_BOR
 62
     1
370
    25
100
AcDbText
 10
-181.3025158264765
 20
92.16666666667148
 30
0.0
 40
2.0
  1

100
AcDbAttributeDefinition
  3
Änderungsbeschreibung 3
  2
R_AETEXT3
 70
     0
  0
ATTDEF
  5
361
330
2C8
100
AcDbEntity
  8
AM_BOR
 62
     1
370
    25
100
AcDbText
 10
-27.84186369022683
 20
92.16666666667148
 30
0.0
 40
2.0
  1

100
AcDbAttributeDefinition
  3
Änderungsdatum 3
  2
R_AEDAT3
 70
     0
  0
ATTDEF
  5
362
330
2C8
100
AcDbEntity
  8
AM_BOR
 62
     1
370
    25
100
AcDbText
 10
-13.96099918964142
 20
92.16666666667148
 30
0.0
 40
2.0
  1

100
AcDbAttributeDefinition
  3
Änderungsname 3
  2
R_AENAM3
 70
     0
  0
ATTDEF
  5
363
330
2C8
100
AcDbEntity
  8
AM_BOR
 62
     1
370
    25
100
AcDbText
 10
-186.4012579132421
 20
97.16666666667151
 30
0.0
 40
2.0
  1

 72
     1
 11
-186.4012579132421
 21
97.16666666667151
 31
0.0
100
AcDbAttributeDefinition
  3
Änderungsindex 4
  2
R_AEIND4
 70
     0
  0
ATTDEF
  5
364
330
2C8
100
AcDbEntity
  8
AM_BOR
 62
     1
370
    25
100
AcDbText
 10
-181.3025158264765
 20
97.16666666667151
 30
0.0
 40
2.0
  1

100
AcDbAttributeDefinition
  3
Änderungsbeschreibung 4
  2
R_AETEXT4
 70
     0
  0
ATTDEF
  5
365
330
2C8
100
AcDbEntity
  8
AM_BOR
 62
     1
370
    25
100
AcDbText
 10
-27.84186369022683
 20
97.16666666667151
 30
0.0
 40
2.0
  1

100
AcDbAttributeDefinition
  3
Änderungsdatum 4
  2
R_AEDAT4
 70
     0
  0
ATTDEF
  5
366
330
2C8
100
AcDbEntity
  8
AM_BOR
 62
     1
370
    25
100
AcDbText
 10
-13.96099918964142
 20
97.16666666667151
 30
0.0
 40
2.0
  1

100
AcDbAttributeDefinition
  3
Änderungsname 4
  2
R_AENAM4
 70
     0
  0
ATTDEF
  5
367
330
2C8
100
AcDbEntity
  8
AM_BOR
 62
     1
370
    25
100
AcDbText
 10
-186.4012579132421
 20
102.1666666666715
 30
0.0
 40
2.0
  1

 72
     1
 11
-186.4012579132421
 21
102.1666666666715
 31
0.0
100
AcDbAttributeDefinition
  3
Änderungsindex 5
  2
R_AEIND5
 70
     0
  0
ATTDEF
  5
368
330
2C8
100
AcDbEntity
  8
AM_BOR
 62
     1
370
    25
100
AcDbText
 10
-181.3025158264765
 20
102.1666666666715
 30
0.0
 40
2.0
  1

100
AcDbAttributeDefinition
  3
Änderungsbeschreibung 5
  2
R_AETEXT5
 70
     0
  0
ATTDEF
  5
369
330
2C8
100
AcDbEntity
  8
AM_BOR
 62
     1
370
    25
100
AcDbText
 10
-27.84186369022683
 20
102.1666666666715
 30
0.0
 40
2.0
  1

100
AcDbAttributeDefinition
  3
Änderungsdatum 5
  2
R_AEDAT5
 70
     0
  0
ATTDEF
  5
36A
330
2C8
100
AcDbEntity
  8
AM_BOR
 62
     1
370
    25
100
AcDbText
 10
-13.96099918964142
 20
102.1666666666715
 30
0.0
 40
2.0
  1

100
AcDbAttributeDefinition
  3
Änderungsname 5
  2
R_AENAM5
 70
     0
  0
ATTDEF
  5
36B
330
2C8
100
AcDbEntity
  8
AM_BOR
 62
     1
370
    25
100
AcDbText
 10
-186.4012579132421
 20
107.1666666666715
 30
0.0
 40
2.0
  1

 72
     1
 11
-186.4012579132421
 21
107.1666666666715
 31
0.0
100
AcDbAttributeDefinition
  3
Änderungsindex 6
  2
R_AEIND6
 70
     0
  0
ATTDEF
  5
36C
330
2C8
100
AcDbEntity
  8
AM_BOR
 62
     1
370
    25
100
AcDbText
 10
-181.3025158264765
 20
107.1666666666715
 30
0.0
 40
2.0
  1

100
AcDbAttributeDefinition
  3
Änderungsbeschreibung 6
  2
R_AETEXT6
 70
     0
  0
ATTDEF
  5
36D
330
2C8
100
AcDbEntity
  8
AM_BOR
 62
     1
370
    25
100
AcDbText
 10
-27.84186369022683
 20
107.1666666666715
 30
0.0
 40
2.0
  1

100
AcDbAttributeDefinition
  3
Änderungsdatum 6
  2
R_AEDAT6
 70
     0
  0
ATTDEF
  5
36E
330
2C8
100
AcDbEntity
  8
AM_BOR
 62
     1
370
    25
100
AcDbText
 10
-13.96099918964142
 20
107.1666666666715
 30
0.0
 40
2.0
  1

100
AcDbAttributeDefinition
  3
Änderungsname 6
  2
R_AENAM6
 70
     0
  0
ATTDEF
  5
36F
330
2C8
100
AcDbEntity
  8
AM_BOR
 62
     1
370
    25
100
AcDbText
 10
-186.4012579132421
 20
112.1666666666715
 30
0.0
 40
2.0
  1

 72
     1
 11
-186.4012579132421
 21
112.1666666666715
 31
0.0
100
AcDbAttributeDefinition
  3
Änderungsindex 7
  2
R_AEIND7
 70
     0
  0
ATTDEF
  5
370
330
2C8
100
AcDbEntity
  8
AM_BOR
 62
     1
370
    25
100
AcDbText
 10
-181.3025158264765
 20
112.1666666666715
 30
0.0
 40
2.0
  1

100
AcDbAttributeDefinition
  3
Änderungsbeschreibung 7
  2
R_AETEXT7
 70
     0
  0
ATTDEF
  5
371
330
2C8
100
AcDbEntity
  8
AM_BOR
 62
     1
370
    25
100
AcDbText
 10
-27.84186369022683
 20
112.1666666666715
 30
0.0
 40
2.0
  1

100
AcDbAttributeDefinition
  3
Änderungsdatum 7
  2
R_AEDAT7
 70
     0
  0
ATTDEF
  5
372
330
2C8
100
AcDbEntity
  8
AM_BOR
 62
     1
370
    25
100
AcDbText
 10
-13.96099918964142
 20
112.1666666666715
 30
0.0
 40
2.0
  1

100
AcDbAttributeDefinition
  3
Änderungsname 7
  2
R_AENAM7
 70
     0
  0
ATTDEF
  5
373
330
2C8
100
AcDbEntity
  8
AM_BOR
 62
     1
370
    25
100
AcDbText
 10
-186.4012579132421
 20
117.1666666666715
 30
0.0
 40
2.0
  1

 72
     1
 11
-186.4012579132421
 21
117.1666666666715
 31
0.0
100
AcDbAttributeDefinition
  3
Änderungsindex 8
  2
R_AEIND8
 70
     0
  0
ATTDEF
  5
374
330
2C8
100
AcDbEntity
  8
AM_BOR
 62
     1
370
    25
100
AcDbText
 10
-181.3025158264765
 20
117.1666666666715
 30
0.0
 40
2.0
  1

100
AcDbAttributeDefinition
  3
Änderungsbeschreibung 8
  2
R_AETEXT8
 70
     0
  0
ATTDEF
  5
375
330
2C8
100
AcDbEntity
  8
AM_BOR
 62
     1
370
    25
100
AcDbText
 10
-27.84186369022683
 20
117.1666666666715
 30
0.0
 40
2.0
  1

100
AcDbAttributeDefinition
  3
Änderungsdatum 8
  2
R_AEDAT8
 70
     0
  0
ATTDEF
  5
376
330
2C8
100
AcDbEntity
  8
AM_BOR
 62
     1
370
    25
100
AcDbText
 10
-13.96099918964142
 20
117.1666666666715
 30
0.0
 40
2.0
  1

100
AcDbAttributeDefinition
  3
Änderungsname 8
  2
R_AENAM8
 70
     0
  0
ATTDEF
  5
377
330
2C8
100
AcDbEntity
  8
AM_BOR
 62
     1
370
    25
100
AcDbText
 10
-186.4012579132421
 20
122.1666666666715
 30
0.0
 40
2.0
  1

 72
     1
 11
-186.4012579132421
 21
122.1666666666715
 31
0.0
100
AcDbAttributeDefinition
  3
Änderungsindex 9
  2
R_AEIND9
 70
     0
  0
ATTDEF
  5
378
330
2C8
100
AcDbEntity
  8
AM_BOR
 62
     1
370
    25
100
AcDbText
 10
-181.3025158264765
 20
122.1666666666715
 30
0.0
 40
2.0
  1

100
AcDbAttributeDefinition
  3
Änderungsbeschreibung 9
  2
R_AETEXT9
 70
     0
  0
ATTDEF
  5
379
330
2C8
100
AcDbEntity
  8
AM_BOR
 62
     1
370
    25
100
AcDbText
 10
-27.84186369022683
 20
122.1666666666715
 30
0.0
 40
2.0
  1

100
AcDbAttributeDefinition
  3
Änderungsdatum 9
  2
R_AEDAT9
 70
     0
  0
ATTDEF
  5
37A
330
2C8
100
AcDbEntity
  8
AM_BOR
 62
     1
370
    25
100
AcDbText
 10
-13.96099918964142
 20
122.1666666666715
 30
0.0
 40
2.0
  1

100
AcDbAttributeDefinition
  3
Änderungsname 9
  2
R_AENAM9
 70
     0
  0
ATTDEF
  5
37B
330
2C8
100
AcDbEntity
  8
AM_BOR
 62
     1
370
    25
100
AcDbText
 10
-186.4012579132421
 20
127.1666666666715
 30
0.0
 40
2.0
  1

 72
     1
 11
-186.4012579132421
 21
127.1666666666715
 31
0.0
100
AcDbAttributeDefinition
  3
Änderungsindex 10
  2
R_AEIND10
 70
     0
  0
ATTDEF
  5
37C
330
2C8
100
AcDbEntity
  8
AM_BOR
 62
     1
370
    25
100
AcDbText
 10
-181.3025158264765
 20
127.1666666666715
 30
0.0
 40
2.0
  1

100
AcDbAttributeDefinition
  3
Änderungsbeschreibung 10
  2
R_AETEXT10
 70
     0
  0
ATTDEF
  5
37D
330
2C8
100
AcDbEntity
  8
AM_BOR
 62
     1
370
    25
100
AcDbText
 10
-27.84186369022683
 20
127.1666666666715
 30
0.0
 40
2.0
  1

100
AcDbAttributeDefinition
  3
Änderungsdatum 10
  2
R_AEDAT10
 70
     0
  0
ATTDEF
  5
37E
330
2C8
100
AcDbEntity
  8
AM_BOR
 62
     1
370
    25
100
AcDbText
 10
-13.96099918964142
 20
127.1666666666715
 30
0.0
 40
2.0
  1

100
AcDbAttributeDefinition
  3
Änderungsname 10
  2
R_AENAM10
 70
     0
  0
ATTDEF
  5
37F
330
2C8
100
AcDbEntity
  8
AM_BOR
 62
     1
370
    25
100
AcDbText
 10
-186.4012579132421
 20
132.1666666666715
 30
0.0
 40
2.0
  1

 72
     1
 11
-186.4012579132421
 21
132.1666666666715
 31
0.0
100
AcDbAttributeDefinition
  3
Änderungsindex 11
  2
R_AEIND11
 70
     0
  0
ATTDEF
  5
380
330
2C8
100
AcDbEntity
  8
AM_BOR
 62
     1
370
    25
100
AcDbText
 10
-181.3025158264765
 20
132.1666666666715
 30
0.0
 40
2.0
  1

100
AcDbAttributeDefinition
  3
Änderungsbeschreibung 11
  2
R_AETEXT11
 70
     0
  0
ATTDEF
  5
381
330
2C8
100
AcDbEntity
  8
AM_BOR
 62
     1
370
    25
100
AcDbText
 10
-27.84186369022683
 20
132.1666666666715
 30
0.0
 40
2.0
  1

100
AcDbAttributeDefinition
  3
Änderungsdatum 11
  2
R_AEDAT11
 70
     0
  0
ATTDEF
  5
382
330
2C8
100
AcDbEntity
  8
AM_BOR
 62
     1
370
    25
100
AcDbText
 10
-13.96099918964142
 20
132.1666666666715
 30
0.0
 40
2.0
  1

100
AcDbAttributeDefinition
  3
Änderungsname 11
  2
R_AENAM11
 70
     0
  0
TEXT
  5
383
330
2C8
100
AcDbEntity
  8
AM_BOR
 62
     1
370
    25
100
AcDbText
 10
-64.0000000000075
 20
10.99999999999721
 30
0.0
 40
2.0
  1
Projekt:
100
AcDbText
  0
INSERT
  5
384
330
2C8
100
AcDbEntity
  8
0
100
AcDbBlockReference
  2
sfm
 10
-104.3551519040817
 20
43.22232415594513
 30
0.0
  0
OLE2FRAME
  5
385
330
2C8
100
AcDbEntity
  8
0
100
AcDbOle2Frame
 70
     2
 73
     1
 90
        0
1001
ACAD
1000
OLEBEGIN
1070
    70
1070
     1
1070
    71
1070
     1
1070
    40
1040
0.0
1070
    41
1040
266.4296197980875
1070
    42
1040
115.0072434317946
1070
    72
1070
     0
1070
     3
1000

1070
    90
1071
        0
1070
    43
1040
0.0
1070
     4
1000

1070
    91
1071
        0
1070
    44
1040
0.0
1000
OLEEND
  0
ENDBLK
  5
386
330
2C8
100
AcDbEntity
  8
0
100
AcDbBlockEnd
  0
BLOCK
  5
388
330
387
100
AcDbEntity
  8
0
100
AcDbBlockBegin
  2
DIN_A1
 70
     0
 10
0.0
 20
0.0
 30
0.0
  3
DIN_A1
  1

  0
LINE
  5
389
330
387
100
AcDbEntity
  8
AM_BOR
 62
     1
370
    25
100
AcDbLine
 10
841.0
 20
594.0
 30
0.0
 11
840.9999999999994
 21
0.0
 31
0.0
  0
TEXT
  5
38A
330
387
100
AcDbEntity
  8
0
 60
     1
100
AcDbText
 10
831.0
 20
10.0
 30
0.0
 40
3.5
  1
!GENTITLE-INSERT
  7
ACDINTS
100
AcDbText
  0
TEXT
  5
38B
330
387
100
AcDbEntity
  8
0
 60
     1
100
AcDbText
 10
10.0
 20
10.0
 30
0.0
 40
3.5
  1
!GENTITLE-LL
  7
ACDINTS
100
AcDbText
  0
TEXT
  5
38C
330
387
100
AcDbEntity
  8
0
 60
     1
100
AcDbText
 10
831.0
 20
584.0
 30
0.0
 40
3.5
  1
!GENTITLE-RU
  7
ACDINTS
100
AcDbText
  0
TEXT
  5
38D
330
387
100
AcDbEntity
  8
0
 60
     1
100
AcDbText
 10
841.0
 20
594.0
 30
0.0
 40
3.5
  1
!GENTITLE-MAX
  7
ACDINTS
100
AcDbText
  0
LINE
  5
38E
330
387
100
AcDbEntity
  8
AM_BOR
 62
     1
370
    25
100
AcDbLine
 10
0.0
 20
0.0
 30
0.0
 11
0.0000000000000364
 21
594.0
 31
0.0
  0
LINE
  5
38F
330
387
100
AcDbEntity
  8
AM_BOR
 62
     1
370
    25
100
AcDbLine
 10
840.9999999999994
 20
0.0
 30
0.0
 11
0.0
 21
0.0
 31
0.0
  0
LINE
  5
390
330
387
100
AcDbEntity
  8
AM_BOR
 62
     1
370
    25
100
AcDbLine
 10
105.0
 20
594.0
 30
0.0
 11
105.0
 21
589.0
 31
0.0
  0
LINE
  5
391
330
387
100
AcDbEntity
  8
AM_BOR
 62
     1
370
    25
100
AcDbLine
 10
0.0
 20
297.0
 30
0.0
 11
5.0
 21
297.0
 31
0.0
  0
LINE
  5
392
330
387
100
AcDbEntity
  8
AM_BOR
 62
     1
370
    25
100
AcDbLine
 10
210.0
 20
5.0
 30
0.0
 11
210.0
 21
0.0
 31
0.0
  0
LINE
  5
393
330
387
100
AcDbEntity
  8
AM_BOR
 62
     1
370
    25
100
AcDbLine
 10
461.0
 20
5.0
 30
0.0
 11
461.0
 21
0.0
 31
0.0
  0
LINE
  5
394
330
387
100
AcDbEntity
  8
AM_BOR
 62
     1
370
    25
100
AcDbLine
 10
651.0
 20
5.0
 30
0.0
 11
651.0
 21
0.0
 31
0.0
  0
LINE
  5
395
330
387
100
AcDbEntity
  8
AM_BOR
 62
     1
370
    25
100
AcDbLine
 10
841.0
 20
5.0
 30
0.0
 11
841.0
 21
0.0
 31
0.0
  0
LINE
  5
396
330
387
100
AcDbEntity
  8
AM_BOR
 62
     1
370
    25
100
AcDbLine
 10
0.0000000000000364
 20
594.0
 30
0.0
 11
841.0
 21
594.0
 31
0.0
  0
LINE
  5
397
330
387
100
AcDbEntity
  8
0
100
AcDbLine
 10
5.0
 20
5.0
 30
0.0
 11
5.000000000000034
 21
589.0
 31
0.0
  0
LINE
  5
398
330
387
100
AcDbEntity
  8
0
100
AcDbLine
 10
5.000000000000034
 20
589.0
 30
0.0
 11
836.0
 21
589.0
 31
0.0
  0
LINE
  5
399
330
387
100
AcDbEntity
  8
0
100
AcDbLine
 10
836.0
 20
589.0
 30
0.0
 11
835.9999999999999
 21
5.0
 31
0.0
  0
LINE
  5
39A
330
387
100
AcDbEntity
  8
0
100
AcDbLine
 10
835.9999999999999
 20
5.0
 30
0.0
 11
5.0
 21
5.0
 31
0.0
  0
LINE
  5
39B
330
387
100
AcDbEntity
  8
AM_BOR
 62
     1
370
    25
100
AcDbLine
 10
10.0
 20
10.0
 30
0.0
 11
10.00000000000003
 21
584.0
 31
0.0
  0
LINE
  5
39C
330
387
100
AcDbEntity
  8
AM_BOR
 62
     1
370
    25
100
AcDbLine
 10
10.00000000000003
 20
584.0
 30
0.0
 11
831.0
 21
584.0
 31
0.0
  0
LINE
  5
39D
330
387
100
AcDbEntity
  8
AM_BOR
 62
     1
370
    25
100
AcDbLine
 10
831.0
 20
584.0
 30
0.0
 11
830.9999999999995
 21
10.0
 31
0.0
  0
LINE
  5
39E
330
387
100
AcDbEntity
  8
AM_BOR
 62
     1
370
    25
100
AcDbLine
 10
835.9999999999999
 20
53.6666667
 30
0.0
 11
830.9999999999995
 21
53.6666667
 31
0.0
  0
LINE
  5
39F
330
387
100
AcDbEntity
  8
AM_BOR
 62
     1
370
    25
100
AcDbLine
 10
56.93750000000003
 20
589.0
 30
0.0
 11
56.93750000000003
 21
584.0
 31
0.0
  0
TEXT
  5
3A0
330
387
100
AcDbEntity
  8
AM_BOR
 62
     1
370
    25
100
AcDbText
 10
832.0999999999999
 20
27.33333335
 30
0.0
 40
4.0
  1
L
  7
ACDINTS
 72
     1
 11
833.4999999999999
 21
29.33333335
 31
0.0
100
AcDbText
 73
     2
  0
TEXT
  5
3A1
330
387
100
AcDbEntity
  8
AM_BOR
 62
     1
370
    25
100
AcDbText
 10
29.96875000000003
 20
584.4999999999999
 30
0.0
 40
4.0
  1
1
  7
ACDINTS
 72
     1
 11
30.96875000000003
 21
586.5
 31
0.0
100
AcDbText
 73
     2
  0
LINE
  5
3A2
330
387
100
AcDbEntity
  8
AM_BOR
 62
     1
370
    25
100
AcDbLine
 10
336.0000000000001
 20
0.0000000000000153
 30
0.0
 11
336.0000000000001
 21
5.0
 31
0.0
  0
LINE
  5
3A3
330
387
100
AcDbEntity
  8
AM_BOR
 62
     1
370
    25
100
AcDbLine
 10
831.0
 20
10.0
 30
0.0
 11
10.0
 21
10.0
 31
0.0
  0
LINE
  5
3A4
330
387
100
AcDbEntity
  8
AM_BOR
 62
     2
370
    35
100
AcDbLine
 10
420.5
 20
589.0
 30
0.0
 11
420.5
 21
574.0
 31
0.0
  0
LINE
  5
3A5
330
387
100
AcDbEntity
  8
AM_BOR
 62
     2
370
    35
100
AcDbLine
 10
5.000000000000015
 20
297.0
 30
0.0
 11
20.00000000000002
 21
297.0
 31
0.0
  0
LINE
  5
3A6
330
387
100
AcDbEntity
  8
AM_BOR
 62
     2
370
    35
100
AcDbLine
 10
836.0
 20
297.0
 30
0.0
 11
821.0
 21
297.0
 31
0.0
  0
LINE
  5
3A7
330
387
100
AcDbEntity
  8
AM_BOR
 62
     2
370
    35
100
AcDbLine
 10
420.4999999999997
 20
5.0
 30
0.0
 11
420.4999999999997
 21
20.0
 31
0.0
  0
TEXT
  5
3A8
330
387
100
AcDbEntity
  8
AM_BOR
 62
     1
370
    25
100
AcDbText
 10
81.43691929133861
 20
584.4999999999999
 30
0.0
 40
4.0
  1
2
  7
ACDINTS
 72
     1
 11
82.90625000000003
 21
586.5
 31
0.0
100
AcDbText
 73
     2
  0
LINE
  5
3A9
330
387
100
AcDbEntity
  8
AM_BOR
 62
     1
370
    25
100
AcDbLine
 10
108.875
 20
589.0
 30
0.0
 11
108.875
 21
584.0
 31
0.0
  0
TEXT
  5
3AA
330
387
100
AcDbEntity
  8
AM_BOR
 62
     1
370
    25
100
AcDbText
 10
133.3609072875254
 20
584.4999999999999
 30
0.0
 40
4.0
  1
3
  7
ACDINTS
 72
     1
 11
134.84375
 21
586.5
 31
0.0
100
AcDbText
 73
     2
  0
LINE
  5
3AB
330
387
100
AcDbEntity
  8
AM_BOR
 62
     1
370
    25
100
AcDbLine
 10
160.8125
 20
589.0
 30
0.0
 11
160.8125
 21
584.0
 31
0.0
  0
TEXT
  5
3AC
330
387
100
AcDbEntity
  8
AM_BOR
 62
     1
370
    25
100
AcDbText
 10
185.18125
 20
584.4999999999999
 30
0.0
 40
4.0
  1
4
  7
ACDINTS
 72
     1
 11
186.78125
 21
586.5
 31
0.0
100
AcDbText
 73
     2
  0
LINE
  5
3AD
330
387
100
AcDbEntity
  8
AM_BOR
 62
     1
370
    25
100
AcDbLine
 10
212.75
 20
589.0
 30
0.0
 11
212.75
 21
584.0
 31
0.0
  0
TEXT
  5
3AE
330
387
100
AcDbEntity
  8
AM_BOR
 62
     1
370
    25
100
AcDbText
 10
237.2359072875254
 20
584.4999999999999
 30
0.0
 40
4.0
  1
5
  7
ACDINTS
 72
     1
 11
238.71875
 21
586.5
 31
0.0
100
AcDbText
 73
     2
  0
LINE
  5
3AF
330
387
100
AcDbEntity
  8
AM_BOR
 62
     1
370
    25
100
AcDbLine
 10
264.6875
 20
589.0
 30
0.0
 11
264.6875
 21
584.0
 31
0.0
  0
TEXT
  5
3B0
330
387
100
AcDbEntity
  8
AM_BOR
 62
     1
370
    25
100
AcDbText
 10
289.2767224409449
 20
584.4999999999999
 30
0.0
 40
4.0
  1
6
  7
ACDINTS
 72
     1
 11
290.65625
 21
586.5
 31
0.0
100
AcDbText
 73
     2
  0
LINE
  5
3B1
330
387
100
AcDbEntity
  8
AM_BOR
 62
     1
370
    25
100
AcDbLine
 10
316.625
 20
589.0
 30
0.0
 11
316.625
 21
584.0
 31
0.0
  0
TEXT
  5
3B2
330
387
100
AcDbEntity
  8
AM_BOR
 62
     1
370
    25
100
AcDbText
 10
341.19375
 20
584.4999999999999
 30
0.0
 40
4.0
  1
7
  7
ACDINTS
 72
     1
 11
342.59375
 21
586.5
 31
0.0
100
AcDbText
 73
     2
  0
LINE
  5
3B3
330
387
100
AcDbEntity
  8
AM_BOR
 62
     1
370
    25
100
AcDbLine
 10
368.5625
 20
589.0
 30
0.0
 11
368.5625
 21
584.0
 31
0.0
  0
TEXT
  5
3B4
330
387
100
AcDbEntity
  8
AM_BOR
 62
     1
370
    25
100
AcDbText
 10
393.13125
 20
584.4999999999999
 30
0.0
 40
4.0
  1
8
  7
ACDINTS
 72
     1
 11
394.53125
 21
586.5
 31
0.0
100
AcDbText
 73
     2
  0
TEXT
  5
3B5
330
387
100
AcDbEntity
  8
AM_BOR
 62
     1
370
    25
100
AcDbText
 10
445.0014170934825
 20
584.4999999999999
 30
0.0
 40
4.0
  1
9
  7
ACDINTS
 72
     1
 11
446.46875
 21
586.5
 31
0.0
100
AcDbText
 73
     2
  0
LINE
  5
3B6
330
387
100
AcDbEntity
  8
AM_BOR
 62
     1
370
    25
100
AcDbLine
 10
472.4375
 20
589.0
 30
0.0
 11
472.4375
 21
584.0
 31
0.0
  0
TEXT
  5
3B7
330
387
100
AcDbEntity
  8
AM_BOR
 62
     1
370
    25
100
AcDbText
 10
496.0046751968503
 20
584.4999999999999
 30
0.0
 40
4.0
  1
10
  7
ACDINTS
 72
     1
 11
498.40625
 21
586.5
 31
0.0
100
AcDbText
 73
     2
  0
LINE
  5
3B8
330
387
100
AcDbEntity
  8
AM_BOR
 62
     1
370
    25
100
AcDbLine
 10
524.375
 20
589.0
 30
0.0
 11
524.375
 21
584.0
 31
0.0
  0
TEXT
  5
3B9
330
387
100
AcDbEntity
  8
AM_BOR
 62
     1
370
    25
100
AcDbText
 10
548.3437499999999
 20
584.4999999999999
 30
0.0
 40
4.0
  1
11
  7
ACDINTS
 72
     1
 11
550.34375
 21
586.5
 31
0.0
100
AcDbText
 73
     2
  0
LINE
  5
3BA
330
387
100
AcDbEntity
  8
AM_BOR
 62
     1
370
    25
100
AcDbLine
 10
576.3125
 20
589.0
 30
0.0
 11
576.3125
 21
584.0
 31
0.0
  0
TEXT
  5
3BB
330
387
100
AcDbEntity
  8
AM_BOR
 62
     1
370
    25
100
AcDbText
 10
599.7611318897638
 20
584.4999999999999
 30
0.0
 40
4.0
  1
12
  7
ACDINTS
 72
     1
 11
602.28125
 21
586.5
 31
0.0
100
AcDbText
 73
     2
  0
LINE
  5
3BC
330
387
100
AcDbEntity
  8
AM_BOR
 62
     1
370
    25
100
AcDbLine
 10
628.2499999999997
 20
589.0
 30
0.0
 11
628.2499999999997
 21
584.0
 31
0.0
  0
TEXT
  5
3BD
330
387
100
AcDbEntity
  8
AM_BOR
 62
     1
370
    25
100
AcDbText
 10
651.7359072875251
 20
584.4999999999999
 30
0.0
 40
4.0
  1
13
  7
ACDINTS
 72
     1
 11
654.2187499999998
 21
586.5
 31
0.0
100
AcDbText
 73
     2
  0
LINE
  5
3BE
330
387
100
AcDbEntity
  8
AM_BOR
 62
     1
370
    25
100
AcDbLine
 10
680.1874999999999
 20
589.0
 30
0.0
 11
680.1874999999999
 21
584.0
 31
0.0
  0
TEXT
  5
3BF
330
387
100
AcDbEntity
  8
AM_BOR
 62
     1
370
    25
100
AcDbText
 10
703.5562499999998
 20
584.4999999999999
 30
0.0
 40
4.0
  1
14
  7
ACDINTS
 72
     1
 11
706.1562499999999
 21
586.5
 31
0.0
100
AcDbText
 73
     2
  0
LINE
  5
3C0
330
387
100
AcDbEntity
  8
AM_BOR
 62
     1
370
    25
100
AcDbLine
 10
732.125
 20
589.0
 30
0.0
 11
732.125
 21
584.0
 31
0.0
  0
TEXT
  5
3C1
330
387
100
AcDbEntity
  8
AM_BOR
 62
     1
370
    25
100
AcDbText
 10
755.6109072875253
 20
584.4999999999999
 30
0.0
 40
4.0
  1
15
  7
ACDINTS
 72
     1
 11
758.09375
 21
586.5
 31
0.0
100
AcDbText
 73
     2
  0
LINE
  5
3C2
330
387
100
AcDbEntity
  8
AM_BOR
 62
     1
370
    25
100
AcDbLine
 10
784.0625
 20
589.0
 30
0.0
 11
784.0625
 21
584.0
 31
0.0
  0
TEXT
  5
3C3
330
387
100
AcDbEntity
  8
AM_BOR
 62
     1
370
    25
100
AcDbText
 10
807.5320374015747
 20
584.4999999999999
 30
0.0
 40
4.0
  1
16
  7
ACDINTS
 72
     1
 11
810.0312499999999
 21
586.5
 31
0.0
100
AcDbText
 73
     2
  0
TEXT
  5
3C4
330
387
100
AcDbEntity
  8
AM_BOR
 62
     1
370
    25
100
AcDbText
 10
29.96875
 20
5.5
 30
0.0
 40
4.0
  1
1
  7
ACDINTS
 72
     1
 11
30.96875
 21
7.5
 31
0.0
100
AcDbText
 73
     2
  0
LINE
  5
3C5
330
387
100
AcDbEntity
  8
AM_BOR
 62
     1
370
    25
100
AcDbLine
 10
56.9375
 20
10.0
 30
0.0
 11
56.9375
 21
5.0
 31
0.0
  0
TEXT
  5
3C6
330
387
100
AcDbEntity
  8
AM_BOR
 62
     1
370
    25
100
AcDbText
 10
81.43691929133858
 20
5.5
 30
0.0
 40
4.0
  1
2
  7
ACDINTS
 72
     1
 11
82.90625
 21
7.5
 31
0.0
100
AcDbText
 73
     2
  0
LINE
  5
3C7
330
387
100
AcDbEntity
  8
AM_BOR
 62
     1
370
    25
100
AcDbLine
 10
108.875
 20
10.0
 30
0.0
 11
108.875
 21
5.0
 31
0.0
  0
TEXT
  5
3C8
330
387
100
AcDbEntity
  8
AM_BOR
 62
     1
370
    25
100
AcDbText
 10
133.3609072875254
 20
5.5
 30
0.0
 40
4.0
  1
3
  7
ACDINTS
 72
     1
 11
134.84375
 21
7.5
 31
0.0
100
AcDbText
 73
     2
  0
LINE
  5
3C9
330
387
100
AcDbEntity
  8
AM_BOR
 62
     1
370
    25
100
AcDbLine
 10
160.8125
 20
10.0
 30
0.0
 11
160.8125
 21
5.0
 31
0.0
  0
TEXT
  5
3CA
330
387
100
AcDbEntity
  8
AM_BOR
 62
     1
370
    25
100
AcDbText
 10
185.18125
 20
5.5
 30
0.0
 40
4.0
  1
4
  7
ACDINTS
 72
     1
 11
186.78125
 21
7.5
 31
0.0
100
AcDbText
 73
     2
  0
LINE
  5
3CB
330
387
100
AcDbEntity
  8
AM_BOR
 62
     1
370
    25
100
AcDbLine
 10
212.75
 20
10.0
 30
0.0
 11
212.75
 21
5.0
 31
0.0
  0
TEXT
  5
3CC
330
387
100
AcDbEntity
  8
AM_BOR
 62
     1
370
    25
100
AcDbText
 10
237.2359072875254
 20
5.5
 30
0.0
 40
4.0
  1
5
  7
ACDINTS
 72
     1
 11
238.71875
 21
7.5
 31
0.0
100
AcDbText
 73
     2
  0
LINE
  5
3CD
330
387
100
AcDbEntity
  8
AM_BOR
 62
     1
370
    25
100
AcDbLine
 10
264.6875
 20
10.0
 30
0.0
 11
264.6875
 21
5.0
 31
0.0
  0
TEXT
  5
3CE
330
387
100
AcDbEntity
  8
AM_BOR
 62
     1
370
    25
100
AcDbText
 10
289.2767224409449
 20
5.5
 30
0.0
 40
4.0
  1
6
  7
ACDINTS
 72
     1
 11
290.65625
 21
7.5
 31
0.0
100
AcDbText
 73
     2
  0
LINE
  5
3CF
330
387
100
AcDbEntity
  8
AM_BOR
 62
     1
370
    25
100
AcDbLine
 10
316.625
 20
10.0
 30
0.0
 11
316.625
 21
5.0
 31
0.0
  0
TEXT
  5
3D0
330
387
100
AcDbEntity
  8
AM_BOR
 62
     1
370
    25
100
AcDbText
 10
341.19375
 20
5.5
 30
0.0
 40
4.0
  1
7
  7
ACDINTS
 72
     1
 11
342.59375
 21
7.5
 31
0.0
100
AcDbText
 73
     2
  0
LINE
  5
3D1
330
387
100
AcDbEntity
  8
AM_BOR
 62
     1
370
    25
100
AcDbLine
 10
368.5625
 20
10.0
 30
0.0
 11
368.5625
 21
5.0
 31
0.0
  0
TEXT
  5
3D2
330
387
100
AcDbEntity
  8
AM_BOR
 62
     1
370
    25
100
AcDbText
 10
393.13125
 20
5.5
 30
0.0
 40
4.0
  1
8
  7
ACDINTS
 72
     1
 11
394.53125
 21
7.5
 31
0.0
100
AcDbText
 73
     2
  0
TEXT
  5
3D3
330
387
100
AcDbEntity
  8
AM_BOR
 62
     1
370
    25
100
AcDbText
 10
445.0014170934825
 20
5.5
 30
0.0
 40
4.0
  1
9
  7
ACDINTS
 72
     1
 11
446.46875
 21
7.5
 31
0.0
100
AcDbText
 73
     2
  0
LINE
  5
3D4
330
387
100
AcDbEntity
  8
AM_BOR
 62
     1
370
    25
100
AcDbLine
 10
472.4375
 20
10.0
 30
0.0
 11
472.4375
 21
5.0
 31
0.0
  0
TEXT
  5
3D5
330
387
100
AcDbEntity
  8
AM_BOR
 62
     1
370
    25
100
AcDbText
 10
496.0046751968503
 20
5.5
 30
0.0
 40
4.0
  1
10
  7
ACDINTS
 72
     1
 11
498.40625
 21
7.5
 31
0.0
100
AcDbText
 73
     2
  0
LINE
  5
3D6
330
387
100
AcDbEntity
  8
AM_BOR
 62
     1
370
    25
100
AcDbLine
 10
524.375
 20
10.0
 30
0.0
 11
524.375
 21
5.0
 31
0.0
  0
TEXT
  5
3D7
330
387
100
AcDbEntity
  8
AM_BOR
 62
     1
370
    25
100
AcDbText
 10
548.3437499999999
 20
5.5
 30
0.0
 40
4.0
  1
11
  7
ACDINTS
 72
     1
 11
550.34375
 21
7.5
 31
0.0
100
AcDbText
 73
     2
  0
LINE
  5
3D8
330
387
100
AcDbEntity
  8
AM_BOR
 62
     1
370
    25
100
AcDbLine
 10
576.3125
 20
10.0
 30
0.0
 11
576.3125
 21
5.0
 31
0.0
  0
TEXT
  5
3D9
330
387
100
AcDbEntity
  8
AM_BOR
 62
     1
370
    25
100
AcDbText
 10
599.7611318897638
 20
5.5
 30
0.0
 40
4.0
  1
12
  7
ACDINTS
 72
     1
 11
602.28125
 21
7.5
 31
0.0
100
AcDbText
 73
     2
  0
LINE
  5
3DA
330
387
100
AcDbEntity
  8
AM_BOR
 62
     1
370
    25
100
AcDbLine
 10
628.2499999999997
 20
10.0
 30
0.0
 11
628.2499999999997
 21
5.0
 31
0.0
  0
LINE
  5
3DB
330
387
100
AcDbEntity
  8
AM_BOR
 62
     1
370
    25
100
AcDbLine
 10
835.9999999999999
 20
102.3333334
 30
0.0
 11
830.9999999999995
 21
102.3333334
 31
0.0
  0
TEXT
  5
3DC
330
387
100
AcDbEntity
  8
AM_BOR
 62
     1
370
    25
100
AcDbText
 10
831.8899999999999
 20
76.00000005
 30
0.0
 40
4.0
  1
K
  7
ACDINTS
 72
     1
 11
833.4999999999999
 21
78.00000005
 31
0.0
100
AcDbText
 73
     2
  0
LINE
  5
3DD
330
387
100
AcDbEntity
  8
AM_BOR
 62
     1
370
    25
100
AcDbLine
 10
835.9999999999999
 20
151.0000001
 30
0.0
 11
830.9999999999995
 21
151.0000001
 31
0.0
  0
TEXT
  5
3DE
330
387
100
AcDbEntity
  8
AM_BOR
 62
     1
370
    25
100
AcDbText
 10
832.2171572875253
 20
124.66666675
 30
0.0
 40
4.0
  1
J
  7
ACDINTS
 72
     1
 11
833.4999999999999
 21
126.66666675
 31
0.0
100
AcDbText
 73
     2
  0
LINE
  5
3DF
330
387
100
AcDbEntity
  8
AM_BOR
 62
     1
370
    25
100
AcDbLine
 10
835.9999999999999
 20
199.6666668
 30
0.0
 11
830.9999999999995
 21
199.6666668
 31
0.0
  0
TEXT
  5
3E0
330
387
100
AcDbEntity
  8
AM_BOR
 62
     1
370
    25
100
AcDbText
 10
832.8999999999998
 20
173.33333345
 30
0.0
 40
4.0
  1
I
  7
ACDINTS
 72
     1
 11
833.4999999999999
 21
175.33333345
 31
0.0
100
AcDbText
 73
     2
  0
LINE
  5
3E1
330
387
100
AcDbEntity
  8
AM_BOR
 62
     1
370
    25
100
AcDbLine
 10
835.9999999999999
 20
248.3333335
 30
0.0
 11
830.9999999999995
 21
248.3333335
 31
0.0
  0
TEXT
  5
3E2
330
387
100
AcDbEntity
  8
AM_BOR
 62
     1
370
    25
100
AcDbText
 10
831.8999999999999
 20
222.00000015
 30
0.0
 40
4.0
  1
H
  7
ACDINTS
 72
     1
 11
833.4999999999999
 21
224.00000015
 31
0.0
100
AcDbText
 73
     2
  0
TEXT
  5
3E3
330
387
100
AcDbEntity
  8
AM_BOR
 62
     1
370
    25
100
AcDbText
 10
832.0035533905931
 20
270.66666685
 30
0.0
 40
4.0
  1
G
  7
ACDINTS
 72
     1
 11
833.4999999999999
 21
272.66666685
 31
0.0
100
AcDbText
 73
     2
  0
LINE
  5
3E4
330
387
100
AcDbEntity
  8
AM_BOR
 62
     1
370
    25
100
AcDbLine
 10
835.9999999999999
 20
345.6666669
 30
0.0
 11
830.9999999999995
 21
345.6666669
 31
0.0
  0
TEXT
  5
3E5
330
387
100
AcDbEntity
  8
AM_BOR
 62
     1
370
    25
100
AcDbText
 10
832.0999999999999
 20
319.33333355
 30
0.0
 40
4.0
  1
F
  7
ACDINTS
 72
     1
 11
833.4999999999999
 21
321.33333355
 31
0.0
100
AcDbText
 73
     2
  0
LINE
  5
3E6
330
387
100
AcDbEntity
  8
AM_BOR
 62
     1
370
    25
100
AcDbLine
 10
835.9999999999999
 20
394.3333336
 30
0.0
 11
830.9999999999995
 21
394.3333336
 31
0.0
  0
TEXT
  5
3E7
330
387
100
AcDbEntity
  8
AM_BOR
 62
     1
370
    25
100
AcDbText
 10
832.0999999999999
 20
368.00000025
 30
0.0
 40
4.0
  1
E
  7
ACDINTS
 72
     1
 11
833.4999999999999
 21
370.00000025
 31
0.0
100
AcDbText
 73
     2
  0
LINE
  5
3E8
330
387
100
AcDbEntity
  8
AM_BOR
 62
     1
370
    25
100
AcDbLine
 10
835.9999999999999
 20
443.0000002999998
 30
0.0
 11
830.9999999999995
 21
443.0000002999998
 31
0.0
  0
TEXT
  5
3E9
330
387
100
AcDbEntity
  8
AM_BOR
 62
     1
370
    25
100
AcDbText
 10
831.7860912703473
 20
416.6666669499999
 30
0.0
 40
4.0
  1
D
  7
ACDINTS
 72
     1
 11
833.4999999999999
 21
418.66666695
 31
0.0
100
AcDbText
 73
     2
  0
LINE
  5
3EA
330
387
100
AcDbEntity
  8
AM_BOR
 62
     1
370
    25
100
AcDbLine
 10
835.9999999999999
 20
491.666667
 30
0.0
 11
830.9999999999995
 21
491.666667
 31
0.0
  0
TEXT
  5
3EB
330
387
100
AcDbEntity
  8
AM_BOR
 62
     1
370
    25
100
AcDbText
 10
832.1931980515339
 20
465.3333336499998
 30
0.0
 40
4.0
  1
C
  7
ACDINTS
 72
     1
 11
833.4999999999999
 21
467.3333336499998
 31
0.0
100
AcDbText
 73
     2
  0
LINE
  5
3EC
330
387
100
AcDbEntity
  8
AM_BOR
 62
     1
370
    25
100
AcDbLine
 10
835.9999999999999
 20
540.3333337
 30
0.0
 11
830.9999999999995
 21
540.3333337
 31
0.0
  0
TEXT
  5
3ED
330
387
100
AcDbEntity
  8
AM_BOR
 62
     1
370
    25
100
AcDbText
 10
831.8999999999999
 20
514.00000035
 30
0.0
 40
4.0
  1
B
  7
ACDINTS
 72
     1
 11
833.4999999999999
 21
516.00000035
 31
0.0
100
AcDbText
 73
     2
  0
TEXT
  5
3EE
330
387
100
AcDbEntity
  8
AM_BOR
 62
     1
370
    25
100
AcDbText
 10
831.7
 20
562.6666670499999
 30
0.0
 40
4.0
  1
A
  7
ACDINTS
 72
     1
 11
833.4999999999999
 21
564.66666705
 31
0.0
100
AcDbText
 73
     2
  0
TEXT
  5
3EF
330
387
100
AcDbEntity
  8
AM_BOR
 62
     1
370
    25
100
AcDbText
 10
6.099999999999999
 20
27.33333335000004
 30
0.0
 40
4.0
  1
L
  7
ACDINTS
 72
     1
 11
7.5
 21
29.33333335000004
 31
0.0
100
AcDbText
 73
     2
  0
LINE
  5
3F0
330
387
100
AcDbEntity
  8
AM_BOR
 62
     1
370
    25
100
AcDbLine
 10
10.0
 20
53.66666670000004
 30
0.0
 11
5.0
 21
53.66666670000004
 31
0.0
  0
TEXT
  5
3F1
330
387
100
AcDbEntity
  8
AM_BOR
 62
     1
370
    25
100
AcDbText
 10
5.889999999999999
 20
76.00000005000005
 30
0.0
 40
4.0
  1
K
  7
ACDINTS
 72
     1
 11
7.5
 21
78.00000005000005
 31
0.0
100
AcDbText
 73
     2
  0
LINE
  5
3F2
330
387
100
AcDbEntity
  8
AM_BOR
 62
     1
370
    25
100
AcDbLine
 10
10.0
 20
102.3333334
 30
0.0
 11
5.0
 21
102.3333334
 31
0.0
  0
TEXT
  5
3F3
330
387
100
AcDbEntity
  8
AM_BOR
 62
     1
370
    25
100
AcDbText
 10
6.217157287525381
 20
124.66666675
 30
0.0
 40
4.0
  1
J
  7
ACDINTS
 72
     1
 11
7.5
 21
126.66666675
 31
0.0
100
AcDbText
 73
     2
  0
LINE
  5
3F4
330
387
100
AcDbEntity
  8
AM_BOR
 62
     1
370
    25
100
AcDbLine
 10
10.0
 20
151.0000001
 30
0.0
 11
5.0
 21
151.0000001
 31
0.0
  0
TEXT
  5
3F5
330
387
100
AcDbEntity
  8
AM_BOR
 62
     1
370
    25
100
AcDbText
 10
6.9
 20
173.33333345
 30
0.0
 40
4.0
  1
I
  7
ACDINTS
 72
     1
 11
7.5
 21
175.33333345
 31
0.0
100
AcDbText
 73
     2
  0
LINE
  5
3F6
330
387
100
AcDbEntity
  8
AM_BOR
 62
     1
370
    25
100
AcDbLine
 10
10.0
 20
199.6666668
 30
0.0
 11
5.0
 21
199.6666668
 31
0.0
  0
TEXT
  5
3F7
330
387
100
AcDbEntity
  8
AM_BOR
 62
     1
370
    25
100
AcDbText
 10
5.9
 20
222.0000001500001
 30
0.0
 40
4.0
  1
H
  7
ACDINTS
 72
     1
 11
7.5
 21
224.0000001500001
 31
0.0
100
AcDbText
 73
     2
  0
LINE
  5
3F8
330
387
100
AcDbEntity
  8
AM_BOR
 62
     1
370
    25
100
AcDbLine
 10
10.0
 20
248.3333335000001
 30
0.0
 11
5.0
 21
248.3333335000001
 31
0.0
  0
TEXT
  5
3F9
330
387
100
AcDbEntity
  8
AM_BOR
 62
     1
370
    25
100
AcDbText
 10
6.003553390593274
 20
270.6666668500001
 30
0.0
 40
4.0
  1
G
  7
ACDINTS
 72
     1
 11
7.5
 21
272.6666668500001
 31
0.0
100
AcDbText
 73
     2
  0
TEXT
  5
3FA
330
387
100
AcDbEntity
  8
AM_BOR
 62
     1
370
    25
100
AcDbText
 10
6.099999999999999
 20
319.33333355
 30
0.0
 40
4.0
  1
F
  7
ACDINTS
 72
     1
 11
7.5
 21
321.33333355
 31
0.0
100
AcDbText
 73
     2
  0
TEXT
  5
3FB
330
387
100
AcDbEntity
  8
AM_BOR
 62
     1
370
    25
100
AcDbText
 10
6.099999999999999
 20
368.00000025
 30
0.0
 40
4.0
  1
E
  7
ACDINTS
 72
     1
 11
7.5
 21
370.00000025
 31
0.0
100
AcDbText
 73
     2
  0
LINE
  5
3FC
330
387
100
AcDbEntity
  8
AM_BOR
 62
     1
370
    25
100
AcDbLine
 10
10.0
 20
345.6666669
 30
0.0
 11
5.0
 21
345.6666669
 31
0.0
  0
LINE
  5
3FD
330
387
100
AcDbEntity
  8
AM_BOR
 62
     1
370
    25
100
AcDbLine
 10
10.0
 20
394.3333336000002
 30
0.0
 11
5.0
 21
394.3333336000002
 31
0.0
  0
TEXT
  5
3FE
330
387
100
AcDbEntity
  8
AM_BOR
 62
     1
370
    25
100
AcDbText
 10
5.786091270347398
 20
416.6666669499999
 30
0.0
 40
4.0
  1
D
  7
ACDINTS
 72
     1
 11
7.5
 21
418.66666695
 31
0.0
100
AcDbText
 73
     2
  0
LINE
  5
3FF
330
387
100
AcDbEntity
  8
AM_BOR
 62
     1
370
    25
100
AcDbLine
 10
10.0
 20
443.0000002999999
 30
0.0
 11
5.0
 21
443.0000002999999
 31
0.0
  0
TEXT
  5
400
330
387
100
AcDbEntity
  8
AM_BOR
 62
     1
370
    25
100
AcDbText
 10
6.193198051533947
 20
465.3333336499998
 30
0.0
 40
4.0
  1
C
  7
ACDINTS
 72
     1
 11
7.5
 21
467.3333336499998
 31
0.0
100
AcDbText
 73
     2
  0
LINE
  5
401
330
387
100
AcDbEntity
  8
AM_BOR
 62
     1
370
    25
100
AcDbLine
 10
10.0
 20
491.666667
 30
0.0
 11
5.0
 21
491.666667
 31
0.0
  0
TEXT
  5
402
330
387
100
AcDbEntity
  8
AM_BOR
 62
     1
370
    25
100
AcDbText
 10
5.899999999999996
 20
514.00000035
 30
0.0
 40
4.0
  1
B
  7
ACDINTS
 72
     1
 11
7.5
 21
516.00000035
 31
0.0
100
AcDbText
 73
     2
  0
LINE
  5
403
330
387
100
AcDbEntity
  8
AM_BOR
 62
     1
370
    25
100
AcDbLine
 10
10.0
 20
540.3333337
 30
0.0
 11
5.0
 21
540.3333337
 31
0.0
  0
TEXT
  5
404
330
387
100
AcDbEntity
  8
AM_BOR
 62
     1
370
    25
100
AcDbText
 10
5.699999999999999
 20
562.6666670499999
 30
0.0
 40
4.0
  1
A
  7
ACDINTS
 72
     1
 11
7.5
 21
564.66666705
 31
0.0
100
AcDbText
 73
     2
  0
TEXT
  5
405
330
387
100
AcDbEntity
  8
AM_BOR
 62
     1
370
    25
100
AcDbText
 10
651.7359072875251
 20
5.5
 30
0.0
 40
4.0
  1
13
  7
ACDINTS
 72
     1
 11
654.2187499999998
 21
7.5
 31
0.0
100
AcDbText
 73
     2
  0
LINE
  5
406
330
387
100
AcDbEntity
  8
AM_BOR
 62
     1
370
    25
100
AcDbLine
 10
680.1874999999999
 20
10.0
 30
0.0
 11
680.1874999999999
 21
5.0
 31
0.0
  0
TEXT
  5
407
330
387
100
AcDbEntity
  8
AM_BOR
 62
     1
370
    25
100
AcDbText
 10
703.5562499999998
 20
5.5
 30
0.0
 40
4.0
  1
14
  7
ACDINTS
 72
     1
 11
706.1562499999999
 21
7.5
 31
0.0
100
AcDbText
 73
     2
  0
LINE
  5
408
330
387
100
AcDbEntity
  8
AM_BOR
 62
     1
370
    25
100
AcDbLine
 10
732.125
 20
10.0
 30
0.0
 11
732.125
 21
5.0
 31
0.0
  0
TEXT
  5
409
330
387
100
AcDbEntity
  8
AM_BOR
 62
     1
370
    25
100
AcDbText
 10
755.6109072875253
 20
5.5
 30
0.0
 40
4.0
  1
15
  7
ACDINTS
 72
     1
 11
758.09375
 21
7.5
 31
0.0
100
AcDbText
 73
     2
  0
LINE
  5
40A
330
387
100
AcDbEntity
  8
AM_BOR
 62
     1
370
    25
100
AcDbLine
 10
784.0625
 20
10.0
 30
0.0
 11
784.0625
 21
5.0
 31
0.0
  0
TEXT
  5
40B
330
387
100
AcDbEntity
  8
AM_BOR
 62
     1
370
    25
100
AcDbText
 10
807.5320374015747
 20
5.5
 30
0.0
 40
4.0
  1
16
  7
ACDINTS
 72
     1
 11
810.0312499999999
 21
7.5
 31
0.0
100
AcDbText
 73
     2
  0
ENDBLK
  5
40C
330
387
100
AcDbEntity
  8
0
100
AcDbBlockEnd
  0
BLOCK
  5
40E
330
40D
100
AcDbEntity
  8
0
100
AcDbBlockBegin
  2
4
 70
     0
 10
0.0
 20
0.0
 30
0.0
  3
4
  1

  0
LINE
  5
40F
330
40D
100
AcDbEntity
  8
AM_3
100
AcDbLine
 10
11357.01246776209
 20
691.4515106228138
 30
0.0
 11
11405.01246776209
 21
691.4515106228138
 31
0.0
  0
LINE
  5
410
330
40D
100
AcDbEntity
  8
AM_3
100
AcDbLine
 10
11373.01246776209
 20
691.4515106228138
 30
0.0
 11
11373.01246776209
 21
991.4515106228135
 31
0.0
  0
LINE
  5
411
330
40D
100
AcDbEntity
  8
AM_3
100
AcDbLine
 10
11374.01246776209
 20
691.4515106228138
 30
0.0
 11
11374.01246776209
 21
991.4515106228135
 31
0.0
  0
LINE
  5
412
330
40D
100
AcDbEntity
  8
AM_3
100
AcDbLine
 10
11389.01246776209
 20
691.4515106228138
 30
0.0
 11
11389.01246776209
 21
991.4515106228135
 31
0.0
  0
LINE
  5
413
330
40D
100
AcDbEntity
  8
AM_3
100
AcDbLine
 10
11388.01246776209
 20
691.4515106228138
 30
0.0
 11
11388.01246776209
 21
991.4515106228135
 31
0.0
  0
LINE
  5
414
330
40D
100
AcDbEntity
  8
AM_3
100
AcDbLine
 10
11405.01246776209
 20
691.4515106228138
 30
0.0
 11
11405.01246776209
 21
991.4515106228135
 31
0.0
  0
SPLINE
  5
415
330
40D
100
AcDbEntity
  8
AM_3
100
AcDbSpline
210
0.0
220
0.0
230
1.0
 70
    24
 71
     3
 72
    10
 73
     6
 74
     0
 42
0.0000000001
 43
0.0000000001
 40
9.999999999948871
 40
9.999999999948871
 40
9.999999999948871
 40
9.999999999948871
 40
198.0618653350513
 40
198.0618653350513
 40
200.0624902374256
 40
200.0624902374256
 40
200.0624902374256
 40
200.0624902374256
 10
11405.01246776209
 20
701.4546351346333
 30
0.0
 10
11403.44577506595
 20
764.1223429799561
 30
0.0
 10
11401.87908236982
 20
826.7900508252806
 30
0.0
 10
11400.29572300702
 20
890.1244253372706
 30
0.0
 10
11400.27905634036
 20
890.7910920039366
 30
0.0
 10
11400.26238967369
 20
891.4577586706032
 30
0.0
  0
SPLINE
  5
416
330
40D
100
AcDbEntity
  8
AM_3
100
AcDbSpline
210
0.0
220
0.0
230
1.0
 70
    24
 71
     3
 72
    10
 73
     6
 74
     0
 42
0.0000000001
 43
0.0000000001
 40
0.0
 40
0.0
 40
0.0
 40
0.0
 40
198.0618653350513
 40
198.0618653350513
 40
200.0624902374256
 40
200.0624902374256
 40
200.0624902374256
 40
200.0624902374256
 10
11404.76254585049
 20
691.4452625750235
 30
0.0
 10
11403.11254585049
 20
757.4452625750232
 30
0.0
 10
11401.46254585049
 20
823.4452625750241
 30
0.0
 10
11399.79587918382
 20
890.1119292416906
 30
0.0
 10
11399.77921251716
 20
890.7785959083566
 30
0.0
 10
11399.76254585049
 20
891.4452625750232
 30
0.0
  0
SPLINE
  5
417
330
40D
100
AcDbEntity
  8
AM_3
100
AcDbSpline
210
0.0
220
0.0
230
1.0
 70
    24
 71
     3
 72
    10
 73
     6
 74
     0
 42
0.0000000001
 43
0.0000000001
 40
0.0
 40
0.0
 40
0.0
 40
0.0
 40
198.0618653350513
 40
198.0618653350513
 40
200.0624902374256
 40
200.0624902374256
 40
200.0624902374256
 40
200.0624902374256
 10
11396.26254585049
 20
691.4452625750235
 30
0.0
 10
11394.61254585049
 20
757.4452625750232
 30
0.0
 10
11392.96254585049
 20
823.4452625750241
 30
0.0
 10
11391.29587918382
 20
890.1119292416906
 30
0.0
 10
11391.27921251716
 20
890.7785959083566
 30
0.0
 10
11391.26254585049
 20
891.4452625750232
 30
0.0
  0
SPLINE
  5
418
330
40D
100
AcDbEntity
  8
AM_3
100
AcDbSpline
210
0.0
220
0.0
230
1.0
 70
    24
 71
     3
 72
    10
 73
     6
 74
     0
 42
0.0000000001
 43
0.0000000001
 40
0.0
 40
0.0
 40
0.0
 40
0.0
 40
198.0618653350513
 40
198.0618653350513
 40
200.0624902374256
 40
200.0624902374256
 40
200.0624902374256
 40
200.0624902374256
 10
11396.76238967369
 20
691.4577586706037
 30
0.0
 10
11395.11238967369
 20
757.457758670603
 30
0.0
 10
11393.46238967369
 20
823.4577586706041
 30
0.0
 10
11391.79572300702
 20
890.1244253372706
 30
0.0
 10
11391.77905634036
 20
890.7910920039366
 30
0.0
 10
11391.76238967369
 20
891.4577586706032
 30
0.0
  0
SPLINE
  5
419
330
40D
100
AcDbEntity
  8
AM_3
100
AcDbSpline
210
0.0
220
0.0
230
1.0
 70
    24
 71
     3
 72
    10
 73
     6
 74
     0
 42
0.0000000001
 43
0.0000000001
 40
0.0
 40
0.0
 40
0.0
 40
0.0
 40
198.0618653350513
 40
198.0618653350513
 40
200.0624902374256
 40
200.0624902374256
 40
200.0624902374256
 40
200.0624902374256
 10
11387.76254585049
 20
691.4452625750231
 30
0.0
 10
11386.11254585049
 20
757.4452625750223
 30
0.0
 10
11384.46254585049
 20
823.4452625750233
 30
0.0
 10
11382.79587918382
 20
890.1119292416897
 30
0.0
 10
11382.77921251716
 20
890.7785959083563
 30
0.0
 10
11382.76254585049
 20
891.4452625750227
 30
0.0
  0
SPLINE
  5
41A
330
40D
100
AcDbEntity
  8
AM_3
100
AcDbSpline
210
0.0
220
0.0
230
1.0
 70
    24
 71
     3
 72
    10
 73
     6
 74
     0
 42
0.0000000001
 43
0.0000000001
 40
0.0
 40
0.0
 40
0.0
 40
0.0
 40
198.0618653350513
 40
198.0618653350513
 40
200.0624902374256
 40
200.0624902374256
 40
200.0624902374256
 40
200.0624902374256
 10
11388.26238967369
 20
691.457758670603
 30
0.0
 10
11386.61238967369
 20
757.4577586706022
 30
0.0
 10
11384.96238967369
 20
823.4577586706032
 30
0.0
 10
11383.29572300702
 20
890.1244253372702
 30
0.0
 10
11383.27905634036
 20
890.7910920039363
 30
0.0
 10
11383.26238967369
 20
891.4577586706027
 30
0.0
  0
SPLINE
  5
41B
330
40D
100
AcDbEntity
  8
AM_3
100
AcDbSpline
210
0.0
220
0.0
230
1.0
 70
    24
 71
     3
 72
    10
 73
     6
 74
     0
 42
0.0000000001
 43
0.0000000001
 40
0.0
 40
0.0
 40
0.0
 40
0.0
 40
198.0618653350513
 40
198.0618653350513
 40
200.0624902374256
 40
200.0624902374256
 40
200.0624902374256
 40
200.0624902374256
 10
11379.26254585049
 20
691.4452625750227
 30
0.0
 10
11377.61254585049
 20
757.4452625750223
 30
0.0
 10
11375.96254585049
 20
823.4452625750227
 30
0.0
 10
11374.29587918382
 20
890.1119292416892
 30
0.0
 10
11374.27921251715
 20
890.7785959083556
 30
0.0
 10
11374.26254585049
 20
891.4452625750223
 30
0.0
  0
SPLINE
  5
41C
330
40D
100
AcDbEntity
  8
AM_3
100
AcDbSpline
210
0.0
220
0.0
230
1.0
 70
    24
 71
     3
 72
    10
 73
     6
 74
     0
 42
0.0000000001
 43
0.0000000001
 40
0.0
 40
0.0
 40
0.0
 40
0.0
 40
198.0618653350513
 40
198.0618653350513
 40
200.0624902374256
 40
200.0624902374256
 40
200.0624902374256
 40
200.0624902374256
 10
11379.76238967369
 20
691.4577586706027
 30
0.0
 10
11378.11238967369
 20
757.4577586706022
 30
0.0
 10
11376.46238967369
 20
823.4577586706032
 30
0.0
 10
11374.79572300703
 20
890.1244253372697
 30
0.0
 10
11374.77905634036
 20
890.7910920039356
 30
0.0
 10
11374.7623896737
 20
891.4577586706023
 30
0.0
  0
SPLINE
  5
41D
330
40D
100
AcDbEntity
  8
AM_3
100
AcDbSpline
210
0.0
220
0.0
230
1.0
 70
    24
 71
     3
 72
    10
 73
     6
 74
     0
 42
0.0000000001
 43
0.0000000001
 40
0.0
 40
0.0
 40
0.0
 40
0.0
 40
198.0618653350513
 40
198.0618653350513
 40
200.0624902374256
 40
200.0624902374256
 40
200.0624902374256
 40
200.0624902374256
 10
11370.76254585049
 20
691.4452625750223
 30
0.0
 10
11369.11254585049
 20
757.4452625750214
 30
0.0
 10
11367.46254585049
 20
823.4452625750222
 30
0.0
 10
11365.79587918383
 20
890.1119292416886
 30
0.0
 10
11365.77921251716
 20
890.7785959083552
 30
0.0
 10
11365.76254585049
 20
891.4452625750218
 30
0.0
  0
SPLINE
  5
41E
330
40D
100
AcDbEntity
  8
AM_3
100
AcDbSpline
210
0.0
220
0.0
230
1.0
 70
    24
 71
     3
 72
    10
 73
     6
 74
     0
 42
0.0000000001
 43
0.0000000001
 40
0.0
 40
0.0
 40
0.0
 40
0.0
 40
198.0618653350513
 40
198.0618653350513
 40
200.0624902374256
 40
200.0624902374256
 40
200.0624902374256
 40
200.0624902374256
 10
11371.2623896737
 20
691.4577586706021
 30
0.0
 10
11369.6123896737
 20
757.4577586706014
 30
0.0
 10
11367.96238967369
 20
823.4577586706022
 30
0.0
 10
11366.29572300703
 20
890.1244253372693
 30
0.0
 10
11366.27905634036
 20
890.7910920039354
 30
0.0
 10
11366.2623896737
 20
891.4577586706018
 30
0.0
  0
SPLINE
  5
41F
330
40D
100
AcDbEntity
  8
AM_3
100
AcDbSpline
210
0.0
220
0.0
230
1.0
 70
    24
 71
     3
 72
    10
 73
     6
 74
     0
 42
0.0000000001
 43
0.0000000001
 40
0.0
 40
0.0
 40
0.0
 40
0.0
 40
198.0618653350513
 40
198.0618653350513
 40
200.0624902374256
 40
200.0624902374256
 40
200.0624902374256
 40
200.0624902374256
 10
11362.26254585049
 20
691.4452625750218
 30
0.0
 10
11360.61254585049
 20
757.4452625750214
 30
0.0
 10
11358.96254585049
 20
823.4452625750218
 30
0.0
 10
11357.29587918383
 20
890.1119292416883
 30
0.0
 10
11357.27921251716
 20
890.778595908355
 30
0.0
 10
11357.2625458505
 20
891.4452625750211
 30
0.0
  0
SPLINE
  5
420
330
40D
100
AcDbEntity
  8
AM_3
100
AcDbSpline
210
0.0
220
0.0
230
1.0
 70
    24
 71
     3
 72
    10
 73
     6
 74
     0
 42
0.0000000001
 43
0.0000000001
 40
0.0
 40
0.0
 40
0.0
 40
0.0
 40
198.0618653350513
 40
198.0618653350513
 40
200.0624902374256
 40
200.0624902374256
 40
200.0624902374256
 40
200.0624902374256
 10
11362.7623896737
 20
691.4577586706018
 30
0.0
 10
11361.1123896737
 20
757.4577586706014
 30
0.0
 10
11359.4623896737
 20
823.4577586706022
 30
0.0
 10
11357.79572300703
 20
890.1244253372686
 30
0.0
 10
11357.77905634037
 20
890.7910920039347
 30
0.0
 10
11357.7623896737
 20
891.4577586706014
 30
0.0
  0
LINE
  5
421
330
40D
100
AcDbEntity
  8
AM_3
100
AcDbLine
 10
11357.01246776209
 20
991.4515106228135
 30
0.0
 11
11357.01246776209
 21
691.4515106228138
 31
0.0
  0
LINE
  5
422
330
40D
100
AcDbEntity
  8
AM_3
100
AcDbLine
 10
11357.01246776209
 20
697.7018153949622
 30
0.0
 11
11405.01246776209
 21
699.3780123305673
 31
0.0
  0
LINE
  5
423
330
40D
100
AcDbEntity
  8
AM_3
100
AcDbLine
 10
11357.01246776209
 20
697.2015106228135
 30
0.0
 11
11405.01246776209
 21
698.8777075584176
 31
0.0
  0
LINE
  5
424
330
40D
100
AcDbEntity
  8
AM_3
100
AcDbLine
 10
11357.01246776209
 20
703.7018153949624
 30
0.0
 11
11405.01246776209
 21
705.3780123305673
 31
0.0
  0
LINE
  5
425
330
40D
100
AcDbEntity
  8
AM_3
100
AcDbLine
 10
11357.01246776209
 20
703.2015106228135
 30
0.0
 11
11405.01246776209
 21
704.8777075584174
 31
0.0
  0
LINE
  5
426
330
40D
100
AcDbEntity
  8
AM_3
100
AcDbLine
 10
11357.01246776209
 20
709.7018153949631
 30
0.0
 11
11405.01246776209
 21
711.3780123305673
 31
0.0
  0
LINE
  5
427
330
40D
100
AcDbEntity
  8
AM_3
100
AcDbLine
 10
11357.01246776209
 20
709.2015106228135
 30
0.0
 11
11405.01246776209
 21
710.8777075584169
 31
0.0
  0
LINE
  5
428
330
40D
100
AcDbEntity
  8
AM_3
100
AcDbLine
 10
11357.01246776209
 20
715.7018153949628
 30
0.0
 11
11405.01246776209
 21
717.3780123305673
 31
0.0
  0
LINE
  5
429
330
40D
100
AcDbEntity
  8
AM_3
100
AcDbLine
 10
11357.01246776209
 20
715.2015106228135
 30
0.0
 11
11405.01246776209
 21
716.877707558417
 31
0.0
  0
LINE
  5
42A
330
40D
100
AcDbEntity
  8
AM_3
100
AcDbLine
 10
11357.01246776209
 20
721.7018153949631
 30
0.0
 11
11405.01246776209
 21
723.3780123305673
 31
0.0
  0
LINE
  5
42B
330
40D
100
AcDbEntity
  8
AM_3
100
AcDbLine
 10
11357.01246776209
 20
721.2015106228135
 30
0.0
 11
11405.01246776209
 21
722.877707558418
 31
0.0
  0
LINE
  5
42C
330
40D
100
AcDbEntity
  8
AM_3
100
AcDbLine
 10
11357.01246776209
 20
727.7018153949629
 30
0.0
 11
11405.01246776209
 21
729.3780123305673
 31
0.0
  0
LINE
  5
42D
330
40D
100
AcDbEntity
  8
AM_3
100
AcDbLine
 10
11357.01246776209
 20
727.2015106228137
 30
0.0
 11
11405.01246776209
 21
728.877707558418
 31
0.0
  0
LINE
  5
42E
330
40D
100
AcDbEntity
  8
AM_3
100
AcDbLine
 10
11357.01246776209
 20
733.7018153949634
 30
0.0
 11
11405.01246776209
 21
735.3780123305673
 31
0.0
  0
LINE
  5
42F
330
40D
100
AcDbEntity
  8
AM_3
100
AcDbLine
 10
11357.01246776209
 20
733.2015106228135
 30
0.0
 11
11405.01246776209
 21
734.877707558418
 31
0.0
  0
LINE
  5
430
330
40D
100
AcDbEntity
  8
AM_3
100
AcDbLine
 10
11357.01246776209
 20
739.7018153949622
 30
0.0
 11
11405.01246776209
 21
741.3780123305667
 31
0.0
  0
LINE
  5
431
330
40D
100
AcDbEntity
  8
AM_3
100
AcDbLine
 10
11357.01246776209
 20
739.2015106228135
 30
0.0
 11
11405.01246776209
 21
740.877707558418
 31
0.0
  0
LINE
  5
432
330
40D
100
AcDbEntity
  8
AM_3
100
AcDbLine
 10
11357.01246776209
 20
745.7018153949624
 30
0.0
 11
11405.01246776209
 21
747.3780123305673
 31
0.0
  0
LINE
  5
433
330
40D
100
AcDbEntity
  8
AM_3
100
AcDbLine
 10
11357.01246776209
 20
745.2015106228135
 30
0.0
 11
11405.01246776209
 21
746.877707558418
 31
0.0
  0
LINE
  5
434
330
40D
100
AcDbEntity
  8
AM_3
100
AcDbLine
 10
11357.01246776209
 20
751.7018153949631
 30
0.0
 11
11405.01246776209
 21
753.3780123305673
 31
0.0
  0
LINE
  5
435
330
40D
100
AcDbEntity
  8
AM_3
100
AcDbLine
 10
11357.01246776209
 20
751.2015106228135
 30
0.0
 11
11405.01246776209
 21
752.877707558418
 31
0.0
  0
LINE
  5
436
330
40D
100
AcDbEntity
  8
AM_3
100
AcDbLine
 10
11357.01246776209
 20
757.7018153949628
 30
0.0
 11
11405.01246776209
 21
759.3780123305673
 31
0.0
  0
LINE
  5
437
330
40D
100
AcDbEntity
  8
AM_3
100
AcDbLine
 10
11357.01246776209
 20
757.2015106228136
 30
0.0
 11
11405.01246776209
 21
758.877707558418
 31
0.0
  0
LINE
  5
438
330
40D
100
AcDbEntity
  8
AM_3
100
AcDbLine
 10
11357.01246776209
 20
763.7018153949631
 30
0.0
 11
11405.01246776209
 21
765.3780123305673
 31
0.0
  0
LINE
  5
439
330
40D
100
AcDbEntity
  8
AM_3
100
AcDbLine
 10
11357.01246776209
 20
763.2015106228135
 30
0.0
 11
11405.01246776209
 21
764.877707558418
 31
0.0
  0
LINE
  5
43A
330
40D
100
AcDbEntity
  8
AM_3
100
AcDbLine
 10
11357.01246776209
 20
769.7018153949624
 30
0.0
 11
11405.01246776209
 21
771.3780123305673
 31
0.0
  0
LINE
  5
43B
330
40D
100
AcDbEntity
  8
AM_3
100
AcDbLine
 10
11357.01246776209
 20
769.2015106228137
 30
0.0
 11
11405.01246776209
 21
770.877707558418
 31
0.0
  0
LINE
  5
43C
330
40D
100
AcDbEntity
  8
AM_3
100
AcDbLine
 10
11357.01246776209
 20
775.7018153949624
 30
0.0
 11
11405.01246776209
 21
777.3780123305673
 31
0.0
  0
LINE
  5
43D
330
40D
100
AcDbEntity
  8
AM_3
100
AcDbLine
 10
11357.01246776209
 20
775.2015106228135
 30
0.0
 11
11405.01246776209
 21
776.877707558418
 31
0.0
  0
LINE
  5
43E
330
40D
100
AcDbEntity
  8
AM_3
100
AcDbLine
 10
11357.01246776209
 20
781.7018153949624
 30
0.0
 11
11405.01246776209
 21
783.3780123305673
 31
0.0
  0
LINE
  5
43F
330
40D
100
AcDbEntity
  8
AM_3
100
AcDbLine
 10
11357.01246776209
 20
781.2015106228137
 30
0.0
 11
11405.01246776209
 21
782.877707558418
 31
0.0
  0
LINE
  5
440
330
40D
100
AcDbEntity
  8
AM_3
100
AcDbLine
 10
11357.01246776209
 20
787.7018153949628
 30
0.0
 11
11405.01246776209
 21
789.3780123305673
 31
0.0
  0
LINE
  5
441
330
40D
100
AcDbEntity
  8
AM_3
100
AcDbLine
 10
11357.01246776209
 20
787.2015106228135
 30
0.0
 11
11405.01246776209
 21
788.877707558418
 31
0.0
  0
LINE
  5
442
330
40D
100
AcDbEntity
  8
AM_3
100
AcDbLine
 10
11357.01246776209
 20
793.7018153949634
 30
0.0
 11
11405.01246776209
 21
795.3780123305673
 31
0.0
  0
LINE
  5
443
330
40D
100
AcDbEntity
  8
AM_3
100
AcDbLine
 10
11357.01246776209
 20
793.2015106228135
 30
0.0
 11
11405.01246776209
 21
794.877707558418
 31
0.0
  0
LINE
  5
444
330
40D
100
AcDbEntity
  8
AM_3
100
AcDbLine
 10
11357.01246776209
 20
799.7018153949634
 30
0.0
 11
11405.01246776209
 21
801.3780123305673
 31
0.0
  0
LINE
  5
445
330
40D
100
AcDbEntity
  8
AM_3
100
AcDbLine
 10
11357.01246776209
 20
799.2015106228135
 30
0.0
 11
11405.01246776209
 21
800.877707558418
 31
0.0
  0
LINE
  5
446
330
40D
100
AcDbEntity
  8
AM_3
100
AcDbLine
 10
11357.01246776209
 20
805.7018153949629
 30
0.0
 11
11405.01246776209
 21
807.3780123305674
 31
0.0
  0
LINE
  5
447
330
40D
100
AcDbEntity
  8
AM_3
100
AcDbLine
 10
11357.01246776209
 20
805.2015106228136
 30
0.0
 11
11405.01246776209
 21
806.8777075584176
 31
0.0
  0
LINE
  5
448
330
40D
100
AcDbEntity
  8
AM_3
100
AcDbLine
 10
11357.01246776209
 20
811.7018153949635
 30
0.0
 11
11405.01246776209
 21
813.3780123305664
 31
0.0
  0
LINE
  5
449
330
40D
100
AcDbEntity
  8
AM_3
100
AcDbLine
 10
11357.01246776209
 20
811.2015106228135
 30
0.0
 11
11405.01246776209
 21
812.877707558418
 31
0.0
  0
LINE
  5
44A
330
40D
100
AcDbEntity
  8
AM_3
100
AcDbLine
 10
11357.01246776209
 20
817.7018153949632
 30
0.0
 11
11405.01246776209
 21
819.3780123305673
 31
0.0
  0
LINE
  5
44B
330
40D
100
AcDbEntity
  8
AM_3
100
AcDbLine
 10
11357.01246776209
 20
817.2015106228137
 30
0.0
 11
11405.01246776209
 21
818.877707558418
 31
0.0
  0
LINE
  5
44C
330
40D
100
AcDbEntity
  8
AM_3
100
AcDbLine
 10
11357.01246776209
 20
823.7018153949634
 30
0.0
 11
11405.01246776209
 21
825.3780123305665
 31
0.0
  0
LINE
  5
44D
330
40D
100
AcDbEntity
  8
AM_3
100
AcDbLine
 10
11357.01246776209
 20
823.2015106228136
 30
0.0
 11
11405.01246776209
 21
824.8777075584181
 31
0.0
  0
LINE
  5
44E
330
40D
100
AcDbEntity
  8
AM_3
100
AcDbLine
 10
11357.01246776209
 20
829.7018153949634
 30
0.0
 11
11405.01246776209
 21
831.3780123305672
 31
0.0
  0
LINE
  5
44F
330
40D
100
AcDbEntity
  8
AM_3
100
AcDbLine
 10
11357.01246776209
 20
829.2015106228134
 30
0.0
 11
11405.01246776209
 21
830.8777075584178
 31
0.0
  0
LINE
  5
450
330
40D
100
AcDbEntity
  8
AM_3
100
AcDbLine
 10
11357.01246776209
 20
835.7018153949621
 30
0.0
 11
11405.01246776209
 21
837.3780123305673
 31
0.0
  0
LINE
  5
451
330
40D
100
AcDbEntity
  8
AM_3
100
AcDbLine
 10
11357.01246776209
 20
835.2015106228137
 30
0.0
 11
11405.01246776209
 21
836.8777075584169
 31
0.0
  0
LINE
  5
452
330
40D
100
AcDbEntity
  8
AM_3
100
AcDbLine
 10
11357.01246776209
 20
841.7018153949623
 30
0.0
 11
11405.01246776209
 21
843.3780123305664
 31
0.0
  0
LINE
  5
453
330
40D
100
AcDbEntity
  8
AM_3
100
AcDbLine
 10
11357.01246776209
 20
841.2015106228135
 30
0.0
 11
11405.01246776209
 21
842.8777075584175
 31
0.0
  0
LINE
  5
454
330
40D
100
AcDbEntity
  8
AM_3
100
AcDbLine
 10
11357.01246776209
 20
847.7018153949623
 30
0.0
 11
11405.01246776209
 21
849.3780123305665
 31
0.0
  0
LINE
  5
455
330
40D
100
AcDbEntity
  8
AM_3
100
AcDbLine
 10
11357.01246776209
 20
847.2015106228136
 30
0.0
 11
11405.01246776209
 21
848.8777075584177
 31
0.0
  0
LINE
  5
456
330
40D
100
AcDbEntity
  8
AM_3
100
AcDbLine
 10
11357.01246776209
 20
853.7018153949626
 30
0.0
 11
11405.01246776209
 21
855.3780123305664
 31
0.0
  0
LINE
  5
457
330
40D
100
AcDbEntity
  8
AM_3
100
AcDbLine
 10
11357.01246776209
 20
853.2015106228135
 30
0.0
 11
11405.01246776209
 21
854.8777075584169
 31
0.0
  0
LINE
  5
458
330
40D
100
AcDbEntity
  8
AM_3
100
AcDbLine
 10
11357.01246776209
 20
859.7018153949623
 30
0.0
 11
11405.01246776209
 21
861.3780123305669
 31
0.0
  0
LINE
  5
459
330
40D
100
AcDbEntity
  8
AM_3
100
AcDbLine
 10
11357.01246776209
 20
859.2015106228137
 30
0.0
 11
11405.01246776209
 21
860.8777075584169
 31
0.0
  0
LINE
  5
45A
330
40D
100
AcDbEntity
  8
AM_3
100
AcDbLine
 10
11357.01246776209
 20
865.7018153949623
 30
0.0
 11
11405.01246776209
 21
867.3780123305665
 31
0.0
  0
LINE
  5
45B
330
40D
100
AcDbEntity
  8
AM_3
100
AcDbLine
 10
11357.01246776209
 20
865.2015106228136
 30
0.0
 11
11405.01246776209
 21
866.8777075584173
 31
0.0
  0
LINE
  5
45C
330
40D
100
AcDbEntity
  8
AM_3
100
AcDbLine
 10
11357.01246776209
 20
871.7018153949624
 30
0.0
 11
11405.01246776209
 21
873.3780123305662
 31
0.0
  0
LINE
  5
45D
330
40D
100
AcDbEntity
  8
AM_3
100
AcDbLine
 10
11357.01246776209
 20
871.2015106228134
 30
0.0
 11
11405.01246776209
 21
872.8777075584176
 31
0.0
  0
LINE
  5
45E
330
40D
100
AcDbEntity
  8
AM_3
100
AcDbLine
 10
11357.01246776209
 20
877.7018153949622
 30
0.0
 11
11405.01246776209
 21
879.3780123305669
 31
0.0
  0
LINE
  5
45F
330
40D
100
AcDbEntity
  8
AM_3
100
AcDbLine
 10
11357.01246776209
 20
877.2015106228137
 30
0.0
 11
11405.01246776209
 21
878.8777075584176
 31
0.0
  0
LINE
  5
460
330
40D
100
AcDbEntity
  8
AM_3
100
AcDbLine
 10
11357.01246776209
 20
883.7018153949625
 30
0.0
 11
11405.01246776209
 21
885.3780123305666
 31
0.0
  0
LINE
  5
461
330
40D
100
AcDbEntity
  8
AM_3
100
AcDbLine
 10
11357.01246776209
 20
883.2015106228137
 30
0.0
 11
11405.01246776209
 21
884.8777075584175
 31
0.0
  0
LINE
  5
462
330
40D
100
AcDbEntity
  8
AM_3
100
AcDbLine
 10
11357.01246776209
 20
889.7018153949629
 30
0.0
 11
11405.01246776209
 21
891.3780123305667
 31
0.0
  0
LINE
  5
463
330
40D
100
AcDbEntity
  8
AM_3
100
AcDbLine
 10
11357.01246776209
 20
889.2015106228136
 30
0.0
 11
11405.01246776209
 21
890.877707558417
 31
0.0
  0
LINE
  5
464
330
40D
100
AcDbEntity
  8
AM_3
100
AcDbLine
 10
11381.01246776209
 20
688.4515106228136
 30
0.0
 11
11381.01246776209
 21
991.4515106228135
 31
0.0
1001
GENIUS_GENOBJ-N-CEN_13
1002
{
1000
OWNER
1000
GEN
1002
}
1001
GENIUS_GENODEF_13
1002
{
1000
HIER
1070
     0
1002
}
1002
{
1000
MANEDIT
1070
     0
1002
}
1002
{
1000
NOSEL
1070
     0
1002
}
1002
{
1000
BEHIND
1070
     0
1002
}
1002
{
1000
OTHER
1070
     0
1002
}
1002
{
1000
REACTOR
1002
}
1001
GENIUS_GENCEN_19
1002
{
1040
3.0
1002
}
  0
LINE
  5
465
330
40D
100
AcDbEntity
  8
AM_3
100
AcDbLine
 10
11357.01246776209
 20
691.7018153949624
 30
0.0
 11
11405.01246776209
 21
693.3780123305673
 31
0.0
  0
LINE
  5
466
330
40D
100
AcDbEntity
  8
AM_3
100
AcDbLine
 10
11364.17153108281
 20
691.4515106228138
 30
0.0
 11
11405.01246776209
 21
692.8777075584174
 31
0.0
  0
LINE
  5
467
330
40D
100
AcDbEntity
  8
AM_3
100
AcDbLine
 10
11357.01246776209
 20
991.4515106228135
 30
0.0
 11
11405.01246776209
 21
991.4515106228135
 31
0.0
  0
LINE
  5
468
330
40D
100
AcDbEntity
  8
AM_3
100
AcDbLine
 10
11404.76254585049
 20
691.4452625750235
 30
0.0
 11
11397.2623896493
 21
991.4515106228135
 31
0.0
  0
LINE
  5
469
330
40D
100
AcDbEntity
  8
AM_3
100
AcDbLine
 10
11405.01246776209
 20
701.4546351346333
 30
0.0
 11
11397.76254587489
 21
991.4515106228135
 31
0.0
  0
LINE
  5
46A
330
40D
100
AcDbEntity
  8
AM_3
100
AcDbLine
 10
11396.26254585049
 20
691.4452625750235
 30
0.0
 11
11388.7623896493
 21
991.4515106228135
 31
0.0
  0
LINE
  5
46B
330
40D
100
AcDbEntity
  8
AM_3
100
AcDbLine
 10
11396.51246776209
 20
701.4546351346333
 30
0.0
 11
11389.26254587489
 21
991.4515106228135
 31
0.0
  0
LINE
  5
46C
330
40D
100
AcDbEntity
  8
AM_3
100
AcDbLine
 10
11387.76254585049
 20
691.4452625750231
 30
0.0
 11
11380.2623896493
 21
991.4515106228135
 31
0.0
  0
LINE
  5
46D
330
40D
100
AcDbEntity
  8
AM_3
100
AcDbLine
 10
11388.01246776209
 20
701.4546351346329
 30
0.0
 11
11380.76254587489
 21
991.4515106228135
 31
0.0
  0
LINE
  5
46E
330
40D
100
AcDbEntity
  8
AM_3
100
AcDbLine
 10
11379.26254585049
 20
691.4452625750227
 30
0.0
 11
11371.7623896493
 21
991.4515106228135
 31
0.0
  0
LINE
  5
46F
330
40D
100
AcDbEntity
  8
AM_3
100
AcDbLine
 10
11379.51246776209
 20
701.4546351346325
 30
0.0
 11
11372.2625458749
 21
991.4515106228135
 31
0.0
  0
LINE
  5
470
330
40D
100
AcDbEntity
  8
AM_3
100
AcDbLine
 10
11370.76254585049
 20
691.4452625750223
 30
0.0
 11
11363.2623896493
 21
991.4515106228135
 31
0.0
  0
LINE
  5
471
330
40D
100
AcDbEntity
  8
AM_3
100
AcDbLine
 10
11371.01246776209
 20
701.4546351346321
 30
0.0
 11
11363.7625458749
 21
991.4515106228135
 31
0.0
  0
LINE
  5
472
330
40D
100
AcDbEntity
  8
AM_3
100
AcDbLine
 10
11362.26254585049
 20
691.4452625750218
 30
0.0
 11
11357.01246776209
 21
901.4483861114326
 31
0.0
  0
LINE
  5
473
330
40D
100
AcDbEntity
  8
AM_3
100
AcDbLine
 10
11362.5124677621
 20
701.4546351346316
 30
0.0
 11
11357.01246776209
 21
921.4546351351918
 31
0.0
  0
LINE
  5
474
330
40D
100
AcDbEntity
  8
AM_3
100
AcDbLine
 10
11357.01246776209
 20
895.7018153949629
 30
0.0
 11
11405.01246776209
 21
897.3780123305669
 31
0.0
  0
LINE
  5
475
330
40D
100
AcDbEntity
  8
AM_3
100
AcDbLine
 10
11357.01246776209
 20
895.2015106228135
 30
0.0
 11
11405.01246776209
 21
896.8777075584169
 31
0.0
  0
LINE
  5
476
330
40D
100
AcDbEntity
  8
AM_3
100
AcDbLine
 10
11357.01246776209
 20
901.7018153949631
 30
0.0
 11
11405.01246776209
 21
903.3780123305666
 31
0.0
  0
LINE
  5
477
330
40D
100
AcDbEntity
  8
AM_3
100
AcDbLine
 10
11357.01246776209
 20
901.2015106228135
 30
0.0
 11
11405.01246776209
 21
902.8777075584171
 31
0.0
  0
LINE
  5
478
330
40D
100
AcDbEntity
  8
AM_3
100
AcDbLine
 10
11357.01863426583
 20
907.7020307340186
 30
0.0
 11
11405.01863426583
 21
909.3782276696224
 31
0.0
  0
LINE
  5
479
330
40D
100
AcDbEntity
  8
AM_3
100
AcDbLine
 10
11357.01863426583
 20
907.2017259618691
 30
0.0
 11
11405.01863426583
 21
908.8779228974727
 31
0.0
  0
LINE
  5
47A
330
40D
100
AcDbEntity
  8
AM_3
100
AcDbLine
 10
11357.01863426583
 20
913.7020307340184
 30
0.0
 11
11405.01863426583
 21
915.3782276696222
 31
0.0
  0
LINE
  5
47B
330
40D
100
AcDbEntity
  8
AM_3
100
AcDbLine
 10
11357.01863426583
 20
913.2017259618692
 30
0.0
 11
11405.01863426583
 21
914.8779228974726
 31
0.0
  0
LINE
  5
47C
330
40D
100
AcDbEntity
  8
AM_3
100
AcDbLine
 10
11357.01863426583
 20
919.7020307340183
 30
0.0
 11
11405.01863426583
 21
921.3782276696225
 31
0.0
  0
LINE
  5
47D
330
40D
100
AcDbEntity
  8
AM_3
100
AcDbLine
 10
11357.01863426583
 20
919.2017259618692
 30
0.0
 11
11405.01863426583
 21
920.8779228974728
 31
0.0
  0
LINE
  5
47E
330
40D
100
AcDbEntity
  8
AM_3
100
AcDbLine
 10
11357.01863426583
 20
925.7020307340184
 30
0.0
 11
11405.01863426583
 21
927.3782276696223
 31
0.0
  0
LINE
  5
47F
330
40D
100
AcDbEntity
  8
AM_3
100
AcDbLine
 10
11357.01863426583
 20
925.2017259618693
 30
0.0
 11
11405.01863426583
 21
926.8779228974727
 31
0.0
  0
LINE
  5
480
330
40D
100
AcDbEntity
  8
AM_3
100
AcDbLine
 10
11357.01863426583
 20
931.7020307340184
 30
0.0
 11
11405.01863426583
 21
933.3782276696224
 31
0.0
  0
LINE
  5
481
330
40D
100
AcDbEntity
  8
AM_3
100
AcDbLine
 10
11357.01863426583
 20
931.2017259618691
 30
0.0
 11
11405.01863426583
 21
932.8779228974726
 31
0.0
  0
LINE
  5
482
330
40D
100
AcDbEntity
  8
AM_3
100
AcDbLine
 10
11357.01863426583
 20
937.7020307340185
 30
0.0
 11
11405.01863426583
 21
939.3782276696224
 31
0.0
  0
LINE
  5
483
330
40D
100
AcDbEntity
  8
AM_3
100
AcDbLine
 10
11357.01863426583
 20
937.2017259618692
 30
0.0
 11
11405.01863426583
 21
938.8779228974724
 31
0.0
  0
LINE
  5
484
330
40D
100
AcDbEntity
  8
AM_3
100
AcDbLine
 10
11357.01863426583
 20
943.7020307340183
 30
0.0
 11
11405.01863426583
 21
945.3782276696225
 31
0.0
  0
LINE
  5
485
330
40D
100
AcDbEntity
  8
AM_3
100
AcDbLine
 10
11357.01863426583
 20
943.2017259618692
 30
0.0
 11
11405.01863426583
 21
944.8779228974727
 31
0.0
  0
LINE
  5
486
330
40D
100
AcDbEntity
  8
AM_3
100
AcDbLine
 10
11357.01863426583
 20
949.7020307340186
 30
0.0
 11
11405.01863426583
 21
951.3782276696224
 31
0.0
  0
LINE
  5
487
330
40D
100
AcDbEntity
  8
AM_3
100
AcDbLine
 10
11357.01863426583
 20
949.2017259618691
 30
0.0
 11
11405.01863426583
 21
950.8779228974727
 31
0.0
  0
LINE
  5
488
330
40D
100
AcDbEntity
  8
AM_3
100
AcDbLine
 10
11357.01863426583
 20
955.7020307340184
 30
0.0
 11
11405.01863426583
 21
957.3782276696222
 31
0.0
  0
LINE
  5
489
330
40D
100
AcDbEntity
  8
AM_3
100
AcDbLine
 10
11357.01863426583
 20
955.2017259618692
 30
0.0
 11
11405.01863426583
 21
956.8779228974726
 31
0.0
  0
LINE
  5
48A
330
40D
100
AcDbEntity
  8
AM_3
100
AcDbLine
 10
11357.01863426583
 20
961.7020307340183
 30
0.0
 11
11405.01863426583
 21
963.3782276696225
 31
0.0
  0
LINE
  5
48B
330
40D
100
AcDbEntity
  8
AM_3
100
AcDbLine
 10
11357.01863426583
 20
961.2017259618692
 30
0.0
 11
11405.01863426583
 21
962.8779228974725
 31
0.0
  0
LINE
  5
48C
330
40D
100
AcDbEntity
  8
AM_3
100
AcDbLine
 10
11357.01863426583
 20
967.7020307340184
 30
0.0
 11
11405.01863426583
 21
969.3782276696223
 31
0.0
  0
LINE
  5
48D
330
40D
100
AcDbEntity
  8
AM_3
100
AcDbLine
 10
11357.01863426583
 20
967.2017259618693
 30
0.0
 11
11405.01863426583
 21
968.8779228974727
 31
0.0
  0
LINE
  5
48E
330
40D
100
AcDbEntity
  8
AM_3
100
AcDbLine
 10
11357.01863426583
 20
973.7020307340186
 30
0.0
 11
11405.01863426583
 21
975.3782276696224
 31
0.0
  0
LINE
  5
48F
330
40D
100
AcDbEntity
  8
AM_3
100
AcDbLine
 10
11357.01863426583
 20
973.2017259618691
 30
0.0
 11
11405.01863426583
 21
974.8779228974726
 31
0.0
  0
LINE
  5
490
330
40D
100
AcDbEntity
  8
AM_3
100
AcDbLine
 10
11357.01863426583
 20
979.7020307340185
 30
0.0
 11
11405.01863426583
 21
981.3782276696224
 31
0.0
  0
LINE
  5
491
330
40D
100
AcDbEntity
  8
AM_3
100
AcDbLine
 10
11357.01863426583
 20
979.2017259618692
 30
0.0
 11
11405.01863426583
 21
980.8779228974726
 31
0.0
  0
LINE
  5
492
330
40D
100
AcDbEntity
  8
AM_3
100
AcDbLine
 10
11357.01863426583
 20
985.7020307340183
 30
0.0
 11
11405.01863426583
 21
987.3782276696225
 31
0.0
  0
LINE
  5
493
330
40D
100
AcDbEntity
  8
AM_3
100
AcDbLine
 10
11357.01863426583
 20
985.2017259618692
 30
0.0
 11
11405.01863426583
 21
986.8779228974728
 31
0.0
  0
LINE
  5
494
330
40D
100
AcDbEntity
  8
AM_3
100
AcDbLine
 10
11357.01863426583
 20
991.2017259618691
 30
0.0
 11
11364.17153108282
 21
991.4515106228135
 31
0.0
  0
ENDBLK
  5
495
330
40D
100
AcDbEntity
  8
0
100
AcDbBlockEnd
  0
BLOCK
  5
4FF
330
4FE
100
AcDbEntity
  8
0
100
AcDbBlockBegin
  2
7
 70
     0
 10
0.0
 20
0.0
 30
0.0
  3
7
  1

  0
ARC
  5
500
330
4FE
100
AcDbEntity
  8
AM_7
100
AcDbCircle
 10
10921.2242537173
 20
2385.09842714561
 30
0.0
 40
12.5
100
AcDbArc
 50
339.9999999999618
 51
159.9999999999617
  0
ARC
  5
501
330
4FE
100
AcDbEntity
  8
0
100
AcDbCircle
 10
10921.2242537173
 20
2385.09842714561
 30
0.0
 40
10.5
100
AcDbArc
 50
339.9999999999618
 51
159.9999999999617
  0
ARC
  5
502
330
4FE
100
AcDbEntity
  8
0
100
AcDbCircle
 10
10921.2242537173
 20
2385.09842714561
 30
0.0
 40
14.5
100
AcDbArc
 50
339.9999999999618
 51
159.9999999999617
  0
LINE
  5
503
330
4FE
100
AcDbEntity
  8
AM_7
100
AcDbLine
 10
10909.47809595748
 20
2389.37367893718
 30
0.0
 11
10907.76799524085
 21
2384.675215833251
 31
0.0
  0
LINE
  5
504
330
4FE
100
AcDbEntity
  8
0
100
AcDbLine
 10
10911.35748119905
 20
2388.689638650529
 30
0.0
 11
10909.64738048242
 21
2383.991175546599
 31
0.0
  0
LINE
  5
505
330
4FE
100
AcDbEntity
  8
0
100
AcDbLine
 10
10907.5987107159
 20
2390.057719223832
 30
0.0
 11
10905.88860999928
 21
2385.359256119902
 31
0.0
  0
ARC
  5
506
330
4FE
100
AcDbEntity
  8
AM_7
100
AcDbCircle
 10
10903.06953213692
 20
2386.385316549879
 30
0.0
 40
5.0
100
AcDbArc
 50
250.0000000000405
 51
339.9999999999618
1001
GENIUS_GENODEF_13
1002
{
1000
HIER
1070
     0
1002
}
1002
{
1000
MANEDIT
1070
     0
1002
}
1002
{
1000
NOSEL
1070
     0
1002
}
1002
{
1000
BEHIND
1070
     0
1002
}
1002
{
1000
OTHER
1070
     0
1002
}
1002
{
1000
REACTOR
1002
}
1001
GENIUS_GENOBJ-N-FIL_13
1002
{
1000
OWNER
1000
GEN
1002
}
  0
ARC
  5
507
330
4FE
100
AcDbEntity
  8
0
100
AcDbCircle
 10
10903.06953213692
 20
2386.385316549879
 30
0.0
 40
7.0
100
AcDbArc
 50
250.0000000000405
 51
339.9999999999618
1001
GENIUS_GENODEF_13
1002
{
1000
HIER
1070
     0
1002
}
1002
{
1000
MANEDIT
1070
     0
1002
}
1002
{
1000
NOSEL
1070
     0
1002
}
1002
{
1000
BEHIND
1070
     0
1002
}
1002
{
1000
OTHER
1070
     0
1002
}
1002
{
1000
REACTOR
1002
}
1001
GENIUS_GENOBJ-N-FIL_13
1002
{
1000
OWNER
1000
GEN
1002
}
  0
ARC
  5
508
330
4FE
100
AcDbEntity
  8
0
100
AcDbCircle
 10
10903.06953213692
 20
2386.385316549879
 30
0.0
 40
3.0
100
AcDbArc
 50
250.0000000000405
 51
339.9999999999618
1001
GENIUS_GENODEF_13
1002
{
1000
HIER
1070
     0
1002
}
1002
{
1000
MANEDIT
1070
     0
1002
}
1002
{
1000
NOSEL
1070
     0
1002
}
1002
{
1000
BEHIND
1070
     0
1002
}
1002
{
1000
OTHER
1070
     0
1002
}
1002
{
1000
REACTOR
1002
}
1001
GENIUS_GENOBJ-N-FIL_13
1002
{
1000
OWNER
1000
GEN
1002
}
  0
LINE
  5
509
330
4FE
100
AcDbEntity
  8
AM_7
100
AcDbLine
 10
10932.97041147712
 20
2380.823175354038
 30
0.0
 11
10931.26031076049
 21
2376.124712250109
 31
0.0
  0
LINE
  5
50A
330
4FE
100
AcDbEntity
  8
0
100
AcDbLine
 10
10931.09102623555
 20
2381.50721564069
 30
0.0
 11
10929.38092551893
 21
2376.80875253676
 31
0.0
  0
LINE
  5
50B
330
4FE
100
AcDbEntity
  8
0
100
AcDbLine
 10
10934.84979671869
 20
2380.139135067388
 30
0.0
 11
10933.13969600207
 21
2375.440671963458
 31
0.0
  0
ARC
  5
50C
330
4FE
100
AcDbEntity
  8
AM_7
100
AcDbCircle
 10
10935.95877386443
 20
2374.414611533481
 30
0.0
 40
5.0
100
AcDbArc
 50
159.9999999999617
 51
250.0000000000405
1001
GENIUS_GENOBJ-N-FIL_13
1002
{
1000
OWNER
1000
GEN
1002
}
1001
GENIUS_GENODEF_13
1002
{
1000
HIER
1070
     0
1002
}
1002
{
1000
MANEDIT
1070
     0
1002
}
1002
{
1000
NOSEL
1070
     0
1002
}
1002
{
1000
BEHIND
1070
     0
1002
}
1002
{
1000
OTHER
1070
     0
1002
}
1002
{
1000
REACTOR
1002
}
  0
ARC
  5
50D
330
4FE
100
AcDbEntity
  8
0
100
AcDbCircle
 10
10935.95877386443
 20
2374.414611533481
 30
0.0
 40
7.0
100
AcDbArc
 50
159.9999999999617
 51
250.0000000000405
1001
GENIUS_GENOBJ-N-FIL_13
1002
{
1000
OWNER
1000
GEN
1002
}
1001
GENIUS_GENODEF_13
1002
{
1000
HIER
1070
     0
1002
}
1002
{
1000
MANEDIT
1070
     0
1002
}
1002
{
1000
NOSEL
1070
     0
1002
}
1002
{
1000
BEHIND
1070
     0
1002
}
1002
{
1000
OTHER
1070
     0
1002
}
1002
{
1000
REACTOR
1002
}
  0
ARC
  5
50E
330
4FE
100
AcDbEntity
  8
0
100
AcDbCircle
 10
10935.95877386443
 20
2374.414611533481
 30
0.0
 40
3.0
100
AcDbArc
 50
159.9999999999617
 51
250.0000000000405
1001
GENIUS_GENOBJ-N-FIL_13
1002
{
1000
OWNER
1000
GEN
1002
}
1001
GENIUS_GENODEF_13
1002
{
1000
HIER
1070
     0
1002
}
1002
{
1000
MANEDIT
1070
     0
1002
}
1002
{
1000
NOSEL
1070
     0
1002
}
1002
{
1000
BEHIND
1070
     0
1002
}
1002
{
1000
OTHER
1070
     0
1002
}
1002
{
1000
REACTOR
1002
}
  0
LINE
  5
50F
330
4FE
100
AcDbEntity
  8
AM_7
100
AcDbLine
 10
10934.2486731478
 20
2369.716148429551
 30
0.0
 11
10938.94713625172
 21
2368.006047712922
 31
0.0
  0
LINE
  5
510
330
4FE
100
AcDbEntity
  8
0
100
AcDbLine
 10
10933.56463286115
 20
2367.83676318798
 30
0.0
 11
10938.26309596507
 21
2366.126662471351
 31
0.0
  0
LINE
  5
511
330
4FE
100
AcDbEntity
  8
0
100
AcDbLine
 10
10934.93271343445
 20
2371.595533671122
 30
0.0
 11
10939.63117653838
 21
2369.885432954494
 31
0.0
  0
LINE
  5
512
330
4FE
100
AcDbEntity
  8
AM_7
100
AcDbLine
 10
10901.35943142029
 20
2381.68685344595
 30
0.0
 11
10896.66096831636
 21
2383.396954162579
 31
0.0
  0
LINE
  5
513
330
4FE
100
AcDbEntity
  8
0
100
AcDbLine
 10
10900.67539113364
 20
2379.807468204378
 30
0.0
 11
10895.97692802971
 21
2381.517568921006
 31
0.0
  0
LINE
  5
514
330
4FE
100
AcDbEntity
  8
0
100
AcDbLine
 10
10902.04347170694
 20
2383.566238687522
 30
0.0
 11
10897.34500860301
 21
2385.27633940415
 31
0.0
  0
LINE
  5
515
330
4FE
100
AcDbEntity
  8
0
100
AcDbLine
 10
10895.97692802971
 20
2381.517568921005
 30
0.0
 11
10897.34500860301
 21
2385.276339404149
 31
0.0
  0
LINE
  5
516
330
4FE
100
AcDbEntity
  8
0
100
AcDbLine
 10
10938.26309596507
 20
2366.126662471351
 30
0.0
 11
10939.63117653838
 21
2369.885432954494
 31
0.0
  0
LINE
  5
517
330
4FE
100
AcDbEntity
  8
AM_7
  6
AM_DIN_G_W050x2
100
AcDbLine
 10
10927.38061629717
 20
2402.012894319753
 30
0.0
 11
10918.65910264235
 21
2378.050732489716
 31
0.0
1001
GENIUS_GENODEF_13
1002
{
1000
HIER
1070
     0
1002
}
1002
{
1000
MANEDIT
1070
     0
1002
}
1002
{
1000
NOSEL
1070
     0
1002
}
1002
{
1000
BEHIND
1070
     0
1002
}
1002
{
1000
OTHER
1070
     0
1002
}
1002
{
1000
REACTOR
1002
}
1001
GENIUS_GENOBJ-N-CEN_13
1002
{
1000
OWNER
1000
GEN
1002
}
1001
GENIUS_GENCEN_19
1002
{
1040
7.5
1002
}
  0
ENDBLK
  5
518
330
4FE
100
AcDbEntity
  8
0
100
AcDbBlockEnd
  0
BLOCK
  5
51A
330
519
100
AcDbEntity
  8
0
100
AcDbBlockBegin
  2
6
 70
     0
 10
0.0
 20
0.0
 30
0.0
  3
6
  1

  0
CIRCLE
  5
51B
330
519
100
AcDbEntity
  8
AM_3
100
AcDbCircle
 10
12103.32445068452
 20
389.1488836964727
 30
0.0
 40
39.99
  0
CIRCLE
  5
51C
330
519
100
AcDbEntity
  8
AM_3
100
AcDbCircle
 10
12103.32445068452
 20
389.1488836964727
 30
0.0
 40
39.156875
  0
CIRCLE
  5
51D
330
519
100
AcDbEntity
  8
AM_3
100
AcDbCircle
 10
12103.32445068452
 20
389.1488836964727
 30
0.0
 40
13.33
  0
CIRCLE
  5
51E
330
519
100
AcDbEntity
  8
AM_3
100
AcDbCircle
 10
12103.32445068452
 20
389.1488836964727
 30
0.0
 40
11.66375
  0
LINE
  5
51F
330
519
100
AcDbEntity
  8
AM_3
100
AcDbLine
 10
12103.32445068452
 20
389.1488836964727
 30
0.0
 11
12058.33570068452
 21
389.1488836964727
 31
0.0
1001
GENIUS_GENOREF_13
1005
56F
  0
LINE
  5
520
330
519
100
AcDbEntity
  8
AM_3
100
AcDbLine
 10
12103.32445068452
 20
389.1488836964727
 30
0.0
 11
12103.32445068452
 21
344.1601336964728
 31
0.0
1001
GENIUS_GENOREF_13
1005
56F
  0
LINE
  5
521
330
519
100
AcDbEntity
  8
AM_3
100
AcDbLine
 10
12103.32445068452
 20
389.1488836964727
 30
0.0
 11
12148.31320068452
 21
389.1488836964727
 31
0.0
1001
GENIUS_GENOREF_13
1005
56F
  0
LINE
  5
522
330
519
100
AcDbEntity
  8
AM_3
100
AcDbLine
 10
12103.32445068452
 20
389.1488836964727
 30
0.0
 11
12103.32445068452
 21
434.1376336964726
 31
0.0
1001
GENIUS_GENOREF_13
1005
56F
  0
LINE
  5
523
330
519
100
AcDbEntity
  8
AM_3
100
AcDbLine
 10
12103.32445068452
 20
354.9475667793498
 30
0.0
 11
12105.09508228243
 21
375.9370040518305
 31
0.0
  0
LINE
  5
524
330
519
100
AcDbEntity
  8
AM_3
100
AcDbLine
 10
12103.74268117344
 20
349.9942422982465
 30
0.0
 11
12105.79616739926
 21
374.336697486477
 31
0.0
  0
LINE
  5
525
330
519
100
AcDbEntity
  8
AM_3
100
AcDbLine
 10
12103.32445068452
 20
354.9475667793274
 30
0.0
 11
12101.55381908662
 21
375.9370040518305
 31
0.0
  0
LINE
  5
526
330
519
100
AcDbEntity
  8
AM_3
100
AcDbLine
 10
12102.90622019559
 20
349.9942422982465
 30
0.0
 11
12100.85273396978
 21
374.3366974864738
 31
0.0
  0
LINE
  5
527
330
519
100
AcDbEntity
  8
AM_3
100
AcDbLine
 10
12114.42960013361
 20
356.8006884673896
 30
0.0
 11
12109.28903488633
 21
377.2277832732922
 31
0.0
  0
LINE
  5
528
330
519
100
AcDbEntity
  8
AM_3
100
AcDbLine
 10
12116.43351157085
 20
352.2515479871811
 30
0.0
 11
12110.47175197007
 21
375.941827697071
 31
0.0
  0
LINE
  5
529
330
519
100
AcDbEntity
  8
AM_3
100
AcDbLine
 10
12114.42960013362
 20
356.8006884673696
 30
0.0
 11
12105.93964709834
 21
376.0779369933004
 31
0.0
  0
LINE
  5
52A
330
519
100
AcDbEntity
  8
AM_3
100
AcDbLine
 10
12115.642372356
 20
351.9799495516675
 30
0.0
 11
12105.79616739926
 21
374.336697486477
 31
0.0
  0
LINE
  5
52B
330
519
100
AcDbEntity
  8
AM_3
100
AcDbLine
 10
12124.33133432575
 20
362.1592390424665
 30
0.0
 11
12112.83663224191
 21
379.8103987005392
 31
0.0
  0
LINE
  5
52C
330
519
100
AcDbEntity
  8
AM_3
100
AcDbLine
 10
12127.70377181319
 20
358.507252521373
 30
0.0
 11
12114.37281554479
 21
378.9781473537999
 31
0.0
  0
LINE
  5
52D
330
519
100
AcDbEntity
  8
AM_3
100
AcDbLine
 10
12124.33133432576
 20
362.1592390424501
 30
0.0
 11
12110.04207799966
 21
377.6353098266932
 31
0.0
  0
LINE
  5
52E
330
519
100
AcDbEntity
  8
AM_3
100
AcDbLine
 10
12127.04368657105
 20
357.9934875551128
 30
0.0
 11
12110.47175197007
 21
375.941827697071
 31
0.0
  0
LINE
  5
52F
330
519
100
AcDbEntity
  8
AM_3
100
AcDbLine
 10
12131.95664671997
 20
370.4425364032909
 30
0.0
 11
12115.35343712905
 21
383.4049838786173
 31
0.0
  0
LINE
  5
530
330
519
100
AcDbEntity
  8
AM_3
100
AcDbLine
 10
12136.33215432709
 20
368.0834532472772
 30
0.0
 11
12117.07661735385
 21
383.1166241084888
 31
0.0
  0
LINE
  5
531
330
519
100
AcDbEntity
  8
AM_3
100
AcDbLine
 10
12131.95664671999
 20
370.4425364032788
 30
0.0
 11
12113.41654974667
 21
380.4403570403825
 31
0.0
  0
LINE
  5
532
330
519
100
AcDbEntity
  8
AM_3
100
AcDbLine
 10
12135.87465353592
 20
367.3831961562565
 30
0.0
 11
12114.37281554479
 21
378.9781473537999
 31
0.0
  0
LINE
  5
533
330
519
100
AcDbEntity
  8
AM_3
100
AcDbLine
 10
12136.47921639946
 20
380.7529567522155
 30
0.0
 11
12116.56671468595
 21
387.6220097277501
 31
0.0
  0
LINE
  5
534
330
519
100
AcDbEntity
  8
AM_3
100
AcDbLine
 10
12141.38363998403
 20
379.9424202261883
 30
0.0
 11
12118.29015851743
 21
387.9087897896894
 31
0.0
  0
LINE
  5
535
330
519
100
AcDbEntity
  8
AM_3
100
AcDbLine
 10
12136.47921639948
 20
380.7529567522095
 30
0.0
 11
12115.69738596524
 21
384.1891082439717
 31
0.0
  0
LINE
  5
536
330
519
100
AcDbEntity
  8
AM_3
100
AcDbLine
 10
12141.17830095341
 20
379.131554731821
 30
0.0
 11
12117.07661735385
 21
383.1166241084888
 31
0.0
  0
LINE
  5
537
330
519
100
AcDbEntity
  8
AM_3
100
AcDbLine
 10
12137.40895276453
 20
391.9732060617801
 30
0.0
 11
12116.3449874634
 21
392.0044960632862
 31
0.0
  0
LINE
  5
538
330
519
100
AcDbEntity
  8
AM_3
100
AcDbLine
 10
12142.3108219312
 20
392.7990503751018
 30
0.0
 11
12117.88193302045
 21
392.8353388877275
 31
0.0
  0
LINE
  5
539
330
519
100
AcDbEntity
  8
AM_3
100
AcDbLine
 10
12137.40895276456
 20
391.9732060617818
 30
0.0
 11
12116.63742266027
 21
388.4753280766889
 31
0.0
  0
LINE
  5
53A
330
519
100
AcDbEntity
  8
AM_3
100
AcDbLine
 10
12142.37989633126
 20
391.9654463355825
 30
0.0
 11
12118.29015851743
 21
387.9087897896894
 31
0.0
  0
LINE
  5
53B
330
519
100
AcDbEntity
  8
AM_3
100
AcDbLine
 10
12134.6451044537
 20
402.887396219187
 30
0.0
 11
12114.71228304644
 21
396.0775324894831
 31
0.0
  0
LINE
  5
53C
330
519
100
AcDbEntity
  8
AM_3
100
AcDbLine
 10
12139.01322561791
 20
405.2601283262146
 30
0.0
 11
12115.89617842974
 21
397.3624033645458
 31
0.0
  0
LINE
  5
53D
330
519
100
AcDbEntity
  8
AM_3
100
AcDbLine
 10
12134.64510445372
 20
402.8873962191959
 30
0.0
 11
12116.13479226969
 21
392.8345381120966
 31
0.0
  0
LINE
  5
53E
330
519
100
AcDbEntity
  8
AM_3
100
AcDbLine
 10
12139.34922816561
 20
404.4941196739195
 30
0.0
 11
12117.88193302045
 21
392.8353388877275
 31
0.0
  0
LINE
  5
53F
330
519
100
AcDbEntity
  8
AM_3
100
AcDbLine
 10
12128.48717731696
 20
412.3128053697732
 30
0.0
 11
12111.84553029262
 21
399.3997423098975
 31
0.0
  0
LINE
  5
540
330
519
100
AcDbEntity
  8
AM_3
100
AcDbLine
 10
12131.84819677219
 20
415.9753029299769
 30
0.0
 11
12112.54808206739
 21
400.9994055394416
 31
0.0
  0
LINE
  5
541
330
519
100
AcDbEntity
  8
AM_3
100
AcDbLine
 10
12128.48717731697
 20
412.3128053697866
 30
0.0
 11
12114.24396259542
 21
396.7943503027557
 31
0.0
  0
LINE
  5
542
330
519
100
AcDbEntity
  8
AM_3
100
AcDbLine
 10
12132.41471637787
 20
415.3598985882339
 30
0.0
 11
12115.89617842974
 21
397.3624033645458
 31
0.0
  0
LINE
  5
543
330
519
100
AcDbEntity
  8
AM_3
100
AcDbLine
 10
12119.60247830966
 20
419.2280441817768
 30
0.0
 11
12108.0553863451
 21
401.6111125410867
 31
0.0
  0
LINE
  5
544
330
519
100
AcDbEntity
  8
AM_3
100
AcDbLine
 10
12121.59217744635
 20
423.783418755006
 30
0.0
 11
12108.20046212532
 21
403.3522197928575
 31
0.0
  0
LINE
  5
545
330
519
100
AcDbEntity
  8
AM_3
100
AcDbLine
 10
12119.60247830967
 20
419.2280441817962
 30
0.0
 11
12111.16983437192
 21
399.9256575549839
 31
0.0
  0
LINE
  5
546
330
519
100
AcDbEntity
  8
AM_3
100
AcDbLine
 10
12122.32782292027
 20
423.3853073332261
 30
0.0
 11
12112.54808206739
 21
400.9994055394416
 31
0.0
  0
LINE
  5
547
330
519
100
AcDbEntity
  8
AM_3
100
AcDbLine
 10
12108.95380242955
 20
422.8837392289379
 30
0.0
 11
12103.75257211071
 21
402.4720069055578
 31
0.0
  0
LINE
  5
548
330
519
100
AcDbEntity
  8
AM_3
100
AcDbLine
 10
12109.35656647288
 20
427.8383452962611
 30
0.0
 11
12103.32445068452
 21
404.1658821927545
 31
0.0
  0
LINE
  5
549
330
519
100
AcDbEntity
  8
AM_3
100
AcDbLine
 10
12108.95380242956
 20
422.8837392289589
 30
0.0
 11
12107.24553709223
 21
401.8891341407669
 31
0.0
  0
LINE
  5
54A
330
519
100
AcDbEntity
  8
AM_3
100
AcDbLine
 10
12110.18161921322
 20
427.7006683443277
 30
0.0
 11
12108.20046212532
 21
403.3522197928575
 31
0.0
  0
LINE
  5
54B
330
519
100
AcDbEntity
  8
AM_3
100
AcDbLine
 10
12097.69509893948
 20
422.883739228936
 30
0.0
 11
12099.40336427682
 21
401.8891341407669
 31
0.0
  0
LINE
  5
54C
330
519
100
AcDbEntity
  8
AM_3
100
AcDbLine
 10
12096.46728215582
 20
427.7006683443277
 30
0.0
 11
12098.44843924373
 21
403.3522197928634
 31
0.0
  0
LINE
  5
54D
330
519
100
AcDbEntity
  8
AM_3
100
AcDbLine
 10
12097.69509893948
 20
422.8837392289589
 30
0.0
 11
12102.89632925833
 21
402.4720069055578
 31
0.0
  0
LINE
  5
54E
330
519
100
AcDbEntity
  8
AM_3
100
AcDbLine
 10
12097.29233489616
 20
427.8383452962611
 30
0.0
 11
12103.32445068452
 21
404.1658821927636
 31
0.0
  0
LINE
  5
54F
330
519
100
AcDbEntity
  8
AM_3
100
AcDbLine
 10
12087.04642305938
 20
419.2280441817768
 30
0.0
 11
12095.47906699712
 21
399.9256575549839
 31
0.0
  0
LINE
  5
550
330
519
100
AcDbEntity
  8
AM_3
100
AcDbLine
 10
12084.32107844877
 20
423.3853073332261
 30
0.0
 11
12094.10081930166
 21
400.9994055394446
 31
0.0
  0
LINE
  5
551
330
519
100
AcDbEntity
  8
AM_3
100
AcDbLine
 10
12087.04642305937
 20
419.2280441817962
 30
0.0
 11
12098.59351502395
 21
401.6111125410867
 31
0.0
  0
LINE
  5
552
330
519
100
AcDbEntity
  8
AM_3
100
AcDbLine
 10
12085.0567239227
 20
423.783418755007
 30
0.0
 11
12098.44843924373
 21
403.3522197928634
 31
0.0
  0
LINE
  5
553
330
519
100
AcDbEntity
  8
AM_3
100
AcDbLine
 10
12078.16172405208
 20
412.3128053697715
 30
0.0
 11
12092.40493877362
 21
396.7943503027539
 31
0.0
  0
LINE
  5
554
330
519
100
AcDbEntity
  8
AM_3
100
AcDbLine
 10
12074.23418499118
 20
415.3598985882356
 30
0.0
 11
12090.7527229393
 21
397.3624033645477
 31
0.0
  0
LINE
  5
555
330
519
100
AcDbEntity
  8
AM_3
100
AcDbLine
 10
12078.16172405207
 20
412.3128053697866
 30
0.0
 11
12094.80337107643
 21
399.3997423098975
 31
0.0
  0
LINE
  5
556
330
519
100
AcDbEntity
  8
AM_3
100
AcDbLine
 10
12074.80070459685
 20
415.9753029299784
 30
0.0
 11
12094.10081930166
 21
400.9994055394446
 31
0.0
  0
LINE
  5
557
330
519
100
AcDbEntity
  8
AM_3
100
AcDbLine
 10
12072.00379691534
 20
402.887396219187
 30
0.0
 11
12090.51410909936
 21
392.8345381120966
 31
0.0
  0
LINE
  5
558
330
519
100
AcDbEntity
  8
AM_3
100
AcDbLine
 10
12067.29967320343
 20
404.4941196739205
 30
0.0
 11
12088.7669683486
 21
392.8353388877275
 31
0.0
  0
LINE
  5
559
330
519
100
AcDbEntity
  8
AM_3
100
AcDbLine
 10
12072.00379691532
 20
402.8873962191959
 30
0.0
 11
12091.93661832261
 21
396.0775324894831
 31
0.0
  0
LINE
  5
55A
330
519
100
AcDbEntity
  8
AM_3
100
AcDbLine
 10
12067.63567575113
 20
405.2601283262146
 30
0.0
 11
12090.7527229393
 21
397.3624033645477
 31
0.0
  0
LINE
  5
55B
330
519
100
AcDbEntity
  8
AM_3
100
AcDbLine
 10
12069.23994860451
 20
391.9732060617801
 30
0.0
 11
12090.01147870877
 21
388.475328076687
 31
0.0
  0
LINE
  5
55C
330
519
100
AcDbEntity
  8
AM_3
100
AcDbLine
 10
12064.26900503778
 20
391.9654463355812
 30
0.0
 11
12088.35874285161
 21
387.9087897896906
 31
0.0
  0
LINE
  5
55D
330
519
100
AcDbEntity
  8
AM_3
100
AcDbLine
 10
12069.23994860448
 20
391.9732060617832
 30
0.0
 11
12090.30391390563
 21
392.004496063285
 31
0.0
  0
LINE
  5
55E
330
519
100
AcDbEntity
  8
AM_3
100
AcDbLine
 10
12064.33807943785
 20
392.7990503751018
 30
0.0
 11
12088.7669683486
 21
392.8353388877275
 31
0.0
  0
LINE
  5
55F
330
519
100
AcDbEntity
  8
AM_3
100
AcDbLine
 10
12070.16968496959
 20
380.7529567522155
 30
0.0
 11
12090.95151540381
 21
384.1891082439728
 31
0.0
  0
LINE
  5
560
330
519
100
AcDbEntity
  8
AM_3
100
AcDbLine
 10
12065.47060041563
 20
379.131554731821
 30
0.0
 11
12089.57228401519
 21
383.1166241084907
 31
0.0
  0
LINE
  5
561
330
519
100
AcDbEntity
  8
AM_3
100
AcDbLine
 10
12070.16968496957
 20
380.7529567522113
 30
0.0
 11
12090.08218668309
 21
387.6220097277501
 31
0.0
  0
LINE
  5
562
330
519
100
AcDbEntity
  8
AM_3
100
AcDbLine
 10
12065.26526138501
 20
379.9424202261883
 30
0.0
 11
12088.35874285161
 21
387.9087897896906
 31
0.0
  0
LINE
  5
563
330
519
100
AcDbEntity
  8
AM_3
100
AcDbLine
 10
12074.69225464907
 20
370.4425364032909
 30
0.0
 11
12093.23235162238
 21
380.4403570403837
 31
0.0
  0
LINE
  5
564
330
519
100
AcDbEntity
  8
AM_3
100
AcDbLine
 10
12070.77424783312
 20
367.3831961562565
 30
0.0
 11
12092.27608582426
 21
378.9781473538028
 31
0.0
  0
LINE
  5
565
330
519
100
AcDbEntity
  8
AM_3
100
AcDbLine
 10
12074.69225464905
 20
370.4425364032788
 30
0.0
 11
12091.29546424
 21
383.4049838786191
 31
0.0
  0
LINE
  5
566
330
519
100
AcDbEntity
  8
AM_3
100
AcDbLine
 10
12070.31674704195
 20
368.0834532472802
 30
0.0
 11
12089.57228401519
 21
383.1166241084907
 31
0.0
  0
LINE
  5
567
330
519
100
AcDbEntity
  8
AM_3
100
AcDbLine
 10
12082.3175670433
 20
362.1592390424653
 30
0.0
 11
12096.60682336938
 21
377.635309826692
 31
0.0
  0
LINE
  5
568
330
519
100
AcDbEntity
  8
AM_3
100
AcDbLine
 10
12079.60521479799
 20
357.9934875551128
 30
0.0
 11
12096.17714939897
 21
375.9418276970722
 31
0.0
  0
LINE
  5
569
330
519
100
AcDbEntity
  8
AM_3
100
AcDbLine
 10
12082.31756704328
 20
362.1592390424483
 30
0.0
 11
12093.81226912714
 21
379.8103987005374
 31
0.0
  0
LINE
  5
56A
330
519
100
AcDbEntity
  8
AM_3
100
AcDbLine
 10
12078.94512955585
 20
358.5072525213718
 30
0.0
 11
12092.27608582426
 21
378.9781473538028
 31
0.0
  0
LINE
  5
56B
330
519
100
AcDbEntity
  8
AM_3
100
AcDbLine
 10
12092.21930123543
 20
356.8006884673896
 30
0.0
 11
12100.70925427071
 21
376.0779369933004
 31
0.0
  0
LINE
  5
56C
330
519
100
AcDbEntity
  8
AM_3
100
AcDbLine
 10
12091.00652901305
 20
351.9799495516656
 30
0.0
 11
12100.85273396978
 21
374.3366974864738
 31
0.0
  0
LINE
  5
56D
330
519
100
AcDbEntity
  8
AM_3
100
AcDbLine
 10
12092.21930123542
 20
356.8006884673696
 30
0.0
 11
12097.35986648271
 21
377.2277832732938
 31
0.0
  0
LINE
  5
56E
330
519
100
AcDbEntity
  8
AM_3
100
AcDbLine
 10
12090.2153897982
 20
352.2515479871811
 30
0.0
 11
12096.17714939897
 21
375.9418276970722
 31
0.0
  0
POINT
  5
56F
330
519
100
AcDbEntity
  8
0
 60
     1
100
AcDbPoint
 10
17930.61362367098
 20
2222.690323199986
 30
0.0
 50
180.0
1001
GENIUS_GENODEF_13
1002
{
1000
HIER
1070
    10
1002
}
1002
{
1000
MANEDIT
1070
     0
1002
}
1002
{
1000
NOSEL
1070
     0
1002
}
1002
{
1000
BEHIND
1070
     0
1002
}
1002
{
1000
OTHER
1070
     0
1002
}
1002
{
1000
REACTOR
1002
}
1001
GENIUS_GENOENT_13
1002
{
1000
MYREF
1005
56F
1002
}
1002
{
1000
GRP
1005
0
1002
}
1001
GENIUS_GENOLIS_13
1002
{
1000
ENT
1005
522
1005
521
1005
520
1005
51F
1002
}
1001
GENIUS_GENOBJ-N-CRS_13
1002
{
1000
OWNER
1000
GEN
1002
}
  0
ENDBLK
  5
570
330
519
100
AcDbEntity
  8
0
100
AcDbBlockEnd
  0
BLOCK
  5
982
330
978
100
AcDbEntity
  8
0
100
AcDbBlockBegin
  2
*D8
 70
     1
 10
0.0
 20
0.0
 30
0.0
  3
*D8
  1

  0
LINE
  5
9F1
330
978
100
AcDbEntity
  8
AM_5
100
AcDbLine
 10
1032.149595627637
 20
626.7924891233978
 30
0.0
 11
1240.602559470102
 21
626.7924891233978
 31
0.0
  0
LINE
  5
9F2
330
978
100
AcDbEntity
  8
AM_5
100
AcDbLine
 10
1205.003610627636
 20
777.7924891233976
 30
0.0
 11
1240.602559470102
 21
777.7924891233976
 31
0.0
  0
LINE
  5
9F3
330
978
100
AcDbEntity
  8
AM_5
100
AcDbLine
 10
1236.602559470102
 20
631.7924891233976
 30
0.0
 11
1236.602559470102
 21
772.7924891233977
 31
0.0
  0
SOLID
  5
9F4
330
978
100
AcDbEntity
  8
AM_5
100
AcDbTrace
 10
1235.769226136769
 20
631.7924891233976
 30
0.0
 11
1237.435892803436
 21
631.7924891233976
 31
0.0
 12
1236.602559470102
 22
626.7924891233978
 32
0.0
 13
1236.602559470102
 23
626.7924891233978
 33
0.0
  0
SOLID
  5
9F5
330
978
100
AcDbEntity
  8
AM_5
100
AcDbTrace
 10
1235.769226136769
 20
772.7924891233977
 30
0.0
 11
1237.435892803436
 21
772.7924891233977
 31
0.0
 12
1236.602559470102
 22
777.7924891233976
 32
0.0
 13
1236.602559470102
 23
777.7924891233976
 33
0.0
  0
MTEXT
  5
9F6
330
978
100
AcDbEntity
  8
AM_5
 62
     2
100
AcDbMText
 10
1230.102559470102
 20
703.4001974845755
 30
0.0
 40
7.0
 41
0.0
 71
     5
 72
     1
  1
151{}{\H0.71x;\C3;%%p5}
 11
0.0000000000000001
 21
1.0
 31
0.0
 73
     1
 44
1.0
  0
POINT
  5
9F7
330
978
100
AcDbEntity
  8
DEFPOINTS
 62
     0
100
AcDbPoint
 10
1032.149595627637
 20
626.7924891233978
 30
0.0
  0
POINT
  5
9F8
330
978
100
AcDbEntity
  8
DEFPOINTS
 62
     0
100
AcDbPoint
 10
1205.003610627636
 20
777.7924891233976
 30
0.0
  0
POINT
  5
9F9
330
978
100
AcDbEntity
  8
DEFPOINTS
 62
     0
100
AcDbPoint
 10
1236.602559470102
 20
777.7924891233976
 30
0.0
  0
ENDBLK
  5
983
330
978
100
AcDbEntity
  8
0
100
AcDbBlockEnd
  0
BLOCK
  5
98E
330
984
100
AcDbEntity
  8
0
100
AcDbBlockBegin
  2
*D9
 70
     1
 10
0.0
 20
0.0
 30
0.0
  3
*D9
  1

  0
LINE
  5
9FA
330
984
100
AcDbEntity
  8
AM_5
100
AcDbLine
 10
1017.003610627637
 20
647.7924891233977
 30
0.0
 11
954.7756816005547
 21
647.7924891233977
 31
0.0
  0
LINE
  5
9FB
330
984
100
AcDbEntity
  8
AM_5
100
AcDbLine
 10
1017.003610627618
 20
711.7924891234244
 30
0.0
 11
954.7756816005547
 21
711.7924891234244
 31
0.0
  0
LINE
  5
9FC
330
984
100
AcDbEntity
  8
AM_5
100
AcDbLine
 10
958.7756816005548
 20
652.7924891233976
 30
0.0
 11
958.7756816005548
 21
706.7924891234245
 31
0.0
  0
SOLID
  5
9FD
330
984
100
AcDbEntity
  8
AM_5
100
AcDbTrace
 10
957.9423482672217
 20
652.7924891233976
 30
0.0
 11
959.6090149338881
 21
652.7924891233976
 31
0.0
 12
958.7756816005548
 22
647.7924891233977
 32
0.0
 13
958.7756816005548
 23
647.7924891233977
 33
0.0
  0
SOLID
  5
9FE
330
984
100
AcDbEntity
  8
AM_5
100
AcDbTrace
 10
957.9423482672217
 20
706.7924891234245
 30
0.0
 11
959.6090149338881
 21
706.7924891234245
 31
0.0
 12
958.7756816005548
 22
711.7924891234244
 32
0.0
 13
958.7756816005548
 23
711.7924891234244
 33
0.0
  0
MTEXT
  5
9FF
330
984
100
AcDbEntity
  8
AM_5
 62
     2
100
AcDbMText
 10
952.2756816005548
 20
679.7924891234112
 30
0.0
 40
7.0
 41
0.0
 71
     5
 72
     1
  1
64{}{\H0.71x;\C3;%%p2}
 11
0.0000000000000001
 21
1.0
 31
0.0
 73
     1
 44
1.0
  0
POINT
  5
A00
330
984
100
AcDbEntity
  8
DEFPOINTS
 62
     0
100
AcDbPoint
 10
1017.003610627637
 20
647.7924891233977
 30
0.0
  0
POINT
  5
A01
330
984
100
AcDbEntity
  8
DEFPOINTS
 62
     0
100
AcDbPoint
 10
1017.003610627618
 20
711.7924891234244
 30
0.0
  0
POINT
  5
A02
330
984
100
AcDbEntity
  8
DEFPOINTS
 62
     0
100
AcDbPoint
 10
958.7756816005548
 20
711.7924891234244
 30
0.0
  0
ENDBLK
  5
98F
330
984
100
AcDbEntity
  8
0
100
AcDbBlockEnd
  0
BLOCK
  5
99A
330
990
100
AcDbEntity
  8
0
100
AcDbBlockBegin
  2
*D10
 70
     1
 10
0.0
 20
0.0
 30
0.0
  3
*D10
  1

  0
LINE
  5
A03
330
990
100
AcDbEntity
  8
AM_5
100
AcDbLine
 10
1017.003610627637
 20
1163.065714265883
 30
0.0
 11
967.8713269951041
 21
1163.065714265883
 31
0.0
  0
LINE
  5
A04
330
990
100
AcDbEntity
  8
AM_5
100
AcDbLine
 10
1017.003610627637
 20
1099.065714265883
 30
0.0
 11
967.8713269951041
 21
1099.065714265883
 31
0.0
  0
LINE
  5
A05
330
990
100
AcDbEntity
  8
AM_5
100
AcDbLine
 10
971.871326995104
 20
1158.065714265883
 30
0.0
 11
971.871326995104
 21
1104.065714265883
 31
0.0
  0
SOLID
  5
A06
330
990
100
AcDbEntity
  8
AM_5
100
AcDbTrace
 10
971.0379936617707
 20
1158.065714265883
 30
0.0
 11
972.7046603284374
 21
1158.065714265883
 31
0.0
 12
971.871326995104
 22
1163.065714265883
 32
0.0
 13
971.871326995104
 23
1163.065714265883
 33
0.0
  0
SOLID
  5
A07
330
990
100
AcDbEntity
  8
AM_5
100
AcDbTrace
 10
971.0379936617707
 20
1104.065714265883
 30
0.0
 11
972.7046603284374
 21
1104.065714265883
 31
0.0
 12
971.871326995104
 22
1099.065714265883
 32
0.0
 13
971.871326995104
 23
1099.065714265883
 33
0.0
  0
MTEXT
  5
A08
330
990
100
AcDbEntity
  8
AM_5
 62
     2
100
AcDbMText
 10
965.371326995104
 20
1131.065714265883
 30
0.0
 40
7.0
 41
0.0
 71
     5
 72
     1
  1
64{}{\H0.71x;\C3;%%p2}
 11
0.0000000000000001
 21
1.0
 31
0.0
 73
     1
 44
1.0
  0
POINT
  5
A09
330
990
100
AcDbEntity
  8
DEFPOINTS
 62
     0
100
AcDbPoint
 10
1017.003610627637
 20
1163.065714265883
 30
0.0
  0
POINT
  5
A0A
330
990
100
AcDbEntity
  8
DEFPOINTS
 62
     0
100
AcDbPoint
 10
1017.003610627637
 20
1099.065714265883
 30
0.0
  0
POINT
  5
A0B
330
990
100
AcDbEntity
  8
DEFPOINTS
 62
     0
100
AcDbPoint
 10
971.871326995104
 20
1099.065714265883
 30
0.0
  0
ENDBLK
  5
99B
330
990
100
AcDbEntity
  8
0
100
AcDbBlockEnd
  0
BLOCK
  5
9A6
330
99C
100
AcDbEntity
  8
0
100
AcDbBlockBegin
  2
*D11
 70
     1
 10
0.0
 20
0.0
 30
0.0
  3
*D11
  1

  0
LINE
  5
A0C
330
99C
100
AcDbEntity
  8
AM_5
100
AcDbLine
 10
524.1200215082499
 20
1105.91277489549
 30
0.0
 11
692.4147717847555
 21
1105.91277489549
 31
0.0
  0
LINE
  5
A0D
330
99C
100
AcDbEntity
  8
AM_5
100
AcDbLine
 10
524.995021507917
 20
704.9454284937902
 30
0.0
 11
692.4147717847554
 21
704.9454284937902
 31
0.0
  0
LINE
  5
A0E
330
99C
100
AcDbEntity
  8
AM_5
100
AcDbLine
 10
688.4147717847555
 20
1100.91277489549
 30
0.0
 11
688.4147717847554
 21
709.9454284937904
 31
0.0
  0
SOLID
  5
A0F
330
99C
100
AcDbEntity
  8
AM_5
100
AcDbTrace
 10
687.581438451422
 20
1100.91277489549
 30
0.0
 11
689.2481051180887
 21
1100.91277489549
 31
0.0
 12
688.4147717847555
 22
1105.91277489549
 32
0.0
 13
688.4147717847555
 23
1105.91277489549
 33
0.0
  0
SOLID
  5
A10
330
99C
100
AcDbEntity
  8
AM_5
100
AcDbTrace
 10
687.5814384514219
 20
709.9454284937904
 30
0.0
 11
689.2481051180887
 21
709.9454284937904
 31
0.0
 12
688.4147717847554
 22
704.9454284937902
 32
0.0
 13
688.4147717847554
 23
704.9454284937902
 33
0.0
  0
MTEXT
  5
A11
330
99C
100
AcDbEntity
  8
AM_5
 62
     2
100
AcDbMText
 10
681.9147717847552
 20
905.4291016946404
 30
0.0
 40
7.0
 41
0.0
 71
     5
 72
     1
  1
401
 11
0.0000000000000001
 21
1.0
 31
0.0
 73
     1
 44
1.0
  0
POINT
  5
A12
330
99C
100
AcDbEntity
  8
DEFPOINTS
 62
     0
100
AcDbPoint
 10
524.1200215082499
 20
1105.91277489549
 30
0.0
  0
POINT
  5
A13
330
99C
100
AcDbEntity
  8
DEFPOINTS
 62
     0
100
AcDbPoint
 10
524.995021507917
 20
704.9454284937902
 30
0.0
  0
POINT
  5
A14
330
99C
100
AcDbEntity
  8
DEFPOINTS
 62
     0
100
AcDbPoint
 10
688.4147717847554
 20
704.9454284937902
 30
0.0
  0
ENDBLK
  5
9A7
330
99C
100
AcDbEntity
  8
0
100
AcDbBlockEnd
  0
BLOCK
  5
9B2
330
9A8
100
AcDbEntity
  8
0
100
AcDbBlockBegin
  2
*D12
 70
     1
 10
0.0
 20
0.0
 30
0.0
  3
*D12
  1

  0
LINE
  5
FAF
330
9A8
100
AcDbEntity
  8
AM_5
100
AcDbLine
 10
677.6089644084861
 20
453.8246565308661
 30
0.0
 11
951.1787146853238
 21
453.824656530866
 31
0.0
  0
LINE
  5
FB0
330
9A8
100
AcDbEntity
  8
AM_5
100
AcDbLine
 10
660.7589644088185
 20
1011.097881673351
 30
0.0
 11
951.1787146853242
 21
1011.097881673351
 31
0.0
  0
LINE
  5
FB1
330
9A8
100
AcDbEntity
  8
AM_5
100
AcDbLine
 10
947.1787146853241
 20
458.824656530866
 30
0.0
 11
947.1787146853241
 21
1006.097881673351
 31
0.0
  0
SOLID
  5
FB2
330
9A8
100
AcDbEntity
  8
AM_5
100
AcDbTrace
 10
946.3453813519905
 20
458.824656530866
 30
0.0
 11
948.0120480186574
 21
458.824656530866
 31
0.0
 12
947.1787146853241
 22
453.824656530866
 32
0.0
 13
947.1787146853241
 23
453.824656530866
 33
0.0
  0
SOLID
  5
FB3
330
9A8
100
AcDbEntity
  8
AM_5
100
AcDbTrace
 10
946.3453813519908
 20
1006.097881673351
 30
0.0
 11
948.0120480186576
 21
1006.097881673351
 31
0.0
 12
947.1787146853241
 22
1011.097881673351
 32
0.0
 13
947.1787146853241
 23
1011.097881673351
 33
0.0
  0
MTEXT
  5
FB4
330
9A8
100
AcDbEntity
  8
AM_5
 62
     2
100
AcDbMText
 10
940.3287146853241
 20
732.4612691021086
 30
0.0
 40
7.0
 41
0.0
 71
     5
 72
     1
  1
(557)
 11
0.0000000000000001
 21
1.0
 31
0.0
 73
     1
 44
1.0
  0
POINT
  5
FB5
330
9A8
100
AcDbEntity
  8
DEFPOINTS
 62
     0
100
AcDbPoint
 10
677.6089644084861
 20
453.8246565308661
 30
0.0
  0
POINT
  5
FB6
330
9A8
100
AcDbEntity
  8
DEFPOINTS
 62
     0
100
AcDbPoint
 10
660.7589644088185
 20
1011.097881673351
 30
0.0
  0
POINT
  5
FB7
330
9A8
100
AcDbEntity
  8
DEFPOINTS
 62
     0
100
AcDbPoint
 10
947.1787146853241
 20
1011.097881673351
 30
0.0
  0
ENDBLK
  5
9B3
330
9A8
100
AcDbEntity
  8
0
100
AcDbBlockEnd
  0
BLOCK
  5
9BE
330
9B4
100
AcDbEntity
  8
0
100
AcDbBlockBegin
  2
*D13
 70
     1
 10
0.0
 20
0.0
 30
0.0
  3
*D13
  1

  0
LINE
  5
F9D
330
9B4
100
AcDbEntity
  8
AM_5
100
AcDbLine
 10
475.7589644088184
 20
560.3746565308656
 30
0.0
 11
475.7589644088184
 21
409.4174006023565
 31
0.0
  0
LINE
  5
F9E
330
9B4
100
AcDbEntity
  8
AM_5
100
AcDbLine
 10
845.7589644088185
 20
560.3746565308656
 30
0.0
 11
845.7589644088185
 21
409.4174006023565
 31
0.0
  0
LINE
  5
F9F
330
9B4
100
AcDbEntity
  8
AM_5
100
AcDbLine
 10
480.7589644088186
 20
413.4174006023565
 30
0.0
 11
840.7589644088186
 21
413.4174006023565
 31
0.0
  0
SOLID
  5
FA0
330
9B4
100
AcDbEntity
  8
AM_5
100
AcDbTrace
 10
480.7589644088186
 20
414.2507339356898
 30
0.0
 11
480.7589644088186
 21
412.584067269023
 31
0.0
 12
475.7589644088184
 22
413.4174006023565
 32
0.0
 13
475.7589644088184
 23
413.4174006023565
 33
0.0
  0
SOLID
  5
FA1
330
9B4
100
AcDbEntity
  8
AM_5
100
AcDbTrace
 10
840.7589644088186
 20
414.2507339356898
 30
0.0
 11
840.7589644088186
 21
412.584067269023
 31
0.0
 12
845.7589644088185
 22
413.4174006023565
 32
0.0
 13
845.7589644088185
 23
413.4174006023565
 33
0.0
  0
MTEXT
  5
FA2
330
9B4
100
AcDbEntity
  8
AM_5
 62
     2
100
AcDbMText
 10
660.7589644088185
 20
420.2674006023563
 30
0.0
 40
7.0
 41
0.0
 71
     5
 72
     1
  1
(370)
 73
     1
 44
1.0
  0
POINT
  5
FA3
330
9B4
100
AcDbEntity
  8
DEFPOINTS
 62
     0
100
AcDbPoint
 10
475.7589644088184
 20
560.3746565308656
 30
0.0
  0
POINT
  5
FA4
330
9B4
100
AcDbEntity
  8
DEFPOINTS
 62
     0
100
AcDbPoint
 10
845.7589644088185
 20
560.3746565308656
 30
0.0
  0
POINT
  5
FA5
330
9B4
100
AcDbEntity
  8
DEFPOINTS
 62
     0
100
AcDbPoint
 10
845.7589644088185
 20
413.4174006023565
 30
0.0
  0
ENDBLK
  5
9BF
330
9B4
100
AcDbEntity
  8
0
100
AcDbBlockEnd
  0
BLOCK
  5
9CA
330
9C0
100
AcDbEntity
  8
0
100
AcDbBlockBegin
  2
*D14
 70
     1
 10
0.0
 20
0.0
 30
0.0
  3
*D14
  1

  0
LINE
  5
FC1
330
9C0
100
AcDbEntity
  8
AM_5
100
AcDbLine
 10
525.4715396305348
 20
560.3746565308656
 30
0.0
 11
445.4851772649783
 21
560.3746565308656
 31
0.0
  0
LINE
  5
FC2
330
9C0
100
AcDbEntity
  8
AM_5
100
AcDbLine
 10
525.4715396305348
 20
649.2746565308664
 30
0.0
 11
445.4851772649783
 21
649.2746565308664
 31
0.0
  0
LINE
  5
FC3
330
9C0
100
AcDbEntity
  8
AM_5
100
AcDbLine
 10
449.4851772649783
 20
565.3746565308656
 30
0.0
 11
449.4851772649783
 21
644.2746565308664
 31
0.0
  0
SOLID
  5
FC4
330
9C0
100
AcDbEntity
  8
AM_5
100
AcDbTrace
 10
448.6518439316451
 20
565.3746565308656
 30
0.0
 11
450.3185105983117
 21
565.3746565308656
 31
0.0
 12
449.4851772649783
 22
560.3746565308656
 32
0.0
 13
449.4851772649783
 23
560.3746565308656
 33
0.0
  0
SOLID
  5
FC5
330
9C0
100
AcDbEntity
  8
AM_5
100
AcDbTrace
 10
448.6518439316451
 20
644.2746565308664
 30
0.0
 11
450.3185105983117
 21
644.2746565308664
 31
0.0
 12
449.4851772649783
 22
649.2746565308664
 32
0.0
 13
449.4851772649783
 23
649.2746565308664
 33
0.0
  0
MTEXT
  5
FC6
330
9C0
100
AcDbEntity
  8
AM_5
 62
     2
100
AcDbMText
 10
442.6334855084093
 20
604.8246565308661
 30
0.0
 40
7.0
 41
0.0
 71
     5
 72
     1
  1
(%%c88.9)
 11
0.0000000000000001
 21
1.0
 31
0.0
 73
     1
 44
1.0
  0
POINT
  5
FC7
330
9C0
100
AcDbEntity
  8
DEFPOINTS
 62
     0
100
AcDbPoint
 10
525.4715396305348
 20
560.3746565308656
 30
0.0
  0
POINT
  5
FC8
330
9C0
100
AcDbEntity
  8
DEFPOINTS
 62
     0
100
AcDbPoint
 10
525.4715396305348
 20
649.2746565308664
 30
0.0
  0
POINT
  5
FC9
330
9C0
100
AcDbEntity
  8
DEFPOINTS
 62
     0
100
AcDbPoint
 10
449.4851772649783
 20
649.2746565308664
 30
0.0
  0
ENDBLK
  5
9CB
330
9C0
100
AcDbEntity
  8
0
100
AcDbBlockEnd
  0
BLOCK
  5
9D6
330
9CC
100
AcDbEntity
  8
0
100
AcDbBlockBegin
  2
*D15
 70
     1
 10
0.0
 20
0.0
 30
0.0
  3
*D15
  1

  0
LINE
  5
FB8
330
9CC
100
AcDbEntity
  8
AM_5
100
AcDbLine
 10
557.7589644084858
 20
732.6387577090273
 30
0.0
 11
557.7589644084858
 21
783.7528477757143
 31
0.0
  0
LINE
  5
FB9
330
9CC
100
AcDbEntity
  8
AM_5
100
AcDbLine
 10
763.7589644084855
 20
732.6387577090273
 30
0.0
 11
763.7589644084855
 21
783.7528477757143
 31
0.0
  0
LINE
  5
FBA
330
9CC
100
AcDbEntity
  8
AM_5
100
AcDbLine
 10
562.7589644084856
 20
779.7528477757141
 30
0.0
 11
758.7589644084856
 21
779.7528477757141
 31
0.0
  0
SOLID
  5
FBB
330
9CC
100
AcDbEntity
  8
AM_5
100
AcDbTrace
 10
562.7589644084856
 20
780.5861811090477
 30
0.0
 11
562.7589644084856
 21
778.919514442381
 31
0.0
 12
557.7589644084858
 22
779.7528477757141
 32
0.0
 13
557.7589644084858
 23
779.7528477757141
 33
0.0
  0
SOLID
  5
FBC
330
9CC
100
AcDbEntity
  8
AM_5
100
AcDbTrace
 10
758.7589644084856
 20
780.5861811090477
 30
0.0
 11
758.7589644084856
 21
778.919514442381
 31
0.0
 12
763.7589644084855
 22
779.7528477757141
 32
0.0
 13
763.7589644084855
 23
779.7528477757141
 33
0.0
  0
MTEXT
  5
FBD
330
9CC
100
AcDbEntity
  8
AM_5
 62
     2
100
AcDbMText
 10
679.0648605188636
 20
786.6028477757144
 30
0.0
 40
7.0
 41
0.0
 71
     5
 72
     1
  1
(%%c206)
 73
     1
 44
1.0
  0
POINT
  5
FBE
330
9CC
100
AcDbEntity
  8
DEFPOINTS
 62
     0
100
AcDbPoint
 10
557.7589644084858
 20
732.6387577090273
 30
0.0
  0
POINT
  5
FBF
330
9CC
100
AcDbEntity
  8
DEFPOINTS
 62
     0
100
AcDbPoint
 10
763.7589644084855
 20
732.6387577090273
 30
0.0
  0
POINT
  5
FC0
330
9CC
100
AcDbEntity
  8
DEFPOINTS
 62
     0
100
AcDbPoint
 10
763.7589644084855
 20
779.7528477757141
 30
0.0
  0
ENDBLK
  5
9D7
330
9CC
100
AcDbEntity
  8
0
100
AcDbBlockEnd
  0
BLOCK
  5
9E2
330
9D8
100
AcDbEntity
  8
0
100
AcDbBlockBegin
  2
*D16
 70
     1
 10
0.0
 20
0.0
 30
0.0
  3
*D16
  1

  0
LINE
  5
A39
330
9D8
100
AcDbEntity
  8
AM_5
100
AcDbLine
 10
1017.003610627637
 20
647.7924891233977
 30
0.0
 11
782.3615099194011
 21
647.7924891233977
 31
0.0
  0
LINE
  5
A3A
330
9D8
100
AcDbEntity
  8
AM_5
100
AcDbLine
 10
1017.003610627637
 20
1163.065714265883
 30
0.0
 11
782.3615099194012
 21
1163.065714265883
 31
0.0
  0
LINE
  5
A3B
330
9D8
100
AcDbEntity
  8
AM_5
100
AcDbLine
 10
786.3615099194011
 20
652.7924891233976
 30
0.0
 11
786.3615099194012
 21
1158.065714265883
 31
0.0
  0
SOLID
  5
A3C
330
9D8
100
AcDbEntity
  8
AM_5
100
AcDbTrace
 10
785.5281765860678
 20
652.7924891233976
 30
0.0
 11
787.1948432527345
 21
652.7924891233976
 31
0.0
 12
786.3615099194011
 22
647.7924891233977
 32
0.0
 13
786.3615099194011
 23
647.7924891233977
 33
0.0
  0
SOLID
  5
A3D
330
9D8
100
AcDbEntity
  8
AM_5
100
AcDbTrace
 10
785.5281765860678
 20
1158.065714265883
 30
0.0
 11
787.1948432527346
 21
1158.065714265883
 31
0.0
 12
786.3615099194012
 22
1163.065714265883
 32
0.0
 13
786.3615099194012
 23
1163.065714265883
 33
0.0
  0
MTEXT
  5
A3E
330
9D8
100
AcDbEntity
  8
AM_5
 62
     2
100
AcDbMText
 10
779.861509919401
 20
905.4291016946406
 30
0.0
 40
7.0
 41
0.0
 71
     5
 72
     1
  1
515{}{\H0.71x;\C3;%%p5}
 11
0.0000000000000001
 21
1.0
 31
0.0
 73
     1
 44
1.0
  0
POINT
  5
A3F
330
9D8
100
AcDbEntity
  8
DEFPOINTS
 62
     0
100
AcDbPoint
 10
1017.003610627637
 20
647.7924891233977
 30
0.0
  0
POINT
  5
A40
330
9D8
100
AcDbEntity
  8
DEFPOINTS
 62
     0
100
AcDbPoint
 10
1017.003610627637
 20
1163.065714265883
 30
0.0
  0
POINT
  5
A41
330
9D8
100
AcDbEntity
  8
DEFPOINTS
 62
     0
100
AcDbPoint
 10
786.3615099194012
 20
1163.065714265883
 30
0.0
  0
ENDBLK
  5
9E3
330
9D8
100
AcDbEntity
  8
0
100
AcDbBlockEnd
  0
BLOCK
  5
9EE
330
9E4
100
AcDbEntity
  8
0
100
AcDbBlockBegin
  2
*D17
 70
     1
 10
0.0
 20
0.0
 30
0.0
  3
*D17
  1

  0
LINE
  5
A42
330
9E4
100
AcDbEntity
  8
AM_5
100
AcDbLine
 10
1118.253610627636
 20
719.9454284937902
 30
0.0
 11
1210.352118604878
 21
719.9454284937902
 31
0.0
  0
LINE
  5
A43
330
9E4
100
AcDbEntity
  8
AM_5
100
AcDbLine
 10
1017.003610627637
 20
647.7924891233977
 30
0.0
 11
1210.352118604878
 21
647.7924891233977
 31
0.0
  0
LINE
  5
A44
330
9E4
100
AcDbEntity
  8
AM_5
100
AcDbLine
 10
1206.352118604878
 20
714.9454284937903
 30
0.0
 11
1206.352118604878
 21
652.7924891233976
 31
0.0
  0
SOLID
  5
A45
330
9E4
100
AcDbEntity
  8
AM_5
100
AcDbTrace
 10
1205.518785271545
 20
714.9454284937903
 30
0.0
 11
1207.185451938211
 21
714.9454284937903
 31
0.0
 12
1206.352118604878
 22
719.9454284937902
 32
0.0
 13
1206.352118604878
 23
719.9454284937902
 33
0.0
  0
SOLID
  5
A46
330
9E4
100
AcDbEntity
  8
AM_5
100
AcDbTrace
 10
1205.518785271545
 20
652.7924891233976
 30
0.0
 11
1207.185451938211
 21
652.7924891233976
 31
0.0
 12
1206.352118604878
 22
647.7924891233977
 32
0.0
 13
1206.352118604878
 23
647.7924891233977
 33
0.0
  0
MTEXT
  5
A47
330
9E4
100
AcDbEntity
  8
AM_5
 62
     2
100
AcDbMText
 10
1199.502118604878
 20
683.8689588085941
 30
0.0
 40
7.0
 41
0.0
 71
     5
 72
     1
  1
(72)
 11
0.0000000000000001
 21
1.0
 31
0.0
 73
     1
 44
1.0
  0
POINT
  5
A48
330
9E4
100
AcDbEntity
  8
DEFPOINTS
 62
     0
100
AcDbPoint
 10
1118.253610627636
 20
719.9454284937902
 30
0.0
  0
POINT
  5
A49
330
9E4
100
AcDbEntity
  8
DEFPOINTS
 62
     0
100
AcDbPoint
 10
1017.003610627637
 20
647.7924891233977
 30
0.0
  0
POINT
  5
A4A
330
9E4
100
AcDbEntity
  8
DEFPOINTS
 62
     0
100
AcDbPoint
 10
1206.352118604878
 20
647.7924891233977
 30
0.0
  0
ENDBLK
  5
9EF
330
9E4
100
AcDbEntity
  8
0
100
AcDbBlockEnd
  0
BLOCK
  5
FD6
330
FCC
100
AcDbEntity
  8
0
100
AcDbBlockBegin
  2
*D18
 70
     1
 10
0.0
 20
0.0
 30
0.0
  3
*D18
  1

  0
LINE
  5
101F
330
FCC
100
AcDbEntity
  8
AM_5
100
AcDbLine
 10
669.012016166631
 20
446.824656530866
 30
0.0
 11
900.7217647138359
 21
446.824656530866
 31
0.0
  0
LINE
  5
1020
330
FCC
100
AcDbEntity
  8
AM_5
100
AcDbLine
 10
676.7089614088185
 20
1164.997875673352
 30
0.0
 11
900.7217647138359
 21
1164.997875673352
 31
0.0
  0
LINE
  5
1021
330
FCC
100
AcDbEntity
  8
AM_5
100
AcDbLine
 10
896.721764713836
 20
451.8246565308659
 30
0.0
 11
896.7217647138362
 21
1159.997875673351
 31
0.0
  0
SOLID
  5
1022
330
FCC
100
AcDbEntity
  8
AM_5
100
AcDbTrace
 10
895.8884313805027
 20
451.8246565308659
 30
0.0
 11
897.5550980471691
 21
451.8246565308659
 31
0.0
 12
896.721764713836
 22
446.824656530866
 32
0.0
 13
896.721764713836
 23
446.824656530866
 33
0.0
  0
SOLID
  5
1023
330
FCC
100
AcDbEntity
  8
AM_5
100
AcDbTrace
 10
895.8884313805027
 20
1159.997875673351
 30
0.0
 11
897.5550980471695
 21
1159.997875673351
 31
0.0
 12
896.7217647138362
 22
1164.997875673352
 32
0.0
 13
896.7217647138362
 23
1164.997875673352
 33
0.0
  0
MTEXT
  5
1024
330
FCC
100
AcDbEntity
  8
AM_5
 62
     2
100
AcDbMText
 10
889.8717647138358
 20
794.0231186795329
 30
0.0
 40
7.0
 41
0.0
 71
     5
 72
     1
  1
(718)
 11
0.0000000000000001
 21
1.0
 31
0.0
 73
     1
 44
1.0
  0
POINT
  5
1025
330
FCC
100
AcDbEntity
  8
DEFPOINTS
 62
     0
100
AcDbPoint
 10
669.012016166631
 20
446.824656530866
 30
0.0
  0
POINT
  5
1026
330
FCC
100
AcDbEntity
  8
DEFPOINTS
 62
     0
100
AcDbPoint
 10
676.7089614088185
 20
1164.997875673352
 30
0.0
  0
POINT
  5
1027
330
FCC
100
AcDbEntity
  8
DEFPOINTS
 62
     0
100
AcDbPoint
 10
896.7217647138362
 20
1164.997875673352
 30
0.0
  0
ENDBLK
  5
FD7
330
FCC
100
AcDbEntity
  8
0
100
AcDbBlockEnd
  0
BLOCK
  5
FEE
330
FE4
100
AcDbEntity
  8
0
100
AcDbBlockBegin
  2
*D19
 70
     1
 10
0.0
 20
0.0
 30
0.0
  3
*D19
  1

  0
LINE
  5
1004
330
FE4
100
AcDbEntity
  8
AM_5
100
AcDbLine
 10
666.5493086470998
 20
447.2658110108465
 30
0.0
 11
873.7589654088186
 21
447.2658110108465
 31
0.0
  0
LINE
  5
1005
330
FE4
100
AcDbEntity
  8
AM_5
100
AcDbLine
 10
769.1303507051054
 20
604.824656530866
 30
0.0
 11
873.7589654088186
 21
604.824656530866
 31
0.0
  0
LINE
  5
1006
330
FE4
100
AcDbEntity
  8
AM_5
100
AcDbLine
 10
869.7589654088186
 20
452.2658110108465
 30
0.0
 11
869.7589654088186
 21
599.824656530866
 31
0.0
  0
SOLID
  5
1007
330
FE4
100
AcDbEntity
  8
AM_5
100
AcDbTrace
 10
868.9256320754852
 20
452.2658110108465
 30
0.0
 11
870.5922987421519
 21
452.2658110108465
 31
0.0
 12
869.7589654088186
 22
447.2658110108465
 32
0.0
 13
869.7589654088186
 23
447.2658110108465
 33
0.0
  0
SOLID
  5
1008
330
FE4
100
AcDbEntity
  8
AM_5
100
AcDbTrace
 10
868.9256320754852
 20
599.824656530866
 30
0.0
 11
870.5922987421519
 21
599.824656530866
 31
0.0
 12
869.7589654088186
 22
604.824656530866
 32
0.0
 13
869.7589654088186
 23
604.824656530866
 33
0.0
  0
MTEXT
  5
1009
330
FE4
100
AcDbEntity
  8
AM_5
 62
     2
100
AcDbMText
 10
862.9089654088184
 20
526.0452337708565
 30
0.0
 40
7.0
 41
0.0
 71
     5
 72
     1
  1
(158)
 11
0.0000000000000001
 21
1.0
 31
0.0
 73
     1
 44
1.0
  0
POINT
  5
100A
330
FE4
100
AcDbEntity
  8
DEFPOINTS
 62
     0
100
AcDbPoint
 10
666.5493086470998
 20
447.2658110108465
 30
0.0
  0
POINT
  5
100B
330
FE4
100
AcDbEntity
  8
DEFPOINTS
 62
     0
100
AcDbPoint
 10
769.1303507051054
 20
604.824656530866
 30
0.0
  0
POINT
  5
100C
330
FE4
100
AcDbEntity
  8
DEFPOINTS
 62
     0
100
AcDbPoint
 10
869.7589654088186
 20
604.824656530866
 30
0.0
  0
ENDBLK
  5
FEF
330
FE4
100
AcDbEntity
  8
0
100
AcDbBlockEnd
  0
BLOCK
  5
11DB
330
11D1
100
AcDbEntity
  8
0
100
AcDbBlockBegin
  2
*D21
 70
     1
 10
0.0
 20
0.0
 30
0.0
  3
*D21
  1

  0
LINE
  5
11F1
330
11D1
100
AcDbEntity
  8
AM_5
100
AcDbLine
 10
1445.758964408818
 20
623.0400930955544
 30
0.0
 11
1445.758964408818
 21
743.4645449437073
 31
0.0
  0
LINE
  5
11F2
330
11D1
100
AcDbEntity
  8
AM_5
100
AcDbLine
 10
1075.758964408819
 20
617.8075328352039
 30
0.0
 11
1075.758964408819
 21
743.4645449437073
 31
0.0
  0
LINE
  5
11F3
330
11D1
100
AcDbEntity
  8
AM_5
100
AcDbLine
 10
1440.758964408818
 20
739.4645449437073
 30
0.0
 11
1080.758964408819
 21
739.4645449437073
 31
0.0
  0
SOLID
  5
11F4
330
11D1
100
AcDbEntity
  8
AM_5
100
AcDbTrace
 10
1440.758964408818
 20
740.2978782770406
 30
0.0
 11
1440.758964408818
 21
738.6312116103739
 31
0.0
 12
1445.758964408818
 22
739.4645449437073
 32
0.0
 13
1445.758964408818
 23
739.4645449437073
 33
0.0
  0
SOLID
  5
11F5
330
11D1
100
AcDbEntity
  8
AM_5
100
AcDbTrace
 10
1080.758964408819
 20
740.2978782770406
 30
0.0
 11
1080.758964408819
 21
738.6312116103739
 31
0.0
 12
1075.758964408819
 22
739.4645449437073
 32
0.0
 13
1075.758964408819
 23
739.4645449437073
 33
0.0
  0
MTEXT
  5
11F6
330
11D1
100
AcDbEntity
  8
AM_5
 62
     2
100
AcDbMText
 10
1260.758964408818
 20
746.3145449437073
 30
0.0
 40
7.0
 41
0.0
 71
     5
 72
     1
  1
(370)
 73
     1
 44
1.0
  0
POINT
  5
11F7
330
11D1
100
AcDbEntity
  8
DEFPOINTS
 62
     0
100
AcDbPoint
 10
1445.758964408818
 20
623.0400930955544
 30
0.0
  0
POINT
  5
11F8
330
11D1
100
AcDbEntity
  8
DEFPOINTS
 62
     0
100
AcDbPoint
 10
1075.758964408819
 20
617.8075328352039
 30
0.0
  0
POINT
  5
11F9
330
11D1
100
AcDbEntity
  8
DEFPOINTS
 62
     0
100
AcDbPoint
 10
1075.758964408819
 20
739.4645449437073
 30
0.0
  0
ENDBLK
  5
11DC
330
11D1
100
AcDbEntity
  8
0
100
AcDbBlockEnd
  0
ENDSEC
  0
SECTION
  2
ENTITIES
  0
ARC
  5
79E
330
1F
100
AcDbEntity
  8
AM_0
100
AcDbCircle
 10
741.908964408818
 20
949.5447247748336
 30
0.0
 40
21.85
100
AcDbArc
 50
0.0
 51
64.04263171655561
1001
GENIUS_GENODEF_13
1002
{
1000
HIER
1070
     0
1002
}
1002
{
1000
MANEDIT
1070
     0
1002
}
1002
{
1000
NOSEL
1070
     0
1002
}
1002
{
1000
BEHIND
1070
     0
1002
}
1002
{
1000
REACTOR
1002
}
1001
GENIUS_GENOBJ-N-FIL_13
1002
{
1000
OWNER
1000
GEN
1002
}
  0
ARC
  5
79F
330
1F
100
AcDbEntity
  8
AM_0
100
AcDbCircle
 10
741.908964408818
 20
949.5447247748336
 30
0.0
 40
20.1
100
AcDbArc
 50
0.0
 51
64.04263171655561
1001
GENIUS_GENODEF_13
1002
{
1000
HIER
1070
     0
1002
}
1002
{
1000
MANEDIT
1070
     0
1002
}
1002
{
1000
NOSEL
1070
     0
1002
}
1002
{
1000
BEHIND
1070
     0
1002
}
1002
{
1000
REACTOR
1002
}
1001
GENIUS_GENOBJ-N-FIL_13
1002
{
1000
OWNER
1000
GEN
1002
}
  0
LINE
  5
7A0
330
1F
100
AcDbEntity
  8
AM_0
 62
     7
100
AcDbLine
 10
763.7589644088186
 20
949.5447247748336
 30
0.0
 11
763.7589644088186
 21
935.5978816733516
 31
0.0
  0
LINE
  5
7A1
330
1F
100
AcDbEntity
  8
AM_0
 62
     7
100
AcDbLine
 10
763.7589644088186
 20
932.9449423029585
 30
0.0
 11
763.7589644088186
 21
891.5978816733515
 31
0.0
  0
LINE
  5
7A2
330
1F
100
AcDbEntity
  8
AM_0
 62
     7
100
AcDbLine
 10
763.7589644088186
 20
891.5978816733515
 30
0.0
 11
763.7589644088186
 21
752.0978816733514
 31
0.0
  0
LINE
  5
7A3
330
1F
100
AcDbEntity
  8
AM_0
 62
     7
100
AcDbLine
 10
762.0089644088167
 20
949.5447247748339
 30
0.0
 11
762.0089644088167
 21
935.7318562695636
 31
0.0
  0
LINE
  5
7A4
330
1F
100
AcDbEntity
  8
AM_0
 62
     7
100
AcDbLine
 10
762.0089644088167
 20
932.9449423029585
 30
0.0
 11
762.0089644088186
 21
891.7318562695662
 31
0.0
  0
LINE
  5
7A5
330
1F
100
AcDbEntity
  8
AM_0
 62
     7
100
AcDbLine
 10
762.0089644088186
 20
891.7318562695662
 30
0.0
 11
762.0089644088205
 21
752.2318562695675
 31
0.0
  0
ARC
  5
7A6
330
1F
100
AcDbEntity
  8
AM_0
100
AcDbCircle
 10
579.608964408819
 20
949.5447247748336
 30
0.0
 40
21.85
100
AcDbArc
 50
115.9573682834444
 51
180.0
1001
GENIUS_GENODEF_13
1002
{
1000
HIER
1070
     0
1002
}
1002
{
1000
MANEDIT
1070
     0
1002
}
1002
{
1000
NOSEL
1070
     0
1002
}
1002
{
1000
BEHIND
1070
     0
1002
}
1002
{
1000
REACTOR
1002
}
1001
GENIUS_GENOBJ-N-FIL_13
1002
{
1000
OWNER
1000
GEN
1002
}
  0
ARC
  5
7A7
330
1F
100
AcDbEntity
  8
AM_0
100
AcDbCircle
 10
579.608964408819
 20
949.5447247748336
 30
0.0
 40
20.1
100
AcDbArc
 50
115.9573682834444
 51
180.0
1001
GENIUS_GENODEF_13
1002
{
1000
HIER
1070
     0
1002
}
1002
{
1000
MANEDIT
1070
     0
1002
}
1002
{
1000
NOSEL
1070
     0
1002
}
1002
{
1000
BEHIND
1070
     0
1002
}
1002
{
1000
REACTOR
1002
}
1001
GENIUS_GENOBJ-N-FIL_13
1002
{
1000
OWNER
1000
GEN
1002
}
  0
LINE
  5
7A8
330
1F
100
AcDbEntity
  8
AM_0
 62
     7
100
AcDbLine
 10
557.7589644088185
 20
949.5447247748336
 30
0.0
 11
557.7589644088168
 21
935.5978816733516
 31
0.0
  0
LINE
  5
7A9
330
1F
100
AcDbEntity
  8
AM_0
 62
     7
100
AcDbLine
 10
557.7589644088185
 20
932.9449423029585
 30
0.0
 11
557.7589644088168
 21
891.5978816733515
 31
0.0
  0
LINE
  5
7AA
330
1F
100
AcDbEntity
  8
AM_0
 62
     7
100
AcDbLine
 10
557.7589644088168
 20
891.5978816733515
 30
0.0
 11
557.7589644088185
 21
752.0978816733514
 31
0.0
  0
LINE
  5
7AB
330
1F
100
AcDbEntity
  8
AM_0
 62
     7
100
AcDbLine
 10
559.5089644088185
 20
949.5447247748336
 30
0.0
 11
559.5089644088185
 21
935.7318562695652
 31
0.0
  0
LINE
  5
7AC
330
1F
100
AcDbEntity
  8
AM_0
 62
     7
100
AcDbLine
 10
559.5089644088168
 20
932.9449423029579
 30
0.0
 11
559.5089644088185
 21
891.7318562695665
 31
0.0
  0
LINE
  5
7AD
330
1F
100
AcDbEntity
  8
AM_0
 62
     7
100
AcDbLine
 10
559.5089644088185
 20
891.7318562695665
 30
0.0
 11
559.5089644088185
 21
752.0978816733514
 31
0.0
  0
ARC
  5
7AE
330
1F
100
AcDbEntity
  8
AM_0
100
AcDbCircle
 10
660.7589644088185
 20
782.8478816733515
 30
0.0
 40
207.25
100
AcDbArc
 50
64.04263171655561
 51
115.9573682834444
  0
ARC
  5
7AF
330
1F
100
AcDbEntity
  8
AM_0
100
AcDbCircle
 10
660.7589644088185
 20
782.8478816733515
 30
0.0
 40
205.5
100
AcDbArc
 50
64.04263171655561
 51
115.9573682834444
  0
ARC
  5
7B0
330
1F
100
AcDbEntity
  8
AM_0
100
AcDbCircle
 10
741.908964408818
 20
515.377813429384
 30
0.0
 40
21.85
100
AcDbArc
 50
295.9573682834443
 51
0.0
1001
GENIUS_GENODEF_13
1002
{
1000
HIER
1070
     0
1002
}
1002
{
1000
MANEDIT
1070
     0
1002
}
1002
{
1000
NOSEL
1070
     0
1002
}
1002
{
1000
BEHIND
1070
     0
1002
}
1002
{
1000
REACTOR
1002
}
1001
GENIUS_GENOBJ-N-FIL_13
1002
{
1000
OWNER
1000
GEN
1002
}
  0
ARC
  5
7B1
330
1F
100
AcDbEntity
  8
AM_0
100
AcDbCircle
 10
741.908964408818
 20
515.377813429384
 30
0.0
 40
20.1
100
AcDbArc
 50
295.9573682834443
 51
0.0
1001
GENIUS_GENODEF_13
1002
{
1000
HIER
1070
     0
1002
}
1002
{
1000
MANEDIT
1070
     0
1002
}
1002
{
1000
NOSEL
1070
     0
1002
}
1002
{
1000
BEHIND
1070
     0
1002
}
1002
{
1000
REACTOR
1002
}
1001
GENIUS_GENOBJ-N-FIL_13
1002
{
1000
OWNER
1000
GEN
1002
}
  0
ARC
  5
7B2
330
1F
100
AcDbEntity
  8
AM_0
100
AcDbCircle
 10
660.7589644088185
 20
682.074656530866
 30
0.0
 40
207.25
100
AcDbArc
 50
270.0
 51
295.9573682834443
  0
ARC
  5
7B3
330
1F
100
AcDbEntity
  8
AM_0
100
AcDbCircle
 10
660.7589644088185
 20
682.074656530866
 30
0.0
 40
205.5
100
AcDbArc
 50
270.0
 51
295.9573682834443
  0
ARC
  5
7B4
330
1F
100
AcDbEntity
  8
AM_0
100
AcDbCircle
 10
579.608964408819
 20
515.377813429384
 30
0.0
 40
21.85
100
AcDbArc
 50
180.0
 51
244.0426317165556
1001
GENIUS_GENODEF_13
1002
{
1000
HIER
1070
     0
1002
}
1002
{
1000
MANEDIT
1070
     0
1002
}
1002
{
1000
NOSEL
1070
     0
1002
}
1002
{
1000
BEHIND
1070
     0
1002
}
1002
{
1000
REACTOR
1002
}
1001
GENIUS_GENOBJ-N-FIL_13
1002
{
1000
OWNER
1000
GEN
1002
}
  0
ARC
  5
7B5
330
1F
100
AcDbEntity
  8
AM_0
100
AcDbCircle
 10
579.608964408819
 20
515.377813429384
 30
0.0
 40
20.1
100
AcDbArc
 50
180.0
 51
244.0426317165556
1001
GENIUS_GENODEF_13
1002
{
1000
HIER
1070
     0
1002
}
1002
{
1000
MANEDIT
1070
     0
1002
}
1002
{
1000
NOSEL
1070
     0
1002
}
1002
{
1000
BEHIND
1070
     0
1002
}
1002
{
1000
REACTOR
1002
}
1001
GENIUS_GENOBJ-N-FIL_13
1002
{
1000
OWNER
1000
GEN
1002
}
  0
ARC
  5
7B6
330
1F
100
AcDbEntity
  8
AM_0
100
AcDbCircle
 10
660.7589644088185
 20
682.074656530866
 30
0.0
 40
207.25
100
AcDbArc
 50
244.0426317165556
 51
270.0
  0
ARC
  5
7B7
330
1F
100
AcDbEntity
  8
AM_0
100
AcDbCircle
 10
660.7589644088185
 20
682.074656530866
 30
0.0
 40
205.5
100
AcDbArc
 50
244.0426317165556
 51
270.0
  0
LINE
  5
7B8
330
1F
100
AcDbEntity
  8
AM_0
 62
     7
100
AcDbLine
 10
763.7589644088186
 20
752.0978816733514
 30
0.0
 11
763.7589644088186
 21
649.2746565308713
 31
0.0
  0
LINE
  5
7B9
330
1F
100
AcDbEntity
  8
AM_0
 62
     7
100
AcDbLine
 10
763.7589644088186
 20
560.3746565308613
 30
0.0
 11
763.7589644088186
 21
531.9775959012588
 31
0.0
  0
LINE
  5
7BA
330
1F
100
AcDbEntity
  8
AM_0
 62
     7
100
AcDbLine
 10
763.7589644088186
 20
529.3246565308654
 30
0.0
 11
763.7589644088186
 21
515.3778134293844
 31
0.0
  0
LINE
  5
7BB
330
1F
100
AcDbEntity
  8
AM_0
 62
     7
100
AcDbLine
 10
762.0089644088205
 20
752.2318562695675
 30
0.0
 11
762.0089644088186
 21
645.3767780844976
 31
0.0
  0
LINE
  5
7BC
330
1F
100
AcDbEntity
  8
AM_0
 62
     7
100
AcDbLine
 10
762.0089644088167
 20
564.2725349772415
 30
0.0
 11
762.0089644088205
 21
531.9775959012588
 31
0.0
  0
LINE
  5
7BD
330
1F
100
AcDbEntity
  8
AM_0
 62
     7
100
AcDbLine
 10
762.0089644088186
 20
529.1906819346527
 30
0.0
 11
762.0089644088186
 21
515.3778134293844
 31
0.0
  0
LINE
  5
7BE
330
1F
100
AcDbEntity
  8
AM_0
 62
     7
100
AcDbLine
 10
557.7589644088185
 20
752.0978816733514
 30
0.0
 11
557.7589644088185
 21
649.2746565308658
 31
0.0
  0
LINE
  5
7BF
330
1F
100
AcDbEntity
  8
AM_0
 62
     7
100
AcDbLine
 10
557.7589644088185
 20
560.3746565308664
 30
0.0
 11
557.7589644088168
 21
531.9775959012586
 31
0.0
  0
LINE
  5
7C0
330
1F
100
AcDbEntity
  8
AM_0
 62
     7
100
AcDbLine
 10
557.7589644088185
 20
529.3246565308654
 30
0.0
 11
557.7589644088185
 21
515.377813429384
 31
0.0
  0
LINE
  5
7C1
330
1F
100
AcDbEntity
  8
AM_0
 62
     7
100
AcDbLine
 10
559.5089644088185
 20
752.0978816733514
 30
0.0
 11
559.5089644088202
 21
645.3767780844875
 31
0.0
  0
LINE
  5
7C2
330
1F
100
AcDbEntity
  8
AM_0
 62
     7
100
AcDbLine
 10
559.5089644088202
 20
564.2725349772456
 30
0.0
 11
559.5089644088202
 21
531.9775959012615
 31
0.0
  0
LINE
  5
7C3
330
1F
100
AcDbEntity
  8
AM_0
 62
     7
100
AcDbLine
 10
559.5089644088202
 20
529.1906819346531
 30
0.0
 11
559.5089644088185
 21
515.377813429384
 31
0.0
  0
LINE
  5
7C4
330
1F
100
AcDbEntity
  8
0
100
AcDbLine
 10
845.7589644088185
 20
649.2746565308664
 30
0.0
 11
845.7589644088185
 21
560.3746565308656
 31
0.0
  0
LINE
  5
7C5
330
1F
100
AcDbEntity
  8
0
100
AcDbLine
 10
845.7589644088185
 20
649.2746565308664
 30
0.0
 11
763.7589644088186
 21
649.2746565308664
 31
0.0
  0
LINE
  5
7C6
330
1F
100
AcDbEntity
  8
0
100
AcDbLine
 10
845.7589644088185
 20
560.3746565308656
 30
0.0
 11
763.7589644088186
 21
560.3746565308654
 31
0.0
  0
LINE
  5
7C7
330
1F
100
AcDbEntity
  8
AM_3
100
AcDbLine
 10
845.7589644088185
 20
563.574656530866
 30
0.0
 11
763.7589644088186
 21
563.574656530866
 31
0.0
  0
LINE
  5
7C8
330
1F
100
AcDbEntity
  8
AM_3
100
AcDbLine
 10
845.7589644088185
 20
646.0746565308665
 30
0.0
 11
763.7589644088186
 21
646.0746565308665
 31
0.0
  0
LINE
  5
7C9
330
1F
100
AcDbEntity
  8
AM_3
100
AcDbLine
 10
845.7589644088185
 20
563.574656530866
 30
0.0
 11
763.7589644088186
 21
563.574656530866
 31
0.0
  0
LINE
  5
7CA
330
1F
100
AcDbEntity
  8
AM_3
100
AcDbLine
 10
845.7589644088185
 20
646.0746565308665
 30
0.0
 11
763.7589644088186
 21
646.0746565308665
 31
0.0
  0
LINE
  5
7CB
330
1F
100
AcDbEntity
  8
0
100
AcDbLine
 10
475.7589644088184
 20
649.2746565308664
 30
0.0
 11
475.7589644088184
 21
560.3746565308656
 31
0.0
  0
LINE
  5
7CC
330
1F
100
AcDbEntity
  8
0
100
AcDbLine
 10
475.7589644088184
 20
649.2746565308664
 30
0.0
 11
557.7589644088185
 21
649.2746565308664
 31
0.0
  0
LINE
  5
7CD
330
1F
100
AcDbEntity
  8
0
100
AcDbLine
 10
475.7589644088184
 20
560.3746565308656
 30
0.0
 11
557.7589644088185
 21
560.3746565308656
 31
0.0
  0
LINE
  5
7CE
330
1F
100
AcDbEntity
  8
AM_3
100
AcDbLine
 10
475.7589644088184
 20
563.574656530866
 30
0.0
 11
551.2589644088185
 21
563.574656530866
 31
0.0
  0
LINE
  5
7CF
330
1F
100
AcDbEntity
  8
AM_3
100
AcDbLine
 10
475.7589644088184
 20
646.0746565308665
 30
0.0
 11
557.7589644088185
 21
646.0746565308665
 31
0.0
  0
LINE
  5
7D0
330
1F
100
AcDbEntity
  8
AM_3
100
AcDbLine
 10
475.7589644088184
 20
563.574656530866
 30
0.0
 11
557.7589644088185
 21
563.574656530866
 31
0.0
  0
LINE
  5
7D1
330
1F
100
AcDbEntity
  8
AM_7
100
AcDbLine
 10
472.7589644088186
 20
604.824656530866
 30
0.0
 11
576.2322617873532
 21
604.824656530866
 31
0.0
1001
GENIUS_GENODEF_13
1002
{
1000
HIER
1070
     0
1002
}
1002
{
1000
MANEDIT
1070
     0
1002
}
1002
{
1000
NOSEL
1070
     0
1002
}
1002
{
1000
BEHIND
1070
     0
1002
}
1002
{
1000
OTHER
1070
     0
1002
}
1002
{
1000
REACTOR
1002
}
1001
GENIUS_GENOBJ-N-CEN_13
1002
{
1000
OWNER
1000
GEN
1002
}
1001
GENIUS_GENCEN_19
1002
{
1040
3.0
1002
}
  0
LINE
  5
7D2
102
{ACAD_REACTORS
330
FF1
102
}
330
1F
100
AcDbEntity
  8
AM_7
100
AcDbLine
 10
848.7589644088187
 20
604.824656530866
 30
0.0
 11
745.6177569760003
 21
604.824656530866
 31
0.0
1001
GENIUS_GENODEF_13
1002
{
1000
HIER
1070
     0
1002
}
1002
{
1000
MANEDIT
1070
     0
1002
}
1002
{
1000
NOSEL
1070
     0
1002
}
1002
{
1000
BEHIND
1070
     0
1002
}
1002
{
1000
OTHER
1070
     0
1002
}
1002
{
1000
REACTOR
1002
}
1001
GENIUS_GENOBJ-N-CEN_13
1002
{
1000
OWNER
1000
GEN
1002
}
1001
GENIUS_GENCEN_19
1002
{
1040
3.0
1002
}
  0
INSERT
  5
80B
330
1F
100
AcDbEntity
  8
0
370
     0
100
AcDbBlockReference
  2
DIN_A1
 10
91.20538426189886
 20
104.5565154293172
 30
0.0
 41
2.0
 42
2.0
 43
2.0
1001
GENIUS_GENOREF_13
1005
977
1001
GENIUS_GENODEF_13
1002
{
1000
HIER
1070
     0
1002
}
1002
{
1000
MANEDIT
1070
     0
1002
}
1002
{
1000
NOSEL
1070
     0
1002
}
1002
{
1000
BEHIND
1070
     0
1002
}
1002
{
1000
OTHER
1070
     0
1002
}
1002
{
1000
REACTOR
1002
}
1001
GENIUS_GENOBJ-N-SDF_13
1002
{
1000
OWNER
1000
GEN
1002
}
1001
GENIUS_GENSCREG_15
1040
2.0
1040
1.0
1011
91.20538426189886
1021
104.5565154293172
1031
0.0
1011
1773.205384261899
1021
1292.556515429317
1031
0.0
1070
     3
  0
LINE
  5
867
330
1F
100
AcDbEntity
  8
AM_0
100
AcDbLine
 10
763.7589644088166
 20
932.9449423029585
 30
0.0
 11
762.0089644088205
 21
932.9449423029585
 31
0.0
  0
LINE
  5
868
330
1F
100
AcDbEntity
  8
AM_0
100
AcDbLine
 10
762.0089644088167
 20
932.9449423029585
 30
0.0
 11
763.5914961635482
 21
934.9728816733515
 31
0.0
  0
LINE
  5
869
330
1F
100
AcDbEntity
  8
AM_0
100
AcDbLine
 10
760.2589644088167
 20
932.7007673563224
 30
0.0
 11
762.0089644088205
 21
935.7318562695676
 31
0.0
  0
ARC
  5
86A
330
1F
100
AcDbEntity
  8
AM_0
100
AcDbCircle
 10
762.5089644088167
 20
935.5978816733516
 30
0.0
 40
1.25
100
AcDbArc
 50
329.9999999999897
 51
0.0
1001
GENIUS_GENODEF_13
1002
{
1000
HIER
1070
     0
1002
}
1002
{
1000
MANEDIT
1070
     0
1002
}
1002
{
1000
NOSEL
1070
     0
1002
}
1002
{
1000
BEHIND
1070
     0
1002
}
1002
{
1000
REACTOR
1002
}
1001
GENIUS_GENOBJ-N-FIL_13
1002
{
1000
OWNER
1000
GEN
1002
}
  0
LINE
  5
86B
330
1F
100
AcDbEntity
  8
AM_0
 62
     7
100
AcDbLine
 10
760.2589644088167
 20
932.7007673563251
 30
0.0
 11
760.2589644088167
 21
926.0978816733516
 31
0.0
  0
LINE
  5
86C
330
1F
100
AcDbEntity
  8
AM_0
100
AcDbLine
 10
559.5089644088168
 20
932.9449423029585
 30
0.0
 11
557.926432654089
 21
934.9728816733515
 31
0.0
  0
LINE
  5
86D
330
1F
100
AcDbEntity
  8
AM_0
100
AcDbLine
 10
561.2589644088202
 20
932.7007673563135
 30
0.0
 11
559.4419771107116
 21
935.8478816733507
 31
0.0
  0
ARC
  5
86E
330
1F
100
AcDbEntity
  8
AM_0
100
AcDbCircle
 10
559.0089644088168
 20
935.5978816733516
 30
0.0
 40
1.25
100
AcDbArc
 50
180.0
 51
210.0000000000104
1001
GENIUS_GENODEF_13
1002
{
1000
HIER
1070
     0
1002
}
1002
{
1000
MANEDIT
1070
     0
1002
}
1002
{
1000
NOSEL
1070
     0
1002
}
1002
{
1000
BEHIND
1070
     0
1002
}
1002
{
1000
REACTOR
1002
}
1001
GENIUS_GENOBJ-N-FIL_13
1002
{
1000
OWNER
1000
GEN
1002
}
  0
LINE
  5
86F
330
1F
100
AcDbEntity
  8
AM_0
 62
     7
100
AcDbLine
 10
561.2589644088202
 20
932.7007673563125
 30
0.0
 11
561.2589644088202
 21
926.0978816733521
 31
0.0
  0
LINE
  5
870
330
1F
100
AcDbEntity
  8
0
100
AcDbLine
 10
561.2589644088202
 20
926.0978816733516
 30
0.0
 11
559.5089644088168
 21
926.0978816733516
 31
0.0
  0
LINE
  5
871
330
1F
100
AcDbEntity
  8
0
100
AcDbLine
 10
557.7589644088168
 20
932.9449423029585
 30
0.0
 11
559.5089644088168
 21
932.9449423029579
 31
0.0
  0
LINE
  5
872
330
1F
100
AcDbEntity
  8
0
100
AcDbLine
 10
760.2589644088167
 20
926.0978816733516
 30
0.0
 11
762.0089644088167
 21
926.0978816733516
 31
0.0
  0
LINE
  5
873
330
1F
100
AcDbEntity
  8
0
100
AcDbLine
 10
760.2589644088167
 20
926.0978816733516
 30
0.0
 11
561.2589644088202
 21
926.0978816733516
 31
0.0
  0
LINE
  5
882
330
1F
100
AcDbEntity
  8
AM_0
100
AcDbLine
 10
763.7589644088166
 20
531.9775959012588
 30
0.0
 11
762.0089644088205
 21
531.9775959012588
 31
0.0
  0
LINE
  5
883
330
1F
100
AcDbEntity
  8
AM_0
100
AcDbLine
 10
762.0089644088167
 20
531.9775959012588
 30
0.0
 11
763.5914961635482
 21
529.9496565308657
 31
0.0
  0
LINE
  5
884
330
1F
100
AcDbEntity
  8
AM_0
100
AcDbLine
 10
760.2589644088167
 20
532.2217708478948
 30
0.0
 11
762.0089644088205
 21
529.1906819346498
 31
0.0
  0
ARC
  5
885
330
1F
100
AcDbEntity
  8
AM_0
100
AcDbCircle
 10
762.5089644088167
 20
529.3246565308654
 30
0.0
 40
1.25
100
AcDbArc
 50
0.0
 51
30.00000000001034
1001
GENIUS_GENODEF_13
1002
{
1000
HIER
1070
     0
1002
}
1002
{
1000
MANEDIT
1070
     0
1002
}
1002
{
1000
NOSEL
1070
     0
1002
}
1002
{
1000
BEHIND
1070
     0
1002
}
1002
{
1000
REACTOR
1002
}
1001
GENIUS_GENOBJ-N-FIL_13
1002
{
1000
OWNER
1000
GEN
1002
}
  0
LINE
  5
886
330
1F
100
AcDbEntity
  8
AM_0
 62
     7
100
AcDbLine
 10
760.2589644088167
 20
532.2217708478921
 30
0.0
 11
760.2589644088167
 21
538.8246565308657
 31
0.0
  0
LINE
  5
887
330
1F
100
AcDbEntity
  8
AM_0
100
AcDbLine
 10
559.5089644088168
 20
531.9775959012588
 30
0.0
 11
557.926432654089
 21
529.9496565308657
 31
0.0
  0
LINE
  5
888
330
1F
100
AcDbEntity
  8
AM_0
100
AcDbLine
 10
561.2589644088202
 20
532.2217708479036
 30
0.0
 11
559.5089644088202
 21
529.1906819346523
 31
0.0
  0
ARC
  5
889
330
1F
100
AcDbEntity
  8
AM_0
100
AcDbCircle
 10
559.0089644088168
 20
529.3246565308654
 30
0.0
 40
1.25
100
AcDbArc
 50
149.9999999999896
 51
180.0
1001
GENIUS_GENODEF_13
1002
{
1000
HIER
1070
     0
1002
}
1002
{
1000
MANEDIT
1070
     0
1002
}
1002
{
1000
NOSEL
1070
     0
1002
}
1002
{
1000
BEHIND
1070
     0
1002
}
1002
{
1000
REACTOR
1002
}
1001
GENIUS_GENOBJ-N-FIL_13
1002
{
1000
OWNER
1000
GEN
1002
}
  0
LINE
  5
88A
330
1F
100
AcDbEntity
  8
AM_0
 62
     7
100
AcDbLine
 10
561.2589644088202
 20
532.2217708479048
 30
0.0
 11
561.2589644088202
 21
538.8246565308651
 31
0.0
  0
LINE
  5
88B
330
1F
100
AcDbEntity
  8
0
100
AcDbLine
 10
561.2589644088202
 20
538.8246565308657
 30
0.0
 11
559.5089644088168
 21
538.8246565308657
 31
0.0
  0
LINE
  5
88C
330
1F
100
AcDbEntity
  8
0
100
AcDbLine
 10
557.7589644088168
 20
531.9775959012588
 30
0.0
 11
559.5089644088168
 21
531.9775959012591
 31
0.0
  0
LINE
  5
88D
330
1F
100
AcDbEntity
  8
0
100
AcDbLine
 10
760.2589644088167
 20
538.8246565308657
 30
0.0
 11
762.0089644088167
 21
538.8246565308657
 31
0.0
  0
LINE
  5
88E
330
1F
100
AcDbEntity
  8
0
100
AcDbLine
 10
561.2589644088202
 20
538.8246565308657
 30
0.0
 11
760.2589644088167
 21
538.8246565309201
 31
0.0
  0
LINE
  5
89C
330
1F
100
AcDbEntity
  8
AM_7
100
AcDbLine
 10
660.7589644088185
 20
1177.52430881634
 30
0.0
 11
660.7589644088185
 21
442.1990087005558
 31
0.0
1001
GENIUS_GENODEF_13
1002
{
1000
HIER
1070
     0
1002
}
1002
{
1000
MANEDIT
1070
     0
1002
}
1002
{
1000
NOSEL
1070
     0
1002
}
1002
{
1000
BEHIND
1070
     0
1002
}
1002
{
1000
OTHER
1070
     0
1002
}
1002
{
1000
REACTOR
1002
}
1001
GENIUS_GENOBJ-N-CEN_13
1002
{
1000
OWNER
1000
GEN
1002
}
1001
GENIUS_GENCEN_19
1002
{
1040
7.5
1002
}
  0
LINE
  5
89D
330
1F
100
AcDbEntity
  8
AM_7
100
AcDbLine
 10
1260.758964408819
 20
604.4990197405625
 30
0.0
 11
1379.144242667402
 21
604.4990197405625
 31
0.0
1001
GENIUS_GENOREF_13
1005
976
  0
LINE
  5
89E
330
1F
100
AcDbEntity
  8
AM_7
100
AcDbLine
 10
1260.758964408819
 20
604.4990197405625
 30
0.0
 11
1260.758964408819
 21
722.8842979991467
 31
0.0
1001
GENIUS_GENOREF_13
1005
976
  0
LINE
  5
89F
330
1F
100
AcDbEntity
  8
AM_7
100
AcDbLine
 10
1260.758964408819
 20
604.4990197405625
 30
0.0
 11
1142.373686150235
 21
604.4990197405625
 31
0.0
1001
GENIUS_GENOREF_13
1005
976
  0
LINE
  5
8A0
330
1F
100
AcDbEntity
  8
AM_7
100
AcDbLine
 10
1260.758964408819
 20
604.4990197405625
 30
0.0
 11
1260.758964408819
 21
486.113741481978
 31
0.0
1001
GENIUS_GENOREF_13
1005
976
  0
CIRCLE
  5
8A1
330
1F
100
AcDbEntity
  8
0
100
AcDbCircle
 10
1260.758964408819
 20
604.4990197405625
 30
0.0
 40
103.0
  0
LINE
  5
8A2
102
{ACAD_REACTORS
330
11DE
102
}
330
1F
100
AcDbEntity
  8
0
100
AcDbLine
 10
1445.758964408818
 20
648.9490197405626
 30
0.0
 11
1445.758964408818
 21
560.0490197405622
 31
0.0
  0
LINE
  5
8A3
330
1F
100
AcDbEntity
  8
0
100
AcDbLine
 10
1445.758964408818
 20
648.9490197405626
 30
0.0
 11
1353.673965888666
 21
648.9490197405626
 31
0.0
  0
LINE
  5
8A4
330
1F
100
AcDbEntity
  8
0
100
AcDbLine
 10
1445.758964408818
 20
560.0490197405622
 30
0.0
 11
1353.673965888666
 21
560.049019740562
 31
0.0
  0
LINE
  5
8A5
330
1F
100
AcDbEntity
  8
AM_3
100
AcDbLine
 10
1445.758964408818
 20
563.2490197405624
 30
0.0
 11
1355.138186168695
 21
563.2490197405627
 31
0.0
  0
LINE
  5
8A6
330
1F
100
AcDbEntity
  8
AM_3
100
AcDbLine
 10
1445.758964408818
 20
645.7490197405627
 30
0.0
 11
1355.138186168695
 21
645.7490197405633
 31
0.0
  0
LINE
  5
8A7
330
1F
100
AcDbEntity
  8
AM_3
100
AcDbLine
 10
1445.758964408818
 20
563.2490197405624
 30
0.0
 11
1355.138186168695
 21
563.2490197405627
 31
0.0
  0
LINE
  5
8A8
330
1F
100
AcDbEntity
  8
AM_7
100
AcDbLine
 10
1448.758964408819
 20
604.4990197405625
 30
0.0
 11
1367.258964408818
 21
604.4990197405625
 31
0.0
1001
GENIUS_GENODEF_13
1002
{
1000
HIER
1070
     0
1002
}
1002
{
1000
MANEDIT
1070
     0
1002
}
1002
{
1000
NOSEL
1070
     0
1002
}
1002
{
1000
BEHIND
1070
     0
1002
}
1002
{
1000
OTHER
1070
     0
1002
}
1002
{
1000
REACTOR
1002
}
1001
GENIUS_GENOBJ-N-CEN_13
1002
{
1000
OWNER
1000
GEN
1002
}
1001
GENIUS_GENCEN_19
1002
{
1040
3.0
1002
}
  0
LINE
  5
8A9
102
{ACAD_REACTORS
330
11DE
102
}
330
1F
100
AcDbEntity
  8
0
100
AcDbLine
 10
1075.758964408819
 20
648.9490197405626
 30
0.0
 11
1075.758964408819
 21
560.0490197405622
 31
0.0
  0
LINE
  5
8AA
330
1F
100
AcDbEntity
  8
0
100
AcDbLine
 10
1075.758964408819
 20
648.9490197405626
 30
0.0
 11
1167.843962928972
 21
648.9490197405626
 31
0.0
  0
LINE
  5
8AB
330
1F
100
AcDbEntity
  8
0
100
AcDbLine
 10
1075.758964408819
 20
560.0490197405622
 30
0.0
 11
1167.843962928972
 21
560.0490197405624
 31
0.0
  0
LINE
  5
8AC
330
1F
100
AcDbEntity
  8
AM_3
100
AcDbLine
 10
1075.758964408819
 20
563.2490197405624
 30
0.0
 11
1166.379742648942
 21
563.2490197405624
 31
0.0
  0
LINE
  5
8AD
330
1F
100
AcDbEntity
  8
AM_3
100
AcDbLine
 10
1075.758964408819
 20
645.7490197405627
 30
0.0
 11
1166.379742648942
 21
645.7490197405633
 31
0.0
  0
LINE
  5
8AE
330
1F
100
AcDbEntity
  8
AM_3
100
AcDbLine
 10
1075.758964408819
 20
563.2490197405624
 30
0.0
 11
1166.379742648942
 21
563.2490197405627
 31
0.0
  0
LINE
  5
8AF
330
1F
100
AcDbEntity
  8
AM_7
100
AcDbLine
 10
1072.75896440882
 20
604.4990197405625
 30
0.0
 11
1154.258964408819
 21
604.4990197405625
 31
0.0
1001
GENIUS_GENODEF_13
1002
{
1000
HIER
1070
     0
1002
}
1002
{
1000
MANEDIT
1070
     0
1002
}
1002
{
1000
NOSEL
1070
     0
1002
}
1002
{
1000
BEHIND
1070
     0
1002
}
1002
{
1000
OTHER
1070
     0
1002
}
1002
{
1000
REACTOR
1002
}
1001
GENIUS_GENOBJ-N-CEN_13
1002
{
1000
OWNER
1000
GEN
1002
}
1001
GENIUS_GENCEN_19
1002
{
1040
3.0
1002
}
  0
DIMENSION
  5
924
330
1F
100
AcDbEntity
  8
AM_5
100
AcDbDimension
  2
*D13
 10
845.7589644088185
 20
413.4174006023565
 30
0.0
 11
660.7589644088185
 21
420.2674006023563
 31
0.0
 70
    32
  1
(<>)
 71
     5
 42
370.0
  3
AM_DIN$0
100
AcDbAlignedDimension
 13
475.7589644088184
 23
560.3746565308656
 33
0.0
 14
845.7589644088185
 24
560.3746565308656
 34
0.0
100
AcDbRotatedDimension
1001
ACAD
1000
DSTYLE
1002
{
1070
   286
1070
     0
1070
   284
1070
     8
1070
   274
1070
     2
1070
   272
1070
     2
1070
    40
1040
2.0
1070
    47
1040
5.0
1070
    48
1040
5.0
1070
   271
1070
     0
1002
}
  0
DIMENSION
  5
925
330
1F
100
AcDbEntity
  8
AM_5
100
AcDbDimension
  2
*D14
 10
449.4851772649783
 20
649.2746565308664
 30
0.0
 11
449.4851772649782
 21
604.8246565308661
 31
0.0
 70
   160
  1
(%%c<>)
 71
     5
 42
88.90000000000055
  3
AM_DIN$0
100
AcDbAlignedDimension
 13
525.4715396305348
 23
560.3746565308656
 33
0.0
 14
525.4715396305348
 24
649.2746565308664
 34
0.0
 50
90.0
100
AcDbRotatedDimension
1001
ACAD
1000
DSTYLE
1002
{
1070
   286
1070
     0
1070
   284
1070
     8
1070
   274
1070
     2
1070
   272
1070
     2
1070
    40
1040
2.0
1070
    47
1040
5.0
1070
    48
1040
5.0
1070
   271
1070
     1
1002
}
  0
DIMENSION
  5
926
330
1F
100
AcDbEntity
  8
AM_5
100
AcDbDimension
  2
*D15
 10
763.7589644084855
 20
779.7528477757141
 30
0.0
 11
679.0648605188636
 21
779.7528477757141
 31
0.0
 70
   160
  1
(%%c<>)
 71
     5
 42
206.0
  3
AM_DIN$0
100
AcDbAlignedDimension
 13
557.7589644084858
 23
732.6387577090273
 33
0.0
 14
763.7589644084855
 24
732.6387577090273
 34
0.0
100
AcDbRotatedDimension
1001
ACAD
1000
DSTYLE
1002
{
1070
    40
1040
2.0
1070
    47
1040
5.0
1070
    48
1040
5.0
1070
   271
1070
     1
1002
}
  0
ARC
  5
933
330
1F
100
AcDbEntity
  8
0
100
AcDbCircle
 10
463.9688394088173
 20
604.824656530866
 30
0.0
 40
103.7901250000013
100
AcDbArc
 50
334.6423002422505
 51
25.35769975774963
  0
ARC
  5
934
330
1F
100
AcDbEntity
  8
0
100
AcDbCircle
 10
857.5490894088181
 20
604.824656530866
 30
0.0
 40
103.7901250000013
100
AcDbArc
 50
154.642300242215
 51
205.357699757785
  0
LINE
  5
93C
330
1F
100
AcDbEntity
  8
0
100
AcDbLine
 10
641.7589644088185
 20
474.8246565308661
 30
0.0
 11
679.7589644088185
 21
474.8246565308661
 31
0.0
  0
LINE
  5
93D
330
1F
100
AcDbEntity
  8
0
100
AcDbLine
 10
679.7589644088185
 20
474.8246565308666
 30
0.0
 11
679.7589644088185
 21
453.8246565308666
 31
0.0
  0
LINE
  5
93E
330
1F
100
AcDbEntity
  8
0
100
AcDbLine
 10
679.7589644088185
 20
453.8246565308661
 30
0.0
 11
641.7589644088185
 21
453.8246565308661
 31
0.0
  0
LINE
  5
93F
330
1F
100
AcDbEntity
  8
0
100
AcDbLine
 10
641.7589644088185
 20
453.8246565308666
 30
0.0
 11
641.7589644088185
 21
474.8246565308666
 31
0.0
  0
LINE
  5
94A
330
1F
100
AcDbEntity
  8
0
100
AcDbLine
 10
641.7589644088185
 20
1011.097881673351
 30
0.0
 11
679.7589644088185
 21
1011.097881673351
 31
0.0
  0
LINE
  5
94B
330
1F
100
AcDbEntity
  8
0
100
AcDbLine
 10
679.7589644088185
 20
1011.097881673352
 30
0.0
 11
679.7589644088185
 21
990.097881673352
 31
0.0
  0
LINE
  5
94C
330
1F
100
AcDbEntity
  8
0
100
AcDbLine
 10
679.7589644088185
 20
990.0978816733516
 30
0.0
 11
641.7589644088185
 21
990.0978816733516
 31
0.0
  0
LINE
  5
94D
330
1F
100
AcDbEntity
  8
0
100
AcDbLine
 10
641.7589644088185
 20
990.097881673352
 30
0.0
 11
641.7589644088185
 21
1011.097881673352
 31
0.0
  0
INSERT
  5
956
330
1F
100
AcDbEntity
  8
0
100
AcDbBlockReference
  2
7
 10
-10185.52226598991
 20
-1396.68142356356
 30
0.0
  0
INSERT
  5
957
330
1F
100
AcDbEntity
  8
0
100
AcDbBlockReference
  2
7
 10
11507.04019480755
 20
-1396.68142356356
 30
0.0
 41
-1.0
  0
POINT
  5
976
330
1F
100
AcDbEntity
  8
0
 60
     1
100
AcDbPoint
 10
-5579.131733835992
 20
-1197.713590971028
 30
0.0
1001
GENIUS_GENOENT_13
1002
{
1000
MYREF
1005
976
1002
}
1002
{
1000
GRP
1005
0
1002
}
1001
GENIUS_GENOBJ-N-CRS_13
1002
{
1000
OWNER
1000
GEN
1002
}
1001
GENIUS_GENOLIS_13
1002
{
1000
ENT
1005
8A0
1005
89F
1005
89E
1005
89D
1002
}
1001
GENIUS_GENODEF_13
1002
{
1000
HIER
1070
    10
1002
}
1002
{
1000
MANEDIT
1070
     0
1002
}
1002
{
1000
NOSEL
1070
     0
1002
}
1002
{
1000
BEHIND
1070
     0
1002
}
1002
{
1000
OTHER
1070
     0
1002
}
1002
{
1000
REACTOR
1002
}
  0
POINT
  5
977
330
1F
100
AcDbEntity
  8
0
 60
     1
100
AcDbPoint
 10
3612.017577831257
 20
511.6265904263327
 30
0.0
1001
GENIUS_GENOENT_13
1002
{
1000
MYREF
1005
977
1002
}
1002
{
1000
GRP
1005
0
1002
}
1001
GENIUS_GENOBJ-N-TIT_13
1002
{
1000
OWNER
1000
GEN
1002
}
1001
GENIUS_GENOLIS_13
1002
{
1000
ENT
1005
80C
1005
80B
1005
0
1002
}
1001
GENIUS_GENTITLE_13
1002
{
1000
BORDER
1000
DIN_A1
1002
}
1002
{
1000
TITLE
1000
G:\Umgebung_ACAD\MDT2007\Reflex\Dwg\Title\REFLEX_EDBTITLE
1002
}
1002
{
1000
SCALE
1000
1:2
1002
}
1002
{
1000
TITLESTD
1000
DIN
1002
}
1002
{
1000
HRA
1005
80B
1002
}
1002
{
1000
HTIT
1005
80C
1002
}
1002
{
1000
GENIUSID
1005
977
1002
}
1002
{
1000
INVTXTID
1005
0
1002
}
1002
{
1000
UNCHG
1002
{
1000
GEN-TITLE-SIZ
1000
GEN-TITLE-SCA
1002
}
1002
}
1001
GENIUS_GENODEF_13
1002
{
1000
HIER
1070
     1
1002
}
1002
{
1000
MANEDIT
1070
     1
1002
}
1002
{
1000
NOSEL
1070
     0
1002
}
1002
{
1000
BEHIND
1070
     0
1002
}
1002
{
1000
OTHER
1070
     0
1002
}
1002
{
1000
REACTOR
1002
}
  0
LINE
  5
CEE
330
1F
100
AcDbEntity
  8
LOGO_VON_SCHLASSE_120709
 62
     7
100
AcDbLine
 10
1542.351930310601
 20
246.5685811960391
 30
0.0
 11
1542.351930310601
 21
252.1816968398814
 31
0.0
  0
LINE
  5
CEF
330
1F
100
AcDbEntity
  8
LOGO_VON_SCHLASSE_120709
 62
     7
100
AcDbLine
 10
1542.351930310601
 20
252.1816968398814
 30
0.0
 11
1538.144471828954
 21
252.1816968398814
 31
0.0
  0
SPLINE
  5
CF0
330
1F
100
AcDbEntity
  8
LOGO_VON_SCHLASSE_120709
 62
     7
100
AcDbSpline
210
0.0
220
0.0
230
1.0
 70
     8
 71
     3
 72
     8
 73
     4
 74
     0
 42
0.0000000001
 43
0.0000000001
 40
8.739716666666684
 40
8.739716666666684
 40
8.739716666666684
 40
8.739716666666684
 40
9.739716666666687
 40
9.739716666666687
 40
9.739716666666687
 40
9.739716666666687
 10
1538.144472141085
 20
252.1816964653242
 30
0.0
 10
1532.157149586709
 20
252.1816964653242
 30
0.0
 10
1529.406089038021
 20
248.5113694306997
 30
0.0
 10
1529.406089038021
 20
242.7361243105514
 30
0.0
  0
LINE
  5
CF1
330
1F
100
AcDbEntity
  8
LOGO_VON_SCHLASSE_120709
 62
     7
100
AcDbLine
 10
1529.406089100448
 20
242.7361245602568
 30
0.0
 11
1529.406089100448
 21
224.6659379447067
 31
0.0
  0
LINE
  5
CF2
330
1F
100
AcDbEntity
  8
LOGO_VON_SCHLASSE_120709
 62
     7
100
AcDbLine
 10
1529.406089100448
 20
224.6659379447067
 30
0.0
 11
1535.339897287652
 21
224.6659379447067
 31
0.0
  0
LINE
  5
CF3
330
1F
100
AcDbEntity
  8
LOGO_VON_SCHLASSE_120709
 62
     7
100
AcDbLine
 10
1535.339897287652
 20
224.6659379447067
 30
0.0
 11
1535.339897287652
 21
242.1966149244257
 31
0.0
  0
SPLINE
  5
CF4
330
1F
100
AcDbEntity
  8
LOGO_VON_SCHLASSE_120709
 62
     7
100
AcDbSpline
210
0.0
220
0.0
230
1.0
 70
     8
 71
     3
 72
     8
 73
     4
 74
     0
 42
0.0000000001
 43
0.0000000001
 40
46.70306666666665
 40
46.70306666666665
 40
46.70306666666665
 40
46.70306666666665
 40
47.70306666666665
 40
47.70306666666665
 40
47.70306666666665
 40
47.70306666666665
 10
1535.339896725818
 20
242.1966151741305
 30
0.0
 10
1535.339896725818
 20
244.894953669075
 30
0.0
 10
1536.472429865239
 20
246.5685815705965
 30
0.0
 10
1539.385224232928
 20
246.5685815705965
 30
0.0
  0
LINE
  5
CF5
330
1F
100
AcDbEntity
  8
LOGO_VON_SCHLASSE_120709
 62
     7
100
AcDbLine
 10
1539.38522454506
 20
246.5685811960391
 30
0.0
 11
1542.351930310601
 21
246.5685811960391
 31
0.0
  0
LINE
  5
CF6
330
1F
100
AcDbEntity
  8
LOGO_VON_SCHLASSE_120709
 62
     7
100
AcDbLine
 10
1564.843514641243
 20
236.1555399093211
 30
0.0
 11
1564.843514641243
 21
241.5490451484478
 31
0.0
  0
SPLINE
  5
CF7
330
1F
100
AcDbEntity
  8
LOGO_VON_SCHLASSE_120709
 62
     7
100
AcDbSpline
210
0.0
220
0.0
230
1.0
 70
     8
 71
     3
 72
     8
 73
     4
 74
     0
 42
0.0000000001
 43
0.0000000001
 40
4.799894444444444
 40
4.799894444444444
 40
4.799894444444444
 40
4.799894444444444
 40
5.799894444444443
 40
5.799894444444443
 40
5.799894444444443
 40
5.799894444444443
 10
1564.843514766097
 20
241.5490456478573
 30
0.0
 10
1564.843514766097
 20
247.9185039902648
 30
0.0
 10
1561.607252760405
 20
252.182251434311
 30
0.0
 10
1555.24175848219
 20
252.182251434311
 30
0.0
  0
LINE
  5
CF8
330
1F
100
AcDbEntity
  8
LOGO_VON_SCHLASSE_120709
 62
     7
100
AcDbLine
 10
1555.241758731895
 20
252.1822519337211
 30
0.0
 11
1554.109621249777
 21
252.1822519337211
 31
0.0
  0
SPLINE
  5
CF9
330
1F
100
AcDbEntity
  8
LOGO_VON_SCHLASSE_120709
 62
     7
100
AcDbSpline
210
0.0
220
0.0
230
1.0
 70
     8
 71
     3
 72
     8
 73
     4
 74
     0
 42
0.0000000001
 43
0.0000000001
 40
6.807427777777782
 40
6.807427777777782
 40
6.807427777777782
 40
6.807427777777782
 40
7.807427777777782
 40
7.807427777777782
 40
7.807427777777782
 40
7.807427777777782
 10
1554.109621749188
 20
252.182251434311
 30
0.0
 10
1547.690216197969
 20
252.182251434311
 30
0.0
 10
1544.34613164628
 20
247.9185039902648
 30
0.0
 10
1544.34613164628
 20
241.5490456478573
 30
0.0
  0
LINE
  5
CFA
330
1F
100
AcDbEntity
  8
LOGO_VON_SCHLASSE_120709
 62
     7
100
AcDbLine
 10
1544.346131895986
 20
241.5490451484478
 30
0.0
 11
1544.346131895986
 21
235.2925633846033
 31
0.0
  0
SPLINE
  5
CFB
330
1F
100
AcDbEntity
  8
LOGO_VON_SCHLASSE_120709
 62
     7
100
AcDbSpline
210
0.0
220
0.0
230
1.0
 70
     8
 71
     3
 72
     8
 73
     4
 74
     0
 42
0.0000000001
 43
0.0000000001
 40
13.37531944444445
 40
13.37531944444445
 40
13.37531944444445
 40
13.37531944444445
 40
14.37531944444445
 40
14.37531944444445
 40
14.37531944444445
 40
14.37531944444445
 10
1544.34613164628
 20
235.2925631348987
 30
0.0
 10
1544.34613164628
 20
228.2262223076793
 30
0.0
 10
1548.283636607391
 20
224.6660962575697
 30
0.0
 10
1554.81007189177
 20
224.6660962575697
 30
0.0
  0
LINE
  5
CFC
330
1F
100
AcDbEntity
  8
LOGO_VON_SCHLASSE_120709
 62
     7
100
AcDbLine
 10
1554.810072141476
 20
224.6660963824221
 30
0.0
 11
1563.494940003401
 21
224.6660963824221
 31
0.0
  0
LINE
  5
CFD
330
1F
100
AcDbEntity
  8
LOGO_VON_SCHLASSE_120709
 62
     7
100
AcDbLine
 10
1563.494940003401
 20
224.6660963824221
 30
0.0
 11
1563.494940003401
 21
229.9525718883863
 31
0.0
  0
LINE
  5
CFE
330
1F
100
AcDbEntity
  8
LOGO_VON_SCHLASSE_120709
 62
     7
100
AcDbLine
 10
1563.494940003401
 20
229.9525718883863
 30
0.0
 11
1555.349977309758
 21
229.9525718883863
 31
0.0
  0
SPLINE
  5
CFF
330
1F
100
AcDbEntity
  8
LOGO_VON_SCHLASSE_120709
 62
     7
100
AcDbSpline
210
0.0
220
0.0
230
1.0
 70
     8
 71
     3
 72
     8
 73
     4
 74
     0
 42
0.0000000001
 43
0.0000000001
 40
34.05749722222223
 40
34.05749722222223
 40
34.05749722222223
 40
34.05749722222223
 40
35.05749722222223
 40
35.05749722222223
 40
35.05749722222223
 40
35.05749722222223
 10
1555.349977434609
 20
229.9525722629435
 30
0.0
 10
1551.951981609919
 20
229.9525722629435
 30
0.0
 10
1550.279146521236
 20
232.0559047227902
 30
0.0
 10
1550.279146521236
 20
234.9147878174776
 30
0.0
  0
LINE
  5
D00
330
1F
100
AcDbEntity
  8
LOGO_VON_SCHLASSE_120709
 62
     7
100
AcDbLine
 10
1550.279146770942
 20
234.9147883168874
 30
0.0
 11
1550.279146770942
 21
236.1555399093211
 31
0.0
  0
LINE
  5
D01
330
1F
100
AcDbEntity
  8
LOGO_VON_SCHLASSE_120709
 62
     7
100
AcDbLine
 10
1550.279146770942
 20
236.1555399093211
 30
0.0
 11
1564.843514641243
 21
236.1555399093211
 31
0.0
  0
LINE
  5
D02
330
1F
100
AcDbEntity
  8
LOGO_VON_SCHLASSE_120709
 62
     7
100
AcDbLine
 10
1558.909707577711
 20
240.5786422344436
 30
0.0
 11
1550.279146770942
 21
240.5786422344436
 31
0.0
  0
LINE
  5
D03
330
1F
100
AcDbEntity
  8
LOGO_VON_SCHLASSE_120709
 62
     7
100
AcDbLine
 10
1550.279146770942
 20
240.5786422344436
 30
0.0
 11
1550.279146770942
 21
242.0889514404023
 31
0.0
  0
SPLINE
  5
D04
330
1F
100
AcDbEntity
  8
LOGO_VON_SCHLASSE_120709
 62
     7
100
AcDbSpline
210
0.0
220
0.0
230
1.0
 70
     8
 71
     3
 72
     8
 73
     4
 74
     0
 42
0.0000000001
 43
0.0000000001
 40
9.024761111111118
 40
9.024761111111118
 40
9.024761111111118
 40
9.024761111111118
 40
10.02476111111112
 40
10.02476111111112
 40
10.02476111111112
 40
10.02476111111112
 10
1550.279146521236
 20
242.0889511906974
 30
0.0
 10
1550.279146521236
 20
244.787289685642
 30
0.0
 10
1551.3046499275
 20
247.216468222005
 30
0.0
 10
1554.163533022185
 20
247.216468222005
 30
0.0
  0
LINE
  5
D05
330
1F
100
AcDbEntity
  8
LOGO_VON_SCHLASSE_120709
 62
     7
100
AcDbLine
 10
1554.163532772481
 20
247.2164678474472
 30
0.0
 11
1555.08002416378
 21
247.2164678474472
 31
0.0
  0
SPLINE
  5
D06
330
1F
100
AcDbEntity
  8
LOGO_VON_SCHLASSE_120709
 62
     7
100
AcDbSpline
210
0.0
220
0.0
230
1.0
 70
     8
 71
     3
 72
     8
 73
     4
 74
     0
 42
0.0000000001
 43
0.0000000001
 40
10.84038333333334
 40
10.84038333333334
 40
10.84038333333334
 40
10.84038333333334
 40
11.84038333333335
 40
11.84038333333335
 40
11.84038333333335
 40
11.84038333333335
 10
1555.080024663189
 20
247.216468222005
 30
0.0
 10
1557.939304164295
 20
247.216468222005
 30
0.0
 10
1558.909707078299
 20
244.787289685642
 30
0.0
 10
1558.909707078299
 20
242.0889511906974
 30
0.0
  0
LINE
  5
D07
330
1F
100
AcDbEntity
  8
LOGO_VON_SCHLASSE_120709
 62
     7
100
AcDbLine
 10
1558.909707577711
 20
242.0889514404023
 30
0.0
 11
1558.909707577711
 21
240.5786422344436
 31
0.0
  0
LINE
  5
D08
330
1F
100
AcDbEntity
  8
LOGO_VON_SCHLASSE_120709
 62
     7
100
AcDbLine
 10
1580.889095361488
 20
257.4678161419046
 30
0.0
 11
1580.889095361488
 21
262.9695399588931
 31
0.0
  0
LINE
  5
D09
330
1F
100
AcDbEntity
  8
LOGO_VON_SCHLASSE_120709
 62
     7
100
AcDbLine
 10
1580.889095361488
 20
262.9695399588931
 30
0.0
 11
1576.951590025821
 21
262.9695399588931
 31
0.0
  0
SPLINE
  5
D0A
330
1F
100
AcDbEntity
  8
LOGO_VON_SCHLASSE_120709
 62
     7
100
AcDbSpline
210
0.0
220
0.0
230
1.0
 70
     8
 71
     3
 72
     8
 73
     4
 74
     0
 42
0.0000000001
 43
0.0000000001
 40
8.400344444444426
 40
8.400344444444426
 40
8.400344444444426
 40
8.400344444444426
 40
9.400344444444426
 40
9.400344444444426
 40
9.400344444444426
 40
9.400344444444426
 10
1576.951590275524
 20
262.9695403958768
 30
0.0
 10
1572.959777634995
 20
262.9695403958768
 30
0.0
 10
1569.830941768886
 20
260.9740304820306
 30
0.0
 10
1569.830941768886
 20
255.2023530196544
 30
0.0
  0
LINE
  5
D0B
330
1F
100
AcDbEntity
  8
LOGO_VON_SCHLASSE_120709
 62
     7
100
AcDbLine
 10
1569.830941768888
 20
255.2023534566381
 30
0.0
 11
1569.830941768888
 21
252.1817361683925
 31
0.0
  0
LINE
  5
D0C
330
1F
100
AcDbEntity
  8
LOGO_VON_SCHLASSE_120709
 62
     7
100
AcDbLine
 10
1569.830941768888
 20
252.1817361683925
 30
0.0
 11
1566.055566533785
 21
252.1817361683925
 31
0.0
  0
LINE
  5
D0D
330
1F
100
AcDbEntity
  8
LOGO_VON_SCHLASSE_120709
 62
     7
100
AcDbLine
 10
1566.055566533785
 20
252.1817361683925
 30
0.0
 11
1566.055566533785
 21
246.9463967159377
 31
0.0
  0
LINE
  5
D0E
330
1F
100
AcDbEntity
  8
LOGO_VON_SCHLASSE_120709
 62
     7
100
AcDbLine
 10
1566.055566533785
 20
246.9463967159377
 30
0.0
 11
1569.830941768888
 21
246.9463967159377
 31
0.0
  0
LINE
  5
D0F
330
1F
100
AcDbEntity
  8
LOGO_VON_SCHLASSE_120709
 62
     7
100
AcDbLine
 10
1569.830941768888
 20
246.9463967159377
 30
0.0
 11
1569.830941768888
 21
224.6663739293415
 31
0.0
  0
LINE
  5
D10
330
1F
100
AcDbEntity
  8
LOGO_VON_SCHLASSE_120709
 62
     7
100
AcDbLine
 10
1569.830941768888
 20
224.6663739293415
 30
0.0
 11
1575.764749956092
 21
224.6663739293415
 31
0.0
  0
LINE
  5
D11
330
1F
100
AcDbEntity
  8
LOGO_VON_SCHLASSE_120709
 62
     7
100
AcDbLine
 10
1575.764749956092
 20
224.6663739293415
 30
0.0
 11
1575.764749956092
 21
246.9463967159377
 31
0.0
  0
LINE
  5
D12
330
1F
100
AcDbEntity
  8
LOGO_VON_SCHLASSE_120709
 62
     7
100
AcDbLine
 10
1575.764749956092
 20
246.9463967159377
 30
0.0
 11
1580.349585725657
 21
246.9463967159377
 31
0.0
  0
LINE
  5
D13
330
1F
100
AcDbEntity
  8
LOGO_VON_SCHLASSE_120709
 62
     7
100
AcDbLine
 10
1580.349585725657
 20
246.9463967159377
 30
0.0
 11
1580.349585725657
 21
252.1817361683925
 31
0.0
  0
LINE
  5
D14
330
1F
100
AcDbEntity
  8
LOGO_VON_SCHLASSE_120709
 62
     7
100
AcDbLine
 10
1580.349585725657
 20
252.1817361683925
 30
0.0
 11
1575.764749956092
 21
252.1817361683925
 31
0.0
  0
LINE
  5
D15
330
1F
100
AcDbEntity
  8
LOGO_VON_SCHLASSE_120709
 62
     7
100
AcDbLine
 10
1575.764749956092
 20
252.1817361683925
 30
0.0
 11
1575.764749956092
 21
254.986707365818
 31
0.0
  0
SPLINE
  5
D16
330
1F
100
AcDbEntity
  8
LOGO_VON_SCHLASSE_120709
 62
     7
100
AcDbSpline
210
0.0
220
0.0
230
1.0
 70
     8
 71
     3
 72
     8
 73
     4
 74
     0
 42
0.0000000001
 43
0.0000000001
 40
83.7196861111111
 40
83.7196861111111
 40
83.7196861111111
 40
83.7196861111111
 40
84.7196861111111
 40
84.7196861111111
 40
84.7196861111111
 40
84.7196861111111
 10
1575.764749456681
 20
254.9867079276534
 30
0.0
 10
1575.764749456681
 20
256.9822178414996
 30
0.0
 10
1576.843767729525
 20
257.4678157049209
 30
0.0
 10
1578.084123414947
 20
257.4678157049209
 30
0.0
  0
LINE
  5
D17
330
1F
100
AcDbEntity
  8
LOGO_VON_SCHLASSE_120709
 62
     7
100
AcDbLine
 10
1578.084123040391
 20
257.4678161419046
 30
0.0
 11
1580.889095361488
 21
257.4678161419046
 31
0.0
  0
LINE
  5
D18
330
1F
100
AcDbEntity
  8
LOGO_VON_SCHLASSE_120709
 62
     7
100
AcDbLine
 10
1589.923276809646
 20
262.9693028641564
 30
0.0
 11
1583.989865278565
 21
262.9693028641564
 31
0.0
  0
LINE
  5
D19
330
1F
100
AcDbEntity
  8
LOGO_VON_SCHLASSE_120709
 62
     7
100
AcDbLine
 10
1583.989865278565
 20
262.9693028641564
 30
0.0
 11
1583.989865278565
 21
224.665343522357
 31
0.0
  0
LINE
  5
D1A
330
1F
100
AcDbEntity
  8
LOGO_VON_SCHLASSE_120709
 62
     7
100
AcDbLine
 10
1583.989865278565
 20
224.665343522357
 30
0.0
 11
1589.923276809646
 21
224.665343522357
 31
0.0
  0
LINE
  5
D1B
330
1F
100
AcDbEntity
  8
LOGO_VON_SCHLASSE_120709
 62
     7
100
AcDbLine
 10
1589.923276809646
 20
224.665343522357
 30
0.0
 11
1589.923276809646
 21
262.9693028641564
 31
0.0
  0
LINE
  5
D1C
330
1F
100
AcDbEntity
  8
LOGO_VON_SCHLASSE_120709
 62
     7
100
AcDbLine
 10
1614.522474914316
 20
236.1551432531969
 30
0.0
 11
1614.522474914316
 21
241.5490451484478
 31
0.0
  0
SPLINE
  5
D1D
330
1F
100
AcDbEntity
  8
LOGO_VON_SCHLASSE_120709
 62
     7
100
AcDbSpline
210
0.0
220
0.0
230
1.0
 70
     8
 71
     3
 72
     8
 73
     4
 74
     0
 42
0.0000000001
 43
0.0000000001
 40
4.800247222222195
 40
4.800247222222195
 40
4.800247222222195
 40
4.800247222222195
 40
5.800247222222195
 40
5.800247222222195
 40
5.800247222222195
 40
5.800247222222195
 10
1614.5224753513
 20
241.5490456478573
 30
0.0
 10
1614.5224753513
 20
247.9177111774264
 30
0.0
 10
1611.286213345609
 20
252.181855027892
 30
0.0
 10
1604.920719067395
 20
252.181855027892
 30
0.0
  0
LINE
  5
D1E
330
1F
100
AcDbEntity
  8
LOGO_VON_SCHLASSE_120709
 62
     7
100
AcDbLine
 10
1604.920719004968
 20
252.1818552775967
 30
0.0
 11
1603.787789334272
 21
252.1818552775967
 31
0.0
  0
SPLINE
  5
D1F
330
1F
100
AcDbEntity
  8
LOGO_VON_SCHLASSE_120709
 62
     7
100
AcDbSpline
210
0.0
220
0.0
230
1.0
 70
     8
 71
     3
 72
     8
 73
     4
 74
     0
 42
0.0000000001
 43
0.0000000001
 40
6.808486111111077
 40
6.808486111111077
 40
6.808486111111077
 40
6.808486111111077
 40
7.808486111111077
 40
7.808486111111077
 40
7.808486111111077
 40
7.808486111111077
 10
1603.78778952155
 20
252.181855027892
 30
0.0
 10
1597.369176783173
 20
252.181855027892
 30
0.0
 10
1594.024695825063
 20
247.9177111774264
 30
0.0
 10
1594.024695825063
 20
241.5490456478573
 30
0.0
  0
LINE
  5
D20
330
1F
100
AcDbEntity
  8
LOGO_VON_SCHLASSE_120709
 62
     7
100
AcDbLine
 10
1594.024695512934
 20
241.5490451484478
 30
0.0
 11
1594.024695512934
 21
235.2921667284797
 31
0.0
  0
SPLINE
  5
D21
330
1F
100
AcDbEntity
  8
LOGO_VON_SCHLASSE_120709
 62
     7
100
AcDbSpline
210
0.0
220
0.0
230
1.0
 70
     8
 71
     3
 72
     8
 73
     4
 74
     0
 42
0.0000000001
 43
0.0000000001
 40
13.37673055555552
 40
13.37673055555552
 40
13.37673055555552
 40
13.37673055555552
 40
14.37673055555552
 40
14.37673055555552
 40
14.37673055555552
 40
14.37673055555552
 10
1594.024695825063
 20
235.2921667284795
 30
0.0
 10
1594.024695825063
 20
228.22582590126
 30
0.0
 10
1597.962993599013
 20
224.6660962575697
 30
0.0
 10
1604.489032476972
 20
224.6660962575697
 30
0.0
  0
LINE
  5
D22
330
1F
100
AcDbEntity
  8
LOGO_VON_SCHLASSE_120709
 62
     7
100
AcDbLine
 10
1604.489032414547
 20
224.6660963824221
 30
0.0
 11
1613.173900276474
 21
224.6660963824221
 31
0.0
  0
LINE
  5
D23
330
1F
100
AcDbEntity
  8
LOGO_VON_SCHLASSE_120709
 62
     7
100
AcDbLine
 10
1613.173900276474
 20
224.6660963824221
 30
0.0
 11
1613.173900276474
 21
229.9525718883863
 31
0.0
  0
LINE
  5
D24
330
1F
100
AcDbEntity
  8
LOGO_VON_SCHLASSE_120709
 62
     7
100
AcDbLine
 10
1613.173900276474
 20
229.9525718883863
 30
0.0
 11
1605.028937582831
 21
229.9525718883863
 31
0.0
  0
SPLINE
  5
D25
330
1F
100
AcDbEntity
  8
LOGO_VON_SCHLASSE_120709
 62
     7
100
AcDbSpline
210
0.0
220
0.0
230
1.0
 70
     8
 71
     3
 72
     8
 73
     4
 74
     0
 42
0.0000000001
 43
0.0000000001
 40
34.05890833333331
 40
34.05890833333331
 40
34.05890833333331
 40
34.05890833333331
 40
35.05890833333331
 40
35.05890833333331
 40
35.05890833333331
 40
35.05890833333331
 10
1605.028938019815
 20
229.9525722629435
 30
0.0
 10
1601.630942195123
 20
229.9525722629435
 30
0.0
 10
1599.95850351286
 20
232.0555083163707
 30
0.0
 10
1599.95850351286
 20
234.9143914110588
 30
0.0
  0
LINE
  5
D26
330
1F
100
AcDbEntity
  8
LOGO_VON_SCHLASSE_120709
 62
     7
100
AcDbLine
 10
1599.958503700139
 20
234.9143916607635
 30
0.0
 11
1599.958503700139
 21
236.1551432531969
 31
0.0
  0
LINE
  5
D27
330
1F
100
AcDbEntity
  8
LOGO_VON_SCHLASSE_120709
 62
     7
100
AcDbLine
 10
1599.958503700139
 20
236.1551432531969
 30
0.0
 11
1614.522474914316
 21
236.1551432531969
 31
0.0
  0
LINE
  5
D28
330
1F
100
AcDbEntity
  8
LOGO_VON_SCHLASSE_120709
 62
     7
100
AcDbLine
 10
1608.588667850782
 20
240.5782467019912
 30
0.0
 11
1599.958503700139
 21
240.5782467019912
 31
0.0
  0
LINE
  5
D29
330
1F
100
AcDbEntity
  8
LOGO_VON_SCHLASSE_120709
 62
     7
100
AcDbLine
 10
1599.958503700139
 20
240.5782467019912
 30
0.0
 11
1599.958503700139
 21
242.0889514404023
 31
0.0
  0
SPLINE
  5
D2A
330
1F
100
AcDbEntity
  8
LOGO_VON_SCHLASSE_120709
 62
     7
100
AcDbSpline
210
0.0
220
0.0
230
1.0
 70
     8
 71
     3
 72
     8
 73
     4
 74
     0
 42
0.0000000001
 43
0.0000000001
 40
9.024761111111132
 40
9.024761111111132
 40
9.024761111111132
 40
9.024761111111132
 40
10.02476111111113
 40
10.02476111111113
 40
10.02476111111113
 40
10.02476111111113
 10
1599.95850351286
 20
242.0889511906974
 30
0.0
 10
1599.95850351286
 20
244.787289685642
 30
0.0
 10
1600.983610512703
 20
247.2160718155851
 30
0.0
 10
1603.842097200971
 20
247.2160718155851
 30
0.0
  0
LINE
  5
D2B
330
1F
100
AcDbEntity
  8
LOGO_VON_SCHLASSE_120709
 62
     7
100
AcDbLine
 10
1603.842097513102
 20
247.2160723149951
 30
0.0
 11
1604.758985560524
 21
247.2160723149951
 31
0.0
  0
SPLINE
  5
D2C
330
1F
100
AcDbEntity
  8
LOGO_VON_SCHLASSE_120709
 62
     7
100
AcDbSpline
210
0.0
220
0.0
230
1.0
 70
     8
 71
     3
 72
     8
 73
     4
 74
     0
 42
0.0000000001
 43
0.0000000001
 40
10.84073611111112
 40
10.84073611111112
 40
10.84073611111112
 40
10.84073611111112
 40
11.84073611111112
 40
11.84073611111112
 40
11.84073611111112
 40
11.84073611111112
 10
1604.758985248392
 20
247.2160718155851
 30
0.0
 10
1607.617868343081
 20
247.2160718155851
 30
0.0
 10
1608.588667663503
 20
244.787289685642
 30
0.0
 10
1608.588667663503
 20
242.0889511906974
 30
0.0
  0
LINE
  5
D2D
330
1F
100
AcDbEntity
  8
LOGO_VON_SCHLASSE_120709
 62
     7
100
AcDbLine
 10
1608.588667850782
 20
242.0889514404023
 30
0.0
 11
1608.588667850782
 21
240.5782467019912
 31
0.0
  0
SPLINE
  5
D2E
330
1F
100
AcDbEntity
  8
LOGO_VON_SCHLASSE_120709
 62
     7
100
AcDbSpline
210
0.0
220
0.0
230
1.0
 70
     8
 71
     3
 72
     8
 73
     4
 74
     0
 42
0.0000000001
 43
0.0000000001
 40
0.0
 40
0.0
 40
0.0
 40
0.0
 40
1.0
 40
1.0
 40
1.0
 40
1.0
 10
1634.194143900091
 20
238.471068725322
 30
0.0
 10
1636.618961965842
 20
240.3084124779393
 30
0.0
 10
1637.869536950172
 20
243.2723432859743
 30
0.0
 10
1637.869227811745
 20
247.1634686837683
 30
0.0
  0
LINE
  5
D2F
330
1F
100
AcDbEntity
  8
LOGO_VON_SCHLASSE_120709
 62
     7
100
AcDbLine
 10
1637.869227374761
 20
247.1634687461947
 30
0.0
 11
1637.868831842309
 21
252.1530364685006
 31
0.0
  0
LINE
  5
D30
330
1F
100
AcDbEntity
  8
LOGO_VON_SCHLASSE_120709
 62
     7
100
AcDbLine
 10
1637.868831842309
 20
252.1530364685006
 30
0.0
 11
1631.911238895399
 21
252.1530364685006
 31
0.0
  0
LINE
  5
D31
330
1F
100
AcDbEntity
  8
LOGO_VON_SCHLASSE_120709
 62
     7
100
AcDbLine
 10
1631.911238895399
 20
252.1530364685006
 30
0.0
 11
1631.911238895399
 21
246.6215814209633
 31
0.0
  0
SPLINE
  5
D32
330
1F
100
AcDbEntity
  8
LOGO_VON_SCHLASSE_120709
 62
     7
100
AcDbSpline
210
0.0
220
0.0
230
1.0
 70
     8
 71
     3
 72
     8
 73
     4
 74
     0
 42
0.0000000001
 43
0.0000000001
 40
15.66497223623581
 40
15.66497223623581
 40
15.66497223623581
 40
15.66497223623581
 40
16.66497223623581
 40
16.66497223623581
 40
16.66497223623581
 40
16.66497223623581
 10
1631.911239332383
 20
246.6215811088326
 30
0.0
 10
1631.911239332383
 20
243.9113504213144
 30
0.0
 10
1630.88216826835
 20
241.4952532967825
 30
0.0
 10
1628.011392981089
 20
241.4952532967825
 30
0.0
  0
LINE
  5
D33
330
1F
100
AcDbEntity
  8
LOGO_VON_SCHLASSE_120709
 62
     7
100
AcDbLine
 10
1628.011393418073
 20
241.4952538586184
 30
0.0
 11
1627.090541056752
 21
241.4952538586184
 31
0.0
  0
SPLINE
  5
D34
330
1F
100
AcDbEntity
  8
LOGO_VON_SCHLASSE_120709
 62
     7
100
AcDbSpline
210
0.0
220
0.0
230
1.0
 70
     8
 71
     3
 72
     8
 73
     4
 74
     0
 42
0.0000000001
 43
0.0000000001
 40
17.48447501401361
 40
17.48447501401361
 40
17.48447501401361
 40
17.48447501401361
 40
18.48447501401361
 40
18.48447501401361
 40
18.48447501401361
 40
18.48447501401361
 10
1627.090540869476
 20
241.4952532967825
 30
0.0
 10
1624.219765582214
 20
241.4952532967825
 30
0.0
 10
1623.245002197599
 20
243.9113504213144
 30
0.0
 10
1623.245002197599
 20
246.6215811088326
 30
0.0
  0
LINE
  5
D35
330
1F
100
AcDbEntity
  8
LOGO_VON_SCHLASSE_120709
 62
     7
100
AcDbLine
 10
1623.245002634583
 20
246.6215814209633
 30
0.0
 11
1623.245002634583
 21
252.1530364685006
 31
0.0
  0
LINE
  5
D36
330
1F
100
AcDbEntity
  8
LOGO_VON_SCHLASSE_120709
 62
     7
100
AcDbLine
 10
1623.245002634583
 20
252.1530364685006
 30
0.0
 11
1617.286617499097
 21
252.1530364685006
 31
0.0
  0
LINE
  5
D37
330
1F
100
AcDbEntity
  8
LOGO_VON_SCHLASSE_120709
 62
     7
100
AcDbLine
 10
1617.286617499097
 20
252.1530364685006
 30
0.0
 11
1617.286617499097
 21
247.1634687461947
 31
0.0
  0
SPLINE
  5
D38
330
1F
100
AcDbEntity
  8
LOGO_VON_SCHLASSE_120709
 62
     7
100
AcDbSpline
210
0.0
220
0.0
230
1.0
 70
     8
 71
     3
 72
     8
 73
     4
 74
     0
 42
0.0000000001
 43
0.0000000001
 40
33.1501527917914
 40
33.1501527917914
 40
33.1501527917914
 40
33.1501527917914
 40
34.1501527917914
 40
34.1501527917914
 40
34.1501527917914
 40
34.1501527917914
 10
1617.286617311818
 20
247.1634686837683
 30
0.0
 10
1617.286617311818
 20
243.1811697972962
 30
0.0
 10
1618.547982537454
 20
240.156588819417
 30
0.0
 10
1621.041378913715
 20
238.337876168498
 30
0.0
  0
SPLINE
  5
D39
330
1F
100
AcDbEntity
  8
LOGO_VON_SCHLASSE_120709
 62
     7
100
AcDbSpline
210
0.0
220
0.0
230
1.0
 70
     8
 71
     3
 72
     8
 73
     4
 74
     0
 42
0.0000000001
 43
0.0000000001
 40
34.1501527917914
 40
34.1501527917914
 40
34.1501527917914
 40
34.1501527917914
 40
35.1501527917914
 40
35.1501527917914
 40
35.1501527917914
 40
35.1501527917914
 10
1621.041378913715
 20
238.337876168498
 30
0.0
 10
1618.616560847962
 20
236.5013252287188
 30
0.0
 10
1617.365656153706
 20
233.3796246256741
 30
0.0
 10
1617.36629500206
 20
229.4912741130148
 30
0.0
  0
LINE
  5
D3A
330
1F
100
AcDbEntity
  8
LOGO_VON_SCHLASSE_120709
 62
     7
100
AcDbLine
 10
1617.366294814782
 20
229.4912743002934
 30
0.0
 11
1617.367088127029
 21
224.6658188355025
 31
0.0
  0
LINE
  5
D3B
330
1F
100
AcDbEntity
  8
LOGO_VON_SCHLASSE_120709
 62
     7
100
AcDbLine
 10
1617.367088127029
 20
224.6658188355025
 30
0.0
 11
1623.324283294144
 21
224.6658188355025
 31
0.0
  0
LINE
  5
D3C
330
1F
100
AcDbEntity
  8
LOGO_VON_SCHLASSE_120709
 62
     7
100
AcDbLine
 10
1623.324283294144
 20
224.6658188355025
 30
0.0
 11
1623.324283294144
 21
230.033161625524
 31
0.0
  0
SPLINE
  5
D3D
330
1F
100
AcDbEntity
  8
LOGO_VON_SCHLASSE_120709
 62
     7
100
AcDbSpline
210
0.0
220
0.0
230
1.0
 70
     8
 71
     3
 72
     8
 73
     4
 74
     0
 42
0.0000000001
 43
0.0000000001
 40
49.52267229419653
 40
49.52267229419653
 40
49.52267229419653
 40
49.52267229419653
 40
50.52267229419655
 40
50.52267229419655
 40
50.52267229419655
 40
50.52267229419655
 10
1623.324283481422
 20
230.0331616879503
 30
0.0
 10
1623.324283481422
 20
232.7414103433731
 30
0.0
 10
1624.353750951875
 20
235.3132951906186
 30
0.0
 10
1627.224129832717
 20
235.3132951906186
 30
0.0
  0
LINE
  5
D3E
330
1F
100
AcDbEntity
  8
LOGO_VON_SCHLASSE_120709
 62
     7
100
AcDbLine
 10
1627.224129895143
 20
235.3132951281923
 30
0.0
 11
1628.144982256463
 21
235.3132951281923
 31
0.0
  0
SPLINE
  5
D3F
330
1F
100
AcDbEntity
  8
LOGO_VON_SCHLASSE_120709
 62
     7
100
AcDbSpline
210
0.0
220
0.0
230
1.0
 70
     8
 71
     3
 72
     8
 73
     4
 74
     0
 42
0.0000000001
 43
0.0000000001
 40
51.34217507197432
 40
51.34217507197432
 40
51.34217507197432
 40
51.34217507197432
 40
52.34217507197431
 40
52.34217507197431
 40
52.34217507197431
 40
52.34217507197431
 10
1628.144981944329
 20
235.3132951906186
 30
0.0
 10
1631.015757231591
 20
235.3132951906186
 30
0.0
 10
1631.990520616209
 20
232.7414103433731
 30
0.0
 10
1631.990520616209
 20
230.0331616879503
 30
0.0
  0
LINE
  5
D40
330
1F
100
AcDbEntity
  8
LOGO_VON_SCHLASSE_120709
 62
     7
100
AcDbLine
 10
1631.990520678632
 20
230.033161625524
 30
0.0
 11
1631.990520678632
 21
224.6658188355025
 31
0.0
  0
LINE
  5
D41
330
1F
100
AcDbEntity
  8
LOGO_VON_SCHLASSE_120709
 62
     7
100
AcDbLine
 10
1631.990520678632
 20
224.6658188355025
 30
0.0
 11
1637.948509157996
 21
224.6658188355025
 31
0.0
  0
LINE
  5
D42
330
1F
100
AcDbEntity
  8
LOGO_VON_SCHLASSE_120709
 62
     7
100
AcDbLine
 10
1637.948509157996
 20
224.6658188355025
 30
0.0
 11
1637.948509157996
 21
229.4912743002934
 31
0.0
  0
SPLINE
  5
D43
330
1F
100
AcDbEntity
  8
LOGO_VON_SCHLASSE_120709
 62
     7
100
AcDbSpline
210
0.0
220
0.0
230
1.0
 70
     8
 71
     3
 72
     8
 73
     4
 74
     0
 42
0.0000000001
 43
0.0000000001
 40
66.71540007197433
 40
66.71540007197433
 40
66.71540007197433
 40
66.71540007197433
 40
67.71540007197433
 40
67.71540007197433
 40
67.71540007197433
 40
67.71540007197433
 10
1637.948509095568
 20
229.4912741130148
 30
0.0
 10
1637.948509095568
 20
233.4707981545521
 30
0.0
 10
1636.68754027635
 20
236.6523560744031
 30
0.0
 10
1634.194143900091
 20
238.471068725322
 30
0.0
  0
ARC
  5
D44
330
1F
100
AcDbEntity
  8
AM_0
 62
     7
100
AcDbCircle
 10
1523.113300379037
 20
220.6933954005375
 30
0.0
 40
5.61827329712571
100
AcDbArc
 50
180.0000479999957
 51
269.9999519999848
  0
LINE
  5
D45
330
1F
100
AcDbEntity
  8
AM_0
 62
     7
100
AcDbLine
 10
1523.113295884348
 20
215.0751221034117
 30
0.0
 11
1644.469949346935
 21
215.0751221034117
 31
0.0
  0
ARC
  5
D46
330
1F
100
AcDbEntity
  8
AM_0
 62
     7
100
AcDbCircle
 10
1644.470187565344
 20
220.6931526874412
 30
0.0
 40
5.618030584030035
100
AcDbArc
 50
269.9975760000107
 51
0.0024240000088827
  0
LINE
  5
D47
330
1F
100
AcDbEntity
  8
AM_0
 62
     7
100
AcDbLine
 10
1650.088218149376
 20
220.6933909058504
 30
0.0
 11
1650.088218149376
 21
263.3927046228436
 31
0.0
  0
ARC
  5
D48
330
1F
100
AcDbEntity
  8
AM_0
 62
     7
100
AcDbCircle
 10
1644.469944852249
 20
263.3926990044846
 30
0.0
 40
5.61827329712571
100
AcDbArc
 50
0.0000479999957116
 51
89.99995199998474
  0
LINE
  5
D49
330
1F
100
AcDbEntity
  8
AM_0
 62
     7
100
AcDbLine
 10
1644.469949346935
 20
269.0109723016109
 30
0.0
 11
1523.113295884348
 21
269.0109723016109
 31
0.0
  0
ARC
  5
D4A
330
1F
100
AcDbEntity
  8
AM_0
 62
     7
100
AcDbCircle
 10
1523.113374541372
 20
263.39262484215
 30
0.0
 40
5.618347459460498
100
AcDbArc
 50
90.00080599999776
 51
179.9991939999957
  0
LINE
  5
D4B
330
1F
100
AcDbEntity
  8
AM_0
 62
     7
100
AcDbLine
 10
1517.495027081912
 20
263.3927046228436
 30
0.0
 11
1517.495027081912
 21
220.6933909058504
 31
0.0
  0
ARC
  5
D4C
330
1F
100
AcDbEntity
  8
AM_0
 62
     7
100
AcDbCircle
 10
1520.07979907063
 20
214.2886945922576
 30
0.0
 40
8.20280144907624
100
AcDbArc
 50
179.9997459999952
 51
270.0002540000047
  0
LINE
  5
D4D
330
1F
100
AcDbEntity
  8
AM_0
 62
     7
100
AcDbLine
 10
1520.079835028125
 20
206.0858931431817
 30
0.0
 11
1672.224979531248
 21
206.0858931431817
 31
0.0
  0
ARC
  5
D4E
330
1F
100
AcDbEntity
  8
AM_0
 62
     7
100
AcDbCircle
 10
1672.225269438556
 20
214.2884406424445
 30
0.0
 40
8.202547499263172
100
AcDbArc
 50
269.9979730000275
 51
0.0020269999985906
  0
LINE
  5
D4F
330
1F
100
AcDbEntity
  8
AM_0
 62
     7
100
AcDbLine
 10
1680.42781693782
 20
214.2887316734248
 30
0.0
 11
1680.42781693782
 21
269.7975222929839
 31
0.0
  0
ARC
  5
D50
330
1F
100
AcDbEntity
  8
AM_0
 62
     7
100
AcDbCircle
 10
1672.224931213363
 20
269.7978706312233
 30
0.0
 40
8.202885724456685
100
AcDbArc
 50
359.997568000006
 51
89.99966299998956
  0
LINE
  5
D51
330
1F
100
AcDbEntity
  8
AM_0
 62
     7
100
AcDbLine
 10
1672.224979531248
 20
278.0007563556799
 30
0.0
 11
1520.079835028125
 21
278.0007563556799
 31
0.0
  0
ARC
  5
D52
330
1F
100
AcDbEntity
  8
AM_0
 62
     7
100
AcDbCircle
 10
1520.080137295823
 20
269.7976166814102
 30
0.0
 40
8.203139674269749
100
AcDbArc
 50
90.00210899998345
 51
180.0006600000013
  0
LINE
  5
D53
330
1F
100
AcDbEntity
  8
AM_0
 62
     7
100
AcDbLine
 10
1511.876997621552
 20
269.7975222929839
 30
0.0
 11
1511.876997621552
 21
214.2887316734248
 31
0.0
  0
TEXT
  5
D54
330
1F
100
AcDbEntity
  8
6
100
AcDbText
 10
1537.460821145312
 20
163.7251460618474
 30
0.0
 40
15.16956847968031
  1
59227 Ahlen
 72
     1
 11
1594.648107230709
 21
163.7251460618474
 31
0.0
100
AcDbText
  0
TEXT
  5
D55
330
1F
100
AcDbEntity
  8
6
100
AcDbText
 10
1484.876567701715
 20
185.007517361843
 30
0.0
 40
15.16956847968031
  1
Reflex Winkelmann GmbH
 41
0.95
 72
     1
 11
1594.400852125007
 21
185.007517361843
 31
0.0
100
AcDbText
  0
MTEXT
  5
D56
330
1F
100
AcDbEntity
  8
0
100
AcDbMText
 10
891.74768821706
 20
263.4781004475316
 30
0.0
 40
20.0
 41
755.7740133808063
 71
     1
 72
     5
  1
Exvoid
 73
     1
 44
1.0
  0
MTEXT
  5
D57
330
1F
100
AcDbEntity
  8
0
100
AcDbMText
 10
860.9055034084818
 20
232.2386182061258
 30
0.0
 40
20.0
 41
755.7740133808063
 71
     1
 72
     5
  1
{\Fisocp,bigfont|c238;Typ } A 88,9
 73
     1
 44
1.0
  0
MTEXT
  5
D58
330
1F
100
AcDbEntity
  8
0
100
AcDbMText
 10
854.1385340723671
 20
201.2386061909025
 30
0.0
 40
20.0
 41
755.7740133808063
 71
     1
 72
     5
  1
10{\Fisocp,bigfont|c238;bar - }110{\Fisocp,bigfont|c238;%%DC}
 73
     1
 44
1.0
  0
LINE
  5
D59
330
1F
100
AcDbEntity
  8
0
  6
DASHDOT
 62
     7
 48
0.417
100
AcDbLine
 10
1308.148964408818
 20
604.4990197405625
 30
0.0
 11
1291.468956408819
 21
604.4990197405625
 31
0.0
  0
LINE
  5
D5A
330
1F
100
AcDbEntity
  8
0
  6
DASHDOT
 62
     7
100
AcDbLine
 10
1257.568962408819
 20
604.4990197405625
 30
0.0
 11
1295.848961408819
 21
604.4990197405625
 31
0.0
  0
LINE
  5
D5B
330
1F
100
AcDbEntity
  8
0
 62
     7
 48
0.195775
100
AcDbLine
 10
1306.758964408818
 20
604.4990197405625
 30
0.0
 11
1306.758964408818
 21
596.6680187405625
 31
0.0
  0
LINE
  5
D5C
330
1F
100
AcDbEntity
  8
0
 62
     7
 48
0.208275
100
AcDbLine
 10
1306.258964408818
 20
604.4990197405625
 30
0.0
 11
1306.258964408818
 21
596.1680187405625
 31
0.0
  0
LINE
  5
D5D
330
1F
100
AcDbEntity
  8
0
 62
     7
 48
0.195775
100
AcDbLine
 10
1306.758964408818
 20
612.3300207405625
 30
0.0
 11
1306.758964408818
 21
604.4990197405625
 31
0.0
  0
LINE
  5
D5E
330
1F
100
AcDbEntity
  8
0
 62
     7
 48
0.208275
100
AcDbLine
 10
1306.258964408818
 20
612.8300207405625
 30
0.0
 11
1306.258964408818
 21
604.4990197405625
 31
0.0
  0
LINE
  5
D5F
330
1F
100
AcDbEntity
  8
0
 62
     7
 48
0.017678
100
AcDbLine
 10
1306.758964408818
 20
596.6680187405625
 30
0.0
 11
1306.258964408818
 21
596.1680187405625
 31
0.0
  0
LINE
  5
D60
330
1F
100
AcDbEntity
  8
0
 62
     7
 48
0.017678
100
AcDbLine
 10
1306.758964408818
 20
612.3300207405625
 30
0.0
 11
1306.258964408818
 21
612.8300207405625
 31
0.0
  0
LINE
  5
D61
330
1F
100
AcDbEntity
  8
0
 62
     7
 48
0.0125
100
AcDbLine
 10
1306.258964408818
 20
596.1680187405625
 30
0.0
 11
1305.758964408819
 21
596.1680187405625
 31
0.0
  0
LINE
  5
D62
330
1F
100
AcDbEntity
  8
0
 62
     7
 48
0.0125
100
AcDbLine
 10
1306.258964408818
 20
612.8300207405625
 30
0.0
 11
1305.758964408819
 21
612.8300207405625
 31
0.0
  0
LINE
  5
D63
330
1F
100
AcDbEntity
  8
0
 62
     7
 48
0.0125
100
AcDbLine
 10
1306.758964408818
 20
597.0240217405622
 30
0.0
 11
1306.258964408818
 21
597.0240217405622
 31
0.0
  0
LINE
  5
D64
330
1F
100
AcDbEntity
  8
0
 62
     7
 48
0.0125
100
AcDbLine
 10
1306.258964408818
 20
597.0240217405622
 30
0.0
 11
1305.758964408819
 21
597.0240217405622
 31
0.0
  0
LINE
  5
D65
330
1F
100
AcDbEntity
  8
0
 62
     7
 48
0.0125
100
AcDbLine
 10
1306.758964408818
 20
611.9740177405625
 30
0.0
 11
1306.258964408818
 21
611.9740177405625
 31
0.0
  0
LINE
  5
D66
330
1F
100
AcDbEntity
  8
0
 62
     7
 48
0.0125
100
AcDbLine
 10
1306.258964408818
 20
611.9740177405625
 30
0.0
 11
1305.758964408819
 21
611.9740177405625
 31
0.0
  0
LINE
  5
D67
330
1F
100
AcDbEntity
  8
0
 62
     7
 48
0.473875
100
AcDbLine
 10
1305.758964408819
 20
595.0215187405625
 30
0.0
 11
1305.758964408819
 21
613.9765207405623
 31
0.0
  0
LINE
  5
D68
330
1F
100
AcDbEntity
  8
0
 62
     7
 48
0.035355
100
AcDbLine
 10
1304.758964408818
 20
594.0215187405625
 30
0.0
 11
1305.758964408819
 21
595.0215187405625
 31
0.0
  0
LINE
  5
D69
330
1F
100
AcDbEntity
  8
0
 62
     7
 48
0.035355
100
AcDbLine
 10
1304.758964408818
 20
614.9765207405622
 30
0.0
 11
1305.758964408819
 21
613.9765207405623
 31
0.0
  0
LINE
  5
D6A
330
1F
100
AcDbEntity
  8
0
 62
     7
100
AcDbLine
 10
1304.758964408818
 20
594.0215187405625
 30
0.0
 11
1304.758964408818
 21
614.9765207405622
 31
0.0
  0
POLYLINE
  5
D6B
330
1F
100
AcDbEntity
  8
0
 62
     7
100
AcDb2dPolyline
 66
     1
 10
0.0
 20
0.0
 30
0.0
  0
VERTEX
  5
D6C
330
D6B
100
AcDbEntity
  8
0
100
AcDbVertex
100
AcDb2dVertex
 10
1260.758964408819
 20
614.4583097405625
 30
0.0
  0
VERTEX
  5
D6D
330
D6B
100
AcDbEntity
  8
0
100
AcDbVertex
100
AcDb2dVertex
 10
1261.525139408819
 20
614.7443507405625
 30
0.0
  0
VERTEX
  5
D6E
330
D6B
100
AcDbEntity
  8
0
100
AcDbVertex
100
AcDb2dVertex
 10
1263.117164408819
 20
615.2317167405625
 30
0.0
  0
VERTEX
  5
D6F
330
D6B
100
AcDbEntity
  8
0
100
AcDbVertex
100
AcDb2dVertex
 10
1264.573784408818
 20
615.5649297405625
 30
0.0
  0
VERTEX
  5
D70
330
D6B
100
AcDbEntity
  8
0
100
AcDbVertex
100
AcDb2dVertex
 10
1266.067039408818
 20
615.8048817405624
 30
0.0
  0
VERTEX
  5
D71
330
D6B
100
AcDbEntity
  8
0
100
AcDbVertex
100
AcDb2dVertex
 10
1267.588508408819
 20
615.9501457405625
 30
0.0
  0
VERTEX
  5
D72
330
D6B
100
AcDbEntity
  8
0
100
AcDbVertex
100
AcDb2dVertex
 10
1269.130546408819
 20
615.9990197405625
 30
0.0
  0
SEQEND
  5
D73
330
D6B
100
AcDbEntity
  8
0
  0
POLYLINE
  5
D74
330
1F
100
AcDbEntity
  8
0
 62
     7
100
AcDb2dPolyline
 66
     1
 10
0.0
 20
0.0
 30
0.0
  0
VERTEX
  5
D75
330
D74
100
AcDbEntity
  8
0
100
AcDbVertex
100
AcDb2dVertex
 10
1260.758964408819
 20
614.4583097405625
 30
0.0
  0
VERTEX
  5
D76
330
D74
100
AcDbEntity
  8
0
100
AcDbVertex
100
AcDb2dVertex
 10
1261.371376408819
 20
614.8235897405625
 30
0.0
  0
VERTEX
  5
D77
330
D74
100
AcDbEntity
  8
0
100
AcDbVertex
100
AcDb2dVertex
 10
1262.339241408819
 20
615.3213997405623
 30
0.0
  0
VERTEX
  5
D78
330
D74
100
AcDbEntity
  8
0
100
AcDbVertex
100
AcDb2dVertex
 10
1263.355232408819
 20
615.7528577405622
 30
0.0
  0
VERTEX
  5
D79
330
D74
100
AcDbEntity
  8
0
100
AcDbVertex
100
AcDb2dVertex
 10
1264.789146408819
 20
616.2223087405625
 30
0.0
  0
VERTEX
  5
D7A
330
D74
100
AcDbEntity
  8
0
100
AcDbVertex
100
AcDb2dVertex
 10
1266.285789408818
 20
616.5566907405625
 30
0.0
  0
VERTEX
  5
D7B
330
D74
100
AcDbEntity
  8
0
100
AcDbVertex
100
AcDb2dVertex
 10
1267.831505408818
 20
616.7490197405625
 30
0.0
  0
SEQEND
  5
D7C
330
D74
100
AcDbEntity
  8
0
  0
LINE
  5
D7D
330
1F
100
AcDbEntity
  8
0
 62
     7
 48
0.248982
100
AcDbLine
 10
1260.758964408819
 20
604.4990197405625
 30
0.0
 11
1260.758964408819
 21
614.4583097405625
 31
0.0
  0
ARC
  5
D7E
330
1F
100
AcDbEntity
  8
0
 62
     7
100
AcDbCircle
 10
1260.758964408819
 20
604.4990197405625
 30
0.0
 40
9.959291999999999
100
AcDbArc
 50
90.00000299999769
 51
269.9999970000023
  0
POLYLINE
  5
D7F
330
1F
100
AcDbEntity
  8
0
 62
     7
100
AcDb2dPolyline
 66
     1
 10
0.0
 20
0.0
 30
0.0
  0
VERTEX
  5
D80
330
D7F
100
AcDbEntity
  8
0
100
AcDbVertex
100
AcDb2dVertex
 10
1269.130531408819
 20
592.9990197405625
 30
0.0
  0
VERTEX
  5
D81
330
D7F
100
AcDbEntity
  8
0
100
AcDbVertex
100
AcDb2dVertex
 10
1267.370353408819
 20
593.0627477405622
 30
0.0
  0
VERTEX
  5
D82
330
D7F
100
AcDbEntity
  8
0
100
AcDbVertex
100
AcDb2dVertex
 10
1265.638313408819
 20
593.2519567405623
 30
0.0
  0
VERTEX
  5
D83
330
D7F
100
AcDbEntity
  8
0
100
AcDbVertex
100
AcDb2dVertex
 10
1263.946144408818
 20
593.5642127405625
 30
0.0
  0
VERTEX
  5
D84
330
D7F
100
AcDbEntity
  8
0
100
AcDbVertex
100
AcDb2dVertex
 10
1262.306999408819
 20
593.9973797405626
 30
0.0
  0
VERTEX
  5
D85
330
D7F
100
AcDbEntity
  8
0
100
AcDbVertex
100
AcDb2dVertex
 10
1260.758964408819
 20
594.5397297405625
 30
0.0
  0
SEQEND
  5
D86
330
D7F
100
AcDbEntity
  8
0
  0
POLYLINE
  5
D87
330
1F
100
AcDbEntity
  8
0
 62
     7
100
AcDb2dPolyline
 66
     1
 10
0.0
 20
0.0
 30
0.0
  0
VERTEX
  5
D88
330
D87
100
AcDbEntity
  8
0
100
AcDbVertex
100
AcDb2dVertex
 10
1267.831520408819
 20
592.2490347405624
 30
0.0
  0
VERTEX
  5
D89
330
D87
100
AcDbEntity
  8
0
100
AcDbVertex
100
AcDb2dVertex
 10
1266.287742408818
 20
592.4410137405625
 30
0.0
  0
VERTEX
  5
D8A
330
D87
100
AcDbEntity
  8
0
100
AcDbVertex
100
AcDb2dVertex
 10
1264.792869408819
 20
592.7747077405626
 30
0.0
  0
VERTEX
  5
D8B
330
D87
100
AcDbEntity
  8
0
100
AcDbVertex
100
AcDb2dVertex
 10
1263.360512408818
 20
593.2431607405625
 30
0.0
  0
VERTEX
  5
D8C
330
D87
100
AcDbEntity
  8
0
100
AcDbVertex
100
AcDb2dVertex
 10
1262.005012408818
 20
593.8384747405624
 30
0.0
  0
VERTEX
  5
D8D
330
D87
100
AcDbEntity
  8
0
100
AcDbVertex
100
AcDb2dVertex
 10
1261.059272408818
 20
594.3554577405625
 30
0.0
  0
VERTEX
  5
D8E
330
D87
100
AcDbEntity
  8
0
100
AcDbVertex
100
AcDb2dVertex
 10
1260.758964408819
 20
594.5397297405625
 30
0.0
  0
SEQEND
  5
D8F
330
D87
100
AcDbEntity
  8
0
  0
ARC
  5
D90
330
1F
100
AcDbEntity
  8
0
 62
     7
100
AcDbCircle
 10
1269.078560408819
 20
608.4359547405624
 30
0.0
 40
16.234334
100
AcDbArc
 50
265.594573000008
 51
288.001337000005
  0
ARC
  5
D91
330
1F
100
AcDbEntity
  8
0
 62
     7
100
AcDbCircle
 10
1269.078407408818
 20
600.5587887405622
 30
0.0
 40
16.237607
100
AcDbArc
 50
71.98811099999129
 51
94.40395800000123
  0
ARC
  5
D92
330
1F
100
AcDbEntity
  8
0
 62
     7
100
AcDbCircle
 10
1260.758964408819
 20
604.4990197405625
 30
0.0
 40
24.866025
100
AcDbArc
 50
27.54711399999563
 51
331.3521099999984
  0
ARC
  5
D93
330
1F
100
AcDbEntity
  8
0
 62
     7
100
AcDbCircle
 10
1260.758964408819
 20
604.4990197405625
 30
0.0
 40
24.866025
100
AcDbArc
 50
331.3521099999984
 51
332.4528110000032
  0
ARC
  5
D94
330
1F
100
AcDbEntity
  8
0
 62
     7
100
AcDbCircle
 10
1260.758964408819
 20
604.4990197405625
 30
0.0
 40
31.5
100
AcDbArc
 50
21.41236000000176
 51
331.3521099999984
  0
ARC
  5
D95
330
1F
100
AcDbEntity
  8
0
 62
     7
100
AcDbCircle
 10
1260.758964408819
 20
604.4990197405625
 30
0.0
 40
31.5
100
AcDbArc
 50
331.3521099999984
 51
338.5874249999937
  0
ARC
  5
D96
330
1F
100
AcDbEntity
  8
0
 62
     7
100
AcDbCircle
 10
1260.758964408819
 20
604.4990197405625
 30
0.0
 40
30.256725
100
AcDbArc
 50
22.33857799999304
 51
331.3521099999984
  0
ARC
  5
D97
330
1F
100
AcDbEntity
  8
0
 62
     7
100
AcDbCircle
 10
1260.758964408819
 20
604.4990197405625
 30
0.0
 40
30.256725
100
AcDbArc
 50
331.3521099999984
 51
337.6612019999999
  0
ARC
  5
D98
330
1F
100
AcDbEntity
  8
0
 62
     7
100
AcDbCircle
 10
1260.758964408819
 20
604.4990197405625
 30
0.0
 40
26.243275
100
AcDbArc
 50
25.98944000000586
 51
334.0103040000024
  0
ARC
  5
D99
330
1F
100
AcDbEntity
  8
0
 62
     7
100
AcDbCircle
 10
1260.758964408819
 20
604.4990197405625
 30
0.0
 40
25.0
100
AcDbArc
 50
27.38706900000958
 51
332.612853999996
  0
LINE
  5
D9A
330
1F
100
AcDbEntity
  8
0
 62
     7
 48
0.248982
100
AcDbLine
 10
1260.758964408819
 20
604.4990197405625
 30
0.0
 11
1260.758964408819
 21
594.5397297405625
 31
0.0
  0
LINE
  5
D9B
330
1F
100
AcDbEntity
  8
0
 62
     7
100
AcDbLine
 10
1292.658958408818
 20
592.9990197405625
 30
0.0
 11
1292.658958408818
 21
615.9990197405625
 31
0.0
  0
LINE
  5
D9C
330
1F
100
AcDbEntity
  8
0
 62
     7
100
AcDbLine
 10
1292.658958408818
 20
592.9990197405625
 30
0.0
 11
1269.130516408819
 21
592.9990197405625
 31
0.0
  0
LINE
  5
D9D
330
1F
100
AcDbEntity
  8
0
 62
     7
100
AcDbLine
 10
1292.658958408818
 20
615.9990197405625
 30
0.0
 11
1269.130546408819
 21
615.9990197405625
 31
0.0
  0
ARC
  5
D9E
330
1F
100
AcDbEntity
  8
0
 62
     7
100
AcDbCircle
 10
1292.658958408818
 20
615.8990217405625
 30
0.0
 40
0.1
100
AcDbArc
 50
0.0
 51
90.00000299999769
  0
ARC
  5
D9F
330
1F
100
AcDbEntity
  8
0
 62
     7
100
AcDbCircle
 10
1292.658958408818
 20
593.0990177405625
 30
0.0
 40
0.1
100
AcDbArc
 50
269.9999970000023
 51
0.0
  0
LINE
  5
DA0
330
1F
100
AcDbEntity
  8
0
 62
     7
100
AcDbLine
 10
1292.758964408818
 20
593.0990177405625
 30
0.0
 11
1292.758964408818
 21
615.8990217405625
 31
0.0
  0
LINE
  5
DA1
330
1F
100
AcDbEntity
  8
0
 62
     7
 48
0.2975
100
AcDbLine
 10
1292.858970408819
 20
614.9765207405622
 30
0.0
 11
1304.758964408818
 21
614.9765207405622
 31
0.0
  0
LINE
  5
DA2
330
1F
100
AcDbEntity
  8
0
 62
     7
 48
0.2975
100
AcDbLine
 10
1292.858970408819
 20
594.0215187405625
 30
0.0
 11
1304.758964408818
 21
594.0215187405625
 31
0.0
  0
LINE
  5
DA3
330
1F
100
AcDbEntity
  8
0
 62
     7
100
AcDbLine
 10
1292.858970408819
 20
594.0215187405625
 30
0.0
 11
1292.858970408819
 21
614.9765207405622
 31
0.0
  0
ARC
  5
DA4
330
1F
100
AcDbEntity
  8
0
 62
     7
100
AcDbCircle
 10
1292.858970408819
 20
593.9215207405625
 30
0.0
 40
0.1
100
AcDbArc
 50
90.00000299999769
 51
179.9999949999995
  0
ARC
  5
DA5
330
1F
100
AcDbEntity
  8
0
 62
     7
100
AcDbCircle
 10
1292.858970408819
 20
615.0765187405625
 30
0.0
 40
0.1
100
AcDbArc
 50
180.0000050000005
 51
269.9999970000023
  0
POLYLINE
  5
DA6
330
1F
100
AcDbEntity
  8
0
 62
     7
100
AcDb2dPolyline
 66
     1
 10
0.0
 20
0.0
 30
0.0
  0
VERTEX
  5
DA7
330
DA6
100
AcDbEntity
  8
0
100
AcDbVertex
100
AcDb2dVertex
 10
1261.396797408819
 20
594.2993127405625
 30
0.0
  0
VERTEX
  5
DA8
330
DA6
100
AcDbEntity
  8
0
100
AcDbVertex
100
AcDb2dVertex
 10
1261.375328408818
 20
594.2890127405624
 30
0.0
  0
VERTEX
  5
DA9
330
DA6
100
AcDbEntity
  8
0
100
AcDbVertex
100
AcDb2dVertex
 10
1261.353874408819
 20
594.2784467405624
 30
0.0
  0
VERTEX
  5
DAA
330
DA6
100
AcDbEntity
  8
0
100
AcDbVertex
100
AcDb2dVertex
 10
1261.332756408819
 20
594.2624167405624
 30
0.0
  0
VERTEX
  5
DAB
330
DA6
100
AcDbEntity
  8
0
100
AcDbVertex
100
AcDb2dVertex
 10
1261.310966408818
 20
594.2564737405624
 30
0.0
  0
VERTEX
  5
DAC
330
DA6
100
AcDbEntity
  8
0
100
AcDbVertex
100
AcDb2dVertex
 10
1261.233726408819
 20
594.2685047405625
 30
0.0
  0
VERTEX
  5
DAD
330
DA6
100
AcDbEntity
  8
0
100
AcDbVertex
100
AcDb2dVertex
 10
1261.091728408819
 20
594.3610727405625
 30
0.0
  0
VERTEX
  5
DAE
330
DA6
100
AcDbEntity
  8
0
100
AcDbVertex
100
AcDb2dVertex
 10
1260.922981408818
 20
594.4544027405624
 30
0.0
  0
VERTEX
  5
DAF
330
DA6
100
AcDbEntity
  8
0
100
AcDbVertex
100
AcDb2dVertex
 10
1260.758964408819
 20
594.5397297405625
 30
0.0
  0
SEQEND
  5
DB0
330
DA6
100
AcDbEntity
  8
0
  0
LINE
  5
DB1
330
1F
100
AcDbEntity
  8
0
 62
     7
 48
0.0025
100
AcDbLine
 10
1292.758964408818
 20
613.8145177405625
 30
0.0
 11
1292.858970408819
 21
613.8145177405625
 31
0.0
  0
LINE
  5
DB2
330
1F
100
AcDbEntity
  8
0
 62
     7
 48
0.2975
100
AcDbLine
 10
1292.858970408819
 20
613.8145177405625
 30
0.0
 11
1304.758964408818
 21
613.8145177405625
 31
0.0
  0
LINE
  5
DB3
330
1F
100
AcDbEntity
  8
0
 62
     7
 48
0.025
100
AcDbLine
 10
1304.758964408818
 20
613.8145177405625
 30
0.0
 11
1305.758964408819
 21
613.8145177405625
 31
0.0
  0
LINE
  5
DB4
330
1F
100
AcDbEntity
  8
0
 62
     7
 48
0.0025
100
AcDbLine
 10
1292.758964408818
 20
595.1835217405625
 30
0.0
 11
1292.858970408819
 21
595.1835217405625
 31
0.0
  0
LINE
  5
DB5
330
1F
100
AcDbEntity
  8
0
 62
     7
 48
0.2975
100
AcDbLine
 10
1292.858970408819
 20
595.1835217405625
 30
0.0
 11
1304.758964408818
 21
595.1835217405625
 31
0.0
  0
LINE
  5
DB6
330
1F
100
AcDbEntity
  8
0
 62
     7
 48
0.025
100
AcDbLine
 10
1304.758964408818
 20
595.1835217405625
 30
0.0
 11
1305.758964408819
 21
595.1835217405625
 31
0.0
  0
LINE
  5
DB9
330
1F
100
AcDbEntity
  8
0
  6
DASHDOT
 62
     7
100
AcDbLine
 10
1290.308982719365
 20
604.4990197405625
 30
0.0
 11
1313.70897661585
 21
604.4990197405625
 31
0.0
  0
LINE
  5
DBA
330
1F
100
AcDbEntity
  8
0
 62
     7
100
AcDbLine
 10
1292.258964408818
 20
586.3124810442733
 30
0.0
 11
1292.258964408818
 21
592.9990197405626
 31
0.0
  0
LINE
  5
DBB
330
1F
100
AcDbEntity
  8
0
 62
     7
100
AcDbLine
 10
1292.258964408818
 20
615.9990197405625
 30
0.0
 11
1292.258964408818
 21
622.6855584368514
 31
0.0
  0
LINE
  5
DBC
330
1F
100
AcDbEntity
  8
0
 62
     7
100
AcDbLine
 10
1292.258964408818
 20
622.6855584368514
 30
0.0
 11
1260.758964408819
 21
640.8720818743517
 31
0.0
  0
LINE
  5
DBD
330
1F
100
AcDbEntity
  8
0
 62
     7
100
AcDbLine
 10
1260.758964408819
 20
640.8720818743517
 30
0.0
 11
1229.258964408818
 21
622.6855584368514
 31
0.0
  0
LINE
  5
DBE
330
1F
100
AcDbEntity
  8
0
 62
     7
100
AcDbLine
 10
1229.258964408818
 20
622.6855584368514
 30
0.0
 11
1229.258964408818
 21
586.3124810442733
 31
0.0
  0
LINE
  5
DBF
330
1F
100
AcDbEntity
  8
0
 62
     7
100
AcDbLine
 10
1229.258964408818
 20
586.3124810442733
 30
0.0
 11
1260.758964408819
 21
568.1259576067733
 31
0.0
  0
LINE
  5
DC0
330
1F
100
AcDbEntity
  8
0
 62
     7
100
AcDbLine
 10
1260.758964408819
 20
568.1259576067733
 30
0.0
 11
1292.258964408818
 21
586.3124810442733
 31
0.0
  0
LINE
  5
DC1
330
1F
100
AcDbEntity
  8
0
 62
     7
 48
0.0856407165527344
100
AcDbLine
 10
1271.758964408818
 20
636.4990197405623
 30
0.0
 11
1268.333335746709
 21
636.4990197405623
 31
0.0
  0
LINE
  5
DC2
330
1F
100
AcDbEntity
  8
0
 62
     7
 48
0.0010013580322266
100
AcDbLine
 10
1311.758964408819
 20
623.5385857806013
 30
0.0
 11
1311.758964408819
 21
623.5786401018906
 31
0.0
  0
LINE
  5
DC3
330
1F
100
AcDbEntity
  8
0
 62
     7
 48
0.3279914855957031
100
AcDbLine
 10
1311.758964408819
 20
623.5385857806013
 30
0.0
 11
1311.758964408819
 21
610.4189263567733
 31
0.0
  0
LINE
  5
DC4
330
1F
100
AcDbEntity
  8
0
 62
     7
 48
0.2960189819335937
100
AcDbLine
 10
1311.758964408819
 20
598.5781670794295
 30
0.0
 11
1311.758964408819
 21
610.4189263567733
 31
0.0
  0
LINE
  5
DC5
330
1F
100
AcDbEntity
  8
0
 62
     7
 48
0.3259895324707031
100
AcDbLine
 10
1311.758964408819
 20
598.5781670794295
 30
0.0
 11
1311.758964408819
 21
585.5385857806013
 31
0.0
  0
LINE
  5
DC6
330
1F
100
AcDbEntity
  8
0
 62
     7
 48
0.0009891510009766
100
AcDbLine
 10
1311.758964408819
 20
585.4990197405625
 30
0.0
 11
1311.758964408819
 21
585.5385857806013
 31
0.0
  0
LINE
  5
DC7
330
1F
100
AcDbEntity
  8
0
 62
     7
 48
0.275
100
AcDbLine
 10
1300.758964408818
 20
585.5385857806013
 30
0.0
 11
1311.758964408819
 21
585.5385857806013
 31
0.0
  0
LINE
  5
DC8
330
1F
100
AcDbEntity
  8
0
 62
     7
 48
0.0009891510009766
100
AcDbLine
 10
1300.758964408818
 20
585.4990197405625
 30
0.0
 11
1300.758964408818
 21
585.5385857806013
 31
0.0
  0
LINE
  5
DC9
330
1F
100
AcDbEntity
  8
0
 62
     7
 48
0.275
100
AcDbLine
 10
1306.758964408818
 20
598.5781670794295
 30
0.0
 11
1311.758964408819
 21
598.5781670794295
 31
0.0
  0
LINE
  5
DCA
330
1F
100
AcDbEntity
  8
0
 62
     7
 48
0.3259895324707031
100
AcDbLine
 10
1300.758964408818
 20
594.0215187405625
 30
0.0
 11
1300.758964408818
 21
585.5385857806013
 31
0.0
  0
LINE
  5
DCB
330
1F
100
AcDbEntity
  8
0
 62
     7
 48
0.275
100
AcDbLine
 10
1306.758964408818
 20
610.4189263567733
 30
0.0
 11
1311.758964408819
 21
610.4189263567733
 31
0.0
  0
LINE
  5
DCC
330
1F
100
AcDbEntity
  8
0
 62
     7
 48
0.275
100
AcDbLine
 10
1300.758964408818
 20
623.5385857806013
 30
0.0
 11
1311.758964408819
 21
623.5385857806013
 31
0.0
  0
LINE
  5
DCD
330
1F
100
AcDbEntity
  8
0
 62
     7
 48
0.3279914855957031
100
AcDbLine
 10
1300.758964408818
 20
623.5385857806013
 30
0.0
 11
1300.758964408818
 21
614.9765207405622
 31
0.0
  0
LINE
  5
DCE
330
1F
100
AcDbEntity
  8
0
 62
     7
 48
0.0010013580322266
100
AcDbLine
 10
1300.758964408818
 20
623.5385857806013
 30
0.0
 11
1300.758964408818
 21
623.5786401018906
 31
0.0
  0
LINE
  5
DCF
330
1F
100
AcDbEntity
  8
0
 62
     7
 48
0.2
100
AcDbLine
 10
1292.758964408818
 20
591.4990197405625
 30
0.0
 11
1300.758964408818
 21
591.4990197405625
 31
0.0
  0
LINE
  5
DD0
330
1F
100
AcDbEntity
  8
0
 62
     7
 48
0.2
100
AcDbLine
 10
1292.758964408818
 20
617.4990197405625
 30
0.0
 11
1300.758964408818
 21
617.4990197405625
 31
0.0
  0
LINE
  5
DD1
330
1F
100
AcDbEntity
  8
0
 62
     7
100
AcDbLine
 10
1292.758964408818
 20
591.4990197405625
 30
0.0
 11
1292.758964408818
 21
617.4990197405625
 31
0.0
  0
LINE
  5
DD2
330
1F
100
AcDbEntity
  8
0
 62
     7
 48
0.0856407165527344
100
AcDbLine
 10
1253.184593070928
 20
636.4990197405623
 30
0.0
 11
1249.758964408818
 21
636.4990197405623
 31
0.0
  0
LINE
  5
DD3
330
1F
100
AcDbEntity
  8
0
 62
     7
 48
0.0494434356689453
100
AcDbLine
 10
1271.758964408818
 20
634.5212823138048
 30
0.0
 11
1271.758964408818
 21
636.4990197405623
 31
0.0
  0
LINE
  5
DD4
330
1F
100
AcDbEntity
  8
0
 62
     7
 48
0.275
100
AcDbLine
 10
1300.758964408818
 20
585.4990197405625
 30
0.0
 11
1311.758964408819
 21
585.4990197405625
 31
0.0
  0
LINE
  5
DD5
330
1F
100
AcDbEntity
  8
0
 62
     7
 48
0.275
100
AcDbLine
 10
1300.758964408818
 20
623.5786401018906
 30
0.0
 11
1311.758964408819
 21
623.5786401018906
 31
0.0
  0
LINE
  5
DD6
330
1F
100
AcDbEntity
  8
0
 62
     7
 48
0.0494441986083984
100
AcDbLine
 10
1249.758964408818
 20
634.5212517962266
 30
0.0
 11
1249.758964408818
 21
636.4990197405623
 31
0.0
  0
LINE
  5
DD7
330
1F
100
AcDbEntity
  8
0
  6
DASHDOT
 62
     7
 48
0.4800003051757813
100
AcDbLine
 10
660.7589644088185
 20
993.4978755698359
 30
0.0
 11
660.7589644088185
 21
1012.697887776867
 31
0.0
  0
LINE
  5
DDB
330
1F
100
AcDbEntity
  8
0
 62
     7
100
AcDbLine
 10
629.2589644088185
 20
1073.097881673351
 30
0.0
 11
660.7589644088185
 21
1073.097881673351
 31
0.0
  0
LINE
  5
DDC
330
1F
100
AcDbEntity
  8
0
 62
     7
100
AcDbLine
 10
660.7589644088185
 20
1073.097881673351
 30
0.0
 11
692.2589644088186
 21
1073.097881673351
 31
0.0
  0
LINE
  5
DDD
330
1F
100
AcDbEntity
  8
0
 62
     7
100
AcDbLine
 10
692.2589644088186
 20
1051.097881673351
 30
0.0
 11
692.2589644088186
 21
1073.097881673351
 31
0.0
  0
LINE
  5
DDE
330
1F
100
AcDbEntity
  8
0
 62
     7
100
AcDbLine
 10
629.2589644088185
 20
1051.097881673351
 30
0.0
 11
629.2589644088185
 21
1073.097881673351
 31
0.0
  0
LINE
  5
DDF
330
1F
100
AcDbEntity
  8
0
 62
     7
100
AcDbLine
 10
629.2589644088185
 20
1051.097881673351
 30
0.0
 11
660.7589644088185
 21
1051.097881673351
 31
0.0
  0
LINE
  5
DE0
330
1F
100
AcDbEntity
  8
0
 62
     7
100
AcDbLine
 10
660.7589644088185
 20
1051.097881673351
 30
0.0
 11
660.7589644088185
 21
1073.097881673351
 31
0.0
  0
LINE
  5
DE1
330
1F
100
AcDbEntity
  8
0
 62
     7
100
AcDbLine
 10
660.7589644088185
 20
1051.097881673351
 30
0.0
 11
692.2589644088186
 21
1051.097881673351
 31
0.0
  0
LINE
  5
DE2
330
1F
100
AcDbEntity
  8
0
 62
     7
 48
0.3
100
AcDbLine
 10
637.7589644088185
 20
1039.097881673351
 30
0.0
 11
637.7589644088185
 21
1051.097881673351
 31
0.0
  0
LINE
  5
DE3
330
1F
100
AcDbEntity
  8
0
 62
     7
 48
0.225
100
AcDbLine
 10
683.7589644088185
 20
1042.097881673351
 30
0.0
 11
683.7589644088185
 21
1051.097881673351
 31
0.0
  0
LINE
  5
DE4
330
1F
100
AcDbEntity
  8
0
 62
     7
100
AcDbLine
 10
682.7589644088185
 20
1039.097881673351
 30
0.0
 11
637.7589644088185
 21
1039.097881673351
 31
0.0
  0
ARC
  5
DE5
330
1F
100
AcDbEntity
  8
0
 62
     7
100
AcDbCircle
 10
711.503440727178
 20
1031.173778890148
 30
0.0
 40
29.81731915668617
100
AcDbArc
 50
158.5084459552968
 51
164.5878334109856
  0
LINE
  5
DE6
330
1F
100
AcDbEntity
  8
0
 62
     7
 48
0.4625
100
AcDbLine
 10
638.2589644088185
 20
1020.597881673351
 30
0.0
 11
638.2589644088185
 21
1039.097881673351
 31
0.0
  0
LINE
  5
DE7
330
1F
100
AcDbEntity
  8
0
 62
     7
100
AcDbLine
 10
683.2589644088185
 20
1020.597881673351
 30
0.0
 11
638.2589644088185
 21
1020.597881673351
 31
0.0
  0
LINE
  5
DE8
330
1F
100
AcDbEntity
  8
0
 62
     7
 48
0.0875
100
AcDbLine
 10
683.2589644088185
 20
1020.597881673351
 30
0.0
 11
683.2589644088185
 21
1024.097881673351
 31
0.0
  0
POLYLINE
  5
DE9
330
1F
100
AcDbEntity
  8
0
 62
     7
100
AcDb2dPolyline
 66
     1
 10
0.0
 20
0.0
 30
0.0
  0
VERTEX
  5
DEA
330
DE9
100
AcDbEntity
  8
0
100
AcDbVertex
100
AcDb2dVertex
 10
681.3805464400688
 20
1033.097881673351
 30
0.0
  0
VERTEX
  5
DEB
330
DE9
100
AcDbEntity
  8
0
100
AcDbVertex
100
AcDb2dVertex
 10
681.4019087447563
 20
1032.158977864758
 30
0.0
  0
VERTEX
  5
DEC
330
DE9
100
AcDbEntity
  8
0
100
AcDbVertex
100
AcDb2dVertex
 10
681.4650190963185
 20
1031.229168294445
 30
0.0
  0
VERTEX
  5
DED
330
DE9
100
AcDbEntity
  8
0
100
AcDbVertex
100
AcDb2dVertex
 10
681.567191947881
 20
1030.316845296398
 30
0.0
  0
VERTEX
  5
DEE
330
DE9
100
AcDbEntity
  8
0
100
AcDbVertex
100
AcDb2dVertex
 10
681.7041853560842
 20
1029.429943440929
 30
0.0
  0
VERTEX
  5
DEF
330
DE9
100
AcDbEntity
  8
0
100
AcDbVertex
100
AcDb2dVertex
 10
682.0590742720996
 20
1027.764477132336
 30
0.0
  0
VERTEX
  5
DF0
330
DE9
100
AcDbEntity
  8
0
100
AcDbVertex
100
AcDb2dVertex
 10
682.344322074834
 20
1026.720104573742
 30
0.0
  0
VERTEX
  5
DF1
330
DE9
100
AcDbEntity
  8
0
100
AcDbVertex
100
AcDb2dVertex
 10
682.8995283736623
 20
1025.038402913586
 30
0.0
  0
VERTEX
  5
DF2
330
DE9
100
AcDbEntity
  8
0
100
AcDbVertex
100
AcDb2dVertex
 10
683.2589644088185
 20
1024.097881673351
 30
0.0
  0
SEQEND
  5
DF3
330
DE9
100
AcDbEntity
  8
0
  0
POLYLINE
  5
DF4
330
1F
100
AcDbEntity
  8
0
 62
     7
100
AcDb2dPolyline
 66
     1
 10
0.0
 20
0.0
 30
0.0
  0
VERTEX
  5
DF5
330
DF4
100
AcDbEntity
  8
0
100
AcDbVertex
100
AcDb2dVertex
 10
681.3805464400688
 20
1033.097881673351
 30
0.0
  0
VERTEX
  5
DF6
330
DF4
100
AcDbEntity
  8
0
100
AcDbVertex
100
AcDb2dVertex
 10
681.4533613814748
 20
1034.832409261242
 30
0.0
  0
VERTEX
  5
DF7
330
DF4
100
AcDbEntity
  8
0
100
AcDbVertex
100
AcDb2dVertex
 10
681.6611555709279
 20
1036.51148640968
 30
0.0
  0
VERTEX
  5
DF8
330
DF4
100
AcDbEntity
  8
0
100
AcDbVertex
100
AcDb2dVertex
 10
681.974662651006
 20
1038.083477376476
 30
0.0
  0
VERTEX
  5
DF9
330
DF4
100
AcDbEntity
  8
0
100
AcDbVertex
100
AcDb2dVertex
 10
682.2357100142871
 20
1039.097881673351
 30
0.0
  0
SEQEND
  5
DFA
330
DF4
100
AcDbEntity
  8
0
  0
LINE
  5
DFB
330
1F
100
AcDbEntity
  8
0
 62
     7
 48
0.387298583984375
100
AcDbLine
 10
659.004936088506
 20
1019.097881673351
 30
0.0
 11
643.5129927291312
 21
1019.097881673351
 31
0.0
  0
ARC
  5
DFC
330
1F
100
AcDbEntity
  8
0
 62
     7
100
AcDbCircle
 10
645.7555769576465
 20
1045.937298177258
 30
0.0
 40
29.9317263998276
100
AcDbArc
 50
296.2733719871033
 51
300.0828007136504
  0
ARC
  5
DFD
330
1F
100
AcDbEntity
  8
0
 62
     7
100
AcDbCircle
 10
675.7634199752247
 20
1045.938366292492
 30
0.0
 40
29.93318513588919
100
AcDbArc
 50
239.9164361263979
 51
243.7256872680152
  0
LINE
  5
DFE
330
1F
100
AcDbEntity
  8
0
 62
     7
 48
0.387298583984375
100
AcDbLine
 10
678.004936088506
 20
1019.097881673351
 30
0.0
 11
662.512992729131
 21
1019.097881673351
 31
0.0
  0
ARC
  5
DFF
330
1F
100
AcDbEntity
  8
0
 62
     7
100
AcDbCircle
 10
664.7555769576467
 20
1045.937298177258
 30
0.0
 40
29.93172640551351
100
AcDbArc
 50
296.2733719871033
 51
300.0828007136504
  0
LINE
  5
E00
330
1F
100
AcDbEntity
  8
0
 62
     7
 48
0.05
100
AcDbLine
 10
681.7589644088188
 20
1019.097881673351
 30
0.0
 11
679.7589644088185
 21
1019.097881673351
 31
0.0
  0
LINE
  5
E01
330
1F
100
AcDbEntity
  8
0
 62
     7
 48
0.0530330085889911
100
AcDbLine
 10
681.7589644088188
 20
1019.097881673351
 30
0.0
 11
683.2589644088185
 21
1020.597881673351
 31
0.0
  0
LINE
  5
E02
330
1F
100
AcDbEntity
  8
0
 62
     7
 48
0.0530330085889911
100
AcDbLine
 10
639.7589644088185
 20
1019.097881673351
 30
0.0
 11
638.2589644088185
 21
1020.597881673351
 31
0.0
  0
LINE
  5
E03
330
1F
100
AcDbEntity
  8
0
 62
     7
 48
0.05
100
AcDbLine
 10
641.7589644088185
 20
1019.097881673351
 30
0.0
 11
639.7589644088185
 21
1019.097881673351
 31
0.0
  0
ARC
  5
E04
330
1F
100
AcDbEntity
  8
0
 62
     7
100
AcDbCircle
 10
656.7634199752248
 20
1045.938366292492
 30
0.0
 40
29.93318513794582
100
AcDbArc
 50
239.9164361263979
 51
243.7256872680152
  0
LINE
  5
E05
330
1F
100
AcDbEntity
  8
0
 62
     7
 48
0.2234825134277344
100
AcDbLine
 10
641.7589644088185
 20
1020.037182210461
 30
0.0
 11
641.7589644088185
 21
1011.097881673351
 31
0.0
  0
LINE
  5
E06
330
1F
100
AcDbEntity
  8
0
 62
     7
 48
0.475
100
AcDbLine
 10
641.7589644088185
 20
1011.097881673351
 30
0.0
 11
660.7589644088185
 21
1011.097881673351
 31
0.0
  0
LINE
  5
E07
330
1F
100
AcDbEntity
  8
0
 62
     7
 48
0.2234825134277344
100
AcDbLine
 10
660.7589644088185
 20
1020.037182210461
 30
0.0
 11
660.7589644088185
 21
1011.097881673351
 31
0.0
  0
LINE
  5
E08
330
1F
100
AcDbEntity
  8
0
 62
     7
 48
0.475
100
AcDbLine
 10
660.7589644088185
 20
1011.097881673351
 30
0.0
 11
679.7589644088185
 21
1011.097881673351
 31
0.0
  0
LINE
  5
E09
330
1F
100
AcDbEntity
  8
0
 62
     7
 48
0.2234825134277344
100
AcDbLine
 10
679.7589644088185
 20
1020.037182210461
 30
0.0
 11
679.7589644088185
 21
1011.097881673351
 31
0.0
  0
LINE
  5
E0A
330
1F
100
AcDbEntity
  8
0
 62
     7
 48
0.1257171630859375
100
AcDbLine
 10
711.7589644088186
 20
1088.069195149914
 30
0.0
 11
711.7589644088186
 21
1093.097881673351
 31
0.0
  0
LINE
  5
E0B
330
1F
100
AcDbEntity
  8
0
 62
     7
100
AcDbLine
 10
711.7589644088186
 20
1088.069195149914
 30
0.0
 11
711.7589644088186
 21
1008.583538411633
 31
0.0
  0
LINE
  5
E0C
330
1F
100
AcDbEntity
  8
0
 62
     7
 48
0.0871414184570313
100
AcDbLine
 10
711.7589644088186
 20
1005.097881673351
 30
0.0
 11
711.7589644088186
 21
1008.583538411633
 31
0.0
  0
LINE
  5
E0D
330
1F
100
AcDbEntity
  8
0
 62
     7
 48
0.275
100
AcDbLine
 10
700.7589644088186
 20
1008.583538411633
 30
0.0
 11
711.7589644088186
 21
1008.583538411633
 31
0.0
  0
LINE
  5
E0E
330
1F
100
AcDbEntity
  8
0
 62
     7
 48
0.0871414184570313
100
AcDbLine
 10
700.7589644088186
 20
1005.097881673351
 30
0.0
 11
700.7589644088186
 21
1008.583538411633
 31
0.0
  0
LINE
  5
E0F
330
1F
100
AcDbEntity
  8
0
 62
     7
 48
0.275
100
AcDbLine
 10
700.7589644088186
 20
1088.069195149914
 30
0.0
 11
711.7589644088186
 21
1088.069195149914
 31
0.0
  0
LINE
  5
E10
330
1F
100
AcDbEntity
  8
0
 62
     7
100
AcDbLine
 10
700.7589644088186
 20
1088.069195149914
 30
0.0
 11
700.7589644088186
 21
1008.583538411633
 31
0.0
  0
LINE
  5
E11
330
1F
100
AcDbEntity
  8
0
 62
     7
 48
0.1257171630859375
100
AcDbLine
 10
700.7589644088186
 20
1088.069195149914
 30
0.0
 11
700.7589644088186
 21
1093.097881673351
 31
0.0
  0
LINE
  5
E12
330
1F
100
AcDbEntity
  8
0
 62
     7
 48
0.325
100
AcDbLine
 10
692.7589644088186
 20
1020.097881673351
 30
0.0
 11
692.7589644088186
 21
1033.097881673351
 31
0.0
  0
LINE
  5
E13
330
1F
100
AcDbEntity
  8
0
 62
     7
 48
0.325
100
AcDbLine
 10
692.7589644088186
 20
1033.097881673351
 30
0.0
 11
692.7589644088186
 21
1046.097881673351
 31
0.0
  0
LINE
  5
E14
330
1F
100
AcDbEntity
  8
0
 62
     7
 48
0.275
100
AcDbLine
 10
700.7589644088186
 20
1005.097881673351
 30
0.0
 11
711.7589644088186
 21
1005.097881673351
 31
0.0
  0
LINE
  5
E15
330
1F
100
AcDbEntity
  8
0
 62
     7
 48
0.275
100
AcDbLine
 10
700.7589644088186
 20
1093.097881673351
 30
0.0
 11
711.7589644088186
 21
1093.097881673351
 31
0.0
  0
LINE
  5
E16
330
1F
100
AcDbEntity
  8
0
 62
     7
 48
0.275
100
AcDbLine
 10
700.7589644088186
 20
1005.097881673351
 30
0.0
 11
711.7589644088186
 21
1005.097881673351
 31
0.0
  0
LINE
  5
E17
330
1F
100
AcDbEntity
  8
0
 62
     7
 48
0.2
100
AcDbLine
 10
692.7589644088186
 20
1020.097881673351
 30
0.0
 11
700.7589644088186
 21
1020.097881673351
 31
0.0
  0
LINE
  5
E18
330
1F
100
AcDbEntity
  8
0
 62
     7
 48
0.2
100
AcDbLine
 10
692.7589644088186
 20
1046.097881673351
 30
0.0
 11
700.7589644088186
 21
1046.097881673351
 31
0.0
  0
LINE
  5
E19
330
1F
100
AcDbEntity
  8
0
 62
     7
 48
0.2375
100
AcDbLine
 10
683.2589644088185
 20
1024.097881673351
 30
0.0
 11
692.7589644088186
 21
1024.097881673351
 31
0.0
  0
LINE
  5
E1A
330
1F
100
AcDbEntity
  8
0
 62
     7
 48
0.225
100
AcDbLine
 10
683.7589644088185
 20
1042.097881673351
 30
0.0
 11
692.7589644088186
 21
1042.097881673351
 31
0.0
  0
LINE
  5
E1E
330
1F
100
AcDbEntity
  8
0
 62
     7
 48
0.017678
100
AcDbLine
 10
706.7589644088188
 20
1145.666881673351
 30
0.0
 11
706.2589644088186
 21
1145.166881673351
 31
0.0
  0
LINE
  5
E1F
330
1F
100
AcDbEntity
  8
0
 62
     7
 48
0.39155
100
AcDbLine
 10
706.7589644088188
 20
1161.328868673352
 30
0.0
 11
706.7589644088188
 21
1145.666881673351
 31
0.0
  0
LINE
  5
E20
330
1F
100
AcDbEntity
  8
0
 62
     7
 48
0.017678
100
AcDbLine
 10
706.7589644088188
 20
1161.328868673352
 30
0.0
 11
706.2589644088186
 21
1161.828868673351
 31
0.0
  0
LINE
  5
E21
330
1F
100
AcDbEntity
  8
0
 62
     7
 48
0.41655
100
AcDbLine
 10
706.2589644088186
 20
1161.828868673351
 30
0.0
 11
706.2589644088186
 21
1145.166881673351
 31
0.0
  0
LINE
  5
E22
330
1F
100
AcDbEntity
  8
0
 62
     7
 48
0.0125
100
AcDbLine
 10
706.2589644088186
 20
1145.166881673351
 30
0.0
 11
705.7589644088186
 21
1145.166881673351
 31
0.0
  0
LINE
  5
E23
330
1F
100
AcDbEntity
  8
0
 62
     7
 48
0.0125
100
AcDbLine
 10
706.2589644088186
 20
1161.828868673351
 30
0.0
 11
705.7589644088186
 21
1161.828868673351
 31
0.0
  0
LINE
  5
E24
330
1F
100
AcDbEntity
  8
0
 62
     7
 48
0.0125
100
AcDbLine
 10
705.7589644088186
 20
1146.022869673351
 30
0.0
 11
706.2589644088186
 21
1146.022869673351
 31
0.0
  0
LINE
  5
E25
330
1F
100
AcDbEntity
  8
0
 62
     7
 48
0.0125
100
AcDbLine
 10
706.2589644088186
 20
1146.022869673351
 30
0.0
 11
706.7589644088188
 21
1146.022869673351
 31
0.0
  0
LINE
  5
E26
330
1F
100
AcDbEntity
  8
0
 62
     7
 48
0.0125
100
AcDbLine
 10
705.7589644088186
 20
1160.972881673351
 30
0.0
 11
706.2589644088186
 21
1160.972881673351
 31
0.0
  0
LINE
  5
E27
330
1F
100
AcDbEntity
  8
0
 62
     7
 48
0.0125
100
AcDbLine
 10
706.2589644088186
 20
1160.972881673351
 30
0.0
 11
706.7589644088188
 21
1160.972881673351
 31
0.0
  0
LINE
  5
E28
330
1F
100
AcDbEntity
  8
0
 62
     7
 48
0.236938
100
AcDbLine
 10
705.7589644088186
 20
1144.020366673351
 30
0.0
 11
705.7589644088186
 21
1153.497875673352
 31
0.0
  0
LINE
  5
E29
330
1F
100
AcDbEntity
  8
0
 62
     7
 48
0.236938
100
AcDbLine
 10
705.7589644088186
 20
1153.497875673352
 30
0.0
 11
705.7589644088186
 21
1162.975383673351
 31
0.0
  0
LINE
  5
E2A
330
1F
100
AcDbEntity
  8
0
 62
     7
 48
0.261938
100
AcDbLine
 10
704.7589644088186
 20
1143.020366673352
 30
0.0
 11
704.7589644088186
 21
1153.497875673352
 31
0.0
  0
LINE
  5
E2B
330
1F
100
AcDbEntity
  8
0
 62
     7
 48
0.261938
100
AcDbLine
 10
704.7589644088186
 20
1153.497875673352
 30
0.0
 11
704.7589644088186
 21
1163.975383673351
 31
0.0
  0
LINE
  5
E2C
330
1F
100
AcDbEntity
  8
0
 62
     7
 48
0.253902
100
AcDbLine
 10
669.1305314088182
 20
1153.497859673352
 30
0.0
 11
660.7589644088185
 21
1159.247875673351
 31
0.0
  0
POLYLINE
  5
E2D
330
1F
100
AcDbEntity
  8
0
 62
     7
100
AcDb2dPolyline
 66
     1
 10
0.0
 20
0.0
 30
0.0
  0
VERTEX
  5
E2E
330
E2D
100
AcDbEntity
  8
0
100
AcDbVertex
100
AcDb2dVertex
 10
667.8315204088187
 20
1151.997890673351
 30
0.0
  0
VERTEX
  5
E2F
330
E2D
100
AcDbEntity
  8
0
100
AcDbVertex
100
AcDb2dVertex
 10
664.8091204088183
 20
1155.005931673351
 30
0.0
  0
VERTEX
  5
E30
330
E2D
100
AcDbEntity
  8
0
100
AcDbVertex
100
AcDb2dVertex
 10
661.9967424088184
 20
1157.916332673351
 30
0.0
  0
VERTEX
  5
E31
330
E2D
100
AcDbEntity
  8
0
100
AcDbVertex
100
AcDb2dVertex
 10
660.7589644088185
 20
1159.247875673351
 30
0.0
  0
SEQEND
  5
E32
330
E2D
100
AcDbEntity
  8
0
  0
LINE
  5
E33
330
1F
100
AcDbEntity
  8
0
 62
     7
 48
0.341652
100
AcDbLine
 10
680.3953784088187
 20
1145.760646673351
 30
0.0
 11
669.1305164088187
 21
1153.497875673352
 31
0.0
  0
POLYLINE
  5
E34
330
1F
100
AcDbEntity
  8
0
 62
     7
100
AcDb2dPolyline
 66
     1
 10
0.0
 20
0.0
 30
0.0
  0
VERTEX
  5
E35
330
E34
100
AcDbEntity
  8
0
100
AcDbVertex
100
AcDb2dVertex
 10
678.1153494088187
 20
1142.242229673351
 30
0.0
  0
VERTEX
  5
E36
330
E34
100
AcDbEntity
  8
0
100
AcDbVertex
100
AcDb2dVertex
 10
672.9735494088181
 20
1147.053096673351
 30
0.0
  0
VERTEX
  5
E37
330
E34
100
AcDbEntity
  8
0
100
AcDbVertex
100
AcDb2dVertex
 10
667.8315054088185
 20
1151.997905673352
 30
0.0
  0
SEQEND
  5
E38
330
E34
100
AcDbEntity
  8
0
  0
LINE
  5
E39
330
1F
100
AcDbEntity
  8
0
 62
     7
 48
0.166152
100
AcDbLine
 10
685.8737104088183
 20
1141.997875673351
 30
0.0
 11
680.3953784088187
 21
1145.760646673351
 31
0.0
  0
ARC
  5
E3A
330
1F
100
AcDbEntity
  8
0
 62
     7
100
AcDbCircle
 10
1355.230278408818
 20
1873.582347673351
 30
0.0
 40
996.666109
100
AcDbArc
 50
227.204785000001
 51
227.6077659999984
  0
LINE
  5
E3B
330
1F
100
AcDbEntity
  8
0
 62
     7
 48
0.076101
100
AcDbLine
 10
682.5809554088183
 20
1133.428661673351
 30
0.0
 11
685.6249924088183
 21
1133.428661673351
 31
0.0
  0
LINE
  5
E3C
330
1F
100
AcDbEntity
  8
0
 62
     7
 48
0.248982
100
AcDbLine
 10
650.7996754088183
 20
1159.247875673351
 30
0.0
 11
660.7589644088185
 21
1159.247875673351
 31
0.0
  0
LINE
  5
E3D
330
1F
100
AcDbEntity
  8
0
 62
     7
100
AcDbLine
 10
635.8929364088183
 20
1133.428661673351
 30
0.0
 11
682.5809554088183
 21
1133.428661673351
 31
0.0
  0
LINE
  5
E3E
330
1F
100
AcDbEntity
  8
0
 62
     7
 48
0.096404
100
AcDbLine
 10
688.4028094088185
 20
1075.654750673351
 30
0.0
 11
692.2589644088186
 21
1075.654750673351
 31
0.0
  0
LINE
  5
E3F
330
1F
100
AcDbEntity
  8
0
 62
     7
 48
0.092599
100
AcDbLine
 10
687.3117444088186
 20
1077.506069673352
 30
0.0
 11
691.0156934088184
 21
1077.506069673352
 31
0.0
  0
LINE
  5
E40
330
1F
100
AcDbEntity
  8
0
 62
     7
100
AcDbLine
 10
629.2589644088185
 20
1075.654750673351
 30
0.0
 11
688.4028094088185
 21
1075.654750673351
 31
0.0
  0
LINE
  5
E41
330
1F
100
AcDbEntity
  8
0
 62
     7
100
AcDbLine
 10
630.5022354088182
 20
1077.506069673352
 30
0.0
 11
687.3117444088186
 21
1077.506069673352
 31
0.0
  0
LINE
  5
E42
330
1F
100
AcDbEntity
  8
0
 62
     7
100
AcDbLine
 10
634.5156934088183
 20
1079.146556673351
 30
0.0
 11
683.7896044088186
 21
1079.146556673351
 31
0.0
  0
LINE
  5
E43
330
1F
100
AcDbEntity
  8
0
 62
     7
 48
0.080316
100
AcDbLine
 10
683.7896044088186
 20
1079.146556673351
 30
0.0
 11
687.0022354088185
 21
1079.146556673351
 31
0.0
  0
LINE
  5
E44
330
1F
100
AcDbEntity
  8
0
 62
     7
100
AcDbLine
 10
635.7589644088185
 20
1080.997875673352
 30
0.0
 11
682.6985244088183
 21
1080.997875673352
 31
0.0
  0
LINE
  5
E45
330
1F
100
AcDbEntity
  8
0
 62
     7
 48
0.076511
100
AcDbLine
 10
682.6985244088183
 20
1080.997875673352
 30
0.0
 11
685.7589644088185
 21
1080.997875673352
 31
0.0
  0
LINE
  5
E46
330
1F
100
AcDbEntity
  8
0
 62
     7
100
AcDbLine
 10
635.7589644088185
 20
1132.928661673351
 30
0.0
 11
682.6985244088183
 21
1132.928661673351
 31
0.0
  0
LINE
  5
E47
330
1F
100
AcDbEntity
  8
0
 62
     7
 48
0.076511
100
AcDbLine
 10
682.6985244088183
 20
1132.928661673351
 30
0.0
 11
685.7589644088185
 21
1132.928661673351
 31
0.0
  0
LINE
  5
E48
330
1F
100
AcDbEntity
  8
0
 62
     7
 48
0.14375
100
AcDbLine
 10
660.7589644088185
 20
1164.997875673352
 30
0.0
 11
660.7589644088185
 21
1159.247875673351
 31
0.0
  0
LINE
  5
E49
330
1F
100
AcDbEntity
  8
0
 62
     7
 48
0.096404
100
AcDbLine
 10
688.4028094088185
 20
1073.097881673351
 30
0.0
 11
692.2589644088186
 21
1073.097881673351
 31
0.0
  0
LINE
  5
E4A
330
1F
100
AcDbEntity
  8
0
 62
     7
100
AcDbLine
 10
629.2589644088185
 20
1073.097881673351
 30
0.0
 11
688.4028094088185
 21
1073.097881673351
 31
0.0
  0
LINE
  5
E4B
330
1F
100
AcDbEntity
  8
0
 62
     7
 48
0.096098
100
AcDbLine
 10
688.3150564088183
 20
1072.997875673352
 30
0.0
 11
692.1589584088185
 21
1072.997875673352
 31
0.0
  0
LINE
  5
E4C
330
1F
100
AcDbEntity
  8
0
 62
     7
100
AcDbLine
 10
629.3589704088183
 20
1072.997875673352
 30
0.0
 11
688.3150564088183
 21
1072.997875673352
 31
0.0
  0
LINE
  5
E4D
330
1F
100
AcDbEntity
  8
0
 62
     7
 48
0.2875
100
AcDbLine
 10
692.6589584088185
 20
1153.497875673352
 30
0.0
 11
692.6589584088185
 21
1164.997875673352
 31
0.0
  0
LINE
  5
E4E
330
1F
100
AcDbEntity
  8
0
 62
     7
 48
0.2875
100
AcDbLine
 10
692.6589584088185
 20
1141.997875673351
 30
0.0
 11
692.6589584088185
 21
1153.497875673352
 31
0.0
  0
LINE
  5
E4F
330
1F
100
AcDbEntity
  8
0
 62
     7
 48
0.285
100
AcDbLine
 10
692.7589644088186
 20
1153.497875673352
 30
0.0
 11
692.7589644088186
 21
1164.897869673351
 31
0.0
  0
LINE
  5
E50
330
1F
100
AcDbEntity
  8
0
 62
     7
 48
0.285
100
AcDbLine
 10
692.7589644088186
 20
1142.097881673351
 30
0.0
 11
692.7589644088186
 21
1153.497875673352
 31
0.0
  0
LINE
  5
E51
330
1F
100
AcDbEntity
  8
0
 62
     7
 48
0.261938
100
AcDbLine
 10
692.8589704088182
 20
1143.020366673352
 30
0.0
 11
692.8589704088182
 21
1153.497875673352
 31
0.0
  0
LINE
  5
E52
330
1F
100
AcDbEntity
  8
0
 62
     7
 48
0.261938
100
AcDbLine
 10
692.8589704088182
 20
1153.497875673352
 30
0.0
 11
692.8589704088182
 21
1163.975383673351
 31
0.0
  0
LINE
  5
E53
330
1F
100
AcDbEntity
  8
0
 62
     7
 48
0.035355
100
AcDbLine
 10
705.7589644088186
 20
1144.020366673351
 30
0.0
 11
704.7589644088186
 21
1143.020366673352
 31
0.0
  0
LINE
  5
E54
330
1F
100
AcDbEntity
  8
0
 62
     7
 48
0.035355
100
AcDbLine
 10
705.7589644088186
 20
1162.975383673351
 30
0.0
 11
704.7589644088186
 21
1163.975383673351
 31
0.0
  0
ARC
  5
E55
330
1F
100
AcDbEntity
  8
0
 62
     7
100
AcDbCircle
 10
685.8737104088183
 20
1138.997875673352
 30
0.0
 40
3.0
100
AcDbArc
 50
90.00000899999307
 51
209.9999889999961
  0
LINE
  5
E56
330
1F
100
AcDbEntity
  8
0
 62
     7
 48
0.117468
100
AcDbLine
 10
683.2756274088185
 20
1137.497875673352
 30
0.0
 11
685.6249924088183
 21
1133.428661673351
 31
0.0
  0
LINE
  5
E57
330
1F
100
AcDbEntity
  8
0
 62
     7
100
AcDbLine
 10
650.7996754088183
 20
1159.247875673351
 30
0.0
 11
635.8929364088183
 21
1133.428661673351
 31
0.0
  0
ARC
  5
E58
330
1F
100
AcDbEntity
  8
0
 62
     7
100
AcDbCircle
 10
690.2589644088187
 20
1075.654750673351
 30
0.0
 40
2.0
100
AcDbArc
 50
0.0
 51
67.76772299999234
  0
ARC
  5
E59
330
1F
100
AcDbEntity
  8
0
 62
     7
100
AcDbCircle
 10
631.2589644088185
 20
1075.654750673351
 30
0.0
 40
2.0
100
AcDbArc
 50
112.232275000003
 51
179.9999949999995
  0
LINE
  5
E5A
330
1F
100
AcDbEntity
  8
0
 62
     7
 48
0.108395
100
AcDbLine
 10
634.5156934088183
 20
1079.146556673351
 30
0.0
 11
630.5022354088182
 21
1077.506069673352
 31
0.0
  0
LINE
  5
E5B
330
1F
100
AcDbEntity
  8
0
 62
     7
 48
0.108395
100
AcDbLine
 10
687.0022354088185
 20
1079.146556673351
 30
0.0
 11
691.0156934088184
 21
1077.506069673352
 31
0.0
  0
ARC
  5
E5C
330
1F
100
AcDbEntity
  8
0
 62
     7
100
AcDbCircle
 10
633.7589644088185
 20
1080.997875673352
 30
0.0
 40
2.0
100
AcDbArc
 50
292.2322770000076
 51
0.0
  0
ARC
  5
E5D
330
1F
100
AcDbEntity
  8
0
 62
     7
100
AcDbCircle
 10
687.7589644088186
 20
1080.997875673352
 30
0.0
 40
2.0
100
AcDbArc
 50
180.0000050000005
 51
247.7677249999969
  0
LINE
  5
E5E
330
1F
100
AcDbEntity
  8
0
 62
     7
100
AcDbLine
 10
635.7589644088185
 20
1132.928661673351
 30
0.0
 11
635.7589644088185
 21
1080.997875673352
 31
0.0
  0
LINE
  5
E5F
330
1F
100
AcDbEntity
  8
0
 62
     7
100
AcDbLine
 10
685.7589644088185
 20
1132.928661673351
 30
0.0
 11
685.7589644088185
 21
1080.997875673352
 31
0.0
  0
ARC
  5
E60
330
1F
100
AcDbEntity
  8
0
 62
     7
100
AcDbCircle
 10
636.7589644088185
 20
1132.928661673351
 30
0.0
 40
1.0
100
AcDbArc
 50
149.9999969999986
 51
179.9999949999995
  0
ARC
  5
E61
330
1F
100
AcDbEntity
  8
0
 62
     7
100
AcDbCircle
 10
684.7589644088185
 20
1132.928661673351
 30
0.0
 40
1.0
100
AcDbArc
 50
0.0
 51
30.00000100000176
  0
ARC
  5
E62
330
1F
100
AcDbEntity
  8
0
 62
     7
100
AcDbCircle
 10
660.7589644088185
 20
1153.497875673352
 30
0.0
 40
11.5
100
AcDbArc
 50
90.00000299999769
 51
149.9999969999986
  0
LINE
  5
E63
330
1F
100
AcDbEntity
  8
0
 62
     7
 48
0.063922
100
AcDbLine
 10
692.2589644088186
 20
1075.654750673351
 30
0.0
 11
692.2589644088186
 21
1073.097881673351
 31
0.0
  0
LINE
  5
E64
330
1F
100
AcDbEntity
  8
0
 62
     7
 48
0.063922
100
AcDbLine
 10
629.2589644088185
 20
1075.654750673351
 30
0.0
 11
629.2589644088185
 21
1073.097881673351
 31
0.0
  0
ARC
  5
E65
330
1F
100
AcDbEntity
  8
0
 62
     7
100
AcDbCircle
 10
692.1588824088188
 20
1073.097957673351
 30
0.0
 40
0.100071
100
AcDbArc
 50
270.0460739999935
 51
359.9539319999973
  0
ARC
  5
E66
330
1F
100
AcDbEntity
  8
0
 62
     7
100
AcDbCircle
 10
629.3590474088183
 20
1073.097957673351
 30
0.0
 40
0.100071
100
AcDbArc
 50
180.0460710000013
 51
269.953927999997
  0
LINE
  5
E67
330
1F
100
AcDbEntity
  8
0
 62
     7
100
AcDbLine
 10
660.7589644088185
 20
1164.997875673352
 30
0.0
 11
692.6589584088185
 21
1164.997875673352
 31
0.0
  0
LINE
  5
E68
330
1F
100
AcDbEntity
  8
0
 62
     7
 48
0.169631
100
AcDbLine
 10
685.8737104088183
 20
1141.997875673351
 30
0.0
 11
692.6589584088185
 21
1141.997875673351
 31
0.0
  0
ARC
  5
E69
330
1F
100
AcDbEntity
  8
0
 62
     7
100
AcDbCircle
 10
692.6588824088188
 20
1164.897777673351
 30
0.0
 40
0.100071
100
AcDbArc
 50
0.0460839999977315
 51
89.95391900000095
  0
ARC
  5
E6A
330
1F
100
AcDbEntity
  8
0
 62
     7
100
AcDbCircle
 10
692.6588824088188
 20
1142.097957673351
 30
0.0
 40
0.100071
100
AcDbArc
 50
270.0460809999991
 51
359.9539160000023
  0
LINE
  5
E6B
330
1F
100
AcDbEntity
  8
0
 62
     7
 48
0.2975
100
AcDbLine
 10
692.8589704088182
 20
1143.020366673352
 30
0.0
 11
704.7589644088186
 21
1143.020366673352
 31
0.0
  0
LINE
  5
E6C
330
1F
100
AcDbEntity
  8
0
 62
     7
 48
0.2975
100
AcDbLine
 10
692.8589704088182
 20
1163.975383673351
 30
0.0
 11
704.7589644088186
 21
1163.975383673351
 31
0.0
  0
ARC
  5
E6D
330
1F
100
AcDbEntity
  8
0
 62
     7
100
AcDbCircle
 10
692.8590474088183
 20
1164.075450673351
 30
0.0
 40
0.100071
100
AcDbArc
 50
180.0460849999995
 51
269.9539139999989
  0
ARC
  5
E6E
330
1F
100
AcDbEntity
  8
0
 62
     7
100
AcDbCircle
 10
692.8590474088183
 20
1142.920299673351
 30
0.0
 40
0.100071
100
AcDbArc
 50
90.04608600000118
 51
179.9539150000005
  0
LINE
  5
E6F
330
1F
100
AcDbEntity
  8
0
 62
     7
 48
0.0025
100
AcDbLine
 10
692.7589644088186
 20
1162.813365673351
 30
0.0
 11
692.8589704088182
 21
1162.813365673351
 31
0.0
  0
LINE
  5
E70
330
1F
100
AcDbEntity
  8
0
 62
     7
 48
0.2975
100
AcDbLine
 10
692.8589704088182
 20
1162.813365673351
 30
0.0
 11
704.7589644088186
 21
1162.813365673351
 31
0.0
  0
LINE
  5
E71
330
1F
100
AcDbEntity
  8
0
 62
     7
 48
0.025
100
AcDbLine
 10
704.7589644088186
 20
1162.813365673351
 30
0.0
 11
705.7589644088186
 21
1162.813365673351
 31
0.0
  0
LINE
  5
E72
330
1F
100
AcDbEntity
  8
0
 62
     7
 48
0.0025
100
AcDbLine
 10
692.7589644088186
 20
1144.182384673351
 30
0.0
 11
692.8589704088182
 21
1144.182384673351
 31
0.0
  0
LINE
  5
E73
330
1F
100
AcDbEntity
  8
0
 62
     7
 48
0.2975
100
AcDbLine
 10
692.8589704088182
 20
1144.182384673351
 30
0.0
 11
704.7589644088186
 21
1144.182384673351
 31
0.0
  0
LINE
  5
E74
330
1F
100
AcDbEntity
  8
0
 62
     7
 48
0.025
100
AcDbLine
 10
704.7589644088186
 20
1144.182384673351
 30
0.0
 11
705.7589644088186
 21
1144.182384673351
 31
0.0
  0
LINE
  5
E75
330
1F
100
AcDbEntity
  8
0
 62
     7
 48
0.261938
100
AcDbLine
 10
692.7589644088186
 20
1153.497875673352
 30
0.0
 11
692.7589644088186
 21
1163.975383673351
 31
0.0
  0
LINE
  5
E76
330
1F
100
AcDbEntity
  8
0
 62
     7
 48
0.261935
100
AcDbLine
 10
692.7589644088186
 20
1143.020458673351
 30
0.0
 11
692.7589644088186
 21
1153.497875673352
 31
0.0
  0
LINE
  5
E77
330
1F
100
AcDbEntity
  8
0
 62
     7
 48
0.261938
100
AcDbLine
 10
692.7589644088186
 20
1153.497875673352
 30
0.0
 11
692.7589644088186
 21
1143.020351673351
 31
0.0
  0
LINE
  5
E78
330
1F
100
AcDbEntity
  8
0
 62
     7
 48
0.261938
100
AcDbLine
 10
692.7589644088186
 20
1163.975383673351
 30
0.0
 11
692.7589644088186
 21
1153.497875673352
 31
0.0
  0
POLYLINE
  5
E79
330
1F
100
AcDbEntity
  8
0
 62
     7
100
AcDb2dPolyline
 66
     1
 10
0.0
 20
0.0
 30
0.0
  0
VERTEX
  5
E7A
330
E79
100
AcDbEntity
  8
0
100
AcDbVertex
100
AcDb2dVertex
 10
663.4602736129202
 20
453.8246565308661
 30
0.0
  0
VERTEX
  5
E7B
330
E79
100
AcDbEntity
  8
0
100
AcDbVertex
100
AcDb2dVertex
 10
664.6919325484669
 20
453.6871138062568
 30
0.0
  0
VERTEX
  5
E7C
330
E79
100
AcDbEntity
  8
0
100
AcDbVertex
100
AcDb2dVertex
 10
665.9276960982715
 20
453.5006056275458
 30
0.0
  0
VERTEX
  5
E7D
330
E79
100
AcDbEntity
  8
0
100
AcDbVertex
100
AcDb2dVertex
 10
667.1709211959279
 20
453.2663984742255
 30
0.0
  0
VERTEX
  5
E7E
330
E79
100
AcDbEntity
  8
0
100
AcDbVertex
100
AcDb2dVertex
 10
668.4183882369437
 20
452.9873304810614
 30
0.0
  0
VERTEX
  5
E7F
330
E79
100
AcDbEntity
  8
0
100
AcDbVertex
100
AcDb2dVertex
 10
670.862602104131
 20
452.3246565308659
 30
0.0
  0
SEQEND
  5
E80
330
E79
100
AcDbEntity
  8
0
  0
LINE
  5
E81
330
1F
100
AcDbEntity
  8
0
 62
     7
 48
0.1350654602050781
100
AcDbLine
 10
663.4602736129202
 20
453.8246565308661
 30
0.0
 11
658.0576552047171
 21
453.8246565308661
 31
0.0
  0
POLYLINE
  5
E82
330
1F
100
AcDbEntity
  8
0
 62
     7
100
AcDb2dPolyline
 66
     1
 10
0.0
 20
0.0
 30
0.0
  0
VERTEX
  5
E83
330
E82
100
AcDbEntity
  8
0
100
AcDbVertex
100
AcDb2dVertex
 10
658.0576552047171
 20
453.8246565308661
 30
0.0
  0
VERTEX
  5
E84
330
E82
100
AcDbEntity
  8
0
100
AcDbVertex
100
AcDb2dVertex
 10
656.8259962691702
 20
453.6871138062568
 30
0.0
  0
VERTEX
  5
E85
330
E82
100
AcDbEntity
  8
0
100
AcDbVertex
100
AcDb2dVertex
 10
655.5902327193654
 20
453.5006056275458
 30
0.0
  0
VERTEX
  5
E86
330
E82
100
AcDbEntity
  8
0
100
AcDbVertex
100
AcDb2dVertex
 10
654.347007621709
 20
453.2663984742255
 30
0.0
  0
VERTEX
  5
E87
330
E82
100
AcDbEntity
  8
0
100
AcDbVertex
100
AcDb2dVertex
 10
653.0995405806935
 20
452.9873304810614
 30
0.0
  0
VERTEX
  5
E88
330
E82
100
AcDbEntity
  8
0
100
AcDbVertex
100
AcDb2dVertex
 10
650.655326713506
 20
452.3246565308659
 30
0.0
  0
SEQEND
  5
E89
330
E82
100
AcDbEntity
  8
0
  0
LINE
  5
E8A
330
1F
100
AcDbEntity
  8
0
 62
     7
 48
0.1
100
AcDbLine
 10
650.655326713506
 20
452.3246565308659
 30
0.0
 11
650.655326713506
 21
448.3246565308659
 31
0.0
  0
POLYLINE
  5
E8B
330
1F
100
AcDbEntity
  8
0
 62
     7
100
AcDb2dPolyline
 66
     1
 10
0.0
 20
0.0
 30
0.0
  0
VERTEX
  5
E8C
330
E8B
100
AcDbEntity
  8
0
100
AcDbVertex
100
AcDb2dVertex
 10
658.0576552047171
 20
446.824656530866
 30
0.0
  0
VERTEX
  5
E8D
330
E8B
100
AcDbEntity
  8
0
100
AcDbVertex
100
AcDb2dVertex
 10
656.8259962691702
 20
446.9621992554754
 30
0.0
  0
VERTEX
  5
E8E
330
E8B
100
AcDbEntity
  8
0
100
AcDbVertex
100
AcDb2dVertex
 10
655.5902327193654
 20
447.1487074341863
 30
0.0
  0
VERTEX
  5
E8F
330
E8B
100
AcDbEntity
  8
0
100
AcDbVertex
100
AcDb2dVertex
 10
654.347007621709
 20
447.3829145875066
 30
0.0
  0
VERTEX
  5
E90
330
E8B
100
AcDbEntity
  8
0
100
AcDbVertex
100
AcDb2dVertex
 10
653.0995405806935
 20
447.6619825806706
 30
0.0
  0
VERTEX
  5
E91
330
E8B
100
AcDbEntity
  8
0
100
AcDbVertex
100
AcDb2dVertex
 10
650.655326713506
 20
448.3246565308659
 30
0.0
  0
SEQEND
  5
E92
330
E8B
100
AcDbEntity
  8
0
  0
LINE
  5
E93
330
1F
100
AcDbEntity
  8
0
 62
     7
 48
0.1350654602050781
100
AcDbLine
 10
663.4602736129202
 20
446.824656530866
 30
0.0
 11
658.0576552047171
 21
446.824656530866
 31
0.0
  0
POLYLINE
  5
E94
102
{ACAD_REACTORS
330
FF1
102
}
330
1F
100
AcDbEntity
  8
0
 62
     7
100
AcDb2dPolyline
 66
     1
 10
0.0
 20
0.0
 30
0.0
  0
VERTEX
  5
E95
330
E94
100
AcDbEntity
  8
0
100
AcDbVertex
100
AcDb2dVertex
 10
663.4602736129202
 20
446.824656530866
 30
0.0
  0
VERTEX
  5
E96
330
E94
100
AcDbEntity
  8
0
100
AcDbVertex
100
AcDb2dVertex
 10
664.6919325484669
 20
446.9621992554754
 30
0.0
  0
VERTEX
  5
E97
102
{ACAD_REACTORS
330
FF1
102
}
330
E94
100
AcDbEntity
  8
0
100
AcDbVertex
100
AcDb2dVertex
 10
665.9276960982715
 20
447.1487074341863
 30
0.0
  0
VERTEX
  5
E98
330
E94
100
AcDbEntity
  8
0
100
AcDbVertex
100
AcDb2dVertex
 10
667.1709211959279
 20
447.3829145875066
 30
0.0
  0
VERTEX
  5
E99
330
E94
100
AcDbEntity
  8
0
100
AcDbVertex
100
AcDb2dVertex
 10
668.4183882369437
 20
447.6619825806706
 30
0.0
  0
VERTEX
  5
E9A
330
E94
100
AcDbEntity
  8
0
100
AcDbVertex
100
AcDb2dVertex
 10
670.862602104131
 20
448.3246565308659
 30
0.0
  0
SEQEND
  5
E9B
330
E94
100
AcDbEntity
  8
0
  0
LINE
  5
E9C
330
1F
100
AcDbEntity
  8
0
 62
     7
 48
0.1
100
AcDbLine
 10
670.862602104131
 20
452.3246565308659
 30
0.0
 11
670.862602104131
 21
448.3246565308659
 31
0.0
  0
POLYLINE
  5
E9D
330
1F
100
AcDbEntity
  8
0
 62
     7
100
AcDb2dPolyline
 66
     1
 10
0.0
 20
0.0
 30
0.0
  0
VERTEX
  5
E9E
330
E9D
100
AcDbEntity
  8
0
100
AcDbVertex
100
AcDb2dVertex
 10
646.9541700972952
 20
453.8246565308661
 30
0.0
  0
VERTEX
  5
E9F
330
E9D
100
AcDbEntity
  8
0
100
AcDbVertex
100
AcDb2dVertex
 10
647.5460585250296
 20
453.6933699097723
 30
0.0
  0
VERTEX
  5
EA0
330
E9D
100
AcDbEntity
  8
0
100
AcDbVertex
100
AcDb2dVertex
 10
648.1398390426077
 20
453.5167952027411
 30
0.0
  0
VERTEX
  5
EA1
330
E9D
100
AcDbEntity
  8
0
100
AcDbVertex
100
AcDb2dVertex
 10
648.7853926314746
 20
453.2763319459051
 30
0.0
  0
VERTEX
  5
EA2
330
E9D
100
AcDbEntity
  8
0
100
AcDbVertex
100
AcDb2dVertex
 10
649.4332350387013
 20
452.9873304810614
 30
0.0
  0
VERTEX
  5
EA3
330
E9D
100
AcDbEntity
  8
0
100
AcDbVertex
100
AcDb2dVertex
 10
650.655326713506
 20
452.3246565308659
 30
0.0
  0
SEQEND
  5
EA4
330
E9D
100
AcDbEntity
  8
0
  0
LINE
  5
EA5
330
1F
100
AcDbEntity
  8
0
 62
     7
 48
0.0675327301025391
100
AcDbLine
 10
646.9541700972952
 20
453.8246565308661
 30
0.0
 11
644.2528608931938
 21
453.8246565308661
 31
0.0
  0
POLYLINE
  5
EA6
330
1F
100
AcDbEntity
  8
0
 62
     7
100
AcDb2dPolyline
 66
     1
 10
0.0
 20
0.0
 30
0.0
  0
VERTEX
  5
EA7
330
EA6
100
AcDbEntity
  8
0
100
AcDbVertex
100
AcDb2dVertex
 10
644.2528608931938
 20
453.8246565308661
 30
0.0
  0
VERTEX
  5
EA8
330
EA6
100
AcDbEntity
  8
0
100
AcDbVertex
100
AcDb2dVertex
 10
643.6609724654592
 20
453.6933699097723
 30
0.0
  0
VERTEX
  5
EA9
330
EA6
100
AcDbEntity
  8
0
100
AcDbVertex
100
AcDb2dVertex
 10
643.0672072066702
 20
453.5167952027411
 30
0.0
  0
VERTEX
  5
EAA
330
EA6
100
AcDbEntity
  8
0
100
AcDbVertex
100
AcDb2dVertex
 10
642.4216536178029
 20
453.2763319459051
 30
0.0
  0
VERTEX
  5
EAB
330
EA6
100
AcDbEntity
  8
0
100
AcDbVertex
100
AcDb2dVertex
 10
641.7738112105763
 20
452.9873304810614
 30
0.0
  0
VERTEX
  5
EAC
330
EA6
100
AcDbEntity
  8
0
100
AcDbVertex
100
AcDb2dVertex
 10
640.5517042769827
 20
452.3246565308659
 30
0.0
  0
SEQEND
  5
EAD
330
EA6
100
AcDbEntity
  8
0
  0
LINE
  5
EAE
330
1F
100
AcDbEntity
  8
0
 62
     7
 48
0.1
100
AcDbLine
 10
640.5517042769827
 20
452.3246565308659
 30
0.0
 11
640.5517042769827
 21
448.3246565308659
 31
0.0
  0
POLYLINE
  5
EAF
330
1F
100
AcDbEntity
  8
0
 62
     7
100
AcDb2dPolyline
 66
     1
 10
0.0
 20
0.0
 30
0.0
  0
VERTEX
  5
EB0
330
EAF
100
AcDbEntity
  8
0
100
AcDbVertex
100
AcDb2dVertex
 10
644.2528608931938
 20
446.824656530866
 30
0.0
  0
VERTEX
  5
EB1
330
EAF
100
AcDbEntity
  8
0
100
AcDbVertex
100
AcDb2dVertex
 10
643.6609724654592
 20
446.9559431519598
 30
0.0
  0
VERTEX
  5
EB2
330
EAF
100
AcDbEntity
  8
0
100
AcDbVertex
100
AcDb2dVertex
 10
643.0672072066702
 20
447.1325178589911
 30
0.0
  0
VERTEX
  5
EB3
330
EAF
100
AcDbEntity
  8
0
100
AcDbVertex
100
AcDb2dVertex
 10
642.4216536178029
 20
447.3729811158269
 30
0.0
  0
VERTEX
  5
EB4
330
EAF
100
AcDbEntity
  8
0
100
AcDbVertex
100
AcDb2dVertex
 10
641.7738112105763
 20
447.6619825806706
 30
0.0
  0
VERTEX
  5
EB5
330
EAF
100
AcDbEntity
  8
0
100
AcDbVertex
100
AcDb2dVertex
 10
640.5517042769827
 20
448.3246565308659
 30
0.0
  0
SEQEND
  5
EB6
330
EAF
100
AcDbEntity
  8
0
  0
LINE
  5
EB7
330
1F
100
AcDbEntity
  8
0
 62
     7
 48
0.0675327301025391
100
AcDbLine
 10
646.9541700972952
 20
446.824656530866
 30
0.0
 11
644.2528608931938
 21
446.824656530866
 31
0.0
  0
POLYLINE
  5
EB8
330
1F
100
AcDbEntity
  8
0
 62
     7
100
AcDb2dPolyline
 66
     1
 10
0.0
 20
0.0
 30
0.0
  0
VERTEX
  5
EB9
330
EB8
100
AcDbEntity
  8
0
100
AcDbVertex
100
AcDb2dVertex
 10
646.9541700972952
 20
446.824656530866
 30
0.0
  0
VERTEX
  5
EBA
330
EB8
100
AcDbEntity
  8
0
100
AcDbVertex
100
AcDb2dVertex
 10
647.5460585250296
 20
446.9559431519598
 30
0.0
  0
VERTEX
  5
EBB
330
EB8
100
AcDbEntity
  8
0
100
AcDbVertex
100
AcDb2dVertex
 10
648.1398390426077
 20
447.1325178589911
 30
0.0
  0
VERTEX
  5
EBC
330
EB8
100
AcDbEntity
  8
0
100
AcDbVertex
100
AcDb2dVertex
 10
648.7853926314746
 20
447.3729811158269
 30
0.0
  0
VERTEX
  5
EBD
330
EB8
100
AcDbEntity
  8
0
100
AcDbVertex
100
AcDb2dVertex
 10
649.4332350387013
 20
447.6619825806706
 30
0.0
  0
VERTEX
  5
EBE
330
EB8
100
AcDbEntity
  8
0
100
AcDbVertex
100
AcDb2dVertex
 10
650.655326713506
 20
448.3246565308659
 30
0.0
  0
SEQEND
  5
EBF
330
EB8
100
AcDbEntity
  8
0
  0
LINE
  5
EC0
330
1F
100
AcDbEntity
  8
0
 62
     7
 48
0.1
100
AcDbLine
 10
680.9662245406546
 20
452.3246565308659
 30
0.0
 11
680.9662245406546
 21
448.3246565308659
 31
0.0
  0
POLYLINE
  5
EC1
330
1F
100
AcDbEntity
  8
0
 62
     7
100
AcDb2dPolyline
 66
     1
 10
0.0
 20
0.0
 30
0.0
  0
VERTEX
  5
EC2
330
EC1
100
AcDbEntity
  8
0
100
AcDbVertex
100
AcDb2dVertex
 10
677.2650679244435
 20
453.8246565308661
 30
0.0
  0
VERTEX
  5
EC3
330
EC1
100
AcDbEntity
  8
0
100
AcDbVertex
100
AcDb2dVertex
 10
677.8569563521779
 20
453.6933699097723
 30
0.0
  0
VERTEX
  5
EC4
330
EC1
100
AcDbEntity
  8
0
100
AcDbVertex
100
AcDb2dVertex
 10
678.4507216109671
 20
453.5167952027411
 30
0.0
  0
VERTEX
  5
EC5
330
EC1
100
AcDbEntity
  8
0
100
AcDbVertex
100
AcDb2dVertex
 10
679.0962751998342
 20
453.2763319459051
 30
0.0
  0
VERTEX
  5
EC6
330
EC1
100
AcDbEntity
  8
0
100
AcDbVertex
100
AcDb2dVertex
 10
679.7441176070607
 20
452.9873304810614
 30
0.0
  0
VERTEX
  5
EC7
330
EC1
100
AcDbEntity
  8
0
100
AcDbVertex
100
AcDb2dVertex
 10
680.9662245406546
 20
452.3246565308659
 30
0.0
  0
SEQEND
  5
EC8
330
EC1
100
AcDbEntity
  8
0
  0
LINE
  5
EC9
330
1F
100
AcDbEntity
  8
0
 62
     7
 48
0.0675327301025391
100
AcDbLine
 10
677.2650679244435
 20
453.8246565308661
 30
0.0
 11
674.5637587203421
 21
453.8246565308661
 31
0.0
  0
POLYLINE
  5
ECA
330
1F
100
AcDbEntity
  8
0
 62
     7
100
AcDb2dPolyline
 66
     1
 10
0.0
 20
0.0
 30
0.0
  0
VERTEX
  5
ECB
330
ECA
100
AcDbEntity
  8
0
100
AcDbVertex
100
AcDb2dVertex
 10
674.5637587203421
 20
453.8246565308661
 30
0.0
  0
VERTEX
  5
ECC
330
ECA
100
AcDbEntity
  8
0
100
AcDbVertex
100
AcDb2dVertex
 10
673.9718702926077
 20
453.6933699097723
 30
0.0
  0
VERTEX
  5
ECD
330
ECA
100
AcDbEntity
  8
0
100
AcDbVertex
100
AcDb2dVertex
 10
673.3780897750293
 20
453.5167952027411
 30
0.0
  0
VERTEX
  5
ECE
330
ECA
100
AcDbEntity
  8
0
100
AcDbVertex
100
AcDb2dVertex
 10
672.7325361861621
 20
453.2763319459051
 30
0.0
  0
VERTEX
  5
ECF
330
ECA
100
AcDbEntity
  8
0
100
AcDbVertex
100
AcDb2dVertex
 10
672.0846937789357
 20
452.9873304810614
 30
0.0
  0
VERTEX
  5
ED0
330
ECA
100
AcDbEntity
  8
0
100
AcDbVertex
100
AcDb2dVertex
 10
670.862602104131
 20
452.3246565308659
 30
0.0
  0
SEQEND
  5
ED1
330
ECA
100
AcDbEntity
  8
0
  0
POLYLINE
  5
ED2
330
1F
100
AcDbEntity
  8
0
 62
     7
100
AcDb2dPolyline
 66
     1
 10
0.0
 20
0.0
 30
0.0
  0
VERTEX
  5
ED3
330
ED2
100
AcDbEntity
  8
0
100
AcDbVertex
100
AcDb2dVertex
 10
674.5637587203421
 20
446.824656530866
 30
0.0
  0
VERTEX
  5
ED4
330
ED2
100
AcDbEntity
  8
0
100
AcDbVertex
100
AcDb2dVertex
 10
673.9718702926077
 20
446.9559431519598
 30
0.0
  0
VERTEX
  5
ED5
330
ED2
100
AcDbEntity
  8
0
100
AcDbVertex
100
AcDb2dVertex
 10
673.3780897750293
 20
447.1325178589911
 30
0.0
  0
VERTEX
  5
ED6
330
ED2
100
AcDbEntity
  8
0
100
AcDbVertex
100
AcDb2dVertex
 10
672.7325361861621
 20
447.3729811158269
 30
0.0
  0
VERTEX
  5
ED7
330
ED2
100
AcDbEntity
  8
0
100
AcDbVertex
100
AcDb2dVertex
 10
672.0846937789357
 20
447.6619825806706
 30
0.0
  0
VERTEX
  5
ED8
330
ED2
100
AcDbEntity
  8
0
100
AcDbVertex
100
AcDb2dVertex
 10
670.862602104131
 20
448.3246565308659
 30
0.0
  0
SEQEND
  5
ED9
330
ED2
100
AcDbEntity
  8
0
  0
LINE
  5
EDA
330
1F
100
AcDbEntity
  8
0
 62
     7
 48
0.0675327301025391
100
AcDbLine
 10
677.2650679244435
 20
446.824656530866
 30
0.0
 11
674.5637587203421
 21
446.824656530866
 31
0.0
  0
POLYLINE
  5
EDB
330
1F
100
AcDbEntity
  8
0
 62
     7
100
AcDb2dPolyline
 66
     1
 10
0.0
 20
0.0
 30
0.0
  0
VERTEX
  5
EDC
330
EDB
100
AcDbEntity
  8
0
100
AcDbVertex
100
AcDb2dVertex
 10
677.2650679244435
 20
446.824656530866
 30
0.0
  0
VERTEX
  5
EDD
330
EDB
100
AcDbEntity
  8
0
100
AcDbVertex
100
AcDb2dVertex
 10
677.8569563521779
 20
446.9559431519598
 30
0.0
  0
VERTEX
  5
EDE
330
EDB
100
AcDbEntity
  8
0
100
AcDbVertex
100
AcDb2dVertex
 10
678.4507216109671
 20
447.1325178589911
 30
0.0
  0
VERTEX
  5
EDF
330
EDB
100
AcDbEntity
  8
0
100
AcDbVertex
100
AcDb2dVertex
 10
679.0962751998342
 20
447.3729811158269
 30
0.0
  0
VERTEX
  5
EE0
330
EDB
100
AcDbEntity
  8
0
100
AcDbVertex
100
AcDb2dVertex
 10
679.7441176070607
 20
447.6619825806706
 30
0.0
  0
VERTEX
  5
EE1
330
EDB
100
AcDbEntity
  8
0
100
AcDbVertex
100
AcDb2dVertex
 10
680.9662245406546
 20
448.3246565308659
 30
0.0
  0
SEQEND
  5
EE2
330
EDB
100
AcDbEntity
  8
0
  0
LINE
  5
EE3
330
1F
100
AcDbEntity
  8
0
 62
     7
 48
0.2775871276855469
100
AcDbLine
 10
646.9541700972952
 20
446.824656530866
 30
0.0
 11
658.0576552047171
 21
446.824656530866
 31
0.0
  0
LINE
  5
EE4
330
1F
100
AcDbEntity
  8
0
 62
     7
 48
0.0300289154052734
100
AcDbLine
 10
643.0517042769827
 20
446.824656530866
 30
0.0
 11
644.2528608931938
 21
446.824656530866
 31
0.0
  0
LINE
  5
EE5
330
1F
100
AcDbEntity
  8
0
 62
     7
 48
0.0300289154052734
100
AcDbLine
 10
677.2650679244435
 20
446.824656530866
 30
0.0
 11
678.4662245406543
 21
446.824656530866
 31
0.0
  0
LINE
  5
EE6
102
{ACAD_REACTORS
330
FD9
102
}
330
1F
100
AcDbEntity
  8
0
 62
     7
 48
0.2775871276855469
100
AcDbLine
 10
663.4602736129202
 20
446.824656530866
 30
0.0
 11
674.5637587203421
 21
446.824656530866
 31
0.0
  0
LINE
  5
EE7
330
1F
100
AcDbEntity
  8
0
 62
     7
 48
0.2775871276855469
100
AcDbLine
 10
646.9541700972952
 20
453.8246565308661
 30
0.0
 11
658.0576552047171
 21
453.8246565308661
 31
0.0
  0
LINE
  5
EE8
330
1F
100
AcDbEntity
  8
0
 62
     7
 48
0.0300289154052734
100
AcDbLine
 10
643.0517042769827
 20
453.8246565308661
 30
0.0
 11
644.2528608931938
 21
453.8246565308661
 31
0.0
  0
LINE
  5
EE9
330
1F
100
AcDbEntity
  8
0
 62
     7
 48
0.0300289154052734
100
AcDbLine
 10
677.2650679244435
 20
453.8246565308661
 30
0.0
 11
678.4662245406543
 21
453.8246565308661
 31
0.0
  0
LINE
  5
EEA
330
1F
100
AcDbEntity
  8
0
 62
     7
 48
0.2775871276855469
100
AcDbLine
 10
663.4602736129202
 20
453.8246565308661
 30
0.0
 11
674.5637587203421
 21
453.8246565308661
 31
0.0
  0
LINE
  5
EEB
330
1F
100
AcDbEntity
  8
0
 62
     7
 48
0.0728868986855663
100
AcDbLine
 10
678.4662245406543
 20
446.824656530866
 30
0.0
 11
680.9662245406546
 21
448.3246565308659
 31
0.0
  0
LINE
  5
EEC
330
1F
100
AcDbEntity
  8
0
 62
     7
 48
0.0728868986855663
100
AcDbLine
 10
678.4662245406543
 20
453.8246565308661
 30
0.0
 11
680.9662245406546
 21
452.3246565308659
 31
0.0
  0
LINE
  5
EED
330
1F
100
AcDbEntity
  8
0
 62
     7
 48
0.0728868986855663
100
AcDbLine
 10
643.0517042769827
 20
453.8246565308661
 30
0.0
 11
640.5517042769827
 21
452.3246565308659
 31
0.0
  0
LINE
  5
EEE
330
1F
100
AcDbEntity
  8
0
 62
     7
 48
0.0728868986855663
100
AcDbLine
 10
643.0517042769827
 20
446.824656530866
 30
0.0
 11
640.5517042769827
 21
448.3246565308659
 31
0.0
  0
DIMENSION
  5
FCB
102
{ACAD_XDICTIONARY
360
FD8
102
}
102
{ACAD_REACTORS
330
FD9
102
}
330
1F
100
AcDbEntity
  8
AM_5
100
AcDbDimension
  2
*D18
 10
896.7217647138362
 20
1164.997875673352
 30
0.0
 11
896.7217647138358
 21
794.0231186795329
 31
0.0
 70
   160
  1
(<>)
 71
     5
 42
718.1732191424855
  3
AM_DIN$0
100
AcDbAlignedDimension
 13
669.012016166631
 23
446.824656530866
 33
0.0
 14
676.7089614088185
 24
1164.997875673352
 34
0.0
 50
90.00000000000005
100
AcDbRotatedDimension
1001
ACAD
1000
DSTYLE
1002
{
1070
    40
1040
2.0
1070
   271
1070
     0
1002
}
  0
DIMENSION
  5
FE3
102
{ACAD_XDICTIONARY
360
FF0
102
}
102
{ACAD_REACTORS
330
FF1
102
}
330
1F
100
AcDbEntity
  8
AM_5
100
AcDbDimension
  2
*D19
 10
869.7589654088186
 20
604.824656530866
 30
0.0
 11
862.9089654088184
 21
526.0452337708565
 31
0.0
 70
    32
  1
(<>)
 71
     5
 42
157.5588455200195
  3
AM_DIN$0
100
AcDbAlignedDimension
 13
666.5493086470998
 23
447.2658110108466
 33
0.0
 14
769.1303507051054
 24
604.824656530866
 34
0.0
 50
90.00000000000005
100
AcDbRotatedDimension
1001
ACAD
1000
DSTYLE
1002
{
1070
    40
1040
2.0
1070
   271
1070
     0
1002
}
  0
DIMENSION
  5
11D0
102
{ACAD_XDICTIONARY
360
11DD
102
}
102
{ACAD_REACTORS
330
11DE
102
}
330
1F
100
AcDbEntity
  8
AM_5
100
AcDbDimension
  2
*D21
 10
1075.758964408819
 20
739.4645449437073
 30
0.0
 11
1260.758964408818
 21
739.4645449437073
 31
0.0
 70
   160
  1
(<>)
 71
     5
 42
369.9999999999989
  3
AM_DIN$0
100
AcDbAlignedDimension
 13
1445.758964408818
 23
623.0400930955544
 33
0.0
 14
1075.758964408819
 24
617.8075328352039
 34
0.0
 50
360.0
100
AcDbRotatedDimension
1001
ACAD
1000
DSTYLE
1002
{
1070
    40
1040
2.0
1070
   271
1070
     0
1002
}
  0
ENDSEC
  0
SECTION
  2
OBJECTS
  0
DICTIONARY
  5
C
330
0
100
AcDbDictionary
281
     1
  3
ACAD_COLOR
350
BE
  3
ACAD_GROUP
350
D
  3
ACAD_LAYOUT
350
1A
  3
ACAD_MATERIAL
350
BD
  3
ACAD_MLINESTYLE
350
17
  3
ACAD_PLOTSETTINGS
350
19
  3
ACAD_PLOTSTYLENAME
350
E
  3
ACAD_TABLESTYLE
350
11A
  3
ACAD_VISUALSTYLE
350
258
  3
AcDbVariableDictionary
350
94
  3
AcmDictionary
350
5B
  3
AMG
350
41
  3
AMGSNAPSETTINGS
350
1B3
  0
DICTIONARY
  5
5B8
330
2
100
AcDbDictionary
280
     1
281
     1
  3
ACAD_LAYERSTATES
360
5B9
  0
DICTIONARY
  5
8F
330
1F
100
AcDbDictionary
280
     1
281
     1
  0
DICTIONARY
  5
2C9
330
2C8
100
AcDbDictionary
280
     1
281
     1
  0
DICTIONARY
  5
FD8
330
FCB
100
AcDbDictionary
280
     1
281
     1
  3
ACAD_DIMASSOC
360
FD9
  0
DICTIONARY
  5
FF0
330
FE3
100
AcDbDictionary
280
     1
281
     1
  3
ACAD_DIMASSOC
360
FF1
  0
DICTIONARY
  5
11DD
330
11D0
100
AcDbDictionary
280
     1
281
     1
  3
ACAD_DIMASSOC
360
11DE
  0
DICTIONARY
  5
BE
102
{ACAD_REACTORS
330
C
102
}
330
C
100
AcDbDictionary
281
     1
  0
DICTIONARY
  5
D
102
{ACAD_REACTORS
330
C
102
}
330
C
100
AcDbDictionary
281
     1
  0
DICTIONARY
  5
1A
102
{ACAD_REACTORS
330
C
102
}
330
C
100
AcDbDictionary
281
     1
  3
Layout1
350
1E
  3
Layout2
350
26
  3
Model
350
22
  0
DICTIONARY
  5
BD
102
{ACAD_REACTORS
330
C
102
}
330
C
100
AcDbDictionary
281
     1
  3
ByBlock
350
256
  3
ByLayer
350
255
  3
Global
350
257
  0
DICTIONARY
  5
17
102
{ACAD_REACTORS
330
C
102
}
330
C
100
AcDbDictionary
281
     1
  3
Standard
350
18
  0
DICTIONARY
  5
19
102
{ACAD_REACTORS
330
C
102
}
330
C
100
AcDbDictionary
281
     1
  0
ACDBDICTIONARYWDFLT
  5
E
102
{ACAD_REACTORS
330
C
102
}
330
C
100
AcDbDictionary
281
     1
  3
Normal
350
F
100
AcDbDictionaryWithDefault
340
F
  0
DICTIONARY
  5
11A
102
{ACAD_REACTORS
330
C
102
}
330
C
100
AcDbDictionary
281
     1
  3
Standard
350
11B
  0
DICTIONARY
  5
258
102
{ACAD_REACTORS
330
C
102
}
330
C
100
AcDbDictionary
281
     1
  3
2dWireframe
350
25E
  3
3D Hidden
350
260
  3
3dWireframe
350
25F
  3
Basic
350
25D
  3
Brighten
350
264
  3
ColorChange
350
268
  3
Conceptual
350
261
  3
Dim
350
263
  3
Facepattern
350
267
  3
Flat
350
259
  3
FlatWithEdges
350
25A
  3
Gouraud
350
25B
  3
GouraudWithEdges
350
25C
  3
Linepattern
350
266
  3
Realistic
350
262
  3
Thicken
350
265
  0
DICTIONARY
  5
94
102
{ACAD_REACTORS
330
C
102
}
330
C
100
AcDbDictionary
281
     1
  3
CTABLESTYLE
350
138
  3
DIMASSOC
350
96
  3
INDEXCTL
350
95
  0
DICTIONARY
  5
5B
102
{ACAD_REACTORS
330
C
102
}
330
C
100
AcDbDictionary
281
     1
  3
AcmBOM
350
1B0
  3
AcmStdDictionary
350
61
  3
AMDTSECTSYM_ARROWCOLOR
350
123
  0
DICTIONARY
  5
41
102
{ACAD_REACTORS
330
C
102
}
330
C
100
AcDbDictionary
281
     1
  0
DICTIONARY
  5
1B3
102
{ACAD_REACTORS
330
C
102
}
330
C
100
AcDbDictionary
281
     1
  0
DICTIONARY
  5
5B9
102
{ACAD_REACTORS
330
5B8
102
}
330
5B8
100
AcDbDictionary
281
     1
  0
DIMASSOC
  5
FD9
102
{ACAD_REACTORS
330
FD8
102
}
330
FD8
100
AcDbDimAssoc
330
FCB
 90
        1
 70
     0
 71
     0
  1
AcDbOsnapPointRef
 72
     2
331
EE6
 73
     0
 91
        0
 40
0.0
 10
0.0
 20
0.0
 30
0.0
 75
     0
  0
DIMASSOC
  5
FF1
102
{ACAD_REACTORS
330
FF0
102
}
330
FF0
100
AcDbDimAssoc
330
FE3
 90
        3
 70
     0
 71
     0
  1
AcDbOsnapPointRef
 72
     2
331
E94
331
E97
 73
     0
 91
        0
 40
0.0
 10
0.0
 20
0.0
 30
0.0
 75
     0
  1
AcDbOsnapPointRef
 72
    10
331
7D2
 73
     0
 91
        0
 40
0.772034918784328
 10
0.0
 20
0.0
 30
0.0
 75
     0
  0
DIMASSOC
  5
11DE
102
{ACAD_REACTORS
330
11DD
102
}
330
11DD
100
AcDbDimAssoc
330
11D0
 90
        3
 70
     0
 71
     0
  1
AcDbOsnapPointRef
 72
    10
331
8A2
 73
     0
 91
        0
 40
0.2914389948819811
 10
0.0
 20
0.0
 30
0.0
 75
     0
  1
AcDbOsnapPointRef
 72
    10
331
8A9
 73
     0
 91
        0
 40
0.350297940442729
 10
0.0
 20
0.0
 30
0.0
 75
     0
  0
LAYOUT
  5
1E
102
{ACAD_REACTORS
330
1A
102
}
330
1A
100
AcDbPlotSettings
  1

  2

  4

  6

 40
0.0
 41
0.0
 42
0.0
 43
0.0
 44
0.0
 45
0.0
 46
0.0
 47
0.0
 48
0.0
 49
0.0
140
0.0
141
0.0
142
1.0
143
1.0
 70
   688
 72
     0
 73
     0
 74
     5
  7
monochrome.ctb
 75
    16
147
1.0
 76
     0
 77
     2
 78
   300
148
0.0
149
0.0
100
AcDbLayout
  1
Layout1
 70
     1
 71
     1
 10
0.0
 20
0.0
 11
420.0
 21
297.0
 12
0.0
 22
0.0
 32
0.0
 14
1.000000000000000E+20
 24
1.000000000000000E+20
 34
1.000000000000000E+20
 15
-1.000000000000000E+20
 25
-1.000000000000000E+20
 35
-1.000000000000000E+20
146
0.0
 13
0.0
 23
0.0
 33
0.0
 16
1.0
 26
0.0
 36
0.0
 17
0.0
 27
1.0
 37
0.0
 76
     0
330
1B
  0
LAYOUT
  5
26
102
{ACAD_REACTORS
330
1A
102
}
330
1A
100
AcDbPlotSettings
  1

  2

  4

  6

 40
0.0
 41
0.0
 42
0.0
 43
0.0
 44
0.0
 45
0.0
 46
0.0
 47
0.0
 48
0.0
 49
0.0
140
0.0
141
0.0
142
1.0
143
1.0
 70
   688
 72
     0
 73
     0
 74
     5
  7
monochrome.ctb
 75
    16
147
1.0
 76
     0
 77
     2
 78
   300
148
0.0
149
0.0
100
AcDbLayout
  1
Layout2
 70
     1
 71
     2
 10
0.0
 20
0.0
 11
12.0
 21
9.0
 12
0.0
 22
0.0
 32
0.0
 14
0.0
 24
0.0
 34
0.0
 15
0.0
 25
0.0
 35
0.0
146
0.0
 13
0.0
 23
0.0
 33
0.0
 16
1.0
 26
0.0
 36
0.0
 17
0.0
 27
1.0
 37
0.0
 76
     0
330
23
  0
LAYOUT
  5
22
102
{ACAD_REACTORS
330
1A
102
}
330
1A
100
AcDbPlotSettings
  1

  2
none_device
  4
ISO_A4_(210.00_x_297.00_MM)
  6

 40
7.5
 41
20.0
 42
7.5
 43
20.0
 44
210.0
 45
297.0
 46
0.0
 47
0.0
 48
0.0
 49
0.0
140
0.0
141
0.0
142
1.0
143
8.492557909456538
 70
 11952
 72
     1
 73
     1
 74
     0
  7
monochrome.ctb
 75
     0
147
0.1177501538007166
 76
     0
 77
     2
 78
   300
148
83.60131947010406
149
-20.09281973738689
100
AcDbLayout
  1
Model
 70
     1
 71
     0
 10
0.0
 20
0.0
 11
12.0
 21
9.0
 12
0.0
 22
0.0
 32
0.0
 14
0.0
 24
0.0
 34
0.0
 15
0.0
 25
0.0
 35
0.0
146
0.0
 13
0.0
 23
0.0
 33
0.0
 16
1.0
 26
0.0
 36
0.0
 17
0.0
 27
1.0
 37
0.0
 76
     0
330
1F
331
253
1001
ACAD_PSEXT
1000
Kein
1000
Kein
1000
Nicht anwendbar
1000
Das Layout wird erst geplottet, wenn ein neuer Plotter-Konfigurationsname ausgewählt wird.
1070
     0
  0
MATERIAL
  5
256
102
{ACAD_XDICTIONARY
360
1040
102
}
102
{ACAD_REACTORS
330
BD
102
}
330
BD
100
AcDbMaterial
  1
ByBlock
  0
MATERIAL
  5
255
102
{ACAD_XDICTIONARY
360
103E
102
}
102
{ACAD_REACTORS
330
BD
102
}
330
BD
100
AcDbMaterial
  1
ByLayer
  0
MATERIAL
  5
257
102
{ACAD_XDICTIONARY
360
1042
102
}
102
{ACAD_REACTORS
330
BD
102
}
330
BD
100
AcDbMaterial
  1
Global
  0
MLINESTYLE
  5
18
102
{ACAD_REACTORS
330
17
102
}
330
17
100
AcDbMlineStyle
  2
STANDARD
 70
     0
  3

 62
   256
 51
90.0
 52
90.0
 71
     2
 49
0.5
 62
   256
  6
BYLAYER
 49
-0.5
 62
   256
  6
BYLAYER
  0
ACDBPLACEHOLDER
  5
F
102
{ACAD_REACTORS
330
E
102
}
330
E
  0
TABLESTYLE
  5
11B
102
{ACAD_XDICTIONARY
360
120B
102
}
102
{ACAD_REACTORS
330
11A
102
}
330
11A
100
AcDbTableStyle
  3
Standard
 70
     0
 71
     0
 40
1.5
 41
1.5
280
     0
281
     0
  7
Standard
140
4.5
170
     2
 62
     0
 63
     7
283
     0
274
    -2
284
     1
 64
     0
275
    -2
285
     1
 65
     0
276
    -2
286
     1
 66
     0
277
    -2
287
     1
 67
     0
278
    -2
288
     1
 68
     0
279
    -2
289
     1
 69
     0
  7
Standard
140
6.0
170
     5
 62
     0
 63
     7
283
     0
274
    -2
284
     1
 64
     0
275
    -2
285
     1
 65
     0
276
    -2
286
     1
 66
     0
277
    -2
287
     1
 67
     0
278
    -2
288
     1
 68
     0
279
    -2
289
     1
 69
     0
  7
Standard
140
4.5
170
     5
 62
     0
 63
     7
283
     0
274
    -2
284
     1
 64
     0
275
    -2
285
     1
 65
     0
276
    -2
286
     1
 66
     0
277
    -2
287
     1
 67
     0
278
    -2
288
     1
 68
     0
279
    -2
289
     1
 69
     0
  0
VISUALSTYLE
  5
25E
102
{ACAD_REACTORS
330
258
102
}
330
258
100
AcDbVisualStyle
  2
2dWireframe
 70
     4
 71
     0
 72
     2
 73
     0
 90
        0
 40
-0.6
 41
-30.0
 62
     5
 63
     7
421
 16777215
 74
     1
 91
        4
 64
     7
 65
   257
 75
     1
175
     1
 42
1.0
 92
        0
 66
   257
 43
1.0
 76
     1
 77
     6
 78
     2
 67
     7
 79
     5
170
     0
171
     0
290
     0
174
     0
 93
        1
 44
0.0
173
     0
291
     0
 45
0.0
1001
ACAD
1000
AcDbSavedByObjectVersion
1070
     0
1000
AcDbSavedByObjectVersion
1070
     0
1000
AcDbSavedByObjectVersion
1070
     0
  0
VISUALSTYLE
  5
260
102
{ACAD_REACTORS
330
258
102
}
330
258
100
AcDbVisualStyle
  2
3D Hidden
 70
     6
 71
     1
 72
     2
 73
     2
 90
        0
 40
-0.6
 41
-30.0
 62
     5
 63
     7
421
 16777215
 74
     2
 91
        2
 64
     7
 65
   257
 75
     2
175
     1
 42
40.0
 92
        0
 66
   257
 43
1.0
 76
     1
 77
     6
 78
     2
 67
     7
 79
     3
170
     0
171
     0
290
     0
174
     0
 93
        1
 44
0.0
173
     0
291
     0
 45
0.0
1001
ACAD
1000
AcDbSavedByObjectVersion
1070
     0
1000
AcDbSavedByObjectVersion
1070
     0
1000
AcDbSavedByObjectVersion
1070
     0
  0
VISUALSTYLE
  5
25F
102
{ACAD_REACTORS
330
258
102
}
330
258
100
AcDbVisualStyle
  2
3dWireframe
 70
     5
 71
     0
 72
     2
 73
     0
 90
        0
 40
-0.6
 41
-30.0
 62
     5
 63
     7
421
 16777215
 74
     1
 91
        4
 64
     7
 65
   257
 75
     1
175
     1
 42
1.0
 92
        0
 66
   257
 43
1.0
 76
     1
 77
     6
 78
     2
 67
     7
 79
     5
170
     0
171
     0
290
     0
174
     0
 93
        1
 44
0.0
173
     0
291
     0
 45
0.0
1001
ACAD
1000
AcDbSavedByObjectVersion
1070
     0
1000
AcDbSavedByObjectVersion
1070
     0
1000
AcDbSavedByObjectVersion
1070
     0
  0
VISUALSTYLE
  5
25D
102
{ACAD_REACTORS
330
258
102
}
330
258
100
AcDbVisualStyle
  2
Basic
 70
     7
 71
     1
 72
     0
 73
     1
 90
        0
 40
-0.6
 41
-30.0
 62
     5
 63
     7
421
 16777215
 74
     0
 91
        4
 64
     7
 65
   257
 75
     1
175
     1
 42
1.0
 92
        8
 66
     7
 43
1.0
 76
     1
 77
     6
 78
     2
 67
     7
 79
     5
170
     0
171
     0
290
     0
174
     0
 93
        1
 44
0.0
173
     0
291
     1
 45
0.0
1001
ACAD
1000
AcDbSavedByObjectVersion
1070
     0
1000
AcDbSavedByObjectVersion
1070
     0
1000
AcDbSavedByObjectVersion
1070
     0
  0
VISUALSTYLE
  5
264
102
{ACAD_REACTORS
330
258
102
}
330
258
100
AcDbVisualStyle
  2
Brighten
 70
    12
 71
     2
 72
     2
 73
     0
 90
        0
 40
-0.6
 41
-30.0
 62
     5
 63
     7
421
 16777215
 74
     1
 91
        4
 64
     7
 65
   257
 75
     1
175
     1
 42
1.0
 92
        8
 66
     7
 43
1.0
 76
     1
 77
     6
 78
     2
 67
     7
 79
     5
170
     0
171
     0
290
     0
174
     0
 93
        1
 44
50.0
173
     0
291
     1
 45
0.0
1001
ACAD
1000
AcDbSavedByObjectVersion
1070
     0
1000
AcDbSavedByObjectVersion
1070
     0
1000
AcDbSavedByObjectVersion
1070
     0
  0
VISUALSTYLE
  5
268
102
{ACAD_REACTORS
330
258
102
}
330
258
100
AcDbVisualStyle
  2
ColorChange
 70
    16
 71
     2
 72
     2
 73
     3
 90
        0
 40
-0.6
 41
-30.0
 62
     5
 63
     8
421
  8421504
 74
     1
 91
        4
 64
     7
 65
   257
 75
     1
175
     1
 42
1.0
 92
        8
 66
     8
424
  8421504
 43
1.0
 76
     1
 77
     6
 78
     2
 67
     7
 79
     5
170
     0
171
     0
290
     0
174
     0
 93
        1
 44
0.0
173
     0
291
     1
 45
0.0
1001
ACAD
1000
AcDbSavedByObjectVersion
1070
     0
1000
AcDbSavedByObjectVersion
1070
     0
1000
AcDbSavedByObjectVersion
1070
     0
  0
VISUALSTYLE
  5
261
102
{ACAD_REACTORS
330
258
102
}
330
258
100
AcDbVisualStyle
  2
Conceptual
 70
     9
 71
     3
 72
     2
 73
     0
 90
        0
 40
-0.6
 41
-30.0
 62
     5
 63
     7
421
 16777215
 74
     2
 91
        2
 64
     7
 65
   257
 75
     1
175
     1
 42
40.0
 92
        8
 66
     7
 43
1.0
 76
     1
 77
     6
 78
     2
 67
     7
 79
     3
170
     0
171
     0
290
     0
174
     0
 93
        1
 44
0.0
173
     0
291
     0
 45
0.0
1001
ACAD
1000
AcDbSavedByObjectVersion
1070
     0
1000
AcDbSavedByObjectVersion
1070
     0
1000
AcDbSavedByObjectVersion
1070
     0
  0
VISUALSTYLE
  5
263
102
{ACAD_REACTORS
330
258
102
}
330
258
100
AcDbVisualStyle
  2
Dim
 70
    11
 71
     2
 72
     2
 73
     0
 90
        0
 40
-0.6
 41
-30.0
 62
     5
 63
     7
421
 16777215
 74
     1
 91
        4
 64
     7
 65
   257
 75
     1
175
     1
 42
1.0
 92
        8
 66
     7
 43
1.0
 76
     1
 77
     6
 78
     2
 67
     7
 79
     5
170
     0
171
     0
290
     0
174
     0
 93
        1
 44
-50.0
173
     0
291
     1
 45
0.0
1001
ACAD
1000
AcDbSavedByObjectVersion
1070
     0
1000
AcDbSavedByObjectVersion
1070
     0
1000
AcDbSavedByObjectVersion
1070
     0
  0
VISUALSTYLE
  5
267
102
{ACAD_REACTORS
330
258
102
}
330
258
100
AcDbVisualStyle
  2
Facepattern
 70
    15
 71
     2
 72
     2
 73
     0
 90
        0
 40
-0.6
 41
-30.0
 62
     5
 63
     7
421
 16777215
 74
     1
 91
        4
 64
     7
 65
   257
 75
     1
175
     1
 42
1.0
 92
        8
 66
     7
 43
1.0
 76
     1
 77
     6
 78
     2
 67
     7
 79
     5
170
     0
171
     0
290
     0
174
     0
 93
        1
 44
0.0
173
     0
291
     1
 45
0.0
1001
ACAD
1000
AcDbSavedByObjectVersion
1070
     0
1000
AcDbSavedByObjectVersion
1070
     0
1000
AcDbSavedByObjectVersion
1070
     0
  0
VISUALSTYLE
  5
259
102
{ACAD_REACTORS
330
258
102
}
330
258
100
AcDbVisualStyle
  2
Flat
 70
     0
 71
     2
 72
     1
 73
     1
 90
        2
 40
-0.6
 41
30.0
 62
     5
 63
     7
421
 16777215
 74
     0
 91
        4
 64
     7
 65
   257
 75
     1
175
     1
 42
1.0
 92
        8
 66
     7
 43
1.0
 76
     1
 77
     6
 78
     2
 67
     7
 79
     5
170
     0
171
     0
290
     0
174
     0
 93
       13
 44
0.0
173
     0
291
     1
 45
0.0
1001
ACAD
1000
AcDbSavedByObjectVersion
1070
     0
1000
AcDbSavedByObjectVersion
1070
     0
1000
AcDbSavedByObjectVersion
1070
     0
  0
VISUALSTYLE
  5
25A
102
{ACAD_REACTORS
330
258
102
}
330
258
100
AcDbVisualStyle
  2
FlatWithEdges
 70
     1
 71
     2
 72
     1
 73
     1
 90
        2
 40
-0.6
 41
30.0
 62
     5
 63
     7
421
 16777215
 74
     1
 91
        4
 64
     7
 65
   257
 75
     1
175
     1
 42
1.0
 92
        0
 66
   257
 43
1.0
 76
     1
 77
     6
 78
     2
 67
     7
 79
     5
170
     0
171
     0
290
     0
174
     0
 93
       13
 44
0.0
173
     0
291
     1
 45
0.0
1001
ACAD
1000
AcDbSavedByObjectVersion
1070
     0
1000
AcDbSavedByObjectVersion
1070
     0
1000
AcDbSavedByObjectVersion
1070
     0
  0
VISUALSTYLE
  5
25B
102
{ACAD_REACTORS
330
258
102
}
330
258
100
AcDbVisualStyle
  2
Gouraud
 70
     2
 71
     2
 72
     2
 73
     1
 90
        2
 40
-0.6
 41
30.0
 62
     5
 63
     7
421
 16777215
 74
     0
 91
        4
 64
     7
 65
   257
 75
     1
175
     1
 42
1.0
 92
        0
 66
     7
 43
1.0
 76
     1
 77
     6
 78
     2
 67
     7
 79
     5
170
     0
171
     0
290
     0
174
     0
 93
       13
 44
0.0
173
     0
291
     1
 45
0.0
1001
ACAD
1000
AcDbSavedByObjectVersion
1070
     0
1000
AcDbSavedByObjectVersion
1070
     0
1000
AcDbSavedByObjectVersion
1070
     0
  0
VISUALSTYLE
  5
25C
102
{ACAD_REACTORS
330
258
102
}
330
258
100
AcDbVisualStyle
  2
GouraudWithEdges
 70
     3
 71
     2
 72
     2
 73
     1
 90
        2
 40
-0.6
 41
30.0
 62
     5
 63
     7
421
 16777215
 74
     1
 91
        4
 64
     7
 65
   257
 75
     1
175
     1
 42
1.0
 92
        0
 66
   257
 43
1.0
 76
     1
 77
     6
 78
     2
 67
     7
 79
     5
170
     0
171
     0
290
     0
174
     0
 93
       13
 44
0.0
173
     0
291
     1
 45
0.0
1001
ACAD
1000
AcDbSavedByObjectVersion
1070
     0
1000
AcDbSavedByObjectVersion
1070
     0
1000
AcDbSavedByObjectVersion
1070
     0
  0
VISUALSTYLE
  5
266
102
{ACAD_REACTORS
330
258
102
}
330
258
100
AcDbVisualStyle
  2
Linepattern
 70
    14
 71
     2
 72
     2
 73
     0
 90
        0
 40
-0.6
 41
-30.0
 62
     5
 63
     7
421
 16777215
 74
     1
 91
        4
 64
     7
 65
   257
 75
     7
175
     7
 42
1.0
 92
        8
 66
     7
 43
1.0
 76
     1
 77
     6
 78
     2
 67
     7
 79
     5
170
     0
171
     0
290
     0
174
     0
 93
        1
 44
0.0
173
     0
291
     1
 45
0.0
1001
ACAD
1000
AcDbSavedByObjectVersion
1070
     0
1000
AcDbSavedByObjectVersion
1070
     0
1000
AcDbSavedByObjectVersion
1070
     0
  0
VISUALSTYLE
  5
262
102
{ACAD_REACTORS
330
258
102
}
330
258
100
AcDbVisualStyle
  2
Realistic
 70
     8
 71
     2
 72
     2
 73
     0
 90
        0
 40
-0.6
 41
-30.0
 62
     5
 63
     7
421
 16777215
 74
     1
 91
        0
 64
     7
 65
   257
 75
     1
175
     1
 42
1.0
 92
        8
 66
     8
424
  7895160
 43
1.0
 76
     1
 77
     6
 78
     2
 67
     7
 79
     5
170
     0
171
     0
290
     0
174
     0
 93
       13
 44
0.0
173
     0
291
     0
 45
0.0
1001
ACAD
1000
AcDbSavedByObjectVersion
1070
     0
1000
AcDbSavedByObjectVersion
1070
     0
1000
AcDbSavedByObjectVersion
1070
     0
  0
VISUALSTYLE
  5
265
102
{ACAD_REACTORS
330
258
102
}
330
258
100
AcDbVisualStyle
  2
Thicken
 70
    13
 71
     2
 72
     2
 73
     0
 90
        0
 40
-0.6
 41
-30.0
 62
     5
 63
     7
421
 16777215
 74
     1
 91
        4
 64
     7
 65
   257
 75
     1
175
     1
 42
1.0
 92
       12
 66
     7
 43
1.0
 76
     1
 77
     6
 78
     2
 67
     7
 79
     5
170
     0
171
     0
290
     0
174
     0
 93
        1
 44
0.0
173
     0
291
     1
 45
0.0
1001
ACAD
1000
AcDbSavedByObjectVersion
1070
     0
1000
AcDbSavedByObjectVersion
1070
     0
1000
AcDbSavedByObjectVersion
1070
     0
  0
DICTIONARYVAR
  5
138
102
{ACAD_REACTORS
330
94
102
}
330
94
100
DictionaryVariables
280
     0
  1
STANDARD
  0
DICTIONARYVAR
  5
96
102
{ACAD_REACTORS
330
94
102
}
330
94
100
DictionaryVariables
280
     0
  1
2
  0
DICTIONARYVAR
  5
95
102
{ACAD_REACTORS
330
94
102
}
330
94
100
DictionaryVariables
280
     0
  1
1
  0
DICTIONARY
  5
1B0
102
{ACAD_REACTORS
330
5B
102
}
330
5B
100
AcDbDictionary
281
     1
  0
DICTIONARY
  5
61
102
{ACAD_REACTORS
330
5B
102
}
330
5B
100
AcDbDictionary
281
     1
  0
XRECORD
  5
123
102
{ACAD_REACTORS
330
5B
102
}
330
5B
100
AcDbXrecord
280
     1
 90
-1023410169
  0
DICTIONARY
  5
1040
330
256
100
AcDbDictionary
280
     1
281
     1
  3
ACAD_XREC_ROUNDTRIP
360
1041
  0
DICTIONARY
  5
103E
330
255
100
AcDbDictionary
280
     1
281
     1
  3
ACAD_XREC_ROUNDTRIP
360
103F
  0
DICTIONARY
  5
1042
330
257
100
AcDbDictionary
280
     1
281
     1
  3
ACAD_XREC_ROUNDTRIP
360
1043
  0
DICTIONARY
  5
120B
330
11B
100
AcDbDictionary
280
     1
281
     1
  3
ACAD_XREC_ROUNDTRIP
360
120C
  0
XRECORD
  5
1041
102
{ACAD_REACTORS
330
1040
102
}
330
1040
100
AcDbXrecord
280
     1
102
MATERIAL
148
0.0
149
0.0
149
0.0
 93
        0
 94
       63
282
     0
 72
     1
 77
     1
171
     1
175
     1
179
     1
273
     0
  0
XRECORD
  5
103F
102
{ACAD_REACTORS
330
103E
102
}
330
103E
100
AcDbXrecord
280
     1
102
MATERIAL
148
0.0
149
0.0
149
0.0
 93
        0
 94
       63
282
     0
 72
     1
 77
     1
171
     1
175
     1
179
     1
273
     0
  0
XRECORD
  5
1043
102
{ACAD_REACTORS
330
1042
102
}
330
1042
100
AcDbXrecord
280
     1
102
MATERIAL
148
0.0
149
0.0
149
0.0
 93
        0
 94
       63
282
     0
 72
     1
 77
     1
171
     1
175
     1
179
     1
273
     0
  0
XRECORD
  5
120C
102
{ACAD_REACTORS
330
120B
102
}
330
120B
100
AcDbXrecord
280
     1
102
ACAD_ROUNDTRIP_PRE2007_TABLESTYLE
 90
        4
 91
        0
  1

 92
        4
 93
        0
  2

 94
        4
 95
        0
  3

  0
ENDSEC
  0
EOF
