  0
SECTION
  2
HEADER
  9
$ACADVER
  1
AC1018
  9
$ACADMAINTVER
 70
   104
  9
$DWGCODEPAGE
  3
ANSI_1252
  9
$LASTSAVEDBY
  1
Siekaup
  9
$CUSTOMPROPERTYTAG
  1
AmdtFileType
  9
$CUSTOMPROPERTY
  1
84
  9
$INSBASE
 10
0.0
 20
0.0
 30
0.0
  9
$EXTMIN
 10
70.44711204198875
 20
34.22312965697162
 30
-0.0000000000000022
  9
$EXTMAX
 10
1555.553636929158
 20
1084.328430966423
 30
0.0000000000000132
  9
$LIMMIN
 10
70.50575412068781
 20
34.28020356186062
  9
$LIMMAX
 10
1555.505754120688
 20
1084.28020356186
  9
$ORTHOMODE
 70
     0
  9
$REGENMODE
 70
     1
  9
$FILLMODE
 70
     1
  9
$QTEXTMODE
 70
     0
  9
$MIRRTEXT
 70
     1
  9
$LTSCALE
 40
2.5
  9
$ATTMODE
 70
     1
  9
$TEXTSIZE
 40
2.5
  9
$TRACEWID
 40
1.0
  9
$TEXTSTYLE
  7
Standard
  9
$CLAYER
  8
0
  9
$CELTYPE
  6
ByLayer
  9
$CECOLOR
 62
   256
  9
$CELTSCALE
 40
1.0
  9
$DISPSILH
 70
     0
  9
$DIMSCALE
 40
1.0
  9
$DIMASZ
 40
2.5
  9
$DIMEXO
 40
1.0
  9
$DIMDLI
 40
10.0
  9
$DIMRND
 40
0.0
  9
$DIMDLE
 40
0.0
  9
$DIMEXE
 40
1.0
  9
$DIMTP
 40
0.1
  9
$DIMTM
 40
0.1
  9
$DIMTXT
 40
3.5
  9
$DIMCEN
 40
0.0
  9
$DIMTSZ
 40
0.0
  9
$DIMTOL
 70
     0
  9
$DIMLIM
 70
     0
  9
$DIMTIH
 70
     0
  9
$DIMTOH
 70
     0
  9
$DIMSE1
 70
     0
  9
$DIMSE2
 70
     0
  9
$DIMTAD
 70
     1
  9
$DIMZIN
 70
     8
  9
$DIMBLK
  1

  9
$DIMASO
 70
     1
  9
$DIMSHO
 70
     1
  9
$DIMPOST
  1

  9
$DIMAPOST
  1
"
  9
$DIMALT
 70
     0
  9
$DIMALTD
 70
     2
  9
$DIMALTF
 40
0.0393701
  9
$DIMLFAC
 40
1.0
  9
$DIMTOFL
 70
     1
  9
$DIMTVP
 40
0.0
  9
$DIMTIX
 70
     0
  9
$DIMSOXD
 70
     0
  9
$DIMSAH
 70
     0
  9
$DIMBLK1
  1

  9
$DIMBLK2
  1

  9
$DIMSTYLE
  2
AM_DIN
  9
$DIMCLRD
 70
   256
  9
$DIMCLRE
 70
   256
  9
$DIMCLRT
 70
     2
  9
$DIMTFAC
 40
0.71
  9
$DIMGAP
 40
1.5
  9
$DIMJUST
 70
     0
  9
$DIMSD1
 70
     0
  9
$DIMSD2
 70
     0
  9
$DIMTOLJ
 70
     0
  9
$DIMTZIN
 70
     8
  9
$DIMALTZ
 70
     0
  9
$DIMALTTZ
 70
     0
  9
$DIMUPT
 70
     0
  9
$DIMDEC
 70
     0
  9
$DIMTDEC
 70
     3
  9
$DIMALTU
 70
     2
  9
$DIMALTTD
 70
     4
  9
$DIMTXSTY
  7
Standard
  9
$DIMAUNIT
 70
     0
  9
$DIMADEC
 70
     0
  9
$DIMALTRND
 40
0.0
  9
$DIMAZIN
 70
     2
  9
$DIMDSEP
 70
    46
  9
$DIMATFIT
 70
     3
  9
$DIMFRAC
 70
     0
  9
$DIMLDRBLK
  1

  9
$DIMLUNIT
 70
     2
  9
$DIMLWD
 70
    -1
  9
$DIMLWE
 70
    -1
  9
$DIMTMOVE
 70
     0
  9
$LUNITS
 70
     2
  9
$LUPREC
 70
     4
  9
$SKETCHINC
 40
1.0
  9
$FILLETRAD
 40
25.0
  9
$AUNITS
 70
     0
  9
$AUPREC
 70
     0
  9
$MENU
  1
.
  9
$ELEVATION
 40
0.0
  9
$PELEVATION
 40
0.0
  9
$THICKNESS
 40
0.0
  9
$LIMCHECK
 70
     0
  9
$CHAMFERA
 40
25.0
  9
$CHAMFERB
 40
25.0
  9
$CHAMFERC
 40
20.0
  9
$CHAMFERD
 40
0.0
  9
$SKPOLY
 70
     0
  9
$TDCREATE
 40
2456043.414471586
  9
$TDUCREATE
 40
2456043.331138253
  9
$TDUPDATE
 40
2456484.557788715
  9
$TDUUPDATE
 40
2456484.474455382
  9
$TDINDWG
 40
0.0885056829
  9
$TDUSRTIMER
 40
0.0884906481
  9
$USRTIMER
 70
     1
  9
$ANGBASE
 50
0.0
  9
$ANGDIR
 70
     0
  9
$PDMODE
 70
     0
  9
$PDSIZE
 40
0.0
  9
$PLINEWID
 40
0.0
  9
$SPLFRAME
 70
     0
  9
$SPLINETYPE
 70
     6
  9
$SPLINESEGS
 70
     8
  9
$HANDSEED
  5
209A
  9
$SURFTAB1
 70
     6
  9
$SURFTAB2
 70
     6
  9
$SURFTYPE
 70
     6
  9
$SURFU
 70
     6
  9
$SURFV
 70
     6
  9
$UCSBASE
  2

  9
$UCSNAME
  2

  9
$UCSORG
 10
0.0
 20
0.0
 30
0.0
  9
$UCSXDIR
 10
1.0
 20
0.0
 30
0.0
  9
$UCSYDIR
 10
0.0
 20
1.0
 30
0.0
  9
$UCSORTHOREF
  2

  9
$UCSORTHOVIEW
 70
     0
  9
$UCSORGTOP
 10
0.0
 20
0.0
 30
0.0
  9
$UCSORGBOTTOM
 10
0.0
 20
0.0
 30
0.0
  9
$UCSORGLEFT
 10
0.0
 20
0.0
 30
0.0
  9
$UCSORGRIGHT
 10
0.0
 20
0.0
 30
0.0
  9
$UCSORGFRONT
 10
0.0
 20
0.0
 30
0.0
  9
$UCSORGBACK
 10
0.0
 20
0.0
 30
0.0
  9
$PUCSBASE
  2

  9
$PUCSNAME
  2

  9
$PUCSORG
 10
0.0
 20
0.0
 30
0.0
  9
$PUCSXDIR
 10
1.0
 20
0.0
 30
0.0
  9
$PUCSYDIR
 10
0.0
 20
1.0
 30
0.0
  9
$PUCSORTHOREF
  2

  9
$PUCSORTHOVIEW
 70
     0
  9
$PUCSORGTOP
 10
0.0
 20
0.0
 30
0.0
  9
$PUCSORGBOTTOM
 10
0.0
 20
0.0
 30
0.0
  9
$PUCSORGLEFT
 10
0.0
 20
0.0
 30
0.0
  9
$PUCSORGRIGHT
 10
0.0
 20
0.0
 30
0.0
  9
$PUCSORGFRONT
 10
0.0
 20
0.0
 30
0.0
  9
$PUCSORGBACK
 10
0.0
 20
0.0
 30
0.0
  9
$USERI1
 70
     0
  9
$USERI2
 70
     0
  9
$USERI3
 70
     0
  9
$USERI4
 70
     0
  9
$USERI5
 70
     0
  9
$USERR1
 40
0.0
  9
$USERR2
 40
0.0
  9
$USERR3
 40
0.0
  9
$USERR4
 40
0.0
  9
$USERR5
 40
0.0
  9
$WORLDVIEW
 70
     1
  9
$SHADEDGE
 70
     3
  9
$SHADEDIF
 70
    70
  9
$TILEMODE
 70
     1
  9
$MAXACTVP
 70
    64
  9
$PINSBASE
 10
0.0
 20
0.0
 30
0.0
  9
$PLIMCHECK
 70
     0
  9
$PEXTMIN
 10
1.000000000000000E+20
 20
1.000000000000000E+20
 30
1.000000000000000E+20
  9
$PEXTMAX
 10
-1.000000000000000E+20
 20
-1.000000000000000E+20
 30
-1.000000000000000E+20
  9
$PLIMMIN
 10
0.0
 20
0.0
  9
$PLIMMAX
 10
420.0
 20
297.0
  9
$UNITMODE
 70
     0
  9
$VISRETAIN
 70
     1
  9
$PLINEGEN
 70
     0
  9
$PSLTSCALE
 70
     1
  9
$TREEDEPTH
 70
  3020
  9
$CMLSTYLE
  2
Standard
  9
$CMLJUST
 70
     0
  9
$CMLSCALE
 40
20.0
  9
$PROXYGRAPHICS
 70
     1
  9
$MEASUREMENT
 70
     1
  9
$CELWEIGHT
370
    -1
  9
$ENDCAPS
280
     0
  9
$JOINSTYLE
280
     0
  9
$LWDISPLAY
290
     0
  9
$INSUNITS
 70
     4
  9
$HYPERLINKBASE
  1

  9
$STYLESHEET
  1
monochrome.ctb
  9
$XEDIT
290
     1
  9
$CEPSNTYPE
380
     0
  9
$PSTYLEMODE
290
     1
  9
$FINGERPRINTGUID
  2
{E2305C56-D690-461B-8D6B-ED16D72C3FF5}
  9
$VERSIONGUID
  2
{E09DD665-F10A-4070-9451-8BCA1D5B9BF2}
  9
$EXTNAMES
290
     1
  9
$PSVPSCALE
 40
0.0
  9
$OLESTARTUP
290
     0
  9
$SORTENTS
280
   127
  9
$INDEXCTL
280
     0
  9
$HIDETEXT
280
     0
  9
$XCLIPFRAME
290
     0
  9
$HALOGAP
280
     0
  9
$OBSCOLOR
 70
   257
  9
$OBSLTYPE
280
     0
  9
$INTERSECTIONDISPLAY
280
     0
  9
$INTERSECTIONCOLOR
 70
   257
  9
$DIMASSOC
280
     2
  9
$PROJECTNAME
  1

  0
ENDSEC
  0
SECTION
  2
CLASSES
  0
CLASS
  1
ACDBDICTIONARYWDFLT
  2
AcDbDictionaryWithDefault
  3
ObjectDBX Classes
 90
        0
 91
        1
280
     0
281
     0
  0
CLASS
  1
ACME_DOCUMENT
  2
AcMeDbDoc
  3
AcMeServices
 90
        0
 91
        1
280
     0
281
     0
  0
CLASS
  1
AMGSETTINGSOBJ
  2
AmgSettingsObj
  3
"AcadM|Product Description: AutoCAD Mechanical|Company: Autodesk"
 90
        0
 91
        2
280
     0
281
     0
  0
CLASS
  1
ACMESCOPE
  2
AcMeScope
  3
AcMeServices
 90
        0
 91
        1
280
     0
281
     0
  0
CLASS
  1
ACMECOMMANDHISTORY
  2
AcMeCommandHistory
  3
AcMeServices
 90
        0
 91
        1
280
     0
281
     0
  0
CLASS
  1
ACIMSYSVARMAN
  2
AcImSysVarManager
  3
AcMeServices
 90
        0
 91
        5
280
     0
281
     0
  0
CLASS
  1
ACIMREALSYSVAR
  2
AcImRealSysVar
  3
AcMeServices
 90
        0
 91
        1
280
     0
281
     0
  0
CLASS
  1
ACIMINTSYSVAR
  2
AcImIntSysVar
  3
AcMeServices
 90
        0
 91
       28
280
     0
281
     0
  0
CLASS
  1
ACMEDRAWINGMAN
  2
AcMeDrawingMan
  3
AcMeServices
 90
        0
 91
        1
280
     0
281
     0
  0
CLASS
  1
ACMEVIEW
  2
AcMeView
  3
AcMeServices
 90
        0
 91
        1
280
     0
281
     0
  0
CLASS
  1
ACDBENTITYCACHE
  2
AcMeEntityCache
  3
AcMeServices
 90
        0
 91
        1
280
     0
281
     0
  0
CLASS
  1
GSMANAGER
  2
AcMeGSManager
  3
AcMeServices
 90
        0
 91
        1
280
     0
281
     0
  0
CLASS
  1
AMDTINTERNALREACTOR
  2
AmdtInternalReactor
  3
AcMeServices
 90
        0
 91
        2
280
     0
281
     0
  0
CLASS
  1
ACMESTATEMGR
  2
AcMeStateMgr
  3
AcMeServices
 90
        0
 91
        1
280
     0
281
     0
  0
CLASS
  1
ACGREFMASTER
  2
AcGrefMaster
  3
AcAttribServices
 90
        0
 91
        1
280
     0
281
     0
  0
CLASS
  1
ACME_DATABASE
  2
AcMeDbDatabase
  3
AcMeServices
 90
        0
 91
        1
280
     0
281
     0
  0
CLASS
  1
ACRFINSADJUSTERMGR
  2
AcRfInsAdjusterMgr
  3
AcMeServices
 90
        0
 91
        1
280
     0
281
     0
  0
CLASS
  1
ACGREFACADMASTER
  2
AcGrefacadMaster
  3
AcGrefServices
 90
        0
 91
        1
280
     0
281
     0
  0
CLASS
  1
AMIMASTER
  2
AmiMaster
  3
AmiServices
 90
        0
 91
        1
280
     0
281
     0
  0
CLASS
  1
ACMDATADICTIONARY
  2
AcmDataDictionary
  3
"AcmSymBB|Product Description: AutoCAD Mechanical|Company: Autodesk"
 90
        0
 91
        1
280
     0
281
     0
  0
CLASS
  1
ACMDATAENTRYBLOCK
  2
AcmDataEntryBlock
  3
"AcmSymBB|Product Description: AutoCAD Mechanical|Company: Autodesk"
 90
        0
 91
        0
280
     0
281
     0
  0
CLASS
  1
ACIMSTRSYSVAR
  2
AcImStrSysVar
  3
AcMeServices
 90
        0
 91
        5
280
     0
281
     0
  0
CLASS
  1
ACMSTANDARDISO
  2
AcmStandardISO
  3
"Amdt_StdImp|Product Description: AutoCAD Mechanical|Company: Autodesk"
 90
        0
 91
        1
280
     0
281
     0
  0
CLASS
  1
AMGOBJPROPCFG
  2
AmgObjPropCfg
  3
"AmgLay|Product Description: AutoCAD Mechanical|Company: Autodesk"
 90
        1
 91
        2
280
     0
281
     0
  0
CLASS
  1
AMDTEDGESTANDARDISO
  2
AmdtEdgeStdISO
  3
"Amdt_StdImp|Product Description: AutoCAD Mechanical|Company: Autodesk"
 90
        0
 91
        1
280
     0
281
     0
  0
CLASS
  1
ACMSURFSTANDARDISO
  2
AcmSurfTextStdISO
  3
"Amdt_StdImp|Product Description: AutoCAD Mechanical|Company: Autodesk"
 90
        0
 91
        1
280
     0
281
     0
  0
CLASS
  1
ACMFCFSTANDARDISO
  2
AcmFCFStdISO
  3
"Amdt_StdImp|Product Description: AutoCAD Mechanical|Company: Autodesk"
 90
        0
 91
        1
280
     0
281
     0
  0
CLASS
  1
ACMWELDSTANDARDISO
  2
AcmWeldingStdISO
  3
"Amdt_StdImp|Product Description: AutoCAD Mechanical|Company: Autodesk"
 90
        0
 91
        1
280
     0
281
     0
  0
CLASS
  1
ACMIDSTANDARDISO
  2
AcmIdStdISO
  3
"Amdt_StdImp|Product Description: AutoCAD Mechanical|Company: Autodesk"
 90
        0
 91
        1
280
     0
281
     0
  0
CLASS
  1
ACMDATUMSTANDARDISO
  2
AcmDatumStdISO
  3
"Amdt_StdImp|Product Description: AutoCAD Mechanical|Company: Autodesk"
 90
        0
 91
        1
280
     0
281
     0
  0
CLASS
  1
ACMBOMSTANDARDISO
  2
AcmBOMStdISO
  3
"Amdt_StdImp|Product Description: AutoCAD Mechanical|Company: Autodesk"
 90
        0
 91
        1
280
     0
281
     0
  0
CLASS
  1
ACMDETAILSTANDARDISO
  2
AmdtDetailSymStdISO
  3
"Amdt_StdImp|Product Description: AutoCAD Mechanical|Company: Autodesk"
 90
        0
 91
        1
280
     0
281
     0
  0
CLASS
  1
ACMSECTIONSTANDARDISO
  2
AmdtSectionSymStdISO
  3
"Amdt_StdImp|Product Description: AutoCAD Mechanical|Company: Autodesk"
 90
        0
 91
        1
280
     0
281
     0
  0
CLASS
  1
ACMCENTERLINESTANDARDISO
  2
AmdtCenterLineStdISO
  3
"Amdt_StdImp|Product Description: AutoCAD Mechanical|Company: Autodesk"
 90
        0
 91
        1
280
     0
281
     0
  0
CLASS
  1
ACMNOTESTANDARDISO
  2
AmdtNoteStdISO
  3
"Amdt_StdImp|Product Description: AutoCAD Mechanical|Company: Autodesk"
 90
        0
 91
        1
280
     0
281
     0
  0
CLASS
  1
ACAMGLAYSTD
  2
AcAmgLayStd
  3
"AmgLay|Product Description: AutoCAD Mechanical|Company: Autodesk"
 90
        0
 91
        2
280
     0
281
     0
  0
CLASS
  1
ACAMGDIMSTD
  2
AcAmgDimStd
  3
"AmgDim|Product Description: AutoCAD Mechanical|Company: Autodesk"
 90
        0
 91
        2
280
     0
281
     0
  0
CLASS
  1
ACAMGHOLECHARTSTDISO
  2
AcAmgHoleChartStdISO
  3
ACMSYMBB_MODULE_NAME
 90
        0
 91
        1
280
     0
281
     0
  0
CLASS
  1
ACAMGTITLESTD
  2
AcAmgTitleStd
  3
"AmgTitle|Product Description: AutoCAD Mechanical|Company: Autodesk"
 90
        0
 91
        2
280
     0
281
     0
  0
CLASS
  1
LAYER_INDEX
  2
AcDbLayerIndex
  3
ObjectDBX Classes
 90
        0
 91
        0
280
     0
281
     0
  0
CLASS
  1
IDBUFFER
  2
AcDbIdBuffer
  3
ObjectDBX Classes
 90
        0
 91
        0
280
     0
281
     0
  0
CLASS
  1
DICTIONARYVAR
  2
AcDbDictionaryVar
  3
ObjectDBX Classes
 90
        0
 91
        3
280
     0
281
     0
  0
CLASS
  1
AM_DRAWING_MGR
  2
AcDmDwgMgr
  3
AcMechDwgViewMgmt
 90
        0
 91
        1
280
     0
281
     0
  0
CLASS
  1
AM_DWG_DOCUMENT
  2
AcDmDwgDocument
  3
AcMechDwgViewMgmt
 90
        0
 91
        1
280
     0
281
     0
  0
CLASS
  1
AM_DWG_SHEET
  2
AcDmSheet
  3
AcMechDwgViewMgmt
 90
        0
 91
        2
280
     0
281
     0
  0
CLASS
  1
AM_VIEWDIMPARMAP
  2
AcDmViewDimParMap
  3
AcMechDwgViewMgmt
 90
        0
 91
        2
280
     0
281
     0
  0
CLASS
  1
AM_DWGMGR_NAME
  2
AcDmDwgMgrName
  3
AcMechDwgViewMgmt
 90
        0
 91
        1
280
     0
281
     0
  0
CLASS
  1
AMDTMENUSTATEMGR
  2
AmdtMenuStateMgr
  3
McadcomServices
 90
        0
 91
        1
280
     0
281
     0
  0
CLASS
  1
AMDTMCOMMENUSTATE
  2
AmdtMcomMenuState
  3
McadcomServices
 90
        0
 91
        1
280
     0
281
     0
  0
CLASS
  1
MAPIAMMOUDLE
  2
MApiAmModule
  3
MApiAmServices
 90
        0
 91
        1
280
     0
281
     0
  0
CLASS
  1
AMDTADMENUSTATE
  2
AmdtAdMenuState
  3
DesignerServices
 90
        0
 91
        1
280
     0
281
     0
  0
CLASS
  1
ADAPPL
  2
AcAdAppl
  3
DesignerServices
 90
        0
 91
        1
280
     0
281
     0
  0
CLASS
  1
DEPMGR
  2
AcAdDepMgr
  3
DesignerServices
 90
        0
 91
        1
280
     0
281
     0
  0
CLASS
  1
PARAMMGR
  2
AcAdParamMgr
  3
DesignerServices
 90
        0
 91
        1
280
     0
281
     0
  0
CLASS
  1
PARAMSCOPE
  2
AcAdParamScope
  3
DesignerServices
 90
        0
 91
        1
280
     0
281
     0
  0
CLASS
  1
NAMEDAPPL
  2
AcAdNamedAppl
  3
DesignerServices
 90
        0
 91
        1
280
     0
281
     0
  0
CLASS
  1
AMDTDMMENUSTATE
  2
AmdtDmMenuState
  3
AcMechDwgViewMgmt
 90
        0
 91
        1
280
     0
281
     0
  0
CLASS
  1
AMDTAMMENUSTATE
  2
AmdtAmMenuState
  3
DesignerAssemblies
 90
        0
 91
        1
280
     0
281
     0
  0
CLASS
  1
ACAMPROJECT
  2
AcAmProject
  3
DesignerAssemblies
 90
        0
 91
        1
280
     0
281
     0
  0
CLASS
  1
ACAMGRCOMPDEF
  2
AcAmGrCompDef
  3
DesignerAssemblies
 90
        0
 91
        1
280
     0
281
     0
  0
CLASS
  1
ACCMCONTEXT
  2
AcCmContext
  3
DesignerAssemblies
 90
        0
 91
        1
280
     0
281
     0
  0
CLASS
  1
ACAMCOMPDEF
  2
AcAmCompDef
  3
DesignerAssemblies
 90
        0
 91
        1
280
     0
281
     0
  0
CLASS
  1
ACAMCOMPDEFMGR
  2
AcAmCompDefMgr
  3
DesignerAssemblies
 90
        0
 91
        1
280
     0
281
     0
  0
CLASS
  1
AMCONTEXTMGR
  2
AcAmContextMgr
  3
DesignerAssemblies
 90
        0
 91
        1
280
     0
281
     0
  0
CLASS
  1
ACAMCONTEXTMODELER
  2
AcAmContextModeler
  3
DesignerAssemblies
 90
        0
 91
        1
280
     0
281
     0
  0
CLASS
  1
ACMTHREADLINESTANDARDISO
  2
AmdtThreadLineStdISO
  3
"Amdt_StdImp|Product Description: AutoCAD Mechanical|Company: Autodesk"
 90
        0
 91
        1
280
     0
281
     0
  0
CLASS
  1
CATALOGSTATE
  2
AcAmCatalogState
  3
DesignerAssemblies
 90
        0
 91
        1
280
     0
281
     0
  0
CLASS
  1
ACAMGRCOMPDEFSET
  2
AcAmGrCompDefSet
  3
DesignerAssemblies
 90
        0
 91
        1
280
     0
281
     0
  0
CLASS
  1
AMDTBROWSERDBTAB
  2
AmdtBrowserDbTab
  3
McadcomServices
 90
        0
 91
        1
280
     0
281
     0
  0
CLASS
  1
CBROWSERAPPOBJECT
  2
CBrowserAppObject
  3
McadcomServices
 90
        0
 91
        3
280
     0
281
     0
  0
CLASS
  1
DM_PLACEHOLDER
  2
AcDmSelsetPlaceholder
  3
AcMechDwgViewMgmt
 90
        0
 91
        1
280
     0
281
     0
  0
CLASS
  1
TABLESTYLE
  2
AcDbTableStyle
  3
ObjectDBX Classes
 90
     4095
 91
        1
280
     0
281
     0
  0
CLASS
  1
VAACXREFPANELOBJECT
  2
VaAcXREFPanelObject
  3
VAAC_ADDIN
 90
        0
 91
        0
280
     0
281
     0
  0
CLASS
  1
VAACIMAGEINVENTORY
  2
VaAcImageInventory
  3
VAAC_ADDIN
 90
        0
 91
        0
280
     0
281
     0
  0
CLASS
  1
AMDTNOTETEMPLATEDB
  2
AmdtNoteTemplateDB
  3
AMDT_STDIMP_MODULE_NAME
 90
        0
 91
        9
280
     0
281
     0
  0
CLASS
  1
ACMBOM
  2
AcmBom
  3
"AcmSymBB|Product Description: AutoCAD Mechanical|Company: Autodesk"
 90
        0
 91
        0
280
     0
281
     0
  0
CLASS
  1
AMDTFORMULAUPDATEDISPATCHER
  2
AmdtFormulaUpdateDispatcher
  3
AcMeServices
 90
        0
 91
        0
280
     0
281
     0
  0
CLASS
  1
ACAMGFILTERDAT
  2
AcAmgFilterDat
  3
"AcadM|Product Description: AutoCAD Mechanical|Company: Autodesk"
 90
        0
 91
        0
280
     0
281
     0
  0
CLASS
  1
ACMSTANDARDDIN
  2
AcmStandardDIN
  3
"Amdt_StdImp|Product Description: AutoCAD Mechanical|Company: Autodesk"
 90
        0
 91
        1
280
     0
281
     0
  0
CLASS
  1
AMDTEDGESTANDARDDIN13715
  2
AmdtEdgeStdDIN13715
  3
"Amdt_StdImp|Product Description: AutoCAD Mechanical|Company: Autodesk"
 90
        0
 91
        1
280
     0
281
     0
  0
CLASS
  1
ACMSURFSTANDARDDIN
  2
AcmSurfTextStdDIN
  3
"Amdt_StdImp|Product Description: AutoCAD Mechanical|Company: Autodesk"
 90
        0
 91
        1
280
     0
281
     0
  0
CLASS
  1
ACMFCFSTANDARDDIN
  2
AcmFCFStdDIN
  3
"Amdt_StdImp|Product Description: AutoCAD Mechanical|Company: Autodesk"
 90
        0
 91
        1
280
     0
281
     0
  0
CLASS
  1
ACMWELDSTANDARDDIN
  2
AcmWeldingStdDIN
  3
"Amdt_StdImp|Product Description: AutoCAD Mechanical|Company: Autodesk"
 90
        0
 91
        1
280
     0
281
     0
  0
CLASS
  1
ACMIDSTANDARDDIN
  2
AcmIdStdDIN
  3
"Amdt_StdImp|Product Description: AutoCAD Mechanical|Company: Autodesk"
 90
        0
 91
        1
280
     0
281
     0
  0
CLASS
  1
ACMDATUMSTANDARDDIN
  2
AcmDatumStdDIN
  3
"Amdt_StdImp|Product Description: AutoCAD Mechanical|Company: Autodesk"
 90
        0
 91
        1
280
     0
281
     0
  0
CLASS
  1
ACMBOMSTANDARDDIN
  2
AcmBOMStdDIN
  3
"Amdt_StdImp|Product Description: AutoCAD Mechanical|Company: Autodesk"
 90
        0
 91
        1
280
     0
281
     0
  0
CLASS
  1
ACMDETAILSTANDARDDIN
  2
AmdtDetailSymStdDIN
  3
"Amdt_StdImp|Product Description: AutoCAD Mechanical|Company: Autodesk"
 90
        0
 91
        1
280
     0
281
     0
  0
CLASS
  1
ACMSECTIONSTANDARDDIN
  2
AmdtSectionSymStdDIN
  3
"Amdt_StdImp|Product Description: AutoCAD Mechanical|Company: Autodesk"
 90
        0
 91
        1
280
     0
281
     0
  0
CLASS
  1
ACMCENTERLINESTANDARDDIN
  2
AmdtCenterLineStdDIN
  3
"Amdt_StdImp|Product Description: AutoCAD Mechanical|Company: Autodesk"
 90
        0
 91
        1
280
     0
281
     0
  0
CLASS
  1
ACMTHREADLINESTANDARDDIN
  2
AmdtThreadLineStdDIN
  3
"Amdt_StdImp|Product Description: AutoCAD Mechanical|Company: Autodesk"
 90
        0
 91
        1
280
     0
281
     0
  0
CLASS
  1
ACMNOTESTANDARDDIN
  2
AmdtNoteStdDIN
  3
"Amdt_StdImp|Product Description: AutoCAD Mechanical|Company: Autodesk"
 90
        0
 91
        1
280
     0
281
     0
  0
CLASS
  1
ACAMGHOLECHARTSTDDIN
  2
AcAmgHoleChartStdDIN
  3
ACMSYMBB_MODULE_NAME
 90
        0
 91
        1
280
     0
281
     0
  0
CLASS
  1
MATERIAL
  2
AcDbMaterial
  3
ObjectDBX Classes
 90
     1024
 91
        3
280
     0
281
     0
  0
CLASS
  1
VISUALSTYLE
  2
AcDbVisualStyle
  3
ObjectDBX Classes
 90
     4095
 91
       16
280
     0
281
     0
  0
CLASS
  1
ACRFATTGENMGR
  2
AcRfAttGeneralMgr
  3
AcAttribServices
 90
        0
 91
        0
280
     0
281
     0
  0
CLASS
  1
ACRFOBJATTMGR
  2
AcRfObjAttGroupMgr
  3
AcAttribServices
 90
        0
 91
        0
280
     0
281
     0
  0
CLASS
  1
ACRFMCADAPIATTHOLDER
  2
AcRfMCADAPIAttHolder
  3
AcAttribServices
 90
        0
 91
        0
280
     0
281
     0
  0
CLASS
  1
AMDTSYSATTR
  2
AmdtSystemAttribute
  3
AcAttribServices
 90
        0
 91
        0
280
     0
281
     0
  0
CLASS
  1
ACMTAPERSTANDARDISO
  2
AcmTaperStdISO
  3
"Amdt_StdImp|Product Description: AutoCAD Mechanical|Company: Autodesk"
 90
        0
 91
        1
280
     0
281
     0
  0
CLASS
  1
ACMTAPERSTANDARDDIN
  2
AcmTaperStdDIN
  3
"Amdt_StdImp|Product Description: AutoCAD Mechanical|Company: Autodesk"
 90
        0
 91
        1
280
     0
281
     0
  0
CLASS
  1
CAMSSTRUCTBTNSTATE
  2
StructBtnState
  3
L"DesignerAssemblies"
 90
        0
 91
        0
280
     0
281
     0
  0
CLASS
  1
STDPART2D
  2
AmgStdPart
  3
"g3vace|Class: AmgStdPart|Product Description: AutoCAD Mechanical|Company: Autodesk"
 90
     3071
 91
        0
280
     0
281
     1
  0
CLASS
  1
ACMWELDSYM
  2
AcmWelding
  3
"AcmSymBB|Product Description: AutoCAD Mechanical|Company: Autodesk"
 90
     3071
 91
        0
280
     0
281
     1
  0
CLASS
  1
AMDTNOTE
  2
AmdtNote
  3
"AcmSymBB|Product Description: AutoCAD Mechanical|Company: Autodesk"
 90
     3071
 91
        0
280
     0
281
     1
  0
CLASS
  1
ACDBCIRCARCRES
  2
AcDbCircArcRes
  3
AcGrefServices
 90
        0
 91
        0
280
     0
281
     0
  0
CLASS
  1
SORTENTSTABLE
  2
AcDbSortentsTable
  3
ObjectDBX Classes
 90
        0
 91
        1
280
     0
281
     0
  0
CLASS
  1
DIMASSOC
  2
AcDbDimAssoc
  3
"AcDbDimAssoc|Product Desc:     AcDim ARX App For Dimension|Company:          Autodesk, Inc.|WEB Address:      www.autodesk.com"
 90
        0
 91
        3
280
     0
281
     0
  0
ENDSEC
  0
SECTION
  2
TABLES
  0
TABLE
  2
VPORT
  5
8
330
0
100
AcDbSymbolTable
 70
     1
  0
VPORT
  5
253
330
8
100
AcDbSymbolTableRecord
100
AcDbViewportTableRecord
  2
*Active
 70
     0
 10
0.0
 20
0.0
 11
1.0
 21
1.0
 12
920.182790874953
 22
558.3132310584097
 13
0.0
 23
0.0
 14
6.25
 24
6.25
 15
25.0
 25
25.0
 16
0.0
 26
0.0
 36
1.0
 17
0.0
 27
0.0
 37
0.0
 40
1294.476442023626
 41
1.651898734177215
 42
50.0
 43
0.0
 44
0.0
 50
0.0
 51
0.0
 71
     0
 72
  8000
 73
     1
 74
     3
 75
     0
 76
     0
 77
     0
 78
     0
281
     0
 65
     1
110
0.0
120
0.0
130
0.0
111
1.0
121
0.0
131
0.0
112
0.0
122
1.0
132
0.0
 79
     0
146
0.0
  0
ENDTAB
  0
TABLE
  2
LTYPE
  5
5
330
0
100
AcDbSymbolTable
 70
    27
  0
LTYPE
  5
14
330
5
100
AcDbSymbolTableRecord
100
AcDbLinetypeTableRecord
  2
ByBlock
 70
     0
  3

 72
    65
 73
     0
 40
0.0
  0
LTYPE
  5
15
330
5
100
AcDbSymbolTableRecord
100
AcDbLinetypeTableRecord
  2
ByLayer
 70
     0
  3

 72
    65
 73
     0
 40
0.0
  0
LTYPE
  5
16
330
5
100
AcDbSymbolTableRecord
100
AcDbLinetypeTableRecord
  2
Continuous
 70
     0
  3
Solid line
 72
    65
 73
     0
 40
0.0
  0
LTYPE
  5
64
330
5
100
AcDbSymbolTableRecord
100
AcDbLinetypeTableRecord
  2
AM_ISO02W050
 70
     0
  3
__ __ __ __ __ __ __ __ __ __ __ __ __ __ __
 72
    65
 73
     2
 40
7.5
 49
6.0
 74
     0
 49
-1.5
 74
     0
  0
LTYPE
  5
65
330
5
100
AcDbSymbolTableRecord
100
AcDbLinetypeTableRecord
  2
AM_ISO08W050
 70
     0
  3
____ . ____ . ____ . ____ . ____ . ____ . ____
 72
    65
 73
     4
 40
18.0
 49
12.0
 74
     0
 49
-1.5
 74
     0
 49
3.0
 74
     0
 49
-1.5
 74
     0
  0
LTYPE
  5
66
330
5
100
AcDbSymbolTableRecord
100
AcDbLinetypeTableRecord
  2
AM_ISO09W050
 70
     0
  3
_____ . . _____ . . _____ . . ____ .. ____
 72
    65
 73
     6
 40
22.5
 49
12.0
 74
     0
 49
-1.5
 74
     0
 49
3.0
 74
     0
 49
-1.5
 74
     0
 49
3.0
 74
     0
 49
-1.5
 74
     0
  0
LTYPE
  5
67
330
5
100
AcDbSymbolTableRecord
100
AcDbLinetypeTableRecord
  2
Amconstr
 70
     0
  3
_______________________
 72
    65
 73
     2
 40
9999.0
 49
9999.0
 74
     0
 49
0.0
 74
     0
  0
LTYPE
  5
68
330
5
100
AcDbSymbolTableRecord
100
AcDbLinetypeTableRecord
  2
AM_ISO08W050x2
 70
     0
  3
__ . __ . __ . __ . __ . __
 72
    65
 73
     4
 40
9.0
 49
6.0
 74
     0
 49
-0.75
 74
     0
 49
1.5
 74
     0
 49
-0.75
 74
     0
  0
LTYPE
  5
69
330
5
100
AcDbSymbolTableRecord
100
AcDbLinetypeTableRecord
  2
AM_ISO02W050x2
 70
     0
  3
 _ _ _ _ _ _ _ _ _ _ _ _
 72
    65
 73
     2
 40
3.75
 49
3.0
 74
     0
 49
-0.75
 74
     0
  0
LTYPE
  5
6C
330
5
100
AcDbSymbolTableRecord
100
AcDbLinetypeTableRecord
  2
Amzigzag
 70
     0
  3
/\/-/\/-/\/-/\/-/\/-/\/
 72
    65
 73
     2
 40
11.0001
 49
0.0001
 74
     4
 75
   135
340
6B
 46
0.04
 50
0.0
 44
0.0
 45
0.0
 49
-11.0
 74
     0
  0
LTYPE
  5
7A
330
5
100
AcDbSymbolTableRecord
100
AcDbLinetypeTableRecord
  2
ACISOWELD
 70
     0
  3
_ _ _ _ _
 72
    65
 73
     2
 40
2.0
 49
2.0
 74
     0
 49
-1.0
 74
     0
  0
LTYPE
  5
7B
330
5
100
AcDbSymbolTableRecord
100
AcDbLinetypeTableRecord
  2
ACISOTGB
 70
     0
  3
__ . . __ . .
 72
    65
 73
     6
 40
9.0
 49
4.0
 74
     0
 49
-1.0
 74
     0
 49
1.0
 74
     0
 49
-1.0
 74
     0
 49
1.0
 74
     0
 49
-1.0
 74
     0
  0
LTYPE
  5
7C
330
5
100
AcDbSymbolTableRecord
100
AcDbLinetypeTableRecord
  2
ACISOTGL
 70
     0
  3
_ _ _ _ _
 72
    65
 73
     2
 40
3.0
 49
2.0
 74
     0
 49
-1.0
 74
     0
  0
LTYPE
  5
7E
330
5
100
AcDbSymbolTableRecord
100
AcDbLinetypeTableRecord
  2
CENTER
 70
     0
  3
__ . __
 72
    65
 73
     4
 40
7.0
 49
4.0
 74
     0
 49
-1.0
 74
     0
 49
1.0
 74
     0
 49
-1.0
 74
     0
  0
LTYPE
  5
D8
330
5
100
AcDbSymbolTableRecord
100
AcDbLinetypeTableRecord
  2
HIDDEN
 70
     0
  3
Hidden __ __ __ __ __ __ __ __ __ __ __ __ __ _
 72
    65
 73
     2
 40
9.524999999999996
 49
6.349999999999997
 74
     0
 49
-3.174999999999998
 74
     0
  0
LTYPE
  5
D9
330
5
100
AcDbSymbolTableRecord
100
AcDbLinetypeTableRecord
  2
PHANTOM2
 70
     0
  3
Phantom (.5x) ___ _ _ ___ _ _ ___ _ _ ___ _ _
 72
    65
 73
     6
 40
31.75
 49
15.875
 74
     0
 49
-3.174999999999998
 74
     0
 49
3.174999999999998
 74
     0
 49
-3.174999999999998
 74
     0
 49
3.174999999999998
 74
     0
 49
-3.174999999999998
 74
     0
  0
LTYPE
  5
23B
330
5
100
AcDbSymbolTableRecord
100
AcDbLinetypeTableRecord
  2
ACDINWELD
 70
     0
  3
_ _ _ _ _
 72
    65
 73
     2
 40
2.0
 49
2.0
 74
     0
 49
-1.0
 74
     0
  0
LTYPE
  5
23C
330
5
100
AcDbSymbolTableRecord
100
AcDbLinetypeTableRecord
  2
ACDINTGB
 70
     0
  3
__ . . __ . .
 72
    65
 73
     6
 40
9.0
 49
4.0
 74
     0
 49
-1.0
 74
     0
 49
1.0
 74
     0
 49
-1.0
 74
     0
 49
1.0
 74
     0
 49
-1.0
 74
     0
  0
LTYPE
  5
23D
330
5
100
AcDbSymbolTableRecord
100
AcDbLinetypeTableRecord
  2
ACDINTGL
 70
     0
  3
_ _ _ _ _
 72
    65
 73
     2
 40
3.0
 49
2.0
 74
     0
 49
-1.0
 74
     0
  0
LTYPE
  5
24E
330
5
100
AcDbSymbolTableRecord
100
AcDbLinetypeTableRecord
  2
AM_DIN_F_W050
 70
     0
  3
__ __ __ __ __ __ __ __ __ __ __ __ __ __ __
 72
    65
 73
     2
 40
6.25
 49
4.75
 74
     0
 49
-1.5
 74
     0
  0
LTYPE
  5
24F
330
5
100
AcDbSymbolTableRecord
100
AcDbLinetypeTableRecord
  2
AM_DIN_G_W050
 70
     0
  3
____ . ____ . ____ . ____ . ____ . ____ . ____
 72
    65
 73
     4
 40
13.75
 49
9.75
 74
     0
 49
-1.5
 74
     0
 49
1.0
 74
     0
 49
-1.5
 74
     0
  0
LTYPE
  5
250
330
5
100
AcDbSymbolTableRecord
100
AcDbLinetypeTableRecord
  2
AM_DIN_K_W050
 70
     0
  3
_____ . . _____ . . _____ . . ____ .. ____
 72
    65
 73
     6
 40
16.25
 49
9.75
 74
     0
 49
-1.5
 74
     0
 49
1.0
 74
     0
 49
-1.5
 74
     0
 49
1.0
 74
     0
 49
-1.5
 74
     0
  0
LTYPE
  5
251
330
5
100
AcDbSymbolTableRecord
100
AcDbLinetypeTableRecord
  2
AM_DIN_G_W050x2
 70
     0
  3
__ . __ . __ . __ . __ . __
 72
    65
 73
     4
 40
6.875
 49
4.75
 74
     0
 49
-0.875
 74
     0
 49
0.375
 74
     0
 49
-0.875
 74
     0
  0
LTYPE
  5
252
330
5
100
AcDbSymbolTableRecord
100
AcDbLinetypeTableRecord
  2
AM_DIN_F_W050x2
 70
     0
  3
 _ _ _ _ _ _ _ _ _ _ _ _
 72
    65
 73
     2
 40
3.125
 49
2.25
 74
     0
 49
-0.875
 74
     0
  0
LTYPE
  5
2BE
330
5
100
AcDbSymbolTableRecord
100
AcDbLinetypeTableRecord
  2
HIDDEN2
 70
     0
  3
Hidden (.5x) _ _ _ _ _ _ _ _ _ _ _ _ _ _ _ _ _
 72
    65
 73
     2
 40
0.1875
 49
0.125
 74
     0
 49
-0.0625
 74
     0
  0
LTYPE
  5
2BF
330
5
100
AcDbSymbolTableRecord
100
AcDbLinetypeTableRecord
  2
CENTER2
 70
     0
  3
Center (.5x) ___ _ ___ _ ___ _ ___ _ ___ _ ___
 72
    65
 73
     4
 40
1.125
 49
0.75
 74
     0
 49
-0.125
 74
     0
 49
0.125
 74
     0
 49
-0.125
 74
     0
  0
LTYPE
  5
2C0
330
5
100
AcDbSymbolTableRecord
100
AcDbLinetypeTableRecord
  2
Amzigzag2
 70
     0
  3
/\/-/\/-/\/-/\/-/\/-/\/
 72
    65
 73
     2
 40
0.4401
 49
0.0001
 74
     4
 75
   135
340
6B
 46
0.0016
 50
0.0
 44
0.0
 45
0.0
 49
-0.4400000000000003
 74
     0
  0
LTYPE
  5
CA1
330
5
100
AcDbSymbolTableRecord
100
AcDbLinetypeTableRecord
  2
DASHDOT
 70
     0
  3
 __ . __ . __ . __ . __ . __ . __ . 
 72
    65
 73
     4
 40
18.5
 49
12.0
 74
     0
 49
-3.0
 74
     0
 49
0.5
 74
     0
 49
-3.0
 74
     0
  0
ENDTAB
  0
TABLE
  2
LAYER
  5
2
102
{ACAD_XDICTIONARY
360
59C
102
}
330
0
100
AcDbSymbolTable
 70
    15
  0
LAYER
  5
10
330
2
100
AcDbSymbolTableRecord
100
AcDbLayerTableRecord
  2
0
 70
     0
 62
     7
  6
Continuous
370
    -3
390
F
  0
LAYER
  5
2C1
330
2
100
AcDbSymbolTableRecord
100
AcDbLayerTableRecord
  2
AM_BOR
 70
     0
 62
     7
  6
Continuous
370
    50
390
F
  0
LAYER
  5
338
330
2
100
AcDbSymbolTableRecord
100
AcDbLayerTableRecord
  2
AM_0
 70
     0
 62
     7
  6
Continuous
370
    50
390
F
  0
LAYER
  5
339
330
2
100
AcDbSymbolTableRecord
100
AcDbLayerTableRecord
  2
UMRISS05
 70
     0
 62
     7
  6
Continuous
370
    -3
390
F
  0
LAYER
  5
33A
330
2
100
AcDbSymbolTableRecord
100
AcDbLayerTableRecord
  2
6
 70
     0
 62
     2
  6
Continuous
370
    -3
390
F
  0
LAYER
  5
33B
330
2
100
AcDbSymbolTableRecord
100
AcDbLayerTableRecord
  2
RAHM2
 70
     0
 62
     1
  6
Continuous
370
    -3
390
F
  0
LAYER
  5
591
330
2
100
AcDbSymbolTableRecord
100
AcDbLayerTableRecord
  2
AM_5
 70
     0
 62
     3
  6
Continuous
370
    25
390
F
  0
LAYER
  5
592
330
2
100
AcDbSymbolTableRecord
100
AcDbLayerTableRecord
  2
AM_7
 70
     0
 62
     4
  6
AM_DIN_G_W050
370
    25
390
F
1001
AcAecLayerStandard
1000

1000

  0
LAYER
  5
593
330
2
100
AcDbSymbolTableRecord
100
AcDbLayerTableRecord
  2
AM_4
 70
     0
 62
     3
  6
Continuous
370
    25
390
F
1001
AcAecLayerStandard
1000

1000

  0
LAYER
  5
594
330
2
100
AcDbSymbolTableRecord
100
AcDbLayerTableRecord
  2
AM_9
 70
     0
 62
  -253
  6
Continuous
370
     0
390
F
1001
AcAecLayerStandard
1000

1000

  0
LAYER
  5
595
330
2
100
AcDbSymbolTableRecord
100
AcDbLayerTableRecord
  2
AM_8
 70
     0
 62
     1
  6
Continuous
370
    25
390
F
1001
AcAecLayerStandard
1000

1000

  0
LAYER
  5
596
330
2
100
AcDbSymbolTableRecord
100
AcDbLayerTableRecord
  2
DEFPOINTS
 70
     0
 62
     7
  6
Continuous
290
     0
370
    -3
390
F
  0
LAYER
  5
597
330
2
100
AcDbSymbolTableRecord
100
AcDbLayerTableRecord
  2
AM_3
 70
     0
 62
     6
  6
AM_DIN_F_W050
370
    25
390
F
  0
LAYER
  5
1DE1
330
2
100
AcDbSymbolTableRecord
100
AcDbLayerTableRecord
  2
LOGO_VON_SCHLASSE_120709
 70
     0
 62
     7
  6
Continuous
370
    -3
390
F
  0
LAYER
  5
1EBE
330
2
100
AcDbSymbolTableRecord
100
AcDbLayerTableRecord
  2
AM_CL
 70
     0
 62
     1
  6
Amconstr
370
    25
390
F
1001
AcAecLayerStandard
1000

1000

  0
ENDTAB
  0
TABLE
  2
STYLE
  5
3
330
0
100
AcDbSymbolTable
 70
     7
  0
STYLE
  5
11
330
3
100
AcDbSymbolTableRecord
100
AcDbTextStyleTableRecord
  2
Standard
 70
     0
 40
0.0
 41
1.0
 50
0.0
 71
     0
 42
2.5
  3
ISOCP.SHX
  4
bigfont.shx
  0
STYLE
  5
6B
330
3
100
AcDbSymbolTableRecord
100
AcDbTextStyleTableRecord
  2

 70
     1
 40
0.0
 41
1.0
 50
0.0
 71
     0
 42
2.5
  3
ltypeshp.shx
  4

  0
STYLE
  5
6D
330
3
100
AcDbSymbolTableRecord
100
AcDbTextStyleTableRecord
  2
ACISOTS
 70
     0
 40
1.0
 41
1.0
 50
0.0
 71
     0
 42
2.5
  3
isocp.shx
  4
bigfont.shx
  0
STYLE
  5
79
330
3
100
AcDbSymbolTableRecord
100
AcDbTextStyleTableRecord
  2
ACISOGDT
 70
     0
 40
0.0
 41
1.0
 50
0.0
 71
     0
 42
2.5
  3
amgdt.shx
  4
bigfont.shx
  0
STYLE
  5
22D
330
3
100
AcDbSymbolTableRecord
100
AcDbTextStyleTableRecord
  2
ACDINTS
 70
     0
 40
1.0
 41
1.0
 50
0.0
 71
     0
 42
2.5
  3
isocp.shx
  4

  0
STYLE
  5
23A
330
3
100
AcDbSymbolTableRecord
100
AcDbTextStyleTableRecord
  2
ACDINGDT
 70
     0
 40
0.0
 41
1.0
 50
0.0
 71
     0
 42
2.5
  3
amgdt.shx
  4

  0
ENDTAB
  0
TABLE
  2
VIEW
  5
6
330
0
100
AcDbSymbolTable
 70
     6
  0
VIEW
  5
4A4
330
6
100
AcDbSymbolTableRecord
100
AcDbViewTableRecord
  2
AM_VIEW1
 70
     0
 40
525.0
 10
562.6247520330049
 20
821.7802035618605
 41
984.2379958246343
 11
0.0
 21
0.0
 31
1.0
 12
0.0
 22
0.0
 32
0.0
 42
50.0
 43
0.0
 44
0.0
 50
0.0
 71
     0
281
     0
 72
     0
  0
VIEW
  5
4A5
330
6
100
AcDbSymbolTableRecord
100
AcDbViewTableRecord
  2
AM_VIEW2
 70
     0
 40
525.0
 10
1063.38675620837
 20
821.7802035618605
 41
984.2379958246343
 11
0.0
 21
0.0
 31
1.0
 12
0.0
 22
0.0
 32
0.0
 42
50.0
 43
0.0
 44
0.0
 50
0.0
 71
     0
281
     0
 72
     0
  0
VIEW
  5
4A6
330
6
100
AcDbSymbolTableRecord
100
AcDbViewTableRecord
  2
AM_VIEW3
 70
     0
 40
525.0
 10
562.6247520330049
 20
296.7802035618606
 41
984.2379958246343
 11
0.0
 21
0.0
 31
1.0
 12
0.0
 22
0.0
 32
0.0
 42
50.0
 43
0.0
 44
0.0
 50
0.0
 71
     0
281
     0
 72
     0
  0
VIEW
  5
4A7
330
6
100
AcDbSymbolTableRecord
100
AcDbViewTableRecord
  2
AM_VIEW4
 70
     0
 40
525.0
 10
1063.38675620837
 20
296.7802035618606
 41
984.2379958246343
 11
0.0
 21
0.0
 31
1.0
 12
0.0
 22
0.0
 32
0.0
 42
50.0
 43
0.0
 44
0.0
 50
0.0
 71
     0
281
     0
 72
     0
  0
VIEW
  5
4A8
330
6
100
AcDbSymbolTableRecord
100
AcDbViewTableRecord
  2
AM_VIEW5
 70
     0
 40
525.0
 10
813.0057541206877
 20
559.2802035618606
 41
984.2379958246343
 11
0.0
 21
0.0
 31
1.0
 12
0.0
 22
0.0
 32
0.0
 42
50.0
 43
0.0
 44
0.0
 50
0.0
 71
     0
281
     0
 72
     0
  0
VIEW
  5
4A9
330
6
100
AcDbSymbolTableRecord
100
AcDbViewTableRecord
  2
AM_VIEW6
 70
     0
 40
1049.9895
 10
813.0057541206877
 20
559.2802035618606
 41
1968.456306889353
 11
0.0
 21
0.0
 31
1.0
 12
0.0
 22
0.0
 32
0.0
 42
50.0
 43
0.0
 44
0.0
 50
0.0
 71
     0
281
     0
 72
     0
  0
ENDTAB
  0
TABLE
  2
UCS
  5
7
330
0
100
AcDbSymbolTable
 70
     0
  0
ENDTAB
  0
TABLE
  2
APPID
  5
9
330
0
100
AcDbSymbolTable
 70
    86
  0
APPID
  5
12
330
9
100
AcDbSymbolTableRecord
100
AcDbRegAppTableRecord
  2
ACAD
 70
     0
  0
APPID
  5
46
330
9
100
AcDbSymbolTableRecord
100
AcDbRegAppTableRecord
  2
MCAD_NO_VIS
 70
     0
  0
APPID
  5
47
330
9
100
AcDbSymbolTableRecord
100
AcDbRegAppTableRecord
  2
ACAD_TEMP_GRAPHIC
 70
     0
  0
APPID
  5
58
330
9
100
AcDbSymbolTableRecord
100
AcDbRegAppTableRecord
  2
ACATTRIBSERVICES
 70
     0
  0
APPID
  5
EE
330
9
100
AcDbSymbolTableRecord
100
AcDbRegAppTableRecord
  2
AD_DRAW
 70
     0
  0
APPID
  5
10C
330
9
100
AcDbSymbolTableRecord
100
AcDbRegAppTableRecord
  2
DESIGNERASSEMBLIES
 70
     0
  0
APPID
  5
111
330
9
100
AcDbSymbolTableRecord
100
AcDbRegAppTableRecord
  2
ACADM_DIM_EDIT
 70
     0
  0
APPID
  5
112
330
9
100
AcDbSymbolTableRecord
100
AcDbRegAppTableRecord
  2
AMDT_DM_ADJ
 70
     0
  0
APPID
  5
2C3
330
9
100
AcDbSymbolTableRecord
100
AcDbRegAppTableRecord
  2
GENIUS_GENBLLY_14
 70
     0
  0
APPID
  5
33D
330
9
100
AcDbSymbolTableRecord
100
AcDbRegAppTableRecord
  2
GENIUS_GENCFG_13
 70
     0
  0
APPID
  5
33E
330
9
100
AcDbSymbolTableRecord
100
AcDbRegAppTableRecord
  2
GENIUS_GENCFG0_13
 70
     0
  0
APPID
  5
33F
330
9
100
AcDbSymbolTableRecord
100
AcDbRegAppTableRecord
  2
GENIUS_GENCFG1_13
 70
     0
  0
APPID
  5
340
330
9
100
AcDbSymbolTableRecord
100
AcDbRegAppTableRecord
  2
GENIUS_GENCFG2_13
 70
     0
  0
APPID
  5
341
330
9
100
AcDbSymbolTableRecord
100
AcDbRegAppTableRecord
  2
GENIUS_GENCFG3_13
 70
     0
  0
APPID
  5
342
330
9
100
AcDbSymbolTableRecord
100
AcDbRegAppTableRecord
  2
GENIUS_GENCFG4_13
 70
     0
  0
APPID
  5
343
330
9
100
AcDbSymbolTableRecord
100
AcDbRegAppTableRecord
  2
GENIUS_GEVCFG0_13
 70
     0
  0
APPID
  5
344
330
9
100
AcDbSymbolTableRecord
100
AcDbRegAppTableRecord
  2
GENIUS_GENOENT_13
 70
     0
  0
APPID
  5
345
330
9
100
AcDbSymbolTableRecord
100
AcDbRegAppTableRecord
  2
GENIUS_VERSION1
 70
     0
  0
APPID
  5
346
330
9
100
AcDbSymbolTableRecord
100
AcDbRegAppTableRecord
  2
GENIUS_GENDIM_13
 70
     0
  0
APPID
  5
347
330
9
100
AcDbSymbolTableRecord
100
AcDbRegAppTableRecord
  2
GENIUS_GENDTOL_13
 70
     0
  0
APPID
  5
348
330
9
100
AcDbSymbolTableRecord
100
AcDbRegAppTableRecord
  2
GENIUS_GE3DTOL_13
 70
     0
  0
APPID
  5
349
330
9
100
AcDbSymbolTableRecord
100
AcDbRegAppTableRecord
  2
ASURF_PCURVE_APPNAME
 70
     0
  0
APPID
  5
34A
330
9
100
AcDbSymbolTableRecord
100
AcDbRegAppTableRecord
  2
AMG_3D2D_5.0
 70
     0
  0
APPID
  5
34B
330
9
100
AcDbSymbolTableRecord
100
AcDbRegAppTableRecord
  2
GENIUS_GEFCFG0_13
 70
     0
  0
APPID
  5
34C
330
9
100
AcDbSymbolTableRecord
100
AcDbRegAppTableRecord
  2
GENIUS_GENBLKED_14
 70
     0
  0
APPID
  5
34D
330
9
100
AcDbSymbolTableRecord
100
AcDbRegAppTableRecord
  2
GENIUS_GENTRA_14
 70
     0
  0
APPID
  5
34E
330
9
100
AcDbSymbolTableRecord
100
AcDbRegAppTableRecord
  2
GENIUS_GENODEF_13
 70
     0
  0
APPID
  5
34F
330
9
100
AcDbSymbolTableRecord
100
AcDbRegAppTableRecord
  2
GENIUS_GENOBJ-N-TIT_13
 70
     0
  0
APPID
  5
350
330
9
100
AcDbSymbolTableRecord
100
AcDbRegAppTableRecord
  2
GENIUS_GENTITLE_13
 70
     0
  0
APPID
  5
351
330
9
100
AcDbSymbolTableRecord
100
AcDbRegAppTableRecord
  2
GENIUS_GENOREF_13
 70
     0
  0
APPID
  5
352
330
9
100
AcDbSymbolTableRecord
100
AcDbRegAppTableRecord
  2
GENIUS_GENOLIS_13
 70
     0
  0
APPID
  5
353
330
9
100
AcDbSymbolTableRecord
100
AcDbRegAppTableRecord
  2
GENIUS_GENZVEED_13
 70
     0
  0
APPID
  5
354
330
9
100
AcDbSymbolTableRecord
100
AcDbRegAppTableRecord
  2
GENIUS_GENOBJ-N-SDF_13
 70
     0
  0
APPID
  5
355
330
9
100
AcDbSymbolTableRecord
100
AcDbRegAppTableRecord
  2
GENIUS_GENSCREG_13
 70
     0
  0
APPID
  5
356
330
9
100
AcDbSymbolTableRecord
100
AcDbRegAppTableRecord
  2
GENIUS_GENSCREG_15
 70
     0
  0
APPID
  5
357
330
9
100
AcDbSymbolTableRecord
100
AcDbRegAppTableRecord
  2
DCO15
 70
     0
  0
APPID
  5
358
330
9
100
AcDbSymbolTableRecord
100
AcDbRegAppTableRecord
  2
GENIUS_GENOBJ-N-FIL_13
 70
     0
  0
APPID
  5
359
330
9
100
AcDbSymbolTableRecord
100
AcDbRegAppTableRecord
  2
GENIUS_GENOBJ-N-HTC_13
 70
     0
  0
APPID
  5
35A
330
9
100
AcDbSymbolTableRecord
100
AcDbRegAppTableRecord
  2
GENIUS_GENHATCH_13
 70
     0
  0
APPID
  5
35B
330
9
100
AcDbSymbolTableRecord
100
AcDbRegAppTableRecord
  2
GENIUS_GENOBJ-N-CEN_13
 70
     0
  0
APPID
  5
35C
330
9
100
AcDbSymbolTableRecord
100
AcDbRegAppTableRecord
  2
GENIUS_GENBH_13
 70
     0
  0
APPID
  5
35D
330
9
100
AcDbSymbolTableRecord
100
AcDbRegAppTableRecord
  2
GENIUS_GENOBJ-NBEHI-BHB_13
 70
     0
  0
APPID
  5
35E
330
9
100
AcDbSymbolTableRecord
100
AcDbRegAppTableRecord
  2
GENIUS_GENREC_14
 70
     0
  0
APPID
  5
35F
330
9
100
AcDbSymbolTableRecord
100
AcDbRegAppTableRecord
  2
GENIUS_GENHINW_13
 70
     0
  0
APPID
  5
360
330
9
100
AcDbSymbolTableRecord
100
AcDbRegAppTableRecord
  2
GENIUS_FIRSTVISTXT_14
 70
     0
  0
APPID
  5
361
330
9
100
AcDbSymbolTableRecord
100
AcDbRegAppTableRecord
  2
GENIUS_GENOBJ-N-LEADER_13
 70
     0
  0
APPID
  5
362
330
9
100
AcDbSymbolTableRecord
100
AcDbRegAppTableRecord
  2
GENIUS_SECONDVISTXT_14
 70
     0
  0
APPID
  5
363
330
9
100
AcDbSymbolTableRecord
100
AcDbRegAppTableRecord
  2
GENIUS_GENOBJ-N-HINW_13
 70
     0
  0
APPID
  5
364
330
9
100
AcDbSymbolTableRecord
100
AcDbRegAppTableRecord
  2
GENIUS_GEFWELD_13
 70
     0
  0
APPID
  5
365
330
9
100
AcDbSymbolTableRecord
100
AcDbRegAppTableRecord
  2
GENIUS_GENOBJ-F-WEL_13
 70
     0
  0
APPID
  5
366
330
9
100
AcDbSymbolTableRecord
100
AcDbRegAppTableRecord
  2
GENIUS_GENOBJ-N-REC_13
 70
     0
  0
APPID
  5
367
330
9
100
AcDbSymbolTableRecord
100
AcDbRegAppTableRecord
  2
GEVID980252217
 70
     0
  0
APPID
  5
368
330
9
100
AcDbSymbolTableRecord
100
AcDbRegAppTableRecord
  2
GEVPT
 70
     0
  0
APPID
  5
369
330
9
100
AcDbSymbolTableRecord
100
AcDbRegAppTableRecord
  2
GEVIT
 70
     0
  0
APPID
  5
36A
330
9
100
AcDbSymbolTableRecord
100
AcDbRegAppTableRecord
  2
VCC
 70
     0
  0
APPID
  5
36B
330
9
100
AcDbSymbolTableRecord
100
AcDbRegAppTableRecord
  2
GENBH
 70
     0
  0
APPID
  5
36C
330
9
100
AcDbSymbolTableRecord
100
AcDbRegAppTableRecord
  2
GENIUS_GENOBJ-NBEHI-BHF_13
 70
     0
  0
APPID
  5
36D
330
9
100
AcDbSymbolTableRecord
100
AcDbRegAppTableRecord
  2
GENIUS_GENOBJ-F-PART_13
 70
     0
  0
APPID
  5
36E
330
9
100
AcDbSymbolTableRecord
100
AcDbRegAppTableRecord
  2
GENIUS_GEFSTDP_13
 70
     0
  0
APPID
  5
36F
330
9
100
AcDbSymbolTableRecord
100
AcDbRegAppTableRecord
  2
GENIUS_GEFPARTINS_13
 70
     0
  0
APPID
  5
370
330
9
100
AcDbSymbolTableRecord
100
AcDbRegAppTableRecord
  2
GEVID980252219
 70
     0
  0
APPID
  5
371
330
9
100
AcDbSymbolTableRecord
100
AcDbRegAppTableRecord
  2
GENIUS_GENDREL_13
 70
     0
  0
APPID
  5
372
330
9
100
AcDbSymbolTableRecord
100
AcDbRegAppTableRecord
  2
GEV_VCCNULL_SWITCH_OFF
 70
     0
  0
APPID
  5
373
330
9
100
AcDbSymbolTableRecord
100
AcDbRegAppTableRecord
  2
ACA_CADIMENU
 70
     0
  0
APPID
  5
374
330
9
100
AcDbSymbolTableRecord
100
AcDbRegAppTableRecord
  2
GENIUS_GENCFG5_13
 70
     0
  0
APPID
  5
375
330
9
100
AcDbSymbolTableRecord
100
AcDbRegAppTableRecord
  2
GENIUS_GENOBJ-N-CRS_13
 70
     0
  0
APPID
  5
376
330
9
100
AcDbSymbolTableRecord
100
AcDbRegAppTableRecord
  2
GENIUS_GENDIMSH_14
 70
     0
  0
APPID
  5
377
330
9
100
AcDbSymbolTableRecord
100
AcDbRegAppTableRecord
  2
GENIUS_GENOBJ-F-SCPASSM_13
 70
     0
  0
APPID
  5
378
330
9
100
AcDbSymbolTableRecord
100
AcDbRegAppTableRecord
  2
GENIUS_GENIUS_GENBHEDTMP_13
 70
     0
  0
APPID
  5
379
330
9
100
AcDbSymbolTableRecord
100
AcDbRegAppTableRecord
  2
GEVID1032351709
 70
     0
  0
APPID
  5
37A
330
9
100
AcDbSymbolTableRecord
100
AcDbRegAppTableRecord
  2
GEVDC
 70
     0
  0
APPID
  5
37B
330
9
100
AcDbSymbolTableRecord
100
AcDbRegAppTableRecord
  2
GENIUS_GENOBJ-F-WELS_13
 70
     0
  0
APPID
  5
37C
330
9
100
AcDbSymbolTableRecord
100
AcDbRegAppTableRecord
  2
GEVID1036052968
 70
     0
  0
APPID
  5
37D
330
9
100
AcDbSymbolTableRecord
100
AcDbRegAppTableRecord
  2
GEVID1036052969
 70
     0
  0
APPID
  5
37E
330
9
100
AcDbSymbolTableRecord
100
AcDbRegAppTableRecord
  2
GEVID1036052971
 70
     0
  0
APPID
  5
37F
330
9
100
AcDbSymbolTableRecord
100
AcDbRegAppTableRecord
  2
GENIUS_GENOBJ-N-DIM_13
 70
     0
  0
APPID
  5
380
330
9
100
AcDbSymbolTableRecord
100
AcDbRegAppTableRecord
  2
EDB_
 70
     0
  0
APPID
  5
381
330
9
100
AcDbSymbolTableRecord
100
AcDbRegAppTableRecord
  2
EDBFRAME_
 70
     0
  0
APPID
  5
382
330
9
100
AcDbSymbolTableRecord
100
AcDbRegAppTableRecord
  2
EDBXREF_
 70
     0
  0
APPID
  5
383
330
9
100
AcDbSymbolTableRecord
100
AcDbRegAppTableRecord
  2
EDBSHEET
 70
     0
  0
APPID
  5
384
330
9
100
AcDbSymbolTableRecord
100
AcDbRegAppTableRecord
  2
EDBMODELINFO
 70
     0
  0
APPID
  5
385
330
9
100
AcDbSymbolTableRecord
100
AcDbRegAppTableRecord
  2
ACAD_PSEXT
 70
     0
  0
APPID
  5
599
330
9
100
AcDbSymbolTableRecord
100
AcDbRegAppTableRecord
  2
AcAecLayerStandard
 70
     0
  0
APPID
  5
59A
330
9
100
AcDbSymbolTableRecord
100
AcDbRegAppTableRecord
  2
GENIUS_GENCEN_19
 70
     0
  0
APPID
  5
59B
330
9
100
AcDbSymbolTableRecord
100
AcDbRegAppTableRecord
  2
AMG_2DSTRUCT_BTR
 70
     0
  0
APPID
  5
C88
330
9
100
AcDbSymbolTableRecord
100
AcDbRegAppTableRecord
  2
ACAD_EXEMPT_FROM_CAD_STANDARDS
 70
     0
  0
ENDTAB
  0
TABLE
  2
DIMSTYLE
  5
A
330
0
100
AcDbSymbolTable
 70
    20
100
AcDbDimStyleTable
 71
     1
340
245
  0
DIMSTYLE
105
27
330
A
100
AcDbSymbolTableRecord
100
AcDbDimStyleTableRecord
  2
ISO-25
 70
     0
 41
2.5
 42
0.625
 43
3.75
 44
1.25
 73
     0
 74
     0
 77
     1
 78
     8
140
2.5
141
2.5
143
0.03937007874016
147
0.625
171
     3
172
     1
271
     2
272
     2
274
     3
278
    44
283
     0
284
     8
340
11
  0
DIMSTYLE
105
81
330
A
100
AcDbSymbolTableRecord
100
AcDbDimStyleTableRecord
  2
AM_ISO
 70
     0
  4
"
 41
2.5
 42
1.0
 43
10.0
 44
1.0
 47
0.1
 48
0.1
 73
     0
 74
     0
 77
     1
 78
     8
 79
     2
140
3.5
141
0.0
143
0.0393701
146
0.71
147
1.5
172
     1
176
   256
177
   256
178
     2
271
     2
272
     3
274
     4
283
     0
284
     8
340
11
371
    -1
372
    -1
  0
DIMSTYLE
105
82
330
A
100
AcDbSymbolTableRecord
100
AcDbDimStyleTableRecord
  2
AM_ISO$3
 70
     0
  4
"
 41
2.5
 42
1.0
 43
10.0
 44
1.0
 47
0.1
 48
0.1
 73
     0
 77
     1
 78
     8
 79
     2
140
3.5
141
0.0
143
0.0393701
146
0.71
147
1.5
176
   256
177
   256
178
     2
271
     2
272
     3
274
     4
283
     0
284
     8
288
     1
289
     0
340
11
371
    -1
372
    -1
  0
DIMSTYLE
105
83
330
A
100
AcDbSymbolTableRecord
100
AcDbDimStyleTableRecord
  2
AM_ISO$4
 70
     0
  4
"
 41
2.5
 42
1.0
 43
10.0
 44
1.0
 47
0.1
 48
0.1
 73
     0
 77
     1
 78
     8
 79
     2
140
3.5
141
0.0
143
0.0393701
146
0.71
147
1.5
176
   256
177
   256
178
     2
271
     2
272
     3
274
     4
283
     0
284
     8
288
     1
289
     0
340
11
371
    -1
372
    -1
  0
DIMSTYLE
105
84
330
A
100
AcDbSymbolTableRecord
100
AcDbDimStyleTableRecord
  2
AM_ISO$6
 70
     0
  4
"
 41
2.5
 42
1.0
 43
10.0
 44
1.0
 47
0.1
 48
0.1
 73
     0
 74
     0
 78
     8
 79
     2
140
3.5
141
0.0
143
0.0393701
146
0.71
147
1.5
172
     1
176
   256
177
   256
178
     2
271
     2
272
     3
274
     4
283
     0
284
     8
340
11
371
    -1
372
    -1
  0
DIMSTYLE
105
85
330
A
100
AcDbSymbolTableRecord
100
AcDbDimStyleTableRecord
  2
AM_ISO$7
 70
     0
  4
"
 41
2.5
 42
1.0
 43
10.0
 44
1.0
 47
0.1
 48
0.1
 73
     0
 74
     0
 77
     1
 78
     8
 79
     2
140
5.0
141
0.0
143
0.0393701
146
0.71
147
1.5
172
     1
176
   256
177
   256
178
     2
271
     2
272
     3
274
     4
283
     0
284
     8
340
11
371
    -1
372
    -1
  0
DIMSTYLE
105
86
330
A
100
AcDbSymbolTableRecord
100
AcDbDimStyleTableRecord
  2
AM_ISO$SF
 70
     0
  4
"
 41
2.5
 42
1.0
 43
10.0
 44
1.0
 47
0.1
 48
0.1
 73
     0
 74
     0
 75
     1
 76
     1
 77
     1
 78
     8
 79
     2
140
3.5
141
0.0
143
0.0393701
146
0.71
147
1.5
172
     1
176
   256
177
   256
178
     2
271
     2
272
     3
274
     4
283
     0
284
     8
340
11
371
    -1
372
    -1
  0
DIMSTYLE
105
8B
330
A
100
AcDbSymbolTableRecord
100
AcDbDimStyleTableRecord
  2
AM_ISO$SH
 70
     0
  4
"
 41
2.5
 42
1.0
 43
10.0
 44
1.0
 47
0.1
 48
0.1
 73
     0
 74
     0
 75
     1
 76
     1
 77
     1
 78
     8
 79
     2
140
3.5
141
0.0
143
0.0393701
144
2.0
146
0.71
147
1.5
172
     1
173
     1
176
   256
177
   256
178
     2
271
     2
272
     3
274
     4
283
     0
284
     8
340
11
343
87
371
    -1
372
    -1
  0
DIMSTYLE
105
245
330
A
100
AcDbSymbolTableRecord
100
AcDbDimStyleTableRecord
  2
AM_DIN
 70
     0
  4
"
 41
2.5
 42
1.0
 43
10.0
 44
1.0
 47
0.1
 48
0.1
 73
     0
 74
     0
 77
     1
 78
     8
 79
     2
140
3.5
141
0.0
143
0.0393701
146
0.71
147
1.5
172
     1
176
   256
177
   256
178
     2
271
     2
272
     3
274
     4
283
     0
284
     8
340
11
371
    -1
372
    -1
  0
DIMSTYLE
105
246
330
A
100
AcDbSymbolTableRecord
100
AcDbDimStyleTableRecord
  2
AM_DIN$3
 70
     0
  4
"
 41
2.5
 42
1.0
 43
10.0
 44
1.0
 47
0.1
 48
0.1
 73
     0
 77
     1
 78
     8
 79
     2
140
3.5
141
0.0
143
0.0393701
146
0.71
147
1.5
176
   256
177
   256
178
     2
271
     2
272
     3
274
     4
283
     0
284
     8
288
     1
289
     0
340
11
371
    -1
372
    -1
  0
DIMSTYLE
105
247
330
A
100
AcDbSymbolTableRecord
100
AcDbDimStyleTableRecord
  2
AM_DIN$4
 70
     0
  4
"
 41
2.5
 42
1.0
 43
10.0
 44
1.0
 47
0.1
 48
0.1
 73
     0
 77
     1
 78
     8
 79
     2
140
3.5
141
0.0
143
0.0393701
146
0.71
147
1.5
176
   256
177
   256
178
     2
271
     2
272
     3
274
     4
283
     0
284
     8
288
     1
289
     0
340
11
371
    -1
372
    -1
  0
DIMSTYLE
105
248
330
A
100
AcDbSymbolTableRecord
100
AcDbDimStyleTableRecord
  2
AM_DIN$6
 70
     0
  4
"
 41
2.5
 42
1.0
 43
10.0
 44
1.0
 47
0.1
 48
0.1
 73
     0
 74
     0
 78
     8
 79
     2
140
3.5
141
0.0
143
0.0393701
146
0.71
147
1.5
172
     1
176
   256
177
   256
178
     2
271
     2
272
     3
274
     4
283
     0
284
     8
340
11
371
    -1
372
    -1
  0
DIMSTYLE
105
249
330
A
100
AcDbSymbolTableRecord
100
AcDbDimStyleTableRecord
  2
AM_DIN$7
 70
     0
  4
"
 41
2.5
 42
1.0
 43
10.0
 44
1.0
 47
0.1
 48
0.1
 73
     0
 74
     0
 77
     1
 78
     8
 79
     2
140
5.0
141
0.0
143
0.0393701
146
0.71
147
1.5
172
     1
176
   256
177
   256
178
     2
271
     2
272
     3
274
     4
283
     0
284
     8
340
11
371
    -1
372
    -1
  0
DIMSTYLE
105
24A
330
A
100
AcDbSymbolTableRecord
100
AcDbDimStyleTableRecord
  2
AM_DIN$SF
 70
     0
  4
"
 41
2.5
 42
1.0
 43
10.0
 44
1.0
 47
0.1
 48
0.1
 73
     0
 74
     0
 75
     1
 76
     1
 77
     1
 78
     8
 79
     2
140
3.5
141
0.0
143
0.0393701
146
0.71
147
1.5
172
     1
176
   256
177
   256
178
     2
271
     2
272
     3
274
     4
283
     0
284
     8
340
11
371
    -1
372
    -1
  0
DIMSTYLE
105
24B
330
A
100
AcDbSymbolTableRecord
100
AcDbDimStyleTableRecord
  2
AM_DIN$SH
 70
     0
  4
"
 41
2.5
 42
1.0
 43
10.0
 44
1.0
 47
0.1
 48
0.1
 73
     0
 74
     0
 75
     1
 76
     1
 77
     1
 78
     8
 79
     2
140
3.5
141
0.0
143
0.0393701
144
2.0
146
0.71
147
1.5
172
     1
173
     1
176
   256
177
   256
178
     2
271
     2
272
     3
274
     4
283
     0
284
     8
340
11
343
87
371
    -1
372
    -1
  0
DIMSTYLE
105
2C2
330
A
100
AcDbSymbolTableRecord
100
AcDbDimStyleTableRecord
  2
Standard
 70
     0
340
11
  0
DIMSTYLE
105
33C
330
A
100
AcDbSymbolTableRecord
100
AcDbDimStyleTableRecord
  2
GEN-ISO
 70
     0
  4
"
 41
2.5
 42
1.0
 43
7.0
 44
1.0
 47
0.1
 48
0.1
 73
     0
 74
     0
 77
     1
 78
     8
140
3.5
141
0.0
143
0.0393701
146
0.71
147
0.6
172
     1
176
   256
177
   256
178
     2
271
     2
272
     3
274
     4
283
     0
340
11
  0
DIMSTYLE
105
598
102
{ACAD_REACTORS
330
985
330
986
330
1D71
330
1D89
330
2066
102
}
330
A
100
AcDbSymbolTableRecord
100
AcDbDimStyleTableRecord
  2
AM_DIN$0
 70
     0
  4
"
 41
2.5
 42
0.0
 43
10.0
 44
2.0
 47
0.1
 48
0.1
 73
     0
 74
     0
 77
     1
 78
     8
 79
     2
140
3.5
141
0.0
143
0.0393701
146
0.71
147
1.5
172
     1
176
   256
177
   256
178
     2
271
     2
272
     2
283
     0
284
     8
340
11
371
    -1
372
    -1
  0
ENDTAB
  0
TABLE
  2
BLOCK_RECORD
  5
1
330
0
100
AcDbSymbolTable
 70
    22
  0
BLOCK_RECORD
  5
1F
102
{ACAD_XDICTIONARY
360
8F
102
}
330
1
100
AcDbSymbolTableRecord
100
AcDbBlockTableRecord
  2
*Model_Space
340
22
  0
BLOCK_RECORD
  5
1B
330
1
100
AcDbSymbolTableRecord
100
AcDbBlockTableRecord
  2
*Paper_Space
340
1E
  0
BLOCK_RECORD
  5
23
330
1
100
AcDbSymbolTableRecord
100
AcDbBlockTableRecord
  2
*Paper_Space0
340
26
  0
BLOCK_RECORD
  5
87
330
1
100
AcDbSymbolTableRecord
100
AcDbBlockTableRecord
  2
GENAXEH
340
0
  0
BLOCK_RECORD
  5
2C4
330
1
100
AcDbSymbolTableRecord
100
AcDbBlockTableRecord
  2
DIN_A2
340
0
102
{BLKREFS
331
32A
102
}
  0
BLOCK_RECORD
  5
32F
330
1
100
AcDbSymbolTableRecord
100
AcDbBlockTableRecord
  2
sfm
340
0
102
{BLKREFS
331
440
102
}
  0
BLOCK_RECORD
  5
386
102
{ACAD_XDICTIONARY
360
442
102
}
330
1
100
AcDbSymbolTableRecord
100
AcDbBlockTableRecord
  2
REFLEX_EDBTITLE
340
0
  0
BLOCK_RECORD
  5
4AB
330
1
100
AcDbSymbolTableRecord
100
AcDbBlockTableRecord
  2
1
340
0
310
2800000020000000200000000100080000000000000400000000000000000000000000000000000000000000000080000080000000808000800000008000800080800000C0C0C000C0DCC000F0CAA6000020400000206000002080000020A0000020C0000020E00000400000004020000040400000406000004080000040A0
310
000040C0000040E00000600000006020000060400000606000006080000060A0000060C0000060E00000800000008020000080400000806000008080000080A0000080C0000080E00000A0000000A0200000A0400000A0600000A0800000A0A00000A0C00000A0E00000C0000000C0200000C0400000C0600000C0800000C0
310
A00000C0C00000C0E00000E0000000E0200000E0400000E0600000E0800000E0A00000E0C00000E0E00040000000400020004000400040006000400080004000A0004000C0004000E00040200000402020004020400040206000402080004020A0004020C0004020E000404000004040200040404000404060004040800040
310
40A0004040C0004040E00040600000406020004060400040606000406080004060A0004060C0004060E00040800000408020004080400040806000408080004080A0004080C0004080E00040A0000040A0200040A0400040A0600040A0800040A0A00040A0C00040A0E00040C0000040C0200040C0400040C0600040C08000
310
40C0A00040C0C00040C0E00040E0000040E0200040E0400040E0600040E0800040E0A00040E0C00040E0E00080000000800020008000400080006000800080008000A0008000C0008000E00080200000802020008020400080206000802080008020A0008020C0008020E00080400000804020008040400080406000804080
310
008040A0008040C0008040E00080600000806020008060400080606000806080008060A0008060C0008060E00080800000808020008080400080806000808080008080A0008080C0008080E00080A0000080A0200080A0400080A0600080A0800080A0A00080A0C00080A0E00080C0000080C0200080C0400080C0600080C0
310
800080C0A00080C0C00080C0E00080E0000080E0200080E0400080E0600080E0800080E0A00080E0C00080E0E000C0000000C0002000C0004000C0006000C0008000C000A000C000C000C000E000C0200000C0202000C0204000C0206000C0208000C020A000C020C000C020E000C0400000C0402000C0404000C0406000C0
310
408000C040A000C040C000C040E000C0600000C0602000C0604000C0606000C0608000C060A000C060C000C060E000C0800000C0802000C0804000C0806000C0808000C080A000C080C000C080E000C0A00000C0A02000C0A04000C0A06000C0A08000C0A0A000C0A0C000C0A0E000C0C00000C0C02000C0C04000C0C06000
310
C0C08000C0C0A000F0FBFF00A4A0A000808080000000FF0000FF000000FFFF00FF000000FF00FF00FFFF0000FFFFFF00000000000000000000000000000000000000000000000000000000000000000000000000000000000000000000000000FD000000000000000000000000000000000000000000000000000000000000
310
00FD00000000000000000000000000000000000000000000000000000000FDFDFDFDFDFD000000000000000000000000000000000000000000000000FDFDFDFD00FDFDFDFDFDFD00000000000000000000000000000000000000FDFD0000FDFDFDFDFDFD0000FDFDFD000000000000000000000000000000FDFD00FDFD00FD
310
FDFDFDFDFD00FDFD00FDFD00000000000000000000000000FDFD000000FD0000FDFDFDFDFD00FDFD0000FDFD000000000000000000000000FDFDFD0000FDFD00FDFDFDFD00FDFD0000FDFDFD0000000000000000000000FD0000FDFD0000FDFDFDFDFDFDFDFDFD00FDFD00FDFD000000000000000000FDFD000000FDFDFDFD
310
FDFDFDFDFDFDFDFDFDFD000000FDFD0000000000000000FDFDFDFD0000FD00FDFDFDFDFDFDFDFD00FD0000FDFDFDFD0000000000000000FD00FDFDFDFDFDFD00FDFDFDFDFDFD00FDFDFDFDFDFD00FD00000000000000FDFD000000FDFDFDFDFDFDFD00FDFDFDFDFDFDFDFD000000FD00000000000000FDFDFDFDFDFDFDFDFD
310
FD000000FD00FDFDFDFDFDFDFDFDFDFDFD000000000000FDFDFDFDFDFDFDFDFDFD000000FD0000FDFDFDFDFDFDFDFDFDFD00000000FDFDFDFDFDFDFDFDFDFDFDFDFDFDFDFDFDFDFDFDFDFDFDFDFDFDFDFDFDFD00000000FDFD00FDFDFDFDFDFDFD000000FD0000FDFDFDFDFDFDFD0000FD000000000000FDFDFDFDFDFDFDFD
310
FDFDFDFD00FDFDFDFDFDFDFDFDFDFDFDFDFD00000000000000FDFD0000FDFDFDFDFDFDFDFDFDFDFDFDFDFDFDFD0000FDFD0000000000000000FDFD00FDFDFDFDFDFDFDFDFDFDFDFDFDFDFDFDFDFD00FDFD000000000000000000FDFDFDFD0000FDFDFD00FDFDFDFDFDFD0000FDFDFDFDFD000000000000000000FDFD000000
310
FDFDFDFDFDFDFDFDFDFDFDFD000000FDFD0000000000000000000000FD0000FDFD00FDFDFDFDFDFDFDFD00FDFD00FDFD000000000000000000000000FD0000FD0000FDFD00FDFD00FDFD0000FD00FDFD00000000000000000000000000FDFD000000FDFD00FDFD00FDFD000000FDFD00000000000000000000000000000000
310
FDFDFDFD0000FDFD0000FDFDFDFDFD00000000000000000000000000000000000000FDFDFD00FDFD0000FDFDFD000000000000000000000000000000000000000000000000FDFDFDFDFD0000000000000000000000000000000000000000000000000000000000FD0000000000000000000000000000000000000000000000
310
0000000000000000FD0000000000000000000000000000000000000000000000000000000000000000000000000000000000000000000000
1001
ACAD
1000
DesignCenter Data
1002
{
1070
     1
1070
     4
1002
}
  0
BLOCK_RECORD
  5
A37
330
1
100
AcDbSymbolTableRecord
100
AcDbBlockTableRecord
  2
*D6
340
0
  0
BLOCK_RECORD
  5
A43
330
1
100
AcDbSymbolTableRecord
100
AcDbBlockTableRecord
  2
*D7
340
0
  0
BLOCK_RECORD
  5
A4F
330
1
100
AcDbSymbolTableRecord
100
AcDbBlockTableRecord
  2
*D8
340
0
  0
BLOCK_RECORD
  5
A5B
330
1
100
AcDbSymbolTableRecord
100
AcDbBlockTableRecord
  2
*D9
340
0
  0
BLOCK_RECORD
  5
A67
330
1
100
AcDbSymbolTableRecord
100
AcDbBlockTableRecord
  2
*D10
340
0
  0
BLOCK_RECORD
  5
A73
330
1
100
AcDbSymbolTableRecord
100
AcDbBlockTableRecord
  2
*D11
340
0
  0
BLOCK_RECORD
  5
A7F
330
1
100
AcDbSymbolTableRecord
100
AcDbBlockTableRecord
  2
*D12
340
0
  0
BLOCK_RECORD
  5
A8B
330
1
100
AcDbSymbolTableRecord
100
AcDbBlockTableRecord
  2
*D13
340
0
  0
BLOCK_RECORD
  5
A97
330
1
100
AcDbSymbolTableRecord
100
AcDbBlockTableRecord
  2
*D14
340
0
  0
BLOCK_RECORD
  5
AA3
330
1
100
AcDbSymbolTableRecord
100
AcDbBlockTableRecord
  2
*D15
340
0
  0
BLOCK_RECORD
  5
1D72
330
1
100
AcDbSymbolTableRecord
100
AcDbBlockTableRecord
  2
*D16
340
0
  0
BLOCK_RECORD
  5
1D8A
330
1
100
AcDbSymbolTableRecord
100
AcDbBlockTableRecord
  2
*D17
340
0
  0
BLOCK_RECORD
  5
2067
330
1
100
AcDbSymbolTableRecord
100
AcDbBlockTableRecord
  2
*D19
340
0
  0
ENDTAB
  0
ENDSEC
  0
SECTION
  2
BLOCKS
  0
BLOCK
  5
20
330
1F
100
AcDbEntity
  8
0
100
AcDbBlockBegin
  2
*Model_Space
 70
     0
 10
0.0
 20
0.0
 30
0.0
  3
*Model_Space
  1

  0
ENDBLK
  5
21
330
1F
100
AcDbEntity
  8
0
100
AcDbBlockEnd
  0
BLOCK
  5
1C
330
1B
100
AcDbEntity
 67
     1
  8
0
100
AcDbBlockBegin
  2
*Paper_Space
 70
     0
 10
0.0
 20
0.0
 30
0.0
  3
*Paper_Space
  1

  0
ENDBLK
  5
1D
330
1B
100
AcDbEntity
 67
     1
  8
0
100
AcDbBlockEnd
  0
BLOCK
  5
24
330
23
100
AcDbEntity
 67
     1
  8
0
100
AcDbBlockBegin
  2
*Paper_Space0
 70
     0
 10
0.0
 20
0.0
 30
0.0
  3
*Paper_Space0
  1

  0
ENDBLK
  5
25
330
23
100
AcDbEntity
 67
     1
  8
0
100
AcDbBlockEnd
  0
BLOCK
  5
2016
330
87
100
AcDbEntity
  8
0
100
AcDbBlockBegin
  2
GENAXEH
 70
     0
 10
0.0
 20
0.0
 30
0.0
  3
GENAXEH
  1

  0
LINE
  5
2017
330
87
100
AcDbEntity
  8
0
100
AcDbLine
 10
-1.0
 20
0.0
 30
0.0
 11
1.0
 21
0.0
 31
0.0
  0
ENDBLK
  5
2018
330
87
100
AcDbEntity
  8
0
100
AcDbBlockEnd
  0
BLOCK
  5
327
330
2C4
100
AcDbEntity
  8
0
100
AcDbBlockBegin
  2
DIN_A2
 70
     0
 10
0.0
 20
0.0
 30
0.0
  3
DIN_A2
  1

  0
LINE
  5
2C5
330
2C4
100
AcDbEntity
  8
AM_BOR
 62
     1
370
    25
100
AcDbLine
 10
10.00000000000002
 20
410.0
 30
0.0
 11
584.0
 21
410.0
 31
0.0
  0
LINE
  5
2C6
330
2C4
100
AcDbEntity
  8
0
100
AcDbLine
 10
5.0
 20
5.0
 30
0.0
 11
5.000000000000023
 21
415.0
 31
0.0
  0
TEXT
  5
2C7
330
2C4
100
AcDbEntity
  8
0
 60
     1
100
AcDbText
 10
583.9999999999998
 20
10.0
 30
0.0
 40
3.5
  1
!GENTITLE-INSERT
  7
ACDINTS
100
AcDbText
  0
TEXT
  5
2C8
330
2C4
100
AcDbEntity
  8
0
 60
     1
100
AcDbText
 10
10.0
 20
10.00000000000005
 30
0.0
 40
3.5
  1
!GENTITLE-LL
  7
ACDINTS
100
AcDbText
  0
TEXT
  5
2C9
330
2C4
100
AcDbEntity
  8
0
 60
     1
100
AcDbText
 10
584.0
 20
410.0
 30
0.0
 40
3.5
  1
!GENTITLE-RU
  7
ACDINTS
100
AcDbText
  0
TEXT
  5
2CA
330
2C4
100
AcDbEntity
  8
0
 60
     1
100
AcDbText
 10
594.0
 20
420.0
 30
0.0
 40
3.5
  1
!GENTITLE-MAX
  7
ACDINTS
100
AcDbText
  0
LINE
  5
2CB
330
2C4
100
AcDbEntity
  8
AM_BOR
 62
     1
370
    25
100
AcDbLine
 10
401.9999999999997
 20
0.0
 30
0.0
 11
401.9999999999997
 21
5.000000000000023
 31
0.0
  0
LINE
  5
2CC
330
2C4
100
AcDbEntity
  8
AM_BOR
 62
     1
370
    25
100
AcDbLine
 10
593.9999999999996
 20
0.0
 30
0.0
 11
401.9999999999997
 21
0.0
 31
0.0
  0
LINE
  5
2CD
330
2C4
100
AcDbEntity
  8
AM_BOR
 62
     1
370
    25
100
AcDbLine
 10
583.9999999999998
 20
10.0
 30
0.0
 11
9.999999999999886
 21
10.00000000000007
 31
0.0
  0
LINE
  5
2CE
330
2C4
100
AcDbEntity
  8
AM_BOR
 62
     1
370
    25
100
AcDbLine
 10
53.66666700000002
 20
415.0
 30
0.0
 11
53.66666700000002
 21
410.0
 31
0.0
  0
TEXT
  5
2CF
330
2C4
100
AcDbEntity
  8
AM_BOR
 62
     1
370
    25
100
AcDbText
 10
28.33333350000002
 20
410.5
 30
0.0
 40
4.0
  1
1
  7
ACDINTS
 72
     1
 11
29.33333350000002
 21
412.5
 31
0.0
100
AcDbText
 73
     2
  0
LINE
  5
2D0
330
2C4
100
AcDbEntity
  8
AM_BOR
 62
     1
370
    25
100
AcDbLine
 10
588.9999999999997
 20
56.25
 30
0.0
 11
584.0168861241237
 21
56.25
 31
0.0
  0
TEXT
  5
2D1
330
2C4
100
AcDbEntity
  8
AM_BOR
 62
     1
370
    25
100
AcDbText
 10
584.9084430620617
 20
28.625
 30
0.0
 40
4.0
  1
H
  7
ACDINTS
 72
     1
 11
586.5084430620618
 21
30.625
 31
0.0
100
AcDbText
 73
     2
  0
LINE
  5
2D2
330
2C4
100
AcDbEntity
  8
AM_BOR
 62
     1
370
    25
100
AcDbLine
 10
584.0
 20
410.0
 30
0.0
 11
583.9999999999998
 21
10.0
 31
0.0
  0
LINE
  5
2D3
330
2C4
100
AcDbEntity
  8
AM_BOR
 62
     1
370
    25
100
AcDbLine
 10
10.0
 20
10.0
 30
0.0
 11
10.00000000000002
 21
410.0
 31
0.0
  0
LINE
  5
2D4
330
2C4
100
AcDbEntity
  8
0
100
AcDbLine
 10
588.9999999999997
 20
5.0
 30
0.0
 11
4.999999999999886
 21
5.000000000000071
 31
0.0
  0
LINE
  5
2D5
330
2C4
100
AcDbEntity
  8
0
100
AcDbLine
 10
589.0
 20
415.0
 30
0.0
 11
588.9999999999997
 21
5.0
 31
0.0
  0
LINE
  5
2D6
330
2C4
100
AcDbEntity
  8
0
100
AcDbLine
 10
5.000000000000023
 20
415.0
 30
0.0
 11
589.0
 21
415.0
 31
0.0
  0
LINE
  5
2D7
330
2C4
100
AcDbEntity
  8
AM_BOR
 62
     1
370
    25
100
AcDbLine
 10
593.9999999999996
 20
0.0
 30
0.0
 11
-0.0000000000001137
 21
0.0000000000000727
 31
0.0
  0
LINE
  5
2D8
330
2C4
100
AcDbEntity
  8
AM_BOR
 62
     1
370
    25
100
AcDbLine
 10
0.0000000000000257
 20
420.0
 30
0.0
 11
594.0
 21
420.0
 31
0.0
  0
LINE
  5
2D9
330
2C4
100
AcDbEntity
  8
AM_BOR
 62
     1
370
    25
100
AcDbLine
 10
0.0
 20
0.0
 30
0.0
 11
0.0000000000000257
 21
420.0
 31
0.0
  0
LINE
  5
2DA
330
2C4
100
AcDbEntity
  8
AM_BOR
 62
     1
370
    25
100
AcDbLine
 10
210.0
 20
5.0
 30
0.0
 11
210.0
 21
0.0
 31
0.0
  0
LINE
  5
2DB
330
2C4
100
AcDbEntity
  8
AM_BOR
 62
     1
370
    25
100
AcDbLine
 10
0.0
 20
297.0
 30
0.0
 11
5.0
 21
297.0
 31
0.0
  0
LINE
  5
2DC
330
2C4
100
AcDbEntity
  8
AM_BOR
 62
     1
370
    25
100
AcDbLine
 10
105.0
 20
420.0
 30
0.0
 11
105.0
 21
415.0
 31
0.0
  0
LINE
  5
2DD
330
2C4
100
AcDbEntity
  8
AM_BOR
 62
     1
370
    25
100
AcDbLine
 10
594.0
 20
420.0
 30
0.0
 11
593.9999999999996
 21
0.0
 31
0.0
  0
LINE
  5
2DE
330
2C4
100
AcDbEntity
  8
AM_BOR
 62
     2
370
    35
100
AcDbLine
 10
297.0
 20
415.0
 30
0.0
 11
297.0
 21
400.0
 31
0.0
  0
LINE
  5
2DF
330
2C4
100
AcDbEntity
  8
AM_BOR
 62
     2
370
    35
100
AcDbLine
 10
5.00000000000001
 20
210.0
 30
0.0
 11
20.00000000000001
 21
210.0
 31
0.0
  0
LINE
  5
2E0
330
2C4
100
AcDbEntity
  8
AM_BOR
 62
     2
370
    35
100
AcDbLine
 10
296.9999999999999
 20
5.000000000000034
 30
0.0
 11
296.9999999999999
 21
20.00000000000003
 31
0.0
  0
LINE
  5
2E1
330
2C4
100
AcDbEntity
  8
AM_BOR
 62
     2
370
    35
100
AcDbLine
 10
589.0
 20
210.0
 30
0.0
 11
574.0
 21
210.0
 31
0.0
  0
TEXT
  5
2E2
330
2C4
100
AcDbEntity
  8
AM_BOR
 62
     1
370
    25
100
AcDbText
 10
76.5306697913386
 20
410.5
 30
0.0
 40
4.0
  1
2
  7
ACDINTS
 72
     1
 11
78.00000050000001
 21
412.5
 31
0.0
100
AcDbText
 73
     2
  0
LINE
  5
2E3
330
2C4
100
AcDbEntity
  8
AM_BOR
 62
     1
370
    25
100
AcDbLine
 10
102.333334
 20
415.0
 30
0.0
 11
102.333334
 21
410.0
 31
0.0
  0
TEXT
  5
2E4
330
2C4
100
AcDbEntity
  8
AM_BOR
 62
     1
370
    25
100
AcDbText
 10
125.1838247875254
 20
410.5
 30
0.0
 40
4.0
  1
3
  7
ACDINTS
 72
     1
 11
126.6666675
 21
412.5
 31
0.0
100
AcDbText
 73
     2
  0
LINE
  5
2E5
330
2C4
100
AcDbEntity
  8
AM_BOR
 62
     1
370
    25
100
AcDbLine
 10
151.000001
 20
415.0
 30
0.0
 11
151.000001
 21
410.0
 31
0.0
  0
TEXT
  5
2E6
330
2C4
100
AcDbEntity
  8
AM_BOR
 62
     1
370
    25
100
AcDbText
 10
173.7333344999999
 20
410.5
 30
0.0
 40
4.0
  1
4
  7
ACDINTS
 72
     1
 11
175.3333344999999
 21
412.5
 31
0.0
100
AcDbText
 73
     2
  0
LINE
  5
2E7
330
2C4
100
AcDbEntity
  8
AM_BOR
 62
     1
370
    25
100
AcDbLine
 10
199.666668
 20
415.0
 30
0.0
 11
199.666668
 21
410.0
 31
0.0
  0
TEXT
  5
2E8
330
2C4
100
AcDbEntity
  8
AM_BOR
 62
     1
370
    25
100
AcDbText
 10
222.5171587875254
 20
410.5
 30
0.0
 40
4.0
  1
5
  7
ACDINTS
 72
     1
 11
224.0000015
 21
412.5
 31
0.0
100
AcDbText
 73
     2
  0
LINE
  5
2E9
330
2C4
100
AcDbEntity
  8
AM_BOR
 62
     1
370
    25
100
AcDbLine
 10
248.333335
 20
415.0
 30
0.0
 11
248.333335
 21
410.0
 31
0.0
  0
TEXT
  5
2EA
330
2C4
100
AcDbEntity
  8
AM_BOR
 62
     1
370
    25
100
AcDbText
 10
271.2871409409449
 20
410.5
 30
0.0
 40
4.0
  1
6
  7
ACDINTS
 72
     1
 11
272.6666685
 21
412.5
 31
0.0
100
AcDbText
 73
     2
  0
TEXT
  5
2EB
330
2C4
100
AcDbEntity
  8
AM_BOR
 62
     1
370
    25
100
AcDbText
 10
319.9333355
 20
410.5
 30
0.0
 40
4.0
  1
7
  7
ACDINTS
 72
     1
 11
321.3333355
 21
412.5
 31
0.0
100
AcDbText
 73
     2
  0
LINE
  5
2EC
330
2C4
100
AcDbEntity
  8
AM_BOR
 62
     1
370
    25
100
AcDbLine
 10
345.666669
 20
415.0
 30
0.0
 11
345.666669
 21
410.0
 31
0.0
  0
TEXT
  5
2ED
330
2C4
100
AcDbEntity
  8
AM_BOR
 62
     1
370
    25
100
AcDbText
 10
368.6000025
 20
410.5
 30
0.0
 40
4.0
  1
8
  7
ACDINTS
 72
     1
 11
370.0000025
 21
412.5
 31
0.0
100
AcDbText
 73
     2
  0
LINE
  5
2EE
330
2C4
100
AcDbEntity
  8
AM_BOR
 62
     1
370
    25
100
AcDbLine
 10
394.333336
 20
415.0
 30
0.0
 11
394.333336
 21
410.0
 31
0.0
  0
TEXT
  5
2EF
330
2C4
100
AcDbEntity
  8
AM_BOR
 62
     1
370
    25
100
AcDbText
 10
417.1993365934823
 20
410.5
 30
0.0
 40
4.0
  1
9
  7
ACDINTS
 72
     1
 11
418.6666694999997
 21
412.5
 31
0.0
100
AcDbText
 73
     2
  0
LINE
  5
2F0
330
2C4
100
AcDbEntity
  8
AM_BOR
 62
     1
370
    25
100
AcDbLine
 10
443.0000029999998
 20
415.0
 30
0.0
 11
443.0000029999998
 21
410.0
 31
0.0
  0
TEXT
  5
2F1
330
2C4
100
AcDbEntity
  8
AM_BOR
 62
     1
370
    25
100
AcDbText
 10
464.9317616968501
 20
410.5
 30
0.0
 40
4.0
  1
10
  7
ACDINTS
 72
     1
 11
467.3333364999997
 21
412.5
 31
0.0
100
AcDbText
 73
     2
  0
LINE
  5
2F2
330
2C4
100
AcDbEntity
  8
AM_BOR
 62
     1
370
    25
100
AcDbLine
 10
491.6666699999997
 20
415.0
 30
0.0
 11
491.6666699999997
 21
410.0
 31
0.0
  0
TEXT
  5
2F3
330
2C4
100
AcDbEntity
  8
AM_BOR
 62
     1
370
    25
100
AcDbText
 10
514.0000034999998
 20
410.5
 30
0.0
 40
4.0
  1
11
  7
ACDINTS
 72
     1
 11
516.0000034999998
 21
412.5
 31
0.0
100
AcDbText
 73
     2
  0
LINE
  5
2F4
330
2C4
100
AcDbEntity
  8
AM_BOR
 62
     1
370
    25
100
AcDbLine
 10
540.3333369999996
 20
415.0
 30
0.0
 11
540.3333369999996
 21
410.0
 31
0.0
  0
TEXT
  5
2F5
330
2C4
100
AcDbEntity
  8
AM_BOR
 62
     1
370
    25
100
AcDbText
 10
562.1465523897636
 20
410.5
 30
0.0
 40
4.0
  1
12
  7
ACDINTS
 72
     1
 11
564.6666704999999
 21
412.5
 31
0.0
100
AcDbText
 73
     2
  0
LINE
  5
2F6
330
2C4
100
AcDbEntity
  8
AM_BOR
 62
     1
370
    25
100
AcDbLine
 10
102.3333339999999
 20
10.00000000000005
 30
0.0
 11
102.3333339999999
 21
5.000000000000055
 31
0.0
  0
LINE
  5
2F7
330
2C4
100
AcDbEntity
  8
AM_BOR
 62
     1
370
    25
100
AcDbLine
 10
53.66666699999996
 20
10.00000000000005
 30
0.0
 11
53.66666699999996
 21
5.000000000000055
 31
0.0
  0
TEXT
  5
2F8
330
2C4
100
AcDbEntity
  8
AM_BOR
 62
     1
370
    25
100
AcDbText
 10
28.33333349999997
 20
5.500000000000055
 30
0.0
 40
4.0
  1
1
  7
ACDINTS
 72
     1
 11
29.33333349999997
 21
7.500000000000055
 31
0.0
100
AcDbText
 73
     2
  0
TEXT
  5
2F9
330
2C4
100
AcDbEntity
  8
AM_BOR
 62
     1
370
    25
100
AcDbText
 10
76.53066979133853
 20
5.500000000000055
 30
0.0
 40
4.0
  1
2
  7
ACDINTS
 72
     1
 11
78.00000049999995
 21
7.500000000000055
 31
0.0
100
AcDbText
 73
     2
  0
LINE
  5
2FA
330
2C4
100
AcDbEntity
  8
AM_BOR
 62
     1
370
    25
100
AcDbLine
 10
199.6666679999999
 20
10.00000000000005
 30
0.0
 11
199.6666679999999
 21
5.000000000000055
 31
0.0
  0
LINE
  5
2FB
330
2C4
100
AcDbEntity
  8
AM_BOR
 62
     1
370
    25
100
AcDbLine
 10
151.0000009999999
 20
10.00000000000005
 30
0.0
 11
151.0000009999999
 21
5.000000000000055
 31
0.0
  0
TEXT
  5
2FC
330
2C4
100
AcDbEntity
  8
AM_BOR
 62
     1
370
    25
100
AcDbText
 10
125.1838247875252
 20
5.500000000000055
 30
0.0
 40
4.0
  1
3
  7
ACDINTS
 72
     1
 11
126.6666674999999
 21
7.500000000000055
 31
0.0
100
AcDbText
 73
     2
  0
TEXT
  5
2FD
330
2C4
100
AcDbEntity
  8
AM_BOR
 62
     1
370
    25
100
AcDbText
 10
173.7333344999999
 20
5.500000000000055
 30
0.0
 40
4.0
  1
4
  7
ACDINTS
 72
     1
 11
175.3333344999999
 21
7.500000000000055
 31
0.0
100
AcDbText
 73
     2
  0
LINE
  5
2FE
330
2C4
100
AcDbEntity
  8
AM_BOR
 62
     1
370
    25
100
AcDbLine
 10
248.3333349999999
 20
10.00000000000005
 30
0.0
 11
248.3333349999999
 21
5.000000000000055
 31
0.0
  0
TEXT
  5
2FF
330
2C4
100
AcDbEntity
  8
AM_BOR
 62
     1
370
    25
100
AcDbText
 10
222.5171587875253
 20
5.500000000000055
 30
0.0
 40
4.0
  1
5
  7
ACDINTS
 72
     1
 11
224.0000014999999
 21
7.500000000000055
 31
0.0
100
AcDbText
 73
     2
  0
TEXT
  5
300
330
2C4
100
AcDbEntity
  8
AM_BOR
 62
     1
370
    25
100
AcDbText
 10
271.2871409409448
 20
5.500000000000055
 30
0.0
 40
4.0
  1
6
  7
ACDINTS
 72
     1
 11
272.6666684999999
 21
7.500000000000055
 31
0.0
100
AcDbText
 73
     2
  0
LINE
  5
301
330
2C4
100
AcDbEntity
  8
AM_BOR
 62
     1
370
    25
100
AcDbLine
 10
394.3333359999999
 20
10.00000000000005
 30
0.0
 11
394.3333359999999
 21
5.000000000000055
 31
0.0
  0
LINE
  5
302
330
2C4
100
AcDbEntity
  8
AM_BOR
 62
     1
370
    25
100
AcDbLine
 10
345.6666689999999
 20
10.00000000000005
 30
0.0
 11
345.6666689999999
 21
5.000000000000055
 31
0.0
  0
TEXT
  5
303
330
2C4
100
AcDbEntity
  8
AM_BOR
 62
     1
370
    25
100
AcDbText
 10
368.6000025
 20
5.500000000000055
 30
0.0
 40
4.0
  1
8
  7
ACDINTS
 72
     1
 11
370.0000025
 21
7.500000000000055
 31
0.0
100
AcDbText
 73
     2
  0
TEXT
  5
304
330
2C4
100
AcDbEntity
  8
AM_BOR
 62
     1
370
    25
100
AcDbText
 10
319.9333354999999
 20
5.500000000000055
 30
0.0
 40
4.0
  1
7
  7
ACDINTS
 72
     1
 11
321.3333354999999
 21
7.500000000000055
 31
0.0
100
AcDbText
 73
     2
  0
LINE
  5
305
330
2C4
100
AcDbEntity
  8
AM_BOR
 62
     1
370
    25
100
AcDbLine
 10
588.9999999999997
 20
107.5
 30
0.0
 11
584.0168861241237
 21
107.5
 31
0.0
  0
TEXT
  5
306
330
2C4
100
AcDbEntity
  8
AM_BOR
 62
     1
370
    25
100
AcDbText
 10
585.0119964526551
 20
79.875
 30
0.0
 40
4.0
  1
G
  7
ACDINTS
 72
     1
 11
586.5084430620618
 21
81.875
 31
0.0
100
AcDbText
 73
     2
  0
LINE
  5
307
330
2C4
100
AcDbEntity
  8
AM_BOR
 62
     1
370
    25
100
AcDbLine
 10
588.9999999999997
 20
158.75
 30
0.0
 11
584.0168861241237
 21
158.75
 31
0.0
  0
TEXT
  5
308
330
2C4
100
AcDbEntity
  8
AM_BOR
 62
     1
370
    25
100
AcDbText
 10
585.1084430620618
 20
131.125
 30
0.0
 40
4.0
  1
F
  7
ACDINTS
 72
     1
 11
586.5084430620618
 21
133.125
 31
0.0
100
AcDbText
 73
     2
  0
LINE
  5
309
330
2C4
100
AcDbEntity
  8
AM_BOR
 62
     1
370
    25
100
AcDbLine
 10
588.9999999999997
 20
210.0
 30
0.0
 11
584.0168861241237
 21
210.0
 31
0.0
  0
TEXT
  5
30A
330
2C4
100
AcDbEntity
  8
AM_BOR
 62
     1
370
    25
100
AcDbText
 10
585.1084430620618
 20
182.375
 30
0.0
 40
4.0
  1
E
  7
ACDINTS
 72
     1
 11
586.5084430620618
 21
184.375
 31
0.0
100
AcDbText
 73
     2
  0
LINE
  5
30B
330
2C4
100
AcDbEntity
  8
AM_BOR
 62
     1
370
    25
100
AcDbLine
 10
588.9999999999997
 20
261.25
 30
0.0
 11
584.0168861241237
 21
261.25
 31
0.0
  0
TEXT
  5
30C
330
2C4
100
AcDbEntity
  8
AM_BOR
 62
     1
370
    25
100
AcDbText
 10
584.7945343324091
 20
233.625
 30
0.0
 40
4.0
  1
D
  7
ACDINTS
 72
     1
 11
586.5084430620618
 21
235.625
 31
0.0
100
AcDbText
 73
     2
  0
LINE
  5
30D
330
2C4
100
AcDbEntity
  8
AM_BOR
 62
     1
370
    25
100
AcDbLine
 10
588.9999999999997
 20
312.5
 30
0.0
 11
584.0168861241237
 21
312.5
 31
0.0
  0
TEXT
  5
30E
330
2C4
100
AcDbEntity
  8
AM_BOR
 62
     1
370
    25
100
AcDbText
 10
585.2016411135958
 20
284.875
 30
0.0
 40
4.0
  1
C
  7
ACDINTS
 72
     1
 11
586.5084430620618
 21
286.875
 31
0.0
100
AcDbText
 73
     2
  0
LINE
  5
30F
330
2C4
100
AcDbEntity
  8
AM_BOR
 62
     1
370
    25
100
AcDbLine
 10
588.9999999999997
 20
363.75
 30
0.0
 11
584.0168861241237
 21
363.75
 31
0.0
  0
TEXT
  5
310
330
2C4
100
AcDbEntity
  8
AM_BOR
 62
     1
370
    25
100
AcDbText
 10
584.9084430620617
 20
336.125
 30
0.0
 40
4.0
  1
B
  7
ACDINTS
 72
     1
 11
586.5084430620618
 21
338.125
 31
0.0
100
AcDbText
 73
     2
  0
TEXT
  5
311
330
2C4
100
AcDbEntity
  8
AM_BOR
 62
     1
370
    25
100
AcDbText
 10
584.7084430620618
 20
387.375
 30
0.0
 40
4.0
  1
A
  7
ACDINTS
 72
     1
 11
586.5084430620618
 21
389.375
 31
0.0
100
AcDbText
 73
     2
  0
TEXT
  5
312
330
2C4
100
AcDbEntity
  8
AM_BOR
 62
     1
370
    25
100
AcDbText
 10
5.908443062062042
 20
28.62500000000003
 30
0.0
 40
4.0
  1
H
  7
ACDINTS
 72
     1
 11
7.508443062062043
 21
30.62500000000003
 31
0.0
100
AcDbText
 73
     2
  0
LINE
  5
313
330
2C4
100
AcDbEntity
  8
AM_BOR
 62
     1
370
    25
100
AcDbLine
 10
10.0
 20
56.25000000000003
 30
0.0
 11
5.016886124124082
 21
56.25000000000003
 31
0.0
  0
TEXT
  5
314
330
2C4
100
AcDbEntity
  8
AM_BOR
 62
     1
370
    25
100
AcDbText
 10
6.011996452655317
 20
79.87500000000003
 30
0.0
 40
4.0
  1
G
  7
ACDINTS
 72
     1
 11
7.508443062062043
 21
81.87500000000003
 31
0.0
100
AcDbText
 73
     2
  0
LINE
  5
315
330
2C4
100
AcDbEntity
  8
AM_BOR
 62
     1
370
    25
100
AcDbLine
 10
10.0
 20
107.5
 30
0.0
 11
5.016886124124082
 21
107.5
 31
0.0
  0
TEXT
  5
316
330
2C4
100
AcDbEntity
  8
AM_BOR
 62
     1
370
    25
100
AcDbText
 10
6.108443062062042
 20
131.125
 30
0.0
 40
4.0
  1
F
  7
ACDINTS
 72
     1
 11
7.508443062062043
 21
133.125
 31
0.0
100
AcDbText
 73
     2
  0
LINE
  5
317
330
2C4
100
AcDbEntity
  8
AM_BOR
 62
     1
370
    25
100
AcDbLine
 10
10.0
 20
158.75
 30
0.0
 11
5.016886124124082
 21
158.75
 31
0.0
  0
TEXT
  5
318
330
2C4
100
AcDbEntity
  8
AM_BOR
 62
     1
370
    25
100
AcDbText
 10
6.108443062062042
 20
182.375
 30
0.0
 40
4.0
  1
E
  7
ACDINTS
 72
     1
 11
7.508443062062043
 21
184.375
 31
0.0
100
AcDbText
 73
     2
  0
TEXT
  5
319
330
2C4
100
AcDbEntity
  8
AM_BOR
 62
     1
370
    25
100
AcDbText
 10
5.794534332409441
 20
233.625
 30
0.0
 40
4.0
  1
D
  7
ACDINTS
 72
     1
 11
7.508443062062043
 21
235.625
 31
0.0
100
AcDbText
 73
     2
  0
LINE
  5
31A
330
2C4
100
AcDbEntity
  8
AM_BOR
 62
     1
370
    25
100
AcDbLine
 10
10.0
 20
261.2500000000001
 30
0.0
 11
5.016886124124082
 21
261.2500000000001
 31
0.0
  0
TEXT
  5
31B
330
2C4
100
AcDbEntity
  8
AM_BOR
 62
     1
370
    25
100
AcDbText
 10
6.201641113595989
 20
284.8750000000001
 30
0.0
 40
4.0
  1
C
  7
ACDINTS
 72
     1
 11
7.508443062062043
 21
286.8750000000001
 31
0.0
100
AcDbText
 73
     2
  0
LINE
  5
31C
330
2C4
100
AcDbEntity
  8
AM_BOR
 62
     1
370
    25
100
AcDbLine
 10
10.0
 20
312.5
 30
0.0
 11
5.016886124124082
 21
312.5
 31
0.0
  0
TEXT
  5
31D
330
2C4
100
AcDbEntity
  8
AM_BOR
 62
     1
370
    25
100
AcDbText
 10
5.90844306206204
 20
336.125
 30
0.0
 40
4.0
  1
B
  7
ACDINTS
 72
     1
 11
7.508443062062043
 21
338.125
 31
0.0
100
AcDbText
 73
     2
  0
LINE
  5
31E
330
2C4
100
AcDbEntity
  8
AM_BOR
 62
     1
370
    25
100
AcDbLine
 10
10.0
 20
363.7500000000002
 30
0.0
 11
5.016886124124082
 21
363.7500000000002
 31
0.0
  0
TEXT
  5
31F
330
2C4
100
AcDbEntity
  8
AM_BOR
 62
     1
370
    25
100
AcDbText
 10
5.708443062062043
 20
387.3750000000002
 30
0.0
 40
4.0
  1
A
  7
ACDINTS
 72
     1
 11
7.508443062062043
 21
389.3750000000002
 31
0.0
100
AcDbText
 73
     2
  0
TEXT
  5
320
330
2C4
100
AcDbEntity
  8
AM_BOR
 62
     1
370
    25
100
AcDbText
 10
417.1993365934823
 20
5.5
 30
0.0
 40
4.0
  1
9
  7
ACDINTS
 72
     1
 11
418.6666694999997
 21
7.5
 31
0.0
100
AcDbText
 73
     2
  0
LINE
  5
321
330
2C4
100
AcDbEntity
  8
AM_BOR
 62
     1
370
    25
100
AcDbLine
 10
491.6666699999997
 20
10.0
 30
0.0
 11
491.6666699999997
 21
5.0
 31
0.0
  0
LINE
  5
322
330
2C4
100
AcDbEntity
  8
AM_BOR
 62
     1
370
    25
100
AcDbLine
 10
443.0000029999998
 20
10.0
 30
0.0
 11
443.0000029999998
 21
5.0
 31
0.0
  0
TEXT
  5
323
330
2C4
100
AcDbEntity
  8
AM_BOR
 62
     1
370
    25
100
AcDbText
 10
464.9317616968501
 20
5.5
 30
0.0
 40
4.0
  1
10
  7
ACDINTS
 72
     1
 11
467.3333364999997
 21
7.5
 31
0.0
100
AcDbText
 73
     2
  0
TEXT
  5
324
330
2C4
100
AcDbEntity
  8
AM_BOR
 62
     1
370
    25
100
AcDbText
 10
514.0000034999998
 20
5.5
 30
0.0
 40
4.0
  1
11
  7
ACDINTS
 72
     1
 11
516.0000034999998
 21
7.5
 31
0.0
100
AcDbText
 73
     2
  0
LINE
  5
325
330
2C4
100
AcDbEntity
  8
AM_BOR
 62
     1
370
    25
100
AcDbLine
 10
540.3333369999995
 20
10.0
 30
0.0
 11
540.3333369999995
 21
5.0
 31
0.0
  0
TEXT
  5
326
330
2C4
100
AcDbEntity
  8
AM_BOR
 62
     1
370
    25
100
AcDbText
 10
562.1465523897634
 20
5.5
 30
0.0
 40
4.0
  1
12
  7
ACDINTS
 72
     1
 11
564.6666704999996
 21
7.5
 31
0.0
100
AcDbText
 73
     2
  0
ENDBLK
  5
328
330
2C4
100
AcDbEntity
  8
0
100
AcDbBlockEnd
  0
BLOCK
  5
330
330
32F
100
AcDbEntity
  8
0
100
AcDbBlockBegin
  2
sfm
 70
     0
 10
0.0
 20
0.0
 30
0.0
  3
sfm
  1

  0
ARC
  5
331
330
32F
100
AcDbEntity
  8
6
100
AcDbCircle
 10
4.790170910187725
 20
3.5
 30
0.0
 40
3.5
100
AcDbArc
 50
270.0
 51
90.0
  0
ARC
  5
332
330
32F
100
AcDbEntity
  8
6
100
AcDbCircle
 10
0.0
 20
3.5
 30
0.0
 40
3.5
100
AcDbArc
 50
90.0
 51
270.0
  0
MTEXT
  5
333
330
32F
100
AcDbEntity
  8
UMRISS05
 62
     2
100
AcDbMText
 10
-2.394073030151957
 20
5.872859090629845
 30
0.0
 40
3.0
 41
14.07
 71
     1
 72
     5
  1
\fArial Black|b0|i0|c0|p34;SFM
 73
     1
 44
1.0
  0
LINE
  5
334
330
32F
100
AcDbEntity
  8
6
100
AcDbLine
 10
0.0
 20
0.0
 30
0.0
 11
4.790170910187725
 21
0.0
 31
0.0
  0
TEXT
  5
335
330
32F
100
AcDbEntity
  8
UMRISS05
 62
     2
100
AcDbText
 10
-0.9325486328996246
 20
0.8119783732929588
 30
0.0
 40
1.5
  1
geprüft
100
AcDbText
  0
LINE
  5
336
330
32F
100
AcDbEntity
  8
6
100
AcDbLine
 10
0.0
 20
7.0
 30
0.0
 11
4.790170910187725
 21
7.0
 31
0.0
  0
ENDBLK
  5
337
330
32F
100
AcDbEntity
  8
0
100
AcDbBlockEnd
  0
BLOCK
  5
443
330
386
100
AcDbEntity
  8
0
100
AcDbBlockBegin
  2
REFLEX_EDBTITLE
 70
     2
 10
0.0
 20
0.0
 30
0.0
  3
REFLEX_EDBTITLE
  1

  0
LINE
  5
387
330
386
100
AcDbEntity
  8
AM_BOR
 62
     2
370
    35
100
AcDbLine
 10
0.0
 20
0.0
 30
0.0
 11
-190.0000000000076
 21
0.0
 31
0.0
  0
TEXT
  5
388
330
386
100
AcDbEntity
  8
AM_BOR
 62
     1
370
    25
100
AcDbText
 10
-115.7901946630717
 20
76.45962598719686
 30
0.0
 40
2.2
  1
Beschreibung der Änderung
100
AcDbText
  0
LINE
  5
389
330
386
100
AcDbEntity
  8
AM_BOR
 62
     2
370
    35
100
AcDbLine
 10
-190.0000000000076
 20
95.66666666667151
 30
0.0
 11
0.0
 21
95.66666666667151
 31
0.0
  0
LINE
  5
38A
330
386
100
AcDbEntity
  8
AM_BOR
 62
     2
370
    35
100
AcDbLine
 10
-190.0000000000076
 20
90.66666666667151
 30
0.0
 11
0.0
 21
90.66666666667151
 31
0.0
  0
LINE
  5
38B
330
386
100
AcDbEntity
  8
AM_BOR
 62
     2
370
    35
100
AcDbLine
 10
-190.0000000000076
 20
85.66666666667151
 30
0.0
 11
0.0
 21
85.66666666667151
 31
0.0
  0
LINE
  5
38C
330
386
100
AcDbEntity
  8
AM_BOR
100
AcDbLine
 10
-190.0000000000076
 20
80.66666666667151
 30
0.0
 11
0.0
 21
80.66666666667151
 31
0.0
  0
LINE
  5
38D
330
386
100
AcDbEntity
  8
AM_BOR
100
AcDbLine
 10
0.0
 20
0.0
 30
0.0
 11
-190.0000000000076
 21
0.0
 31
0.0
  0
LINE
  5
38E
330
386
100
AcDbEntity
  8
AM_BOR
100
AcDbLine
 10
-190.0000000000076
 20
74.00000000000297
 30
0.0
 11
0.0
 21
74.00000000000297
 31
0.0
  0
LINE
  5
38F
330
386
100
AcDbEntity
  8
AM_BOR
100
AcDbLine
 10
-148.5000000000075
 20
53.00000000000284
 30
0.0
 11
-110.5000000000077
 21
53.00000000000281
 31
0.0
  0
LINE
  5
390
330
386
100
AcDbEntity
  8
AM_BOR
 62
     2
370
    35
100
AcDbLine
 10
-148.5000000000075
 20
48.00000000000287
 30
0.0
 11
-110.5000000000077
 21
48.00000000000281
 31
0.0
  0
LINE
  5
391
330
386
100
AcDbEntity
  8
AM_BOR
 62
     2
370
    35
100
AcDbLine
 10
-148.5000000000075
 20
43.00000000000287
 30
0.0
 11
-110.5000000000077
 21
43.0000000000028
 31
0.0
  0
LINE
  5
392
330
386
100
AcDbEntity
  8
AM_BOR
100
AcDbLine
 10
-148.5000000000075
 20
38.00000000000284
 30
0.0
 11
0.0
 21
38.00000000000284
 31
0.0
  0
LINE
  5
393
330
386
100
AcDbEntity
  8
AM_BOR
100
AcDbLine
 10
-148.5000000000075
 20
58.00000000000284
 30
0.0
 11
0.0
 21
58.00000000000284
 31
0.0
  0
TEXT
  5
394
330
386
100
AcDbEntity
  8
AM_BOR
 62
     1
370
    25
100
AcDbText
 10
-184.5453046083921
 20
53.82399366428876
 30
0.0
 40
2.5
  1
Allgemeintoleranzen
 72
     1
 11
-169.2500000000076
 21
53.82399366428876
 31
0.0
100
AcDbText
  0
LINE
  5
395
330
386
100
AcDbEntity
  8
AM_BOR
100
AcDbLine
 10
-190.0000000000076
 20
135.6666666666715
 30
0.0
 11
-190.0000000000076
 21
0.0
 31
0.0
  0
TEXT
  5
396
330
386
100
AcDbEntity
  8
AM_BOR
 62
     1
370
    25
100
AcDbText
 10
-147.0000000000076
 20
71.0
 30
0.0
 40
2.0
  1
Werkstoff:
100
AcDbText
  0
LINE
  5
397
330
386
100
AcDbEntity
  8
AM_BOR
100
AcDbLine
 10
-148.5000000000075
 20
0.0
 30
0.0
 11
-148.5000000000075
 21
74.00000000000297
 31
0.0
  0
TEXT
  5
398
330
386
100
AcDbEntity
  8
AM_BOR
 62
     1
370
    25
100
AcDbText
 10
-187.0000452657501
 20
2.857790465878093
 30
0.0
 40
2.5
  1
Alle Rechte vorbehalten.
100
AcDbText
  0
TEXT
  5
399
330
386
100
AcDbEntity
  8
AM_BOR
 62
     1
370
    25
100
AcDbText
 10
-182.0372162604731
 20
7.819725632913011
 30
0.0
 40
2.5
  1
1995 Reflex,Ahlen
100
AcDbText
1001
GENIUS_GENTRA_14
1002
{
1070
     1
1000
/
1000
1995 Reflex,Ahlen
1000
DEU
1070
     0
1040
1.0
1070
     0
1002
}
  0
LINE
  5
39A
330
386
100
AcDbEntity
  8
AM_BOR
100
AcDbLine
 10
-190.0000000000076
 20
14.00000000000297
 30
0.0
 11
-148.5000000000075
 21
14.00000000000297
 31
0.0
  0
LINE
  5
39B
330
386
100
AcDbEntity
  8
AM_BOR
100
AcDbLine
 10
-190.0000000000076
 20
25.00000000000297
 30
0.0
 11
-148.5000000000075
 21
25.00000000000297
 31
0.0
  0
LINE
  5
39C
330
386
100
AcDbEntity
  8
AM_BOR
100
AcDbLine
 10
-190.0000000000076
 20
36.00000000000297
 30
0.0
 11
-148.5000000000075
 21
36.00000000000297
 31
0.0
  0
LINE
  5
39D
330
386
100
AcDbEntity
  8
AM_BOR
100
AcDbLine
 10
-190.0000000000076
 20
47.00000000000295
 30
0.0
 11
-148.5000000000075
 21
47.00000000000295
 31
0.0
  0
LINE
  5
39E
330
386
100
AcDbEntity
  8
AM_BOR
100
AcDbLine
 10
-190.0000000000076
 20
58.00000000000296
 30
0.0
 11
-148.5000000000075
 21
58.00000000000296
 31
0.0
  0
TEXT
  5
39F
330
386
100
AcDbEntity
  8
AM_BOR
 62
     1
370
    25
100
AcDbText
 10
-188.7953046083922
 20
42.66491288036503
 30
0.0
 40
2.5
  1
Form-und Lagetoleranzen
 72
     1
 11
-169.2500000000076
 21
42.66491288036503
 31
0.0
100
AcDbText
  0
TEXT
  5
3A0
330
386
100
AcDbEntity
  8
AM_BOR
 62
     1
370
    25
100
AcDbText
 10
-184.4203046083922
 20
31.50583411760111
 30
0.0
 40
2.5
  1
Oberflächenangaben
 72
     1
 11
-169.2500000000076
 21
31.50583411760111
 31
0.0
100
AcDbText
  0
TEXT
  5
3A1
330
386
100
AcDbEntity
  8
AM_BOR
 62
     1
370
    25
100
AcDbText
 10
-182.4234296083921
 20
20.64555149180674
 30
0.0
 40
2.5
  1
Werkstückkanten
 72
     1
 11
-169.2500000000076
 21
20.64555149180674
 31
0.0
100
AcDbText
  0
CIRCLE
  5
3A2
330
386
100
AcDbEntity
  8
AM_BOR
 62
     1
370
    25
100
AcDbCircle
 10
-185.5283738569115
 20
9.105009442083563
 30
0.0
 40
1.682013222792722
  0
TEXT
  5
3A3
330
386
100
AcDbEntity
  8
AM_BOR
 62
     1
370
    25
100
AcDbText
 10
-186.4808982796636
 20
7.852145036007374
 30
0.0
 40
2.5
  1
C
100
AcDbText
  0
LINE
  5
3A4
330
386
100
AcDbEntity
  8
AM_BOR
100
AcDbLine
 10
-134.7819501338923
 20
0.0
 30
0.0
 11
-134.7819501338922
 21
58.00000000000284
 31
0.0
  0
TEXT
  5
3A5
330
386
100
AcDbEntity
  8
AM_BOR
 62
     1
370
    25
100
AcDbText
 10
-147.0000000000076
 20
16.0
 30
0.0
 40
2.0
  1
Format
 41
1.234567901234567
 72
     5
 11
-137.0000000000076
 21
16.0
 31
0.0
100
AcDbText
  0
LINE
  5
3A6
330
386
100
AcDbEntity
  8
AM_BOR
100
AcDbLine
 10
-134.7819501338922
 20
19.0
 30
0.0
 11
-148.5000000000075
 21
19.0
 31
0.0
  0
TEXT
  5
3A7
330
386
100
AcDbEntity
  8
AM_BOR
 62
     1
370
    25
100
AcDbText
 10
-147.0000000000076
 20
34.81005903951976
 30
0.0
 40
2.0
  1
Maßstab
 41
1.002256342277585
 72
     5
 11
-137.0000000000076
 21
34.81005903951976
 31
0.0
100
AcDbText
  0
TEXT
  5
3A8
330
386
100
AcDbEntity
  8
AM_BOR
 62
     1
370
    25
100
AcDbText
 10
-147.0000000000076
 20
39.0
 30
0.0
 40
2.0
  1
Normg.
 41
1.298701298701298
 72
     5
 11
-137.0000000000076
 21
39.0
 31
0.0
100
AcDbText
  0
TEXT
  5
3A9
330
386
100
AcDbEntity
  8
AM_BOR
 62
     1
370
    25
100
AcDbText
 10
-147.0000000000076
 20
44.0
 30
0.0
 40
2.0
  1
gepr.
 41
1.75438596491228
 72
     5
 11
-137.0000000000076
 21
44.0
 31
0.0
100
AcDbText
  0
TEXT
  5
3AA
330
386
100
AcDbEntity
  8
AM_BOR
 62
     1
370
    25
100
AcDbText
 10
-147.0000000000076
 20
49.0
 30
0.0
 40
2.0
  1
Bearb.
 41
1.369863013698629
 72
     5
 11
-137.0000000000076
 21
49.0
 31
0.0
100
AcDbText
  0
TEXT
  5
3AB
330
386
100
AcDbEntity
  8
AM_BOR
 62
     1
370
    25
100
AcDbText
 10
-178.8250738189052
 20
26.50908286748418
 30
0.0
 40
2.5
  1
DIN ISO 1302
 72
     1
 11
-169.2500000000076
 21
26.50908286748418
 31
0.0
100
AcDbText
  0
TEXT
  5
3AC
330
386
100
AcDbEntity
  8
AM_BOR
 62
     1
370
    25
100
AcDbText
 10
-176.0000000000076
 20
15.81434939808754
 30
0.0
 40
2.5
  1
DIN 6784
 72
     1
 11
-169.2500000000076
 21
15.81434939808754
 31
0.0
100
AcDbText
  0
TEXT
  5
3AD
330
386
100
AcDbEntity
  8
AM_BOR
 62
     1
370
    25
100
AcDbText
 10
-178.2500000000076
 20
37.66816163024811
 30
0.0
 40
2.5
  1
DIN ISO 1101
 72
     1
 11
-169.2500000000076
 21
37.66816163024811
 31
0.0
100
AcDbText
  0
LINE
  5
3AE
330
386
100
AcDbEntity
  8
AM_BOR
100
AcDbLine
 10
-123.5000000000076
 20
38.00000000000284
 30
0.0
 11
-123.5000000000076
 21
58.00000000000284
 31
0.0
  0
TEXT
  5
3AF
330
386
100
AcDbEntity
  8
AM_BOR
 62
     1
370
    25
100
AcDbText
 10
-134.0000000000076
 20
54.0
 30
0.0
 40
2.0
  1
Tag
 41
1.677656365025809
 72
     5
 11
-127.0000000000076
 21
54.0
 31
0.0
100
AcDbText
  0
TEXT
  5
3B0
330
386
100
AcDbEntity
  8
AM_BOR
 62
     1
370
    25
100
AcDbText
 10
-123.0000000000076
 20
54.0
 30
0.0
 40
2.0
  1
Name
 41
1.694915254237288
 72
     5
 11
-113.0000000000076
 21
54.0
 31
0.0
100
AcDbText
  0
LINE
  5
3B1
330
386
100
AcDbEntity
  8
AM_BOR
100
AcDbLine
 10
-182.8025158264765
 20
135.6666666666715
 30
0.0
 11
-182.8025158264765
 21
74.00000000000297
 31
0.0
  0
TEXT
  5
3B2
330
386
100
AcDbEntity
  8
AM_BOR
 62
     1
370
    25
100
AcDbText
 10
-189.1672017515284
 20
76.45962598719686
 30
0.0
 40
2.2
  1
Index
100
AcDbText
  0
TEXT
  5
3B3
330
386
100
AcDbEntity
  8
AM_BOR
 62
     1
370
    25
100
AcDbText
 10
-45.00000000000748
 20
71.00000000000001
 30
0.0
 40
2.0
  1
Oberflächenbehandlung:
100
AcDbText
  0
TEXT
  5
3B4
330
386
100
AcDbEntity
  8
AM_BOR
 62
     1
370
    25
100
AcDbText
 10
-92.00000000000747
 20
71.00000000000001
 30
0.0
 40
2.0
  1
Nachbehandlung:
100
AcDbText
  0
LINE
  5
3B5
330
386
100
AcDbEntity
  8
AM_BOR
 62
     2
370
    35
100
AcDbLine
 10
-46.50000000000749
 20
74.00000000000297
 30
0.0
 11
-46.50000000000761
 21
58.00000000000284
 31
0.0
  0
LINE
  5
3B6
330
386
100
AcDbEntity
  8
AM_BOR
100
AcDbLine
 10
-93.50000000000759
 20
38.00000000000284
 30
0.0
 11
-93.50000000000774
 21
74.00000000000297
 31
0.0
  0
LINE
  5
3B7
330
386
100
AcDbEntity
  8
AM_BOR
 62
     2
370
    35
100
AcDbLine
 10
-65.50000000000773
 20
7.000000000000028
 30
0.0
 11
-26.50000000000762
 21
7.000000000000028
 31
0.0
  0
LINE
  5
3B8
330
386
100
AcDbEntity
  8
AM_BOR
 62
     2
370
    35
100
AcDbLine
 10
-65.50000000000773
 20
31.00000000000282
 30
0.0
 11
-26.50000000000762
 21
31.00000000000282
 31
0.0
  0
LINE
  5
3B9
330
386
100
AcDbEntity
  8
AM_BOR
100
AcDbLine
 10
-65.50000000000761
 20
0.0
 30
0.0
 11
-65.50000000000773
 21
58.00000000000281
 31
0.0
  0
TEXT
  5
3BA
330
386
100
AcDbEntity
  8
AM_BOR
 62
     1
370
    25
100
AcDbText
 10
-64.00000000000762
 20
4.0
 30
0.0
 40
2.0
  1
Ersetzt durch:
100
AcDbText
  0
TEXT
  5
3BB
330
386
100
AcDbEntity
  8
AM_BOR
 62
     1
370
    25
100
AcDbText
 10
-87.00000000000761
 20
42.0
 30
0.0
 40
2.0
  1
geprüft
100
AcDbText
  0
TEXT
  5
3BC
330
386
100
AcDbEntity
  8
AM_BOR
 62
     1
370
    25
100
AcDbText
 10
-92.00000000000761
 20
48.0
 30
0.0
 40
2.0
  1
werden besonders
100
AcDbText
  0
LINE
  5
3BD
330
386
100
AcDbEntity
  8
AM_BOR
 62
     1
370
    25
100
AcDbLine
 10
-82.00000000000761
 20
54.0
 30
0.0
 11
-76.00000000000761
 21
54.0
 31
0.0
  0
LINE
  5
3BE
330
386
100
AcDbEntity
  8
AM_BOR
 62
     1
370
    25
100
AcDbLine
 10
-82.00000000000761
 20
56.0
 30
0.0
 11
-76.00000000000761
 21
56.0
 31
0.0
  0
LINE
  5
3BF
330
386
100
AcDbEntity
  8
AM_BOR
100
AcDbLine
 10
-110.5000000000076
 20
38.00000000000284
 30
0.0
 11
-110.5000000000077
 21
58.00000000000284
 31
0.0
  0
TEXT
  5
3C0
330
386
100
AcDbEntity
  8
AM_BOR
 62
     1
370
    25
100
AcDbText
 10
-109.0000000000076
 20
54.0
 30
0.0
 40
2.0
  1
Gesehen:
 41
1.261523532265889
 72
     5
 11
-96.00000000000761
 21
54.0
 31
0.0
100
AcDbText
  0
TEXT
  5
3C1
330
386
100
AcDbEntity
  8
AM_BOR
 62
     1
370
    25
100
AcDbText
 10
-92.00000000000761
 20
54.0
 30
0.0
 40
2.0
  1
Diese
 41
1.146601146601141
 72
     5
 11
-85.00000000000763
 21
54.0
 31
0.0
100
AcDbText
  0
ARC
  5
3C2
330
386
100
AcDbEntity
  8
AM_BOR
 62
     1
370
    25
100
AcDbCircle
 10
-82.00000000000761
 20
55.0
 30
0.0
 40
1.0
100
AcDbArc
 50
90.00000000000005
 51
270.0000000000001
  0
TEXT
  5
3C3
330
386
100
AcDbEntity
  8
AM_BOR
 62
     1
370
    25
100
AcDbText
 10
-64.00000000000762
 20
35.0
 30
0.0
 40
2.0
  1
Ersatz für:
100
AcDbText
  0
TEXT
  5
3C4
330
386
100
AcDbEntity
  8
AM_BOR
 62
     1
370
    25
100
AcDbText
 10
-74.00000000000763
 20
54.0
 30
0.0
 40
2.0
  1
Maße
100
AcDbText
  0
ARC
  5
3C5
330
386
100
AcDbEntity
  8
AM_BOR
 62
     1
370
    25
100
AcDbCircle
 10
-76.00000000000761
 20
55.0
 30
0.0
 40
1.0
100
AcDbArc
 50
270.0
 51
90.0
  0
LINE
  5
3C6
330
386
100
AcDbEntity
  8
AM_BOR
 62
     2
370
    35
100
AcDbLine
 10
-10.00000000000011
 20
0.0
 30
0.0
 11
-10.00000000000011
 21
38.00000000000284
 31
0.0
  0
LINE
  5
3C7
330
386
100
AcDbEntity
  8
AM_BOR
 62
     2
370
    35
100
AcDbLine
 10
-15.04433005655051
 20
38.00000000000284
 30
0.0
 11
-15.04433005655051
 21
0.0
 31
0.0
  0
LINE
  5
3C8
330
386
100
AcDbEntity
  8
AM_BOR
 62
     2
370
    35
100
AcDbLine
 10
-26.50000000000762
 20
7.000000000000028
 30
0.0
 11
-26.50000000000762
 21
0.0
 31
0.0
  0
LINE
  5
3C9
330
386
100
AcDbEntity
  8
AM_BOR
 62
     2
370
    35
100
AcDbLine
 10
-15.04433005655051
 20
34.54545000000285
 30
0.0
 11
0.0
 21
34.54545000000285
 31
0.0
  0
LINE
  5
3CA
330
386
100
AcDbEntity
  8
AM_BOR
 62
     2
370
    35
100
AcDbLine
 10
-26.50000000000762
 20
31.00000000000282
 30
0.0
 11
-26.50000000000762
 21
38.00000000000284
 31
0.0
  0
LINE
  5
3CB
330
386
100
AcDbEntity
  8
AM_BOR
 62
     2
370
    35
100
AcDbLine
 10
-10.00000000000011
 20
34.20000000000283
 30
0.0
 11
-10.00000000000011
 21
38.00000000000284
 31
0.0
  0
TEXT
  5
3CC
330
386
100
AcDbEntity
  8
AM_BOR
 62
     1
370
    25
100
AcDbText
 10
-10.22624575893451
 20
76.45962598719686
 30
0.0
 40
2.2
  1
Name
100
AcDbText
  0
LINE
  5
3CD
330
386
100
AcDbEntity
  8
AM_BOR
100
AcDbLine
 10
-29.34186369022667
 20
135.6666666666715
 30
0.0
 11
-29.34186369022689
 21
74.00000000000298
 31
0.0
  0
LINE
  5
3CE
330
386
100
AcDbEntity
  8
AM_BOR
100
AcDbLine
 10
-15.46099918964126
 20
135.6666666666715
 30
0.0
 11
-15.46099918964148
 21
74.00000000000298
 31
0.0
  0
TEXT
  5
3CF
330
386
100
AcDbEntity
  8
AM_BOR
 62
     1
370
    25
100
AcDbText
 10
-26.39399351883265
 20
76.45962598719686
 30
0.0
 40
2.2
  1
Datum
100
AcDbText
  0
LINE
  5
3D0
330
386
100
AcDbEntity
  8
AM_BOR
 62
     2
370
    35
100
AcDbLine
 10
-190.0000000000076
 20
100.6666666666715
 30
0.0
 11
0.0
 21
100.6666666666715
 31
0.0
  0
TEXT
  5
3D1
330
386
100
AcDbEntity
  8
AM_BOR
 62
     2
370
    35
100
AcDbText
 10
-58.18101464137427
 20
40.59186368739278
 30
0.0
 40
3.0
  1
Reflex - POLSKA Sp z o.o.
 72
     1
 11
-33.27351464137429
 21
40.59186368739278
 31
0.0
100
AcDbText
  0
LINE
  5
3D2
330
386
100
AcDbEntity
  8
AM_BOR
100
AcDbLine
 10
0.0
 20
135.6666666666715
 30
0.0
 11
0.0
 21
0.0
 31
0.0
  0
TEXT
  5
3D3
330
386
100
AcDbEntity
  8
AM_BOR
 62
     1
370
    25
100
AcDbText
 10
-188.5000000000076
 20
71.0
 30
0.0
 40
2.0
  1
Sachnummer:
100
AcDbText
  0
ATTDEF
  5
3D4
330
386
100
AcDbEntity
  8
AM_BOR
100
AcDbText
 10
-169.2500000000076
 20
63.66666000000002
 30
0.0
 40
4.5
  1

 72
     1
 11
-169.2500000000076
 21
63.66666000000002
 31
0.0
100
AcDbAttributeDefinition
  3
Sachnummer
  2
R_SACH
 70
     0
  0
ATTDEF
  5
3D5
330
386
100
AcDbEntity
  8
AM_BOR
100
AcDbText
 10
-100.14097506695
 20
24.72359202704005
 30
0.0
 40
4.5
  1

 72
     1
 11
-100.14097506695
 21
24.72359202704005
 31
0.0
100
AcDbAttributeDefinition
  3
Benennung1
  2
R_BENENN1
 70
     0
  0
ATTDEF
  5
3D6
330
386
100
AcDbEntity
  8
AM_BOR
100
AcDbText
 10
-100.14097506695
 20
16.72359202704005
 30
0.0
 40
4.5
  1

 72
     1
 11
-100.14097506695
 21
16.72359202704005
 31
0.0
100
AcDbAttributeDefinition
  3
Benennung2
  2
R_BENENN2
 70
     0
  0
ATTDEF
  5
3D7
330
386
100
AcDbEntity
  8
AM_BOR
100
AcDbText
 10
-100.14097506695
 20
8.723592027040048
 30
0.0
 40
4.5
  1

 72
     1
 11
-100.14097506695
 21
8.723592027040048
 31
0.0
100
AcDbAttributeDefinition
  3
Benennung3
  2
R_BENENN3
 70
     0
  0
ATTDEF
  5
3D8
330
386
100
AcDbEntity
  8
AM_BOR
 62
     1
370
    25
100
AcDbText
 10
-134.2819501338922
 20
49.50000000000287
 30
0.0
 40
2.0
  1

 41
0.6099885807078702
 72
     5
 11
-123.8511454037876
 21
49.50000000000287
 31
0.0
100
AcDbAttributeDefinition
  3
Bearbeitet Datum
  2
R_BEAR_DAT
 70
     0
  0
ATTDEF
  5
3D9
330
386
100
AcDbEntity
  8
AM_BOR
 62
     1
370
    25
100
AcDbText
 10
-123.0000000000076
 20
49.50000000000282
 30
0.0
 40
2.0
  1

100
AcDbAttributeDefinition
  3
Bearbeitet Name
  2
R_BEAR_NAM
 70
     0
  0
ATTDEF
  5
3DA
330
386
100
AcDbEntity
  8
AM_BOR
100
AcDbText
 10
-147.0000000000076
 20
28.66665999999984
 30
0.0
 40
4.5
  1

100
AcDbAttributeDefinition
  3
Maßstab
  2
GEN-TITLE-SCA{5.42}
 70
     0
1001
GENIUS_GENTRA_14
1002
{
1070
     3
1000
GENTRAPR,%s,(GENMSG gendwg 83)
1000
Maßstab
1000
DEU
1070
     0
1070
     0
1002
}
  0
ATTDEF
  5
3DB
330
386
100
AcDbEntity
  8
AM_BOR
 62
     2
370
    35
100
AcDbText
 10
-147.0000000000076
 20
23.33332999999985
 30
0.0
 40
3.0
  1

100
AcDbAttributeDefinition
  3
Maßstab2
  2
R_MASSTAB2
 70
     0
  0
ATTDEF
  5
3DC
330
386
100
AcDbEntity
  8
AM_BOR
 62
     1
370
    25
100
AcDbText
 10
-64.00000000000762
 20
32.00000000000282
 30
0.0
 40
2.0
  1

100
AcDbAttributeDefinition
  3
Ersatz für
  2
R_ERSA_FUR
 70
     0
  0
ATTDEF
  5
3DD
330
386
100
AcDbEntity
  8
AM_BOR
 62
     1
370
    25
100
AcDbText
 10
-64.00000000000756
 20
0.9999999999999795
 30
0.0
 40
2.0
  1

100
AcDbAttributeDefinition
  3
Ersetzt durch
  2
R_ERSE_DUR
 70
     0
  0
ATTDEF
  5
3DE
330
386
100
AcDbEntity
  8
AM_BOR
 62
     2
370
    35
100
AcDbText
 10
-147.0000000000076
 20
65.66666000000002
 30
0.0
 40
3.0
  1

100
AcDbAttributeDefinition
  3
Werkstoff1
  2
R_WERK1
 70
     0
  0
ATTDEF
  5
3DF
330
386
100
AcDbEntity
  8
AM_BOR
 62
     2
370
    35
100
AcDbText
 10
-147.0000000000076
 20
60.33332999999997
 30
0.0
 40
3.0
  1

100
AcDbAttributeDefinition
  3
Werkstoff2
  2
R_WERK2
 70
     0
  0
ATTDEF
  5
3E0
330
386
100
AcDbEntity
  8
AM_BOR
 62
     2
370
    35
100
AcDbText
 10
-92.00000000000768
 20
65.66666000000002
 30
0.0
 40
3.0
  1

100
AcDbAttributeDefinition
  3
Nachbehandlung1
  2
R_NACHBE1
 70
     0
  0
ATTDEF
  5
3E1
330
386
100
AcDbEntity
  8
AM_BOR
 62
     2
370
    35
100
AcDbText
 10
-92.00000000000768
 20
60.33332999999997
 30
0.0
 40
3.0
  1

100
AcDbAttributeDefinition
  3
Nachbehandlung2
  2
R_NACHBE2
 70
     0
  0
ATTDEF
  5
3E2
330
386
100
AcDbEntity
  8
AM_BOR
 62
     2
370
    35
100
AcDbText
 10
-45.00000000000762
 20
65.66666000000002
 30
0.0
 40
3.0
  1

100
AcDbAttributeDefinition
  3
Oberflächenbehandlung1
  2
R_OBERFL1
 70
     0
  0
ATTDEF
  5
3E3
330
386
100
AcDbEntity
  8
AM_BOR
 62
     2
370
    35
100
AcDbText
 10
-45.00000000000762
 20
60.33332999999997
 30
0.0
 40
3.0
  1

100
AcDbAttributeDefinition
  3
Oberflächenbehandlung2
  2
R_OBERFL2
 70
     0
  0
ATTDEF
  5
3E4
330
386
100
AcDbEntity
  8
AM_BOR
100
AcDbText
 10
-147.0000000000076
 20
7.666659999996999
 30
0.0
 40
4.5
  1

100
AcDbAttributeDefinition
  3
Blattformat
  2
BLATTFORMAT
 70
     0
  0
ATTDEF
  5
3E5
330
386
100
AcDbEntity
  8
AM_BOR
 62
     1
370
    25
100
AcDbText
 10
-186.4012579132421
 20
82.16666666667149
 30
0.0
 40
2.0
  1

 72
     1
 11
-186.4012579132421
 21
82.16666666667149
 31
0.0
100
AcDbAttributeDefinition
  3
Änderungsindex 1
  2
R_AEIND1
 70
     0
  0
ATTDEF
  5
3E6
330
386
100
AcDbEntity
  8
AM_BOR
 62
     1
370
    25
100
AcDbText
 10
-12.3315588552569
 20
35.34215080509318
 30
0.0
 40
2.0
  1

 72
     1
 11
-12.3315588552569
 21
35.34215080509318
 31
0.0
100
AcDbAttributeDefinition
  3
Änderungsindex 1
  2
R_AEIND1
 70
     0
  0
ATTDEF
  5
3E7
330
386
100
AcDbEntity
  8
AM_BOR
 62
     1
370
    25
100
AcDbText
 10
-8.809393826981702
 20
35.34215080509318
 30
0.0
 40
2.0
  1

100
AcDbAttributeDefinition
  3
Änderungsnummer 1
  2
R_AENR1
 70
     0
  0
ATTDEF
  5
3E8
330
386
100
AcDbEntity
  8
AM_BOR
 62
     1
370
    25
100
AcDbText
 10
-181.3025158264765
 20
82.16666666667149
 30
0.0
 40
2.0
  1

100
AcDbAttributeDefinition
  3
Änderungsbeschreibung 1
  2
R_AETEXT1
 70
     0
  0
ATTDEF
  5
3E9
330
386
100
AcDbEntity
  8
AM_BOR
 62
     1
370
    25
100
AcDbText
 10
-27.84186369022683
 20
82.16666666667149
 30
0.0
 40
2.0
  1

100
AcDbAttributeDefinition
  3
Änderungsdatum 1
  2
R_AEDAT1
 70
     0
  0
ATTDEF
  5
3EA
330
386
100
AcDbEntity
  8
AM_BOR
 62
     1
370
    25
100
AcDbText
 10
-13.96099918964142
 20
82.16666666667149
 30
0.0
 40
2.0
  1

100
AcDbAttributeDefinition
  3
Änderungsname 1
  2
R_AENAM1
 70
     0
  0
ATTDEF
  5
3EB
330
386
100
AcDbEntity
  8
AM_BOR
 62
     1
370
    25
100
AcDbText
 10
-181.8252586544574
 20
48.99279157056955
 30
0.0
 40
2.5
  1

100
AcDbAttributeDefinition
  3
Allgemeintoleranzen
  2
R_TOLALL
 70
     0
  0
ATTDEF
  5
3EC
330
386
100
AcDbEntity
  8
AM_BOR
100
AcDbText
 10
-53.24838027179692
 20
9.657306607706779
 30
0.0
 40
3.5
  1

100
AcDbAttributeDefinition
  3
Projekt
  2
R_PROJEKT
 70
     0
  0
ATTDEF
  5
3ED
330
386
100
AcDbEntity
  8
AM_BOR
100
AcDbText
 10
-62.56400243277346
 20
19.16161098446256
 30
0.0
 40
6.0
  1

100
AcDbAttributeDefinition
  3
Projekt
  2
R_ZEICHNR
 70
     0
  0
LINE
  5
3EE
330
386
100
AcDbEntity
  8
AM_BOR
 62
     2
370
    35
100
AcDbLine
 10
-190.0000000000076
 20
105.6666666666715
 30
0.0
 11
0.0
 21
105.6666666666715
 31
0.0
  0
LINE
  5
3EF
330
386
100
AcDbEntity
  8
AM_BOR
 62
     2
370
    35
100
AcDbLine
 10
-190.0000000000076
 20
110.6666666666715
 30
0.0
 11
0.0
 21
110.6666666666715
 31
0.0
  0
LINE
  5
3F0
330
386
100
AcDbEntity
  8
AM_BOR
 62
     2
370
    35
100
AcDbLine
 10
-190.0000000000076
 20
115.6666666666715
 30
0.0
 11
0.0
 21
115.6666666666715
 31
0.0
  0
LINE
  5
3F1
330
386
100
AcDbEntity
  8
AM_BOR
 62
     2
370
    35
100
AcDbLine
 10
-190.0000000000076
 20
120.6666666666715
 30
0.0
 11
0.0
 21
120.6666666666715
 31
0.0
1001
GENIUS_VERSION1
1070
     1
  0
LINE
  5
3F2
330
386
100
AcDbEntity
  8
AM_BOR
 62
     2
370
    35
100
AcDbLine
 10
-190.0000000000076
 20
115.6666666666715
 30
0.0
 11
0.0
 21
115.6666666666715
 31
0.0
  0
LINE
  5
3F3
330
386
100
AcDbEntity
  8
AM_BOR
 62
     2
370
    35
100
AcDbLine
 10
-190.0000000000076
 20
120.6666666666715
 30
0.0
 11
0.0
 21
120.6666666666715
 31
0.0
  0
LINE
  5
3F4
330
386
100
AcDbEntity
  8
AM_BOR
 62
     2
370
    35
100
AcDbLine
 10
-190.0000000000076
 20
125.6666666666715
 30
0.0
 11
0.0
 21
125.6666666666715
 31
0.0
1001
GENIUS_VERSION1
1070
     1
  0
LINE
  5
3F5
330
386
100
AcDbEntity
  8
AM_BOR
100
AcDbLine
 10
-190.0000000000076
 20
135.6666666666715
 30
0.0
 11
0.0
 21
135.6666666666715
 31
0.0
1001
GENIUS_VERSION1
1070
     1
  0
LINE
  5
3F6
330
386
100
AcDbEntity
  8
AM_BOR
 62
     2
370
    35
100
AcDbLine
 10
-190.0000000000076
 20
130.6666666666715
 30
0.0
 11
0.0
 21
130.6666666666715
 31
0.0
1001
GENIUS_VERSION1
1070
     1
  0
LINE
  5
3F7
330
386
100
AcDbEntity
  8
AM_BOR
 62
     2
370
    35
100
AcDbLine
 10
-15.04433005655051
 20
31.09090000000285
 30
0.0
 11
0.0
 21
31.09090000000285
 31
0.0
  0
LINE
  5
3F8
330
386
100
AcDbEntity
  8
AM_BOR
 62
     2
370
    35
100
AcDbLine
 10
-15.04433005655051
 20
27.63635000000285
 30
0.0
 11
0.0
 21
27.63635000000285
 31
0.0
  0
LINE
  5
3F9
330
386
100
AcDbEntity
  8
AM_BOR
 62
     2
370
    35
100
AcDbLine
 10
-15.04433005655051
 20
24.18180000000285
 30
0.0
 11
0.0
 21
24.18180000000285
 31
0.0
  0
LINE
  5
3FA
330
386
100
AcDbEntity
  8
AM_BOR
 62
     2
370
    35
100
AcDbLine
 10
-15.04433005655051
 20
20.72725000000286
 30
0.0
 11
0.0
 21
20.72725000000286
 31
0.0
  0
LINE
  5
3FB
330
386
100
AcDbEntity
  8
AM_BOR
 62
     2
370
    35
100
AcDbLine
 10
-15.04433005655051
 20
17.27270000000285
 30
0.0
 11
0.0
 21
17.27270000000285
 31
0.0
  0
LINE
  5
3FC
330
386
100
AcDbEntity
  8
AM_BOR
 62
     2
370
    35
100
AcDbLine
 10
-15.04433005655051
 20
13.81815000000285
 30
0.0
 11
0.0
 21
13.81815000000285
 31
0.0
  0
LINE
  5
3FD
330
386
100
AcDbEntity
  8
AM_BOR
 62
     2
370
    35
100
AcDbLine
 10
-15.04433005655051
 20
10.36360000000286
 30
0.0
 11
0.0
 21
10.36360000000286
 31
0.0
  0
LINE
  5
3FE
330
386
100
AcDbEntity
  8
AM_BOR
 62
     2
370
    35
100
AcDbLine
 10
-15.04433005655051
 20
6.909050000002858
 30
0.0
 11
0.0
 21
6.909050000002858
 31
0.0
  0
LINE
  5
3FF
330
386
100
AcDbEntity
  8
AM_BOR
 62
     2
370
    35
100
AcDbLine
 10
-15.04433005655051
 20
3.454500000002861
 30
0.0
 11
0.0
 21
3.454500000002861
 31
0.0
1001
GENIUS_VERSION1
1070
     1
  0
ATTDEF
  5
400
330
386
100
AcDbEntity
  8
AM_BOR
 62
     1
370
    25
100
AcDbText
 10
-12.3315588552569
 20
31.88760080509319
 30
0.0
 40
2.0
  1

 72
     1
 11
-12.3315588552569
 21
31.88760080509319
 31
0.0
100
AcDbAttributeDefinition
  3
Änderungsindex 2
  2
R_AEIND2
 70
     0
  0
ATTDEF
  5
401
330
386
100
AcDbEntity
  8
AM_BOR
 62
     1
370
    25
100
AcDbText
 10
-8.809393826981702
 20
31.88760080509319
 30
0.0
 40
2.0
  1

100
AcDbAttributeDefinition
  3
Änderungsnummer 2
  2
R_AENR2
 70
     0
  0
ATTDEF
  5
402
330
386
100
AcDbEntity
  8
AM_BOR
 62
     1
370
    25
100
AcDbText
 10
-12.3315588552569
 20
28.43305080509319
 30
0.0
 40
2.0
  1

 72
     1
 11
-12.3315588552569
 21
28.43305080509319
 31
0.0
100
AcDbAttributeDefinition
  3
Änderungsindex 3
  2
R_AEIND3
 70
     0
  0
ATTDEF
  5
403
330
386
100
AcDbEntity
  8
AM_BOR
 62
     1
370
    25
100
AcDbText
 10
-8.809393826981702
 20
28.43305080509319
 30
0.0
 40
2.0
  1

100
AcDbAttributeDefinition
  3
Änderungsnummer 3
  2
R_AENR3
 70
     0
  0
ATTDEF
  5
404
330
386
100
AcDbEntity
  8
AM_BOR
 62
     1
370
    25
100
AcDbText
 10
-12.3315588552569
 20
24.9785008050932
 30
0.0
 40
2.0
  1

 72
     1
 11
-12.3315588552569
 21
24.9785008050932
 31
0.0
100
AcDbAttributeDefinition
  3
Änderungsindex 4
  2
R_AEIND4
 70
     0
  0
ATTDEF
  5
405
330
386
100
AcDbEntity
  8
AM_BOR
 62
     1
370
    25
100
AcDbText
 10
-8.809393826981702
 20
24.9785008050932
 30
0.0
 40
2.0
  1

100
AcDbAttributeDefinition
  3
Änderungsnummer 4
  2
R_AENR4
 70
     0
  0
ATTDEF
  5
406
330
386
100
AcDbEntity
  8
AM_BOR
 62
     1
370
    25
100
AcDbText
 10
-12.3315588552569
 20
21.5239508050932
 30
0.0
 40
2.0
  1

 72
     1
 11
-12.3315588552569
 21
21.5239508050932
 31
0.0
100
AcDbAttributeDefinition
  3
Änderungsindex 5
  2
R_AEIND5
 70
     0
  0
ATTDEF
  5
407
330
386
100
AcDbEntity
  8
AM_BOR
 62
     1
370
    25
100
AcDbText
 10
-8.809393826981702
 20
21.5239508050932
 30
0.0
 40
2.0
  1

100
AcDbAttributeDefinition
  3
Änderungsnummer 5
  2
R_AENR5
 70
     0
  0
ATTDEF
  5
408
330
386
100
AcDbEntity
  8
AM_BOR
 62
     1
370
    25
100
AcDbText
 10
-12.3315588552569
 20
18.06940080509319
 30
0.0
 40
2.0
  1

 72
     1
 11
-12.3315588552569
 21
18.06940080509319
 31
0.0
100
AcDbAttributeDefinition
  3
Änderungsindex 6
  2
R_AEIND6
 70
     0
  0
ATTDEF
  5
409
330
386
100
AcDbEntity
  8
AM_BOR
 62
     1
370
    25
100
AcDbText
 10
-8.809393826981702
 20
18.06940080509319
 30
0.0
 40
2.0
  1

100
AcDbAttributeDefinition
  3
Änderungsnummer 6
  2
R_AENR6
 70
     0
  0
ATTDEF
  5
40A
330
386
100
AcDbEntity
  8
AM_BOR
 62
     1
370
    25
100
AcDbText
 10
-12.3315588552569
 20
14.61485080509319
 30
0.0
 40
2.0
  1

 72
     1
 11
-12.3315588552569
 21
14.61485080509319
 31
0.0
100
AcDbAttributeDefinition
  3
Änderungsindex 7
  2
R_AEIND7
 70
     0
  0
ATTDEF
  5
40B
330
386
100
AcDbEntity
  8
AM_BOR
 62
     1
370
    25
100
AcDbText
 10
-8.809393826981702
 20
14.61485080509319
 30
0.0
 40
2.0
  1

100
AcDbAttributeDefinition
  3
Änderungsnummer 7
  2
R_AENR7
 70
     0
  0
ATTDEF
  5
40C
330
386
100
AcDbEntity
  8
AM_BOR
 62
     1
370
    25
100
AcDbText
 10
-12.3315588552569
 20
11.16030080509319
 30
0.0
 40
2.0
  1

 72
     1
 11
-12.3315588552569
 21
11.16030080509319
 31
0.0
100
AcDbAttributeDefinition
  3
Änderungsindex 8
  2
R_AEIND8
 70
     0
  0
ATTDEF
  5
40D
330
386
100
AcDbEntity
  8
AM_BOR
 62
     1
370
    25
100
AcDbText
 10
-8.809393826981702
 20
11.16030080509319
 30
0.0
 40
2.0
  1

100
AcDbAttributeDefinition
  3
Änderungsnummer 8
  2
R_AENR8
 70
     0
  0
ATTDEF
  5
40E
330
386
100
AcDbEntity
  8
AM_BOR
 62
     1
370
    25
100
AcDbText
 10
-12.3315588552569
 20
7.705750805093199
 30
0.0
 40
2.0
  1

 72
     1
 11
-12.3315588552569
 21
7.705750805093199
 31
0.0
100
AcDbAttributeDefinition
  3
Änderungsindex 9
  2
R_AEIND9
 70
     0
  0
ATTDEF
  5
40F
330
386
100
AcDbEntity
  8
AM_BOR
 62
     1
370
    25
100
AcDbText
 10
-8.809393826981702
 20
7.705750805093199
 30
0.0
 40
2.0
  1

100
AcDbAttributeDefinition
  3
Änderungsnummer 9
  2
R_AENR9
 70
     0
  0
ATTDEF
  5
410
330
386
100
AcDbEntity
  8
AM_BOR
 62
     1
370
    25
100
AcDbText
 10
-12.3315588552569
 20
4.2512008050932
 30
0.0
 40
2.0
  1

 72
     1
 11
-12.3315588552569
 21
4.2512008050932
 31
0.0
100
AcDbAttributeDefinition
  3
Änderungsindex 10
  2
R_AEIND10
 70
     0
  0
ATTDEF
  5
411
330
386
100
AcDbEntity
  8
AM_BOR
 62
     1
370
    25
100
AcDbText
 10
-8.809393826981702
 20
4.2512008050932
 30
0.0
 40
2.0
  1

100
AcDbAttributeDefinition
  3
Änderungsnummer 10
  2
R_AENR10
 70
     0
  0
ATTDEF
  5
412
330
386
100
AcDbEntity
  8
AM_BOR
 62
     1
370
    25
100
AcDbText
 10
-12.3315588552569
 20
0.7967008050903388
 30
0.0
 40
2.0
  1

 72
     1
 11
-12.3315588552569
 21
0.7967008050903388
 31
0.0
100
AcDbAttributeDefinition
  3
Änderungsindex 11
  2
R_AEIND11
 70
     0
  0
ATTDEF
  5
413
330
386
100
AcDbEntity
  8
AM_BOR
 62
     1
370
    25
100
AcDbText
 10
-8.809393826981702
 20
0.7967008050903388
 30
0.0
 40
2.0
  1

100
AcDbAttributeDefinition
  3
Änderungsnummer 11
  2
R_AENR11
 70
     0
  0
ATTDEF
  5
414
330
386
100
AcDbEntity
  8
AM_BOR
 62
     1
370
    25
100
AcDbText
 10
-134.2819501338922
 20
44.50000000000289
 30
0.0
 40
2.0
  1

 41
0.6029366896014201
 72
     5
 11
-123.8511454037876
 21
44.50000000000289
 31
0.0
100
AcDbAttributeDefinition
  3
Geprüft Datum
  2
R_PROV_DAT
 70
     0
  0
ATTDEF
  5
415
330
386
100
AcDbEntity
  8
AM_BOR
 62
     1
370
    25
100
AcDbText
 10
-123.0000000000076
 20
44.50000000000284
 30
0.0
 40
2.0
  1

100
AcDbAttributeDefinition
  3
Geprüft Name
  2
R_PROV_NAM
 70
     0
  0
ATTDEF
  5
416
330
386
100
AcDbEntity
  8
AM_BOR
 62
     2
100
AcDbText
 10
-192.0000000000076
 20
2.0
 30
0.0
 40
3.5
  1

 50
90.0
100
AcDbAttributeDefinition
  3
Stempeltext
  2
STEMPELTEXT
 70
     0
  0
ATTDEF
  5
417
330
386
100
AcDbEntity
  8
AM_BOR
 62
     1
370
    25
100
AcDbText
 10
-186.4012579132421
 20
87.16666666667149
 30
0.0
 40
2.0
  1

 72
     1
 11
-186.4012579132421
 21
87.16666666667149
 31
0.0
100
AcDbAttributeDefinition
  3
Änderungsindex 2
  2
R_AEIND2
 70
     0
  0
ATTDEF
  5
418
330
386
100
AcDbEntity
  8
AM_BOR
 62
     1
370
    25
100
AcDbText
 10
-181.3025158264765
 20
87.16666666667149
 30
0.0
 40
2.0
  1

100
AcDbAttributeDefinition
  3
Änderungsbeschreibung 2
  2
R_AETEXT2
 70
     0
  0
ATTDEF
  5
419
330
386
100
AcDbEntity
  8
AM_BOR
 62
     1
370
    25
100
AcDbText
 10
-27.84186369022683
 20
87.16666666667149
 30
0.0
 40
2.0
  1

100
AcDbAttributeDefinition
  3
Änderungsdatum 2
  2
R_AEDAT2
 70
     0
  0
ATTDEF
  5
41A
330
386
100
AcDbEntity
  8
AM_BOR
 62
     1
370
    25
100
AcDbText
 10
-13.96099918964142
 20
87.16666666667149
 30
0.0
 40
2.0
  1

100
AcDbAttributeDefinition
  3
Änderungsname 2
  2
R_AENAM2
 70
     0
  0
ATTDEF
  5
41B
330
386
100
AcDbEntity
  8
AM_BOR
 62
     1
370
    25
100
AcDbText
 10
-186.4012579132421
 20
92.16666666667148
 30
0.0
 40
2.0
  1

 72
     1
 11
-186.4012579132421
 21
92.16666666667148
 31
0.0
100
AcDbAttributeDefinition
  3
Änderungsindex 3
  2
R_AEIND3
 70
     0
  0
ATTDEF
  5
41C
330
386
100
AcDbEntity
  8
AM_BOR
 62
     1
370
    25
100
AcDbText
 10
-181.3025158264765
 20
92.16666666667148
 30
0.0
 40
2.0
  1

100
AcDbAttributeDefinition
  3
Änderungsbeschreibung 3
  2
R_AETEXT3
 70
     0
  0
ATTDEF
  5
41D
330
386
100
AcDbEntity
  8
AM_BOR
 62
     1
370
    25
100
AcDbText
 10
-27.84186369022683
 20
92.16666666667148
 30
0.0
 40
2.0
  1

100
AcDbAttributeDefinition
  3
Änderungsdatum 3
  2
R_AEDAT3
 70
     0
  0
ATTDEF
  5
41E
330
386
100
AcDbEntity
  8
AM_BOR
 62
     1
370
    25
100
AcDbText
 10
-13.96099918964142
 20
92.16666666667148
 30
0.0
 40
2.0
  1

100
AcDbAttributeDefinition
  3
Änderungsname 3
  2
R_AENAM3
 70
     0
  0
ATTDEF
  5
41F
330
386
100
AcDbEntity
  8
AM_BOR
 62
     1
370
    25
100
AcDbText
 10
-186.4012579132421
 20
97.16666666667151
 30
0.0
 40
2.0
  1

 72
     1
 11
-186.4012579132421
 21
97.16666666667151
 31
0.0
100
AcDbAttributeDefinition
  3
Änderungsindex 4
  2
R_AEIND4
 70
     0
  0
ATTDEF
  5
420
330
386
100
AcDbEntity
  8
AM_BOR
 62
     1
370
    25
100
AcDbText
 10
-181.3025158264765
 20
97.16666666667151
 30
0.0
 40
2.0
  1

100
AcDbAttributeDefinition
  3
Änderungsbeschreibung 4
  2
R_AETEXT4
 70
     0
  0
ATTDEF
  5
421
330
386
100
AcDbEntity
  8
AM_BOR
 62
     1
370
    25
100
AcDbText
 10
-27.84186369022683
 20
97.16666666667151
 30
0.0
 40
2.0
  1

100
AcDbAttributeDefinition
  3
Änderungsdatum 4
  2
R_AEDAT4
 70
     0
  0
ATTDEF
  5
422
330
386
100
AcDbEntity
  8
AM_BOR
 62
     1
370
    25
100
AcDbText
 10
-13.96099918964142
 20
97.16666666667151
 30
0.0
 40
2.0
  1

100
AcDbAttributeDefinition
  3
Änderungsname 4
  2
R_AENAM4
 70
     0
  0
ATTDEF
  5
423
330
386
100
AcDbEntity
  8
AM_BOR
 62
     1
370
    25
100
AcDbText
 10
-186.4012579132421
 20
102.1666666666715
 30
0.0
 40
2.0
  1

 72
     1
 11
-186.4012579132421
 21
102.1666666666715
 31
0.0
100
AcDbAttributeDefinition
  3
Änderungsindex 5
  2
R_AEIND5
 70
     0
  0
ATTDEF
  5
424
330
386
100
AcDbEntity
  8
AM_BOR
 62
     1
370
    25
100
AcDbText
 10
-181.3025158264765
 20
102.1666666666715
 30
0.0
 40
2.0
  1

100
AcDbAttributeDefinition
  3
Änderungsbeschreibung 5
  2
R_AETEXT5
 70
     0
  0
ATTDEF
  5
425
330
386
100
AcDbEntity
  8
AM_BOR
 62
     1
370
    25
100
AcDbText
 10
-27.84186369022683
 20
102.1666666666715
 30
0.0
 40
2.0
  1

100
AcDbAttributeDefinition
  3
Änderungsdatum 5
  2
R_AEDAT5
 70
     0
  0
ATTDEF
  5
426
330
386
100
AcDbEntity
  8
AM_BOR
 62
     1
370
    25
100
AcDbText
 10
-13.96099918964142
 20
102.1666666666715
 30
0.0
 40
2.0
  1

100
AcDbAttributeDefinition
  3
Änderungsname 5
  2
R_AENAM5
 70
     0
  0
ATTDEF
  5
427
330
386
100
AcDbEntity
  8
AM_BOR
 62
     1
370
    25
100
AcDbText
 10
-186.4012579132421
 20
107.1666666666715
 30
0.0
 40
2.0
  1

 72
     1
 11
-186.4012579132421
 21
107.1666666666715
 31
0.0
100
AcDbAttributeDefinition
  3
Änderungsindex 6
  2
R_AEIND6
 70
     0
  0
ATTDEF
  5
428
330
386
100
AcDbEntity
  8
AM_BOR
 62
     1
370
    25
100
AcDbText
 10
-181.3025158264765
 20
107.1666666666715
 30
0.0
 40
2.0
  1

100
AcDbAttributeDefinition
  3
Änderungsbeschreibung 6
  2
R_AETEXT6
 70
     0
  0
ATTDEF
  5
429
330
386
100
AcDbEntity
  8
AM_BOR
 62
     1
370
    25
100
AcDbText
 10
-27.84186369022683
 20
107.1666666666715
 30
0.0
 40
2.0
  1

100
AcDbAttributeDefinition
  3
Änderungsdatum 6
  2
R_AEDAT6
 70
     0
  0
ATTDEF
  5
42A
330
386
100
AcDbEntity
  8
AM_BOR
 62
     1
370
    25
100
AcDbText
 10
-13.96099918964142
 20
107.1666666666715
 30
0.0
 40
2.0
  1

100
AcDbAttributeDefinition
  3
Änderungsname 6
  2
R_AENAM6
 70
     0
  0
ATTDEF
  5
42B
330
386
100
AcDbEntity
  8
AM_BOR
 62
     1
370
    25
100
AcDbText
 10
-186.4012579132421
 20
112.1666666666715
 30
0.0
 40
2.0
  1

 72
     1
 11
-186.4012579132421
 21
112.1666666666715
 31
0.0
100
AcDbAttributeDefinition
  3
Änderungsindex 7
  2
R_AEIND7
 70
     0
  0
ATTDEF
  5
42C
330
386
100
AcDbEntity
  8
AM_BOR
 62
     1
370
    25
100
AcDbText
 10
-181.3025158264765
 20
112.1666666666715
 30
0.0
 40
2.0
  1

100
AcDbAttributeDefinition
  3
Änderungsbeschreibung 7
  2
R_AETEXT7
 70
     0
  0
ATTDEF
  5
42D
330
386
100
AcDbEntity
  8
AM_BOR
 62
     1
370
    25
100
AcDbText
 10
-27.84186369022683
 20
112.1666666666715
 30
0.0
 40
2.0
  1

100
AcDbAttributeDefinition
  3
Änderungsdatum 7
  2
R_AEDAT7
 70
     0
  0
ATTDEF
  5
42E
330
386
100
AcDbEntity
  8
AM_BOR
 62
     1
370
    25
100
AcDbText
 10
-13.96099918964142
 20
112.1666666666715
 30
0.0
 40
2.0
  1

100
AcDbAttributeDefinition
  3
Änderungsname 7
  2
R_AENAM7
 70
     0
  0
ATTDEF
  5
42F
330
386
100
AcDbEntity
  8
AM_BOR
 62
     1
370
    25
100
AcDbText
 10
-186.4012579132421
 20
117.1666666666715
 30
0.0
 40
2.0
  1

 72
     1
 11
-186.4012579132421
 21
117.1666666666715
 31
0.0
100
AcDbAttributeDefinition
  3
Änderungsindex 8
  2
R_AEIND8
 70
     0
  0
ATTDEF
  5
430
330
386
100
AcDbEntity
  8
AM_BOR
 62
     1
370
    25
100
AcDbText
 10
-181.3025158264765
 20
117.1666666666715
 30
0.0
 40
2.0
  1

100
AcDbAttributeDefinition
  3
Änderungsbeschreibung 8
  2
R_AETEXT8
 70
     0
  0
ATTDEF
  5
431
330
386
100
AcDbEntity
  8
AM_BOR
 62
     1
370
    25
100
AcDbText
 10
-27.84186369022683
 20
117.1666666666715
 30
0.0
 40
2.0
  1

100
AcDbAttributeDefinition
  3
Änderungsdatum 8
  2
R_AEDAT8
 70
     0
  0
ATTDEF
  5
432
330
386
100
AcDbEntity
  8
AM_BOR
 62
     1
370
    25
100
AcDbText
 10
-13.96099918964142
 20
117.1666666666715
 30
0.0
 40
2.0
  1

100
AcDbAttributeDefinition
  3
Änderungsname 8
  2
R_AENAM8
 70
     0
  0
ATTDEF
  5
433
330
386
100
AcDbEntity
  8
AM_BOR
 62
     1
370
    25
100
AcDbText
 10
-186.4012579132421
 20
122.1666666666715
 30
0.0
 40
2.0
  1

 72
     1
 11
-186.4012579132421
 21
122.1666666666715
 31
0.0
100
AcDbAttributeDefinition
  3
Änderungsindex 9
  2
R_AEIND9
 70
     0
  0
ATTDEF
  5
434
330
386
100
AcDbEntity
  8
AM_BOR
 62
     1
370
    25
100
AcDbText
 10
-181.3025158264765
 20
122.1666666666715
 30
0.0
 40
2.0
  1

100
AcDbAttributeDefinition
  3
Änderungsbeschreibung 9
  2
R_AETEXT9
 70
     0
  0
ATTDEF
  5
435
330
386
100
AcDbEntity
  8
AM_BOR
 62
     1
370
    25
100
AcDbText
 10
-27.84186369022683
 20
122.1666666666715
 30
0.0
 40
2.0
  1

100
AcDbAttributeDefinition
  3
Änderungsdatum 9
  2
R_AEDAT9
 70
     0
  0
ATTDEF
  5
436
330
386
100
AcDbEntity
  8
AM_BOR
 62
     1
370
    25
100
AcDbText
 10
-13.96099918964142
 20
122.1666666666715
 30
0.0
 40
2.0
  1

100
AcDbAttributeDefinition
  3
Änderungsname 9
  2
R_AENAM9
 70
     0
  0
ATTDEF
  5
437
330
386
100
AcDbEntity
  8
AM_BOR
 62
     1
370
    25
100
AcDbText
 10
-186.4012579132421
 20
127.1666666666715
 30
0.0
 40
2.0
  1

 72
     1
 11
-186.4012579132421
 21
127.1666666666715
 31
0.0
100
AcDbAttributeDefinition
  3
Änderungsindex 10
  2
R_AEIND10
 70
     0
  0
ATTDEF
  5
438
330
386
100
AcDbEntity
  8
AM_BOR
 62
     1
370
    25
100
AcDbText
 10
-181.3025158264765
 20
127.1666666666715
 30
0.0
 40
2.0
  1

100
AcDbAttributeDefinition
  3
Änderungsbeschreibung 10
  2
R_AETEXT10
 70
     0
  0
ATTDEF
  5
439
330
386
100
AcDbEntity
  8
AM_BOR
 62
     1
370
    25
100
AcDbText
 10
-27.84186369022683
 20
127.1666666666715
 30
0.0
 40
2.0
  1

100
AcDbAttributeDefinition
  3
Änderungsdatum 10
  2
R_AEDAT10
 70
     0
  0
ATTDEF
  5
43A
330
386
100
AcDbEntity
  8
AM_BOR
 62
     1
370
    25
100
AcDbText
 10
-13.96099918964142
 20
127.1666666666715
 30
0.0
 40
2.0
  1

100
AcDbAttributeDefinition
  3
Änderungsname 10
  2
R_AENAM10
 70
     0
  0
ATTDEF
  5
43B
330
386
100
AcDbEntity
  8
AM_BOR
 62
     1
370
    25
100
AcDbText
 10
-186.4012579132421
 20
132.1666666666715
 30
0.0
 40
2.0
  1

 72
     1
 11
-186.4012579132421
 21
132.1666666666715
 31
0.0
100
AcDbAttributeDefinition
  3
Änderungsindex 11
  2
R_AEIND11
 70
     0
  0
ATTDEF
  5
43C
330
386
100
AcDbEntity
  8
AM_BOR
 62
     1
370
    25
100
AcDbText
 10
-181.3025158264765
 20
132.1666666666715
 30
0.0
 40
2.0
  1

100
AcDbAttributeDefinition
  3
Änderungsbeschreibung 11
  2
R_AETEXT11
 70
     0
  0
ATTDEF
  5
43D
330
386
100
AcDbEntity
  8
AM_BOR
 62
     1
370
    25
100
AcDbText
 10
-27.84186369022683
 20
132.1666666666715
 30
0.0
 40
2.0
  1

100
AcDbAttributeDefinition
  3
Änderungsdatum 11
  2
R_AEDAT11
 70
     0
  0
ATTDEF
  5
43E
330
386
100
AcDbEntity
  8
AM_BOR
 62
     1
370
    25
100
AcDbText
 10
-13.96099918964142
 20
132.1666666666715
 30
0.0
 40
2.0
  1

100
AcDbAttributeDefinition
  3
Änderungsname 11
  2
R_AENAM11
 70
     0
  0
TEXT
  5
43F
330
386
100
AcDbEntity
  8
AM_BOR
 62
     1
370
    25
100
AcDbText
 10
-64.0000000000075
 20
10.99999999999721
 30
0.0
 40
2.0
  1
Projekt:
100
AcDbText
  0
INSERT
  5
440
330
386
100
AcDbEntity
  8
0
100
AcDbBlockReference
  2
sfm
 10
-104.3551519040817
 20
43.22232415594513
 30
0.0
  0
OLE2FRAME
  5
441
330
386
100
AcDbEntity
  8
0
100
AcDbOle2Frame
 70
     2
 73
     1
 90
        0
1001
ACAD
1000
OLEBEGIN
1070
    70
1070
     1
1070
    71
1070
     1
1070
    40
1040
0.0
1070
    41
1040
266.4296197980875
1070
    42
1040
115.0072434317946
1070
    72
1070
     0
1070
     3
1000

1070
    90
1071
        0
1070
    43
1040
0.0
1070
     4
1000

1070
    91
1071
        0
1070
    44
1040
0.0
1000
OLEEND
  0
ENDBLK
  5
444
330
386
100
AcDbEntity
  8
0
100
AcDbBlockEnd
  0
BLOCK
  5
4AC
330
4AB
100
AcDbEntity
  8
0
100
AcDbBlockBegin
  2
1
 70
     0
 10
0.0
 20
0.0
 30
0.0
  3
1
  1

  0
CIRCLE
  5
4AD
330
4AB
100
AcDbEntity
  8
AM_3
100
AcDbCircle
 10
5247.485583092677
 20
1582.824897826214
 30
0.0
 40
24.0
  0
CIRCLE
  5
4AE
330
4AB
100
AcDbEntity
  8
AM_3
100
AcDbCircle
 10
5247.485583092677
 20
1582.824897826214
 30
0.0
 40
23.5
  0
CIRCLE
  5
4AF
330
4AB
100
AcDbEntity
  8
AM_3
100
AcDbCircle
 10
5247.485583092677
 20
1582.824897826214
 30
0.0
 40
8.0
  0
CIRCLE
  5
4B0
330
4AB
100
AcDbEntity
  8
AM_3
100
AcDbCircle
 10
5247.485583092677
 20
1582.824897826214
 30
0.0
 40
7.0
  0
LINE
  5
4B1
330
4AB
100
AcDbEntity
  8
AM_3
100
AcDbLine
 10
5247.485583092677
 20
1582.824897826214
 30
0.0
 11
5274.485583092677
 21
1582.824897826214
 31
0.0
1001
GENIUS_GENOREF_13
1005
501
  0
LINE
  5
4B2
330
4AB
100
AcDbEntity
  8
AM_3
100
AcDbLine
 10
5247.485583092677
 20
1582.824897826214
 30
0.0
 11
5247.485583092677
 21
1609.824897826213
 31
0.0
1001
GENIUS_GENOREF_13
1005
501
  0
LINE
  5
4B3
330
4AB
100
AcDbEntity
  8
AM_3
100
AcDbLine
 10
5247.485583092677
 20
1582.824897826214
 30
0.0
 11
5220.485583092678
 21
1582.824897826214
 31
0.0
1001
GENIUS_GENOREF_13
1005
501
  0
LINE
  5
4B4
330
4AB
100
AcDbEntity
  8
AM_3
100
AcDbLine
 10
5247.485583092677
 20
1582.824897826214
 30
0.0
 11
5247.485583092677
 21
1555.824897826213
 31
0.0
1001
GENIUS_GENOREF_13
1005
501
  0
LINE
  5
4B5
330
4AB
100
AcDbEntity
  8
AM_3
100
AcDbLine
 10
5247.485583092677
 20
1603.350819456895
 30
0.0
 11
5246.422938472779
 21
1590.754007890515
 31
0.0
  0
LINE
  5
4B6
330
4AB
100
AcDbEntity
  8
AM_3
100
AcDbLine
 10
5247.234582049062
 20
1606.323557330026
 30
0.0
 11
5246.002182213612
 21
1591.714431935739
 31
0.0
  0
LINE
  5
4B7
330
4AB
100
AcDbEntity
  8
AM_3
100
AcDbLine
 10
5247.485583092677
 20
1603.350819456908
 30
0.0
 11
5248.548227712575
 21
1590.754007890515
 31
0.0
  0
LINE
  5
4B8
330
4AB
100
AcDbEntity
  8
AM_3
100
AcDbLine
 10
5247.736584136291
 20
1606.323557330026
 30
0.0
 11
5248.968983971744
 21
1591.714431935741
 31
0.0
  0
LINE
  5
4B9
330
4AB
100
AcDbEntity
  8
AM_3
100
AcDbLine
 10
5240.820827234257
 20
1602.238668406308
 30
0.0
 11
5243.905937660231
 21
1589.979346692338
 31
0.0
  0
LINE
  5
4BA
330
4AB
100
AcDbEntity
  8
AM_3
100
AcDbLine
 10
5239.618179710031
 20
1604.968835236141
 30
0.0
 11
5243.196129958061
 21
1590.751112979643
 31
0.0
  0
LINE
  5
4BB
330
4AB
100
AcDbEntity
  8
AM_3
100
AcDbLine
 10
5240.820827234252
 20
1602.238668406321
 30
0.0
 11
5245.916072866832
 21
1590.669426980405
 31
0.0
  0
LINE
  5
4BC
330
4AB
100
AcDbEntity
  8
AM_3
100
AcDbLine
 10
5240.092981939501
 20
1605.131835047402
 30
0.0
 11
5246.002182213612
 21
1591.714431935739
 31
0.0
  0
LINE
  5
4BD
330
4AB
100
AcDbEntity
  8
AM_3
100
AcDbLine
 10
5234.87830108744
 20
1599.02273407768
 30
0.0
 11
5241.776846974214
 21
1588.429389946804
 31
0.0
  0
LINE
  5
4BE
330
4AB
100
AcDbEntity
  8
AM_3
100
AcDbLine
 10
5232.854332602853
 20
1601.214473925297
 30
0.0
 11
5240.85490650737
 21
1588.928865623767
 31
0.0
  0
LINE
  5
4BF
330
4AB
100
AcDbEntity
  8
AM_3
100
AcDbLine
 10
5234.878301087432
 20
1599.02273407769
 30
0.0
 11
5243.45399880752
 21
1589.734769616028
 31
0.0
  0
LINE
  5
4C0
330
4AB
100
AcDbEntity
  8
AM_3
100
AcDbLine
 10
5233.250482785686
 20
1601.52280998907
 30
0.0
 11
5243.196129958061
 21
1590.751112979643
 31
0.0
  0
LINE
  5
4C1
330
4AB
100
AcDbEntity
  8
AM_3
100
AcDbLine
 10
5230.301969568027
 20
1594.05151285588
 30
0.0
 11
5240.266386426799
 21
1586.272099517349
 31
0.0
  0
LINE
  5
4C2
330
4AB
100
AcDbEntity
  8
AM_3
100
AcDbLine
 10
5227.676008513491
 20
1595.467316700449
 30
0.0
 11
5239.232219750247
 21
1586.445158644208
 31
0.0
  0
LINE
  5
4C3
330
4AB
100
AcDbEntity
  8
AM_3
100
AcDbLine
 10
5230.301969568015
 20
1594.051512855887
 30
0.0
 11
5241.42880946198
 21
1588.051320425517
 31
0.0
  0
LINE
  5
4C4
330
4AB
100
AcDbEntity
  8
AM_3
100
AcDbLine
 10
5227.950577630472
 20
1595.887576019892
 30
0.0
 11
5240.85490650737
 21
1588.928865623767
 31
0.0
  0
LINE
  5
4C5
330
4AB
100
AcDbEntity
  8
AM_3
100
AcDbLine
 10
5227.587749205245
 20
1587.863713696735
 30
0.0
 11
5239.538237855508
 21
1583.741251295814
 31
0.0
  0
LINE
  5
4C6
330
4AB
100
AcDbEntity
  8
AM_3
100
AcDbLine
 10
5224.644359207
 20
1588.350157223233
 30
0.0
 11
5238.503912975403
 21
1583.569140230884
 31
0.0
  0
LINE
  5
4C7
330
4AB
100
AcDbEntity
  8
AM_3
100
AcDbLine
 10
5227.58774920523
 20
1587.863713696739
 30
0.0
 11
5240.059965519853
 21
1585.80150725007
 31
0.0
  0
LINE
  5
4C8
330
4AB
100
AcDbEntity
  8
AM_3
100
AcDbLine
 10
5224.767593433927
 20
1588.836798180093
 30
0.0
 11
5239.232219750247
 21
1586.445158644208
 31
0.0
  0
LINE
  5
4C9
330
4AB
100
AcDbEntity
  8
AM_3
100
AcDbLine
 10
5227.02976789087
 20
1581.129880652736
 30
0.0
 11
5239.671307456433
 21
1581.111101957158
 31
0.0
  0
LINE
  5
4CA
330
4AB
100
AcDbEntity
  8
AM_3
100
AcDbLine
 10
5224.087910926629
 20
1580.634250157118
 30
0.0
 11
5238.748909522731
 21
1580.612471604905
 31
0.0
  0
LINE
  5
4CB
330
4AB
100
AcDbEntity
  8
AM_3
100
AcDbLine
 10
5227.029767890858
 20
1581.129880652735
 30
0.0
 11
5239.495802462071
 21
1583.229132256692
 31
0.0
  0
LINE
  5
4CC
330
4AB
100
AcDbEntity
  8
AM_3
100
AcDbLine
 10
5224.046455922837
 20
1581.134537652704
 30
0.0
 11
5238.503912975403
 21
1583.569140230884
 31
0.0
  0
LINE
  5
4CD
330
4AB
100
AcDbEntity
  8
AM_3
100
AcDbLine
 10
5228.688491558286
 20
1574.579729020384
 30
0.0
 11
5240.651175073522
 21
1578.666668993198
 31
0.0
  0
LINE
  5
4CE
330
4AB
100
AcDbEntity
  8
AM_3
100
AcDbLine
 10
5226.066963477737
 20
1573.155733757351
 30
0.0
 11
5239.94066021483
 21
1577.895553689335
 31
0.0
  0
LINE
  5
4CF
330
4AB
100
AcDbEntity
  8
AM_3
100
AcDbLine
 10
5228.688491558274
 20
1574.579729020378
 30
0.0
 11
5239.797456109831
 21
1580.61295219043
 31
0.0
  0
LINE
  5
4D0
330
4AB
100
AcDbEntity
  8
AM_3
100
AcDbLine
 10
5225.865311536134
 20
1573.615453878759
 30
0.0
 11
5238.748909522731
 21
1580.612471604905
 31
0.0
  0
LINE
  5
4D1
330
4AB
100
AcDbEntity
  8
AM_3
100
AcDbLine
 10
5232.384171760381
 20
1568.923069365118
 30
0.0
 11
5242.371656846255
 21
1576.672844644863
 31
0.0
  0
LINE
  5
4D2
330
4AB
100
AcDbEntity
  8
AM_3
100
AcDbLine
 10
5230.367055808255
 20
1566.725021316983
 30
0.0
 11
5241.950020372278
 21
1575.71280669765
 31
0.0
  0
LINE
  5
4D3
330
4AB
100
AcDbEntity
  8
AM_3
100
AcDbLine
 10
5232.38417176037
 20
1568.923069365109
 30
0.0
 11
5240.932237609767
 21
1578.236470755676
 31
0.0
  0
LINE
  5
4D4
330
4AB
100
AcDbEntity
  8
AM_3
100
AcDbLine
 10
5230.027059045657
 20
1567.094356255764
 30
0.0
 11
5239.94066021483
 21
1577.895553689335
 31
0.0
  0
LINE
  5
4D5
330
4AB
100
AcDbEntity
  8
AM_3
100
AcDbLine
 10
5237.716324202871
 20
1564.772888532707
 30
0.0
 11
5244.646311878527
 21
1575.345690717668
 31
0.0
  0
LINE
  5
4D6
330
4AB
100
AcDbEntity
  8
AM_3
100
AcDbLine
 10
5236.522206191351
 20
1562.038980311715
 30
0.0
 11
5244.559244643586
 21
1574.300765135209
 31
0.0
  0
LINE
  5
4D7
330
4AB
100
AcDbEntity
  8
AM_3
100
AcDbLine
 10
5237.716324202864
 20
1564.772888532696
 30
0.0
 11
5242.777175778408
 21
1576.357216590798
 31
0.0
  0
LINE
  5
4D8
330
4AB
100
AcDbEntity
  8
AM_3
100
AcDbLine
 10
5236.080708532588
 20
1562.277906896429
 30
0.0
 11
5241.950020372278
 21
1575.71280669765
 31
0.0
  0
LINE
  5
4D9
330
4AB
100
AcDbEntity
  8
AM_3
100
AcDbLine
 10
5244.107127431741
 20
1562.578923013032
 30
0.0
 11
5247.228646002688
 21
1574.829024932539
 31
0.0
  0
LINE
  5
4DA
330
4AB
100
AcDbEntity
  8
AM_3
100
AcDbLine
 10
5243.865408576033
 20
1559.605415995883
 30
0.0
 11
5247.485583092677
 21
1573.812445615391
 31
0.0
  0
LINE
  5
4DB
330
4AB
100
AcDbEntity
  8
AM_3
100
AcDbLine
 10
5244.107127431738
 20
1562.578923013019
 30
0.0
 11
5245.132342938015
 21
1575.178836044191
 31
0.0
  0
LINE
  5
4DC
330
4AB
100
AcDbEntity
  8
AM_3
100
AcDbLine
 10
5243.370253142965
 20
1559.68804282375
 30
0.0
 11
5244.559244643586
 21
1574.300765135209
 31
0.0
  0
LINE
  5
4DD
330
4AB
100
AcDbEntity
  8
AM_3
100
AcDbLine
 10
5250.864038753615
 20
1562.578923013032
 30
0.0
 11
5249.838823247339
 21
1575.178836044191
 31
0.0
  0
LINE
  5
4DE
330
4AB
100
AcDbEntity
  8
AM_3
100
AcDbLine
 10
5251.600913042388
 20
1559.68804282375
 30
0.0
 11
5250.411921541765
 21
1574.300765135206
 31
0.0
  0
LINE
  5
4DF
330
4AB
100
AcDbEntity
  8
AM_3
100
AcDbLine
 10
5250.864038753616
 20
1562.578923013019
 30
0.0
 11
5247.742520182666
 21
1574.829024932539
 31
0.0
  0
LINE
  5
4E0
330
4AB
100
AcDbEntity
  8
AM_3
100
AcDbLine
 10
5251.10575760932
 20
1559.605415995883
 30
0.0
 11
5247.485583092677
 21
1573.812445615387
 31
0.0
  0
LINE
  5
4E1
330
4AB
100
AcDbEntity
  8
AM_3
100
AcDbLine
 10
5257.254841982483
 20
1564.772888532708
 30
0.0
 11
5252.193990406945
 21
1576.357216590798
 31
0.0
  0
LINE
  5
4E2
330
4AB
100
AcDbEntity
  8
AM_3
100
AcDbLine
 10
5258.890457652766
 20
1562.277906896429
 30
0.0
 11
5253.021145813076
 21
1575.712806697648
 31
0.0
  0
LINE
  5
4E3
330
4AB
100
AcDbEntity
  8
AM_3
100
AcDbLine
 10
5257.254841982489
 20
1564.772888532696
 30
0.0
 11
5250.324854306824
 21
1575.345690717668
 31
0.0
  0
LINE
  5
4E4
330
4AB
100
AcDbEntity
  8
AM_3
100
AcDbLine
 10
5258.448959993999
 20
1562.038980311714
 30
0.0
 11
5250.411921541765
 21
1574.300765135206
 31
0.0
  0
LINE
  5
4E5
330
4AB
100
AcDbEntity
  8
AM_3
100
AcDbLine
 10
5262.586994424975
 20
1568.923069365119
 30
0.0
 11
5254.038928575584
 21
1578.236470755677
 31
0.0
  0
LINE
  5
4E6
330
4AB
100
AcDbEntity
  8
AM_3
100
AcDbLine
 10
5264.944107139696
 20
1567.094356255763
 30
0.0
 11
5255.030505970528
 21
1577.895553689334
 31
0.0
  0
LINE
  5
4E7
330
4AB
100
AcDbEntity
  8
AM_3
100
AcDbLine
 10
5262.586994424983
 20
1568.92306936511
 30
0.0
 11
5252.599509339099
 21
1576.672844644863
 31
0.0
  0
LINE
  5
4E8
330
4AB
100
AcDbEntity
  8
AM_3
100
AcDbLine
 10
5264.604110377097
 20
1566.725021316982
 30
0.0
 11
5253.021145813076
 21
1575.712806697648
 31
0.0
  0
LINE
  5
4E9
330
4AB
100
AcDbEntity
  8
AM_3
100
AcDbLine
 10
5266.282674627067
 20
1574.579729020384
 30
0.0
 11
5255.173710075522
 21
1580.61295219043
 31
0.0
  0
LINE
  5
4EA
330
4AB
100
AcDbEntity
  8
AM_3
100
AcDbLine
 10
5269.105854649221
 20
1573.615453878758
 30
0.0
 11
5256.222256662622
 21
1580.612471604905
 31
0.0
  0
LINE
  5
4EB
330
4AB
100
AcDbEntity
  8
AM_3
100
AcDbLine
 10
5266.282674627079
 20
1574.579729020378
 30
0.0
 11
5254.319991111833
 21
1578.666668993198
 31
0.0
  0
LINE
  5
4EC
330
4AB
100
AcDbEntity
  8
AM_3
100
AcDbLine
 10
5268.904202707616
 20
1573.155733757351
 30
0.0
 11
5255.030505970528
 21
1577.895553689334
 31
0.0
  0
LINE
  5
4ED
330
4AB
100
AcDbEntity
  8
AM_3
100
AcDbLine
 10
5267.941398294484
 20
1581.129880652736
 30
0.0
 11
5255.475363723284
 21
1583.229132256692
 31
0.0
  0
LINE
  5
4EE
330
4AB
100
AcDbEntity
  8
AM_3
100
AcDbLine
 10
5270.924710262515
 20
1581.134537652705
 30
0.0
 11
5256.467253209952
 21
1583.569140230884
 31
0.0
  0
LINE
  5
4EF
330
4AB
100
AcDbEntity
  8
AM_3
100
AcDbLine
 10
5267.941398294497
 20
1581.129880652734
 30
0.0
 11
5255.299858728922
 21
1581.111101957159
 31
0.0
  0
LINE
  5
4F0
330
4AB
100
AcDbEntity
  8
AM_3
100
AcDbLine
 10
5270.883255258723
 20
1580.634250157118
 30
0.0
 11
5256.222256662622
 21
1580.612471604905
 31
0.0
  0
LINE
  5
4F1
330
4AB
100
AcDbEntity
  8
AM_3
100
AcDbLine
 10
5267.38341698011
 20
1587.863713696735
 30
0.0
 11
5254.9112006655
 21
1585.801507250069
 31
0.0
  0
LINE
  5
4F2
330
4AB
100
AcDbEntity
  8
AM_3
100
AcDbLine
 10
5270.203572751426
 20
1588.836798180093
 30
0.0
 11
5255.738946435112
 21
1586.445158644208
 31
0.0
  0
LINE
  5
4F3
330
4AB
100
AcDbEntity
  8
AM_3
100
AcDbLine
 10
5267.383416980123
 20
1587.863713696738
 30
0.0
 11
5255.432928329845
 21
1583.741251295814
 31
0.0
  0
LINE
  5
4F4
330
4AB
100
AcDbEntity
  8
AM_3
100
AcDbLine
 10
5270.326806978355
 20
1588.350157223233
 30
0.0
 11
5256.467253209952
 21
1583.569140230884
 31
0.0
  0
LINE
  5
4F5
330
4AB
100
AcDbEntity
  8
AM_3
100
AcDbLine
 10
5264.669196617329
 20
1594.05151285588
 30
0.0
 11
5253.542356723372
 21
1588.051320425517
 31
0.0
  0
LINE
  5
4F6
330
4AB
100
AcDbEntity
  8
AM_3
100
AcDbLine
 10
5267.020588554883
 20
1595.887576019891
 30
0.0
 11
5254.116259677982
 21
1588.928865623765
 31
0.0
  0
LINE
  5
4F7
330
4AB
100
AcDbEntity
  8
AM_3
100
AcDbLine
 10
5264.669196617338
 20
1594.051512855887
 30
0.0
 11
5254.704779758554
 21
1586.272099517348
 31
0.0
  0
LINE
  5
4F8
330
4AB
100
AcDbEntity
  8
AM_3
100
AcDbLine
 10
5267.295157671865
 20
1595.467316700447
 30
0.0
 11
5255.738946435112
 21
1586.445158644208
 31
0.0
  0
LINE
  5
4F9
330
4AB
100
AcDbEntity
  8
AM_3
100
AcDbLine
 10
5260.092865097913
 20
1599.02273407768
 30
0.0
 11
5251.517167377834
 21
1589.734769616029
 31
0.0
  0
LINE
  5
4FA
330
4AB
100
AcDbEntity
  8
AM_3
100
AcDbLine
 10
5261.720683399667
 20
1601.52280998907
 30
0.0
 11
5251.775036227295
 21
1590.751112979642
 31
0.0
  0
LINE
  5
4FB
330
4AB
100
AcDbEntity
  8
AM_3
100
AcDbLine
 10
5260.092865097922
 20
1599.022734077691
 30
0.0
 11
5253.194319211138
 21
1588.429389946805
 31
0.0
  0
LINE
  5
4FC
330
4AB
100
AcDbEntity
  8
AM_3
100
AcDbLine
 10
5262.116833582498
 20
1601.214473925299
 30
0.0
 11
5254.116259677982
 21
1588.928865623765
 31
0.0
  0
LINE
  5
4FD
330
4AB
100
AcDbEntity
  8
AM_3
100
AcDbLine
 10
5254.150338951096
 20
1602.238668406308
 30
0.0
 11
5249.055093318522
 21
1590.669426980406
 31
0.0
  0
LINE
  5
4FE
330
4AB
100
AcDbEntity
  8
AM_3
100
AcDbLine
 10
5254.878184245852
 20
1605.131835047403
 30
0.0
 11
5248.968983971744
 21
1591.714431935741
 31
0.0
  0
LINE
  5
4FF
330
4AB
100
AcDbEntity
  8
AM_3
100
AcDbLine
 10
5254.150338951101
 20
1602.238668406321
 30
0.0
 11
5251.065228525121
 21
1589.979346692338
 31
0.0
  0
LINE
  5
500
330
4AB
100
AcDbEntity
  8
AM_3
100
AcDbLine
 10
5255.35298647532
 20
1604.968835236141
 30
0.0
 11
5251.775036227295
 21
1590.751112979642
 31
0.0
  0
POINT
  5
501
330
4AB
100
AcDbEntity
  8
0
 60
     1
100
AcDbPoint
 10
-579.8035898937813
 20
-250.7165416773005
 30
0.0
1001
GENIUS_GENODEF_13
1002
{
1000
HIER
1070
    10
1002
}
1002
{
1000
MANEDIT
1070
     0
1002
}
1002
{
1000
NOSEL
1070
     0
1002
}
1002
{
1000
BEHIND
1070
     0
1002
}
1002
{
1000
OTHER
1070
     0
1002
}
1002
{
1000
REACTOR
1002
}
1001
GENIUS_GENOENT_13
1002
{
1000
MYREF
1005
501
1002
}
1002
{
1000
GRP
1005
0
1002
}
1001
GENIUS_GENOLIS_13
1002
{
1000
ENT
1005
4B4
1005
4B3
1005
4B2
1005
4B1
1002
}
1001
GENIUS_GENOBJ-N-CRS_13
1002
{
1000
OWNER
1000
GEN
1002
}
  0
ENDBLK
  5
502
330
4AB
100
AcDbEntity
  8
0
100
AcDbBlockEnd
  0
BLOCK
  5
A41
330
A37
100
AcDbEntity
  8
0
100
AcDbBlockBegin
  2
*D6
 70
     1
 10
0.0
 20
0.0
 30
0.0
  3
*D6
  1

  0
LINE
  5
B66
330
A37
100
AcDbEntity
  8
AM_5
100
AcDbLine
 10
841.3857260843187
 20
463.6484072866585
 30
0.0
 11
1040.14055334058
 21
463.6484072866585
 31
0.0
  0
LINE
  5
B67
330
A37
100
AcDbEntity
  8
AM_5
100
AcDbLine
 10
989.2069382055304
 20
618.6484072866581
 30
0.0
 11
1040.14055334058
 21
618.6484072866581
 31
0.0
  0
LINE
  5
B68
330
A37
100
AcDbEntity
  8
AM_5
100
AcDbLine
 10
1035.14055334058
 20
469.8984072866585
 30
0.0
 11
1035.14055334058
 21
612.3984072866581
 31
0.0
  0
SOLID
  5
B69
330
A37
100
AcDbEntity
  8
AM_5
100
AcDbTrace
 10
1034.098886673913
 20
469.8984072866585
 30
0.0
 11
1036.182220007247
 21
469.8984072866585
 31
0.0
 12
1035.14055334058
 22
463.6484072866585
 32
0.0
 13
1035.14055334058
 23
463.6484072866585
 33
0.0
  0
SOLID
  5
B6A
330
A37
100
AcDbEntity
  8
AM_5
100
AcDbTrace
 10
1034.098886673914
 20
612.3984072866581
 30
0.0
 11
1036.182220007247
 21
612.3984072866581
 31
0.0
 12
1035.14055334058
 22
618.6484072866581
 32
0.0
 13
1035.14055334058
 23
618.6484072866581
 33
0.0
  0
MTEXT
  5
B6B
330
A37
100
AcDbEntity
  8
AM_5
 62
     2
100
AcDbMText
 10
1027.01555334058
 20
541.1484072866584
 30
0.0
 40
8.75
 41
0.0
 71
     5
 72
     1
  1
155{}{\H0.71x;\C3;%%p5}
 11
0.0000000000000001
 21
1.0
 31
0.0
 73
     1
 44
1.0
  0
POINT
  5
B6C
330
A37
100
AcDbEntity
  8
DEFPOINTS
 62
     0
100
AcDbPoint
 10
841.3857260843187
 20
463.6484072866585
 30
0.0
  0
POINT
  5
B6D
330
A37
100
AcDbEntity
  8
DEFPOINTS
 62
     0
100
AcDbPoint
 10
989.2069382055304
 20
618.6484072866581
 30
0.0
  0
POINT
  5
B6E
330
A37
100
AcDbEntity
  8
DEFPOINTS
 62
     0
100
AcDbPoint
 10
1035.14055334058
 20
618.6484072866581
 30
0.0
  0
ENDBLK
  5
A42
330
A37
100
AcDbEntity
  8
0
100
AcDbBlockEnd
  0
BLOCK
  5
A4D
330
A43
100
AcDbEntity
  8
0
100
AcDbBlockBegin
  2
*D7
 70
     1
 10
0.0
 20
0.0
 30
0.0
  3
*D7
  1

  0
LINE
  5
B6F
330
A43
100
AcDbEntity
  8
AM_5
100
AcDbLine
 10
828.2069382055308
 20
484.6484072866583
 30
0.0
 11
704.0657436926103
 21
484.6484072866583
 31
0.0
  0
LINE
  5
B70
330
A43
100
AcDbEntity
  8
AM_5
100
AcDbLine
 10
795.7069382055307
 20
571.6484072866586
 30
0.0
 11
704.0657436926103
 21
571.6484072866586
 31
0.0
  0
LINE
  5
B71
330
A43
100
AcDbEntity
  8
AM_5
100
AcDbLine
 10
709.0657436926103
 20
490.8984072866583
 30
0.0
 11
709.0657436926103
 21
565.3984072866586
 31
0.0
  0
SOLID
  5
B72
330
A43
100
AcDbEntity
  8
AM_5
100
AcDbTrace
 10
708.0240770259437
 20
490.8984072866583
 30
0.0
 11
710.1074103592772
 21
490.8984072866583
 31
0.0
 12
709.0657436926103
 22
484.6484072866583
 32
0.0
 13
709.0657436926103
 23
484.6484072866583
 33
0.0
  0
SOLID
  5
B73
330
A43
100
AcDbEntity
  8
AM_5
100
AcDbTrace
 10
708.0240770259437
 20
565.3984072866586
 30
0.0
 11
710.1074103592772
 21
565.3984072866586
 31
0.0
 12
709.0657436926103
 22
571.6484072866586
 32
0.0
 13
709.0657436926103
 23
571.6484072866586
 33
0.0
  0
MTEXT
  5
B74
330
A43
100
AcDbEntity
  8
AM_5
 62
     2
100
AcDbMText
 10
700.9407436926103
 20
529.556893001391
 30
0.0
 40
8.75
 41
0.0
 71
     5
 72
     1
  1
87{}{\H0.71x;\C3;%%p2}
 11
0.0000000000000001
 21
1.0
 31
0.0
 73
     1
 44
1.0
  0
POINT
  5
B75
330
A43
100
AcDbEntity
  8
DEFPOINTS
 62
     0
100
AcDbPoint
 10
828.2069382055308
 20
484.6484072866583
 30
0.0
  0
POINT
  5
B76
330
A43
100
AcDbEntity
  8
DEFPOINTS
 62
     0
100
AcDbPoint
 10
795.7069382055307
 20
571.6484072866586
 30
0.0
  0
POINT
  5
B77
330
A43
100
AcDbEntity
  8
DEFPOINTS
 62
     0
100
AcDbPoint
 10
709.0657436926103
 20
571.6484072866586
 30
0.0
  0
ENDBLK
  5
A4E
330
A43
100
AcDbEntity
  8
0
100
AcDbBlockEnd
  0
BLOCK
  5
A59
330
A4F
100
AcDbEntity
  8
0
100
AcDbBlockBegin
  2
*D8
 70
     1
 10
0.0
 20
0.0
 30
0.0
  3
*D8
  1

  0
LINE
  5
B78
330
A4F
100
AcDbEntity
  8
AM_5
100
AcDbLine
 10
828.2069382055308
 20
884.7202040563839
 30
0.0
 11
728.2069382055285
 21
884.7202040563839
 31
0.0
  0
LINE
  5
B79
330
A4F
100
AcDbEntity
  8
AM_5
100
AcDbLine
 10
767.1366821847775
 20
797.7202040563834
 30
0.0
 11
728.2069382055285
 21
797.7202040563834
 31
0.0
  0
LINE
  5
B7A
330
A4F
100
AcDbEntity
  8
AM_5
100
AcDbLine
 10
733.2069382055285
 20
878.4702040563839
 30
0.0
 11
733.2069382055285
 21
803.9702040563835
 31
0.0
  0
SOLID
  5
B7B
330
A4F
100
AcDbEntity
  8
AM_5
100
AcDbTrace
 10
732.165271538862
 20
878.4702040563839
 30
0.0
 11
734.2486048721954
 21
878.4702040563839
 31
0.0
 12
733.2069382055285
 22
884.7202040563839
 32
0.0
 13
733.2069382055285
 23
884.7202040563839
 33
0.0
  0
SOLID
  5
B7C
330
A4F
100
AcDbEntity
  8
AM_5
100
AcDbTrace
 10
732.165271538862
 20
803.9702040563835
 30
0.0
 11
734.2486048721954
 21
803.9702040563835
 31
0.0
 12
733.2069382055285
 22
797.7202040563834
 32
0.0
 13
733.2069382055285
 23
797.7202040563834
 33
0.0
  0
MTEXT
  5
B7D
330
A4F
100
AcDbEntity
  8
AM_5
 62
     2
100
AcDbMText
 10
725.0819382055284
 20
841.2202040563839
 30
0.0
 40
8.75
 41
0.0
 71
     5
 72
     1
  1
87{}{\H0.71x;\C3;%%p2}
 11
0.0000000000000001
 21
1.0
 31
0.0
 73
     1
 44
1.0
  0
POINT
  5
B7E
330
A4F
100
AcDbEntity
  8
DEFPOINTS
 62
     0
100
AcDbPoint
 10
828.2069382055308
 20
884.7202040563839
 30
0.0
  0
POINT
  5
B7F
330
A4F
100
AcDbEntity
  8
DEFPOINTS
 62
     0
100
AcDbPoint
 10
767.1366821847775
 20
797.7202040563834
 30
0.0
  0
POINT
  5
B80
330
A4F
100
AcDbEntity
  8
DEFPOINTS
 62
     0
100
AcDbPoint
 10
733.2069382055285
 20
797.7202040563834
 30
0.0
  0
ENDBLK
  5
A5A
330
A4F
100
AcDbEntity
  8
0
100
AcDbBlockEnd
  0
BLOCK
  5
A65
330
A5B
100
AcDbEntity
  8
0
100
AcDbBlockBegin
  2
*D9
 70
     1
 10
0.0
 20
0.0
 30
0.0
  3
*D9
  1

  0
LINE
  5
B81
330
A5B
100
AcDbEntity
  8
AM_5
100
AcDbLine
 10
405.2319189162886
 20
563.6843056715211
 30
0.0
 11
543.1845556976196
 21
563.6843056715211
 31
0.0
  0
LINE
  5
B82
330
A5B
100
AcDbEntity
  8
AM_5
100
AcDbLine
 10
405.2319189162886
 20
805.6843056715209
 30
0.0
 11
543.18455569762
 21
805.6843056715209
 31
0.0
  0
LINE
  5
B83
330
A5B
100
AcDbEntity
  8
AM_5
100
AcDbLine
 10
538.1845556976196
 20
569.9343056715211
 30
0.0
 11
538.18455569762
 21
799.434305671521
 31
0.0
  0
SOLID
  5
B84
330
A5B
100
AcDbEntity
  8
AM_5
100
AcDbTrace
 10
537.1428890309532
 20
569.9343056715211
 30
0.0
 11
539.2262223642865
 21
569.9343056715211
 31
0.0
 12
538.1845556976196
 22
563.6843056715211
 32
0.0
 13
538.1845556976196
 23
563.6843056715211
 33
0.0
  0
SOLID
  5
B85
330
A5B
100
AcDbEntity
  8
AM_5
100
AcDbTrace
 10
537.1428890309532
 20
799.434305671521
 30
0.0
 11
539.2262223642866
 21
799.434305671521
 31
0.0
 12
538.18455569762
 22
805.6843056715209
 32
0.0
 13
538.18455569762
 23
805.6843056715209
 33
0.0
  0
MTEXT
  5
B86
330
A5B
100
AcDbEntity
  8
AM_5
 62
     2
100
AcDbMText
 10
530.0586944771472
 20
684.684305671521
 30
0.0
 40
8.75
 41
0.0
 71
     5
 72
     1
  1
242
 11
0.0000000000000001
 21
1.0
 31
0.0
 73
     1
 44
1.0
  0
POINT
  5
B87
330
A5B
100
AcDbEntity
  8
DEFPOINTS
 62
     0
100
AcDbPoint
 10
405.2319189162886
 20
563.6843056715211
 30
0.0
  0
POINT
  5
B88
330
A5B
100
AcDbEntity
  8
DEFPOINTS
 62
     0
100
AcDbPoint
 10
405.2319189162886
 20
805.6843056715209
 30
0.0
  0
POINT
  5
B89
330
A5B
100
AcDbEntity
  8
DEFPOINTS
 62
     0
100
AcDbPoint
 10
538.18455569762
 20
805.6843056715209
 30
0.0
  0
ENDBLK
  5
A66
330
A5B
100
AcDbEntity
  8
0
100
AcDbBlockEnd
  0
BLOCK
  5
A71
330
A67
100
AcDbEntity
  8
0
100
AcDbBlockBegin
  2
*D10
 70
     1
 10
0.0
 20
0.0
 30
0.0
  3
*D10
  1

  0
LINE
  5
B8A
330
A67
100
AcDbEntity
  8
AM_5
100
AcDbLine
 10
356.0819189162889
 20
463.6484072866585
 30
0.0
 11
568.1845556976226
 21
463.6484072866585
 31
0.0
  0
LINE
  5
B8B
330
A67
100
AcDbEntity
  8
AM_5
100
AcDbLine
 10
339.2319189162886
 20
905.7202040563836
 30
0.0
 11
568.1845556976226
 21
905.7202040563836
 31
0.0
  0
LINE
  5
B8C
330
A67
100
AcDbEntity
  8
AM_5
100
AcDbLine
 10
563.1845556976226
 20
469.8984072866585
 30
0.0
 11
563.1845556976227
 21
899.4702040563836
 31
0.0
  0
SOLID
  5
B8D
330
A67
100
AcDbEntity
  8
AM_5
100
AcDbTrace
 10
562.142889030956
 20
469.8984072866585
 30
0.0
 11
564.2262223642892
 21
469.8984072866585
 31
0.0
 12
563.1845556976226
 22
463.6484072866585
 32
0.0
 13
563.1845556976226
 23
463.6484072866585
 33
0.0
  0
SOLID
  5
B8E
330
A67
100
AcDbEntity
  8
AM_5
100
AcDbTrace
 10
562.1428890309561
 20
899.4702040563836
 30
0.0
 11
564.2262223642894
 21
899.4702040563836
 31
0.0
 12
563.1845556976227
 22
905.7202040563836
 32
0.0
 13
563.1845556976227
 23
905.7202040563836
 33
0.0
  0
MTEXT
  5
B8F
330
A67
100
AcDbEntity
  8
AM_5
 62
     2
100
AcDbMText
 10
555.0586944771501
 20
684.684305671521
 30
0.0
 40
8.75
 41
0.0
 71
     5
 72
     1
  1
442{}{\H0.71x;\C3;%%p5}
 11
0.0000000000000001
 21
1.0
 31
0.0
 73
     1
 44
1.0
  0
POINT
  5
B90
330
A67
100
AcDbEntity
  8
DEFPOINTS
 62
     0
100
AcDbPoint
 10
356.0819189162889
 20
463.6484072866585
 30
0.0
  0
POINT
  5
B91
330
A67
100
AcDbEntity
  8
DEFPOINTS
 62
     0
100
AcDbPoint
 10
339.2319189162886
 20
905.7202040563836
 30
0.0
  0
POINT
  5
B92
330
A67
100
AcDbEntity
  8
DEFPOINTS
 62
     0
100
AcDbPoint
 10
563.1845556976227
 20
905.7202040563836
 30
0.0
  0
ENDBLK
  5
A72
330
A67
100
AcDbEntity
  8
0
100
AcDbBlockEnd
  0
BLOCK
  5
A7D
330
A73
100
AcDbEntity
  8
0
100
AcDbBlockBegin
  2
*D11
 70
     1
 10
0.0
 20
0.0
 30
0.0
  3
*D11
  1

  0
LINE
  5
1D55
330
A73
100
AcDbEntity
  8
AM_5
100
AcDbLine
 10
761.6091488098398
 20
515.8743950229399
 30
0.0
 11
761.6091488098398
 21
324.5608270631832
 31
0.0
  0
LINE
  5
1D56
330
A73
100
AcDbEntity
  8
AM_5
100
AcDbLine
 10
501.60914880984
 20
515.8743950229399
 30
0.0
 11
501.60914880984
 21
324.5608270631832
 31
0.0
  0
LINE
  5
1D57
330
A73
100
AcDbEntity
  8
AM_5
100
AcDbLine
 10
755.3591488098398
 20
329.5608270631832
 30
0.0
 11
507.85914880984
 21
329.5608270631832
 31
0.0
  0
SOLID
  5
1D58
330
A73
100
AcDbEntity
  8
AM_5
100
AcDbTrace
 10
755.3591488098398
 20
330.6024937298499
 30
0.0
 11
755.3591488098398
 21
328.5191603965165
 31
0.0
 12
761.6091488098398
 22
329.5608270631832
 32
0.0
 13
761.6091488098398
 23
329.5608270631832
 33
0.0
  0
SOLID
  5
1D59
330
A73
100
AcDbEntity
  8
AM_5
100
AcDbTrace
 10
507.85914880984
 20
330.6024937298499
 30
0.0
 11
507.85914880984
 21
328.5191603965165
 31
0.0
 12
501.60914880984
 22
329.5608270631832
 32
0.0
 13
501.60914880984
 23
329.5608270631832
 33
0.0
  0
MTEXT
  5
1D5A
330
A73
100
AcDbEntity
  8
AM_5
 62
     2
100
AcDbMText
 10
631.60914880984
 20
338.1233270631832
 30
0.0
 40
8.75
 41
0.0
 71
     5
 72
     1
  1
(260)
 73
     1
 44
1.0
  0
POINT
  5
1D5B
330
A73
100
AcDbEntity
  8
DEFPOINTS
 62
     0
100
AcDbPoint
 10
761.6091488098398
 20
515.8743950229399
 30
0.0
  0
POINT
  5
1D5C
330
A73
100
AcDbEntity
  8
DEFPOINTS
 62
     0
100
AcDbPoint
 10
501.60914880984
 20
515.8743950229399
 30
0.0
  0
POINT
  5
1D5D
330
A73
100
AcDbEntity
  8
DEFPOINTS
 62
     0
100
AcDbPoint
 10
501.60914880984
 20
329.5608270631832
 30
0.0
  0
ENDBLK
  5
A7E
330
A73
100
AcDbEntity
  8
0
100
AcDbBlockEnd
  0
BLOCK
  5
A89
330
A7F
100
AcDbEntity
  8
0
100
AcDbBlockBegin
  2
*D12
 70
     1
 10
0.0
 20
0.0
 30
0.0
  3
*D12
  1

  0
LINE
  5
1DCE
330
A7F
100
AcDbEntity
  8
AM_5
100
AcDbLine
 10
565.6091488098399
 20
594.0743950229392
 30
0.0
 11
565.6091488098399
 21
618.5684120480117
 31
0.0
  0
LINE
  5
1DCF
330
A7F
100
AcDbEntity
  8
AM_5
100
AcDbLine
 10
697.6091488098353
 20
594.0743950229345
 30
0.0
 11
697.6091488098353
 21
618.5684120480117
 31
0.0
  0
LINE
  5
1DD0
330
A7F
100
AcDbEntity
  8
AM_5
100
AcDbLine
 10
571.8591488098399
 20
613.5684120480117
 30
0.0
 11
691.3591488098353
 21
613.5684120480117
 31
0.0
  0
SOLID
  5
1DD1
330
A7F
100
AcDbEntity
  8
AM_5
100
AcDbTrace
 10
571.8591488098399
 20
614.6100787146782
 30
0.0
 11
571.8591488098399
 21
612.5267453813449
 31
0.0
 12
565.6091488098399
 22
613.5684120480117
 32
0.0
 13
565.6091488098399
 23
613.5684120480117
 33
0.0
  0
SOLID
  5
1DD2
330
A7F
100
AcDbEntity
  8
AM_5
100
AcDbTrace
 10
691.3591488098353
 20
614.6100787146782
 30
0.0
 11
691.3591488098353
 21
612.5267453813449
 31
0.0
 12
697.6091488098353
 22
613.5684120480117
 32
0.0
 13
697.6091488098353
 23
613.5684120480117
 33
0.0
  0
MTEXT
  5
1DD3
330
A7F
100
AcDbEntity
  8
AM_5
 62
     2
100
AcDbMText
 10
656.9332479977616
 20
622.1309120480117
 30
0.0
 40
8.75
 41
0.0
 71
     5
 72
     1
  1
(%%c132)
 73
     1
 44
1.0
  0
POINT
  5
1DD4
330
A7F
100
AcDbEntity
  8
DEFPOINTS
 62
     0
100
AcDbPoint
 10
565.6091488098399
 20
594.0743950229392
 30
0.0
  0
POINT
  5
1DD5
330
A7F
100
AcDbEntity
  8
DEFPOINTS
 62
     0
100
AcDbPoint
 10
697.6091488098353
 20
594.0743950229345
 30
0.0
  0
POINT
  5
1DD6
330
A7F
100
AcDbEntity
  8
DEFPOINTS
 62
     0
100
AcDbPoint
 10
697.6091488098353
 20
613.5684120480117
 30
0.0
  0
ENDBLK
  5
A8A
330
A7F
100
AcDbEntity
  8
0
100
AcDbBlockEnd
  0
BLOCK
  5
A95
330
A8B
100
AcDbEntity
  8
0
100
AcDbBlockBegin
  2
*D13
 70
     1
 10
0.0
 20
0.0
 30
0.0
  3
*D13
  1

  0
LINE
  5
1DD7
330
A8B
100
AcDbEntity
  8
AM_5
100
AcDbLine
 10
554.9231799174986
 20
496.9743950229393
 30
0.0
 11
465.6091488098407
 21
496.9743950229393
 31
0.0
  0
LINE
  5
1DD8
330
A8B
100
AcDbEntity
  8
AM_5
100
AcDbLine
 10
554.9231799174986
 20
573.0743950229395
 30
0.0
 11
465.6091488098407
 21
573.0743950229395
 31
0.0
  0
LINE
  5
1DD9
330
A8B
100
AcDbEntity
  8
AM_5
100
AcDbLine
 10
470.6091488098407
 20
503.2243950229393
 30
0.0
 11
470.6091488098407
 21
566.8243950229395
 31
0.0
  0
SOLID
  5
1DDA
330
A8B
100
AcDbEntity
  8
AM_5
100
AcDbTrace
 10
469.5674821431743
 20
503.2243950229393
 30
0.0
 11
471.6508154765076
 21
503.2243950229393
 31
0.0
 12
470.6091488098407
 22
496.9743950229393
 32
0.0
 13
470.6091488098407
 23
496.9743950229393
 33
0.0
  0
SOLID
  5
1DDB
330
A8B
100
AcDbEntity
  8
AM_5
100
AcDbTrace
 10
469.5674821431743
 20
566.8243950229395
 30
0.0
 11
471.6508154765076
 21
566.8243950229395
 31
0.0
 12
470.6091488098407
 22
573.0743950229395
 32
0.0
 13
470.6091488098407
 23
573.0743950229395
 33
0.0
  0
MTEXT
  5
1DDC
330
A8B
100
AcDbEntity
  8
AM_5
 62
     2
100
AcDbMText
 10
462.0466488098408
 20
535.0243950229402
 30
0.0
 40
8.75
 41
0.0
 71
     5
 72
     1
  1
(%%c76.1)
 11
0.0000000000000001
 21
1.0
 31
0.0
 73
     1
 44
1.0
  0
POINT
  5
1DDD
330
A8B
100
AcDbEntity
  8
DEFPOINTS
 62
     0
100
AcDbPoint
 10
554.9231799174986
 20
496.9743950229393
 30
0.0
  0
POINT
  5
1DDE
330
A8B
100
AcDbEntity
  8
DEFPOINTS
 62
     0
100
AcDbPoint
 10
554.9231799174986
 20
573.0743950229395
 30
0.0
  0
POINT
  5
1DDF
330
A8B
100
AcDbEntity
  8
DEFPOINTS
 62
     0
100
AcDbPoint
 10
470.6091488098407
 20
573.0743950229395
 30
0.0
  0
ENDBLK
  5
A96
330
A8B
100
AcDbEntity
  8
0
100
AcDbBlockEnd
  0
BLOCK
  5
AA1
330
A97
100
AcDbEntity
  8
0
100
AcDbBlockBegin
  2
*D14
 70
     1
 10
0.0
 20
0.0
 30
0.0
  3
*D14
  1

  0
LINE
  5
BAE
330
A97
100
AcDbEntity
  8
AM_5
100
AcDbLine
 10
828.2069382055308
 20
884.7202040563839
 30
0.0
 11
649.2616666056049
 21
884.7202040563839
 31
0.0
  0
LINE
  5
BAF
330
A97
100
AcDbEntity
  8
AM_5
100
AcDbLine
 10
828.2069382055308
 20
484.6484072866585
 30
0.0
 11
649.2616666056046
 21
484.6484072866585
 31
0.0
  0
LINE
  5
BB0
330
A97
100
AcDbEntity
  8
AM_5
100
AcDbLine
 10
654.2616666056049
 20
878.4702040563839
 30
0.0
 11
654.2616666056048
 21
490.8984072866585
 31
0.0
  0
SOLID
  5
BB1
330
A97
100
AcDbEntity
  8
AM_5
100
AcDbTrace
 10
653.2199999389383
 20
878.4702040563839
 30
0.0
 11
655.3033332722715
 21
878.4702040563839
 31
0.0
 12
654.2616666056049
 22
884.7202040563839
 32
0.0
 13
654.2616666056049
 23
884.7202040563839
 33
0.0
  0
SOLID
  5
BB2
330
A97
100
AcDbEntity
  8
AM_5
100
AcDbTrace
 10
653.2199999389381
 20
490.8984072866585
 30
0.0
 11
655.3033332722714
 21
490.8984072866585
 31
0.0
 12
654.2616666056048
 22
484.6484072866585
 32
0.0
 13
654.2616666056048
 23
484.6484072866585
 33
0.0
  0
MTEXT
  5
BB3
330
A97
100
AcDbEntity
  8
AM_5
 62
     2
100
AcDbMText
 10
646.1366666056045
 20
700.328938322624
 30
0.0
 40
8.75
 41
0.0
 71
     5
 72
     1
  1
400{}{\H0.71x;\C3;%%p5}
 11
0.0000000000000001
 21
1.0
 31
0.0
 73
     1
 44
1.0
  0
POINT
  5
BB4
330
A97
100
AcDbEntity
  8
DEFPOINTS
 62
     0
100
AcDbPoint
 10
828.2069382055308
 20
884.7202040563839
 30
0.0
  0
POINT
  5
BB5
330
A97
100
AcDbEntity
  8
DEFPOINTS
 62
     0
100
AcDbPoint
 10
828.2069382055308
 20
484.6484072866585
 30
0.0
  0
POINT
  5
BB6
330
A97
100
AcDbEntity
  8
DEFPOINTS
 62
     0
100
AcDbPoint
 10
654.2616666056048
 20
484.6484072866585
 30
0.0
  0
ENDBLK
  5
AA2
330
A97
100
AcDbEntity
  8
0
100
AcDbBlockEnd
  0
BLOCK
  5
AAD
330
AA3
100
AcDbEntity
  8
0
100
AcDbBlockBegin
  2
*D15
 70
     1
 10
0.0
 20
0.0
 30
0.0
  3
*D15
  1

  0
LINE
  5
BB7
330
AA3
100
AcDbEntity
  8
AM_5
100
AcDbLine
 10
828.2069382055308
 20
484.6484072866585
 30
0.0
 11
727.2069371955304
 21
484.6484072866585
 31
0.0
  0
LINE
  5
BB8
330
AA3
100
AcDbEntity
  8
AM_5
100
AcDbLine
 10
763.2069382055306
 20
548.6484072866582
 30
0.0
 11
727.2069371955304
 21
548.6484072866582
 31
0.0
  0
LINE
  5
BB9
330
AA3
100
AcDbEntity
  8
AM_5
100
AcDbLine
 10
732.2069371955301
 20
490.8984072866585
 30
0.0
 11
732.2069371955301
 21
542.3984072866582
 31
0.0
  0
SOLID
  5
BBA
330
AA3
100
AcDbEntity
  8
AM_5
100
AcDbTrace
 10
731.1652705288636
 20
490.8984072866585
 30
0.0
 11
733.2486038621968
 21
490.8984072866585
 31
0.0
 12
732.2069371955301
 22
484.6484072866585
 32
0.0
 13
732.2069371955301
 23
484.6484072866585
 33
0.0
  0
SOLID
  5
BBB
330
AA3
100
AcDbEntity
  8
AM_5
100
AcDbTrace
 10
731.1652705288636
 20
542.3984072866582
 30
0.0
 11
733.2486038621968
 21
542.3984072866582
 31
0.0
 12
732.2069371955301
 22
548.6484072866582
 32
0.0
 13
732.2069371955301
 23
548.6484072866582
 33
0.0
  0
MTEXT
  5
BBC
330
AA3
100
AcDbEntity
  8
AM_5
 62
     2
100
AcDbMText
 10
723.6444371955301
 20
516.6484072866584
 30
0.0
 40
8.75
 41
0.0
 71
     5
 72
     1
  1
(64)
 11
0.0000000000000001
 21
1.0
 31
0.0
 73
     1
 44
1.0
  0
POINT
  5
BBD
330
AA3
100
AcDbEntity
  8
DEFPOINTS
 62
     0
100
AcDbPoint
 10
828.2069382055308
 20
484.6484072866585
 30
0.0
  0
POINT
  5
BBE
330
AA3
100
AcDbEntity
  8
DEFPOINTS
 62
     0
100
AcDbPoint
 10
763.2069382055306
 20
548.6484072866582
 30
0.0
  0
POINT
  5
BBF
330
AA3
100
AcDbEntity
  8
DEFPOINTS
 62
     0
100
AcDbPoint
 10
732.2069371955301
 20
548.6484072866582
 30
0.0
  0
ENDBLK
  5
AAE
330
AA3
100
AcDbEntity
  8
0
100
AcDbBlockEnd
  0
BLOCK
  5
1D7C
330
1D72
100
AcDbEntity
  8
0
100
AcDbBlockBegin
  2
*D16
 70
     1
 10
0.0
 20
0.0
 30
0.0
  3
*D16
  1

  0
LINE
  5
1DBC
330
1D72
100
AcDbEntity
  8
AM_5
100
AcDbLine
 10
631.60914880984
 20
373.0243950229402
 30
0.0
 11
796.6091488098403
 21
373.0243950229402
 31
0.0
  0
LINE
  5
1DBD
330
1D72
100
AcDbEntity
  8
AM_5
100
AcDbLine
 10
761.6091488098406
 20
535.0243950229402
 30
0.0
 11
796.6091488098403
 21
535.0243950229399
 31
0.0
  0
LINE
  5
1DBE
330
1D72
100
AcDbEntity
  8
AM_5
100
AcDbLine
 10
791.6091488098405
 20
379.2743950229402
 30
0.0
 11
791.6091488098405
 21
528.7743950229399
 31
0.0
  0
SOLID
  5
1DBF
330
1D72
100
AcDbEntity
  8
AM_5
100
AcDbTrace
 10
790.5674821431737
 20
379.2743950229402
 30
0.0
 11
792.6508154765071
 21
379.2743950229402
 31
0.0
 12
791.6091488098405
 22
373.0243950229402
 32
0.0
 13
791.6091488098405
 23
373.0243950229402
 33
0.0
  0
SOLID
  5
1DC0
330
1D72
100
AcDbEntity
  8
AM_5
100
AcDbTrace
 10
790.5674821431737
 20
528.7743950229399
 30
0.0
 11
792.6508154765071
 21
528.7743950229399
 31
0.0
 12
791.6091488098405
 22
535.0243950229399
 32
0.0
 13
791.6091488098405
 23
535.0243950229399
 33
0.0
  0
MTEXT
  5
1DC1
330
1D72
100
AcDbEntity
  8
AM_5
 62
     2
100
AcDbMText
 10
783.0466488098402
 20
454.0243950229402
 30
0.0
 40
8.75
 41
0.0
 71
     5
 72
     1
  1
(162)
 11
0.0000000000000001
 21
1.0
 31
0.0
 73
     1
 44
1.0
  0
POINT
  5
1DC2
330
1D72
100
AcDbEntity
  8
DEFPOINTS
 62
     0
100
AcDbPoint
 10
631.60914880984
 20
373.0243950229402
 30
0.0
  0
POINT
  5
1DC3
330
1D72
100
AcDbEntity
  8
DEFPOINTS
 62
     0
100
AcDbPoint
 10
761.6091488098406
 20
535.0243950229402
 30
0.0
  0
POINT
  5
1DC4
330
1D72
100
AcDbEntity
  8
DEFPOINTS
 62
     0
100
AcDbPoint
 10
791.6091488098405
 20
535.0243950229399
 30
0.0
  0
ENDBLK
  5
1D7D
330
1D72
100
AcDbEntity
  8
0
100
AcDbBlockEnd
  0
BLOCK
  5
1D94
330
1D8A
100
AcDbEntity
  8
0
100
AcDbBlockBegin
  2
*D17
 70
     1
 10
0.0
 20
0.0
 30
0.0
  3
*D17
  1

  0
LINE
  5
1DB3
330
1D8A
100
AcDbEntity
  8
AM_5
100
AcDbLine
 10
631.60914880984
 20
373.0243950229402
 30
0.0
 11
826.4732128221648
 21
373.0243950229402
 31
0.0
  0
LINE
  5
1DB4
330
1D8A
100
AcDbEntity
  8
AM_5
100
AcDbLine
 10
647.5591458098398
 20
976.0961917926657
 30
0.0
 11
826.4732128221648
 21
976.0961917926652
 31
0.0
  0
LINE
  5
1DB5
330
1D8A
100
AcDbEntity
  8
AM_5
100
AcDbLine
 10
821.4732128221646
 20
379.2743950229402
 30
0.0
 11
821.4732128221648
 21
969.8461917926652
 31
0.0
  0
SOLID
  5
1DB6
330
1D8A
100
AcDbEntity
  8
AM_5
100
AcDbTrace
 10
820.431546155498
 20
379.2743950229402
 30
0.0
 11
822.5148794888312
 21
379.2743950229402
 31
0.0
 12
821.4732128221646
 22
373.0243950229402
 32
0.0
 13
821.4732128221646
 23
373.0243950229402
 33
0.0
  0
SOLID
  5
1DB7
330
1D8A
100
AcDbEntity
  8
AM_5
100
AcDbTrace
 10
820.4315461554982
 20
969.8461917926652
 30
0.0
 11
822.5148794888312
 21
969.8461917926652
 31
0.0
 12
821.4732128221648
 22
976.0961917926652
 32
0.0
 13
821.4732128221648
 23
976.0961917926652
 33
0.0
  0
MTEXT
  5
1DB8
330
1D8A
100
AcDbEntity
  8
AM_5
 62
     2
100
AcDbMText
 10
812.9107128221646
 20
674.5602934078029
 30
0.0
 40
8.75
 41
0.0
 71
     5
 72
     1
  1
(603)
 11
0.0000000000000001
 21
1.0
 31
0.0
 73
     1
 44
1.0
  0
POINT
  5
1DB9
330
1D8A
100
AcDbEntity
  8
DEFPOINTS
 62
     0
100
AcDbPoint
 10
631.60914880984
 20
373.0243950229402
 30
0.0
  0
POINT
  5
1DBA
330
1D8A
100
AcDbEntity
  8
DEFPOINTS
 62
     0
100
AcDbPoint
 10
647.5591458098398
 20
976.0961917926657
 30
0.0
  0
POINT
  5
1DBB
330
1D8A
100
AcDbEntity
  8
DEFPOINTS
 62
     0
100
AcDbPoint
 10
821.4732128221648
 20
976.0961917926652
 30
0.0
  0
ENDBLK
  5
1D95
330
1D8A
100
AcDbEntity
  8
0
100
AcDbBlockEnd
  0
BLOCK
  5
2071
330
2067
100
AcDbEntity
  8
0
100
AcDbBlockBegin
  2
*D19
 70
     1
 10
0.0
 20
0.0
 30
0.0
  3
*D19
  1

  0
LINE
  5
207E
330
2067
100
AcDbEntity
  8
AM_5
100
AcDbLine
 10
1261.60914880984
 20
547.3451271006437
 30
0.0
 11
1261.60914880984
 21
634.4092472676171
 31
0.0
  0
LINE
  5
207F
330
2067
100
AcDbEntity
  8
AM_5
100
AcDbLine
 10
1001.60914880984
 20
546.9208569032661
 30
0.0
 11
1001.60914880984
 21
634.4092472676171
 31
0.0
  0
LINE
  5
2080
330
2067
100
AcDbEntity
  8
AM_5
100
AcDbLine
 10
1255.35914880984
 20
629.4092472676172
 30
0.0
 11
1007.85914880984
 21
629.4092472676172
 31
0.0
  0
SOLID
  5
2081
330
2067
100
AcDbEntity
  8
AM_5
100
AcDbTrace
 10
1255.35914880984
 20
630.4509139342838
 30
0.0
 11
1255.35914880984
 21
628.3675806009505
 31
0.0
 12
1261.60914880984
 22
629.4092472676172
 32
0.0
 13
1261.60914880984
 23
629.4092472676172
 33
0.0
  0
SOLID
  5
2082
330
2067
100
AcDbEntity
  8
AM_5
100
AcDbTrace
 10
1007.85914880984
 20
630.4509139342838
 30
0.0
 11
1007.85914880984
 21
628.3675806009505
 31
0.0
 12
1001.60914880984
 22
629.4092472676172
 32
0.0
 13
1001.60914880984
 23
629.4092472676172
 33
0.0
  0
MTEXT
  5
2083
330
2067
100
AcDbEntity
  8
AM_5
 62
     2
100
AcDbMText
 10
1131.60914880984
 20
637.9717472676171
 30
0.0
 40
8.75
 41
0.0
 71
     5
 72
     1
  1
(260)
 73
     1
 44
1.0
  0
POINT
  5
2084
330
2067
100
AcDbEntity
  8
DEFPOINTS
 62
     0
100
AcDbPoint
 10
1261.60914880984
 20
547.3451271006437
 30
0.0
  0
POINT
  5
2085
330
2067
100
AcDbEntity
  8
DEFPOINTS
 62
     0
100
AcDbPoint
 10
1001.60914880984
 20
546.9208569032661
 30
0.0
  0
POINT
  5
2086
330
2067
100
AcDbEntity
  8
DEFPOINTS
 62
     0
100
AcDbPoint
 10
1001.60914880984
 20
629.4092472676172
 30
0.0
  0
ENDBLK
  5
2072
330
2067
100
AcDbEntity
  8
0
100
AcDbBlockEnd
  0
ENDSEC
  0
SECTION
  2
ENTITIES
  0
INSERT
  5
32A
330
1F
100
AcDbEntity
  8
0
370
     0
100
AcDbBlockReference
  2
DIN_A2
 10
70.50575412068792
 20
34.28020356186062
 30
0.0
 41
2.5
 42
2.5
 43
2.5
1001
GENIUS_GENOREF_13
1005
4A3
1001
GENIUS_GENODEF_13
1002
{
1000
HIER
1070
     0
1002
}
1002
{
1000
MANEDIT
1070
     0
1002
}
1002
{
1000
NOSEL
1070
     0
1002
}
1002
{
1000
BEHIND
1070
     0
1002
}
1002
{
1000
OTHER
1070
     0
1002
}
1002
{
1000
REACTOR
1002
}
1001
GENIUS_GENOBJ-N-SDF_13
1002
{
1000
OWNER
1000
GEN
1002
}
1001
GENIUS_GENSCREG_15
1040
2.5
1040
1.0
1011
70.50575412068781
1021
34.28020356186062
1031
0.0
1011
1555.505754120688
1021
1084.28020356186
1031
0.0
1070
     3
  0
POINT
  5
4A3
330
1F
100
AcDbEntity
  8
0
 60
     1
100
AcDbPoint
 10
0.0
 20
0.0
 30
0.0
1001
GENIUS_GENOENT_13
1002
{
1000
MYREF
1005
4A3
1002
}
1002
{
1000
GRP
1005
0
1002
}
1001
GENIUS_GENOBJ-N-TIT_13
1002
{
1000
OWNER
1000
GEN
1002
}
1001
GENIUS_GENOLIS_13
1002
{
1000
ENT
1005
448
1005
32A
1005
B0B
1002
}
1001
GENIUS_GENTITLE_13
1002
{
1000
BORDER
1000
DIN_A2
1002
}
1002
{
1000
TITLE
1000
G:\Umgebung_ACAD\ACAD2007\REFLEX\Dwg\Title\REFLEX_EDBTITLE
1002
}
1002
{
1000
SCALE
1000
1:2.5
1002
}
1002
{
1000
TITLESTD
1000
DIN
1002
}
1002
{
1000
HRA
1005
32A
1002
}
1002
{
1000
HTIT
1005
448
1002
}
1002
{
1000
GENIUSID
1005
4A3
1002
}
1002
{
1000
INVTXTID
1005
0
1002
}
1002
{
1000
UNCHG
1002
{
1000
GEN-TITLE-SIZ
1000
GEN-TITLE-SCA
1002
}
1002
}
1001
GENIUS_GENODEF_13
1002
{
1000
HIER
1070
     1
1002
}
1002
{
1000
MANEDIT
1070
     1
1002
}
1002
{
1000
NOSEL
1070
     0
1002
}
1002
{
1000
BEHIND
1070
     0
1002
}
1002
{
1000
OTHER
1070
     0
1002
}
1002
{
1000
REACTOR
1002
}
  0
ARC
  5
7EF
330
1F
100
AcDbEntity
  8
AM_0
100
AcDbCircle
 10
631.60914880984
 20
735.0961917926655
 30
0.0
 40
66.0
100
AcDbArc
 50
0.0
 51
90.0
  0
ARC
  5
7F0
330
1F
100
AcDbEntity
  8
AM_0
100
AcDbCircle
 10
631.60914880984
 20
735.0961917926655
 30
0.0
 40
65.0
100
AcDbArc
 50
0.0
 51
90.0
  0
ARC
  5
7F1
330
1F
100
AcDbEntity
  8
AM_0
100
AcDbCircle
 10
568.60914880984
 20
725.1320901775279
 30
0.0
 40
3.0
100
AcDbArc
 50
180.0
 51
210.0000000000172
1001
GENIUS_GENOBJ-N-FIL_13
1002
{
1000
OWNER
1000
GEN
1002
}
1001
GENIUS_GENODEF_13
1002
{
1000
HIER
1070
     0
1002
}
1002
{
1000
MANEDIT
1070
     0
1002
}
1002
{
1000
NOSEL
1070
     0
1002
}
1002
{
1000
BEHIND
1070
     0
1002
}
1002
{
1000
OTHER
1070
     0
1002
}
1002
{
1000
REACTOR
1002
}
  0
LINE
  5
7F2
330
1F
100
AcDbEntity
  8
AM_0
100
AcDbLine
 10
566.3411996174088
 20
723.0602934078023
 30
0.0
 11
566.0110725984858
 21
723.6320901775277
 31
0.0
  0
ARC
  5
7F3
330
1F
100
AcDbEntity
  8
AM_0
100
AcDbCircle
 10
564.60914880984
 20
722.0602934078023
 30
0.0
 40
2.0
100
AcDbArc
 50
1.028468201230062
 51
30.0000000000172
1001
GENIUS_GENOBJ-N-FIL_13
1002
{
1000
OWNER
1000
GEN
1002
}
1001
GENIUS_GENODEF_13
1002
{
1000
HIER
1070
     0
1002
}
1002
{
1000
MANEDIT
1070
     0
1002
}
1002
{
1000
NOSEL
1070
     0
1002
}
1002
{
1000
BEHIND
1070
     0
1002
}
1002
{
1000
OTHER
1070
     0
1002
}
1002
{
1000
REACTOR
1002
}
  0
ARC
  5
7F4
330
1F
100
AcDbEntity
  8
AM_0
100
AcDbCircle
 10
694.6091488098399
 20
725.132090177528
 30
0.0
 40
3.0
100
AcDbArc
 50
329.9999999999828
 51
0.0
1001
GENIUS_GENOBJ-N-FIL_13
1002
{
1000
OWNER
1000
GEN
1002
}
1001
GENIUS_GENODEF_13
1002
{
1000
HIER
1070
     0
1002
}
1002
{
1000
MANEDIT
1070
     0
1002
}
1002
{
1000
NOSEL
1070
     0
1002
}
1002
{
1000
BEHIND
1070
     0
1002
}
1002
{
1000
OTHER
1070
     0
1002
}
1002
{
1000
REACTOR
1002
}
  0
LINE
  5
7F5
330
1F
100
AcDbEntity
  8
AM_0
100
AcDbLine
 10
696.011072598486
 20
723.5602934078026
 30
0.0
 11
696.3411996174089
 21
724.1320901775281
 31
0.0
  0
LINE
  5
7F6
330
1F
100
AcDbEntity
  8
AM_0
100
AcDbLine
 10
695.6091488098401
 20
715.0961917926649
 30
0.0
 11
695.6091488098389
 21
722.0602934078026
 31
0.0
  0
LINE
  5
7F7
330
1F
100
AcDbEntity
  8
AM_0
100
AcDbLine
 10
696.6091488098401
 20
714.0961917926651
 30
0.0
 11
696.6091488098401
 21
714.0961917926651
 31
0.0
  0
LINE
  5
7F8
330
1F
100
AcDbEntity
  8
AM_0
100
AcDbLine
 10
696.6091488098401
 20
722.0961917926651
 30
0.0
 11
696.6091488098401
 21
722.0602934078026
 31
0.0
  0
ARC
  5
7F9
330
1F
100
AcDbEntity
  8
AM_0
100
AcDbCircle
 10
698.6091488098399
 20
722.0602934078026
 30
0.0
 40
2.0
100
AcDbArc
 50
149.9999999999828
 51
180.0
1001
GENIUS_GENOBJ-N-FIL_13
1002
{
1000
OWNER
1000
GEN
1002
}
1001
GENIUS_GENODEF_13
1002
{
1000
HIER
1070
     0
1002
}
1002
{
1000
MANEDIT
1070
     0
1002
}
1002
{
1000
NOSEL
1070
     0
1002
}
1002
{
1000
BEHIND
1070
     0
1002
}
1002
{
1000
OTHER
1070
     0
1002
}
1002
{
1000
REACTOR
1002
}
  0
LINE
  5
7FA
330
1F
100
AcDbEntity
  8
AM_0
100
AcDbLine
 10
696.8770980022708
 20
723.0602934078026
 30
0.0
 11
697.207225021193
 21
723.6320901775282
 31
0.0
  0
ARC
  5
7FB
330
1F
100
AcDbEntity
  8
AM_0
100
AcDbCircle
 10
698.6091488098399
 20
722.0602934078026
 30
0.0
 40
3.0
100
AcDbArc
 50
149.9999999999828
 51
180.0
1001
GENIUS_GENOBJ-N-FIL_13
1002
{
1000
OWNER
1000
GEN
1002
}
1001
GENIUS_GENODEF_13
1002
{
1000
HIER
1070
     0
1002
}
1002
{
1000
MANEDIT
1070
     0
1002
}
1002
{
1000
NOSEL
1070
     0
1002
}
1002
{
1000
BEHIND
1070
     0
1002
}
1002
{
1000
OTHER
1070
     0
1002
}
1002
{
1000
REACTOR
1002
}
  0
ARC
  5
7FC
330
1F
100
AcDbEntity
  8
AM_0
100
AcDbCircle
 10
694.6091488098399
 20
725.132090177528
 30
0.0
 40
2.0
100
AcDbArc
 50
329.9999999999828
 51
0.0
1001
GENIUS_GENOBJ-N-FIL_13
1002
{
1000
OWNER
1000
GEN
1002
}
1001
GENIUS_GENODEF_13
1002
{
1000
HIER
1070
     0
1002
}
1002
{
1000
MANEDIT
1070
     0
1002
}
1002
{
1000
NOSEL
1070
     0
1002
}
1002
{
1000
BEHIND
1070
     0
1002
}
1002
{
1000
OTHER
1070
     0
1002
}
1002
{
1000
REACTOR
1002
}
  0
ARC
  5
7FD
330
1F
100
AcDbEntity
  8
AM_0
100
AcDbCircle
 10
631.60914880984
 20
735.0961917926655
 30
0.0
 40
66.0
100
AcDbArc
 50
90.0
 51
180.0
  0
ARC
  5
7FE
330
1F
100
AcDbEntity
  8
AM_0
100
AcDbCircle
 10
631.60914880984
 20
735.0961917926655
 30
0.0
 40
65.0
100
AcDbArc
 50
90.0
 51
180.0
  0
ARC
  5
7FF
330
1F
100
AcDbEntity
  8
AM_0
100
AcDbCircle
 10
696.6091488098401
 20
715.0961917926649
 30
0.0
 40
1.0
100
AcDbArc
 50
180.0
 51
270.0
1001
GENIUS_GENOBJ-N-FIL_13
1002
{
1000
OWNER
1000
GEN
1002
}
1001
GENIUS_GENODEF_13
1002
{
1000
HIER
1070
     0
1002
}
1002
{
1000
MANEDIT
1070
     0
1002
}
1002
{
1000
NOSEL
1070
     0
1002
}
1002
{
1000
BEHIND
1070
     0
1002
}
1002
{
1000
OTHER
1070
     0
1002
}
1002
{
1000
REACTOR
1002
}
  0
LINE
  5
800
330
1F
100
AcDbEntity
  8
AM_0
100
AcDbLine
 10
696.6091488098401
 20
714.0961917926651
 30
0.0
 11
631.60914880984
 21
714.0961917926651
 31
0.0
  0
LINE
  5
801
330
1F
100
AcDbEntity
  8
0
100
AcDbLine
 10
696.6091488098401
 20
714.0961917926651
 30
0.0
 11
696.6091488098401
 21
722.0602934078026
 31
0.0
  0
LINE
  5
802
330
1F
100
AcDbEntity
  8
AM_7
100
AcDbLine
 10
631.60914880984
 20
987.9094078099644
 30
0.0
 11
631.60914880984
 21
359.5090988258271
 31
0.0
  0
ARC
  5
803
330
1F
100
AcDbEntity
  8
AM_0
100
AcDbCircle
 10
568.60914880984
 20
725.132090177528
 30
0.0
 40
3.0
100
AcDbArc
 50
180.0
 51
210.0000000000172
1001
GENIUS_GENOBJ-N-FIL_13
1002
{
1000
OWNER
1000
GEN
1002
}
1001
GENIUS_GENODEF_13
1002
{
1000
HIER
1070
     0
1002
}
1002
{
1000
MANEDIT
1070
     0
1002
}
1002
{
1000
NOSEL
1070
     0
1002
}
1002
{
1000
BEHIND
1070
     0
1002
}
1002
{
1000
OTHER
1070
     0
1002
}
1002
{
1000
REACTOR
1002
}
  0
LINE
  5
804
330
1F
100
AcDbEntity
  8
AM_0
100
AcDbLine
 10
567.2072250211939
 20
723.5602934078026
 30
0.0
 11
566.8770980022709
 21
724.1320901775281
 31
0.0
  0
LINE
  5
805
330
1F
100
AcDbEntity
  8
AM_0
100
AcDbLine
 10
567.60914880984
 20
715.0961917926649
 30
0.0
 11
567.6091488098408
 21
722.0602934078026
 31
0.0
  0
LINE
  5
806
330
1F
100
AcDbEntity
  8
AM_0
100
AcDbLine
 10
566.60914880984
 20
714.0961917926651
 30
0.0
 11
566.60914880984
 21
714.0961917926651
 31
0.0
  0
LINE
  5
807
330
1F
100
AcDbEntity
  8
AM_0
100
AcDbLine
 10
566.60914880984
 20
722.0961917926651
 30
0.0
 11
566.60914880984
 21
722.0602934078026
 31
0.0
  0
ARC
  5
808
330
1F
100
AcDbEntity
  8
AM_0
100
AcDbCircle
 10
564.60914880984
 20
722.0602934078026
 30
0.0
 40
2.0
100
AcDbArc
 50
0.0
 51
30.0000000000172
1001
GENIUS_GENOBJ-N-FIL_13
1002
{
1000
OWNER
1000
GEN
1002
}
1001
GENIUS_GENODEF_13
1002
{
1000
HIER
1070
     0
1002
}
1002
{
1000
MANEDIT
1070
     0
1002
}
1002
{
1000
NOSEL
1070
     0
1002
}
1002
{
1000
BEHIND
1070
     0
1002
}
1002
{
1000
OTHER
1070
     0
1002
}
1002
{
1000
REACTOR
1002
}
  0
LINE
  5
809
330
1F
100
AcDbEntity
  8
AM_0
100
AcDbLine
 10
566.3411996174088
 20
723.0602934078026
 30
0.0
 11
566.0110725984869
 21
723.6320901775282
 31
0.0
  0
ARC
  5
80A
330
1F
100
AcDbEntity
  8
AM_0
100
AcDbCircle
 10
564.60914880984
 20
722.0602934078026
 30
0.0
 40
3.0
100
AcDbArc
 50
0.0
 51
30.0000000000172
1001
GENIUS_GENOBJ-N-FIL_13
1002
{
1000
OWNER
1000
GEN
1002
}
1001
GENIUS_GENODEF_13
1002
{
1000
HIER
1070
     0
1002
}
1002
{
1000
MANEDIT
1070
     0
1002
}
1002
{
1000
NOSEL
1070
     0
1002
}
1002
{
1000
BEHIND
1070
     0
1002
}
1002
{
1000
OTHER
1070
     0
1002
}
1002
{
1000
REACTOR
1002
}
  0
ARC
  5
80B
330
1F
100
AcDbEntity
  8
AM_0
100
AcDbCircle
 10
568.60914880984
 20
725.132090177528
 30
0.0
 40
2.0
100
AcDbArc
 50
180.0
 51
210.0000000000172
1001
GENIUS_GENOBJ-N-FIL_13
1002
{
1000
OWNER
1000
GEN
1002
}
1001
GENIUS_GENODEF_13
1002
{
1000
HIER
1070
     0
1002
}
1002
{
1000
MANEDIT
1070
     0
1002
}
1002
{
1000
NOSEL
1070
     0
1002
}
1002
{
1000
BEHIND
1070
     0
1002
}
1002
{
1000
OTHER
1070
     0
1002
}
1002
{
1000
REACTOR
1002
}
  0
ARC
  5
80C
330
1F
100
AcDbEntity
  8
AM_0
100
AcDbCircle
 10
566.60914880984
 20
715.0961917926649
 30
0.0
 40
1.0
100
AcDbArc
 50
270.0
 51
0.0
1001
GENIUS_GENOBJ-N-FIL_13
1002
{
1000
OWNER
1000
GEN
1002
}
1001
GENIUS_GENODEF_13
1002
{
1000
HIER
1070
     0
1002
}
1002
{
1000
MANEDIT
1070
     0
1002
}
1002
{
1000
NOSEL
1070
     0
1002
}
1002
{
1000
BEHIND
1070
     0
1002
}
1002
{
1000
OTHER
1070
     0
1002
}
1002
{
1000
REACTOR
1002
}
  0
LINE
  5
80D
330
1F
100
AcDbEntity
  8
AM_0
100
AcDbLine
 10
566.60914880984
 20
714.0961917926651
 30
0.0
 11
631.60914880984
 21
714.0961917926651
 31
0.0
  0
LINE
  5
80E
330
1F
100
AcDbEntity
  8
0
100
AcDbLine
 10
566.60914880984
 20
714.0961917926651
 30
0.0
 11
566.60914880984
 21
722.0602934078026
 31
0.0
  0
LINE
  5
80F
330
1F
100
AcDbEntity
  8
0
100
AcDbLine
 10
696.6091488098401
 20
722.0602934078026
 30
0.0
 11
697.6091488098401
 21
722.0602934078026
 31
0.0
  0
LINE
  5
810
330
1F
100
AcDbEntity
  8
0
100
AcDbLine
 10
697.6091488098401
 20
722.0602934078026
 30
0.0
 11
697.6091488098401
 21
573.0743950229406
 31
0.0
  0
LINE
  5
811
330
1F
100
AcDbEntity
  8
0
100
AcDbLine
 10
697.6091488098401
 20
496.9743950229384
 30
0.0
 11
697.6091488098401
 21
480.0602934078026
 31
0.0
  0
LINE
  5
812
330
1F
100
AcDbEntity
  8
0
100
AcDbLine
 10
697.6091488098401
 20
480.0602934078026
 30
0.0
 11
696.6091488098401
 21
480.0602934078026
 31
0.0
  0
LINE
  5
813
330
1F
100
AcDbEntity
  8
0
100
AcDbLine
 10
696.6091488098401
 20
480.0602934078026
 30
0.0
 11
696.6091488098401
 21
498.44363106609
 31
0.0
  0
LINE
  5
814
330
1F
100
AcDbEntity
  8
0
100
AcDbLine
 10
696.6091488098394
 20
571.6051589797887
 30
0.0
 11
696.6091488098401
 21
722.0602934078026
 31
0.0
  0
LINE
  5
815
330
1F
100
AcDbEntity
  8
0
100
AcDbLine
 10
566.60914880984
 20
722.0602934078026
 30
0.0
 11
565.6091488098399
 21
722.0602934078026
 31
0.0
  0
LINE
  5
816
330
1F
100
AcDbEntity
  8
0
100
AcDbLine
 10
565.6091488098399
 20
722.0602934078026
 30
0.0
 11
565.6091488098399
 21
573.0743950229395
 31
0.0
  0
LINE
  5
817
330
1F
100
AcDbEntity
  8
0
100
AcDbLine
 10
565.6091488098399
 20
496.9743950229387
 30
0.0
 11
565.6091488098399
 21
480.0602934078026
 31
0.0
  0
LINE
  5
818
330
1F
100
AcDbEntity
  8
0
100
AcDbLine
 10
565.6091488098399
 20
480.0602934078026
 30
0.0
 11
566.60914880984
 21
480.0602934078026
 31
0.0
  0
LINE
  5
819
330
1F
100
AcDbEntity
  8
0
100
AcDbLine
 10
566.60914880984
 20
480.0602934078026
 30
0.0
 11
566.60914880984
 21
498.4436310660902
 31
0.0
  0
LINE
  5
81A
330
1F
100
AcDbEntity
  8
0
100
AcDbLine
 10
566.60914880984
 20
571.6051589797879
 30
0.0
 11
566.60914880984
 21
722.0602934078026
 31
0.0
  0
ARC
  5
81B
330
1F
100
AcDbEntity
  8
AM_0
100
AcDbCircle
 10
631.60914880984
 20
467.0243950229401
 30
0.0
 40
66.0
100
AcDbArc
 50
270.0
 51
0.0
  0
ARC
  5
81C
330
1F
100
AcDbEntity
  8
AM_0
100
AcDbCircle
 10
631.60914880984
 20
467.0243950229401
 30
0.0
 40
65.0
100
AcDbArc
 50
270.0
 51
0.0
  0
ARC
  5
81D
330
1F
100
AcDbEntity
  8
AM_0
100
AcDbCircle
 10
568.60914880984
 20
476.9884966380776
 30
0.0
 40
3.0
100
AcDbArc
 50
149.9999999999828
 51
180.0
1001
GENIUS_GENOBJ-N-FIL_13
1002
{
1000
OWNER
1000
GEN
1002
}
1001
GENIUS_GENODEF_13
1002
{
1000
HIER
1070
     0
1002
}
1002
{
1000
MANEDIT
1070
     0
1002
}
1002
{
1000
NOSEL
1070
     0
1002
}
1002
{
1000
BEHIND
1070
     0
1002
}
1002
{
1000
OTHER
1070
     0
1002
}
1002
{
1000
REACTOR
1002
}
  0
LINE
  5
81E
330
1F
100
AcDbEntity
  8
AM_0
100
AcDbLine
 10
566.3411996174088
 20
479.0602934078032
 30
0.0
 11
566.0110725984858
 21
478.4884966380777
 31
0.0
  0
ARC
  5
81F
330
1F
100
AcDbEntity
  8
AM_0
100
AcDbCircle
 10
564.60914880984
 20
480.0602934078032
 30
0.0
 40
2.0
100
AcDbArc
 50
329.9999999999828
 51
358.97153179877
1001
GENIUS_GENOBJ-N-FIL_13
1002
{
1000
OWNER
1000
GEN
1002
}
1001
GENIUS_GENODEF_13
1002
{
1000
HIER
1070
     0
1002
}
1002
{
1000
MANEDIT
1070
     0
1002
}
1002
{
1000
NOSEL
1070
     0
1002
}
1002
{
1000
BEHIND
1070
     0
1002
}
1002
{
1000
OTHER
1070
     0
1002
}
1002
{
1000
REACTOR
1002
}
  0
ARC
  5
820
330
1F
100
AcDbEntity
  8
AM_0
100
AcDbCircle
 10
694.6091488098399
 20
476.988496638077
 30
0.0
 40
3.0
100
AcDbArc
 50
0.0
 51
30.0000000000172
1001
GENIUS_GENOBJ-N-FIL_13
1002
{
1000
OWNER
1000
GEN
1002
}
1001
GENIUS_GENODEF_13
1002
{
1000
HIER
1070
     0
1002
}
1002
{
1000
MANEDIT
1070
     0
1002
}
1002
{
1000
NOSEL
1070
     0
1002
}
1002
{
1000
BEHIND
1070
     0
1002
}
1002
{
1000
OTHER
1070
     0
1002
}
1002
{
1000
REACTOR
1002
}
  0
LINE
  5
821
330
1F
100
AcDbEntity
  8
AM_0
100
AcDbLine
 10
696.011072598486
 20
478.5602934078024
 30
0.0
 11
696.3411996174089
 21
477.988496638077
 31
0.0
  0
LINE
  5
822
330
1F
100
AcDbEntity
  8
AM_0
100
AcDbLine
 10
695.6091488098401
 20
487.0243950229403
 30
0.0
 11
695.6091488098389
 21
480.0602934078026
 31
0.0
  0
LINE
  5
823
330
1F
100
AcDbEntity
  8
AM_0
100
AcDbLine
 10
696.6091488098401
 20
488.0243950229403
 30
0.0
 11
696.6091488098401
 21
488.0243950229403
 31
0.0
  0
LINE
  5
824
330
1F
100
AcDbEntity
  8
AM_0
100
AcDbLine
 10
696.6091488098401
 20
480.0243950229403
 30
0.0
 11
696.6091488098401
 21
480.0602934078026
 31
0.0
  0
ARC
  5
825
330
1F
100
AcDbEntity
  8
AM_0
100
AcDbCircle
 10
698.6091488098399
 20
480.0602934078025
 30
0.0
 40
2.0
100
AcDbArc
 50
180.0
 51
210.0000000000172
1001
GENIUS_GENOBJ-N-FIL_13
1002
{
1000
OWNER
1000
GEN
1002
}
1001
GENIUS_GENODEF_13
1002
{
1000
HIER
1070
     0
1002
}
1002
{
1000
MANEDIT
1070
     0
1002
}
1002
{
1000
NOSEL
1070
     0
1002
}
1002
{
1000
BEHIND
1070
     0
1002
}
1002
{
1000
OTHER
1070
     0
1002
}
1002
{
1000
REACTOR
1002
}
  0
LINE
  5
826
330
1F
100
AcDbEntity
  8
AM_0
100
AcDbLine
 10
696.8770980022708
 20
479.0602934078024
 30
0.0
 11
697.207225021193
 21
478.4884966380769
 31
0.0
  0
ARC
  5
827
330
1F
100
AcDbEntity
  8
AM_0
100
AcDbCircle
 10
698.6091488098399
 20
480.0602934078025
 30
0.0
 40
3.0
100
AcDbArc
 50
180.0
 51
210.0000000000172
1001
GENIUS_GENOBJ-N-FIL_13
1002
{
1000
OWNER
1000
GEN
1002
}
1001
GENIUS_GENODEF_13
1002
{
1000
HIER
1070
     0
1002
}
1002
{
1000
MANEDIT
1070
     0
1002
}
1002
{
1000
NOSEL
1070
     0
1002
}
1002
{
1000
BEHIND
1070
     0
1002
}
1002
{
1000
OTHER
1070
     0
1002
}
1002
{
1000
REACTOR
1002
}
  0
ARC
  5
828
330
1F
100
AcDbEntity
  8
AM_0
100
AcDbCircle
 10
694.6091488098399
 20
476.988496638077
 30
0.0
 40
2.0
100
AcDbArc
 50
0.0
 51
30.0000000000172
1001
GENIUS_GENOBJ-N-FIL_13
1002
{
1000
OWNER
1000
GEN
1002
}
1001
GENIUS_GENODEF_13
1002
{
1000
HIER
1070
     0
1002
}
1002
{
1000
MANEDIT
1070
     0
1002
}
1002
{
1000
NOSEL
1070
     0
1002
}
1002
{
1000
BEHIND
1070
     0
1002
}
1002
{
1000
OTHER
1070
     0
1002
}
1002
{
1000
REACTOR
1002
}
  0
ARC
  5
829
330
1F
100
AcDbEntity
  8
AM_0
100
AcDbCircle
 10
631.60914880984
 20
467.0243950229401
 30
0.0
 40
66.0
100
AcDbArc
 50
180.0
 51
270.0
  0
ARC
  5
82A
330
1F
100
AcDbEntity
  8
AM_0
100
AcDbCircle
 10
631.60914880984
 20
467.0243950229401
 30
0.0
 40
65.0
100
AcDbArc
 50
180.0
 51
270.0
  0
ARC
  5
82B
330
1F
100
AcDbEntity
  8
AM_0
100
AcDbCircle
 10
696.6091488098401
 20
487.0243950229403
 30
0.0
 40
1.0
100
AcDbArc
 50
90.0
 51
180.0
1001
GENIUS_GENOBJ-N-FIL_13
1002
{
1000
OWNER
1000
GEN
1002
}
1001
GENIUS_GENODEF_13
1002
{
1000
HIER
1070
     0
1002
}
1002
{
1000
MANEDIT
1070
     0
1002
}
1002
{
1000
NOSEL
1070
     0
1002
}
1002
{
1000
BEHIND
1070
     0
1002
}
1002
{
1000
OTHER
1070
     0
1002
}
1002
{
1000
REACTOR
1002
}
  0
LINE
  5
82C
330
1F
100
AcDbEntity
  8
AM_0
100
AcDbLine
 10
696.6091488098401
 20
488.0243950229403
 30
0.0
 11
631.60914880984
 21
488.0243950229403
 31
0.0
  0
LINE
  5
82D
330
1F
100
AcDbEntity
  8
0
100
AcDbLine
 10
696.6091488098401
 20
488.0243950229403
 30
0.0
 11
696.6091488098401
 21
480.0602934078026
 31
0.0
  0
ARC
  5
82E
330
1F
100
AcDbEntity
  8
AM_0
100
AcDbCircle
 10
568.60914880984
 20
476.988496638077
 30
0.0
 40
3.0
100
AcDbArc
 50
149.9999999999696
 51
180.0
1001
GENIUS_GENOBJ-N-FIL_13
1002
{
1000
OWNER
1000
GEN
1002
}
1001
GENIUS_GENODEF_13
1002
{
1000
HIER
1070
     0
1002
}
1002
{
1000
MANEDIT
1070
     0
1002
}
1002
{
1000
NOSEL
1070
     0
1002
}
1002
{
1000
BEHIND
1070
     0
1002
}
1002
{
1000
OTHER
1070
     0
1002
}
1002
{
1000
REACTOR
1002
}
  0
LINE
  5
82F
330
1F
100
AcDbEntity
  8
AM_0
100
AcDbLine
 10
567.2072250211939
 20
478.5602934078024
 30
0.0
 11
566.8770980022709
 21
477.988496638077
 31
0.0
  0
LINE
  5
830
330
1F
100
AcDbEntity
  8
AM_0
100
AcDbLine
 10
567.60914880984
 20
487.0243950229403
 30
0.0
 11
567.6091488098408
 21
480.0602934078026
 31
0.0
  0
LINE
  5
831
330
1F
100
AcDbEntity
  8
AM_0
100
AcDbLine
 10
566.60914880984
 20
488.0243950229403
 30
0.0
 11
566.60914880984
 21
488.0243950229403
 31
0.0
  0
LINE
  5
832
330
1F
100
AcDbEntity
  8
AM_0
100
AcDbLine
 10
566.60914880984
 20
480.0243950229403
 30
0.0
 11
566.60914880984
 21
480.0602934078026
 31
0.0
  0
ARC
  5
833
330
1F
100
AcDbEntity
  8
AM_0
100
AcDbCircle
 10
564.60914880984
 20
480.0602934078025
 30
0.0
 40
2.0
100
AcDbArc
 50
329.9999999999696
 51
0.0
1001
GENIUS_GENOBJ-N-FIL_13
1002
{
1000
OWNER
1000
GEN
1002
}
1001
GENIUS_GENODEF_13
1002
{
1000
HIER
1070
     0
1002
}
1002
{
1000
MANEDIT
1070
     0
1002
}
1002
{
1000
NOSEL
1070
     0
1002
}
1002
{
1000
BEHIND
1070
     0
1002
}
1002
{
1000
OTHER
1070
     0
1002
}
1002
{
1000
REACTOR
1002
}
  0
LINE
  5
834
330
1F
100
AcDbEntity
  8
AM_0
100
AcDbLine
 10
566.3411996174088
 20
479.0602934078024
 30
0.0
 11
566.0110725984869
 21
478.4884966380769
 31
0.0
  0
ARC
  5
835
330
1F
100
AcDbEntity
  8
AM_0
100
AcDbCircle
 10
564.60914880984
 20
480.0602934078025
 30
0.0
 40
3.0
100
AcDbArc
 50
329.9999999999696
 51
0.0
1001
GENIUS_GENOBJ-N-FIL_13
1002
{
1000
OWNER
1000
GEN
1002
}
1001
GENIUS_GENODEF_13
1002
{
1000
HIER
1070
     0
1002
}
1002
{
1000
MANEDIT
1070
     0
1002
}
1002
{
1000
NOSEL
1070
     0
1002
}
1002
{
1000
BEHIND
1070
     0
1002
}
1002
{
1000
OTHER
1070
     0
1002
}
1002
{
1000
REACTOR
1002
}
  0
ARC
  5
836
330
1F
100
AcDbEntity
  8
AM_0
100
AcDbCircle
 10
568.60914880984
 20
476.988496638077
 30
0.0
 40
2.0
100
AcDbArc
 50
149.9999999999696
 51
180.0
1001
GENIUS_GENOBJ-N-FIL_13
1002
{
1000
OWNER
1000
GEN
1002
}
1001
GENIUS_GENODEF_13
1002
{
1000
HIER
1070
     0
1002
}
1002
{
1000
MANEDIT
1070
     0
1002
}
1002
{
1000
NOSEL
1070
     0
1002
}
1002
{
1000
BEHIND
1070
     0
1002
}
1002
{
1000
OTHER
1070
     0
1002
}
1002
{
1000
REACTOR
1002
}
  0
ARC
  5
837
330
1F
100
AcDbEntity
  8
AM_0
100
AcDbCircle
 10
566.60914880984
 20
487.0243950229403
 30
0.0
 40
1.0
100
AcDbArc
 50
0.0
 51
90.0
1001
GENIUS_GENOBJ-N-FIL_13
1002
{
1000
OWNER
1000
GEN
1002
}
1001
GENIUS_GENODEF_13
1002
{
1000
HIER
1070
     0
1002
}
1002
{
1000
MANEDIT
1070
     0
1002
}
1002
{
1000
NOSEL
1070
     0
1002
}
1002
{
1000
BEHIND
1070
     0
1002
}
1002
{
1000
OTHER
1070
     0
1002
}
1002
{
1000
REACTOR
1002
}
  0
LINE
  5
838
330
1F
100
AcDbEntity
  8
AM_0
100
AcDbLine
 10
566.60914880984
 20
488.0243950229403
 30
0.0
 11
631.60914880984
 21
488.0243950229403
 31
0.0
  0
LINE
  5
839
330
1F
100
AcDbEntity
  8
0
100
AcDbLine
 10
566.60914880984
 20
488.0243950229403
 30
0.0
 11
566.60914880984
 21
480.0602934078026
 31
0.0
  0
LINE
  5
83A
330
1F
100
AcDbEntity
  8
0
100
AcDbLine
 10
696.6091488098401
 20
480.0602934078026
 30
0.0
 11
697.6091488098401
 21
480.0602934078026
 31
0.0
  0
LINE
  5
83B
330
1F
100
AcDbEntity
  8
0
100
AcDbLine
 10
566.60914880984
 20
480.0602934078026
 30
0.0
 11
565.6091488098399
 21
480.0602934078026
 31
0.0
  0
LINE
  5
889
330
1F
100
AcDbEntity
  8
0
100
AcDbLine
 10
761.6091488098406
 20
573.0743950229395
 30
0.0
 11
697.6091488098401
 21
573.0743950229395
 31
0.0
  0
LINE
  5
88A
330
1F
100
AcDbEntity
  8
AM_3
 48
2.0
100
AcDbLine
 10
761.6091488098406
 20
568.0743950229395
 30
0.0
 11
697.6091488098401
 21
568.0743950229395
 31
0.0
  0
LINE
  5
88B
330
1F
100
AcDbEntity
  8
0
100
AcDbLine
 10
761.6091488098406
 20
496.9743950229391
 30
0.0
 11
697.6091488098403
 21
496.9743950229393
 31
0.0
  0
LINE
  5
88C
330
1F
100
AcDbEntity
  8
AM_3
 48
2.0
100
AcDbLine
 10
761.6091488098406
 20
501.9743950229381
 30
0.0
 11
697.6091488098403
 21
501.9743950229381
 31
0.0
  0
LINE
  5
88D
102
{ACAD_REACTORS
330
1D7F
102
}
330
1F
100
AcDbEntity
  8
AM_7
100
AcDbLine
 10
769.8205732658371
 20
535.0243950229402
 30
0.0
 11
679.1542310986691
 21
535.0243950229402
 31
0.0
1001
GENIUS_GENODEF_13
1002
{
1000
HIER
1070
     0
1002
}
1002
{
1000
MANEDIT
1070
     0
1002
}
1002
{
1000
NOSEL
1070
     0
1002
}
1002
{
1000
BEHIND
1070
     0
1002
}
1002
{
1000
OTHER
1070
     0
1002
}
1002
{
1000
REACTOR
1002
}
1001
GENIUS_GENOBJ-N-CEN_13
1002
{
1000
OWNER
1000
GEN
1002
}
1001
GENIUS_GENCEN_19
1002
{
1040
3.0
1002
}
  0
LINE
  5
88E
102
{ACAD_REACTORS
330
1D7F
102
}
330
1F
100
AcDbEntity
  8
0
100
AcDbLine
 10
761.6091488098406
 20
496.9743950229391
 30
0.0
 11
761.6091488098406
 21
573.0743950229395
 31
0.0
  0
LINE
  5
88F
330
1F
100
AcDbEntity
  8
0
100
AcDbLine
 10
501.6091488098402
 20
573.0743950229395
 30
0.0
 11
565.6091488098399
 21
573.0743950229395
 31
0.0
  0
LINE
  5
890
330
1F
100
AcDbEntity
  8
AM_3
 48
2.0
100
AcDbLine
 10
501.6091488098402
 20
568.0743950229395
 30
0.0
 11
565.6091488098399
 21
568.0743950229395
 31
0.0
  0
LINE
  5
891
330
1F
100
AcDbEntity
  8
0
100
AcDbLine
 10
501.6091488098402
 20
496.9743950229391
 30
0.0
 11
565.6091488098403
 21
496.9743950229393
 31
0.0
  0
LINE
  5
892
330
1F
100
AcDbEntity
  8
AM_3
 48
2.0
100
AcDbLine
 10
501.6091488098402
 20
501.9743950229381
 30
0.0
 11
565.6091488098403
 21
501.9743950229384
 31
0.0
  0
LINE
  5
893
330
1F
100
AcDbEntity
  8
AM_7
100
AcDbLine
 10
493.8614569304148
 20
535.0243950229402
 30
0.0
 11
582.8872330292579
 21
535.0243950229402
 31
0.0
1001
GENIUS_GENODEF_13
1002
{
1000
HIER
1070
     0
1002
}
1002
{
1000
MANEDIT
1070
     0
1002
}
1002
{
1000
NOSEL
1070
     0
1002
}
1002
{
1000
BEHIND
1070
     0
1002
}
1002
{
1000
OTHER
1070
     0
1002
}
1002
{
1000
REACTOR
1002
}
1001
GENIUS_GENOBJ-N-CEN_13
1002
{
1000
OWNER
1000
GEN
1002
}
1001
GENIUS_GENCEN_19
1002
{
1040
3.0
1002
}
  0
LINE
  5
894
330
1F
100
AcDbEntity
  8
0
100
AcDbLine
 10
501.6091488098402
 20
496.9743950229391
 30
0.0
 11
501.6091488098402
 21
573.0743950229395
 31
0.0
  0
LINE
  5
8A1
330
1F
100
AcDbEntity
  8
AM_7
100
AcDbLine
 10
1131.60914880984
 20
533.4092462576172
 30
0.0
 11
1233.336352782548
 21
533.4092462576172
 31
0.0
1001
GENIUS_GENOREF_13
1005
A36
  0
LINE
  5
8A2
330
1F
100
AcDbEntity
  8
AM_7
100
AcDbLine
 10
1131.60914880984
 20
533.4092462576172
 30
0.0
 11
1131.60914880984
 21
605.3657530571472
 31
0.0
1001
GENIUS_GENOREF_13
1005
A36
  0
LINE
  5
8A3
330
1F
100
AcDbEntity
  8
AM_7
100
AcDbLine
 10
1131.60914880984
 20
533.4092462576172
 30
0.0
 11
1029.881944837132
 21
533.4092462576172
 31
0.0
1001
GENIUS_GENOREF_13
1005
A36
  0
LINE
  5
8A4
330
1F
100
AcDbEntity
  8
AM_7
100
AcDbLine
 10
1131.60914880984
 20
533.4092462576172
 30
0.0
 11
1131.60914880984
 21
457.7420411214879
 31
0.0
1001
GENIUS_GENOREF_13
1005
A36
  0
CIRCLE
  5
8A5
330
1F
100
AcDbEntity
  8
0
100
AcDbCircle
 10
1131.60914880984
 20
533.4092462576172
 30
0.0
 40
66.0
  0
LINE
  5
8A6
330
1F
100
AcDbEntity
  8
0
100
AcDbLine
 10
1261.60914880984
 20
571.4592462576165
 30
0.0
 11
1185.536855046987
 21
571.4592462576165
 31
0.0
  0
LINE
  5
8A7
330
1F
100
AcDbEntity
  8
AM_3
 48
2.0
100
AcDbLine
 10
1261.60914880984
 20
566.4592462576165
 30
0.0
 11
1188.737928772308
 21
566.4592462576165
 31
0.0
  0
LINE
  5
8A8
330
1F
100
AcDbEntity
  8
0
100
AcDbLine
 10
1261.60914880984
 20
495.359246257616
 30
0.0
 11
1185.536855046986
 21
495.3592462576162
 31
0.0
  0
LINE
  5
8A9
330
1F
100
AcDbEntity
  8
AM_3
 48
2.0
100
AcDbLine
 10
1261.60914880984
 20
500.359246257615
 30
0.0
 11
1188.737928772306
 21
500.359246257615
 31
0.0
  0
LINE
  5
8AA
102
{ACAD_REACTORS
330
2074
102
}
330
1F
100
AcDbEntity
  8
0
100
AcDbLine
 10
1261.60914880984
 20
495.359246257616
 30
0.0
 11
1261.60914880984
 21
571.4592462576165
 31
0.0
  0
LINE
  5
8AB
330
1F
100
AcDbEntity
  8
0
100
AcDbLine
 10
1001.60914880984
 20
571.4592462576165
 30
0.0
 11
1077.681442572693
 21
571.4592462576165
 31
0.0
  0
LINE
  5
8AC
330
1F
100
AcDbEntity
  8
AM_3
 48
2.0
100
AcDbLine
 10
1001.60914880984
 20
566.4592462576165
 30
0.0
 11
1074.480368847372
 21
566.4592462576165
 31
0.0
  0
LINE
  5
8AD
330
1F
100
AcDbEntity
  8
0
100
AcDbLine
 10
1001.60914880984
 20
495.359246257616
 30
0.0
 11
1077.681442572694
 21
495.3592462576162
 31
0.0
  0
LINE
  5
8AE
330
1F
100
AcDbEntity
  8
AM_3
 48
2.0
100
AcDbLine
 10
1001.60914880984
 20
500.359246257615
 30
0.0
 11
1074.480368847374
 21
500.3592462576155
 31
0.0
  0
LINE
  5
8AF
330
1F
100
AcDbEntity
  8
AM_7
100
AcDbLine
 10
993.4885814970112
 20
533.4092462576172
 30
0.0
 11
1055.10914880984
 21
533.4092462576172
 31
0.0
1001
GENIUS_GENODEF_13
1002
{
1000
HIER
1070
     0
1002
}
1002
{
1000
MANEDIT
1070
     0
1002
}
1002
{
1000
NOSEL
1070
     0
1002
}
1002
{
1000
BEHIND
1070
     0
1002
}
1002
{
1000
OTHER
1070
     0
1002
}
1002
{
1000
REACTOR
1002
}
1001
GENIUS_GENOBJ-N-CEN_13
1002
{
1000
OWNER
1000
GEN
1002
}
1001
GENIUS_GENCEN_19
1002
{
1040
3.0
1002
}
  0
LINE
  5
8B0
102
{ACAD_REACTORS
330
2074
102
}
330
1F
100
AcDbEntity
  8
0
100
AcDbLine
 10
1001.60914880984
 20
495.359246257616
 30
0.0
 11
1001.60914880984
 21
571.4592462576165
 31
0.0
  0
LINE
  5
8B1
330
1F
100
AcDbEntity
  8
AM_7
100
AcDbLine
 10
1267.76547958995
 20
533.409246257617
 30
0.0
 11
1208.109148809839
 21
533.4092462576172
 31
0.0
1001
GENIUS_GENODEF_13
1002
{
1000
HIER
1070
     0
1002
}
1002
{
1000
MANEDIT
1070
     0
1002
}
1002
{
1000
NOSEL
1070
     0
1002
}
1002
{
1000
BEHIND
1070
     0
1002
}
1002
{
1000
OTHER
1070
     0
1002
}
1002
{
1000
REACTOR
1002
}
1001
GENIUS_GENOBJ-N-CEN_13
1002
{
1000
OWNER
1000
GEN
1002
}
1001
GENIUS_GENCEN_19
1002
{
1040
3.0
1002
}
  0
DIMENSION
  5
985
330
1F
100
AcDbEntity
  8
AM_5
100
AcDbDimension
  2
*D12
 10
697.6091488098353
 20
613.5684120480117
 30
0.0
 11
656.9332479977616
 21
613.5684120480117
 31
0.0
 70
   160
  1
(%%c<>)
 71
     5
 42
131.9999999999954
  3
AM_DIN$0
100
AcDbAlignedDimension
 13
565.6091488098399
 23
594.0743950229392
 33
0.0
 14
697.6091488098353
 24
594.0743950229345
 34
0.0
100
AcDbRotatedDimension
1001
ACAD
1000
DSTYLE
1002
{
1070
   286
1070
     0
1070
   284
1070
     8
1070
   274
1070
     2
1070
   272
1070
     2
1070
    40
1040
2.5
1070
    47
1040
5.0
1070
    48
1040
5.0
1070
   271
1070
     0
1002
}
  0
DIMENSION
  5
986
330
1F
100
AcDbEntity
  8
AM_5
100
AcDbDimension
  2
*D13
 10
470.6091488098407
 20
573.0743950229395
 30
0.0
 11
470.6091488098407
 21
535.0243950229402
 31
0.0
 70
   160
  1
(%%c<>)
 71
     5
 42
76.10000000000012
  3
AM_DIN$0
100
AcDbAlignedDimension
 13
554.9231799174986
 23
496.9743950229393
 33
0.0
 14
554.9231799174986
 24
573.0743950229395
 34
0.0
 50
90.0
100
AcDbRotatedDimension
1001
ACAD
1000
DSTYLE
1002
{
1070
    40
1040
2.5
1070
    47
1040
5.0
1070
    48
1040
5.0
1070
   271
1070
     1
1002
}
  0
ARC
  5
995
330
1F
100
AcDbEntity
  8
0
100
AcDbCircle
 10
511.2840446431717
 20
535.0243950229391
 30
0.0
 40
66.32510416666804
100
AcDbArc
 50
324.992108068054
 51
35.00789193194606
  0
ARC
  5
996
330
1F
100
AcDbEntity
  8
0
100
AcDbCircle
 10
751.9342529765075
 20
535.0243950229396
 30
0.0
 40
66.32510416666804
100
AcDbArc
 50
144.9921080680539
 51
215.0078919319461
  0
LINE
  5
9A1
330
1F
100
AcDbEntity
  8
0
100
AcDbLine
 10
565.6091488098399
 20
467.0243950229401
 30
0.0
 11
565.6091488098399
 21
476.9884966380776
 31
0.0
  0
LINE
  5
9A2
330
1F
100
AcDbEntity
  8
0
100
AcDbLine
 10
566.60914880984
 20
467.0243950229401
 30
0.0
 11
566.60914880984
 21
476.988496638077
 31
0.0
  0
LINE
  5
9A3
330
1F
100
AcDbEntity
  8
0
100
AcDbLine
 10
696.6091488098401
 20
467.0243950229401
 30
0.0
 11
696.6091488098401
 21
476.988496638077
 31
0.0
  0
LINE
  5
9A4
330
1F
100
AcDbEntity
  8
0
100
AcDbLine
 10
697.6091488098401
 20
467.0243950229401
 30
0.0
 11
697.6091488098401
 21
476.988496638077
 31
0.0
  0
LINE
  5
9A5
330
1F
100
AcDbEntity
  8
0
100
AcDbLine
 10
697.6091488098401
 20
735.0961917926655
 30
0.0
 11
697.6091488098401
 21
725.132090177528
 31
0.0
  0
LINE
  5
9A6
330
1F
100
AcDbEntity
  8
0
100
AcDbLine
 10
696.6091488098401
 20
725.132090177528
 30
0.0
 11
696.6091488098401
 21
735.0961917926655
 31
0.0
  0
LINE
  5
9A7
330
1F
100
AcDbEntity
  8
0
100
AcDbLine
 10
565.6091488098399
 20
725.1320901775279
 30
0.0
 11
565.6091488098399
 21
735.0961917926655
 31
0.0
  0
LINE
  5
9A8
330
1F
100
AcDbEntity
  8
0
100
AcDbLine
 10
566.60914880984
 20
735.0961917926655
 30
0.0
 11
566.60914880984
 21
725.132090177528
 31
0.0
  0
LINE
  5
9B0
330
1F
100
AcDbEntity
  8
0
100
AcDbLine
 10
612.60914880984
 20
822.0961917926654
 30
0.0
 11
650.60914880984
 21
822.0961917926654
 31
0.0
  0
LINE
  5
9B1
330
1F
100
AcDbEntity
  8
0
100
AcDbLine
 10
650.60914880984
 20
822.0961917926651
 30
0.0
 11
650.60914880984
 21
801.096191792665
 31
0.0
  0
LINE
  5
9B2
330
1F
100
AcDbEntity
  8
0
100
AcDbLine
 10
650.60914880984
 20
801.0961917926655
 30
0.0
 11
612.60914880984
 21
801.0961917926655
 31
0.0
  0
LINE
  5
9B3
330
1F
100
AcDbEntity
  8
0
100
AcDbLine
 10
612.60914880984
 20
801.096191792665
 30
0.0
 11
612.60914880984
 21
822.0961917926651
 31
0.0
  0
LINE
  5
9BE
330
1F
100
AcDbEntity
  8
0
100
AcDbLine
 10
612.60914880984
 20
401.02439502294
 30
0.0
 11
650.60914880984
 21
401.02439502294
 31
0.0
  0
LINE
  5
9BF
330
1F
100
AcDbEntity
  8
0
100
AcDbLine
 10
650.60914880984
 20
401.0243950229397
 30
0.0
 11
650.60914880984
 21
380.0243950229397
 31
0.0
  0
LINE
  5
9C0
330
1F
100
AcDbEntity
  8
0
100
AcDbLine
 10
650.60914880984
 20
380.0243950229402
 30
0.0
 11
612.60914880984
 21
380.0243950229402
 31
0.0
  0
LINE
  5
9C1
330
1F
100
AcDbEntity
  8
0
100
AcDbLine
 10
612.60914880984
 20
380.0243950229397
 30
0.0
 11
612.60914880984
 21
401.0243950229397
 31
0.0
  0
ARC
  5
9C5
330
1F
100
AcDbEntity
  8
AM_7
100
AcDbCircle
 10
680.4457889111817
 20
793.0796829526704
 30
0.0
 40
12.5
100
AcDbArc
 50
319.9999999999692
 51
139.9999999999692
  0
ARC
  5
9C6
330
1F
100
AcDbEntity
  8
0
100
AcDbCircle
 10
680.4457889111817
 20
793.0796829526704
 30
0.0
 40
10.5
100
AcDbArc
 50
319.9999999999692
 51
139.9999999999692
  0
ARC
  5
9C7
330
1F
100
AcDbEntity
  8
0
100
AcDbCircle
 10
680.4457889111817
 20
793.0796829526704
 30
0.0
 40
14.5
100
AcDbArc
 50
319.9999999999692
 51
139.9999999999692
  0
LINE
  5
9C8
330
1F
100
AcDbEntity
  8
AM_7
100
AcDbLine
 10
670.8702333721949
 20
801.1145280737517
 30
0.0
 11
667.6562953237617
 21
797.2843058581571
 31
0.0
  0
LINE
  5
9C9
330
1F
100
AcDbEntity
  8
0
100
AcDbLine
 10
672.4023222584327
 20
799.8289528543788
 30
0.0
 11
669.1883842099996
 21
795.9987306387843
 31
0.0
  0
LINE
  5
9CA
330
1F
100
AcDbEntity
  8
0
100
AcDbLine
 10
669.3381444859568
 20
802.4001032931252
 30
0.0
 11
666.1242064375237
 21
798.5698810775302
 31
0.0
  0
ARC
  5
9CB
330
1F
100
AcDbEntity
  8
AM_7
100
AcDbCircle
 10
663.8260731081673
 20
800.4982439065898
 30
0.0
 40
5.0
100
AcDbArc
 50
230.000000000038
 51
319.9999999999692
1001
GENIUS_GENODEF_13
1002
{
1000
HIER
1070
     0
1002
}
1002
{
1000
MANEDIT
1070
     0
1002
}
1002
{
1000
NOSEL
1070
     0
1002
}
1002
{
1000
BEHIND
1070
     0
1002
}
1002
{
1000
OTHER
1070
     0
1002
}
1002
{
1000
REACTOR
1002
}
1001
GENIUS_GENOBJ-N-FIL_13
1002
{
1000
OWNER
1000
GEN
1002
}
  0
ARC
  5
9CC
330
1F
100
AcDbEntity
  8
0
100
AcDbCircle
 10
663.8260731081673
 20
800.4982439065898
 30
0.0
 40
7.0
100
AcDbArc
 50
230.000000000038
 51
319.9999999999692
1001
GENIUS_GENODEF_13
1002
{
1000
HIER
1070
     0
1002
}
1002
{
1000
MANEDIT
1070
     0
1002
}
1002
{
1000
NOSEL
1070
     0
1002
}
1002
{
1000
BEHIND
1070
     0
1002
}
1002
{
1000
OTHER
1070
     0
1002
}
1002
{
1000
REACTOR
1002
}
1001
GENIUS_GENOBJ-N-FIL_13
1002
{
1000
OWNER
1000
GEN
1002
}
  0
ARC
  5
9CD
330
1F
100
AcDbEntity
  8
0
100
AcDbCircle
 10
663.8260731081673
 20
800.4982439065898
 30
0.0
 40
3.0
100
AcDbArc
 50
230.000000000038
 51
319.9999999999692
1001
GENIUS_GENODEF_13
1002
{
1000
HIER
1070
     0
1002
}
1002
{
1000
MANEDIT
1070
     0
1002
}
1002
{
1000
NOSEL
1070
     0
1002
}
1002
{
1000
BEHIND
1070
     0
1002
}
1002
{
1000
OTHER
1070
     0
1002
}
1002
{
1000
REACTOR
1002
}
1001
GENIUS_GENOBJ-N-FIL_13
1002
{
1000
OWNER
1000
GEN
1002
}
  0
LINE
  5
9CE
330
1F
100
AcDbEntity
  8
AM_7
100
AcDbLine
 10
690.0213444501687
 20
785.0448378315883
 30
0.0
 11
686.8074064017363
 21
781.2146156159938
 31
0.0
  0
LINE
  5
9CF
330
1F
100
AcDbEntity
  8
0
100
AcDbLine
 10
688.4892555639306
 20
786.3304130509618
 30
0.0
 11
685.2753175154985
 21
782.5001908353666
 31
0.0
  0
LINE
  5
9D0
330
1F
100
AcDbEntity
  8
0
100
AcDbLine
 10
691.5534333364067
 20
783.7592626122154
 30
0.0
 11
688.3394952879744
 21
779.9290403966207
 31
0.0
  0
ARC
  5
9D1
330
1F
100
AcDbEntity
  8
AM_7
100
AcDbCircle
 10
690.6376286173307
 20
778.0006775675607
 30
0.0
 40
5.0
100
AcDbArc
 50
139.9999999999692
 51
230.000000000038
1001
GENIUS_GENOBJ-N-FIL_13
1002
{
1000
OWNER
1000
GEN
1002
}
1001
GENIUS_GENODEF_13
1002
{
1000
HIER
1070
     0
1002
}
1002
{
1000
MANEDIT
1070
     0
1002
}
1002
{
1000
NOSEL
1070
     0
1002
}
1002
{
1000
BEHIND
1070
     0
1002
}
1002
{
1000
OTHER
1070
     0
1002
}
1002
{
1000
REACTOR
1002
}
  0
ARC
  5
9D2
330
1F
100
AcDbEntity
  8
0
100
AcDbCircle
 10
690.6376286173307
 20
778.0006775675607
 30
0.0
 40
7.0
100
AcDbArc
 50
139.9999999999692
 51
230.000000000038
1001
GENIUS_GENOBJ-N-FIL_13
1002
{
1000
OWNER
1000
GEN
1002
}
1001
GENIUS_GENODEF_13
1002
{
1000
HIER
1070
     0
1002
}
1002
{
1000
MANEDIT
1070
     0
1002
}
1002
{
1000
NOSEL
1070
     0
1002
}
1002
{
1000
BEHIND
1070
     0
1002
}
1002
{
1000
OTHER
1070
     0
1002
}
1002
{
1000
REACTOR
1002
}
  0
ARC
  5
9D3
330
1F
100
AcDbEntity
  8
0
100
AcDbCircle
 10
690.6376286173307
 20
778.0006775675607
 30
0.0
 40
3.0
100
AcDbArc
 50
139.9999999999692
 51
230.000000000038
1001
GENIUS_GENOBJ-N-FIL_13
1002
{
1000
OWNER
1000
GEN
1002
}
1001
GENIUS_GENODEF_13
1002
{
1000
HIER
1070
     0
1002
}
1002
{
1000
MANEDIT
1070
     0
1002
}
1002
{
1000
NOSEL
1070
     0
1002
}
1002
{
1000
BEHIND
1070
     0
1002
}
1002
{
1000
OTHER
1070
     0
1002
}
1002
{
1000
REACTOR
1002
}
  0
LINE
  5
9D4
330
1F
100
AcDbEntity
  8
AM_7
100
AcDbLine
 10
687.4236905688984
 20
774.1704553519662
 30
0.0
 11
691.2539127844937
 21
770.9565173035331
 31
0.0
  0
LINE
  5
9D5
330
1F
100
AcDbEntity
  8
0
100
AcDbLine
 10
686.1381153495257
 20
772.6383664657283
 30
0.0
 11
689.9683375651202
 21
769.4244284172952
 31
0.0
  0
LINE
  5
9D6
330
1F
100
AcDbEntity
  8
0
100
AcDbLine
 10
688.709265788271
 20
775.7025442382041
 30
0.0
 11
692.5394880038666
 21
772.4886061897708
 31
0.0
  0
LINE
  5
9D7
330
1F
100
AcDbEntity
  8
AM_7
100
AcDbLine
 10
660.6121350597341
 20
796.668021690995
 30
0.0
 11
656.7819128441398
 21
799.8819597394282
 31
0.0
  0
LINE
  5
9D8
330
1F
100
AcDbEntity
  8
0
100
AcDbLine
 10
659.3265598403612
 20
795.1359328047571
 30
0.0
 11
655.496337624766
 21
798.3498708531903
 31
0.0
  0
LINE
  5
9D9
330
1F
100
AcDbEntity
  8
0
100
AcDbLine
 10
661.8977102791077
 20
798.2001105772329
 30
0.0
 11
658.0674880635123
 21
801.414048625666
 31
0.0
  0
LINE
  5
9DA
330
1F
100
AcDbEntity
  8
0
100
AcDbLine
 10
655.496337624766
 20
798.3498708531891
 30
0.0
 11
658.0674880635123
 21
801.4140486256652
 31
0.0
  0
LINE
  5
9DB
330
1F
100
AcDbEntity
  8
0
100
AcDbLine
 10
689.9683375651202
 20
769.4244284172952
 30
0.0
 11
692.5394880038666
 21
772.4886061897708
 31
0.0
  0
LINE
  5
9F3
330
1F
100
AcDbEntity
  8
AM_7
  6
AM_DIN_G_W050x2
100
AcDbLine
 10
692.0159658855435
 20
806.8684829288082
 30
0.0
 11
675.6248818385309
 21
787.3343496292798
 31
0.0
1001
GENIUS_GENODEF_13
1002
{
1000
HIER
1070
     0
1002
}
1002
{
1000
MANEDIT
1070
     0
1002
}
1002
{
1000
NOSEL
1070
     0
1002
}
1002
{
1000
BEHIND
1070
     0
1002
}
1002
{
1000
OTHER
1070
     0
1002
}
1002
{
1000
REACTOR
1002
}
1001
GENIUS_GENOBJ-N-CEN_13
1002
{
1000
OWNER
1000
GEN
1002
}
1001
GENIUS_GENCEN_19
1002
{
1040
7.5
1002
}
  0
POINT
  5
A36
330
1F
100
AcDbEntity
  8
0
 60
     1
100
AcDbPoint
 10
-4062.652338005459
 20
-1056.163439578124
 30
0.0
1001
GENIUS_GENOENT_13
1002
{
1000
MYREF
1005
A36
1002
}
1002
{
1000
GRP
1005
0
1002
}
1001
GENIUS_GENODEF_13
1002
{
1000
HIER
1070
    10
1002
}
1002
{
1000
MANEDIT
1070
     0
1002
}
1002
{
1000
NOSEL
1070
     0
1002
}
1002
{
1000
BEHIND
1070
     0
1002
}
1002
{
1000
OTHER
1070
     0
1002
}
1002
{
1000
REACTOR
1002
}
1001
GENIUS_GENOLIS_13
1002
{
1000
ENT
1005
8A4
1005
8A3
1005
8A2
1005
8A1
1002
}
1001
GENIUS_GENOBJ-N-CRS_13
1002
{
1000
OWNER
1000
GEN
1002
}
  0
LINE
  5
D6C
330
1F
100
AcDbEntity
  8
0
 62
     7
 48
0.1169692993164062
100
AcDbLine
 10
642.6985347961681
 20
380.0243950229402
 30
0.0
 11
638.0197628235118
 21
380.0243950229402
 31
0.0
  0
LINE
  5
D8F
330
1F
100
AcDbEntity
  8
0
 62
     7
 48
0.1169692993164062
100
AcDbLine
 10
625.1985347961681
 20
380.0243950229402
 30
0.0
 11
620.5197628235119
 21
380.0243950229402
 31
0.0
  0
LINE
  5
DAF
330
1F
100
AcDbEntity
  8
0
 62
     7
 48
0.1602653503417969
100
AcDbLine
 10
642.6985347961681
 20
380.0243950229402
 30
0.0
 11
649.1091488098398
 21
380.0243950229402
 31
0.0
  0
LINE
  5
DB0
330
1F
100
AcDbEntity
  8
0
 62
     7
 48
0.3205307006835937
100
AcDbLine
 10
625.1985347961681
 20
380.0243950229402
 30
0.0
 11
638.0197628235118
 21
380.0243950229402
 31
0.0
  0
LINE
  5
DB1
330
1F
100
AcDbEntity
  8
0
 62
     7
 48
0.1602653503417969
100
AcDbLine
 10
614.10914880984
 20
380.0243950229402
 30
0.0
 11
620.5197628235119
 21
380.0243950229402
 31
0.0
  0
LINE
  5
DC7
330
1F
100
AcDbEntity
  8
0
 62
     7
100
AcDbLine
 10
600.10914880984
 20
884.0961917926653
 30
0.0
 11
631.60914880984
 21
884.0961917926653
 31
0.0
  0
LINE
  5
DC8
330
1F
100
AcDbEntity
  8
0
 62
     7
100
AcDbLine
 10
631.60914880984
 20
884.0961917926653
 30
0.0
 11
663.10914880984
 21
884.0961917926653
 31
0.0
  0
LINE
  5
DC9
330
1F
100
AcDbEntity
  8
0
 62
     7
100
AcDbLine
 10
663.10914880984
 20
862.0961917926655
 30
0.0
 11
663.10914880984
 21
884.0961917926653
 31
0.0
  0
LINE
  5
DCA
330
1F
100
AcDbEntity
  8
0
 62
     7
100
AcDbLine
 10
600.10914880984
 20
862.0961917926655
 30
0.0
 11
600.10914880984
 21
884.0961917926653
 31
0.0
  0
LINE
  5
DCB
330
1F
100
AcDbEntity
  8
0
 62
     7
100
AcDbLine
 10
600.10914880984
 20
862.0961917926655
 30
0.0
 11
631.60914880984
 21
862.0961917926655
 31
0.0
  0
LINE
  5
DCC
330
1F
100
AcDbEntity
  8
0
 62
     7
100
AcDbLine
 10
631.60914880984
 20
862.0961917926655
 30
0.0
 11
631.60914880984
 21
884.0961917926653
 31
0.0
  0
LINE
  5
DCD
330
1F
100
AcDbEntity
  8
0
 62
     7
100
AcDbLine
 10
631.60914880984
 20
862.0961917926655
 30
0.0
 11
663.10914880984
 21
862.0961917926655
 31
0.0
  0
LINE
  5
DCE
330
1F
100
AcDbEntity
  8
0
 62
     7
 48
0.3
100
AcDbLine
 10
608.60914880984
 20
850.0961917926655
 30
0.0
 11
608.60914880984
 21
862.0961917926655
 31
0.0
  0
LINE
  5
DCF
330
1F
100
AcDbEntity
  8
0
 62
     7
 48
0.225
100
AcDbLine
 10
654.60914880984
 20
853.0961917926655
 30
0.0
 11
654.60914880984
 21
862.0961917926655
 31
0.0
  0
LINE
  5
DD0
330
1F
100
AcDbEntity
  8
0
 62
     7
100
AcDbLine
 10
653.6091488098398
 20
850.0961917926655
 30
0.0
 11
608.60914880984
 21
850.0961917926655
 31
0.0
  0
ARC
  5
DD1
330
1F
100
AcDbEntity
  8
0
 62
     7
100
AcDbCircle
 10
682.3536251281994
 20
842.1720890094624
 30
0.0
 40
29.81731915668617
100
AcDbArc
 50
158.5084459552989
 51
164.5878334109868
  0
LINE
  5
DD2
330
1F
100
AcDbEntity
  8
0
 62
     7
 48
0.4625
100
AcDbLine
 10
609.10914880984
 20
831.5961917926655
 30
0.0
 11
609.10914880984
 21
850.0961917926655
 31
0.0
  0
LINE
  5
DD3
330
1F
100
AcDbEntity
  8
0
 62
     7
100
AcDbLine
 10
654.10914880984
 20
831.5961917926655
 30
0.0
 11
609.10914880984
 21
831.5961917926655
 31
0.0
  0
LINE
  5
DD4
330
1F
100
AcDbEntity
  8
0
 62
     7
 48
0.0875
100
AcDbLine
 10
654.10914880984
 20
831.5961917926655
 30
0.0
 11
654.10914880984
 21
835.0961917926655
 31
0.0
  0
POLYLINE
  5
DD5
330
1F
100
AcDbEntity
  8
0
 62
     7
100
AcDb2dPolyline
 66
     1
 10
0.0
 20
0.0
 30
0.0
  0
VERTEX
  5
DD6
330
DD5
100
AcDbEntity
  8
0
100
AcDbVertex
100
AcDb2dVertex
 10
652.23073084109
 20
844.0961917926655
 30
0.0
  0
VERTEX
  5
DD7
330
DD5
100
AcDbEntity
  8
0
100
AcDbVertex
100
AcDb2dVertex
 10
652.2520931457775
 20
843.1572879840718
 30
0.0
  0
VERTEX
  5
DD8
330
DD5
100
AcDbEntity
  8
0
100
AcDbVertex
100
AcDb2dVertex
 10
652.3152034973398
 20
842.2274784137593
 30
0.0
  0
VERTEX
  5
DD9
330
DD5
100
AcDbEntity
  8
0
100
AcDbVertex
100
AcDb2dVertex
 10
652.4173763489025
 20
841.3151554157124
 30
0.0
  0
VERTEX
  5
DDA
330
DD5
100
AcDbEntity
  8
0
100
AcDbVertex
100
AcDb2dVertex
 10
652.5543697571056
 20
840.4282535602437
 30
0.0
  0
VERTEX
  5
DDB
330
DD5
100
AcDbEntity
  8
0
100
AcDbVertex
100
AcDb2dVertex
 10
652.9092586731211
 20
838.76278725165
 30
0.0
  0
VERTEX
  5
DDC
330
DD5
100
AcDbEntity
  8
0
100
AcDbVertex
100
AcDb2dVertex
 10
653.1945064758556
 20
837.7184146930559
 30
0.0
  0
VERTEX
  5
DDD
330
DD5
100
AcDbEntity
  8
0
100
AcDbVertex
100
AcDb2dVertex
 10
653.7497127746838
 20
836.0367130328999
 30
0.0
  0
VERTEX
  5
DDE
330
DD5
100
AcDbEntity
  8
0
100
AcDbVertex
100
AcDb2dVertex
 10
654.10914880984
 20
835.0961917926655
 30
0.0
  0
SEQEND
  5
DDF
330
DD5
100
AcDbEntity
  8
0
  0
POLYLINE
  5
DE0
330
1F
100
AcDbEntity
  8
0
 62
     7
100
AcDb2dPolyline
 66
     1
 10
0.0
 20
0.0
 30
0.0
  0
VERTEX
  5
DE1
330
DE0
100
AcDbEntity
  8
0
100
AcDbVertex
100
AcDb2dVertex
 10
652.23073084109
 20
844.0961917926655
 30
0.0
  0
VERTEX
  5
DE2
330
DE0
100
AcDbEntity
  8
0
100
AcDbVertex
100
AcDb2dVertex
 10
652.3035457824961
 20
845.8307193805561
 30
0.0
  0
VERTEX
  5
DE3
330
DE0
100
AcDbEntity
  8
0
100
AcDbVertex
100
AcDb2dVertex
 10
652.5113399719494
 20
847.5097965289934
 30
0.0
  0
VERTEX
  5
DE4
330
DE0
100
AcDbEntity
  8
0
100
AcDbVertex
100
AcDb2dVertex
 10
652.8248470520273
 20
849.0817874957905
 30
0.0
  0
VERTEX
  5
DE5
330
DE0
100
AcDbEntity
  8
0
100
AcDbVertex
100
AcDb2dVertex
 10
653.0858944153086
 20
850.0961917926655
 30
0.0
  0
SEQEND
  5
DE6
330
DE0
100
AcDbEntity
  8
0
  0
LINE
  5
DE7
330
1F
100
AcDbEntity
  8
0
 62
     7
 48
0.387298583984375
100
AcDbLine
 10
629.8551204895275
 20
830.0961917926654
 30
0.0
 11
614.3631771301524
 21
830.0961917926654
 31
0.0
  0
ARC
  5
DE8
330
1F
100
AcDbEntity
  8
0
 62
     7
100
AcDbCircle
 10
616.6057613586681
 20
856.9356082965718
 30
0.0
 40
29.9317263998276
100
AcDbArc
 50
296.2733719871033
 51
300.0828007136504
  0
ARC
  5
DE9
330
1F
100
AcDbEntity
  8
0
 62
     7
100
AcDbCircle
 10
646.6136043762461
 20
856.9366764118059
 30
0.0
 40
29.93318513588919
100
AcDbArc
 50
239.916436126383
 51
243.7256872680148
  0
LINE
  5
DEA
330
1F
100
AcDbEntity
  8
0
 62
     7
 48
0.387298583984375
100
AcDbLine
 10
648.8551204895275
 20
830.0961917926654
 30
0.0
 11
633.3631771301525
 21
830.0961917926654
 31
0.0
  0
ARC
  5
DEB
330
1F
100
AcDbEntity
  8
0
 62
     7
100
AcDbCircle
 10
635.6057613586681
 20
856.9356082965718
 30
0.0
 40
29.93172640551351
100
AcDbArc
 50
296.2733719871033
 51
300.0828007136504
  0
LINE
  5
DEC
330
1F
100
AcDbEntity
  8
0
 62
     7
 48
0.05
100
AcDbLine
 10
652.60914880984
 20
830.0961917926654
 30
0.0
 11
650.60914880984
 21
830.0961917926654
 31
0.0
  0
LINE
  5
DED
330
1F
100
AcDbEntity
  8
0
 62
     7
 48
0.0530330085889911
100
AcDbLine
 10
652.60914880984
 20
830.0961917926654
 30
0.0
 11
654.10914880984
 21
831.5961917926655
 31
0.0
  0
LINE
  5
DEE
330
1F
100
AcDbEntity
  8
0
 62
     7
 48
0.0530330085889911
100
AcDbLine
 10
610.60914880984
 20
830.0961917926654
 30
0.0
 11
609.10914880984
 21
831.5961917926655
 31
0.0
  0
LINE
  5
DEF
330
1F
100
AcDbEntity
  8
0
 62
     7
 48
0.05
100
AcDbLine
 10
612.60914880984
 20
830.0961917926654
 30
0.0
 11
610.60914880984
 21
830.0961917926654
 31
0.0
  0
ARC
  5
DF0
330
1F
100
AcDbEntity
  8
0
 62
     7
100
AcDbCircle
 10
627.6136043762463
 20
856.9366764118059
 30
0.0
 40
29.93318513794582
100
AcDbArc
 50
239.916436126383
 51
243.7256872680148
  0
LINE
  5
DF1
330
1F
100
AcDbEntity
  8
0
 62
     7
 48
0.2234825134277344
100
AcDbLine
 10
612.60914880984
 20
831.0354923297749
 30
0.0
 11
612.60914880984
 21
822.0961917926654
 31
0.0
  0
LINE
  5
DF2
330
1F
100
AcDbEntity
  8
0
 62
     7
 48
0.475
100
AcDbLine
 10
612.60914880984
 20
822.0961917926654
 30
0.0
 11
631.60914880984
 21
822.0961917926654
 31
0.0
  0
LINE
  5
DF3
330
1F
100
AcDbEntity
  8
0
 62
     7
 48
0.2234825134277344
100
AcDbLine
 10
631.60914880984
 20
831.0354923297749
 30
0.0
 11
631.60914880984
 21
822.0961917926654
 31
0.0
  0
LINE
  5
DF4
330
1F
100
AcDbEntity
  8
0
 62
     7
 48
0.475
100
AcDbLine
 10
631.60914880984
 20
822.0961917926654
 30
0.0
 11
650.60914880984
 21
822.0961917926654
 31
0.0
  0
LINE
  5
DF5
330
1F
100
AcDbEntity
  8
0
 62
     7
 48
0.2234825134277344
100
AcDbLine
 10
650.60914880984
 20
831.0354923297749
 30
0.0
 11
650.60914880984
 21
822.0961917926654
 31
0.0
  0
LINE
  5
DF6
330
1F
100
AcDbEntity
  8
0
 62
     7
 48
0.1257171630859375
100
AcDbLine
 10
682.6091488098398
 20
899.067505269228
 30
0.0
 11
682.6091488098398
 21
904.0961917926654
 31
0.0
  0
LINE
  5
DF7
330
1F
100
AcDbEntity
  8
0
 62
     7
100
AcDbLine
 10
682.6091488098398
 20
899.067505269228
 30
0.0
 11
682.6091488098398
 21
819.5818485309468
 31
0.0
  0
LINE
  5
DF8
330
1F
100
AcDbEntity
  8
0
 62
     7
 48
0.0871414184570313
100
AcDbLine
 10
682.6091488098398
 20
816.0961917926655
 30
0.0
 11
682.6091488098398
 21
819.5818485309468
 31
0.0
  0
LINE
  5
DF9
330
1F
100
AcDbEntity
  8
0
 62
     7
 48
0.275
100
AcDbLine
 10
671.60914880984
 20
819.5818485309468
 30
0.0
 11
682.6091488098398
 21
819.5818485309468
 31
0.0
  0
LINE
  5
DFA
330
1F
100
AcDbEntity
  8
0
 62
     7
 48
0.0871414184570313
100
AcDbLine
 10
671.60914880984
 20
816.0961917926655
 30
0.0
 11
671.60914880984
 21
819.5818485309468
 31
0.0
  0
LINE
  5
DFB
330
1F
100
AcDbEntity
  8
0
 62
     7
 48
0.275
100
AcDbLine
 10
671.60914880984
 20
899.067505269228
 30
0.0
 11
682.6091488098398
 21
899.067505269228
 31
0.0
  0
LINE
  5
DFC
330
1F
100
AcDbEntity
  8
0
 62
     7
100
AcDbLine
 10
671.60914880984
 20
899.067505269228
 30
0.0
 11
671.60914880984
 21
819.5818485309468
 31
0.0
  0
LINE
  5
DFD
330
1F
100
AcDbEntity
  8
0
 62
     7
 48
0.1257171630859375
100
AcDbLine
 10
671.60914880984
 20
899.067505269228
 30
0.0
 11
671.60914880984
 21
904.0961917926654
 31
0.0
  0
LINE
  5
DFE
330
1F
100
AcDbEntity
  8
0
 62
     7
 48
0.325
100
AcDbLine
 10
663.60914880984
 20
831.0961917926656
 30
0.0
 11
663.60914880984
 21
844.0961917926655
 31
0.0
  0
LINE
  5
DFF
330
1F
100
AcDbEntity
  8
0
 62
     7
 48
0.325
100
AcDbLine
 10
663.60914880984
 20
844.0961917926655
 30
0.0
 11
663.60914880984
 21
857.0961917926656
 31
0.0
  0
LINE
  5
E05
330
1F
100
AcDbEntity
  8
0
 62
     7
 48
0.275
100
AcDbLine
 10
671.60914880984
 20
816.0961917926655
 30
0.0
 11
682.6091488098398
 21
816.0961917926655
 31
0.0
  0
LINE
  5
E06
330
1F
100
AcDbEntity
  8
0
 62
     7
 48
0.275
100
AcDbLine
 10
671.60914880984
 20
904.0961917926654
 30
0.0
 11
682.6091488098398
 21
904.0961917926654
 31
0.0
  0
LINE
  5
E07
330
1F
100
AcDbEntity
  8
0
 62
     7
 48
0.275
100
AcDbLine
 10
671.60914880984
 20
816.0961917926655
 30
0.0
 11
682.6091488098398
 21
816.0961917926655
 31
0.0
  0
LINE
  5
E08
330
1F
100
AcDbEntity
  8
0
 62
     7
 48
0.2
100
AcDbLine
 10
663.60914880984
 20
831.0961917926656
 30
0.0
 11
671.60914880984
 21
831.0961917926656
 31
0.0
  0
LINE
  5
E09
330
1F
100
AcDbEntity
  8
0
 62
     7
 48
0.2
100
AcDbLine
 10
663.60914880984
 20
857.0961917926656
 30
0.0
 11
671.60914880984
 21
857.0961917926656
 31
0.0
  0
LINE
  5
E0A
330
1F
100
AcDbEntity
  8
0
 62
     7
 48
0.2375
100
AcDbLine
 10
654.10914880984
 20
835.0961917926655
 30
0.0
 11
663.60914880984
 21
835.0961917926655
 31
0.0
  0
LINE
  5
E0B
330
1F
100
AcDbEntity
  8
0
 62
     7
 48
0.225
100
AcDbLine
 10
654.60914880984
 20
853.0961917926655
 30
0.0
 11
663.60914880984
 21
853.0961917926655
 31
0.0
  0
LINE
  5
EF4
330
1F
100
AcDbEntity
  8
0
 62
     7
 48
0.017678
100
AcDbLine
 10
677.60914880984
 20
956.7651977926654
 30
0.0
 11
677.10914880984
 21
956.2651977926654
 31
0.0
  0
LINE
  5
EF5
330
1F
100
AcDbEntity
  8
0
 62
     7
 48
0.39155
100
AcDbLine
 10
677.60914880984
 20
972.4271847926656
 30
0.0
 11
677.60914880984
 21
956.7651977926654
 31
0.0
  0
LINE
  5
EF6
330
1F
100
AcDbEntity
  8
0
 62
     7
 48
0.017678
100
AcDbLine
 10
677.60914880984
 20
972.4271847926656
 30
0.0
 11
677.10914880984
 21
972.9271847926655
 31
0.0
  0
LINE
  5
EF7
330
1F
100
AcDbEntity
  8
0
 62
     7
 48
0.41655
100
AcDbLine
 10
677.10914880984
 20
972.9271847926655
 30
0.0
 11
677.10914880984
 21
956.2651977926654
 31
0.0
  0
LINE
  5
EF8
330
1F
100
AcDbEntity
  8
0
 62
     7
 48
0.0125
100
AcDbLine
 10
677.10914880984
 20
956.2651977926654
 30
0.0
 11
676.60914880984
 21
956.2651977926654
 31
0.0
  0
LINE
  5
EF9
330
1F
100
AcDbEntity
  8
0
 62
     7
 48
0.0125
100
AcDbLine
 10
677.10914880984
 20
972.9271847926655
 30
0.0
 11
676.60914880984
 21
972.9271847926655
 31
0.0
  0
LINE
  5
EFA
330
1F
100
AcDbEntity
  8
0
 62
     7
 48
0.0125
100
AcDbLine
 10
676.60914880984
 20
957.1211857926654
 30
0.0
 11
677.10914880984
 21
957.1211857926654
 31
0.0
  0
LINE
  5
EFB
330
1F
100
AcDbEntity
  8
0
 62
     7
 48
0.0125
100
AcDbLine
 10
677.10914880984
 20
957.1211857926654
 30
0.0
 11
677.60914880984
 21
957.1211857926654
 31
0.0
  0
LINE
  5
EFC
330
1F
100
AcDbEntity
  8
0
 62
     7
 48
0.0125
100
AcDbLine
 10
676.60914880984
 20
972.0711977926653
 30
0.0
 11
677.10914880984
 21
972.0711977926653
 31
0.0
  0
LINE
  5
EFD
330
1F
100
AcDbEntity
  8
0
 62
     7
 48
0.0125
100
AcDbLine
 10
677.10914880984
 20
972.0711977926653
 30
0.0
 11
677.60914880984
 21
972.0711977926653
 31
0.0
  0
LINE
  5
F02
330
1F
100
AcDbEntity
  8
0
 62
     7
 48
0.236938
100
AcDbLine
 10
676.60914880984
 20
955.1186827926652
 30
0.0
 11
676.60914880984
 21
964.5961917926657
 31
0.0
  0
LINE
  5
F03
330
1F
100
AcDbEntity
  8
0
 62
     7
 48
0.236938
100
AcDbLine
 10
676.60914880984
 20
964.5961917926657
 30
0.0
 11
676.60914880984
 21
974.0736997926656
 31
0.0
  0
LINE
  5
F04
330
1F
100
AcDbEntity
  8
0
 62
     7
 48
0.261938
100
AcDbLine
 10
675.60914880984
 20
954.1186827926653
 30
0.0
 11
675.60914880984
 21
964.5961917926657
 31
0.0
  0
LINE
  5
F05
330
1F
100
AcDbEntity
  8
0
 62
     7
 48
0.261938
100
AcDbLine
 10
675.60914880984
 20
964.5961917926657
 30
0.0
 11
675.60914880984
 21
975.0736997926653
 31
0.0
  0
LINE
  5
F06
330
1F
100
AcDbEntity
  8
0
 62
     7
 48
0.253902
100
AcDbLine
 10
639.98071580984
 20
964.5961757926656
 30
0.0
 11
631.60914880984
 21
970.3461917926656
 31
0.0
  0
POLYLINE
  5
F07
330
1F
100
AcDbEntity
  8
0
 62
     7
100
AcDb2dPolyline
 66
     1
 10
0.0
 20
0.0
 30
0.0
  0
VERTEX
  5
F08
330
F07
100
AcDbEntity
  8
0
100
AcDbVertex
100
AcDb2dVertex
 10
638.6817048098398
 20
963.0962067926654
 30
0.0
  0
VERTEX
  5
F09
330
F07
100
AcDbEntity
  8
0
100
AcDbVertex
100
AcDb2dVertex
 10
635.65930480984
 20
966.1042477926653
 30
0.0
  0
VERTEX
  5
F0A
330
F07
100
AcDbEntity
  8
0
100
AcDbVertex
100
AcDb2dVertex
 10
632.84692680984
 20
969.0146487926652
 30
0.0
  0
VERTEX
  5
F0B
330
F07
100
AcDbEntity
  8
0
100
AcDbVertex
100
AcDb2dVertex
 10
631.60914880984
 20
970.3461917926656
 30
0.0
  0
SEQEND
  5
F0C
330
F07
100
AcDbEntity
  8
0
  0
LINE
  5
F0D
330
1F
100
AcDbEntity
  8
0
 62
     7
 48
0.341652
100
AcDbLine
 10
651.24556280984
 20
956.8589627926652
 30
0.0
 11
639.9807008098401
 21
964.5961917926657
 31
0.0
  0
POLYLINE
  5
F0E
330
1F
100
AcDbEntity
  8
0
 62
     7
100
AcDb2dPolyline
 66
     1
 10
0.0
 20
0.0
 30
0.0
  0
VERTEX
  5
F0F
330
F0E
100
AcDbEntity
  8
0
100
AcDbVertex
100
AcDb2dVertex
 10
648.96553380984
 20
953.3405457926653
 30
0.0
  0
VERTEX
  5
F10
330
F0E
100
AcDbEntity
  8
0
100
AcDbVertex
100
AcDb2dVertex
 10
643.8237338098399
 20
958.1514127926654
 30
0.0
  0
VERTEX
  5
F11
330
F0E
100
AcDbEntity
  8
0
100
AcDbVertex
100
AcDb2dVertex
 10
638.68168980984
 20
963.0962217926652
 30
0.0
  0
SEQEND
  5
F12
330
F0E
100
AcDbEntity
  8
0
  0
LINE
  5
F13
330
1F
100
AcDbEntity
  8
0
 62
     7
 48
0.166152
100
AcDbLine
 10
656.7238948098401
 20
953.0961917926656
 30
0.0
 11
651.24556280984
 21
956.8589627926652
 31
0.0
  0
ARC
  5
F14
330
1F
100
AcDbEntity
  8
0
 62
     7
100
AcDbCircle
 10
1326.08046280984
 20
1684.680663792665
 30
0.0
 40
996.666109
100
AcDbArc
 50
227.2047850000015
 51
227.6077660000008
  0
LINE
  5
F15
330
1F
100
AcDbEntity
  8
0
 62
     7
 48
0.076101
100
AcDbLine
 10
653.43113980984
 20
944.5269777926654
 30
0.0
 11
656.47517680984
 21
944.5269777926654
 31
0.0
  0
LINE
  5
F16
330
1F
100
AcDbEntity
  8
0
 62
     7
 48
0.248982
100
AcDbLine
 10
621.6498598098397
 20
970.3461917926656
 30
0.0
 11
631.60914880984
 21
970.3461917926656
 31
0.0
  0
LINE
  5
F17
330
1F
100
AcDbEntity
  8
0
 62
     7
100
AcDbLine
 10
606.7431208098398
 20
944.5269777926654
 30
0.0
 11
653.43113980984
 21
944.5269777926654
 31
0.0
  0
LINE
  5
F18
330
1F
100
AcDbEntity
  8
0
 62
     7
 48
0.096404
100
AcDbLine
 10
659.2529938098399
 20
886.7530667926654
 30
0.0
 11
663.10914880984
 21
886.7530667926654
 31
0.0
  0
LINE
  5
F19
330
1F
100
AcDbEntity
  8
0
 62
     7
 48
0.092599
100
AcDbLine
 10
658.1619288098401
 20
888.6043857926654
 30
0.0
 11
661.8658778098398
 21
888.6043857926654
 31
0.0
  0
LINE
  5
F1A
330
1F
100
AcDbEntity
  8
0
 62
     7
100
AcDbLine
 10
600.10914880984
 20
886.7530667926654
 30
0.0
 11
659.2529938098399
 21
886.7530667926654
 31
0.0
  0
LINE
  5
F1B
330
1F
100
AcDbEntity
  8
0
 62
     7
100
AcDbLine
 10
601.3524198098401
 20
888.6043857926654
 30
0.0
 11
658.1619288098401
 21
888.6043857926654
 31
0.0
  0
LINE
  5
F1C
330
1F
100
AcDbEntity
  8
0
 62
     7
100
AcDbLine
 10
605.3658778098401
 20
890.2448727926651
 30
0.0
 11
654.6397888098399
 21
890.2448727926651
 31
0.0
  0
LINE
  5
F1D
330
1F
100
AcDbEntity
  8
0
 62
     7
 48
0.080316
100
AcDbLine
 10
654.6397888098399
 20
890.2448727926651
 30
0.0
 11
657.8524198098399
 21
890.2448727926651
 31
0.0
  0
LINE
  5
F1E
330
1F
100
AcDbEntity
  8
0
 62
     7
100
AcDbLine
 10
606.60914880984
 20
892.0961917926653
 30
0.0
 11
653.54870880984
 21
892.0961917926653
 31
0.0
  0
LINE
  5
F1F
330
1F
100
AcDbEntity
  8
0
 62
     7
 48
0.076511
100
AcDbLine
 10
653.54870880984
 20
892.0961917926653
 30
0.0
 11
656.60914880984
 21
892.0961917926653
 31
0.0
  0
LINE
  5
F20
330
1F
100
AcDbEntity
  8
0
 62
     7
100
AcDbLine
 10
606.60914880984
 20
944.0269777926655
 30
0.0
 11
653.54870880984
 21
944.0269777926655
 31
0.0
  0
LINE
  5
F21
330
1F
100
AcDbEntity
  8
0
 62
     7
 48
0.076511
100
AcDbLine
 10
653.54870880984
 20
944.0269777926655
 30
0.0
 11
656.60914880984
 21
944.0269777926655
 31
0.0
  0
LINE
  5
F22
330
1F
100
AcDbEntity
  8
0
 62
     7
 48
0.14375
100
AcDbLine
 10
631.60914880984
 20
976.0961917926657
 30
0.0
 11
631.60914880984
 21
970.3461917926656
 31
0.0
  0
LINE
  5
F23
330
1F
100
AcDbEntity
  8
0
 62
     7
 48
0.096404
100
AcDbLine
 10
659.2529938098399
 20
884.1961977926654
 30
0.0
 11
663.10914880984
 21
884.1961977926654
 31
0.0
  0
LINE
  5
F24
330
1F
100
AcDbEntity
  8
0
 62
     7
100
AcDbLine
 10
600.10914880984
 20
884.1961977926654
 30
0.0
 11
659.2529938098399
 21
884.1961977926654
 31
0.0
  0
LINE
  5
F25
330
1F
100
AcDbEntity
  8
0
 62
     7
 48
0.096098
100
AcDbLine
 10
659.16524080984
 20
884.0961917926653
 30
0.0
 11
663.00914280984
 21
884.0961917926653
 31
0.0
  0
LINE
  5
F26
330
1F
100
AcDbEntity
  8
0
 62
     7
100
AcDbLine
 10
600.20915480984
 20
884.0961917926653
 30
0.0
 11
659.16524080984
 21
884.0961917926653
 31
0.0
  0
LINE
  5
F27
330
1F
100
AcDbEntity
  8
0
 62
     7
 48
0.2875
100
AcDbLine
 10
663.50914280984
 20
964.5961917926657
 30
0.0
 11
663.50914280984
 21
976.0961917926657
 31
0.0
  0
LINE
  5
F28
330
1F
100
AcDbEntity
  8
0
 62
     7
 48
0.2875
100
AcDbLine
 10
663.50914280984
 20
953.0961917926656
 30
0.0
 11
663.50914280984
 21
964.5961917926657
 31
0.0
  0
LINE
  5
F29
330
1F
100
AcDbEntity
  8
0
 62
     7
 48
0.285
100
AcDbLine
 10
663.60914880984
 20
964.5961917926657
 30
0.0
 11
663.60914880984
 21
975.9961857926654
 31
0.0
  0
LINE
  5
F2A
330
1F
100
AcDbEntity
  8
0
 62
     7
 48
0.285
100
AcDbLine
 10
663.60914880984
 20
953.1961977926652
 30
0.0
 11
663.60914880984
 21
964.5961917926657
 31
0.0
  0
LINE
  5
F2B
330
1F
100
AcDbEntity
  8
0
 62
     7
 48
0.261938
100
AcDbLine
 10
663.70915480984
 20
954.1186827926653
 30
0.0
 11
663.70915480984
 21
964.5961917926657
 31
0.0
  0
LINE
  5
F2C
330
1F
100
AcDbEntity
  8
0
 62
     7
 48
0.261938
100
AcDbLine
 10
663.70915480984
 20
964.5961917926657
 30
0.0
 11
663.70915480984
 21
975.0736997926653
 31
0.0
  0
LINE
  5
F31
330
1F
100
AcDbEntity
  8
0
 62
     7
 48
0.035355
100
AcDbLine
 10
676.60914880984
 20
955.1186827926652
 30
0.0
 11
675.60914880984
 21
954.1186827926653
 31
0.0
  0
LINE
  5
F32
330
1F
100
AcDbEntity
  8
0
 62
     7
 48
0.035355
100
AcDbLine
 10
676.60914880984
 20
974.0736997926656
 30
0.0
 11
675.60914880984
 21
975.0736997926653
 31
0.0
  0
ARC
  5
F33
330
1F
100
AcDbEntity
  8
0
 62
     7
100
AcDbCircle
 10
656.7238948098401
 20
950.0961917926657
 30
0.0
 40
3.0
100
AcDbArc
 50
90.00000899999959
 51
209.9999889999986
  0
LINE
  5
F34
330
1F
100
AcDbEntity
  8
0
 62
     7
 48
0.117468
100
AcDbLine
 10
654.12581180984
 20
948.5961917926656
 30
0.0
 11
656.47517680984
 21
944.5269777926654
 31
0.0
  0
LINE
  5
F35
330
1F
100
AcDbEntity
  8
0
 62
     7
100
AcDbLine
 10
621.6498598098397
 20
970.3461917926656
 30
0.0
 11
606.7431208098398
 21
944.5269777926654
 31
0.0
  0
ARC
  5
F36
330
1F
100
AcDbEntity
  8
0
 62
     7
100
AcDbCircle
 10
661.1091488098399
 20
886.7530667926654
 30
0.0
 40
2.0
100
AcDbArc
 50
0.0
 51
67.7677229999993
  0
ARC
  5
F37
330
1F
100
AcDbEntity
  8
0
 62
     7
100
AcDbCircle
 10
602.10914880984
 20
886.7530667926654
 30
0.0
 40
2.0
100
AcDbArc
 50
112.2322749999961
 51
179.9999949999995
  0
LINE
  5
F38
330
1F
100
AcDbEntity
  8
0
 62
     7
 48
0.108395
100
AcDbLine
 10
605.3658778098401
 20
890.2448727926651
 30
0.0
 11
601.3524198098401
 21
888.6043857926654
 31
0.0
  0
LINE
  5
F39
330
1F
100
AcDbEntity
  8
0
 62
     7
 48
0.108395
100
AcDbLine
 10
657.8524198098399
 20
890.2448727926651
 30
0.0
 11
661.8658778098398
 21
888.6043857926654
 31
0.0
  0
ARC
  5
F3A
330
1F
100
AcDbEntity
  8
0
 62
     7
100
AcDbCircle
 10
604.60914880984
 20
892.0961917926653
 30
0.0
 40
2.0
100
AcDbArc
 50
292.2322770000008
 51
0.0
  0
ARC
  5
F3B
330
1F
100
AcDbEntity
  8
0
 62
     7
100
AcDbCircle
 10
658.60914880984
 20
892.0961917926653
 30
0.0
 40
2.0
100
AcDbArc
 50
180.0000050000005
 51
247.7677249999969
  0
LINE
  5
F3C
330
1F
100
AcDbEntity
  8
0
 62
     7
100
AcDbLine
 10
606.60914880984
 20
944.0269777926655
 30
0.0
 11
606.60914880984
 21
892.0961917926653
 31
0.0
  0
LINE
  5
F3D
330
1F
100
AcDbEntity
  8
0
 62
     7
100
AcDbLine
 10
656.60914880984
 20
944.0269777926655
 30
0.0
 11
656.60914880984
 21
892.0961917926653
 31
0.0
  0
ARC
  5
F3E
330
1F
100
AcDbEntity
  8
0
 62
     7
100
AcDbCircle
 10
607.6091488098398
 20
944.0269777926655
 30
0.0
 40
1.0
100
AcDbArc
 50
149.999996999999
 51
179.9999949999995
  0
ARC
  5
F3F
330
1F
100
AcDbEntity
  8
0
 62
     7
100
AcDbCircle
 10
655.60914880984
 20
944.0269777926655
 30
0.0
 40
1.0
100
AcDbArc
 50
0.0
 51
30.00000099999913
  0
ARC
  5
F40
330
1F
100
AcDbEntity
  8
0
 62
     7
100
AcDbCircle
 10
631.60914880984
 20
964.5961917926657
 30
0.0
 40
11.5
100
AcDbArc
 50
90.00000299999769
 51
149.999996999999
  0
LINE
  5
F41
330
1F
100
AcDbEntity
  8
0
 62
     7
 48
0.063922
100
AcDbLine
 10
663.10914880984
 20
886.7530667926654
 30
0.0
 11
663.10914880984
 21
884.1961977926654
 31
0.0
  0
LINE
  5
F42
330
1F
100
AcDbEntity
  8
0
 62
     7
 48
0.063922
100
AcDbLine
 10
600.10914880984
 20
886.7530667926654
 30
0.0
 11
600.10914880984
 21
884.1961977926654
 31
0.0
  0
ARC
  5
F43
330
1F
100
AcDbEntity
  8
0
 62
     7
100
AcDbCircle
 10
663.0090668098398
 20
884.1962737926651
 30
0.0
 40
0.100071
100
AcDbArc
 50
270.046074
 51
359.9539319999973
  0
ARC
  5
F44
330
1F
100
AcDbEntity
  8
0
 62
     7
100
AcDbCircle
 10
600.20923180984
 20
884.1962737926651
 30
0.0
 40
0.100071
100
AcDbArc
 50
180.0460710000013
 51
269.9539280000035
  0
LINE
  5
F45
102
{ACAD_REACTORS
330
1D97
102
}
330
1F
100
AcDbEntity
  8
0
 62
     7
100
AcDbLine
 10
631.60914880984
 20
976.0961917926657
 30
0.0
 11
663.50914280984
 21
976.0961917926657
 31
0.0
  0
LINE
  5
F46
330
1F
100
AcDbEntity
  8
0
 62
     7
 48
0.169631
100
AcDbLine
 10
656.7238948098401
 20
953.0961917926656
 30
0.0
 11
663.50914280984
 21
953.0961917926656
 31
0.0
  0
ARC
  5
F47
330
1F
100
AcDbEntity
  8
0
 62
     7
100
AcDbCircle
 10
663.5090668098398
 20
975.9960937926654
 30
0.0
 40
0.100071
100
AcDbArc
 50
0.0460839999977315
 51
89.95391900000095
  0
ARC
  5
F48
330
1F
100
AcDbEntity
  8
0
 62
     7
100
AcDbCircle
 10
663.5090668098398
 20
953.1962737926653
 30
0.0
 40
0.100071
100
AcDbArc
 50
270.0460809999991
 51
359.9539160000023
  0
LINE
  5
F49
330
1F
100
AcDbEntity
  8
0
 62
     7
 48
0.2975
100
AcDbLine
 10
663.70915480984
 20
954.1186827926653
 30
0.0
 11
675.60914880984
 21
954.1186827926653
 31
0.0
  0
LINE
  5
F4A
330
1F
100
AcDbEntity
  8
0
 62
     7
 48
0.2975
100
AcDbLine
 10
663.70915480984
 20
975.0736997926653
 30
0.0
 11
675.60914880984
 21
975.0736997926653
 31
0.0
  0
ARC
  5
F4B
330
1F
100
AcDbEntity
  8
0
 62
     7
100
AcDbCircle
 10
663.70923180984
 20
975.1737667926652
 30
0.0
 40
0.100071
100
AcDbArc
 50
180.0460849999995
 51
269.9539139999989
  0
ARC
  5
F4C
330
1F
100
AcDbEntity
  8
0
 62
     7
100
AcDbCircle
 10
663.70923180984
 20
954.0186157926651
 30
0.0
 40
0.100071
100
AcDbArc
 50
90.04608600000118
 51
179.9539150000005
  0
LINE
  5
F4D
330
1F
100
AcDbEntity
  8
0
 62
     7
 48
0.0025
100
AcDbLine
 10
663.60914880984
 20
973.9116817926655
 30
0.0
 11
663.70915480984
 21
973.9116817926655
 31
0.0
  0
LINE
  5
F4E
330
1F
100
AcDbEntity
  8
0
 62
     7
 48
0.2975
100
AcDbLine
 10
663.70915480984
 20
973.9116817926655
 30
0.0
 11
675.60914880984
 21
973.9116817926655
 31
0.0
  0
LINE
  5
F4F
330
1F
100
AcDbEntity
  8
0
 62
     7
 48
0.025
100
AcDbLine
 10
675.60914880984
 20
973.9116817926655
 30
0.0
 11
676.60914880984
 21
973.9116817926655
 31
0.0
  0
LINE
  5
F50
330
1F
100
AcDbEntity
  8
0
 62
     7
 48
0.0025
100
AcDbLine
 10
663.60914880984
 20
955.2807007926652
 30
0.0
 11
663.70915480984
 21
955.2807007926652
 31
0.0
  0
LINE
  5
F51
330
1F
100
AcDbEntity
  8
0
 62
     7
 48
0.2975
100
AcDbLine
 10
663.70915480984
 20
955.2807007926652
 30
0.0
 11
675.60914880984
 21
955.2807007926652
 31
0.0
  0
LINE
  5
F52
330
1F
100
AcDbEntity
  8
0
 62
     7
 48
0.025
100
AcDbLine
 10
675.60914880984
 20
955.2807007926652
 30
0.0
 11
676.60914880984
 21
955.2807007926652
 31
0.0
  0
LINE
  5
F53
330
1F
100
AcDbEntity
  8
0
 62
     7
 48
0.261938
100
AcDbLine
 10
663.60914880984
 20
964.5961917926657
 30
0.0
 11
663.60914880984
 21
975.0736997926653
 31
0.0
  0
LINE
  5
F54
330
1F
100
AcDbEntity
  8
0
 62
     7
 48
0.261935
100
AcDbLine
 10
663.60914880984
 20
954.1187747926654
 30
0.0
 11
663.60914880984
 21
964.5961917926657
 31
0.0
  0
LINE
  5
F55
330
1F
100
AcDbEntity
  8
0
 62
     7
 48
0.261938
100
AcDbLine
 10
663.60914880984
 20
964.5961917926657
 30
0.0
 11
663.60914880984
 21
954.1186677926654
 31
0.0
  0
LINE
  5
F56
330
1F
100
AcDbEntity
  8
0
 62
     7
 48
0.261938
100
AcDbLine
 10
663.60914880984
 20
975.0736997926653
 30
0.0
 11
663.60914880984
 21
964.5961917926657
 31
0.0
  0
LINE
  5
F65
330
1F
100
AcDbEntity
  8
0
  6
DASHDOT
 62
     7
 48
0.417
100
AcDbLine
 10
1178.99914880984
 20
533.4092462576172
 30
0.0
 11
1162.31914080984
 21
533.4092462576172
 31
0.0
  0
LINE
  5
F69
330
1F
100
AcDbEntity
  8
0
 62
     7
 48
0.195775
100
AcDbLine
 10
1177.60914880984
 20
533.4092462576172
 30
0.0
 11
1177.60914880984
 21
525.5782452576171
 31
0.0
  0
LINE
  5
F6A
330
1F
100
AcDbEntity
  8
0
 62
     7
 48
0.208275
100
AcDbLine
 10
1177.10914880984
 20
533.4092462576172
 30
0.0
 11
1177.10914880984
 21
525.0782452576173
 31
0.0
  0
LINE
  5
F6B
330
1F
100
AcDbEntity
  8
0
 62
     7
 48
0.195775
100
AcDbLine
 10
1177.60914880984
 20
541.2402472576173
 30
0.0
 11
1177.60914880984
 21
533.4092462576172
 31
0.0
  0
LINE
  5
F6C
330
1F
100
AcDbEntity
  8
0
 62
     7
 48
0.208275
100
AcDbLine
 10
1177.10914880984
 20
541.7402472576172
 30
0.0
 11
1177.10914880984
 21
533.4092462576172
 31
0.0
  0
LINE
  5
F6D
330
1F
100
AcDbEntity
  8
0
 62
     7
 48
0.017678
100
AcDbLine
 10
1177.60914880984
 20
525.5782452576171
 30
0.0
 11
1177.10914880984
 21
525.0782452576173
 31
0.0
  0
LINE
  5
F6E
330
1F
100
AcDbEntity
  8
0
 62
     7
 48
0.017678
100
AcDbLine
 10
1177.60914880984
 20
541.2402472576173
 30
0.0
 11
1177.10914880984
 21
541.7402472576172
 31
0.0
  0
LINE
  5
F6F
330
1F
100
AcDbEntity
  8
0
 62
     7
 48
0.0125
100
AcDbLine
 10
1177.10914880984
 20
525.0782452576173
 30
0.0
 11
1176.60914880984
 21
525.0782452576173
 31
0.0
  0
LINE
  5
F70
330
1F
100
AcDbEntity
  8
0
 62
     7
 48
0.0125
100
AcDbLine
 10
1177.10914880984
 20
541.7402472576172
 30
0.0
 11
1176.60914880984
 21
541.7402472576172
 31
0.0
  0
LINE
  5
F71
330
1F
100
AcDbEntity
  8
0
 62
     7
 48
0.0125
100
AcDbLine
 10
1177.60914880984
 20
525.9342482576172
 30
0.0
 11
1177.10914880984
 21
525.9342482576172
 31
0.0
  0
LINE
  5
F72
330
1F
100
AcDbEntity
  8
0
 62
     7
 48
0.0125
100
AcDbLine
 10
1177.10914880984
 20
525.9342482576172
 30
0.0
 11
1176.60914880984
 21
525.9342482576172
 31
0.0
  0
LINE
  5
F73
330
1F
100
AcDbEntity
  8
0
 62
     7
 48
0.0125
100
AcDbLine
 10
1177.60914880984
 20
540.8842442576172
 30
0.0
 11
1177.10914880984
 21
540.8842442576172
 31
0.0
  0
LINE
  5
F74
330
1F
100
AcDbEntity
  8
0
 62
     7
 48
0.0125
100
AcDbLine
 10
1177.10914880984
 20
540.8842442576172
 30
0.0
 11
1176.60914880984
 21
540.8842442576172
 31
0.0
  0
LINE
  5
F75
330
1F
100
AcDbEntity
  8
0
 62
     7
 48
0.473875
100
AcDbLine
 10
1176.60914880984
 20
523.931745257617
 30
0.0
 11
1176.60914880984
 21
542.8867472576172
 31
0.0
  0
LINE
  5
F76
330
1F
100
AcDbEntity
  8
0
 62
     7
 48
0.035355
100
AcDbLine
 10
1175.60914880984
 20
522.9317452576172
 30
0.0
 11
1176.60914880984
 21
523.931745257617
 31
0.0
  0
LINE
  5
F77
330
1F
100
AcDbEntity
  8
0
 62
     7
 48
0.035355
100
AcDbLine
 10
1175.60914880984
 20
543.8867472576172
 30
0.0
 11
1176.60914880984
 21
542.8867472576172
 31
0.0
  0
LINE
  5
F78
330
1F
100
AcDbEntity
  8
0
 62
     7
100
AcDbLine
 10
1175.60914880984
 20
522.9317452576172
 30
0.0
 11
1175.60914880984
 21
543.8867472576172
 31
0.0
  0
POLYLINE
  5
F79
330
1F
100
AcDbEntity
  8
0
 62
     7
100
AcDb2dPolyline
 66
     1
 10
0.0
 20
0.0
 30
0.0
  0
VERTEX
  5
F7A
330
F79
100
AcDbEntity
  8
0
100
AcDbVertex
100
AcDb2dVertex
 10
1131.60914880984
 20
543.3685362576174
 30
0.0
  0
VERTEX
  5
F7B
330
F79
100
AcDbEntity
  8
0
100
AcDbVertex
100
AcDb2dVertex
 10
1132.37532380984
 20
543.6545772576172
 30
0.0
  0
VERTEX
  5
F7C
330
F79
100
AcDbEntity
  8
0
100
AcDbVertex
100
AcDb2dVertex
 10
1133.96734880984
 20
544.1419432576171
 30
0.0
  0
VERTEX
  5
F7D
330
F79
100
AcDbEntity
  8
0
100
AcDbVertex
100
AcDb2dVertex
 10
1135.42396880984
 20
544.4751562576173
 30
0.0
  0
VERTEX
  5
F7E
330
F79
100
AcDbEntity
  8
0
100
AcDbVertex
100
AcDb2dVertex
 10
1136.91722380984
 20
544.7151082576173
 30
0.0
  0
VERTEX
  5
F7F
330
F79
100
AcDbEntity
  8
0
100
AcDbVertex
100
AcDb2dVertex
 10
1138.43869280984
 20
544.8603722576173
 30
0.0
  0
VERTEX
  5
F80
330
F79
100
AcDbEntity
  8
0
100
AcDbVertex
100
AcDb2dVertex
 10
1139.98073080984
 20
544.9092462576174
 30
0.0
  0
SEQEND
  5
F81
330
F79
100
AcDbEntity
  8
0
  0
POLYLINE
  5
F82
330
1F
100
AcDbEntity
  8
0
 62
     7
100
AcDb2dPolyline
 66
     1
 10
0.0
 20
0.0
 30
0.0
  0
VERTEX
  5
F83
330
F82
100
AcDbEntity
  8
0
100
AcDbVertex
100
AcDb2dVertex
 10
1131.60914880984
 20
543.3685362576174
 30
0.0
  0
VERTEX
  5
F84
330
F82
100
AcDbEntity
  8
0
100
AcDbVertex
100
AcDb2dVertex
 10
1132.22156080984
 20
543.7338162576171
 30
0.0
  0
VERTEX
  5
F85
330
F82
100
AcDbEntity
  8
0
100
AcDbVertex
100
AcDb2dVertex
 10
1133.18942580984
 20
544.2316262576172
 30
0.0
  0
VERTEX
  5
F86
330
F82
100
AcDbEntity
  8
0
100
AcDbVertex
100
AcDb2dVertex
 10
1134.20541680984
 20
544.6630842576172
 30
0.0
  0
VERTEX
  5
F87
330
F82
100
AcDbEntity
  8
0
100
AcDbVertex
100
AcDb2dVertex
 10
1135.63933080984
 20
545.1325352576173
 30
0.0
  0
VERTEX
  5
F88
330
F82
100
AcDbEntity
  8
0
100
AcDbVertex
100
AcDb2dVertex
 10
1137.13597380984
 20
545.4669172576172
 30
0.0
  0
VERTEX
  5
F89
330
F82
100
AcDbEntity
  8
0
100
AcDbVertex
100
AcDb2dVertex
 10
1138.68168980984
 20
545.6592462576171
 30
0.0
  0
SEQEND
  5
F8A
330
F82
100
AcDbEntity
  8
0
  0
LINE
  5
F8B
330
1F
100
AcDbEntity
  8
0
 62
     7
 48
0.248982
100
AcDbLine
 10
1131.60914880984
 20
533.4092462576172
 30
0.0
 11
1131.60914880984
 21
543.3685362576174
 31
0.0
  0
ARC
  5
F8C
330
1F
100
AcDbEntity
  8
0
 62
     7
100
AcDbCircle
 10
1131.60914880984
 20
533.4092462576172
 30
0.0
 40
9.959291999999999
100
AcDbArc
 50
90.00000299999769
 51
269.9999970000023
  0
POLYLINE
  5
F8D
330
1F
100
AcDbEntity
  8
0
 62
     7
100
AcDb2dPolyline
 66
     1
 10
0.0
 20
0.0
 30
0.0
  0
VERTEX
  5
F8E
330
F8D
100
AcDbEntity
  8
0
100
AcDbVertex
100
AcDb2dVertex
 10
1139.98071580984
 20
521.9092462576171
 30
0.0
  0
VERTEX
  5
F8F
330
F8D
100
AcDbEntity
  8
0
100
AcDbVertex
100
AcDb2dVertex
 10
1138.22053780984
 20
521.9729742576172
 30
0.0
  0
VERTEX
  5
F90
330
F8D
100
AcDbEntity
  8
0
100
AcDbVertex
100
AcDb2dVertex
 10
1136.48849780984
 20
522.1621832576172
 30
0.0
  0
VERTEX
  5
F91
330
F8D
100
AcDbEntity
  8
0
100
AcDbVertex
100
AcDb2dVertex
 10
1134.79632880984
 20
522.474439257617
 30
0.0
  0
VERTEX
  5
F92
330
F8D
100
AcDbEntity
  8
0
100
AcDbVertex
100
AcDb2dVertex
 10
1133.15718380984
 20
522.9076062576173
 30
0.0
  0
VERTEX
  5
F93
330
F8D
100
AcDbEntity
  8
0
100
AcDbVertex
100
AcDb2dVertex
 10
1131.60914880984
 20
523.4499562576171
 30
0.0
  0
SEQEND
  5
F94
330
F8D
100
AcDbEntity
  8
0
  0
POLYLINE
  5
F95
330
1F
100
AcDbEntity
  8
0
 62
     7
100
AcDb2dPolyline
 66
     1
 10
0.0
 20
0.0
 30
0.0
  0
VERTEX
  5
F96
330
F95
100
AcDbEntity
  8
0
100
AcDbVertex
100
AcDb2dVertex
 10
1138.68170480984
 20
521.1592612576172
 30
0.0
  0
VERTEX
  5
F97
330
F95
100
AcDbEntity
  8
0
100
AcDbVertex
100
AcDb2dVertex
 10
1137.13792680984
 20
521.3512402576172
 30
0.0
  0
VERTEX
  5
F98
330
F95
100
AcDbEntity
  8
0
100
AcDbVertex
100
AcDb2dVertex
 10
1135.64305380984
 20
521.6849342576173
 30
0.0
  0
VERTEX
  5
F99
330
F95
100
AcDbEntity
  8
0
100
AcDbVertex
100
AcDb2dVertex
 10
1134.21069680984
 20
522.1533872576173
 30
0.0
  0
VERTEX
  5
F9A
330
F95
100
AcDbEntity
  8
0
100
AcDbVertex
100
AcDb2dVertex
 10
1132.85519680984
 20
522.7487012576172
 30
0.0
  0
VERTEX
  5
F9B
330
F95
100
AcDbEntity
  8
0
100
AcDbVertex
100
AcDb2dVertex
 10
1131.90945680984
 20
523.2656842576171
 30
0.0
  0
VERTEX
  5
F9C
330
F95
100
AcDbEntity
  8
0
100
AcDbVertex
100
AcDb2dVertex
 10
1131.60914880984
 20
523.4499562576171
 30
0.0
  0
SEQEND
  5
F9D
330
F95
100
AcDbEntity
  8
0
  0
ARC
  5
F9E
330
1F
100
AcDbEntity
  8
0
 62
     7
100
AcDbCircle
 10
1139.92874480984
 20
537.3461812576173
 30
0.0
 40
16.234334
100
AcDbArc
 50
265.5945730000015
 51
288.0013369999982
  0
ARC
  5
F9F
330
1F
100
AcDbEntity
  8
0
 62
     7
100
AcDbCircle
 10
1139.92859180984
 20
529.4690152576172
 30
0.0
 40
16.237607
100
AcDbArc
 50
71.98811099999815
 51
94.40395800000123
  0
ARC
  5
FA0
330
1F
100
AcDbEntity
  8
0
 62
     7
100
AcDbCircle
 10
1131.60914880984
 20
533.4092462576172
 30
0.0
 40
24.866025
100
AcDbArc
 50
27.54711399999776
 51
331.3521100000006
  0
ARC
  5
FA1
330
1F
100
AcDbEntity
  8
0
 62
     7
100
AcDbCircle
 10
1131.60914880984
 20
533.4092462576172
 30
0.0
 40
24.866025
100
AcDbArc
 50
331.3521100000006
 51
332.4528110000025
  0
ARC
  5
FA2
330
1F
100
AcDbEntity
  8
0
 62
     7
100
AcDbCircle
 10
1131.60914880984
 20
533.4092462576172
 30
0.0
 40
31.5
100
AcDbArc
 50
21.41236000000111
 51
331.3521100000006
  0
ARC
  5
FA3
330
1F
100
AcDbEntity
  8
0
 62
     7
100
AcDbCircle
 10
1131.60914880984
 20
533.4092462576172
 30
0.0
 40
31.5
100
AcDbArc
 50
331.3521100000006
 51
338.5874249999982
  0
ARC
  5
FA4
330
1F
100
AcDbEntity
  8
0
 62
     7
100
AcDbCircle
 10
1131.60914880984
 20
533.4092462576172
 30
0.0
 40
30.256725
100
AcDbArc
 50
22.33857799999803
 51
331.3521100000006
  0
ARC
  5
FA5
330
1F
100
AcDbEntity
  8
0
 62
     7
100
AcDbCircle
 10
1131.60914880984
 20
533.4092462576172
 30
0.0
 40
30.256725
100
AcDbArc
 50
331.3521100000006
 51
337.661202000001
  0
ARC
  5
FA6
330
1F
100
AcDbEntity
  8
0
 62
     7
100
AcDbCircle
 10
1131.60914880984
 20
533.4092462576172
 30
0.0
 40
26.243275
100
AcDbArc
 50
25.98944000000205
 51
334.0103039999986
  0
ARC
  5
FA7
330
1F
100
AcDbEntity
  8
0
 62
     7
100
AcDbCircle
 10
1131.60914880984
 20
533.4092462576172
 30
0.0
 40
25.0
100
AcDbArc
 50
27.38706900000133
 51
332.6128540000031
  0
LINE
  5
FA8
330
1F
100
AcDbEntity
  8
0
 62
     7
 48
0.248982
100
AcDbLine
 10
1131.60914880984
 20
533.4092462576172
 30
0.0
 11
1131.60914880984
 21
523.4499562576171
 31
0.0
  0
LINE
  5
FA9
330
1F
100
AcDbEntity
  8
0
 62
     7
100
AcDbLine
 10
1163.50914280984
 20
521.9092462576171
 30
0.0
 11
1163.50914280984
 21
544.9092462576174
 31
0.0
  0
LINE
  5
FAA
330
1F
100
AcDbEntity
  8
0
 62
     7
100
AcDbLine
 10
1163.50914280984
 20
521.9092462576171
 30
0.0
 11
1139.98070080984
 21
521.9092462576171
 31
0.0
  0
LINE
  5
FAB
330
1F
100
AcDbEntity
  8
0
 62
     7
100
AcDbLine
 10
1163.50914280984
 20
544.9092462576174
 30
0.0
 11
1139.98073080984
 21
544.9092462576174
 31
0.0
  0
ARC
  5
FAC
330
1F
100
AcDbEntity
  8
0
 62
     7
100
AcDbCircle
 10
1163.50914280984
 20
544.8092482576172
 30
0.0
 40
0.1
100
AcDbArc
 50
0.0
 51
90.00000299999769
  0
ARC
  5
FAD
330
1F
100
AcDbEntity
  8
0
 62
     7
100
AcDbCircle
 10
1163.50914280984
 20
522.0092442576173
 30
0.0
 40
0.1
100
AcDbArc
 50
269.9999970000023
 51
0.0
  0
LINE
  5
FAE
330
1F
100
AcDbEntity
  8
0
 62
     7
100
AcDbLine
 10
1163.60914880984
 20
522.0092442576173
 30
0.0
 11
1163.60914880984
 21
544.8092482576172
 31
0.0
  0
LINE
  5
FAF
330
1F
100
AcDbEntity
  8
0
 62
     7
 48
0.2975
100
AcDbLine
 10
1163.70915480984
 20
543.8867472576172
 30
0.0
 11
1175.60914880984
 21
543.8867472576172
 31
0.0
  0
LINE
  5
FB0
330
1F
100
AcDbEntity
  8
0
 62
     7
 48
0.2975
100
AcDbLine
 10
1163.70915480984
 20
522.9317452576172
 30
0.0
 11
1175.60914880984
 21
522.9317452576172
 31
0.0
  0
LINE
  5
FB1
330
1F
100
AcDbEntity
  8
0
 62
     7
100
AcDbLine
 10
1163.70915480984
 20
522.9317452576172
 30
0.0
 11
1163.70915480984
 21
543.8867472576172
 31
0.0
  0
ARC
  5
FB2
330
1F
100
AcDbEntity
  8
0
 62
     7
100
AcDbCircle
 10
1163.70915480984
 20
522.831747257617
 30
0.0
 40
0.1
100
AcDbArc
 50
90.00000299999769
 51
179.9999949999995
  0
ARC
  5
FB3
330
1F
100
AcDbEntity
  8
0
 62
     7
100
AcDbCircle
 10
1163.70915480984
 20
543.9867452576171
 30
0.0
 40
0.1
100
AcDbArc
 50
180.0000050000005
 51
269.9999970000023
  0
POLYLINE
  5
FB4
330
1F
100
AcDbEntity
  8
0
 62
     7
100
AcDb2dPolyline
 66
     1
 10
0.0
 20
0.0
 30
0.0
  0
VERTEX
  5
FB5
330
FB4
100
AcDbEntity
  8
0
100
AcDbVertex
100
AcDb2dVertex
 10
1132.24698180984
 20
523.209539257617
 30
0.0
  0
VERTEX
  5
FB6
330
FB4
100
AcDbEntity
  8
0
100
AcDbVertex
100
AcDb2dVertex
 10
1132.22551280984
 20
523.1992392576171
 30
0.0
  0
VERTEX
  5
FB7
330
FB4
100
AcDbEntity
  8
0
100
AcDbVertex
100
AcDb2dVertex
 10
1132.20405880984
 20
523.1886732576173
 30
0.0
  0
VERTEX
  5
FB8
330
FB4
100
AcDbEntity
  8
0
100
AcDbVertex
100
AcDb2dVertex
 10
1132.18294080984
 20
523.1726432576173
 30
0.0
  0
VERTEX
  5
FB9
330
FB4
100
AcDbEntity
  8
0
100
AcDbVertex
100
AcDb2dVertex
 10
1132.16115080984
 20
523.1667002576172
 30
0.0
  0
VERTEX
  5
FBA
330
FB4
100
AcDbEntity
  8
0
100
AcDbVertex
100
AcDb2dVertex
 10
1132.08391080984
 20
523.178731257617
 30
0.0
  0
VERTEX
  5
FBB
330
FB4
100
AcDbEntity
  8
0
100
AcDbVertex
100
AcDb2dVertex
 10
1131.94191280984
 20
523.2712992576172
 30
0.0
  0
VERTEX
  5
FBC
330
FB4
100
AcDbEntity
  8
0
100
AcDbVertex
100
AcDb2dVertex
 10
1131.77316580984
 20
523.3646292576171
 30
0.0
  0
VERTEX
  5
FBD
330
FB4
100
AcDbEntity
  8
0
100
AcDbVertex
100
AcDb2dVertex
 10
1131.60914880984
 20
523.4499562576171
 30
0.0
  0
SEQEND
  5
FBE
330
FB4
100
AcDbEntity
  8
0
  0
LINE
  5
FBF
330
1F
100
AcDbEntity
  8
0
 62
     7
 48
0.0025
100
AcDbLine
 10
1163.60914880984
 20
542.7247442576173
 30
0.0
 11
1163.70915480984
 21
542.7247442576173
 31
0.0
  0
LINE
  5
FC0
330
1F
100
AcDbEntity
  8
0
 62
     7
 48
0.2975
100
AcDbLine
 10
1163.70915480984
 20
542.7247442576173
 30
0.0
 11
1175.60914880984
 21
542.7247442576173
 31
0.0
  0
LINE
  5
FC1
330
1F
100
AcDbEntity
  8
0
 62
     7
 48
0.025
100
AcDbLine
 10
1175.60914880984
 20
542.7247442576173
 30
0.0
 11
1176.60914880984
 21
542.7247442576173
 31
0.0
  0
LINE
  5
FC2
330
1F
100
AcDbEntity
  8
0
 62
     7
 48
0.0025
100
AcDbLine
 10
1163.60914880984
 20
524.0937482576172
 30
0.0
 11
1163.70915480984
 21
524.0937482576172
 31
0.0
  0
LINE
  5
FC3
330
1F
100
AcDbEntity
  8
0
 62
     7
 48
0.2975
100
AcDbLine
 10
1163.70915480984
 20
524.0937482576172
 30
0.0
 11
1175.60914880984
 21
524.0937482576172
 31
0.0
  0
LINE
  5
FC4
330
1F
100
AcDbEntity
  8
0
 62
     7
 48
0.025
100
AcDbLine
 10
1175.60914880984
 20
524.0937482576172
 30
0.0
 11
1176.60914880984
 21
524.0937482576172
 31
0.0
  0
LINE
  5
14E7
330
1F
100
AcDbEntity
  8
0
  6
DASHDOT
 62
     7
100
AcDbLine
 10
1161.159167120387
 20
533.4092462576172
 30
0.0
 11
1184.559161016871
 21
533.4092462576172
 31
0.0
  0
LINE
  5
14EA
330
1F
100
AcDbEntity
  8
0
 62
     7
100
AcDbLine
 10
1163.10914880984
 20
515.2227075613279
 30
0.0
 11
1163.10914880984
 21
521.9092462576172
 31
0.0
  0
LINE
  5
14EB
330
1F
100
AcDbEntity
  8
0
 62
     7
100
AcDbLine
 10
1163.10914880984
 20
551.5957849539063
 30
0.0
 11
1131.60914880984
 21
569.7823083914062
 31
0.0
  0
LINE
  5
14EC
330
1F
100
AcDbEntity
  8
0
 62
     7
100
AcDbLine
 10
1131.60914880984
 20
569.7823083914062
 30
0.0
 11
1100.10914880984
 21
551.5957849539063
 31
0.0
  0
LINE
  5
14ED
330
1F
100
AcDbEntity
  8
0
 62
     7
100
AcDbLine
 10
1100.10914880984
 20
551.5957849539063
 30
0.0
 11
1100.10914880984
 21
515.2227075613279
 31
0.0
  0
LINE
  5
14EE
330
1F
100
AcDbEntity
  8
0
 62
     7
100
AcDbLine
 10
1100.10914880984
 20
515.2227075613279
 30
0.0
 11
1131.60914880984
 21
497.0361841238282
 31
0.0
  0
LINE
  5
14EF
330
1F
100
AcDbEntity
  8
0
 62
     7
100
AcDbLine
 10
1131.60914880984
 20
497.0361841238282
 30
0.0
 11
1163.10914880984
 21
515.2227075613279
 31
0.0
  0
LINE
  5
14F0
330
1F
100
AcDbEntity
  8
0
 62
     7
 48
0.0856407165527344
100
AcDbLine
 10
1142.60914880984
 20
565.4092462576171
 30
0.0
 11
1139.18352014773
 21
565.4092462576171
 31
0.0
  0
LINE
  5
14F1
330
1F
100
AcDbEntity
  8
0
 62
     7
 48
0.0010013580322266
100
AcDbLine
 10
1182.60914880984
 20
552.4488122976562
 30
0.0
 11
1182.60914880984
 21
552.4888666189451
 31
0.0
  0
LINE
  5
14F2
330
1F
100
AcDbEntity
  8
0
 62
     7
 48
0.3279914855957031
100
AcDbLine
 10
1182.60914880984
 20
552.4488122976562
 30
0.0
 11
1182.60914880984
 21
539.3291528738282
 31
0.0
  0
LINE
  5
14F3
330
1F
100
AcDbEntity
  8
0
 62
     7
 48
0.2960189819335937
100
AcDbLine
 10
1182.60914880984
 20
527.4883935964843
 30
0.0
 11
1182.60914880984
 21
539.3291528738282
 31
0.0
  0
LINE
  5
14F4
330
1F
100
AcDbEntity
  8
0
 62
     7
 48
0.3259895324707031
100
AcDbLine
 10
1182.60914880984
 20
527.4883935964843
 30
0.0
 11
1182.60914880984
 21
514.4488122976563
 31
0.0
  0
LINE
  5
14F5
330
1F
100
AcDbEntity
  8
0
 62
     7
 48
0.0009891510009766
100
AcDbLine
 10
1182.60914880984
 20
514.4092462576171
 30
0.0
 11
1182.60914880984
 21
514.4488122976563
 31
0.0
  0
LINE
  5
14F6
330
1F
100
AcDbEntity
  8
0
 62
     7
 48
0.275
100
AcDbLine
 10
1171.60914880984
 20
514.4488122976563
 30
0.0
 11
1182.60914880984
 21
514.4488122976563
 31
0.0
  0
LINE
  5
14F7
330
1F
100
AcDbEntity
  8
0
 62
     7
 48
0.0009891510009766
100
AcDbLine
 10
1171.60914880984
 20
514.4092462576171
 30
0.0
 11
1171.60914880984
 21
514.4488122976563
 31
0.0
  0
LINE
  5
14FC
330
1F
100
AcDbEntity
  8
0
 62
     7
 48
0.275
100
AcDbLine
 10
1171.60914880984
 20
552.4488122976562
 30
0.0
 11
1182.60914880984
 21
552.4488122976562
 31
0.0
  0
LINE
  5
14FD
330
1F
100
AcDbEntity
  8
0
 62
     7
 48
0.3279914855957031
100
AcDbLine
 10
1171.60914880984
 20
552.4488122976562
 30
0.0
 11
1171.60914880984
 21
543.8867472576172
 31
0.0
  0
LINE
  5
14FE
330
1F
100
AcDbEntity
  8
0
 62
     7
 48
0.0010013580322266
100
AcDbLine
 10
1171.60914880984
 20
552.4488122976562
 30
0.0
 11
1171.60914880984
 21
552.4888666189451
 31
0.0
  0
LINE
  5
14FF
330
1F
100
AcDbEntity
  8
0
 62
     7
 48
0.2
100
AcDbLine
 10
1163.60914880984
 20
520.4092462576173
 30
0.0
 11
1171.60914880984
 21
520.4092462576173
 31
0.0
  0
LINE
  5
1500
330
1F
100
AcDbEntity
  8
0
 62
     7
 48
0.2
100
AcDbLine
 10
1163.60914880984
 20
546.4092462576171
 30
0.0
 11
1171.60914880984
 21
546.4092462576171
 31
0.0
  0
LINE
  5
1501
330
1F
100
AcDbEntity
  8
0
 62
     7
100
AcDbLine
 10
1163.60914880984
 20
520.4092462576173
 30
0.0
 11
1163.60914880984
 21
546.4092462576171
 31
0.0
  0
LINE
  5
1504
330
1F
100
AcDbEntity
  8
0
 62
     7
 48
0.0856407165527344
100
AcDbLine
 10
1124.034777471949
 20
565.4092462576171
 30
0.0
 11
1120.60914880984
 21
565.4092462576171
 31
0.0
  0
LINE
  5
1506
330
1F
100
AcDbEntity
  8
0
 62
     7
 48
0.0494434356689453
100
AcDbLine
 10
1142.60914880984
 20
563.4315088308595
 30
0.0
 11
1142.60914880984
 21
565.4092462576171
 31
0.0
  0
LINE
  5
1507
330
1F
100
AcDbEntity
  8
0
 62
     7
 48
0.275
100
AcDbLine
 10
1171.60914880984
 20
514.4092462576171
 30
0.0
 11
1182.60914880984
 21
514.4092462576171
 31
0.0
  0
LINE
  5
1508
330
1F
100
AcDbEntity
  8
0
 62
     7
 48
0.275
100
AcDbLine
 10
1171.60914880984
 20
552.4888666189451
 30
0.0
 11
1182.60914880984
 21
552.4888666189451
 31
0.0
  0
LINE
  5
1509
330
1F
100
AcDbEntity
  8
0
 62
     7
 48
0.0494441986083984
100
AcDbLine
 10
1120.60914880984
 20
563.4314783132812
 30
0.0
 11
1120.60914880984
 21
565.4092462576171
 31
0.0
  0
LINE
  5
1A00
330
1F
100
AcDbEntity
  8
0
 62
     7
 48
0.3259895324707031
100
AcDbLine
 10
1171.60914880984
 20
522.9317452576172
 30
0.0
 11
1171.60914880984
 21
514.4488122976563
 31
0.0
  0
LINE
  5
1A01
330
1F
100
AcDbEntity
  8
0
 62
     7
 48
0.275
100
AcDbLine
 10
1177.60914880984
 20
527.4883935964843
 30
0.0
 11
1182.60914880984
 21
527.4883935964843
 31
0.0
  0
LINE
  5
1A02
330
1F
100
AcDbEntity
  8
0
 62
     7
 48
0.275
100
AcDbLine
 10
1177.60914880984
 20
539.3291528738282
 30
0.0
 11
1182.60914880984
 21
539.3291528738282
 31
0.0
  0
LINE
  5
1A03
330
1F
100
AcDbEntity
  8
0
 62
     7
100
AcDbLine
 10
1163.10914880984
 20
544.9092462576174
 30
0.0
 11
1163.10914880984
 21
551.5957849539063
 31
0.0
  0
POLYLINE
  5
1CC4
330
1F
100
AcDbEntity
  8
0
 62
     7
100
AcDb2dPolyline
 66
     1
 10
0.0
 20
0.0
 30
0.0
  0
VERTEX
  5
1CC5
330
1CC4
100
AcDbEntity
  8
0
100
AcDbVertex
100
AcDb2dVertex
 10
634.3104580139415
 20
380.0243950229402
 30
0.0
  0
VERTEX
  5
1CC6
330
1CC4
100
AcDbEntity
  8
0
100
AcDbVertex
100
AcDb2dVertex
 10
635.5421169494883
 20
379.8868522983308
 30
0.0
  0
VERTEX
  5
1CC7
330
1CC4
100
AcDbEntity
  8
0
100
AcDbVertex
100
AcDb2dVertex
 10
636.7778804992931
 20
379.7003441196199
 30
0.0
  0
VERTEX
  5
1CC8
330
1CC4
100
AcDbEntity
  8
0
100
AcDbVertex
100
AcDb2dVertex
 10
638.0211055969494
 20
379.4661369662996
 30
0.0
  0
VERTEX
  5
1CC9
330
1CC4
100
AcDbEntity
  8
0
100
AcDbVertex
100
AcDb2dVertex
 10
639.2685726379649
 20
379.1870689731355
 30
0.0
  0
VERTEX
  5
1CCA
330
1CC4
100
AcDbEntity
  8
0
100
AcDbVertex
100
AcDb2dVertex
 10
641.7127865051525
 20
378.5243950229402
 30
0.0
  0
SEQEND
  5
1CCB
330
1CC4
100
AcDbEntity
  8
0
  0
LINE
  5
1CCC
330
1F
100
AcDbEntity
  8
0
 62
     7
 48
0.1350654602050781
100
AcDbLine
 10
634.3104580139415
 20
380.0243950229402
 30
0.0
 11
628.9078396057383
 21
380.0243950229402
 31
0.0
  0
POLYLINE
  5
1CCD
330
1F
100
AcDbEntity
  8
0
 62
     7
100
AcDb2dPolyline
 66
     1
 10
0.0
 20
0.0
 30
0.0
  0
VERTEX
  5
1CCE
330
1CCD
100
AcDbEntity
  8
0
100
AcDbVertex
100
AcDb2dVertex
 10
628.9078396057383
 20
380.0243950229402
 30
0.0
  0
VERTEX
  5
1CCF
330
1CCD
100
AcDbEntity
  8
0
100
AcDbVertex
100
AcDb2dVertex
 10
627.6761806701914
 20
379.8868522983308
 30
0.0
  0
VERTEX
  5
1CD0
330
1CCD
100
AcDbEntity
  8
0
100
AcDbVertex
100
AcDb2dVertex
 10
626.4404171203866
 20
379.7003441196199
 30
0.0
  0
VERTEX
  5
1CD1
330
1CCD
100
AcDbEntity
  8
0
100
AcDbVertex
100
AcDb2dVertex
 10
625.1971920227306
 20
379.4661369662996
 30
0.0
  0
VERTEX
  5
1CD2
330
1CCD
100
AcDbEntity
  8
0
100
AcDbVertex
100
AcDb2dVertex
 10
623.949724981715
 20
379.1870689731355
 30
0.0
  0
VERTEX
  5
1CD3
330
1CCD
100
AcDbEntity
  8
0
100
AcDbVertex
100
AcDb2dVertex
 10
621.5055111145275
 20
378.5243950229402
 30
0.0
  0
SEQEND
  5
1CD4
330
1CCD
100
AcDbEntity
  8
0
  0
LINE
  5
1CD5
330
1F
100
AcDbEntity
  8
0
 62
     7
 48
0.1
100
AcDbLine
 10
621.5055111145275
 20
378.5243950229402
 30
0.0
 11
621.5055111145275
 21
374.5243950229402
 31
0.0
  0
POLYLINE
  5
1CD6
330
1F
100
AcDbEntity
  8
0
 62
     7
100
AcDb2dPolyline
 66
     1
 10
0.0
 20
0.0
 30
0.0
  0
VERTEX
  5
1CD7
330
1CD6
100
AcDbEntity
  8
0
100
AcDbVertex
100
AcDb2dVertex
 10
628.9078396057383
 20
373.0243950229402
 30
0.0
  0
VERTEX
  5
1CD8
330
1CD6
100
AcDbEntity
  8
0
100
AcDbVertex
100
AcDb2dVertex
 10
627.6761806701914
 20
373.1619377475496
 30
0.0
  0
VERTEX
  5
1CD9
330
1CD6
100
AcDbEntity
  8
0
100
AcDbVertex
100
AcDb2dVertex
 10
626.4404171203866
 20
373.3484459262605
 30
0.0
  0
VERTEX
  5
1CDA
330
1CD6
100
AcDbEntity
  8
0
100
AcDbVertex
100
AcDb2dVertex
 10
625.1971920227306
 20
373.5826530795808
 30
0.0
  0
VERTEX
  5
1CDB
330
1CD6
100
AcDbEntity
  8
0
100
AcDbVertex
100
AcDb2dVertex
 10
623.949724981715
 20
373.8617210727449
 30
0.0
  0
VERTEX
  5
1CDC
330
1CD6
100
AcDbEntity
  8
0
100
AcDbVertex
100
AcDb2dVertex
 10
621.5055111145275
 20
374.5243950229402
 30
0.0
  0
SEQEND
  5
1CDD
330
1CD6
100
AcDbEntity
  8
0
  0
LINE
  5
1CDE
102
{ACAD_REACTORS
330
1D7F
330
1D97
102
}
330
1F
100
AcDbEntity
  8
0
 62
     7
 48
0.1350654602050781
100
AcDbLine
 10
634.3104580139415
 20
373.0243950229402
 30
0.0
 11
628.9078396057383
 21
373.0243950229402
 31
0.0
  0
POLYLINE
  5
1CDF
330
1F
100
AcDbEntity
  8
0
 62
     7
100
AcDb2dPolyline
 66
     1
 10
0.0
 20
0.0
 30
0.0
  0
VERTEX
  5
1CE0
330
1CDF
100
AcDbEntity
  8
0
100
AcDbVertex
100
AcDb2dVertex
 10
634.3104580139415
 20
373.0243950229402
 30
0.0
  0
VERTEX
  5
1CE1
330
1CDF
100
AcDbEntity
  8
0
100
AcDbVertex
100
AcDb2dVertex
 10
635.5421169494883
 20
373.1619377475496
 30
0.0
  0
VERTEX
  5
1CE2
330
1CDF
100
AcDbEntity
  8
0
100
AcDbVertex
100
AcDb2dVertex
 10
636.7778804992931
 20
373.3484459262605
 30
0.0
  0
VERTEX
  5
1CE3
330
1CDF
100
AcDbEntity
  8
0
100
AcDbVertex
100
AcDb2dVertex
 10
638.0211055969494
 20
373.5826530795808
 30
0.0
  0
VERTEX
  5
1CE4
330
1CDF
100
AcDbEntity
  8
0
100
AcDbVertex
100
AcDb2dVertex
 10
639.2685726379649
 20
373.8617210727449
 30
0.0
  0
VERTEX
  5
1CE5
330
1CDF
100
AcDbEntity
  8
0
100
AcDbVertex
100
AcDb2dVertex
 10
641.7127865051525
 20
374.5243950229402
 30
0.0
  0
SEQEND
  5
1CE6
330
1CDF
100
AcDbEntity
  8
0
  0
LINE
  5
1CE7
330
1F
100
AcDbEntity
  8
0
 62
     7
 48
0.1
100
AcDbLine
 10
641.7127865051525
 20
378.5243950229402
 30
0.0
 11
641.7127865051525
 21
374.5243950229402
 31
0.0
  0
POLYLINE
  5
1CE8
330
1F
100
AcDbEntity
  8
0
 62
     7
100
AcDb2dPolyline
 66
     1
 10
0.0
 20
0.0
 30
0.0
  0
VERTEX
  5
1CE9
330
1CE8
100
AcDbEntity
  8
0
100
AcDbVertex
100
AcDb2dVertex
 10
617.8043544983164
 20
380.0243950229402
 30
0.0
  0
VERTEX
  5
1CEA
330
1CE8
100
AcDbEntity
  8
0
100
AcDbVertex
100
AcDb2dVertex
 10
618.3962429260508
 20
379.8931084018465
 30
0.0
  0
VERTEX
  5
1CEB
330
1CE8
100
AcDbEntity
  8
0
100
AcDbVertex
100
AcDb2dVertex
 10
618.9900234436289
 20
379.7165336948152
 30
0.0
  0
VERTEX
  5
1CEC
330
1CE8
100
AcDbEntity
  8
0
100
AcDbVertex
100
AcDb2dVertex
 10
619.6355770324961
 20
379.4760704379793
 30
0.0
  0
VERTEX
  5
1CED
330
1CE8
100
AcDbEntity
  8
0
100
AcDbVertex
100
AcDb2dVertex
 10
620.2834194397227
 20
379.1870689731355
 30
0.0
  0
VERTEX
  5
1CEE
330
1CE8
100
AcDbEntity
  8
0
100
AcDbVertex
100
AcDb2dVertex
 10
621.5055111145275
 20
378.5243950229402
 30
0.0
  0
SEQEND
  5
1CEF
330
1CE8
100
AcDbEntity
  8
0
  0
LINE
  5
1CF0
330
1F
100
AcDbEntity
  8
0
 62
     7
 48
0.0675327301025391
100
AcDbLine
 10
617.8043544983164
 20
380.0243950229402
 30
0.0
 11
615.103045294215
 21
380.0243950229402
 31
0.0
  0
POLYLINE
  5
1CF1
330
1F
100
AcDbEntity
  8
0
 62
     7
100
AcDb2dPolyline
 66
     1
 10
0.0
 20
0.0
 30
0.0
  0
VERTEX
  5
1CF2
330
1CF1
100
AcDbEntity
  8
0
100
AcDbVertex
100
AcDb2dVertex
 10
615.103045294215
 20
380.0243950229402
 30
0.0
  0
VERTEX
  5
1CF3
330
1CF1
100
AcDbEntity
  8
0
100
AcDbVertex
100
AcDb2dVertex
 10
614.5111568664806
 20
379.8931084018465
 30
0.0
  0
VERTEX
  5
1CF4
330
1CF1
100
AcDbEntity
  8
0
100
AcDbVertex
100
AcDb2dVertex
 10
613.9173916076916
 20
379.7165336948152
 30
0.0
  0
VERTEX
  5
1CF5
330
1CF1
100
AcDbEntity
  8
0
100
AcDbVertex
100
AcDb2dVertex
 10
613.2718380188244
 20
379.4760704379793
 30
0.0
  0
VERTEX
  5
1CF6
330
1CF1
100
AcDbEntity
  8
0
100
AcDbVertex
100
AcDb2dVertex
 10
612.6239956115977
 20
379.1870689731355
 30
0.0
  0
VERTEX
  5
1CF7
330
1CF1
100
AcDbEntity
  8
0
100
AcDbVertex
100
AcDb2dVertex
 10
611.4018886780042
 20
378.5243950229402
 30
0.0
  0
SEQEND
  5
1CF8
330
1CF1
100
AcDbEntity
  8
0
  0
LINE
  5
1CF9
330
1F
100
AcDbEntity
  8
0
 62
     7
 48
0.1
100
AcDbLine
 10
611.4018886780042
 20
378.5243950229402
 30
0.0
 11
611.4018886780042
 21
374.5243950229402
 31
0.0
  0
POLYLINE
  5
1CFA
330
1F
100
AcDbEntity
  8
0
 62
     7
100
AcDb2dPolyline
 66
     1
 10
0.0
 20
0.0
 30
0.0
  0
VERTEX
  5
1CFB
330
1CFA
100
AcDbEntity
  8
0
100
AcDbVertex
100
AcDb2dVertex
 10
615.103045294215
 20
373.0243950229402
 30
0.0
  0
VERTEX
  5
1CFC
330
1CFA
100
AcDbEntity
  8
0
100
AcDbVertex
100
AcDb2dVertex
 10
614.5111568664806
 20
373.155681644034
 30
0.0
  0
VERTEX
  5
1CFD
330
1CFA
100
AcDbEntity
  8
0
100
AcDbVertex
100
AcDb2dVertex
 10
613.9173916076916
 20
373.3322563510652
 30
0.0
  0
VERTEX
  5
1CFE
330
1CFA
100
AcDbEntity
  8
0
100
AcDbVertex
100
AcDb2dVertex
 10
613.2718380188244
 20
373.5727196079011
 30
0.0
  0
VERTEX
  5
1CFF
330
1CFA
100
AcDbEntity
  8
0
100
AcDbVertex
100
AcDb2dVertex
 10
612.6239956115977
 20
373.8617210727449
 30
0.0
  0
VERTEX
  5
1D00
330
1CFA
100
AcDbEntity
  8
0
100
AcDbVertex
100
AcDb2dVertex
 10
611.4018886780042
 20
374.5243950229402
 30
0.0
  0
SEQEND
  5
1D01
330
1CFA
100
AcDbEntity
  8
0
  0
LINE
  5
1D02
330
1F
100
AcDbEntity
  8
0
 62
     7
 48
0.0675327301025391
100
AcDbLine
 10
617.8043544983164
 20
373.0243950229402
 30
0.0
 11
615.103045294215
 21
373.0243950229402
 31
0.0
  0
POLYLINE
  5
1D03
330
1F
100
AcDbEntity
  8
0
 62
     7
100
AcDb2dPolyline
 66
     1
 10
0.0
 20
0.0
 30
0.0
  0
VERTEX
  5
1D04
330
1D03
100
AcDbEntity
  8
0
100
AcDbVertex
100
AcDb2dVertex
 10
617.8043544983164
 20
373.0243950229402
 30
0.0
  0
VERTEX
  5
1D05
330
1D03
100
AcDbEntity
  8
0
100
AcDbVertex
100
AcDb2dVertex
 10
618.3962429260508
 20
373.155681644034
 30
0.0
  0
VERTEX
  5
1D06
330
1D03
100
AcDbEntity
  8
0
100
AcDbVertex
100
AcDb2dVertex
 10
618.9900234436289
 20
373.3322563510652
 30
0.0
  0
VERTEX
  5
1D07
330
1D03
100
AcDbEntity
  8
0
100
AcDbVertex
100
AcDb2dVertex
 10
619.6355770324961
 20
373.5727196079011
 30
0.0
  0
VERTEX
  5
1D08
330
1D03
100
AcDbEntity
  8
0
100
AcDbVertex
100
AcDb2dVertex
 10
620.2834194397227
 20
373.8617210727449
 30
0.0
  0
VERTEX
  5
1D09
330
1D03
100
AcDbEntity
  8
0
100
AcDbVertex
100
AcDb2dVertex
 10
621.5055111145275
 20
374.5243950229402
 30
0.0
  0
SEQEND
  5
1D0A
330
1D03
100
AcDbEntity
  8
0
  0
LINE
  5
1D0B
330
1F
100
AcDbEntity
  8
0
 62
     7
 48
0.1
100
AcDbLine
 10
651.8164089416758
 20
378.5243950229402
 30
0.0
 11
651.8164089416758
 21
374.5243950229402
 31
0.0
  0
POLYLINE
  5
1D0C
330
1F
100
AcDbEntity
  8
0
 62
     7
100
AcDb2dPolyline
 66
     1
 10
0.0
 20
0.0
 30
0.0
  0
VERTEX
  5
1D0D
330
1D0C
100
AcDbEntity
  8
0
100
AcDbVertex
100
AcDb2dVertex
 10
648.115252325465
 20
380.0243950229402
 30
0.0
  0
VERTEX
  5
1D0E
330
1D0C
100
AcDbEntity
  8
0
100
AcDbVertex
100
AcDb2dVertex
 10
648.7071407531994
 20
379.8931084018465
 30
0.0
  0
VERTEX
  5
1D0F
330
1D0C
100
AcDbEntity
  8
0
100
AcDbVertex
100
AcDb2dVertex
 10
649.3009060119883
 20
379.7165336948152
 30
0.0
  0
VERTEX
  5
1D10
330
1D0C
100
AcDbEntity
  8
0
100
AcDbVertex
100
AcDb2dVertex
 10
649.9464596008556
 20
379.4760704379793
 30
0.0
  0
VERTEX
  5
1D11
330
1D0C
100
AcDbEntity
  8
0
100
AcDbVertex
100
AcDb2dVertex
 10
650.5943020080819
 20
379.1870689731355
 30
0.0
  0
VERTEX
  5
1D12
330
1D0C
100
AcDbEntity
  8
0
100
AcDbVertex
100
AcDb2dVertex
 10
651.8164089416758
 20
378.5243950229402
 30
0.0
  0
SEQEND
  5
1D13
330
1D0C
100
AcDbEntity
  8
0
  0
LINE
  5
1D14
330
1F
100
AcDbEntity
  8
0
 62
     7
 48
0.0675327301025391
100
AcDbLine
 10
648.115252325465
 20
380.0243950229402
 30
0.0
 11
645.4139431213633
 21
380.0243950229402
 31
0.0
  0
POLYLINE
  5
1D15
330
1F
100
AcDbEntity
  8
0
 62
     7
100
AcDb2dPolyline
 66
     1
 10
0.0
 20
0.0
 30
0.0
  0
VERTEX
  5
1D16
330
1D15
100
AcDbEntity
  8
0
100
AcDbVertex
100
AcDb2dVertex
 10
645.4139431213633
 20
380.0243950229402
 30
0.0
  0
VERTEX
  5
1D17
330
1D15
100
AcDbEntity
  8
0
100
AcDbVertex
100
AcDb2dVertex
 10
644.822054693629
 20
379.8931084018465
 30
0.0
  0
VERTEX
  5
1D18
330
1D15
100
AcDbEntity
  8
0
100
AcDbVertex
100
AcDb2dVertex
 10
644.2282741760508
 20
379.7165336948152
 30
0.0
  0
VERTEX
  5
1D19
330
1D15
100
AcDbEntity
  8
0
100
AcDbVertex
100
AcDb2dVertex
 10
643.5827205871836
 20
379.4760704379793
 30
0.0
  0
VERTEX
  5
1D1A
330
1D15
100
AcDbEntity
  8
0
100
AcDbVertex
100
AcDb2dVertex
 10
642.934878179957
 20
379.1870689731355
 30
0.0
  0
VERTEX
  5
1D1B
330
1D15
100
AcDbEntity
  8
0
100
AcDbVertex
100
AcDb2dVertex
 10
641.7127865051525
 20
378.5243950229402
 30
0.0
  0
SEQEND
  5
1D1C
330
1D15
100
AcDbEntity
  8
0
  0
POLYLINE
  5
1D1D
330
1F
100
AcDbEntity
  8
0
 62
     7
100
AcDb2dPolyline
 66
     1
 10
0.0
 20
0.0
 30
0.0
  0
VERTEX
  5
1D1E
330
1D1D
100
AcDbEntity
  8
0
100
AcDbVertex
100
AcDb2dVertex
 10
645.4139431213633
 20
373.0243950229402
 30
0.0
  0
VERTEX
  5
1D1F
330
1D1D
100
AcDbEntity
  8
0
100
AcDbVertex
100
AcDb2dVertex
 10
644.822054693629
 20
373.155681644034
 30
0.0
  0
VERTEX
  5
1D20
330
1D1D
100
AcDbEntity
  8
0
100
AcDbVertex
100
AcDb2dVertex
 10
644.2282741760508
 20
373.3322563510652
 30
0.0
  0
VERTEX
  5
1D21
330
1D1D
100
AcDbEntity
  8
0
100
AcDbVertex
100
AcDb2dVertex
 10
643.5827205871836
 20
373.5727196079011
 30
0.0
  0
VERTEX
  5
1D22
330
1D1D
100
AcDbEntity
  8
0
100
AcDbVertex
100
AcDb2dVertex
 10
642.934878179957
 20
373.8617210727449
 30
0.0
  0
VERTEX
  5
1D23
330
1D1D
100
AcDbEntity
  8
0
100
AcDbVertex
100
AcDb2dVertex
 10
641.7127865051525
 20
374.5243950229402
 30
0.0
  0
SEQEND
  5
1D24
330
1D1D
100
AcDbEntity
  8
0
  0
LINE
  5
1D25
330
1F
100
AcDbEntity
  8
0
 62
     7
 48
0.0675327301025391
100
AcDbLine
 10
648.115252325465
 20
373.0243950229402
 30
0.0
 11
645.4139431213633
 21
373.0243950229402
 31
0.0
  0
POLYLINE
  5
1D26
330
1F
100
AcDbEntity
  8
0
 62
     7
100
AcDb2dPolyline
 66
     1
 10
0.0
 20
0.0
 30
0.0
  0
VERTEX
  5
1D27
330
1D26
100
AcDbEntity
  8
0
100
AcDbVertex
100
AcDb2dVertex
 10
648.115252325465
 20
373.0243950229402
 30
0.0
  0
VERTEX
  5
1D28
330
1D26
100
AcDbEntity
  8
0
100
AcDbVertex
100
AcDb2dVertex
 10
648.7071407531994
 20
373.155681644034
 30
0.0
  0
VERTEX
  5
1D29
330
1D26
100
AcDbEntity
  8
0
100
AcDbVertex
100
AcDb2dVertex
 10
649.3009060119883
 20
373.3322563510652
 30
0.0
  0
VERTEX
  5
1D2A
330
1D26
100
AcDbEntity
  8
0
100
AcDbVertex
100
AcDb2dVertex
 10
649.9464596008556
 20
373.5727196079011
 30
0.0
  0
VERTEX
  5
1D2B
330
1D26
100
AcDbEntity
  8
0
100
AcDbVertex
100
AcDb2dVertex
 10
650.5943020080819
 20
373.8617210727449
 30
0.0
  0
VERTEX
  5
1D2C
330
1D26
100
AcDbEntity
  8
0
100
AcDbVertex
100
AcDb2dVertex
 10
651.8164089416758
 20
374.5243950229402
 30
0.0
  0
SEQEND
  5
1D2D
330
1D26
100
AcDbEntity
  8
0
  0
LINE
  5
1D2E
330
1F
100
AcDbEntity
  8
0
 62
     7
 48
0.2775871276855469
100
AcDbLine
 10
617.8043544983164
 20
373.0243950229402
 30
0.0
 11
628.9078396057383
 21
373.0243950229402
 31
0.0
  0
LINE
  5
1D2F
330
1F
100
AcDbEntity
  8
0
 62
     7
 48
0.0300289154052734
100
AcDbLine
 10
613.9018886780039
 20
373.0243950229402
 30
0.0
 11
615.103045294215
 21
373.0243950229402
 31
0.0
  0
LINE
  5
1D30
330
1F
100
AcDbEntity
  8
0
 62
     7
 48
0.0300289154052734
100
AcDbLine
 10
648.115252325465
 20
373.0243950229402
 30
0.0
 11
649.3164089416758
 21
373.0243950229402
 31
0.0
  0
LINE
  5
1D31
330
1F
100
AcDbEntity
  8
0
 62
     7
 48
0.2775871276855469
100
AcDbLine
 10
634.3104580139415
 20
373.0243950229402
 30
0.0
 11
645.4139431213633
 21
373.0243950229402
 31
0.0
  0
LINE
  5
1D32
330
1F
100
AcDbEntity
  8
0
 62
     7
 48
0.2775871276855469
100
AcDbLine
 10
617.8043544983164
 20
380.0243950229402
 30
0.0
 11
628.9078396057383
 21
380.0243950229402
 31
0.0
  0
LINE
  5
1D33
330
1F
100
AcDbEntity
  8
0
 62
     7
 48
0.0300289154052734
100
AcDbLine
 10
613.9018886780039
 20
380.0243950229402
 30
0.0
 11
615.103045294215
 21
380.0243950229402
 31
0.0
  0
LINE
  5
1D34
330
1F
100
AcDbEntity
  8
0
 62
     7
 48
0.0300289154052734
100
AcDbLine
 10
648.115252325465
 20
380.0243950229402
 30
0.0
 11
649.3164089416758
 21
380.0243950229402
 31
0.0
  0
LINE
  5
1D35
330
1F
100
AcDbEntity
  8
0
 62
     7
 48
0.2775871276855469
100
AcDbLine
 10
634.3104580139415
 20
380.0243950229402
 30
0.0
 11
645.4139431213633
 21
380.0243950229402
 31
0.0
  0
LINE
  5
1D36
330
1F
100
AcDbEntity
  8
0
 62
     7
 48
0.0728868986855663
100
AcDbLine
 10
649.3164089416758
 20
373.0243950229402
 30
0.0
 11
651.8164089416758
 21
374.5243950229402
 31
0.0
  0
LINE
  5
1D37
330
1F
100
AcDbEntity
  8
0
 62
     7
 48
0.0728868986855663
100
AcDbLine
 10
649.3164089416758
 20
380.0243950229402
 30
0.0
 11
651.8164089416758
 21
378.5243950229402
 31
0.0
  0
LINE
  5
1D38
330
1F
100
AcDbEntity
  8
0
 62
     7
 48
0.0728868986855663
100
AcDbLine
 10
613.9018886780039
 20
380.0243950229402
 30
0.0
 11
611.4018886780042
 21
378.5243950229402
 31
0.0
  0
LINE
  5
1D39
330
1F
100
AcDbEntity
  8
0
 62
     7
 48
0.0728868986855663
100
AcDbLine
 10
613.9018886780039
 20
373.0243950229402
 30
0.0
 11
611.4018886780042
 21
374.5243950229402
 31
0.0
  0
DIMENSION
  5
1D71
102
{ACAD_XDICTIONARY
360
1D7E
102
}
102
{ACAD_REACTORS
330
1D7F
102
}
330
1F
100
AcDbEntity
  8
AM_5
100
AcDbDimension
  2
*D16
 10
791.6091488098405
 20
535.0243950229399
 30
0.0
 11
783.0466488098402
 21
454.0243950229402
 31
0.0
 70
    32
  1
(<>)
 71
     5
 42
162.0
  3
AM_DIN$0
100
AcDbAlignedDimension
 13
631.60914880984
 23
373.0243950229402
 33
0.0
 14
761.6091488098406
 24
535.0243950229402
 34
0.0
 50
90.00000000000005
100
AcDbRotatedDimension
1001
ACAD
1000
DSTYLE
1002
{
1070
    40
1040
2.5
1002
}
  0
DIMENSION
  5
1D89
102
{ACAD_XDICTIONARY
360
1D96
102
}
102
{ACAD_REACTORS
330
1D97
102
}
330
1F
100
AcDbEntity
  8
AM_5
100
AcDbDimension
  2
*D17
 10
821.4732128221648
 20
976.0961917926652
 30
0.0
 11
821.4732128221646
 21
674.5602934078029
 31
0.0
 70
   160
  1
(<>)
 71
     5
 42
603.0717967697252
  3
AM_DIN$0
100
AcDbAlignedDimension
 13
631.60914880984
 23
373.0243950229402
 33
0.0
 14
647.5591458098398
 24
976.0961917926657
 34
0.0
 50
90.00000000000005
100
AcDbRotatedDimension
1001
ACAD
1000
DSTYLE
1002
{
1070
    40
1040
2.5
1070
   271
1070
     0
1002
}
  0
LINE
  5
1E53
330
1F
100
AcDbEntity
  8
LOGO_VON_SCHLASSE_120709
 62
     7
100
AcDbLine
 10
1344.341129648492
 20
175.8409171901633
 30
0.0
 11
1344.341129648492
 21
181.4540328340056
 31
0.0
  0
LINE
  5
1E54
330
1F
100
AcDbEntity
  8
LOGO_VON_SCHLASSE_120709
 62
     7
100
AcDbLine
 10
1344.341129648492
 20
181.4540328340056
 30
0.0
 11
1340.133671166845
 21
181.4540328340056
 31
0.0
  0
SPLINE
  5
1E55
330
1F
100
AcDbEntity
  8
LOGO_VON_SCHLASSE_120709
 62
     7
100
AcDbSpline
210
0.0
220
0.0
230
1.0
 70
     8
 71
     3
 72
     8
 73
     4
 74
     0
 42
0.0000000001
 43
0.0000000001
 40
8.739716666666684
 40
8.739716666666684
 40
8.739716666666684
 40
8.739716666666684
 40
9.739716666666687
 40
9.739716666666687
 40
9.739716666666687
 40
9.739716666666687
 10
1340.133671478976
 20
181.4540324594484
 30
0.0
 10
1334.1463489246
 20
181.4540324594484
 30
0.0
 10
1331.395288375912
 20
177.7837054248238
 30
0.0
 10
1331.395288375912
 20
172.0084603046756
 30
0.0
  0
LINE
  5
1E56
330
1F
100
AcDbEntity
  8
LOGO_VON_SCHLASSE_120709
 62
     7
100
AcDbLine
 10
1331.395288438339
 20
172.008460554381
 30
0.0
 11
1331.395288438339
 21
153.9382739388309
 31
0.0
  0
LINE
  5
1E57
330
1F
100
AcDbEntity
  8
LOGO_VON_SCHLASSE_120709
 62
     7
100
AcDbLine
 10
1331.395288438339
 20
153.9382739388309
 30
0.0
 11
1337.329096625544
 21
153.9382739388309
 31
0.0
  0
LINE
  5
1E58
330
1F
100
AcDbEntity
  8
LOGO_VON_SCHLASSE_120709
 62
     7
100
AcDbLine
 10
1337.329096625544
 20
153.9382739388309
 30
0.0
 11
1337.329096625544
 21
171.4689509185499
 31
0.0
  0
SPLINE
  5
1E59
330
1F
100
AcDbEntity
  8
LOGO_VON_SCHLASSE_120709
 62
     7
100
AcDbSpline
210
0.0
220
0.0
230
1.0
 70
     8
 71
     3
 72
     8
 73
     4
 74
     0
 42
0.0000000001
 43
0.0000000001
 40
46.70306666666665
 40
46.70306666666665
 40
46.70306666666665
 40
46.70306666666665
 40
47.70306666666665
 40
47.70306666666665
 40
47.70306666666665
 40
47.70306666666665
 10
1337.329096063708
 20
171.4689511682546
 30
0.0
 10
1337.329096063708
 20
174.1672896631991
 30
0.0
 10
1338.46162920313
 20
175.8409175647207
 30
0.0
 10
1341.374423570819
 20
175.8409175647207
 30
0.0
  0
LINE
  5
1E5A
330
1F
100
AcDbEntity
  8
LOGO_VON_SCHLASSE_120709
 62
     7
100
AcDbLine
 10
1341.374423882951
 20
175.8409171901633
 30
0.0
 11
1344.341129648492
 21
175.8409171901633
 31
0.0
  0
LINE
  5
1E5B
330
1F
100
AcDbEntity
  8
LOGO_VON_SCHLASSE_120709
 62
     7
100
AcDbLine
 10
1366.832713979134
 20
165.4278759034452
 30
0.0
 11
1366.832713979134
 21
170.821381142572
 31
0.0
  0
SPLINE
  5
1E5C
330
1F
100
AcDbEntity
  8
LOGO_VON_SCHLASSE_120709
 62
     7
100
AcDbSpline
210
0.0
220
0.0
230
1.0
 70
     8
 71
     3
 72
     8
 73
     4
 74
     0
 42
0.0000000001
 43
0.0000000001
 40
4.799894444444444
 40
4.799894444444444
 40
4.799894444444444
 40
4.799894444444444
 40
5.799894444444443
 40
5.799894444444443
 40
5.799894444444443
 40
5.799894444444443
 10
1366.832714103987
 20
170.8213816419814
 30
0.0
 10
1366.832714103987
 20
177.1908399843889
 30
0.0
 10
1363.596452098296
 20
181.4545874284351
 30
0.0
 10
1357.23095782008
 20
181.4545874284351
 30
0.0
  0
LINE
  5
1E5D
330
1F
100
AcDbEntity
  8
LOGO_VON_SCHLASSE_120709
 62
     7
100
AcDbLine
 10
1357.230958069786
 20
181.4545879278452
 30
0.0
 11
1356.098820587668
 21
181.4545879278452
 31
0.0
  0
SPLINE
  5
1E5E
330
1F
100
AcDbEntity
  8
LOGO_VON_SCHLASSE_120709
 62
     7
100
AcDbSpline
210
0.0
220
0.0
230
1.0
 70
     8
 71
     3
 72
     8
 73
     4
 74
     0
 42
0.0000000001
 43
0.0000000001
 40
6.807427777777782
 40
6.807427777777782
 40
6.807427777777782
 40
6.807427777777782
 40
7.807427777777782
 40
7.807427777777782
 40
7.807427777777782
 40
7.807427777777782
 10
1356.098821087079
 20
181.4545874284351
 30
0.0
 10
1349.679415535861
 20
181.4545874284351
 30
0.0
 10
1346.335330984171
 20
177.1908399843889
 30
0.0
 10
1346.335330984171
 20
170.8213816419814
 30
0.0
  0
LINE
  5
1E5F
330
1F
100
AcDbEntity
  8
LOGO_VON_SCHLASSE_120709
 62
     7
100
AcDbLine
 10
1346.335331233877
 20
170.821381142572
 30
0.0
 11
1346.335331233877
 21
164.5648993787275
 31
0.0
  0
SPLINE
  5
1E60
330
1F
100
AcDbEntity
  8
LOGO_VON_SCHLASSE_120709
 62
     7
100
AcDbSpline
210
0.0
220
0.0
230
1.0
 70
     8
 71
     3
 72
     8
 73
     4
 74
     0
 42
0.0000000001
 43
0.0000000001
 40
13.37531944444445
 40
13.37531944444445
 40
13.37531944444445
 40
13.37531944444445
 40
14.37531944444445
 40
14.37531944444445
 40
14.37531944444445
 40
14.37531944444445
 10
1346.335330984171
 20
164.5648991290229
 30
0.0
 10
1346.335330984171
 20
157.4985583018035
 30
0.0
 10
1350.272835945282
 20
153.9384322516939
 30
0.0
 10
1356.799271229661
 20
153.9384322516939
 30
0.0
  0
LINE
  5
1E61
330
1F
100
AcDbEntity
  8
LOGO_VON_SCHLASSE_120709
 62
     7
100
AcDbLine
 10
1356.799271479367
 20
153.9384323765463
 30
0.0
 11
1365.484139341291
 21
153.9384323765463
 31
0.0
  0
LINE
  5
1E62
330
1F
100
AcDbEntity
  8
LOGO_VON_SCHLASSE_120709
 62
     7
100
AcDbLine
 10
1365.484139341291
 20
153.9384323765463
 30
0.0
 11
1365.484139341291
 21
159.2249078825105
 31
0.0
  0
LINE
  5
1E63
330
1F
100
AcDbEntity
  8
LOGO_VON_SCHLASSE_120709
 62
     7
100
AcDbLine
 10
1365.484139341291
 20
159.2249078825105
 30
0.0
 11
1357.339176647649
 21
159.2249078825105
 31
0.0
  0
SPLINE
  5
1E64
330
1F
100
AcDbEntity
  8
LOGO_VON_SCHLASSE_120709
 62
     7
100
AcDbSpline
210
0.0
220
0.0
230
1.0
 70
     8
 71
     3
 72
     8
 73
     4
 74
     0
 42
0.0000000001
 43
0.0000000001
 40
34.05749722222223
 40
34.05749722222223
 40
34.05749722222223
 40
34.05749722222223
 40
35.05749722222223
 40
35.05749722222223
 40
35.05749722222223
 40
35.05749722222223
 10
1357.3391767725
 20
159.2249082570677
 30
0.0
 10
1353.941180947811
 20
159.2249082570677
 30
0.0
 10
1352.268345859127
 20
161.3282407169143
 30
0.0
 10
1352.268345859127
 20
164.1871238116018
 30
0.0
  0
LINE
  5
1E65
330
1F
100
AcDbEntity
  8
LOGO_VON_SCHLASSE_120709
 62
     7
100
AcDbLine
 10
1352.268346108832
 20
164.1871243110116
 30
0.0
 11
1352.268346108832
 21
165.4278759034452
 31
0.0
  0
LINE
  5
1E66
330
1F
100
AcDbEntity
  8
LOGO_VON_SCHLASSE_120709
 62
     7
100
AcDbLine
 10
1352.268346108832
 20
165.4278759034452
 30
0.0
 11
1366.832713979134
 21
165.4278759034452
 31
0.0
  0
LINE
  5
1E67
330
1F
100
AcDbEntity
  8
LOGO_VON_SCHLASSE_120709
 62
     7
100
AcDbLine
 10
1360.898906915602
 20
169.8509782285677
 30
0.0
 11
1352.268346108832
 21
169.8509782285677
 31
0.0
  0
LINE
  5
1E68
330
1F
100
AcDbEntity
  8
LOGO_VON_SCHLASSE_120709
 62
     7
100
AcDbLine
 10
1352.268346108832
 20
169.8509782285677
 30
0.0
 11
1352.268346108832
 21
171.3612874345264
 31
0.0
  0
SPLINE
  5
1E69
330
1F
100
AcDbEntity
  8
LOGO_VON_SCHLASSE_120709
 62
     7
100
AcDbSpline
210
0.0
220
0.0
230
1.0
 70
     8
 71
     3
 72
     8
 73
     4
 74
     0
 42
0.0000000001
 43
0.0000000001
 40
9.024761111111118
 40
9.024761111111118
 40
9.024761111111118
 40
9.024761111111118
 40
10.02476111111112
 40
10.02476111111112
 40
10.02476111111112
 40
10.02476111111112
 10
1352.268345859127
 20
171.3612871848216
 30
0.0
 10
1352.268345859127
 20
174.0596256797662
 30
0.0
 10
1353.29384926539
 20
176.4888042161291
 30
0.0
 10
1356.152732360077
 20
176.4888042161291
 30
0.0
  0
LINE
  5
1E6A
330
1F
100
AcDbEntity
  8
LOGO_VON_SCHLASSE_120709
 62
     7
100
AcDbLine
 10
1356.152732110373
 20
176.4888038415714
 30
0.0
 11
1357.069223501672
 21
176.4888038415714
 31
0.0
  0
SPLINE
  5
1E6B
330
1F
100
AcDbEntity
  8
LOGO_VON_SCHLASSE_120709
 62
     7
100
AcDbSpline
210
0.0
220
0.0
230
1.0
 70
     8
 71
     3
 72
     8
 73
     4
 74
     0
 42
0.0000000001
 43
0.0000000001
 40
10.84038333333334
 40
10.84038333333334
 40
10.84038333333334
 40
10.84038333333334
 40
11.84038333333335
 40
11.84038333333335
 40
11.84038333333335
 40
11.84038333333335
 10
1357.06922400108
 20
176.4888042161291
 30
0.0
 10
1359.928503502187
 20
176.4888042161291
 30
0.0
 10
1360.898906416191
 20
174.0596256797662
 30
0.0
 10
1360.898906416191
 20
171.3612871848216
 30
0.0
  0
LINE
  5
1E6C
330
1F
100
AcDbEntity
  8
LOGO_VON_SCHLASSE_120709
 62
     7
100
AcDbLine
 10
1360.898906915602
 20
171.3612874345264
 30
0.0
 11
1360.898906915602
 21
169.8509782285677
 31
0.0
  0
LINE
  5
1E6D
330
1F
100
AcDbEntity
  8
LOGO_VON_SCHLASSE_120709
 62
     7
100
AcDbLine
 10
1382.878294699379
 20
186.7401521360287
 30
0.0
 11
1382.878294699379
 21
192.2418759530172
 31
0.0
  0
LINE
  5
1E6E
330
1F
100
AcDbEntity
  8
LOGO_VON_SCHLASSE_120709
 62
     7
100
AcDbLine
 10
1382.878294699379
 20
192.2418759530172
 30
0.0
 11
1378.940789363712
 21
192.2418759530172
 31
0.0
  0
SPLINE
  5
1E6F
330
1F
100
AcDbEntity
  8
LOGO_VON_SCHLASSE_120709
 62
     7
100
AcDbSpline
210
0.0
220
0.0
230
1.0
 70
     8
 71
     3
 72
     8
 73
     4
 74
     0
 42
0.0000000001
 43
0.0000000001
 40
8.400344444444426
 40
8.400344444444426
 40
8.400344444444426
 40
8.400344444444426
 40
9.400344444444426
 40
9.400344444444426
 40
9.400344444444426
 40
9.400344444444426
 10
1378.940789613415
 20
192.241876390001
 30
0.0
 10
1374.948976972885
 20
192.241876390001
 30
0.0
 10
1371.820141106776
 20
190.2463664761546
 30
0.0
 10
1371.820141106776
 20
184.4746890137786
 30
0.0
  0
LINE
  5
1E70
330
1F
100
AcDbEntity
  8
LOGO_VON_SCHLASSE_120709
 62
     7
100
AcDbLine
 10
1371.820141106779
 20
184.4746894507622
 30
0.0
 11
1371.820141106779
 21
181.4540721625166
 31
0.0
  0
LINE
  5
1E71
330
1F
100
AcDbEntity
  8
LOGO_VON_SCHLASSE_120709
 62
     7
100
AcDbLine
 10
1371.820141106779
 20
181.4540721625166
 30
0.0
 11
1368.044765871677
 21
181.4540721625166
 31
0.0
  0
LINE
  5
1E72
330
1F
100
AcDbEntity
  8
LOGO_VON_SCHLASSE_120709
 62
     7
100
AcDbLine
 10
1368.044765871677
 20
181.4540721625166
 30
0.0
 11
1368.044765871677
 21
176.2187327100619
 31
0.0
  0
LINE
  5
1E73
330
1F
100
AcDbEntity
  8
LOGO_VON_SCHLASSE_120709
 62
     7
100
AcDbLine
 10
1368.044765871677
 20
176.2187327100619
 30
0.0
 11
1371.820141106779
 21
176.2187327100619
 31
0.0
  0
LINE
  5
1E74
330
1F
100
AcDbEntity
  8
LOGO_VON_SCHLASSE_120709
 62
     7
100
AcDbLine
 10
1371.820141106779
 20
176.2187327100619
 30
0.0
 11
1371.820141106779
 21
153.9387099234657
 31
0.0
  0
LINE
  5
1E75
330
1F
100
AcDbEntity
  8
LOGO_VON_SCHLASSE_120709
 62
     7
100
AcDbLine
 10
1371.820141106779
 20
153.9387099234657
 30
0.0
 11
1377.753949293983
 21
153.9387099234657
 31
0.0
  0
LINE
  5
1E76
330
1F
100
AcDbEntity
  8
LOGO_VON_SCHLASSE_120709
 62
     7
100
AcDbLine
 10
1377.753949293983
 20
153.9387099234657
 30
0.0
 11
1377.753949293983
 21
176.2187327100619
 31
0.0
  0
LINE
  5
1E77
330
1F
100
AcDbEntity
  8
LOGO_VON_SCHLASSE_120709
 62
     7
100
AcDbLine
 10
1377.753949293983
 20
176.2187327100619
 30
0.0
 11
1382.338785063548
 21
176.2187327100619
 31
0.0
  0
LINE
  5
1E78
330
1F
100
AcDbEntity
  8
LOGO_VON_SCHLASSE_120709
 62
     7
100
AcDbLine
 10
1382.338785063548
 20
176.2187327100619
 30
0.0
 11
1382.338785063548
 21
181.4540721625166
 31
0.0
  0
LINE
  5
1E79
330
1F
100
AcDbEntity
  8
LOGO_VON_SCHLASSE_120709
 62
     7
100
AcDbLine
 10
1382.338785063548
 20
181.4540721625166
 30
0.0
 11
1377.753949293983
 21
181.4540721625166
 31
0.0
  0
LINE
  5
1E7A
330
1F
100
AcDbEntity
  8
LOGO_VON_SCHLASSE_120709
 62
     7
100
AcDbLine
 10
1377.753949293983
 20
181.4540721625166
 30
0.0
 11
1377.753949293983
 21
184.2590433599422
 31
0.0
  0
SPLINE
  5
1E7B
330
1F
100
AcDbEntity
  8
LOGO_VON_SCHLASSE_120709
 62
     7
100
AcDbSpline
210
0.0
220
0.0
230
1.0
 70
     8
 71
     3
 72
     8
 73
     4
 74
     0
 42
0.0000000001
 43
0.0000000001
 40
83.7196861111111
 40
83.7196861111111
 40
83.7196861111111
 40
83.7196861111111
 40
84.7196861111111
 40
84.7196861111111
 40
84.7196861111111
 40
84.7196861111111
 10
1377.753948794572
 20
184.2590439217776
 30
0.0
 10
1377.753948794572
 20
186.2545538356238
 30
0.0
 10
1378.832967067415
 20
186.7401516990451
 30
0.0
 10
1380.073322752838
 20
186.7401516990451
 30
0.0
  0
LINE
  5
1E7C
330
1F
100
AcDbEntity
  8
LOGO_VON_SCHLASSE_120709
 62
     7
100
AcDbLine
 10
1380.073322378283
 20
186.7401521360287
 30
0.0
 11
1382.878294699379
 21
186.7401521360287
 31
0.0
  0
LINE
  5
1E7D
330
1F
100
AcDbEntity
  8
LOGO_VON_SCHLASSE_120709
 62
     7
100
AcDbLine
 10
1391.912476147538
 20
192.2416388582805
 30
0.0
 11
1385.979064616456
 21
192.2416388582805
 31
0.0
  0
LINE
  5
1E7E
330
1F
100
AcDbEntity
  8
LOGO_VON_SCHLASSE_120709
 62
     7
100
AcDbLine
 10
1385.979064616456
 20
192.2416388582805
 30
0.0
 11
1385.979064616456
 21
153.9376795164812
 31
0.0
  0
LINE
  5
1E7F
330
1F
100
AcDbEntity
  8
LOGO_VON_SCHLASSE_120709
 62
     7
100
AcDbLine
 10
1385.979064616456
 20
153.9376795164812
 30
0.0
 11
1391.912476147538
 21
153.9376795164812
 31
0.0
  0
LINE
  5
1E80
330
1F
100
AcDbEntity
  8
LOGO_VON_SCHLASSE_120709
 62
     7
100
AcDbLine
 10
1391.912476147538
 20
153.9376795164812
 30
0.0
 11
1391.912476147538
 21
192.2416388582805
 31
0.0
  0
LINE
  5
1E81
330
1F
100
AcDbEntity
  8
LOGO_VON_SCHLASSE_120709
 62
     7
100
AcDbLine
 10
1416.511674252207
 20
165.4274792473211
 30
0.0
 11
1416.511674252207
 21
170.821381142572
 31
0.0
  0
SPLINE
  5
1E82
330
1F
100
AcDbEntity
  8
LOGO_VON_SCHLASSE_120709
 62
     7
100
AcDbSpline
210
0.0
220
0.0
230
1.0
 70
     8
 71
     3
 72
     8
 73
     4
 74
     0
 42
0.0000000001
 43
0.0000000001
 40
4.800247222222195
 40
4.800247222222195
 40
4.800247222222195
 40
4.800247222222195
 40
5.800247222222195
 40
5.800247222222195
 40
5.800247222222195
 40
5.800247222222195
 10
1416.511674689191
 20
170.8213816419814
 30
0.0
 10
1416.511674689191
 20
177.1900471715506
 30
0.0
 10
1413.2754126835
 20
181.4541910220161
 30
0.0
 10
1406.909918405286
 20
181.4541910220161
 30
0.0
  0
LINE
  5
1E83
330
1F
100
AcDbEntity
  8
LOGO_VON_SCHLASSE_120709
 62
     7
100
AcDbLine
 10
1406.909918342859
 20
181.4541912717208
 30
0.0
 11
1405.776988672162
 21
181.4541912717208
 31
0.0
  0
SPLINE
  5
1E84
330
1F
100
AcDbEntity
  8
LOGO_VON_SCHLASSE_120709
 62
     7
100
AcDbSpline
210
0.0
220
0.0
230
1.0
 70
     8
 71
     3
 72
     8
 73
     4
 74
     0
 42
0.0000000001
 43
0.0000000001
 40
6.808486111111077
 40
6.808486111111077
 40
6.808486111111077
 40
6.808486111111077
 40
7.808486111111077
 40
7.808486111111077
 40
7.808486111111077
 40
7.808486111111077
 10
1405.776988859442
 20
181.4541910220161
 30
0.0
 10
1399.358376121064
 20
181.4541910220161
 30
0.0
 10
1396.013895162955
 20
177.1900471715506
 30
0.0
 10
1396.013895162955
 20
170.8213816419814
 30
0.0
  0
LINE
  5
1E85
330
1F
100
AcDbEntity
  8
LOGO_VON_SCHLASSE_120709
 62
     7
100
AcDbLine
 10
1396.013894850825
 20
170.821381142572
 30
0.0
 11
1396.013894850825
 21
164.5645027226039
 31
0.0
  0
SPLINE
  5
1E86
330
1F
100
AcDbEntity
  8
LOGO_VON_SCHLASSE_120709
 62
     7
100
AcDbSpline
210
0.0
220
0.0
230
1.0
 70
     8
 71
     3
 72
     8
 73
     4
 74
     0
 42
0.0000000001
 43
0.0000000001
 40
13.37673055555552
 40
13.37673055555552
 40
13.37673055555552
 40
13.37673055555552
 40
14.37673055555552
 40
14.37673055555552
 40
14.37673055555552
 40
14.37673055555552
 10
1396.013895162955
 20
164.5645027226037
 30
0.0
 10
1396.013895162955
 20
157.4981618953842
 30
0.0
 10
1399.952192936904
 20
153.9384322516939
 30
0.0
 10
1406.478231814863
 20
153.9384322516939
 30
0.0
  0
LINE
  5
1E87
330
1F
100
AcDbEntity
  8
LOGO_VON_SCHLASSE_120709
 62
     7
100
AcDbLine
 10
1406.478231752438
 20
153.9384323765463
 30
0.0
 11
1415.163099614365
 21
153.9384323765463
 31
0.0
  0
LINE
  5
1E88
330
1F
100
AcDbEntity
  8
LOGO_VON_SCHLASSE_120709
 62
     7
100
AcDbLine
 10
1415.163099614365
 20
153.9384323765463
 30
0.0
 11
1415.163099614365
 21
159.2249078825105
 31
0.0
  0
LINE
  5
1E89
330
1F
100
AcDbEntity
  8
LOGO_VON_SCHLASSE_120709
 62
     7
100
AcDbLine
 10
1415.163099614365
 20
159.2249078825105
 30
0.0
 11
1407.018136920721
 21
159.2249078825105
 31
0.0
  0
SPLINE
  5
1E8A
330
1F
100
AcDbEntity
  8
LOGO_VON_SCHLASSE_120709
 62
     7
100
AcDbSpline
210
0.0
220
0.0
230
1.0
 70
     8
 71
     3
 72
     8
 73
     4
 74
     0
 42
0.0000000001
 43
0.0000000001
 40
34.05890833333331
 40
34.05890833333331
 40
34.05890833333331
 40
34.05890833333331
 40
35.05890833333331
 40
35.05890833333331
 40
35.05890833333331
 40
35.05890833333331
 10
1407.018137357705
 20
159.2249082570677
 30
0.0
 10
1403.620141533015
 20
159.2249082570677
 30
0.0
 10
1401.947702850751
 20
161.3278443104949
 30
0.0
 10
1401.947702850751
 20
164.1867274051829
 30
0.0
  0
LINE
  5
1E8B
330
1F
100
AcDbEntity
  8
LOGO_VON_SCHLASSE_120709
 62
     7
100
AcDbLine
 10
1401.94770303803
 20
164.1867276548877
 30
0.0
 11
1401.94770303803
 21
165.4274792473211
 31
0.0
  0
LINE
  5
1E8C
330
1F
100
AcDbEntity
  8
LOGO_VON_SCHLASSE_120709
 62
     7
100
AcDbLine
 10
1401.94770303803
 20
165.4274792473211
 30
0.0
 11
1416.511674252207
 21
165.4274792473211
 31
0.0
  0
LINE
  5
1E8D
330
1F
100
AcDbEntity
  8
LOGO_VON_SCHLASSE_120709
 62
     7
100
AcDbLine
 10
1410.577867188673
 20
169.8505826961154
 30
0.0
 11
1401.94770303803
 21
169.8505826961154
 31
0.0
  0
LINE
  5
1E8E
330
1F
100
AcDbEntity
  8
LOGO_VON_SCHLASSE_120709
 62
     7
100
AcDbLine
 10
1401.94770303803
 20
169.8505826961154
 30
0.0
 11
1401.94770303803
 21
171.3612874345264
 31
0.0
  0
SPLINE
  5
1E8F
330
1F
100
AcDbEntity
  8
LOGO_VON_SCHLASSE_120709
 62
     7
100
AcDbSpline
210
0.0
220
0.0
230
1.0
 70
     8
 71
     3
 72
     8
 73
     4
 74
     0
 42
0.0000000001
 43
0.0000000001
 40
9.024761111111132
 40
9.024761111111132
 40
9.024761111111132
 40
9.024761111111132
 40
10.02476111111113
 40
10.02476111111113
 40
10.02476111111113
 40
10.02476111111113
 10
1401.947702850751
 20
171.3612871848216
 30
0.0
 10
1401.947702850751
 20
174.0596256797662
 30
0.0
 10
1402.972809850594
 20
176.4884078097093
 30
0.0
 10
1405.831296538862
 20
176.4884078097093
 30
0.0
  0
LINE
  5
1E90
330
1F
100
AcDbEntity
  8
LOGO_VON_SCHLASSE_120709
 62
     7
100
AcDbLine
 10
1405.831296850993
 20
176.4884083091193
 30
0.0
 11
1406.748184898415
 21
176.4884083091193
 31
0.0
  0
SPLINE
  5
1E91
330
1F
100
AcDbEntity
  8
LOGO_VON_SCHLASSE_120709
 62
     7
100
AcDbSpline
210
0.0
220
0.0
230
1.0
 70
     8
 71
     3
 72
     8
 73
     4
 74
     0
 42
0.0000000001
 43
0.0000000001
 40
10.84073611111112
 40
10.84073611111112
 40
10.84073611111112
 40
10.84073611111112
 40
11.84073611111112
 40
11.84073611111112
 40
11.84073611111112
 40
11.84073611111112
 10
1406.748184586283
 20
176.4884078097093
 30
0.0
 10
1409.607067680972
 20
176.4884078097093
 30
0.0
 10
1410.577867001395
 20
174.0596256797662
 30
0.0
 10
1410.577867001395
 20
171.3612871848216
 30
0.0
  0
LINE
  5
1E92
330
1F
100
AcDbEntity
  8
LOGO_VON_SCHLASSE_120709
 62
     7
100
AcDbLine
 10
1410.577867188673
 20
171.3612874345264
 30
0.0
 11
1410.577867188673
 21
169.8505826961154
 31
0.0
  0
SPLINE
  5
1E93
330
1F
100
AcDbEntity
  8
LOGO_VON_SCHLASSE_120709
 62
     7
100
AcDbSpline
210
0.0
220
0.0
230
1.0
 70
     8
 71
     3
 72
     8
 73
     4
 74
     0
 42
0.0000000001
 43
0.0000000001
 40
0.0
 40
0.0
 40
0.0
 40
0.0
 40
1.0
 40
1.0
 40
1.0
 40
1.0
 10
1436.183343237982
 20
167.7434047194461
 30
0.0
 10
1438.608161303734
 20
169.5807484720635
 30
0.0
 10
1439.858736288063
 20
172.5446792800985
 30
0.0
 10
1439.858427149635
 20
176.4358046778925
 30
0.0
  0
LINE
  5
1E94
330
1F
100
AcDbEntity
  8
LOGO_VON_SCHLASSE_120709
 62
     7
100
AcDbLine
 10
1439.858426712652
 20
176.4358047403188
 30
0.0
 11
1439.8580311802
 21
181.4253724626247
 31
0.0
  0
LINE
  5
1E95
330
1F
100
AcDbEntity
  8
LOGO_VON_SCHLASSE_120709
 62
     7
100
AcDbLine
 10
1439.8580311802
 20
181.4253724626247
 30
0.0
 11
1433.90043823329
 21
181.4253724626247
 31
0.0
  0
LINE
  5
1E96
330
1F
100
AcDbEntity
  8
LOGO_VON_SCHLASSE_120709
 62
     7
100
AcDbLine
 10
1433.90043823329
 20
181.4253724626247
 30
0.0
 11
1433.90043823329
 21
175.8939174150874
 31
0.0
  0
SPLINE
  5
1E97
330
1F
100
AcDbEntity
  8
LOGO_VON_SCHLASSE_120709
 62
     7
100
AcDbSpline
210
0.0
220
0.0
230
1.0
 70
     8
 71
     3
 72
     8
 73
     4
 74
     0
 42
0.0000000001
 43
0.0000000001
 40
15.66497223623581
 40
15.66497223623581
 40
15.66497223623581
 40
15.66497223623581
 40
16.66497223623581
 40
16.66497223623581
 40
16.66497223623581
 40
16.66497223623581
 10
1433.900438670274
 20
175.8939171029568
 30
0.0
 10
1433.900438670274
 20
173.1836864154385
 30
0.0
 10
1432.871367606241
 20
170.7675892909066
 30
0.0
 10
1430.00059231898
 20
170.7675892909066
 30
0.0
  0
LINE
  5
1E98
330
1F
100
AcDbEntity
  8
LOGO_VON_SCHLASSE_120709
 62
     7
100
AcDbLine
 10
1430.000592755964
 20
170.7675898527426
 30
0.0
 11
1429.079740394643
 21
170.7675898527426
 31
0.0
  0
SPLINE
  5
1E99
330
1F
100
AcDbEntity
  8
LOGO_VON_SCHLASSE_120709
 62
     7
100
AcDbSpline
210
0.0
220
0.0
230
1.0
 70
     8
 71
     3
 72
     8
 73
     4
 74
     0
 42
0.0000000001
 43
0.0000000001
 40
17.48447501401361
 40
17.48447501401361
 40
17.48447501401361
 40
17.48447501401361
 40
18.48447501401361
 40
18.48447501401361
 40
18.48447501401361
 40
18.48447501401361
 10
1429.079740207367
 20
170.7675892909066
 30
0.0
 10
1426.208964920105
 20
170.7675892909066
 30
0.0
 10
1425.23420153549
 20
173.1836864154385
 30
0.0
 10
1425.23420153549
 20
175.8939171029568
 30
0.0
  0
LINE
  5
1E9A
330
1F
100
AcDbEntity
  8
LOGO_VON_SCHLASSE_120709
 62
     7
100
AcDbLine
 10
1425.234201972474
 20
175.8939174150874
 30
0.0
 11
1425.234201972474
 21
181.4253724626247
 31
0.0
  0
LINE
  5
1E9B
330
1F
100
AcDbEntity
  8
LOGO_VON_SCHLASSE_120709
 62
     7
100
AcDbLine
 10
1425.234201972474
 20
181.4253724626247
 30
0.0
 11
1419.275816836988
 21
181.4253724626247
 31
0.0
  0
LINE
  5
1E9C
330
1F
100
AcDbEntity
  8
LOGO_VON_SCHLASSE_120709
 62
     7
100
AcDbLine
 10
1419.275816836988
 20
181.4253724626247
 30
0.0
 11
1419.275816836988
 21
176.4358047403188
 31
0.0
  0
SPLINE
  5
1E9D
330
1F
100
AcDbEntity
  8
LOGO_VON_SCHLASSE_120709
 62
     7
100
AcDbSpline
210
0.0
220
0.0
230
1.0
 70
     8
 71
     3
 72
     8
 73
     4
 74
     0
 42
0.0000000001
 43
0.0000000001
 40
33.1501527917914
 40
33.1501527917914
 40
33.1501527917914
 40
33.1501527917914
 40
34.1501527917914
 40
34.1501527917914
 40
34.1501527917914
 40
34.1501527917914
 10
1419.275816649709
 20
176.4358046778925
 30
0.0
 10
1419.275816649709
 20
172.4535057914204
 30
0.0
 10
1420.537181875345
 20
169.4289248135412
 30
0.0
 10
1423.030578251605
 20
167.6102121626222
 30
0.0
  0
SPLINE
  5
1E9E
330
1F
100
AcDbEntity
  8
LOGO_VON_SCHLASSE_120709
 62
     7
100
AcDbSpline
210
0.0
220
0.0
230
1.0
 70
     8
 71
     3
 72
     8
 73
     4
 74
     0
 42
0.0000000001
 43
0.0000000001
 40
34.1501527917914
 40
34.1501527917914
 40
34.1501527917914
 40
34.1501527917914
 40
35.1501527917914
 40
35.1501527917914
 40
35.1501527917914
 40
35.1501527917914
 10
1423.030578251605
 20
167.6102121626222
 30
0.0
 10
1420.605760185853
 20
165.7736612228429
 30
0.0
 10
1419.354855491597
 20
162.6519606197982
 30
0.0
 10
1419.355494339951
 20
158.763610107139
 30
0.0
  0
LINE
  5
1E9F
330
1F
100
AcDbEntity
  8
LOGO_VON_SCHLASSE_120709
 62
     7
100
AcDbLine
 10
1419.355494152672
 20
158.7636102944176
 30
0.0
 11
1419.35628746492
 21
153.9381548296266
 31
0.0
  0
LINE
  5
1EA0
330
1F
100
AcDbEntity
  8
LOGO_VON_SCHLASSE_120709
 62
     7
100
AcDbLine
 10
1419.35628746492
 20
153.9381548296266
 30
0.0
 11
1425.313482632035
 21
153.9381548296266
 31
0.0
  0
LINE
  5
1EA1
330
1F
100
AcDbEntity
  8
LOGO_VON_SCHLASSE_120709
 62
     7
100
AcDbLine
 10
1425.313482632035
 20
153.9381548296266
 30
0.0
 11
1425.313482632035
 21
159.3054976196482
 31
0.0
  0
SPLINE
  5
1EA2
330
1F
100
AcDbEntity
  8
LOGO_VON_SCHLASSE_120709
 62
     7
100
AcDbSpline
210
0.0
220
0.0
230
1.0
 70
     8
 71
     3
 72
     8
 73
     4
 74
     0
 42
0.0000000001
 43
0.0000000001
 40
49.52267229419653
 40
49.52267229419653
 40
49.52267229419653
 40
49.52267229419653
 40
50.52267229419655
 40
50.52267229419655
 40
50.52267229419655
 40
50.52267229419655
 10
1425.313482819313
 20
159.3054976820745
 30
0.0
 10
1425.313482819313
 20
162.0137463374973
 30
0.0
 10
1426.342950289765
 20
164.5856311847428
 30
0.0
 10
1429.213329170607
 20
164.5856311847428
 30
0.0
  0
LINE
  5
1EA3
330
1F
100
AcDbEntity
  8
LOGO_VON_SCHLASSE_120709
 62
     7
100
AcDbLine
 10
1429.213329233034
 20
164.5856311223164
 30
0.0
 11
1430.134181594355
 21
164.5856311223164
 31
0.0
  0
SPLINE
  5
1EA4
330
1F
100
AcDbEntity
  8
LOGO_VON_SCHLASSE_120709
 62
     7
100
AcDbSpline
210
0.0
220
0.0
230
1.0
 70
     8
 71
     3
 72
     8
 73
     4
 74
     0
 42
0.0000000001
 43
0.0000000001
 40
51.34217507197432
 40
51.34217507197432
 40
51.34217507197432
 40
51.34217507197432
 40
52.34217507197431
 40
52.34217507197431
 40
52.34217507197431
 40
52.34217507197431
 10
1430.134181282221
 20
164.5856311847428
 30
0.0
 10
1433.004956569482
 20
164.5856311847428
 30
0.0
 10
1433.9797199541
 20
162.0137463374973
 30
0.0
 10
1433.9797199541
 20
159.3054976820745
 30
0.0
  0
LINE
  5
1EA5
330
1F
100
AcDbEntity
  8
LOGO_VON_SCHLASSE_120709
 62
     7
100
AcDbLine
 10
1433.979720016523
 20
159.3054976196482
 30
0.0
 11
1433.979720016523
 21
153.9381548296266
 31
0.0
  0
LINE
  5
1EA6
330
1F
100
AcDbEntity
  8
LOGO_VON_SCHLASSE_120709
 62
     7
100
AcDbLine
 10
1433.979720016523
 20
153.9381548296266
 30
0.0
 11
1439.937708495887
 21
153.9381548296266
 31
0.0
  0
LINE
  5
1EA7
330
1F
100
AcDbEntity
  8
LOGO_VON_SCHLASSE_120709
 62
     7
100
AcDbLine
 10
1439.937708495887
 20
153.9381548296266
 30
0.0
 11
1439.937708495887
 21
158.7636102944176
 31
0.0
  0
SPLINE
  5
1EA8
330
1F
100
AcDbEntity
  8
LOGO_VON_SCHLASSE_120709
 62
     7
100
AcDbSpline
210
0.0
220
0.0
230
1.0
 70
     8
 71
     3
 72
     8
 73
     4
 74
     0
 42
0.0000000001
 43
0.0000000001
 40
66.71540007197433
 40
66.71540007197433
 40
66.71540007197433
 40
66.71540007197433
 40
67.71540007197433
 40
67.71540007197433
 40
67.71540007197433
 40
67.71540007197433
 10
1439.937708433459
 20
158.763610107139
 30
0.0
 10
1439.937708433459
 20
162.7431341486763
 30
0.0
 10
1438.676739614241
 20
165.9246920685273
 30
0.0
 10
1436.183343237982
 20
167.7434047194461
 30
0.0
  0
ARC
  5
1EA9
330
1F
100
AcDbEntity
  8
AM_0
 62
     7
100
AcDbCircle
 10
1325.102499716928
 20
149.9657313946617
 30
0.0
 40
5.61827329712571
100
AcDbArc
 50
180.000047999999
 51
269.9999519999848
  0
LINE
  5
1EAA
330
1F
100
AcDbEntity
  8
AM_0
 62
     7
100
AcDbLine
 10
1325.102495222239
 20
144.3474580975358
 30
0.0
 11
1446.459148684827
 21
144.3474580975358
 31
0.0
  0
ARC
  5
1EAB
330
1F
100
AcDbEntity
  8
AM_0
 62
     7
100
AcDbCircle
 10
1446.459386903235
 20
149.9654886815654
 30
0.0
 40
5.618030584030035
100
AcDbArc
 50
269.9975760000107
 51
0.0024240000056258
  0
LINE
  5
1EAC
330
1F
100
AcDbEntity
  8
AM_0
 62
     7
100
AcDbLine
 10
1452.077417487267
 20
149.9657268999745
 30
0.0
 11
1452.077417487267
 21
192.6650406169677
 31
0.0
  0
ARC
  5
1EAD
330
1F
100
AcDbEntity
  8
AM_0
 62
     7
100
AcDbCircle
 10
1446.45914419014
 20
192.6650349986088
 30
0.0
 40
5.61827329712571
100
AcDbArc
 50
0.0000479999989685
 51
89.99995199998474
  0
LINE
  5
1EAE
330
1F
100
AcDbEntity
  8
AM_0
 62
     7
100
AcDbLine
 10
1446.459148684827
 20
198.283308295735
 30
0.0
 11
1325.102495222239
 21
198.283308295735
 31
0.0
  0
ARC
  5
1EAF
330
1F
100
AcDbEntity
  8
AM_0
 62
     7
100
AcDbCircle
 10
1325.102573879263
 20
192.6649608362741
 30
0.0
 40
5.618347459460498
100
AcDbArc
 50
90.00080599999776
 51
179.9991939999989
  0
LINE
  5
1EB0
330
1F
100
AcDbEntity
  8
AM_0
 62
     7
100
AcDbLine
 10
1319.484226419803
 20
192.6650406169677
 30
0.0
 11
1319.484226419803
 21
149.9657268999745
 31
0.0
  0
ARC
  5
1EB1
330
1F
100
AcDbEntity
  8
AM_0
 62
     7
100
AcDbCircle
 10
1322.06899840852
 20
143.5610305863818
 30
0.0
 40
8.20280144907624
100
AcDbArc
 50
179.9997459999952
 51
270.0002540000047
  0
LINE
  5
1EB2
330
1F
100
AcDbEntity
  8
AM_0
 62
     7
100
AcDbLine
 10
1322.069034366016
 20
135.3582291373058
 30
0.0
 11
1474.214178869139
 21
135.3582291373058
 31
0.0
  0
ARC
  5
1EB3
330
1F
100
AcDbEntity
  8
AM_0
 62
     7
100
AcDbCircle
 10
1474.214468776448
 20
143.5607766365686
 30
0.0
 40
8.202547499263172
100
AcDbArc
 50
269.9979730000275
 51
0.0020269999985906
  0
LINE
  5
1EB4
330
1F
100
AcDbEntity
  8
AM_0
 62
     7
100
AcDbLine
 10
1482.417016275711
 20
143.5610676675489
 30
0.0
 11
1482.417016275711
 21
199.0698582871079
 31
0.0
  0
ARC
  5
1EB5
330
1F
100
AcDbEntity
  8
AM_0
 62
     7
100
AcDbCircle
 10
1474.214130551254
 20
199.0702066253475
 30
0.0
 40
8.202885724456685
100
AcDbArc
 50
359.9975680000027
 51
89.99966299998956
  0
LINE
  5
1EB6
330
1F
100
AcDbEntity
  8
AM_0
 62
     7
100
AcDbLine
 10
1474.214178869139
 20
207.273092349804
 30
0.0
 11
1322.069034366016
 21
207.273092349804
 31
0.0
  0
ARC
  5
1EB7
330
1F
100
AcDbEntity
  8
AM_0
 62
     7
100
AcDbCircle
 10
1322.069336633713
 20
199.0699526755344
 30
0.0
 40
8.203139674269749
100
AcDbArc
 50
90.00210899998341
 51
180.000659999998
  0
LINE
  5
1EB8
330
1F
100
AcDbEntity
  8
AM_0
 62
     7
100
AcDbLine
 10
1313.866196959444
 20
199.0698582871079
 30
0.0
 11
1313.866196959444
 21
143.5610676675489
 31
0.0
  0
TEXT
  5
1EB9
330
1F
100
AcDbEntity
  8
6
100
AcDbText
 10
1339.450020483204
 20
92.99748205597159
 30
0.0
 40
15.16956847968031
  1
59227 Ahlen
 72
     1
 11
1396.637306568601
 21
92.99748205597159
 31
0.0
100
AcDbText
  0
TEXT
  5
1EBA
330
1F
100
AcDbEntity
  8
6
100
AcDbText
 10
1286.865767039606
 20
114.2798533559672
 30
0.0
 40
15.16956847968031
  1
Reflex Winkelmann GmbH
 41
0.95
 72
     1
 11
1396.390051462898
 21
114.2798533559672
 31
0.0
100
AcDbText
  0
MTEXT
  5
1EBB
330
1F
100
AcDbEntity
  8
0
100
AcDbMText
 10
776.9239552281799
 20
198.750448456879
 30
0.0
 40
20.0
 41
755.7740133808063
 71
     1
 72
     5
  1
Exvoid
 73
     1
 44
1.0
  0
MTEXT
  5
1EBC
330
1F
100
AcDbEntity
  8
0
100
AcDbMText
 10
746.0817704196021
 20
167.5109662154733
 30
0.0
 40
20.0
 41
755.7740133808063
 71
     1
 72
     5
  1
{\Fisocp,bigfont|c238;Typ } A 76,1
 73
     1
 44
1.0
  0
MTEXT
  5
1EBD
330
1F
100
AcDbEntity
  8
0
100
AcDbMText
 10
739.314801083487
 20
136.51095420025
 30
0.0
 40
20.0
 41
755.7740133808063
 71
     1
 72
     5
  1
10{\Fisocp,bigfont|c238;bar - }110{\Fisocp,bigfont|c238;%%DC}
 73
     1
 44
1.0
  0
DIMENSION
  5
2066
102
{ACAD_XDICTIONARY
360
2073
102
}
102
{ACAD_REACTORS
330
2074
102
}
330
1F
100
AcDbEntity
  8
AM_5
100
AcDbDimension
  2
*D19
 10
1001.60914880984
 20
629.4092472676172
 30
0.0
 11
1131.60914880984
 21
637.9717472676171
 31
0.0
 70
    32
  1
(<>)
 71
     5
 42
260.0
  3
AM_DIN$0
100
AcDbAlignedDimension
 13
1261.60914880984
 23
547.3451271006437
 33
0.0
 14
1001.60914880984
 24
546.9208569032661
 34
0.0
 50
360.0
100
AcDbRotatedDimension
1001
ACAD
1000
DSTYLE
1002
{
1070
    40
1040
2.5
1070
   271
1070
     0
1002
}
  0
ENDSEC
  0
SECTION
  2
OBJECTS
  0
DICTIONARY
  5
C
330
0
100
AcDbDictionary
281
     1
  3
ACAD_COLOR
350
BE
  3
ACAD_GROUP
350
D
  3
ACAD_LAYOUT
350
1A
  3
ACAD_MATERIAL
350
BD
  3
ACAD_MLINESTYLE
350
17
  3
ACAD_PLOTSETTINGS
350
19
  3
ACAD_PLOTSTYLENAME
350
E
  3
ACAD_TABLESTYLE
350
11A
  3
ACAD_VISUALSTYLE
350
258
  3
AcDbVariableDictionary
350
94
  3
AcmDictionary
350
5B
  3
AMG
350
41
  3
AMGSNAPSETTINGS
350
1B3
  3
ASE_INDEX_DICTIONARY
350
1A05
  0
DICTIONARY
  5
59C
330
2
100
AcDbDictionary
280
     1
281
     1
  3
ACAD_LAYERSTATES
360
59D
  0
DICTIONARY
  5
8F
330
1F
100
AcDbDictionary
280
     1
281
     1
  3
ACAD_SORTENTS
360
19FF
  0
DICTIONARY
  5
442
330
386
100
AcDbDictionary
280
     1
281
     1
  0
DICTIONARY
  5
1D7E
330
1D71
100
AcDbDictionary
280
     1
281
     1
  3
ACAD_DIMASSOC
360
1D7F
  0
DICTIONARY
  5
1D96
330
1D89
100
AcDbDictionary
280
     1
281
     1
  3
ACAD_DIMASSOC
360
1D97
  0
DICTIONARY
  5
2073
330
2066
100
AcDbDictionary
280
     1
281
     1
  3
ACAD_DIMASSOC
360
2074
  0
DICTIONARY
  5
BE
102
{ACAD_REACTORS
330
C
102
}
330
C
100
AcDbDictionary
281
     1
  0
DICTIONARY
  5
D
102
{ACAD_REACTORS
330
C
102
}
330
C
100
AcDbDictionary
281
     1
  0
DICTIONARY
  5
1A
102
{ACAD_REACTORS
330
C
102
}
330
C
100
AcDbDictionary
281
     1
  3
Layout1
350
1E
  3
Layout2
350
26
  3
Model
350
22
  0
DICTIONARY
  5
BD
102
{ACAD_REACTORS
330
C
102
}
330
C
100
AcDbDictionary
281
     1
  3
ByBlock
350
256
  3
ByLayer
350
255
  3
Global
350
257
  0
DICTIONARY
  5
17
102
{ACAD_REACTORS
330
C
102
}
330
C
100
AcDbDictionary
281
     1
  3
Standard
350
18
  0
DICTIONARY
  5
19
102
{ACAD_REACTORS
330
C
102
}
330
C
100
AcDbDictionary
281
     1
  0
ACDBDICTIONARYWDFLT
  5
E
102
{ACAD_REACTORS
330
C
102
}
330
C
100
AcDbDictionary
281
     1
  3
Normal
350
F
100
AcDbDictionaryWithDefault
340
F
  0
DICTIONARY
  5
11A
102
{ACAD_REACTORS
330
C
102
}
330
C
100
AcDbDictionary
281
     1
  3
Standard
350
11B
  0
DICTIONARY
  5
258
102
{ACAD_REACTORS
330
C
102
}
330
C
100
AcDbDictionary
281
     1
  3
2dWireframe
350
25E
  3
3D Hidden
350
260
  3
3dWireframe
350
25F
  3
Basic
350
25D
  3
Brighten
350
264
  3
ColorChange
350
268
  3
Conceptual
350
261
  3
Dim
350
263
  3
Facepattern
350
267
  3
Flat
350
259
  3
FlatWithEdges
350
25A
  3
Gouraud
350
25B
  3
GouraudWithEdges
350
25C
  3
Linepattern
350
266
  3
Realistic
350
262
  3
Thicken
350
265
  0
DICTIONARY
  5
94
102
{ACAD_REACTORS
330
C
102
}
330
C
100
AcDbDictionary
281
     1
  3
CTABLESTYLE
350
138
  3
DIMASSOC
350
96
  3
INDEXCTL
350
95
  0
DICTIONARY
  5
5B
102
{ACAD_REACTORS
330
C
102
}
330
C
100
AcDbDictionary
281
     1
  3
AcmBOM
350
1B0
  3
AcmStdDictionary
350
61
  3
AMDTSECTSYM_ARROWCOLOR
350
123
  0
DICTIONARY
  5
41
102
{ACAD_REACTORS
330
C
102
}
330
C
100
AcDbDictionary
281
     1
  0
DICTIONARY
  5
1B3
102
{ACAD_REACTORS
330
C
102
}
330
C
100
AcDbDictionary
281
     1
  0
DICTIONARY
  5
1A05
102
{ACAD_REACTORS
330
C
102
}
330
C
100
AcDbDictionary
281
     1
  3
ASEBlockHierarchyIndexRecord
350
1A06
1001
DCO15
1040
1786359556.186
  0
DICTIONARY
  5
59D
102
{ACAD_REACTORS
330
59C
102
}
330
59C
100
AcDbDictionary
281
     1
  0
SORTENTSTABLE
  5
19FF
102
{ACAD_REACTORS
330
8F
102
}
330
8F
100
AcDbSortentsTable
330
1F
331
F6A
  5
F6A
331
FA9
  5
FA9
331
1500
  5
1506
331
F72
  5
F72
331
FB1
  5
FB1
331
1508
  5
150D
331
F82
  5
F82
331
FC1
  5
FC1
331
1A00
  5
14FF
331
9D1
  5
9D1
331
DD5
  5
DD5
331
82B
  5
82B
331
E08
  5
E08
331
833
  5
833
331
7F4
  5
7F4
331
9D9
  5
9D9
331
EF8
  5
EF8
331
7FC
  5
7FC
331
83B
  5
83B
331
9A2
  5
9A2
331
F37
  5
F37
331
F3F
  5
F3F
331
804
  5
804
331
88B
  5
88B
331
DED
  5
DED
331
F47
  5
F47
331
14F1
  5
14F2
331
FA2
  5
FA2
331
9B2
  5
9B2
331
DF5
  5
DF5
331
80C
  5
80C
331
893
  5
893
331
8A3
  5
8A3
331
F4F
  5
F4F
331
DFD
  5
DFD
331
814
  5
814
331
DB1
  5
DB1
331
8AB
  5
8AB
331
F18
  5
F18
331
E05
  5
E05
331
81C
  5
81C
331
F20
  5
F20
331
824
  5
824
331
DCE
  5
DCE
331
9CA
  5
9CA
331
FAA
  5
FAA
331
F6B
  5
F6B
331
F73
  5
F73
331
FB2
  5
FB2
331
1501
  5
1507
331
1509
  5
150E
331
1A01
  5
14FC
331
FC2
  5
FC2
331
9D2
  5
9D2
331
82C
  5
82C
331
E09
  5
E09
331
F28
  5
F28
331
9DA
  5
9DA
331
7F5
  5
7F5
331
834
  5
834
331
F38
  5
F38
331
9A3
  5
9A3
331
7FD
  5
7FD
331
EF9
  5
EF9
331
88C
  5
88C
331
F40
  5
F40
331
DEE
  5
DEE
331
805
  5
805
331
F8B
  5
F8B
331
14EA
  5
14EA
331
14F2
  5
14F3
331
FA3
  5
FA3
331
80D
  5
80D
331
894
  5
894
331
DF6
  5
DF6
331
9B3
  5
9B3
331
F48
  5
F48
331
F50
  5
F50
331
815
  5
815
331
8A4
  5
8A4
331
DFE
  5
DFE
331
E06
  5
E06
331
81D
  5
81D
331
DC7
  5
DC7
331
8AC
  5
8AC
331
F19
  5
F19
331
F21
  5
F21
331
9CB
  5
9CB
331
DCF
  5
DCF
331
825
  5
825
331
F6C
  5
F6C
331
FAB
  5
FAB
331
F74
  5
F74
331
FB3
  5
FB3
331
FC3
  5
FC3
331
1A02
  5
1500
331
E0A
  5
E0A
331
F29
  5
F29
331
9D3
  5
9D3
331
82D
  5
82D
331
F31
  5
F31
331
835
  5
835
331
7F6
  5
7F6
331
9DB
  5
9DB
331
9F3
  5
9F3
331
EFA
  5
EFA
331
7FE
  5
7FE
331
DE7
  5
DE7
331
9A4
  5
9A4
331
F39
  5
F39
331
F41
  5
F41
331
806
  5
806
331
88D
  5
88D
331
F02
  5
F02
331
DEF
  5
DEF
331
F8C
  5
F8C
331
14EB
  5
14EC
331
14F3
  5
14F4
331
FA4
  5
FA4
331
F49
  5
F49
331
DF7
  5
DF7
331
80E
  5
80E
331
8A5
  5
8A5
331
F51
  5
F51
331
DFF
  5
DFF
331
816
  5
816
331
81E
  5
81E
331
8AD
  5
8AD
331
F1A
  5
F1A
331
DC8
  5
DC8
331
E07
  5
E07
331
F22
  5
F22
331
826
  5
826
331
9CC
  5
9CC
331
FAC
  5
FAC
331
F6D
  5
F6D
331
F75
  5
F75
331
FB4
  5
FB4
331
1A03
  5
14EB
331
FC4
  5
FC4
331
DD0
  5
DD0
331
9D4
  5
9D4
331
7EF
  5
7EF
331
82E
  5
82E
331
E0B
  5
E0B
331
F2A
  5
F2A
331
995
  5
995
331
F32
  5
F32
331
DE0
  5
DE0
331
7F7
  5
7F7
331
836
  5
836
331
EFB
  5
EFB
331
9A5
  5
9A5
331
F3A
  5
F3A
331
DE8
  5
DE8
331
7FF
  5
7FF
331
F03
  5
F03
331
F42
  5
F42
331
88E
  5
88E
331
807
  5
807
331
D6C
  5
D6C
331
F8D
  5
F8D
331
F95
  5
F95
331
14EC
  5
14ED
331
14F4
  5
14F5
331
FA5
  5
FA5
331
DF0
  5
DF0
331
80F
  5
80F
331
DF8
  5
DF8
331
F4A
  5
F4A
331
F52
  5
F52
331
817
  5
817
331
8A6
  5
8A6
331
F13
  5
F13
331
9C5
  5
9C5
331
81F
  5
81F
331
DC9
  5
DC9
331
8AE
  5
8AE
331
F1B
  5
F1B
331
F23
  5
F23
331
9CD
  5
9CD
331
827
  5
827
331
14FC
  5
1501
331
F6E
  5
F6E
331
FAD
  5
FAD
331
1504
  5
150A
331
F76
  5
F76
331
DD1
  5
DD1
331
F2B
  5
F2B
331
82F
  5
82F
331
7F0
  5
7F0
331
9D5
  5
9D5
331
EF4
  5
EF4
331
837
  5
837
331
996
  5
996
331
F33
  5
F33
331
7F8
  5
7F8
331
EFC
  5
EFC
331
800
  5
800
331
DE9
  5
DE9
331
9A6
  5
9A6
331
F3B
  5
F3B
331
F43
  5
F43
331
88F
  5
88F
331
F04
  5
F04
331
32A
  5
32A
331
14ED
  5
14EE
331
14F5
  5
14F6
331
F9E
  5
F9E
331
FA6
  5
FA6
331
DF1
  5
DF1
331
808
  5
808
331
F4B
  5
F4B
331
DF9
  5
DF9
331
810
  5
810
331
F14
  5
F14
331
8A7
  5
8A7
331
9BE
  5
9BE
331
F53
  5
F53
331
818
  5
818
331
F1C
  5
F1C
331
820
  5
820
331
DCA
  5
DCA
331
8AF
  5
8AF
331
9C6
  5
9C6
331
9CE
  5
9CE
331
F24
  5
F24
331
FAE
  5
FAE
331
14FD
  5
1502
331
F6F
  5
F6F
331
F77
  5
F77
331
828
  5
828
331
DD2
  5
DD2
331
9D6
  5
9D6
331
7F1
  5
7F1
331
830
  5
830
331
F2C
  5
F2C
331
F34
  5
F34
331
7F9
  5
7F9
331
838
  5
838
331
EF5
  5
EF5
331
EFD
  5
EFD
331
9A7
  5
9A7
331
F3C
  5
F3C
331
DEA
  5
DEA
331
801
  5
801
331
F05
  5
F05
331
F44
  5
F44
331
985
  5
985
331
14EE
  5
14EF
331
F9F
  5
F9F
331
14F6
  5
14F7
331
FA7
  5
FA7
331
890
  5
890
331
DF2
  5
DF2
331
809
  5
809
331
811
  5
811
331
F0D
  5
F0D
331
DFA
  5
DFA
331
F4C
  5
F4C
331
F54
  5
F54
331
9BF
  5
9BF
331
819
  5
819
331
8A8
  5
8A8
331
F15
  5
F15
331
F1D
  5
F1D
331
9C7
  5
9C7
331
821
  5
821
331
DCB
  5
DCB
331
F25
  5
F25
331
9CF
  5
9CF
331
14FE
  5
1503
331
F70
  5
F70
331
FAF
  5
FAF
331
1506
  5
150B
331
F78
  5
F78
331
FBF
  5
FBF
331
8B0
  5
8B0
331
DD3
  5
DD3
331
829
  5
829
331
831
  5
831
331
7F2
  5
7F2
331
9D7
  5
9D7
331
839
  5
839
331
EF6
  5
EF6
331
F35
  5
F35
331
7FA
  5
7FA
331
802
  5
802
331
889
  5
889
331
DEB
  5
DEB
331
9A8
  5
9A8
331
F3D
  5
F3D
331
F45
  5
F45
331
F06
  5
F06
331
986
  5
986
331
14E7
  5
14E7
331
14EF
  5
14F0
331
14F7
  5
14F9
331
FA0
  5
FA0
331
9B0
  5
9B0
331
DF3
  5
DF3
331
80A
  5
80A
331
891
  5
891
331
F0E
  5
F0E
331
F4D
  5
F4D
331
8A1
  5
8A1
331
DFB
  5
DFB
331
812
  5
812
331
D8F
  5
D8F
331
F16
  5
F16
331
F55
  5
F55
331
8A9
  5
8A9
331
9C0
  5
9C0
331
81A
  5
81A
331
DAF
  5
DAF
331
F1E
  5
F1E
331
822
  5
822
331
DCC
  5
DCC
331
9C8
  5
9C8
331
F65
  5
F65
331
F26
  5
F26
331
FA8
  5
FA8
331
F69
  5
F69
331
F71
  5
F71
331
FB0
  5
FB0
331
14FF
  5
1504
331
F79
  5
F79
331
1507
  5
150C
331
FC0
  5
FC0
331
9D0
  5
9D0
331
82A
  5
82A
331
DD4
  5
DD4
331
8B1
  5
8B1
331
9D8
  5
9D8
331
7F3
  5
7F3
331
832
  5
832
331
F36
  5
F36
331
9A1
  5
9A1
331
7FB
  5
7FB
331
83A
  5
83A
331
EF7
  5
EF7
331
88A
  5
88A
331
F3E
  5
F3E
331
DEC
  5
DEC
331
803
  5
803
331
F07
  5
F07
331
F46
  5
F46
331
14F0
  5
14F1
331
FA1
  5
FA1
331
892
  5
892
331
9B1
  5
9B1
331
DF4
  5
DF4
331
80B
  5
80B
331
813
  5
813
331
8A2
  5
8A2
331
DFC
  5
DFC
331
F4E
  5
F4E
331
F56
  5
F56
331
9C1
  5
9C1
331
DB0
  5
DB0
331
81B
  5
81B
331
8AA
  5
8AA
331
F17
  5
F17
331
F1F
  5
F1F
331
9C9
  5
9C9
331
823
  5
823
331
DCD
  5
DCD
331
F27
  5
F27
  0
DIMASSOC
  5
1D7F
102
{ACAD_REACTORS
330
1D7E
102
}
330
1D7E
100
AcDbDimAssoc
330
1D71
 90
        3
 70
     0
 71
     0
  1
AcDbOsnapPointRef
 72
     2
331
1CDE
 73
     0
 91
        0
 40
0.0
 10
0.0
 20
0.0
 30
0.0
 75
     0
  1
AcDbOsnapPointRef
 72
     6
331
88D
 73
     0
 91
        0
 40
0.0905675056445603
 10
0.0
 20
0.0
 30
0.0
332
88E
 74
     0
 92
        0
 75
     0
  0
DIMASSOC
  5
1D97
102
{ACAD_REACTORS
330
1D96
102
}
330
1D96
100
AcDbDimAssoc
330
1D89
 90
        3
 70
     0
 71
     0
  1
AcDbOsnapPointRef
 72
     2
331
1CDE
 73
     0
 91
        0
 40
0.0
 10
0.0
 20
0.0
 30
0.0
 75
     0
  1
AcDbOsnapPointRef
 72
     2
331
F45
 73
     0
 91
        0
 40
0.0
 10
0.0
 20
0.0
 30
0.0
 75
     0
  0
DIMASSOC
  5
2074
102
{ACAD_REACTORS
330
2073
102
}
330
2073
100
AcDbDimAssoc
330
2066
 90
        3
 70
     0
 71
     0
  1
AcDbOsnapPointRef
 72
    10
331
8AA
 73
     0
 91
        0
 40
0.6831258980686905
 10
0.0
 20
0.0
 30
0.0
 75
     0
  1
AcDbOsnapPointRef
 72
    10
331
8B0
 73
     0
 91
        0
 40
0.677550731217475
 10
0.0
 20
0.0
 30
0.0
 75
     0
  0
LAYOUT
  5
1E
102
{ACAD_REACTORS
330
1A
102
}
330
1A
100
AcDbPlotSettings
  1

  2

  4

  6

 40
0.0
 41
0.0
 42
0.0
 43
0.0
 44
0.0
 45
0.0
 46
0.0
 47
0.0
 48
0.0
 49
0.0
140
0.0
141
0.0
142
1.0
143
1.0
 70
   688
 72
     0
 73
     0
 74
     5
  7
monochrome.ctb
 75
    16
147
1.0
 76
     0
 77
     2
 78
   300
148
0.0
149
0.0
100
AcDbLayout
  1
Layout1
 70
     1
 71
     1
 10
0.0
 20
0.0
 11
420.0
 21
297.0
 12
0.0
 22
0.0
 32
0.0
 14
1.000000000000000E+20
 24
1.000000000000000E+20
 34
1.000000000000000E+20
 15
-1.000000000000000E+20
 25
-1.000000000000000E+20
 35
-1.000000000000000E+20
146
0.0
 13
0.0
 23
0.0
 33
0.0
 16
1.0
 26
0.0
 36
0.0
 17
0.0
 27
1.0
 37
0.0
 76
     0
330
1B
  0
LAYOUT
  5
26
102
{ACAD_REACTORS
330
1A
102
}
330
1A
100
AcDbPlotSettings
  1

  2

  4

  6

 40
0.0
 41
0.0
 42
0.0
 43
0.0
 44
0.0
 45
0.0
 46
0.0
 47
0.0
 48
0.0
 49
0.0
140
0.0
141
0.0
142
1.0
143
1.0
 70
   688
 72
     0
 73
     0
 74
     5
  7
monochrome.ctb
 75
    16
147
1.0
 76
     0
 77
     2
 78
   300
148
0.0
149
0.0
100
AcDbLayout
  1
Layout2
 70
     1
 71
     2
 10
0.0
 20
0.0
 11
12.0
 21
9.0
 12
0.0
 22
0.0
 32
0.0
 14
0.0
 24
0.0
 34
0.0
 15
0.0
 25
0.0
 35
0.0
146
0.0
 13
0.0
 23
0.0
 33
0.0
 16
1.0
 26
0.0
 36
0.0
 17
0.0
 27
1.0
 37
0.0
 76
     0
330
23
  0
LAYOUT
  5
22
102
{ACAD_REACTORS
330
1A
102
}
330
1A
100
AcDbPlotSettings
  1

  2
PDFCreator
  4
A4 Small
  6

 40
10.65741634368896
 41
11.41941261291504
 42
11.03840637207031
 43
11.71575927734375
 44
209.8886566162109
 45
297.0530090332031
 46
0.0
 47
0.0
 48
70.50575412068764
 49
34.2802035618608
140
1555.505754120688
141
1084.28020356186
142
1.0
143
5.57938354100889
 70
 11952
 72
     1
 73
     1
 74
     4
  7
monochrome.ctb
 75
     0
147
0.1792312703813826
 76
     0
 77
     2
 78
   300
148
-70.50575412068764
149
-34.2802035618608
100
AcDbLayout
  1
Model
 70
     1
 71
     0
 10
0.0
 20
0.0
 11
12.0
 21
9.0
 12
0.0
 22
0.0
 32
0.0
 14
0.0
 24
0.0
 34
0.0
 15
0.0
 25
0.0
 35
0.0
146
0.0
 13
0.0
 23
0.0
 33
0.0
 16
1.0
 26
0.0
 36
0.0
 17
0.0
 27
1.0
 37
0.0
 76
     0
330
1F
331
253
1001
ACAD_PSEXT
1000
PDFCreator
1000
PDFCreator
1000
PDFCreator:
1000
eDoc Printer
1070
     0
  0
MATERIAL
  5
256
102
{ACAD_XDICTIONARY
360
1ED6
102
}
102
{ACAD_REACTORS
330
BD
102
}
330
BD
100
AcDbMaterial
  1
ByBlock
  0
MATERIAL
  5
255
102
{ACAD_XDICTIONARY
360
1ED4
102
}
102
{ACAD_REACTORS
330
BD
102
}
330
BD
100
AcDbMaterial
  1
ByLayer
  0
MATERIAL
  5
257
102
{ACAD_XDICTIONARY
360
1ED8
102
}
102
{ACAD_REACTORS
330
BD
102
}
330
BD
100
AcDbMaterial
  1
Global
  0
MLINESTYLE
  5
18
102
{ACAD_REACTORS
330
17
102
}
330
17
100
AcDbMlineStyle
  2
STANDARD
 70
     0
  3

 62
   256
 51
90.0
 52
90.0
 71
     2
 49
0.5
 62
   256
  6
BYLAYER
 49
-0.5
 62
   256
  6
BYLAYER
  0
ACDBPLACEHOLDER
  5
F
102
{ACAD_REACTORS
330
E
102
}
330
E
  0
TABLESTYLE
  5
11B
102
{ACAD_XDICTIONARY
360
2098
102
}
102
{ACAD_REACTORS
330
11A
102
}
330
11A
100
AcDbTableStyle
  3
Standard
 70
     0
 71
     0
 40
1.5
 41
1.5
280
     0
281
     0
  7
Standard
140
4.5
170
     2
 62
     0
 63
     7
283
     0
274
    -2
284
     1
 64
     0
275
    -2
285
     1
 65
     0
276
    -2
286
     1
 66
     0
277
    -2
287
     1
 67
     0
278
    -2
288
     1
 68
     0
279
    -2
289
     1
 69
     0
  7
Standard
140
6.0
170
     5
 62
     0
 63
     7
283
     0
274
    -2
284
     1
 64
     0
275
    -2
285
     1
 65
     0
276
    -2
286
     1
 66
     0
277
    -2
287
     1
 67
     0
278
    -2
288
     1
 68
     0
279
    -2
289
     1
 69
     0
  7
Standard
140
4.5
170
     5
 62
     0
 63
     7
283
     0
274
    -2
284
     1
 64
     0
275
    -2
285
     1
 65
     0
276
    -2
286
     1
 66
     0
277
    -2
287
     1
 67
     0
278
    -2
288
     1
 68
     0
279
    -2
289
     1
 69
     0
  0
VISUALSTYLE
  5
25E
102
{ACAD_REACTORS
330
258
102
}
330
258
100
AcDbVisualStyle
  2
2dWireframe
 70
     4
 71
     0
 72
     2
 73
     0
 90
        0
 40
-0.6
 41
-30.0
 62
     5
 63
     7
421
 16777215
 74
     1
 91
        4
 64
     7
 65
   257
 75
     1
175
     1
 42
1.0
 92
        0
 66
   257
 43
1.0
 76
     1
 77
     6
 78
     2
 67
     7
 79
     5
170
     0
171
     0
290
     0
174
     0
 93
        1
 44
0.0
173
     0
291
     0
 45
0.0
1001
ACAD
1000
AcDbSavedByObjectVersion
1070
     0
1000
AcDbSavedByObjectVersion
1070
     0
1000
AcDbSavedByObjectVersion
1070
     0
  0
VISUALSTYLE
  5
260
102
{ACAD_REACTORS
330
258
102
}
330
258
100
AcDbVisualStyle
  2
3D Hidden
 70
     6
 71
     1
 72
     2
 73
     2
 90
        0
 40
-0.6
 41
-30.0
 62
     5
 63
     7
421
 16777215
 74
     2
 91
        2
 64
     7
 65
   257
 75
     2
175
     1
 42
40.0
 92
        0
 66
   257
 43
1.0
 76
     1
 77
     6
 78
     2
 67
     7
 79
     3
170
     0
171
     0
290
     0
174
     0
 93
        1
 44
0.0
173
     0
291
     0
 45
0.0
1001
ACAD
1000
AcDbSavedByObjectVersion
1070
     0
1000
AcDbSavedByObjectVersion
1070
     0
1000
AcDbSavedByObjectVersion
1070
     0
  0
VISUALSTYLE
  5
25F
102
{ACAD_REACTORS
330
258
102
}
330
258
100
AcDbVisualStyle
  2
3dWireframe
 70
     5
 71
     0
 72
     2
 73
     0
 90
        0
 40
-0.6
 41
-30.0
 62
     5
 63
     7
421
 16777215
 74
     1
 91
        4
 64
     7
 65
   257
 75
     1
175
     1
 42
1.0
 92
        0
 66
   257
 43
1.0
 76
     1
 77
     6
 78
     2
 67
     7
 79
     5
170
     0
171
     0
290
     0
174
     0
 93
        1
 44
0.0
173
     0
291
     0
 45
0.0
1001
ACAD
1000
AcDbSavedByObjectVersion
1070
     0
1000
AcDbSavedByObjectVersion
1070
     0
1000
AcDbSavedByObjectVersion
1070
     0
  0
VISUALSTYLE
  5
25D
102
{ACAD_REACTORS
330
258
102
}
330
258
100
AcDbVisualStyle
  2
Basic
 70
     7
 71
     1
 72
     0
 73
     1
 90
        0
 40
-0.6
 41
-30.0
 62
     5
 63
     7
421
 16777215
 74
     0
 91
        4
 64
     7
 65
   257
 75
     1
175
     1
 42
1.0
 92
        8
 66
     7
 43
1.0
 76
     1
 77
     6
 78
     2
 67
     7
 79
     5
170
     0
171
     0
290
     0
174
     0
 93
        1
 44
0.0
173
     0
291
     1
 45
0.0
1001
ACAD
1000
AcDbSavedByObjectVersion
1070
     0
1000
AcDbSavedByObjectVersion
1070
     0
1000
AcDbSavedByObjectVersion
1070
     0
  0
VISUALSTYLE
  5
264
102
{ACAD_REACTORS
330
258
102
}
330
258
100
AcDbVisualStyle
  2
Brighten
 70
    12
 71
     2
 72
     2
 73
     0
 90
        0
 40
-0.6
 41
-30.0
 62
     5
 63
     7
421
 16777215
 74
     1
 91
        4
 64
     7
 65
   257
 75
     1
175
     1
 42
1.0
 92
        8
 66
     7
 43
1.0
 76
     1
 77
     6
 78
     2
 67
     7
 79
     5
170
     0
171
     0
290
     0
174
     0
 93
        1
 44
50.0
173
     0
291
     1
 45
0.0
1001
ACAD
1000
AcDbSavedByObjectVersion
1070
     0
1000
AcDbSavedByObjectVersion
1070
     0
1000
AcDbSavedByObjectVersion
1070
     0
  0
VISUALSTYLE
  5
268
102
{ACAD_REACTORS
330
258
102
}
330
258
100
AcDbVisualStyle
  2
ColorChange
 70
    16
 71
     2
 72
     2
 73
     3
 90
        0
 40
-0.6
 41
-30.0
 62
     5
 63
     8
421
  8421504
 74
     1
 91
        4
 64
     7
 65
   257
 75
     1
175
     1
 42
1.0
 92
        8
 66
     8
424
  8421504
 43
1.0
 76
     1
 77
     6
 78
     2
 67
     7
 79
     5
170
     0
171
     0
290
     0
174
     0
 93
        1
 44
0.0
173
     0
291
     1
 45
0.0
1001
ACAD
1000
AcDbSavedByObjectVersion
1070
     0
1000
AcDbSavedByObjectVersion
1070
     0
1000
AcDbSavedByObjectVersion
1070
     0
  0
VISUALSTYLE
  5
261
102
{ACAD_REACTORS
330
258
102
}
330
258
100
AcDbVisualStyle
  2
Conceptual
 70
     9
 71
     3
 72
     2
 73
     0
 90
        0
 40
-0.6
 41
-30.0
 62
     5
 63
     7
421
 16777215
 74
     2
 91
        2
 64
     7
 65
   257
 75
     1
175
     1
 42
40.0
 92
        8
 66
     7
 43
1.0
 76
     1
 77
     6
 78
     2
 67
     7
 79
     3
170
     0
171
     0
290
     0
174
     0
 93
        1
 44
0.0
173
     0
291
     0
 45
0.0
1001
ACAD
1000
AcDbSavedByObjectVersion
1070
     0
1000
AcDbSavedByObjectVersion
1070
     0
1000
AcDbSavedByObjectVersion
1070
     0
  0
VISUALSTYLE
  5
263
102
{ACAD_REACTORS
330
258
102
}
330
258
100
AcDbVisualStyle
  2
Dim
 70
    11
 71
     2
 72
     2
 73
     0
 90
        0
 40
-0.6
 41
-30.0
 62
     5
 63
     7
421
 16777215
 74
     1
 91
        4
 64
     7
 65
   257
 75
     1
175
     1
 42
1.0
 92
        8
 66
     7
 43
1.0
 76
     1
 77
     6
 78
     2
 67
     7
 79
     5
170
     0
171
     0
290
     0
174
     0
 93
        1
 44
-50.0
173
     0
291
     1
 45
0.0
1001
ACAD
1000
AcDbSavedByObjectVersion
1070
     0
1000
AcDbSavedByObjectVersion
1070
     0
1000
AcDbSavedByObjectVersion
1070
     0
  0
VISUALSTYLE
  5
267
102
{ACAD_REACTORS
330
258
102
}
330
258
100
AcDbVisualStyle
  2
Facepattern
 70
    15
 71
     2
 72
     2
 73
     0
 90
        0
 40
-0.6
 41
-30.0
 62
     5
 63
     7
421
 16777215
 74
     1
 91
        4
 64
     7
 65
   257
 75
     1
175
     1
 42
1.0
 92
        8
 66
     7
 43
1.0
 76
     1
 77
     6
 78
     2
 67
     7
 79
     5
170
     0
171
     0
290
     0
174
     0
 93
        1
 44
0.0
173
     0
291
     1
 45
0.0
1001
ACAD
1000
AcDbSavedByObjectVersion
1070
     0
1000
AcDbSavedByObjectVersion
1070
     0
1000
AcDbSavedByObjectVersion
1070
     0
  0
VISUALSTYLE
  5
259
102
{ACAD_REACTORS
330
258
102
}
330
258
100
AcDbVisualStyle
  2
Flat
 70
     0
 71
     2
 72
     1
 73
     1
 90
        2
 40
-0.6
 41
30.0
 62
     5
 63
     7
421
 16777215
 74
     0
 91
        4
 64
     7
 65
   257
 75
     1
175
     1
 42
1.0
 92
        8
 66
     7
 43
1.0
 76
     1
 77
     6
 78
     2
 67
     7
 79
     5
170
     0
171
     0
290
     0
174
     0
 93
       13
 44
0.0
173
     0
291
     1
 45
0.0
1001
ACAD
1000
AcDbSavedByObjectVersion
1070
     0
1000
AcDbSavedByObjectVersion
1070
     0
1000
AcDbSavedByObjectVersion
1070
     0
  0
VISUALSTYLE
  5
25A
102
{ACAD_REACTORS
330
258
102
}
330
258
100
AcDbVisualStyle
  2
FlatWithEdges
 70
     1
 71
     2
 72
     1
 73
     1
 90
        2
 40
-0.6
 41
30.0
 62
     5
 63
     7
421
 16777215
 74
     1
 91
        4
 64
     7
 65
   257
 75
     1
175
     1
 42
1.0
 92
        0
 66
   257
 43
1.0
 76
     1
 77
     6
 78
     2
 67
     7
 79
     5
170
     0
171
     0
290
     0
174
     0
 93
       13
 44
0.0
173
     0
291
     1
 45
0.0
1001
ACAD
1000
AcDbSavedByObjectVersion
1070
     0
1000
AcDbSavedByObjectVersion
1070
     0
1000
AcDbSavedByObjectVersion
1070
     0
  0
VISUALSTYLE
  5
25B
102
{ACAD_REACTORS
330
258
102
}
330
258
100
AcDbVisualStyle
  2
Gouraud
 70
     2
 71
     2
 72
     2
 73
     1
 90
        2
 40
-0.6
 41
30.0
 62
     5
 63
     7
421
 16777215
 74
     0
 91
        4
 64
     7
 65
   257
 75
     1
175
     1
 42
1.0
 92
        0
 66
     7
 43
1.0
 76
     1
 77
     6
 78
     2
 67
     7
 79
     5
170
     0
171
     0
290
     0
174
     0
 93
       13
 44
0.0
173
     0
291
     1
 45
0.0
1001
ACAD
1000
AcDbSavedByObjectVersion
1070
     0
1000
AcDbSavedByObjectVersion
1070
     0
1000
AcDbSavedByObjectVersion
1070
     0
  0
VISUALSTYLE
  5
25C
102
{ACAD_REACTORS
330
258
102
}
330
258
100
AcDbVisualStyle
  2
GouraudWithEdges
 70
     3
 71
     2
 72
     2
 73
     1
 90
        2
 40
-0.6
 41
30.0
 62
     5
 63
     7
421
 16777215
 74
     1
 91
        4
 64
     7
 65
   257
 75
     1
175
     1
 42
1.0
 92
        0
 66
   257
 43
1.0
 76
     1
 77
     6
 78
     2
 67
     7
 79
     5
170
     0
171
     0
290
     0
174
     0
 93
       13
 44
0.0
173
     0
291
     1
 45
0.0
1001
ACAD
1000
AcDbSavedByObjectVersion
1070
     0
1000
AcDbSavedByObjectVersion
1070
     0
1000
AcDbSavedByObjectVersion
1070
     0
  0
VISUALSTYLE
  5
266
102
{ACAD_REACTORS
330
258
102
}
330
258
100
AcDbVisualStyle
  2
Linepattern
 70
    14
 71
     2
 72
     2
 73
     0
 90
        0
 40
-0.6
 41
-30.0
 62
     5
 63
     7
421
 16777215
 74
     1
 91
        4
 64
     7
 65
   257
 75
     7
175
     7
 42
1.0
 92
        8
 66
     7
 43
1.0
 76
     1
 77
     6
 78
     2
 67
     7
 79
     5
170
     0
171
     0
290
     0
174
     0
 93
        1
 44
0.0
173
     0
291
     1
 45
0.0
1001
ACAD
1000
AcDbSavedByObjectVersion
1070
     0
1000
AcDbSavedByObjectVersion
1070
     0
1000
AcDbSavedByObjectVersion
1070
     0
  0
VISUALSTYLE
  5
262
102
{ACAD_REACTORS
330
258
102
}
330
258
100
AcDbVisualStyle
  2
Realistic
 70
     8
 71
     2
 72
     2
 73
     0
 90
        0
 40
-0.6
 41
-30.0
 62
     5
 63
     7
421
 16777215
 74
     1
 91
        0
 64
     7
 65
   257
 75
     1
175
     1
 42
1.0
 92
        8
 66
     8
424
  7895160
 43
1.0
 76
     1
 77
     6
 78
     2
 67
     7
 79
     5
170
     0
171
     0
290
     0
174
     0
 93
       13
 44
0.0
173
     0
291
     0
 45
0.0
1001
ACAD
1000
AcDbSavedByObjectVersion
1070
     0
1000
AcDbSavedByObjectVersion
1070
     0
1000
AcDbSavedByObjectVersion
1070
     0
  0
VISUALSTYLE
  5
265
102
{ACAD_REACTORS
330
258
102
}
330
258
100
AcDbVisualStyle
  2
Thicken
 70
    13
 71
     2
 72
     2
 73
     0
 90
        0
 40
-0.6
 41
-30.0
 62
     5
 63
     7
421
 16777215
 74
     1
 91
        4
 64
     7
 65
   257
 75
     1
175
     1
 42
1.0
 92
       12
 66
     7
 43
1.0
 76
     1
 77
     6
 78
     2
 67
     7
 79
     5
170
     0
171
     0
290
     0
174
     0
 93
        1
 44
0.0
173
     0
291
     1
 45
0.0
1001
ACAD
1000
AcDbSavedByObjectVersion
1070
     0
1000
AcDbSavedByObjectVersion
1070
     0
1000
AcDbSavedByObjectVersion
1070
     0
  0
DICTIONARYVAR
  5
138
102
{ACAD_REACTORS
330
94
102
}
330
94
100
DictionaryVariables
280
     0
  1
STANDARD
  0
DICTIONARYVAR
  5
96
102
{ACAD_REACTORS
330
94
102
}
330
94
100
DictionaryVariables
280
     0
  1
2
  0
DICTIONARYVAR
  5
95
102
{ACAD_REACTORS
330
94
102
}
330
94
100
DictionaryVariables
280
     0
  1
1
  0
DICTIONARY
  5
1B0
102
{ACAD_REACTORS
330
5B
102
}
330
5B
100
AcDbDictionary
281
     1
  0
DICTIONARY
  5
61
102
{ACAD_REACTORS
330
5B
102
}
330
5B
100
AcDbDictionary
281
     1
  0
XRECORD
  5
123
102
{ACAD_REACTORS
330
5B
102
}
330
5B
100
AcDbXrecord
280
     1
 90
-1023410169
  0
XRECORD
  5
1A06
102
{ACAD_REACTORS
330
1A05
102
}
330
1A05
100
AcDbXrecord
280
     1
330
32A
330
440
  0
DICTIONARY
  5
1ED6
330
256
100
AcDbDictionary
280
     1
281
     1
  3
ACAD_XREC_ROUNDTRIP
360
1ED7
  0
DICTIONARY
  5
1ED4
330
255
100
AcDbDictionary
280
     1
281
     1
  3
ACAD_XREC_ROUNDTRIP
360
1ED5
  0
DICTIONARY
  5
1ED8
330
257
100
AcDbDictionary
280
     1
281
     1
  3
ACAD_XREC_ROUNDTRIP
360
1ED9
  0
DICTIONARY
  5
2098
330
11B
100
AcDbDictionary
280
     1
281
     1
  3
ACAD_XREC_ROUNDTRIP
360
2099
  0
XRECORD
  5
1ED7
102
{ACAD_REACTORS
330
1ED6
102
}
330
1ED6
100
AcDbXrecord
280
     1
102
MATERIAL
148
0.0
149
0.0
149
0.0
 93
        0
 94
       63
282
     0
 72
     1
 77
     1
171
     1
175
     1
179
     1
273
     0
  0
XRECORD
  5
1ED5
102
{ACAD_REACTORS
330
1ED4
102
}
330
1ED4
100
AcDbXrecord
280
     1
102
MATERIAL
148
0.0
149
0.0
149
0.0
 93
        0
 94
       63
282
     0
 72
     1
 77
     1
171
     1
175
     1
179
     1
273
     0
  0
XRECORD
  5
1ED9
102
{ACAD_REACTORS
330
1ED8
102
}
330
1ED8
100
AcDbXrecord
280
     1
102
MATERIAL
148
0.0
149
0.0
149
0.0
 93
        0
 94
       63
282
     0
 72
     1
 77
     1
171
     1
175
     1
179
     1
273
     0
  0
XRECORD
  5
2099
102
{ACAD_REACTORS
330
2098
102
}
330
2098
100
AcDbXrecord
280
     1
102
ACAD_ROUNDTRIP_PRE2007_TABLESTYLE
 90
        4
 91
        0
  1

 92
        4
 93
        0
  2

 94
        4
 95
        0
  3

  0
ENDSEC
  0
EOF
