  0
SECTION
  2
HEADER
  9
$ACADVER
  1
AC1018
  9
$ACADMAINTVER
 70
   104
  9
$DWGCODEPAGE
  3
ANSI_1252
  9
$LASTSAVEDBY
  1
Siekaup
  9
$CUSTOMPROPERTYTAG
  1
AmdtFileType
  9
$CUSTOMPROPERTY
  1
84
  9
$INSBASE
 10
0.0
 20
0.0
 30
0.0
  9
$EXTMIN
 10
93.75068357930663
 20
101.1942398769644
 30
-0.0000000000022887
  9
$EXTMAX
 10
3066.063818461969
 20
2201.77925665751
 30
0.0000000000000001
  9
$LIMMIN
 10
0.0
 20
0.0
  9
$LIMMAX
 10
420.0
 20
297.0
  9
$ORTHOMODE
 70
     0
  9
$REGENMODE
 70
     1
  9
$FILLMODE
 70
     1
  9
$QTEXTMODE
 70
     0
  9
$MIRRTEXT
 70
     1
  9
$LTSCALE
 40
1.0
  9
$ATTMODE
 70
     1
  9
$TEXTSIZE
 40
2.5
  9
$TRACEWID
 40
1.0
  9
$TEXTSTYLE
  7
Standard
  9
$CLAYER
  8
0
  9
$CELTYPE
  6
ByLayer
  9
$CECOLOR
 62
   256
  9
$CELTSCALE
 40
1.0
  9
$DISPSILH
 70
     0
  9
$DIMSCALE
 40
1.0
  9
$DIMASZ
 40
2.5
  9
$DIMEXO
 40
1.0
  9
$DIMDLI
 40
10.0
  9
$DIMRND
 40
0.0
  9
$DIMDLE
 40
0.0
  9
$DIMEXE
 40
1.0
  9
$DIMTP
 40
0.1
  9
$DIMTM
 40
0.1
  9
$DIMTXT
 40
3.5
  9
$DIMCEN
 40
0.0
  9
$DIMTSZ
 40
0.0
  9
$DIMTOL
 70
     0
  9
$DIMLIM
 70
     0
  9
$DIMTIH
 70
     0
  9
$DIMTOH
 70
     0
  9
$DIMSE1
 70
     0
  9
$DIMSE2
 70
     0
  9
$DIMTAD
 70
     1
  9
$DIMZIN
 70
     8
  9
$DIMBLK
  1

  9
$DIMASO
 70
     1
  9
$DIMSHO
 70
     1
  9
$DIMPOST
  1

  9
$DIMAPOST
  1
"
  9
$DIMALT
 70
     0
  9
$DIMALTD
 70
     2
  9
$DIMALTF
 40
0.0393701
  9
$DIMLFAC
 40
1.0
  9
$DIMTOFL
 70
     1
  9
$DIMTVP
 40
0.0
  9
$DIMTIX
 70
     0
  9
$DIMSOXD
 70
     0
  9
$DIMSAH
 70
     0
  9
$DIMBLK1
  1

  9
$DIMBLK2
  1

  9
$DIMSTYLE
  2
AM_DIN
  9
$DIMCLRD
 70
   256
  9
$DIMCLRE
 70
   256
  9
$DIMCLRT
 70
     2
  9
$DIMTFAC
 40
0.71
  9
$DIMGAP
 40
1.5
  9
$DIMJUST
 70
     0
  9
$DIMSD1
 70
     0
  9
$DIMSD2
 70
     0
  9
$DIMTOLJ
 70
     0
  9
$DIMTZIN
 70
     8
  9
$DIMALTZ
 70
     0
  9
$DIMALTTZ
 70
     0
  9
$DIMUPT
 70
     0
  9
$DIMDEC
 70
     2
  9
$DIMTDEC
 70
     3
  9
$DIMALTU
 70
     2
  9
$DIMALTTD
 70
     4
  9
$DIMTXSTY
  7
Standard
  9
$DIMAUNIT
 70
     0
  9
$DIMADEC
 70
     0
  9
$DIMALTRND
 40
0.0
  9
$DIMAZIN
 70
     2
  9
$DIMDSEP
 70
    46
  9
$DIMATFIT
 70
     3
  9
$DIMFRAC
 70
     0
  9
$DIMLDRBLK
  1

  9
$DIMLUNIT
 70
     2
  9
$DIMLWD
 70
    -1
  9
$DIMLWE
 70
    -1
  9
$DIMTMOVE
 70
     0
  9
$LUNITS
 70
     2
  9
$LUPREC
 70
     4
  9
$SKETCHINC
 40
1.0
  9
$FILLETRAD
 40
10.0
  9
$AUNITS
 70
     0
  9
$AUPREC
 70
     0
  9
$MENU
  1
.
  9
$ELEVATION
 40
0.0
  9
$PELEVATION
 40
0.0
  9
$THICKNESS
 40
0.0
  9
$LIMCHECK
 70
     0
  9
$CHAMFERA
 40
10.0
  9
$CHAMFERB
 40
10.0
  9
$CHAMFERC
 40
20.0
  9
$CHAMFERD
 40
0.0
  9
$SKPOLY
 70
     0
  9
$TDCREATE
 40
2456043.554503855
  9
$TDUCREATE
 40
2456043.471170521
  9
$TDUPDATE
 40
2456484.583467049
  9
$TDUUPDATE
 40
2456484.500133715
  9
$TDINDWG
 40
0.0244251736
  9
$TDUSRTIMER
 40
0.0244133333
  9
$USRTIMER
 70
     1
  9
$ANGBASE
 50
0.0
  9
$ANGDIR
 70
     0
  9
$PDMODE
 70
     0
  9
$PDSIZE
 40
0.0
  9
$PLINEWID
 40
0.0
  9
$SPLFRAME
 70
     0
  9
$SPLINETYPE
 70
     6
  9
$SPLINESEGS
 70
     8
  9
$HANDSEED
  5
1406
  9
$SURFTAB1
 70
     6
  9
$SURFTAB2
 70
     6
  9
$SURFTYPE
 70
     6
  9
$SURFU
 70
     6
  9
$SURFV
 70
     6
  9
$UCSBASE
  2

  9
$UCSNAME
  2

  9
$UCSORG
 10
0.0
 20
0.0
 30
0.0
  9
$UCSXDIR
 10
1.0
 20
0.0
 30
0.0
  9
$UCSYDIR
 10
0.0
 20
1.0
 30
0.0
  9
$UCSORTHOREF
  2

  9
$UCSORTHOVIEW
 70
     0
  9
$UCSORGTOP
 10
0.0
 20
0.0
 30
0.0
  9
$UCSORGBOTTOM
 10
0.0
 20
0.0
 30
0.0
  9
$UCSORGLEFT
 10
0.0
 20
0.0
 30
0.0
  9
$UCSORGRIGHT
 10
0.0
 20
0.0
 30
0.0
  9
$UCSORGFRONT
 10
0.0
 20
0.0
 30
0.0
  9
$UCSORGBACK
 10
0.0
 20
0.0
 30
0.0
  9
$PUCSBASE
  2

  9
$PUCSNAME
  2

  9
$PUCSORG
 10
0.0
 20
0.0
 30
0.0
  9
$PUCSXDIR
 10
1.0
 20
0.0
 30
0.0
  9
$PUCSYDIR
 10
0.0
 20
1.0
 30
0.0
  9
$PUCSORTHOREF
  2

  9
$PUCSORTHOVIEW
 70
     0
  9
$PUCSORGTOP
 10
0.0
 20
0.0
 30
0.0
  9
$PUCSORGBOTTOM
 10
0.0
 20
0.0
 30
0.0
  9
$PUCSORGLEFT
 10
0.0
 20
0.0
 30
0.0
  9
$PUCSORGRIGHT
 10
0.0
 20
0.0
 30
0.0
  9
$PUCSORGFRONT
 10
0.0
 20
0.0
 30
0.0
  9
$PUCSORGBACK
 10
0.0
 20
0.0
 30
0.0
  9
$USERI1
 70
     0
  9
$USERI2
 70
     0
  9
$USERI3
 70
     0
  9
$USERI4
 70
     0
  9
$USERI5
 70
     0
  9
$USERR1
 40
0.0
  9
$USERR2
 40
0.0
  9
$USERR3
 40
0.0
  9
$USERR4
 40
0.0
  9
$USERR5
 40
0.0
  9
$WORLDVIEW
 70
     1
  9
$SHADEDGE
 70
     3
  9
$SHADEDIF
 70
    70
  9
$TILEMODE
 70
     1
  9
$MAXACTVP
 70
    64
  9
$PINSBASE
 10
0.0
 20
0.0
 30
0.0
  9
$PLIMCHECK
 70
     0
  9
$PEXTMIN
 10
1.000000000000000E+20
 20
1.000000000000000E+20
 30
1.000000000000000E+20
  9
$PEXTMAX
 10
-1.000000000000000E+20
 20
-1.000000000000000E+20
 30
-1.000000000000000E+20
  9
$PLIMMIN
 10
0.0
 20
0.0
  9
$PLIMMAX
 10
420.0
 20
297.0
  9
$UNITMODE
 70
     0
  9
$VISRETAIN
 70
     1
  9
$PLINEGEN
 70
     0
  9
$PSLTSCALE
 70
     1
  9
$TREEDEPTH
 70
  3020
  9
$CMLSTYLE
  2
Standard
  9
$CMLJUST
 70
     0
  9
$CMLSCALE
 40
20.0
  9
$PROXYGRAPHICS
 70
     1
  9
$MEASUREMENT
 70
     1
  9
$CELWEIGHT
370
    -1
  9
$ENDCAPS
280
     0
  9
$JOINSTYLE
280
     0
  9
$LWDISPLAY
290
     0
  9
$INSUNITS
 70
     4
  9
$HYPERLINKBASE
  1

  9
$STYLESHEET
  1
monochrome.ctb
  9
$XEDIT
290
     1
  9
$CEPSNTYPE
380
     0
  9
$PSTYLEMODE
290
     1
  9
$FINGERPRINTGUID
  2
{A8D879A3-CCD6-4937-B5C7-4877A1C98C7F}
  9
$VERSIONGUID
  2
{4B8ACD4A-F0A1-40AC-B37C-9745066EC51D}
  9
$EXTNAMES
290
     1
  9
$PSVPSCALE
 40
0.0
  9
$OLESTARTUP
290
     0
  9
$SORTENTS
280
   127
  9
$INDEXCTL
280
     0
  9
$HIDETEXT
280
     0
  9
$XCLIPFRAME
290
     0
  9
$HALOGAP
280
     0
  9
$OBSCOLOR
 70
   257
  9
$OBSLTYPE
280
     0
  9
$INTERSECTIONDISPLAY
280
     0
  9
$INTERSECTIONCOLOR
 70
   257
  9
$DIMASSOC
280
     2
  9
$PROJECTNAME
  1

  0
ENDSEC
  0
SECTION
  2
CLASSES
  0
CLASS
  1
ACDBDICTIONARYWDFLT
  2
AcDbDictionaryWithDefault
  3
ObjectDBX Classes
 90
        0
 91
        1
280
     0
281
     0
  0
CLASS
  1
ACME_DOCUMENT
  2
AcMeDbDoc
  3
AcMeServices
 90
        0
 91
        1
280
     0
281
     0
  0
CLASS
  1
AMGSETTINGSOBJ
  2
AmgSettingsObj
  3
"AcadM|Product Description: AutoCAD Mechanical|Company: Autodesk"
 90
        0
 91
        2
280
     0
281
     0
  0
CLASS
  1
ACMESCOPE
  2
AcMeScope
  3
AcMeServices
 90
        0
 91
        1
280
     0
281
     0
  0
CLASS
  1
ACMECOMMANDHISTORY
  2
AcMeCommandHistory
  3
AcMeServices
 90
        0
 91
        1
280
     0
281
     0
  0
CLASS
  1
ACIMSYSVARMAN
  2
AcImSysVarManager
  3
AcMeServices
 90
        0
 91
        5
280
     0
281
     0
  0
CLASS
  1
ACIMREALSYSVAR
  2
AcImRealSysVar
  3
AcMeServices
 90
        0
 91
        1
280
     0
281
     0
  0
CLASS
  1
ACIMINTSYSVAR
  2
AcImIntSysVar
  3
AcMeServices
 90
        0
 91
       28
280
     0
281
     0
  0
CLASS
  1
ACMEDRAWINGMAN
  2
AcMeDrawingMan
  3
AcMeServices
 90
        0
 91
        1
280
     0
281
     0
  0
CLASS
  1
ACMEVIEW
  2
AcMeView
  3
AcMeServices
 90
        0
 91
        1
280
     0
281
     0
  0
CLASS
  1
ACDBENTITYCACHE
  2
AcMeEntityCache
  3
AcMeServices
 90
        0
 91
        1
280
     0
281
     0
  0
CLASS
  1
GSMANAGER
  2
AcMeGSManager
  3
AcMeServices
 90
        0
 91
        1
280
     0
281
     0
  0
CLASS
  1
AMDTINTERNALREACTOR
  2
AmdtInternalReactor
  3
AcMeServices
 90
        0
 91
        2
280
     0
281
     0
  0
CLASS
  1
ACMESTATEMGR
  2
AcMeStateMgr
  3
AcMeServices
 90
        0
 91
        1
280
     0
281
     0
  0
CLASS
  1
ACGREFMASTER
  2
AcGrefMaster
  3
AcAttribServices
 90
        0
 91
        1
280
     0
281
     0
  0
CLASS
  1
ACME_DATABASE
  2
AcMeDbDatabase
  3
AcMeServices
 90
        0
 91
        1
280
     0
281
     0
  0
CLASS
  1
ACRFINSADJUSTERMGR
  2
AcRfInsAdjusterMgr
  3
AcMeServices
 90
        0
 91
        1
280
     0
281
     0
  0
CLASS
  1
ACGREFACADMASTER
  2
AcGrefacadMaster
  3
AcGrefServices
 90
        0
 91
        1
280
     0
281
     0
  0
CLASS
  1
AMIMASTER
  2
AmiMaster
  3
AmiServices
 90
        0
 91
        1
280
     0
281
     0
  0
CLASS
  1
ACMDATADICTIONARY
  2
AcmDataDictionary
  3
"AcmSymBB|Product Description: AutoCAD Mechanical|Company: Autodesk"
 90
        0
 91
        1
280
     0
281
     0
  0
CLASS
  1
ACMDATAENTRYBLOCK
  2
AcmDataEntryBlock
  3
"AcmSymBB|Product Description: AutoCAD Mechanical|Company: Autodesk"
 90
        0
 91
        0
280
     0
281
     0
  0
CLASS
  1
ACIMSTRSYSVAR
  2
AcImStrSysVar
  3
AcMeServices
 90
        0
 91
        5
280
     0
281
     0
  0
CLASS
  1
ACMSTANDARDISO
  2
AcmStandardISO
  3
"Amdt_StdImp|Product Description: AutoCAD Mechanical|Company: Autodesk"
 90
        0
 91
        1
280
     0
281
     0
  0
CLASS
  1
AMGOBJPROPCFG
  2
AmgObjPropCfg
  3
"AmgLay|Product Description: AutoCAD Mechanical|Company: Autodesk"
 90
        1
 91
        2
280
     0
281
     0
  0
CLASS
  1
AMDTEDGESTANDARDISO
  2
AmdtEdgeStdISO
  3
"Amdt_StdImp|Product Description: AutoCAD Mechanical|Company: Autodesk"
 90
        0
 91
        1
280
     0
281
     0
  0
CLASS
  1
ACMSURFSTANDARDISO
  2
AcmSurfTextStdISO
  3
"Amdt_StdImp|Product Description: AutoCAD Mechanical|Company: Autodesk"
 90
        0
 91
        1
280
     0
281
     0
  0
CLASS
  1
ACMFCFSTANDARDISO
  2
AcmFCFStdISO
  3
"Amdt_StdImp|Product Description: AutoCAD Mechanical|Company: Autodesk"
 90
        0
 91
        1
280
     0
281
     0
  0
CLASS
  1
ACMWELDSTANDARDISO
  2
AcmWeldingStdISO
  3
"Amdt_StdImp|Product Description: AutoCAD Mechanical|Company: Autodesk"
 90
        0
 91
        1
280
     0
281
     0
  0
CLASS
  1
ACMIDSTANDARDISO
  2
AcmIdStdISO
  3
"Amdt_StdImp|Product Description: AutoCAD Mechanical|Company: Autodesk"
 90
        0
 91
        1
280
     0
281
     0
  0
CLASS
  1
ACMDATUMSTANDARDISO
  2
AcmDatumStdISO
  3
"Amdt_StdImp|Product Description: AutoCAD Mechanical|Company: Autodesk"
 90
        0
 91
        1
280
     0
281
     0
  0
CLASS
  1
ACMBOMSTANDARDISO
  2
AcmBOMStdISO
  3
"Amdt_StdImp|Product Description: AutoCAD Mechanical|Company: Autodesk"
 90
        0
 91
        1
280
     0
281
     0
  0
CLASS
  1
ACMDETAILSTANDARDISO
  2
AmdtDetailSymStdISO
  3
"Amdt_StdImp|Product Description: AutoCAD Mechanical|Company: Autodesk"
 90
        0
 91
        1
280
     0
281
     0
  0
CLASS
  1
ACMSECTIONSTANDARDISO
  2
AmdtSectionSymStdISO
  3
"Amdt_StdImp|Product Description: AutoCAD Mechanical|Company: Autodesk"
 90
        0
 91
        1
280
     0
281
     0
  0
CLASS
  1
ACMCENTERLINESTANDARDISO
  2
AmdtCenterLineStdISO
  3
"Amdt_StdImp|Product Description: AutoCAD Mechanical|Company: Autodesk"
 90
        0
 91
        1
280
     0
281
     0
  0
CLASS
  1
ACMNOTESTANDARDISO
  2
AmdtNoteStdISO
  3
"Amdt_StdImp|Product Description: AutoCAD Mechanical|Company: Autodesk"
 90
        0
 91
        1
280
     0
281
     0
  0
CLASS
  1
ACAMGLAYSTD
  2
AcAmgLayStd
  3
"AmgLay|Product Description: AutoCAD Mechanical|Company: Autodesk"
 90
        0
 91
        2
280
     0
281
     0
  0
CLASS
  1
ACAMGDIMSTD
  2
AcAmgDimStd
  3
"AmgDim|Product Description: AutoCAD Mechanical|Company: Autodesk"
 90
        0
 91
        2
280
     0
281
     0
  0
CLASS
  1
ACAMGHOLECHARTSTDISO
  2
AcAmgHoleChartStdISO
  3
ACMSYMBB_MODULE_NAME
 90
        0
 91
        1
280
     0
281
     0
  0
CLASS
  1
ACAMGTITLESTD
  2
AcAmgTitleStd
  3
"AmgTitle|Product Description: AutoCAD Mechanical|Company: Autodesk"
 90
        0
 91
        2
280
     0
281
     0
  0
CLASS
  1
LAYER_INDEX
  2
AcDbLayerIndex
  3
ObjectDBX Classes
 90
        0
 91
        0
280
     0
281
     0
  0
CLASS
  1
IDBUFFER
  2
AcDbIdBuffer
  3
ObjectDBX Classes
 90
        0
 91
        0
280
     0
281
     0
  0
CLASS
  1
DICTIONARYVAR
  2
AcDbDictionaryVar
  3
ObjectDBX Classes
 90
        0
 91
        3
280
     0
281
     0
  0
CLASS
  1
AM_DRAWING_MGR
  2
AcDmDwgMgr
  3
AcMechDwgViewMgmt
 90
        0
 91
        1
280
     0
281
     0
  0
CLASS
  1
AM_DWG_DOCUMENT
  2
AcDmDwgDocument
  3
AcMechDwgViewMgmt
 90
        0
 91
        1
280
     0
281
     0
  0
CLASS
  1
AM_DWG_SHEET
  2
AcDmSheet
  3
AcMechDwgViewMgmt
 90
        0
 91
        2
280
     0
281
     0
  0
CLASS
  1
AM_VIEWDIMPARMAP
  2
AcDmViewDimParMap
  3
AcMechDwgViewMgmt
 90
        0
 91
        2
280
     0
281
     0
  0
CLASS
  1
AM_DWGMGR_NAME
  2
AcDmDwgMgrName
  3
AcMechDwgViewMgmt
 90
        0
 91
        1
280
     0
281
     0
  0
CLASS
  1
AMDTMENUSTATEMGR
  2
AmdtMenuStateMgr
  3
McadcomServices
 90
        0
 91
        1
280
     0
281
     0
  0
CLASS
  1
AMDTMCOMMENUSTATE
  2
AmdtMcomMenuState
  3
McadcomServices
 90
        0
 91
        1
280
     0
281
     0
  0
CLASS
  1
MAPIAMMOUDLE
  2
MApiAmModule
  3
MApiAmServices
 90
        0
 91
        1
280
     0
281
     0
  0
CLASS
  1
AMDTADMENUSTATE
  2
AmdtAdMenuState
  3
DesignerServices
 90
        0
 91
        1
280
     0
281
     0
  0
CLASS
  1
ADAPPL
  2
AcAdAppl
  3
DesignerServices
 90
        0
 91
        1
280
     0
281
     0
  0
CLASS
  1
DEPMGR
  2
AcAdDepMgr
  3
DesignerServices
 90
        0
 91
        1
280
     0
281
     0
  0
CLASS
  1
PARAMMGR
  2
AcAdParamMgr
  3
DesignerServices
 90
        0
 91
        1
280
     0
281
     0
  0
CLASS
  1
PARAMSCOPE
  2
AcAdParamScope
  3
DesignerServices
 90
        0
 91
        1
280
     0
281
     0
  0
CLASS
  1
NAMEDAPPL
  2
AcAdNamedAppl
  3
DesignerServices
 90
        0
 91
        1
280
     0
281
     0
  0
CLASS
  1
AMDTDMMENUSTATE
  2
AmdtDmMenuState
  3
AcMechDwgViewMgmt
 90
        0
 91
        1
280
     0
281
     0
  0
CLASS
  1
AMDTAMMENUSTATE
  2
AmdtAmMenuState
  3
DesignerAssemblies
 90
        0
 91
        1
280
     0
281
     0
  0
CLASS
  1
ACAMPROJECT
  2
AcAmProject
  3
DesignerAssemblies
 90
        0
 91
        1
280
     0
281
     0
  0
CLASS
  1
ACAMGRCOMPDEF
  2
AcAmGrCompDef
  3
DesignerAssemblies
 90
        0
 91
        1
280
     0
281
     0
  0
CLASS
  1
ACCMCONTEXT
  2
AcCmContext
  3
DesignerAssemblies
 90
        0
 91
        1
280
     0
281
     0
  0
CLASS
  1
ACAMCOMPDEF
  2
AcAmCompDef
  3
DesignerAssemblies
 90
        0
 91
        1
280
     0
281
     0
  0
CLASS
  1
ACAMCOMPDEFMGR
  2
AcAmCompDefMgr
  3
DesignerAssemblies
 90
        0
 91
        1
280
     0
281
     0
  0
CLASS
  1
AMCONTEXTMGR
  2
AcAmContextMgr
  3
DesignerAssemblies
 90
        0
 91
        1
280
     0
281
     0
  0
CLASS
  1
ACAMCONTEXTMODELER
  2
AcAmContextModeler
  3
DesignerAssemblies
 90
        0
 91
        1
280
     0
281
     0
  0
CLASS
  1
ACMTHREADLINESTANDARDISO
  2
AmdtThreadLineStdISO
  3
"Amdt_StdImp|Product Description: AutoCAD Mechanical|Company: Autodesk"
 90
        0
 91
        1
280
     0
281
     0
  0
CLASS
  1
CATALOGSTATE
  2
AcAmCatalogState
  3
DesignerAssemblies
 90
        0
 91
        1
280
     0
281
     0
  0
CLASS
  1
ACAMGRCOMPDEFSET
  2
AcAmGrCompDefSet
  3
DesignerAssemblies
 90
        0
 91
        1
280
     0
281
     0
  0
CLASS
  1
AMDTBROWSERDBTAB
  2
AmdtBrowserDbTab
  3
McadcomServices
 90
        0
 91
        1
280
     0
281
     0
  0
CLASS
  1
CBROWSERAPPOBJECT
  2
CBrowserAppObject
  3
McadcomServices
 90
        0
 91
        3
280
     0
281
     0
  0
CLASS
  1
DM_PLACEHOLDER
  2
AcDmSelsetPlaceholder
  3
AcMechDwgViewMgmt
 90
        0
 91
        1
280
     0
281
     0
  0
CLASS
  1
TABLESTYLE
  2
AcDbTableStyle
  3
ObjectDBX Classes
 90
     4095
 91
        1
280
     0
281
     0
  0
CLASS
  1
VAACXREFPANELOBJECT
  2
VaAcXREFPanelObject
  3
VAAC_ADDIN
 90
        0
 91
        0
280
     0
281
     0
  0
CLASS
  1
VAACIMAGEINVENTORY
  2
VaAcImageInventory
  3
VAAC_ADDIN
 90
        0
 91
        0
280
     0
281
     0
  0
CLASS
  1
AMDTNOTETEMPLATEDB
  2
AmdtNoteTemplateDB
  3
AMDT_STDIMP_MODULE_NAME
 90
        0
 91
        9
280
     0
281
     0
  0
CLASS
  1
ACMBOM
  2
AcmBom
  3
"AcmSymBB|Product Description: AutoCAD Mechanical|Company: Autodesk"
 90
        0
 91
        0
280
     0
281
     0
  0
CLASS
  1
AMDTFORMULAUPDATEDISPATCHER
  2
AmdtFormulaUpdateDispatcher
  3
AcMeServices
 90
        0
 91
        0
280
     0
281
     0
  0
CLASS
  1
ACAMGFILTERDAT
  2
AcAmgFilterDat
  3
"AcadM|Product Description: AutoCAD Mechanical|Company: Autodesk"
 90
        0
 91
        0
280
     0
281
     0
  0
CLASS
  1
ACMSTANDARDDIN
  2
AcmStandardDIN
  3
"Amdt_StdImp|Product Description: AutoCAD Mechanical|Company: Autodesk"
 90
        0
 91
        1
280
     0
281
     0
  0
CLASS
  1
AMDTEDGESTANDARDDIN13715
  2
AmdtEdgeStdDIN13715
  3
"Amdt_StdImp|Product Description: AutoCAD Mechanical|Company: Autodesk"
 90
        0
 91
        1
280
     0
281
     0
  0
CLASS
  1
ACMSURFSTANDARDDIN
  2
AcmSurfTextStdDIN
  3
"Amdt_StdImp|Product Description: AutoCAD Mechanical|Company: Autodesk"
 90
        0
 91
        1
280
     0
281
     0
  0
CLASS
  1
ACMFCFSTANDARDDIN
  2
AcmFCFStdDIN
  3
"Amdt_StdImp|Product Description: AutoCAD Mechanical|Company: Autodesk"
 90
        0
 91
        1
280
     0
281
     0
  0
CLASS
  1
ACMWELDSTANDARDDIN
  2
AcmWeldingStdDIN
  3
"Amdt_StdImp|Product Description: AutoCAD Mechanical|Company: Autodesk"
 90
        0
 91
        1
280
     0
281
     0
  0
CLASS
  1
ACMIDSTANDARDDIN
  2
AcmIdStdDIN
  3
"Amdt_StdImp|Product Description: AutoCAD Mechanical|Company: Autodesk"
 90
        0
 91
        1
280
     0
281
     0
  0
CLASS
  1
ACMDATUMSTANDARDDIN
  2
AcmDatumStdDIN
  3
"Amdt_StdImp|Product Description: AutoCAD Mechanical|Company: Autodesk"
 90
        0
 91
        1
280
     0
281
     0
  0
CLASS
  1
ACMBOMSTANDARDDIN
  2
AcmBOMStdDIN
  3
"Amdt_StdImp|Product Description: AutoCAD Mechanical|Company: Autodesk"
 90
        0
 91
        1
280
     0
281
     0
  0
CLASS
  1
ACMDETAILSTANDARDDIN
  2
AmdtDetailSymStdDIN
  3
"Amdt_StdImp|Product Description: AutoCAD Mechanical|Company: Autodesk"
 90
        0
 91
        1
280
     0
281
     0
  0
CLASS
  1
ACMSECTIONSTANDARDDIN
  2
AmdtSectionSymStdDIN
  3
"Amdt_StdImp|Product Description: AutoCAD Mechanical|Company: Autodesk"
 90
        0
 91
        1
280
     0
281
     0
  0
CLASS
  1
ACMCENTERLINESTANDARDDIN
  2
AmdtCenterLineStdDIN
  3
"Amdt_StdImp|Product Description: AutoCAD Mechanical|Company: Autodesk"
 90
        0
 91
        1
280
     0
281
     0
  0
CLASS
  1
ACMTHREADLINESTANDARDDIN
  2
AmdtThreadLineStdDIN
  3
"Amdt_StdImp|Product Description: AutoCAD Mechanical|Company: Autodesk"
 90
        0
 91
        1
280
     0
281
     0
  0
CLASS
  1
ACMNOTESTANDARDDIN
  2
AmdtNoteStdDIN
  3
"Amdt_StdImp|Product Description: AutoCAD Mechanical|Company: Autodesk"
 90
        0
 91
        1
280
     0
281
     0
  0
CLASS
  1
ACAMGHOLECHARTSTDDIN
  2
AcAmgHoleChartStdDIN
  3
ACMSYMBB_MODULE_NAME
 90
        0
 91
        1
280
     0
281
     0
  0
CLASS
  1
MATERIAL
  2
AcDbMaterial
  3
ObjectDBX Classes
 90
     1024
 91
        3
280
     0
281
     0
  0
CLASS
  1
VISUALSTYLE
  2
AcDbVisualStyle
  3
ObjectDBX Classes
 90
     4095
 91
       16
280
     0
281
     0
  0
CLASS
  1
ACRFATTGENMGR
  2
AcRfAttGeneralMgr
  3
AcAttribServices
 90
        0
 91
        0
280
     0
281
     0
  0
CLASS
  1
ACRFOBJATTMGR
  2
AcRfObjAttGroupMgr
  3
AcAttribServices
 90
        0
 91
        0
280
     0
281
     0
  0
CLASS
  1
ACRFMCADAPIATTHOLDER
  2
AcRfMCADAPIAttHolder
  3
AcAttribServices
 90
        0
 91
        0
280
     0
281
     0
  0
CLASS
  1
AMDTSYSATTR
  2
AmdtSystemAttribute
  3
AcAttribServices
 90
        0
 91
        0
280
     0
281
     0
  0
CLASS
  1
ACMTAPERSTANDARDISO
  2
AcmTaperStdISO
  3
"Amdt_StdImp|Product Description: AutoCAD Mechanical|Company: Autodesk"
 90
        0
 91
        1
280
     0
281
     0
  0
CLASS
  1
ACMTAPERSTANDARDDIN
  2
AcmTaperStdDIN
  3
"Amdt_StdImp|Product Description: AutoCAD Mechanical|Company: Autodesk"
 90
        0
 91
        1
280
     0
281
     0
  0
CLASS
  1
CAMSSTRUCTBTNSTATE
  2
StructBtnState
  3
L"DesignerAssemblies"
 90
        0
 91
        0
280
     0
281
     0
  0
CLASS
  1
STDPART2D
  2
AmgStdPart
  3
"g3vace|Class: AmgStdPart|Product Description: AutoCAD Mechanical|Company: Autodesk"
 90
     3071
 91
        0
280
     0
281
     1
  0
CLASS
  1
ACMWELDSYM
  2
AcmWelding
  3
"AcmSymBB|Product Description: AutoCAD Mechanical|Company: Autodesk"
 90
     3071
 91
        0
280
     0
281
     1
  0
CLASS
  1
AMDTNOTE
  2
AmdtNote
  3
"AcmSymBB|Product Description: AutoCAD Mechanical|Company: Autodesk"
 90
     3071
 91
        0
280
     0
281
     1
  0
CLASS
  1
SORTENTSTABLE
  2
AcDbSortentsTable
  3
ObjectDBX Classes
 90
        0
 91
        0
280
     0
281
     0
  0
CLASS
  1
ACDBCIRCARCRES
  2
AcDbCircArcRes
  3
AcGrefServices
 90
        0
 91
        0
280
     0
281
     0
  0
CLASS
  1
ACRFINSADJ
  2
AcRfInsAdjuster
  3
AcMeServices
 90
        0
 91
        0
280
     0
281
     0
  0
CLASS
  1
DIMASSOC
  2
AcDbDimAssoc
  3
"AcDbDimAssoc|Product Desc:     AcDim ARX App For Dimension|Company:          Autodesk, Inc.|WEB Address:      www.autodesk.com"
 90
        0
 91
        3
280
     0
281
     0
  0
ENDSEC
  0
SECTION
  2
TABLES
  0
TABLE
  2
VPORT
  5
8
330
0
100
AcDbSymbolTable
 70
     1
  0
VPORT
  5
253
330
8
100
AcDbSymbolTableRecord
100
AcDbViewportTableRecord
  2
*Active
 70
     0
 10
0.0
 20
0.0
 11
1.0
 21
1.0
 12
1630.740542324078
 22
978.8088438944935
 13
0.0
 23
0.0
 14
10.0
 24
10.0
 15
10.0
 25
10.0
 16
0.0
 26
0.0
 36
1.0
 17
0.0
 27
0.0
 37
0.0
 40
1986.729814829665
 41
1.651898734177215
 42
50.0
 43
0.0
 44
0.0
 50
0.0
 51
0.0
 71
     0
 72
  8000
 73
     1
 74
     3
 75
     0
 76
     0
 77
     0
 78
     0
281
     0
 65
     1
110
0.0
120
0.0
130
0.0
111
1.0
121
0.0
131
0.0
112
0.0
122
1.0
132
0.0
 79
     0
146
0.0
  0
ENDTAB
  0
TABLE
  2
LTYPE
  5
5
330
0
100
AcDbSymbolTable
 70
    24
  0
LTYPE
  5
14
330
5
100
AcDbSymbolTableRecord
100
AcDbLinetypeTableRecord
  2
ByBlock
 70
     0
  3

 72
    65
 73
     0
 40
0.0
  0
LTYPE
  5
15
330
5
100
AcDbSymbolTableRecord
100
AcDbLinetypeTableRecord
  2
ByLayer
 70
     0
  3

 72
    65
 73
     0
 40
0.0
  0
LTYPE
  5
16
330
5
100
AcDbSymbolTableRecord
100
AcDbLinetypeTableRecord
  2
Continuous
 70
     0
  3
Solid line
 72
    65
 73
     0
 40
0.0
  0
LTYPE
  5
64
330
5
100
AcDbSymbolTableRecord
100
AcDbLinetypeTableRecord
  2
AM_ISO02W050
 70
     0
  3
__ __ __ __ __ __ __ __ __ __ __ __ __ __ __
 72
    65
 73
     2
 40
7.5
 49
6.0
 74
     0
 49
-1.5
 74
     0
  0
LTYPE
  5
65
330
5
100
AcDbSymbolTableRecord
100
AcDbLinetypeTableRecord
  2
AM_ISO08W050
 70
     0
  3
____ . ____ . ____ . ____ . ____ . ____ . ____
 72
    65
 73
     4
 40
18.0
 49
12.0
 74
     0
 49
-1.5
 74
     0
 49
3.0
 74
     0
 49
-1.5
 74
     0
  0
LTYPE
  5
66
330
5
100
AcDbSymbolTableRecord
100
AcDbLinetypeTableRecord
  2
AM_ISO09W050
 70
     0
  3
_____ . . _____ . . _____ . . ____ .. ____
 72
    65
 73
     6
 40
22.5
 49
12.0
 74
     0
 49
-1.5
 74
     0
 49
3.0
 74
     0
 49
-1.5
 74
     0
 49
3.0
 74
     0
 49
-1.5
 74
     0
  0
LTYPE
  5
67
330
5
100
AcDbSymbolTableRecord
100
AcDbLinetypeTableRecord
  2
Amconstr
 70
     0
  3
_______________________
 72
    65
 73
     2
 40
9999.0
 49
9999.0
 74
     0
 49
0.0
 74
     0
  0
LTYPE
  5
68
330
5
100
AcDbSymbolTableRecord
100
AcDbLinetypeTableRecord
  2
AM_ISO08W050x2
 70
     0
  3
__ . __ . __ . __ . __ . __
 72
    65
 73
     4
 40
9.0
 49
6.0
 74
     0
 49
-0.75
 74
     0
 49
1.5
 74
     0
 49
-0.75
 74
     0
  0
LTYPE
  5
69
330
5
100
AcDbSymbolTableRecord
100
AcDbLinetypeTableRecord
  2
AM_ISO02W050x2
 70
     0
  3
 _ _ _ _ _ _ _ _ _ _ _ _
 72
    65
 73
     2
 40
3.75
 49
3.0
 74
     0
 49
-0.75
 74
     0
  0
LTYPE
  5
6C
330
5
100
AcDbSymbolTableRecord
100
AcDbLinetypeTableRecord
  2
Amzigzag
 70
     0
  3
/\/-/\/-/\/-/\/-/\/-/\/
 72
    65
 73
     2
 40
11.0001
 49
0.0001
 74
     4
 75
   135
340
6B
 46
0.04
 50
0.0
 44
0.0
 45
0.0
 49
-11.0
 74
     0
  0
LTYPE
  5
7A
330
5
100
AcDbSymbolTableRecord
100
AcDbLinetypeTableRecord
  2
ACISOWELD
 70
     0
  3
_ _ _ _ _
 72
    65
 73
     2
 40
2.0
 49
2.0
 74
     0
 49
-1.0
 74
     0
  0
LTYPE
  5
7B
330
5
100
AcDbSymbolTableRecord
100
AcDbLinetypeTableRecord
  2
ACISOTGB
 70
     0
  3
__ . . __ . .
 72
    65
 73
     6
 40
9.0
 49
4.0
 74
     0
 49
-1.0
 74
     0
 49
1.0
 74
     0
 49
-1.0
 74
     0
 49
1.0
 74
     0
 49
-1.0
 74
     0
  0
LTYPE
  5
7C
330
5
100
AcDbSymbolTableRecord
100
AcDbLinetypeTableRecord
  2
ACISOTGL
 70
     0
  3
_ _ _ _ _
 72
    65
 73
     2
 40
3.0
 49
2.0
 74
     0
 49
-1.0
 74
     0
  0
LTYPE
  5
7E
330
5
100
AcDbSymbolTableRecord
100
AcDbLinetypeTableRecord
  2
CENTER
 70
     0
  3
__ . __
 72
    65
 73
     4
 40
7.0
 49
4.0
 74
     0
 49
-1.0
 74
     0
 49
1.0
 74
     0
 49
-1.0
 74
     0
  0
LTYPE
  5
D8
330
5
100
AcDbSymbolTableRecord
100
AcDbLinetypeTableRecord
  2
HIDDEN
 70
     0
  3
Hidden __ __ __ __ __ __ __ __ __ __ __ __ __ _
 72
    65
 73
     2
 40
9.524999999999998
 49
6.349999999999998
 74
     0
 49
-3.174999999999998
 74
     0
  0
LTYPE
  5
D9
330
5
100
AcDbSymbolTableRecord
100
AcDbLinetypeTableRecord
  2
PHANTOM2
 70
     0
  3
Phantom (.5x) ___ _ _ ___ _ _ ___ _ _ ___ _ _
 72
    65
 73
     6
 40
31.75
 49
15.875
 74
     0
 49
-3.174999999999998
 74
     0
 49
3.174999999999998
 74
     0
 49
-3.174999999999998
 74
     0
 49
3.174999999999998
 74
     0
 49
-3.174999999999998
 74
     0
  0
LTYPE
  5
23B
330
5
100
AcDbSymbolTableRecord
100
AcDbLinetypeTableRecord
  2
ACDINWELD
 70
     0
  3
_ _ _ _ _
 72
    65
 73
     2
 40
2.0
 49
2.0
 74
     0
 49
-1.0
 74
     0
  0
LTYPE
  5
23C
330
5
100
AcDbSymbolTableRecord
100
AcDbLinetypeTableRecord
  2
ACDINTGB
 70
     0
  3
__ . . __ . .
 72
    65
 73
     6
 40
9.0
 49
4.0
 74
     0
 49
-1.0
 74
     0
 49
1.0
 74
     0
 49
-1.0
 74
     0
 49
1.0
 74
     0
 49
-1.0
 74
     0
  0
LTYPE
  5
23D
330
5
100
AcDbSymbolTableRecord
100
AcDbLinetypeTableRecord
  2
ACDINTGL
 70
     0
  3
_ _ _ _ _
 72
    65
 73
     2
 40
3.0
 49
2.0
 74
     0
 49
-1.0
 74
     0
  0
LTYPE
  5
24E
330
5
100
AcDbSymbolTableRecord
100
AcDbLinetypeTableRecord
  2
AM_DIN_F_W050
 70
     0
  3
__ __ __ __ __ __ __ __ __ __ __ __ __ __ __
 72
    65
 73
     2
 40
6.25
 49
4.75
 74
     0
 49
-1.5
 74
     0
  0
LTYPE
  5
24F
330
5
100
AcDbSymbolTableRecord
100
AcDbLinetypeTableRecord
  2
AM_DIN_G_W050
 70
     0
  3
____ . ____ . ____ . ____ . ____ . ____ . ____
 72
    65
 73
     4
 40
13.75
 49
9.75
 74
     0
 49
-1.5
 74
     0
 49
1.0
 74
     0
 49
-1.5
 74
     0
  0
LTYPE
  5
250
330
5
100
AcDbSymbolTableRecord
100
AcDbLinetypeTableRecord
  2
AM_DIN_K_W050
 70
     0
  3
_____ . . _____ . . _____ . . ____ .. ____
 72
    65
 73
     6
 40
16.25
 49
9.75
 74
     0
 49
-1.5
 74
     0
 49
1.0
 74
     0
 49
-1.5
 74
     0
 49
1.0
 74
     0
 49
-1.5
 74
     0
  0
LTYPE
  5
251
330
5
100
AcDbSymbolTableRecord
100
AcDbLinetypeTableRecord
  2
AM_DIN_G_W050x2
 70
     0
  3
__ . __ . __ . __ . __ . __
 72
    65
 73
     4
 40
6.875
 49
4.75
 74
     0
 49
-0.875
 74
     0
 49
0.375
 74
     0
 49
-0.875
 74
     0
  0
LTYPE
  5
252
330
5
100
AcDbSymbolTableRecord
100
AcDbLinetypeTableRecord
  2
AM_DIN_F_W050x2
 70
     0
  3
 _ _ _ _ _ _ _ _ _ _ _ _
 72
    65
 73
     2
 40
3.125
 49
2.25
 74
     0
 49
-0.875
 74
     0
  0
LTYPE
  5
DD0
330
5
100
AcDbSymbolTableRecord
100
AcDbLinetypeTableRecord
  2
DASHDOT
 70
     0
  3
 __ . __ . __ . __ . __ . __ . __ . 
 72
    65
 73
     4
 40
18.5
 49
12.0
 74
     0
 49
-3.0
 74
     0
 49
0.5
 74
     0
 49
-3.0
 74
     0
  0
ENDTAB
  0
TABLE
  2
LAYER
  5
2
102
{ACAD_XDICTIONARY
360
4FE
102
}
330
0
100
AcDbSymbolTable
 70
    15
  0
LAYER
  5
10
330
2
100
AcDbSymbolTableRecord
100
AcDbLayerTableRecord
  2
0
 70
     0
 62
     7
  6
Continuous
370
    -3
390
F
  0
LAYER
  5
4DF
330
2
100
AcDbSymbolTableRecord
100
AcDbLayerTableRecord
  2
AM_5
 70
     0
 62
     3
  6
Continuous
370
    25
390
F
  0
LAYER
  5
4E0
330
2
100
AcDbSymbolTableRecord
100
AcDbLayerTableRecord
  2
AM_7
 70
     0
 62
     4
  6
AM_DIN_G_W050
370
    25
390
F
1001
AcAecLayerStandard
1000

1000

  0
LAYER
  5
4E1
330
2
100
AcDbSymbolTableRecord
100
AcDbLayerTableRecord
  2
AM_0
 70
     0
 62
     7
  6
Continuous
370
    50
390
F
  0
LAYER
  5
4E2
330
2
100
AcDbSymbolTableRecord
100
AcDbLayerTableRecord
  2
AM_3
 70
     0
 62
     6
  6
AM_DIN_F_W050
370
    25
390
F
  0
LAYER
  5
4E3
330
2
100
AcDbSymbolTableRecord
100
AcDbLayerTableRecord
  2
AM_4
 70
     0
 62
     3
  6
Continuous
370
    25
390
F
1001
AcAecLayerStandard
1000

1000

  0
LAYER
  5
4E4
330
2
100
AcDbSymbolTableRecord
100
AcDbLayerTableRecord
  2
AM_9
 70
     0
 62
  -253
  6
Continuous
370
     0
390
F
1001
AcAecLayerStandard
1000

1000

  0
LAYER
  5
4E5
330
2
100
AcDbSymbolTableRecord
100
AcDbLayerTableRecord
  2
AM_8
 70
     0
 62
     1
  6
Continuous
370
    25
390
F
1001
AcAecLayerStandard
1000

1000

  0
LAYER
  5
4E6
330
2
100
AcDbSymbolTableRecord
100
AcDbLayerTableRecord
  2
AM_BOR
 70
     0
 62
     7
  6
Continuous
370
    50
390
F
  0
LAYER
  5
4E7
330
2
100
AcDbSymbolTableRecord
100
AcDbLayerTableRecord
  2
UMRISS05
 70
     0
 62
     7
  6
Continuous
370
    -3
390
F
  0
LAYER
  5
4E8
330
2
100
AcDbSymbolTableRecord
100
AcDbLayerTableRecord
  2
6
 70
     0
 62
     2
  6
Continuous
370
    -3
390
F
  0
LAYER
  5
4E9
330
2
100
AcDbSymbolTableRecord
100
AcDbLayerTableRecord
  2
Defpoints
 70
     0
 62
     7
  6
Continuous
290
     0
370
    -3
390
F
  0
LAYER
  5
4EA
330
2
100
AcDbSymbolTableRecord
100
AcDbLayerTableRecord
  2
AM_6
 70
     0
 62
     2
  6
Continuous
370
    35
390
F
  0
LAYER
  5
114E
330
2
100
AcDbSymbolTableRecord
100
AcDbLayerTableRecord
  2
AM_CL
 70
     0
 62
     1
  6
Amconstr
370
    25
390
F
1001
AcAecLayerStandard
1000

1000

  0
LAYER
  5
1151
330
2
100
AcDbSymbolTableRecord
100
AcDbLayerTableRecord
  2
LOGO_VON_SCHLASSE_120709
 70
     0
 62
     7
  6
Continuous
370
    -3
390
F
  0
ENDTAB
  0
TABLE
  2
STYLE
  5
3
330
0
100
AcDbSymbolTable
 70
     7
  0
STYLE
  5
11
330
3
100
AcDbSymbolTableRecord
100
AcDbTextStyleTableRecord
  2
Standard
 70
     0
 40
0.0
 41
1.0
 50
0.0
 71
     0
 42
2.5
  3
ISOCP.SHX
  4
bigfont.shx
  0
STYLE
  5
6B
330
3
100
AcDbSymbolTableRecord
100
AcDbTextStyleTableRecord
  2

 70
     1
 40
0.0
 41
1.0
 50
0.0
 71
     0
 42
2.5
  3
ltypeshp.shx
  4

  0
STYLE
  5
6D
330
3
100
AcDbSymbolTableRecord
100
AcDbTextStyleTableRecord
  2
ACISOTS
 70
     0
 40
1.0
 41
1.0
 50
0.0
 71
     0
 42
2.5
  3
isocp.shx
  4
bigfont.shx
  0
STYLE
  5
79
330
3
100
AcDbSymbolTableRecord
100
AcDbTextStyleTableRecord
  2
ACISOGDT
 70
     0
 40
0.0
 41
1.0
 50
0.0
 71
     0
 42
2.5
  3
amgdt.shx
  4
bigfont.shx
  0
STYLE
  5
22D
330
3
100
AcDbSymbolTableRecord
100
AcDbTextStyleTableRecord
  2
ACDINTS
 70
     0
 40
1.0
 41
1.0
 50
0.0
 71
     0
 42
2.5
  3
isocp.shx
  4

  0
STYLE
  5
23A
330
3
100
AcDbSymbolTableRecord
100
AcDbTextStyleTableRecord
  2
ACDINGDT
 70
     0
 40
0.0
 41
1.0
 50
0.0
 71
     0
 42
2.5
  3
amgdt.shx
  4

  0
ENDTAB
  0
TABLE
  2
VIEW
  5
6
330
0
100
AcDbSymbolTable
 70
     0
  0
ENDTAB
  0
TABLE
  2
UCS
  5
7
330
0
100
AcDbSymbolTable
 70
     0
  0
ENDTAB
  0
TABLE
  2
APPID
  5
9
330
0
100
AcDbSymbolTable
 70
    30
  0
APPID
  5
12
330
9
100
AcDbSymbolTableRecord
100
AcDbRegAppTableRecord
  2
ACAD
 70
     0
  0
APPID
  5
46
330
9
100
AcDbSymbolTableRecord
100
AcDbRegAppTableRecord
  2
MCAD_NO_VIS
 70
     0
  0
APPID
  5
47
330
9
100
AcDbSymbolTableRecord
100
AcDbRegAppTableRecord
  2
ACAD_TEMP_GRAPHIC
 70
     0
  0
APPID
  5
58
330
9
100
AcDbSymbolTableRecord
100
AcDbRegAppTableRecord
  2
ACATTRIBSERVICES
 70
     0
  0
APPID
  5
EE
330
9
100
AcDbSymbolTableRecord
100
AcDbRegAppTableRecord
  2
AD_DRAW
 70
     0
  0
APPID
  5
10C
330
9
100
AcDbSymbolTableRecord
100
AcDbRegAppTableRecord
  2
DESIGNERASSEMBLIES
 70
     0
  0
APPID
  5
111
330
9
100
AcDbSymbolTableRecord
100
AcDbRegAppTableRecord
  2
ACADM_DIM_EDIT
 70
     0
  0
APPID
  5
112
330
9
100
AcDbSymbolTableRecord
100
AcDbRegAppTableRecord
  2
AMDT_DM_ADJ
 70
     0
  0
APPID
  5
4EC
330
9
100
AcDbSymbolTableRecord
100
AcDbRegAppTableRecord
  2
GENIUS_GENSCREG_15
 70
     0
  0
APPID
  5
4ED
330
9
100
AcDbSymbolTableRecord
100
AcDbRegAppTableRecord
  2
GENIUS_GENOBJ-N-SDF_13
 70
     0
  0
APPID
  5
4EE
330
9
100
AcDbSymbolTableRecord
100
AcDbRegAppTableRecord
  2
GENIUS_GENODEF_13
 70
     0
  0
APPID
  5
4EF
330
9
100
AcDbSymbolTableRecord
100
AcDbRegAppTableRecord
  2
AcAecLayerStandard
 70
     0
  0
APPID
  5
4F0
330
9
100
AcDbSymbolTableRecord
100
AcDbRegAppTableRecord
  2
GENIUS_GENOLIS_13
 70
     0
  0
APPID
  5
4F1
330
9
100
AcDbSymbolTableRecord
100
AcDbRegAppTableRecord
  2
GENIUS_GENOENT_13
 70
     0
  0
APPID
  5
4F2
330
9
100
AcDbSymbolTableRecord
100
AcDbRegAppTableRecord
  2
GENIUS_GENOREF_13
 70
     0
  0
APPID
  5
4F3
330
9
100
AcDbSymbolTableRecord
100
AcDbRegAppTableRecord
  2
GENIUS_GENOBJ-N-CEN_13
 70
     0
  0
APPID
  5
4F4
330
9
100
AcDbSymbolTableRecord
100
AcDbRegAppTableRecord
  2
GENIUS_GENCEN_19
 70
     0
  0
APPID
  5
4F5
330
9
100
AcDbSymbolTableRecord
100
AcDbRegAppTableRecord
  2
AMG_2DSTRUCT_BTR
 70
     0
  0
APPID
  5
4F6
330
9
100
AcDbSymbolTableRecord
100
AcDbRegAppTableRecord
  2
GENIUS_GENOBJ-N-HTC_13
 70
     0
  0
APPID
  5
4F7
330
9
100
AcDbSymbolTableRecord
100
AcDbRegAppTableRecord
  2
GENIUS_GENHATCH_13
 70
     0
  0
APPID
  5
4F8
330
9
100
AcDbSymbolTableRecord
100
AcDbRegAppTableRecord
  2
GENIUS_VERSION1
 70
     0
  0
APPID
  5
4F9
330
9
100
AcDbSymbolTableRecord
100
AcDbRegAppTableRecord
  2
GENIUS_GENTRA_14
 70
     0
  0
APPID
  5
4FA
330
9
100
AcDbSymbolTableRecord
100
AcDbRegAppTableRecord
  2
GENIUS_GENOBJ-N-TIT_13
 70
     0
  0
APPID
  5
4FB
330
9
100
AcDbSymbolTableRecord
100
AcDbRegAppTableRecord
  2
GENIUS_GENTITLE_13
 70
     0
  0
APPID
  5
4FC
330
9
100
AcDbSymbolTableRecord
100
AcDbRegAppTableRecord
  2
GENIUS_GENDTOL_13
 70
     0
  0
APPID
  5
4FD
330
9
100
AcDbSymbolTableRecord
100
AcDbRegAppTableRecord
  2
GENIUS_GENOBJ-N-CRS_13
 70
     0
  0
APPID
  5
C15
330
9
100
AcDbSymbolTableRecord
100
AcDbRegAppTableRecord
  2
GENIUS_GENREC_14
 70
     0
  0
APPID
  5
C16
330
9
100
AcDbSymbolTableRecord
100
AcDbRegAppTableRecord
  2
GENIUS_GENOBJ-N-REC_13
 70
     0
  0
APPID
  5
D01
330
9
100
AcDbSymbolTableRecord
100
AcDbRegAppTableRecord
  2
ACAD_PSEXT
 70
     0
  0
APPID
  5
D02
330
9
100
AcDbSymbolTableRecord
100
AcDbRegAppTableRecord
  2
DCO15
 70
     0
  0
ENDTAB
  0
TABLE
  2
DIMSTYLE
  5
A
330
0
100
AcDbSymbolTable
 70
    18
100
AcDbDimStyleTable
 71
     1
340
245
  0
DIMSTYLE
105
27
330
A
100
AcDbSymbolTableRecord
100
AcDbDimStyleTableRecord
  2
ISO-25
 70
     0
 41
2.5
 42
0.625
 43
3.75
 44
1.25
 73
     0
 74
     0
 77
     1
 78
     8
140
2.5
141
2.5
143
0.03937007874016
147
0.625
171
     3
172
     1
271
     2
272
     2
274
     3
278
    44
283
     0
284
     8
340
11
  0
DIMSTYLE
105
81
330
A
100
AcDbSymbolTableRecord
100
AcDbDimStyleTableRecord
  2
AM_ISO
 70
     0
  4
"
 41
2.5
 42
1.0
 43
10.0
 44
1.0
 47
0.1
 48
0.1
 73
     0
 74
     0
 77
     1
 78
     8
 79
     2
140
3.5
141
0.0
143
0.0393701
146
0.71
147
1.5
172
     1
176
   256
177
   256
178
     2
271
     2
272
     3
274
     4
283
     0
284
     8
340
11
371
    -1
372
    -1
  0
DIMSTYLE
105
82
330
A
100
AcDbSymbolTableRecord
100
AcDbDimStyleTableRecord
  2
AM_ISO$3
 70
     0
  4
"
 41
2.5
 42
1.0
 43
10.0
 44
1.0
 47
0.1
 48
0.1
 73
     0
 77
     1
 78
     8
 79
     2
140
3.5
141
0.0
143
0.0393701
146
0.71
147
1.5
176
   256
177
   256
178
     2
271
     2
272
     3
274
     4
283
     0
284
     8
288
     1
289
     0
340
11
371
    -1
372
    -1
  0
DIMSTYLE
105
83
330
A
100
AcDbSymbolTableRecord
100
AcDbDimStyleTableRecord
  2
AM_ISO$4
 70
     0
  4
"
 41
2.5
 42
1.0
 43
10.0
 44
1.0
 47
0.1
 48
0.1
 73
     0
 77
     1
 78
     8
 79
     2
140
3.5
141
0.0
143
0.0393701
146
0.71
147
1.5
176
   256
177
   256
178
     2
271
     2
272
     3
274
     4
283
     0
284
     8
288
     1
289
     0
340
11
371
    -1
372
    -1
  0
DIMSTYLE
105
84
330
A
100
AcDbSymbolTableRecord
100
AcDbDimStyleTableRecord
  2
AM_ISO$6
 70
     0
  4
"
 41
2.5
 42
1.0
 43
10.0
 44
1.0
 47
0.1
 48
0.1
 73
     0
 74
     0
 78
     8
 79
     2
140
3.5
141
0.0
143
0.0393701
146
0.71
147
1.5
172
     1
176
   256
177
   256
178
     2
271
     2
272
     3
274
     4
283
     0
284
     8
340
11
371
    -1
372
    -1
  0
DIMSTYLE
105
85
330
A
100
AcDbSymbolTableRecord
100
AcDbDimStyleTableRecord
  2
AM_ISO$7
 70
     0
  4
"
 41
2.5
 42
1.0
 43
10.0
 44
1.0
 47
0.1
 48
0.1
 73
     0
 74
     0
 77
     1
 78
     8
 79
     2
140
5.0
141
0.0
143
0.0393701
146
0.71
147
1.5
172
     1
176
   256
177
   256
178
     2
271
     2
272
     3
274
     4
283
     0
284
     8
340
11
371
    -1
372
    -1
  0
DIMSTYLE
105
86
330
A
100
AcDbSymbolTableRecord
100
AcDbDimStyleTableRecord
  2
AM_ISO$SF
 70
     0
  4
"
 41
2.5
 42
1.0
 43
10.0
 44
1.0
 47
0.1
 48
0.1
 73
     0
 74
     0
 75
     1
 76
     1
 77
     1
 78
     8
 79
     2
140
3.5
141
0.0
143
0.0393701
146
0.71
147
1.5
172
     1
176
   256
177
   256
178
     2
271
     2
272
     3
274
     4
283
     0
284
     8
340
11
371
    -1
372
    -1
  0
DIMSTYLE
105
8B
330
A
100
AcDbSymbolTableRecord
100
AcDbDimStyleTableRecord
  2
AM_ISO$SH
 70
     0
  4
"
 41
2.5
 42
1.0
 43
10.0
 44
1.0
 47
0.1
 48
0.1
 73
     0
 74
     0
 75
     1
 76
     1
 77
     1
 78
     8
 79
     2
140
3.5
141
0.0
143
0.0393701
144
2.0
146
0.71
147
1.5
172
     1
173
     1
176
   256
177
   256
178
     2
271
     2
272
     3
274
     4
283
     0
284
     8
340
11
343
87
371
    -1
372
    -1
  0
DIMSTYLE
105
245
330
A
100
AcDbSymbolTableRecord
100
AcDbDimStyleTableRecord
  2
AM_DIN
 70
     0
  4
"
 41
2.5
 42
1.0
 43
10.0
 44
1.0
 47
0.1
 48
0.1
 73
     0
 74
     0
 77
     1
 78
     8
 79
     2
140
3.5
141
0.0
143
0.0393701
146
0.71
147
1.5
172
     1
176
   256
177
   256
178
     2
271
     2
272
     3
274
     4
283
     0
284
     8
340
11
371
    -1
372
    -1
  0
DIMSTYLE
105
246
330
A
100
AcDbSymbolTableRecord
100
AcDbDimStyleTableRecord
  2
AM_DIN$3
 70
     0
  4
"
 41
2.5
 42
1.0
 43
10.0
 44
1.0
 47
0.1
 48
0.1
 73
     0
 77
     1
 78
     8
 79
     2
140
3.5
141
0.0
143
0.0393701
146
0.71
147
1.5
176
   256
177
   256
178
     2
271
     2
272
     3
274
     4
283
     0
284
     8
288
     1
289
     0
340
11
371
    -1
372
    -1
  0
DIMSTYLE
105
247
330
A
100
AcDbSymbolTableRecord
100
AcDbDimStyleTableRecord
  2
AM_DIN$4
 70
     0
  4
"
 41
2.5
 42
1.0
 43
10.0
 44
1.0
 47
0.1
 48
0.1
 73
     0
 77
     1
 78
     8
 79
     2
140
3.5
141
0.0
143
0.0393701
146
0.71
147
1.5
176
   256
177
   256
178
     2
271
     2
272
     3
274
     4
283
     0
284
     8
288
     1
289
     0
340
11
371
    -1
372
    -1
  0
DIMSTYLE
105
248
330
A
100
AcDbSymbolTableRecord
100
AcDbDimStyleTableRecord
  2
AM_DIN$6
 70
     0
  4
"
 41
2.5
 42
1.0
 43
10.0
 44
1.0
 47
0.1
 48
0.1
 73
     0
 74
     0
 78
     8
 79
     2
140
3.5
141
0.0
143
0.0393701
146
0.71
147
1.5
172
     1
176
   256
177
   256
178
     2
271
     2
272
     3
274
     4
283
     0
284
     8
340
11
371
    -1
372
    -1
  0
DIMSTYLE
105
249
330
A
100
AcDbSymbolTableRecord
100
AcDbDimStyleTableRecord
  2
AM_DIN$7
 70
     0
  4
"
 41
2.5
 42
1.0
 43
10.0
 44
1.0
 47
0.1
 48
0.1
 73
     0
 74
     0
 77
     1
 78
     8
 79
     2
140
5.0
141
0.0
143
0.0393701
146
0.71
147
1.5
172
     1
176
   256
177
   256
178
     2
271
     2
272
     3
274
     4
283
     0
284
     8
340
11
371
    -1
372
    -1
  0
DIMSTYLE
105
24A
330
A
100
AcDbSymbolTableRecord
100
AcDbDimStyleTableRecord
  2
AM_DIN$SF
 70
     0
  4
"
 41
2.5
 42
1.0
 43
10.0
 44
1.0
 47
0.1
 48
0.1
 73
     0
 74
     0
 75
     1
 76
     1
 77
     1
 78
     8
 79
     2
140
3.5
141
0.0
143
0.0393701
146
0.71
147
1.5
172
     1
176
   256
177
   256
178
     2
271
     2
272
     3
274
     4
283
     0
284
     8
340
11
371
    -1
372
    -1
  0
DIMSTYLE
105
24B
330
A
100
AcDbSymbolTableRecord
100
AcDbDimStyleTableRecord
  2
AM_DIN$SH
 70
     0
  4
"
 41
2.5
 42
1.0
 43
10.0
 44
1.0
 47
0.1
 48
0.1
 73
     0
 74
     0
 75
     1
 76
     1
 77
     1
 78
     8
 79
     2
140
3.5
141
0.0
143
0.0393701
144
2.0
146
0.71
147
1.5
172
     1
173
     1
176
   256
177
   256
178
     2
271
     2
272
     3
274
     4
283
     0
284
     8
340
11
343
87
371
    -1
372
    -1
  0
DIMSTYLE
105
4EB
102
{ACAD_REACTORS
330
9D0
330
9D2
330
122F
330
1247
330
13C9
102
}
330
A
100
AcDbSymbolTableRecord
100
AcDbDimStyleTableRecord
  2
AM_DIN$0
 70
     0
  4
"
 41
2.5
 42
0.0
 43
10.0
 44
2.0
 47
0.1
 48
0.1
 73
     0
 74
     0
 77
     1
 78
     8
 79
     2
140
3.5
141
0.0
143
0.0393701
146
0.71
147
1.5
172
     1
176
   256
177
   256
178
     2
271
     2
272
     2
283
     0
284
     8
340
11
371
    -1
372
    -1
  0
ENDTAB
  0
TABLE
  2
BLOCK_RECORD
  5
1
330
0
100
AcDbSymbolTable
 70
    26
  0
BLOCK_RECORD
  5
1F
102
{ACAD_XDICTIONARY
360
8F
102
}
330
1
100
AcDbSymbolTableRecord
100
AcDbBlockTableRecord
  2
*Model_Space
340
22
  0
BLOCK_RECORD
  5
1B
330
1
100
AcDbSymbolTableRecord
100
AcDbBlockTableRecord
  2
*Paper_Space
340
1E
  0
BLOCK_RECORD
  5
23
330
1
100
AcDbSymbolTableRecord
100
AcDbBlockTableRecord
  2
*Paper_Space0
340
26
  0
BLOCK_RECORD
  5
87
330
1
100
AcDbSymbolTableRecord
100
AcDbBlockTableRecord
  2
GENAXEH
340
0
  0
BLOCK_RECORD
  5
2BF
330
1
100
AcDbSymbolTableRecord
100
AcDbBlockTableRecord
  2
DIN_A2
340
0
102
{BLKREFS
331
843
102
}
  0
BLOCK_RECORD
  5
324
330
1
100
AcDbSymbolTableRecord
100
AcDbBlockTableRecord
  2
sfm
340
0
102
{BLKREFS
331
3E9
102
}
  0
BLOCK_RECORD
  5
32D
102
{ACAD_XDICTIONARY
360
32E
102
}
330
1
100
AcDbSymbolTableRecord
100
AcDbBlockTableRecord
  2
REFLEX_EDBTITLE
340
0
  0
BLOCK_RECORD
  5
46D
330
1
100
AcDbSymbolTableRecord
100
AcDbBlockTableRecord
  2
8
340
0
310
2800000020000000200000000100080000000000000400000000000000000000000000000000000000000000000080000080000000808000800000008000800080800000C0C0C000C0DCC000F0CAA6000020400000206000002080000020A0000020C0000020E00000400000004020000040400000406000004080000040A0
310
000040C0000040E00000600000006020000060400000606000006080000060A0000060C0000060E00000800000008020000080400000806000008080000080A0000080C0000080E00000A0000000A0200000A0400000A0600000A0800000A0A00000A0C00000A0E00000C0000000C0200000C0400000C0600000C0800000C0
310
A00000C0C00000C0E00000E0000000E0200000E0400000E0600000E0800000E0A00000E0C00000E0E00040000000400020004000400040006000400080004000A0004000C0004000E00040200000402020004020400040206000402080004020A0004020C0004020E000404000004040200040404000404060004040800040
310
40A0004040C0004040E00040600000406020004060400040606000406080004060A0004060C0004060E00040800000408020004080400040806000408080004080A0004080C0004080E00040A0000040A0200040A0400040A0600040A0800040A0A00040A0C00040A0E00040C0000040C0200040C0400040C0600040C08000
310
40C0A00040C0C00040C0E00040E0000040E0200040E0400040E0600040E0800040E0A00040E0C00040E0E00080000000800020008000400080006000800080008000A0008000C0008000E00080200000802020008020400080206000802080008020A0008020C0008020E00080400000804020008040400080406000804080
310
008040A0008040C0008040E00080600000806020008060400080606000806080008060A0008060C0008060E00080800000808020008080400080806000808080008080A0008080C0008080E00080A0000080A0200080A0400080A0600080A0800080A0A00080A0C00080A0E00080C0000080C0200080C0400080C0600080C0
310
800080C0A00080C0C00080C0E00080E0000080E0200080E0400080E0600080E0800080E0A00080E0C00080E0E000C0000000C0002000C0004000C0006000C0008000C000A000C000C000C000E000C0200000C0202000C0204000C0206000C0208000C020A000C020C000C020E000C0400000C0402000C0404000C0406000C0
310
408000C040A000C040C000C040E000C0600000C0602000C0604000C0606000C0608000C060A000C060C000C060E000C0800000C0802000C0804000C0806000C0808000C080A000C080C000C080E000C0A00000C0A02000C0A04000C0A06000C0A08000C0A0A000C0A0C000C0A0E000C0C00000C0C02000C0C04000C0C06000
310
C0C08000C0C0A000F0FBFF00A4A0A000808080000000FF0000FF000000FFFF00FF000000FF00FF00FFFF0000FFFFFF0000000000000000000000000000000000000000000000000000000000000000000000000000000000000000000000FDFDFDFDFD0000000000000000000000000000000000000000000000FDFDFDFDFD
310
FDFDFDFDFDFDFD00000000000000000000000000000000000000FDFDFDFDFDFD000000FDFDFDFDFD00000000000000000000000000FD000000FDFD00FD0000FDFD0000FD000000FDFD000000FD000000000000000000FD00FD0000FDFD0000FDFD00FDFD0000FDFDFDFD00FD0000000000000000000000FD000000FDFDFD00
310
FDFD00FDFD0000FDFD0000FDFD00000000000000000000FD00FD000000FDFD00FDFD00FDFD00FDFD0000FDFDFD000000000000000000FDFD0000FD0000FDFDFDFDFDFDFD00FDFDFD00FD00FD00FD00000000000000FDFD000000FDFDFDFDFDFDFDFDFDFDFDFDFD00FDFDFD0000FDFD0000000000FDFD00FDFD0000FDFDFDFD
310
FDFD00FDFDFDFDFDFDFDFD000000FDFDFD00000000FDFDFDFDFDFDFDFDFD00FDFDFDFDFDFD00FDFDFDFD0000FDFDFDFDFD00000000FDFD0000FDFDFDFDFDFDFDFDFDFD00FDFDFDFDFDFDFDFDFDFD00FDFD000000FDFD0000000000FDFDFDFDFDFDFD000000FDFDFDFDFDFDFD00000000FDFD0000FDFDFDFDFDFDFDFDFDFDFD
310
FD0000FD00FD00FDFDFDFDFDFD00000000FDFD0000FDFD00FDFDFDFDFDFD00FD00000000FD000000FDFDFDFDFDFDFDFDFDFDFD0000FDFD0000000000FDFDFDFDFD0000FD00FD00FDFDFDFDFDFDFD000000FDFD0000FDFD0000FDFDFDFDFDFDFDFD00FD000000FDFDFDFDFDFDFDFD000000FDFD0000FDFDFDFDFDFDFD00FDFD
310
00FDFD00000000FDFDFDFDFDFDFDFDFDFD00FDFD000000FDFD00000000FDFDFDFDFDFDFDFD00FDFDFDFDFDFDFDFDFDFDFDFDFD00000000FDFD000000FDFDFDFDFDFDFDFDFDFDFDFD00FDFDFDFD000000FDFDFD00000000FDFD00FDFDFDFD00FDFDFDFDFDFDFDFDFDFDFDFDFDFDFD000000FDFD0000000000FDFDFDFD0000FD
310
FDFDFDFDFDFDFDFDFDFDFDFDFDFDFDFDFDFDFD00000000000000FDFD0000FDFDFD00FDFDFDFDFDFDFDFDFDFDFDFD00FDFDFD000000000000000000FD00FD00FD0000FDFDFDFDFDFDFDFD00FDFD00FD00FDFD00000000000000000000FDFDFD0000FDFD0000FDFD00FDFD0000FDFD00FD0000000000000000000000FDFDFDFD
310
0000FDFD0000FD0000FDFD0000FDFDFD00FD000000000000000000FD000000FDFDFDFD000000FD0000FDFDFD00FDFDFD0000FD00000000000000000000000000FDFDFDFD0000FD000000FDFDFDFD00000000000000000000000000000000000000FDFDFDFDFDFDFDFDFDFDFDFD000000000000000000000000000000000000
310
0000000000FDFDFDFDFDFD000000000000000000000000000000000000000000000000000000000000000000000000000000000000000000
1001
ACAD
1000
DesignCenter Data
1002
{
1070
     1
1070
     4
1002
}
  0
BLOCK_RECORD
  5
B2B
330
1
100
AcDbSymbolTableRecord
100
AcDbBlockTableRecord
  2
*D6
340
0
  0
BLOCK_RECORD
  5
B37
330
1
100
AcDbSymbolTableRecord
100
AcDbBlockTableRecord
  2
*D7
340
0
  0
BLOCK_RECORD
  5
B43
330
1
100
AcDbSymbolTableRecord
100
AcDbBlockTableRecord
  2
*D8
340
0
  0
BLOCK_RECORD
  5
B4F
330
1
100
AcDbSymbolTableRecord
100
AcDbBlockTableRecord
  2
*D9
340
0
  0
BLOCK_RECORD
  5
B5B
330
1
100
AcDbSymbolTableRecord
100
AcDbBlockTableRecord
  2
*D10
340
0
  0
BLOCK_RECORD
  5
B67
330
1
100
AcDbSymbolTableRecord
100
AcDbBlockTableRecord
  2
*D11
340
0
  0
BLOCK_RECORD
  5
B73
330
1
100
AcDbSymbolTableRecord
100
AcDbBlockTableRecord
  2
*D12
340
0
  0
BLOCK_RECORD
  5
B80
330
1
100
AcDbSymbolTableRecord
100
AcDbBlockTableRecord
  2
*D13
340
0
  0
BLOCK_RECORD
  5
B8C
330
1
100
AcDbSymbolTableRecord
100
AcDbBlockTableRecord
  2
*D14
340
0
  0
BLOCK_RECORD
  5
B98
330
1
100
AcDbSymbolTableRecord
100
AcDbBlockTableRecord
  2
*D15
340
0
  0
BLOCK_RECORD
  5
BA4
330
1
100
AcDbSymbolTableRecord
100
AcDbBlockTableRecord
  2
*D16
340
0
  0
BLOCK_RECORD
  5
CA9
330
1
100
AcDbSymbolTableRecord
100
AcDbBlockTableRecord
  2
1
340
0
310
2800000020000000200000000100080000000000000400000000000000000000000000000000000000000000000080000080000000808000800000008000800080800000C0C0C000C0DCC000F0CAA6000020400000206000002080000020A0000020C0000020E00000400000004020000040400000406000004080000040A0
310
000040C0000040E00000600000006020000060400000606000006080000060A0000060C0000060E00000800000008020000080400000806000008080000080A0000080C0000080E00000A0000000A0200000A0400000A0600000A0800000A0A00000A0C00000A0E00000C0000000C0200000C0400000C0600000C0800000C0
310
A00000C0C00000C0E00000E0000000E0200000E0400000E0600000E0800000E0A00000E0C00000E0E00040000000400020004000400040006000400080004000A0004000C0004000E00040200000402020004020400040206000402080004020A0004020C0004020E000404000004040200040404000404060004040800040
310
40A0004040C0004040E00040600000406020004060400040606000406080004060A0004060C0004060E00040800000408020004080400040806000408080004080A0004080C0004080E00040A0000040A0200040A0400040A0600040A0800040A0A00040A0C00040A0E00040C0000040C0200040C0400040C0600040C08000
310
40C0A00040C0C00040C0E00040E0000040E0200040E0400040E0600040E0800040E0A00040E0C00040E0E00080000000800020008000400080006000800080008000A0008000C0008000E00080200000802020008020400080206000802080008020A0008020C0008020E00080400000804020008040400080406000804080
310
008040A0008040C0008040E00080600000806020008060400080606000806080008060A0008060C0008060E00080800000808020008080400080806000808080008080A0008080C0008080E00080A0000080A0200080A0400080A0600080A0800080A0A00080A0C00080A0E00080C0000080C0200080C0400080C0600080C0
310
800080C0A00080C0C00080C0E00080E0000080E0200080E0400080E0600080E0800080E0A00080E0C00080E0E000C0000000C0002000C0004000C0006000C0008000C000A000C000C000C000E000C0200000C0202000C0204000C0206000C0208000C020A000C020C000C020E000C0400000C0402000C0404000C0406000C0
310
408000C040A000C040C000C040E000C0600000C0602000C0604000C0606000C0608000C060A000C060C000C060E000C0800000C0802000C0804000C0806000C0808000C080A000C080C000C080E000C0A00000C0A02000C0A04000C0A06000C0A08000C0A0A000C0A0C000C0A0E000C0C00000C0C02000C0C04000C0C06000
310
C0C08000C0C0A000F0FBFF00A4A0A000808080000000FF0000FF000000FFFF00FF000000FF00FF00FFFF0000FFFFFF00000000000000000000000000000000000000000000000000000000000000000000000000000000000000000000000000FD000000000000000000000000000000000000000000000000000000000000
310
00FD00000000000000000000000000000000000000000000000000000000FDFDFDFDFDFD000000000000000000000000000000000000000000000000FDFDFDFD00FDFDFDFDFDFD00000000000000000000000000000000000000FDFD0000FDFDFDFDFDFD0000FDFDFD000000000000000000000000000000FDFD00FDFD00FD
310
FDFDFDFDFD00FDFD00FDFD00000000000000000000000000FDFD000000FD0000FDFDFDFDFD00FDFD0000FDFD000000000000000000000000FDFDFD0000FDFD00FDFDFDFD00FDFD0000FDFDFD0000000000000000000000FD0000FDFD0000FDFDFDFDFDFDFDFDFD00FDFD00FDFD000000000000000000FDFD000000FDFDFDFD
310
FDFDFDFDFDFDFDFDFDFD000000FDFD0000000000000000FDFDFDFD0000FD00FDFDFDFDFDFDFDFD00FD0000FDFDFDFD0000000000000000FD00FDFDFDFDFDFD00FDFDFDFDFDFD00FDFDFDFDFDFD00FD00000000000000FDFD000000FDFDFDFDFDFDFD00FDFDFDFDFDFDFDFD000000FD00000000000000FDFDFDFDFDFDFDFDFD
310
FD000000FD00FDFDFDFDFDFDFDFDFDFDFD000000000000FDFDFDFDFDFDFDFDFDFD000000FD0000FDFDFDFDFDFDFDFDFDFD00000000FDFDFDFDFDFDFDFDFDFDFDFDFDFDFDFDFDFDFDFDFDFDFDFDFDFDFDFDFDFD00000000FDFD00FDFDFDFDFDFDFD000000FD0000FDFDFDFDFDFDFD0000FD000000000000FDFDFDFDFDFDFDFD
310
FDFDFDFD00FDFDFDFDFDFDFDFDFDFDFDFDFD00000000000000FDFD0000FDFDFDFDFDFDFDFDFDFDFDFDFDFDFDFD0000FDFD0000000000000000FDFD00FDFDFDFDFDFDFDFDFDFDFDFDFDFDFDFDFDFD00FDFD000000000000000000FDFDFDFD0000FDFDFD00FDFDFDFDFDFD0000FDFDFDFDFD000000000000000000FDFD000000
310
FDFDFDFDFDFDFDFDFDFDFDFD000000FDFD0000000000000000000000FD0000FDFD00FDFDFDFDFDFDFDFD00FDFD00FDFD000000000000000000000000FD0000FD0000FDFD00FDFD00FDFD0000FD00FDFD00000000000000000000000000FDFD000000FDFD00FDFD00FDFD000000FDFD00000000000000000000000000000000
310
FDFDFDFD0000FDFD0000FDFDFDFDFD00000000000000000000000000000000000000FDFDFD00FDFD0000FDFDFD000000000000000000000000000000000000000000000000FDFDFDFDFD0000000000000000000000000000000000000000000000000000000000FD0000000000000000000000000000000000000000000000
310
0000000000000000FD0000000000000000000000000000000000000000000000000000000000000000000000000000000000000000000000
102
{BLKREFS
331
D19
331
D1A
102
}
1001
ACAD
1000
DesignCenter Data
1002
{
1070
     1
1070
     4
1002
}
  0
BLOCK_RECORD
  5
D18
102
{ACAD_XDICTIONARY
360
D1E
102
}
330
1
100
AcDbSymbolTableRecord
100
AcDbBlockTableRecord
  2
A$C0120759A
340
0
1001
ACAD
1000
DesignCenter Data
1002
{
1070
     1
1070
     4
1002
}
  0
BLOCK_RECORD
  5
1230
330
1
100
AcDbSymbolTableRecord
100
AcDbBlockTableRecord
  2
*D19
340
0
  0
BLOCK_RECORD
  5
1248
330
1
100
AcDbSymbolTableRecord
100
AcDbBlockTableRecord
  2
*D20
340
0
  0
BLOCK_RECORD
  5
12FC
330
1
100
AcDbSymbolTableRecord
100
AcDbBlockTableRecord
  2
*S2621
340
0
102
{BLKREFS
331
D1B
102
}
  0
BLOCK_RECORD
  5
13CA
330
1
100
AcDbSymbolTableRecord
100
AcDbBlockTableRecord
  2
*D23
340
0
  0
ENDTAB
  0
ENDSEC
  0
SECTION
  2
BLOCKS
  0
BLOCK
  5
20
330
1F
100
AcDbEntity
  8
0
100
AcDbBlockBegin
  2
*Model_Space
 70
     0
 10
0.0
 20
0.0
 30
0.0
  3
*Model_Space
  1

  0
ENDBLK
  5
21
330
1F
100
AcDbEntity
  8
0
100
AcDbBlockEnd
  0
BLOCK
  5
1C
330
1B
100
AcDbEntity
 67
     1
  8
0
100
AcDbBlockBegin
  2
*Paper_Space
 70
     0
 10
0.0
 20
0.0
 30
0.0
  3
*Paper_Space
  1

  0
ENDBLK
  5
1D
330
1B
100
AcDbEntity
 67
     1
  8
0
100
AcDbBlockEnd
  0
BLOCK
  5
24
330
23
100
AcDbEntity
 67
     1
  8
0
100
AcDbBlockBegin
  2
*Paper_Space0
 70
     0
 10
0.0
 20
0.0
 30
0.0
  3
*Paper_Space0
  1

  0
ENDBLK
  5
25
330
23
100
AcDbEntity
 67
     1
  8
0
100
AcDbBlockEnd
  0
BLOCK
  5
1379
330
87
100
AcDbEntity
  8
0
100
AcDbBlockBegin
  2
GENAXEH
 70
     0
 10
0.0
 20
0.0
 30
0.0
  3
GENAXEH
  1

  0
LINE
  5
137A
330
87
100
AcDbEntity
  8
0
100
AcDbLine
 10
-1.0
 20
0.0
 30
0.0
 11
1.0
 21
0.0
 31
0.0
  0
ENDBLK
  5
137B
330
87
100
AcDbEntity
  8
0
100
AcDbBlockEnd
  0
BLOCK
  5
2C0
330
2BF
100
AcDbEntity
  8
0
100
AcDbBlockBegin
  2
DIN_A2
 70
     0
 10
0.0
 20
0.0
 30
0.0
  3
DIN_A2
  1

  0
LINE
  5
2C1
330
2BF
100
AcDbEntity
  8
AM_BOR
 62
     1
370
    25
100
AcDbLine
 10
10.00000000000002
 20
410.0
 30
0.0
 11
584.0
 21
410.0
 31
0.0
  0
LINE
  5
2C2
330
2BF
100
AcDbEntity
  8
0
100
AcDbLine
 10
5.0
 20
5.0
 30
0.0
 11
5.000000000000023
 21
415.0
 31
0.0
  0
TEXT
  5
2C3
330
2BF
100
AcDbEntity
  8
0
 60
     1
100
AcDbText
 10
583.9999999999998
 20
10.0
 30
0.0
 40
3.5
  1
!GENTITLE-INSERT
  7
ACDINTS
100
AcDbText
  0
TEXT
  5
2C4
330
2BF
100
AcDbEntity
  8
0
 60
     1
100
AcDbText
 10
10.0
 20
10.00000000000005
 30
0.0
 40
3.5
  1
!GENTITLE-LL
  7
ACDINTS
100
AcDbText
  0
TEXT
  5
2C5
330
2BF
100
AcDbEntity
  8
0
 60
     1
100
AcDbText
 10
584.0
 20
410.0
 30
0.0
 40
3.5
  1
!GENTITLE-RU
  7
ACDINTS
100
AcDbText
  0
TEXT
  5
2C6
330
2BF
100
AcDbEntity
  8
0
 60
     1
100
AcDbText
 10
594.0
 20
420.0
 30
0.0
 40
3.5
  1
!GENTITLE-MAX
  7
ACDINTS
100
AcDbText
  0
LINE
  5
2C7
330
2BF
100
AcDbEntity
  8
AM_BOR
 62
     1
370
    25
100
AcDbLine
 10
401.9999999999997
 20
0.0
 30
0.0
 11
401.9999999999997
 21
5.000000000000023
 31
0.0
  0
LINE
  5
2C8
330
2BF
100
AcDbEntity
  8
AM_BOR
 62
     1
370
    25
100
AcDbLine
 10
593.9999999999997
 20
0.0
 30
0.0
 11
401.9999999999997
 21
0.0
 31
0.0
  0
LINE
  5
2C9
330
2BF
100
AcDbEntity
  8
AM_BOR
 62
     1
370
    25
100
AcDbLine
 10
583.9999999999998
 20
10.0
 30
0.0
 11
9.999999999999886
 21
10.00000000000007
 31
0.0
  0
LINE
  5
2CA
330
2BF
100
AcDbEntity
  8
AM_BOR
 62
     1
370
    25
100
AcDbLine
 10
53.66666700000002
 20
415.0
 30
0.0
 11
53.66666700000002
 21
410.0
 31
0.0
  0
TEXT
  5
2CB
330
2BF
100
AcDbEntity
  8
AM_BOR
 62
     1
370
    25
100
AcDbText
 10
28.33333350000002
 20
410.5
 30
0.0
 40
4.0
  1
1
  7
ACDINTS
 72
     1
 11
29.33333350000002
 21
412.5
 31
0.0
100
AcDbText
 73
     2
  0
LINE
  5
2CC
330
2BF
100
AcDbEntity
  8
AM_BOR
 62
     1
370
    25
100
AcDbLine
 10
588.9999999999997
 20
56.25
 30
0.0
 11
584.0168861241238
 21
56.25
 31
0.0
  0
TEXT
  5
2CD
330
2BF
100
AcDbEntity
  8
AM_BOR
 62
     1
370
    25
100
AcDbText
 10
584.9084430620619
 20
28.625
 30
0.0
 40
4.0
  1
H
  7
ACDINTS
 72
     1
 11
586.5084430620619
 21
30.625
 31
0.0
100
AcDbText
 73
     2
  0
LINE
  5
2CE
330
2BF
100
AcDbEntity
  8
AM_BOR
 62
     1
370
    25
100
AcDbLine
 10
584.0
 20
410.0
 30
0.0
 11
583.9999999999998
 21
10.0
 31
0.0
  0
LINE
  5
2CF
330
2BF
100
AcDbEntity
  8
AM_BOR
 62
     1
370
    25
100
AcDbLine
 10
10.0
 20
10.0
 30
0.0
 11
10.00000000000002
 21
410.0
 31
0.0
  0
LINE
  5
2D0
330
2BF
100
AcDbEntity
  8
0
100
AcDbLine
 10
588.9999999999997
 20
5.0
 30
0.0
 11
4.999999999999886
 21
5.000000000000071
 31
0.0
  0
LINE
  5
2D1
330
2BF
100
AcDbEntity
  8
0
100
AcDbLine
 10
589.0
 20
415.0
 30
0.0
 11
588.9999999999997
 21
5.0
 31
0.0
  0
LINE
  5
2D2
330
2BF
100
AcDbEntity
  8
0
100
AcDbLine
 10
5.000000000000023
 20
415.0
 30
0.0
 11
589.0
 21
415.0
 31
0.0
  0
LINE
  5
2D3
330
2BF
100
AcDbEntity
  8
AM_BOR
 62
     1
370
    25
100
AcDbLine
 10
593.9999999999997
 20
0.0
 30
0.0
 11
-0.0000000000001137
 21
0.0000000000000727
 31
0.0
  0
LINE
  5
2D4
330
2BF
100
AcDbEntity
  8
AM_BOR
 62
     1
370
    25
100
AcDbLine
 10
0.0000000000000257
 20
420.0
 30
0.0
 11
594.0
 21
420.0
 31
0.0
  0
LINE
  5
2D5
330
2BF
100
AcDbEntity
  8
AM_BOR
 62
     1
370
    25
100
AcDbLine
 10
0.0
 20
0.0
 30
0.0
 11
0.0000000000000257
 21
420.0
 31
0.0
  0
LINE
  5
2D6
330
2BF
100
AcDbEntity
  8
AM_BOR
 62
     1
370
    25
100
AcDbLine
 10
210.0
 20
5.0
 30
0.0
 11
210.0
 21
0.0
 31
0.0
  0
LINE
  5
2D7
330
2BF
100
AcDbEntity
  8
AM_BOR
 62
     1
370
    25
100
AcDbLine
 10
0.0
 20
297.0
 30
0.0
 11
5.0
 21
297.0
 31
0.0
  0
LINE
  5
2D8
330
2BF
100
AcDbEntity
  8
AM_BOR
 62
     1
370
    25
100
AcDbLine
 10
105.0
 20
420.0
 30
0.0
 11
105.0
 21
415.0
 31
0.0
  0
LINE
  5
2D9
330
2BF
100
AcDbEntity
  8
AM_BOR
 62
     1
370
    25
100
AcDbLine
 10
594.0
 20
420.0
 30
0.0
 11
593.9999999999997
 21
0.0
 31
0.0
  0
LINE
  5
2DA
330
2BF
100
AcDbEntity
  8
AM_BOR
 62
     2
370
    35
100
AcDbLine
 10
297.0
 20
415.0
 30
0.0
 11
297.0
 21
400.0
 31
0.0
  0
LINE
  5
2DB
330
2BF
100
AcDbEntity
  8
AM_BOR
 62
     2
370
    35
100
AcDbLine
 10
5.000000000000012
 20
210.0
 30
0.0
 11
20.00000000000001
 21
210.0
 31
0.0
  0
LINE
  5
2DC
330
2BF
100
AcDbEntity
  8
AM_BOR
 62
     2
370
    35
100
AcDbLine
 10
296.9999999999999
 20
5.000000000000034
 30
0.0
 11
296.9999999999999
 21
20.00000000000003
 31
0.0
  0
LINE
  5
2DD
330
2BF
100
AcDbEntity
  8
AM_BOR
 62
     2
370
    35
100
AcDbLine
 10
589.0
 20
210.0
 30
0.0
 11
574.0
 21
210.0
 31
0.0
  0
TEXT
  5
2DE
330
2BF
100
AcDbEntity
  8
AM_BOR
 62
     1
370
    25
100
AcDbText
 10
76.5306697913386
 20
410.5
 30
0.0
 40
4.0
  1
2
  7
ACDINTS
 72
     1
 11
78.00000050000001
 21
412.5
 31
0.0
100
AcDbText
 73
     2
  0
LINE
  5
2DF
330
2BF
100
AcDbEntity
  8
AM_BOR
 62
     1
370
    25
100
AcDbLine
 10
102.333334
 20
415.0
 30
0.0
 11
102.333334
 21
410.0
 31
0.0
  0
TEXT
  5
2E0
330
2BF
100
AcDbEntity
  8
AM_BOR
 62
     1
370
    25
100
AcDbText
 10
125.1838247875254
 20
410.5
 30
0.0
 40
4.0
  1
3
  7
ACDINTS
 72
     1
 11
126.6666675
 21
412.5
 31
0.0
100
AcDbText
 73
     2
  0
LINE
  5
2E1
330
2BF
100
AcDbEntity
  8
AM_BOR
 62
     1
370
    25
100
AcDbLine
 10
151.000001
 20
415.0
 30
0.0
 11
151.000001
 21
410.0
 31
0.0
  0
TEXT
  5
2E2
330
2BF
100
AcDbEntity
  8
AM_BOR
 62
     1
370
    25
100
AcDbText
 10
173.7333344999999
 20
410.5
 30
0.0
 40
4.0
  1
4
  7
ACDINTS
 72
     1
 11
175.3333344999999
 21
412.5
 31
0.0
100
AcDbText
 73
     2
  0
LINE
  5
2E3
330
2BF
100
AcDbEntity
  8
AM_BOR
 62
     1
370
    25
100
AcDbLine
 10
199.666668
 20
415.0
 30
0.0
 11
199.666668
 21
410.0
 31
0.0
  0
TEXT
  5
2E4
330
2BF
100
AcDbEntity
  8
AM_BOR
 62
     1
370
    25
100
AcDbText
 10
222.5171587875254
 20
410.5
 30
0.0
 40
4.0
  1
5
  7
ACDINTS
 72
     1
 11
224.0000015
 21
412.5
 31
0.0
100
AcDbText
 73
     2
  0
LINE
  5
2E5
330
2BF
100
AcDbEntity
  8
AM_BOR
 62
     1
370
    25
100
AcDbLine
 10
248.333335
 20
415.0
 30
0.0
 11
248.333335
 21
410.0
 31
0.0
  0
TEXT
  5
2E6
330
2BF
100
AcDbEntity
  8
AM_BOR
 62
     1
370
    25
100
AcDbText
 10
271.2871409409449
 20
410.5
 30
0.0
 40
4.0
  1
6
  7
ACDINTS
 72
     1
 11
272.6666685
 21
412.5
 31
0.0
100
AcDbText
 73
     2
  0
TEXT
  5
2E7
330
2BF
100
AcDbEntity
  8
AM_BOR
 62
     1
370
    25
100
AcDbText
 10
319.9333355
 20
410.5
 30
0.0
 40
4.0
  1
7
  7
ACDINTS
 72
     1
 11
321.3333355
 21
412.5
 31
0.0
100
AcDbText
 73
     2
  0
LINE
  5
2E8
330
2BF
100
AcDbEntity
  8
AM_BOR
 62
     1
370
    25
100
AcDbLine
 10
345.666669
 20
415.0
 30
0.0
 11
345.666669
 21
410.0
 31
0.0
  0
TEXT
  5
2E9
330
2BF
100
AcDbEntity
  8
AM_BOR
 62
     1
370
    25
100
AcDbText
 10
368.6000025
 20
410.5
 30
0.0
 40
4.0
  1
8
  7
ACDINTS
 72
     1
 11
370.0000025
 21
412.5
 31
0.0
100
AcDbText
 73
     2
  0
LINE
  5
2EA
330
2BF
100
AcDbEntity
  8
AM_BOR
 62
     1
370
    25
100
AcDbLine
 10
394.333336
 20
415.0
 30
0.0
 11
394.333336
 21
410.0
 31
0.0
  0
TEXT
  5
2EB
330
2BF
100
AcDbEntity
  8
AM_BOR
 62
     1
370
    25
100
AcDbText
 10
417.1993365934824
 20
410.5
 30
0.0
 40
4.0
  1
9
  7
ACDINTS
 72
     1
 11
418.6666694999998
 21
412.5
 31
0.0
100
AcDbText
 73
     2
  0
LINE
  5
2EC
330
2BF
100
AcDbEntity
  8
AM_BOR
 62
     1
370
    25
100
AcDbLine
 10
443.0000029999998
 20
415.0
 30
0.0
 11
443.0000029999998
 21
410.0
 31
0.0
  0
TEXT
  5
2ED
330
2BF
100
AcDbEntity
  8
AM_BOR
 62
     1
370
    25
100
AcDbText
 10
464.9317616968502
 20
410.5
 30
0.0
 40
4.0
  1
10
  7
ACDINTS
 72
     1
 11
467.3333364999999
 21
412.5
 31
0.0
100
AcDbText
 73
     2
  0
LINE
  5
2EE
330
2BF
100
AcDbEntity
  8
AM_BOR
 62
     1
370
    25
100
AcDbLine
 10
491.6666699999999
 20
415.0
 30
0.0
 11
491.6666699999999
 21
410.0
 31
0.0
  0
TEXT
  5
2EF
330
2BF
100
AcDbEntity
  8
AM_BOR
 62
     1
370
    25
100
AcDbText
 10
514.0000034999999
 20
410.5
 30
0.0
 40
4.0
  1
11
  7
ACDINTS
 72
     1
 11
516.0000034999999
 21
412.5
 31
0.0
100
AcDbText
 73
     2
  0
LINE
  5
2F0
330
2BF
100
AcDbEntity
  8
AM_BOR
 62
     1
370
    25
100
AcDbLine
 10
540.3333369999999
 20
415.0
 30
0.0
 11
540.3333369999999
 21
410.0
 31
0.0
  0
TEXT
  5
2F1
330
2BF
100
AcDbEntity
  8
AM_BOR
 62
     1
370
    25
100
AcDbText
 10
562.1465523897636
 20
410.5
 30
0.0
 40
4.0
  1
12
  7
ACDINTS
 72
     1
 11
564.6666704999999
 21
412.5
 31
0.0
100
AcDbText
 73
     2
  0
LINE
  5
2F2
330
2BF
100
AcDbEntity
  8
AM_BOR
 62
     1
370
    25
100
AcDbLine
 10
102.3333339999999
 20
10.00000000000005
 30
0.0
 11
102.3333339999999
 21
5.000000000000055
 31
0.0
  0
LINE
  5
2F3
330
2BF
100
AcDbEntity
  8
AM_BOR
 62
     1
370
    25
100
AcDbLine
 10
53.66666699999996
 20
10.00000000000005
 30
0.0
 11
53.66666699999996
 21
5.000000000000055
 31
0.0
  0
TEXT
  5
2F4
330
2BF
100
AcDbEntity
  8
AM_BOR
 62
     1
370
    25
100
AcDbText
 10
28.33333349999997
 20
5.500000000000055
 30
0.0
 40
4.0
  1
1
  7
ACDINTS
 72
     1
 11
29.33333349999997
 21
7.500000000000055
 31
0.0
100
AcDbText
 73
     2
  0
TEXT
  5
2F5
330
2BF
100
AcDbEntity
  8
AM_BOR
 62
     1
370
    25
100
AcDbText
 10
76.53066979133853
 20
5.500000000000055
 30
0.0
 40
4.0
  1
2
  7
ACDINTS
 72
     1
 11
78.00000049999995
 21
7.500000000000055
 31
0.0
100
AcDbText
 73
     2
  0
LINE
  5
2F6
330
2BF
100
AcDbEntity
  8
AM_BOR
 62
     1
370
    25
100
AcDbLine
 10
199.6666679999999
 20
10.00000000000005
 30
0.0
 11
199.6666679999999
 21
5.000000000000055
 31
0.0
  0
LINE
  5
2F7
330
2BF
100
AcDbEntity
  8
AM_BOR
 62
     1
370
    25
100
AcDbLine
 10
151.0000009999999
 20
10.00000000000005
 30
0.0
 11
151.0000009999999
 21
5.000000000000055
 31
0.0
  0
TEXT
  5
2F8
330
2BF
100
AcDbEntity
  8
AM_BOR
 62
     1
370
    25
100
AcDbText
 10
125.1838247875252
 20
5.500000000000055
 30
0.0
 40
4.0
  1
3
  7
ACDINTS
 72
     1
 11
126.6666674999999
 21
7.500000000000055
 31
0.0
100
AcDbText
 73
     2
  0
TEXT
  5
2F9
330
2BF
100
AcDbEntity
  8
AM_BOR
 62
     1
370
    25
100
AcDbText
 10
173.7333344999999
 20
5.500000000000055
 30
0.0
 40
4.0
  1
4
  7
ACDINTS
 72
     1
 11
175.3333344999999
 21
7.500000000000055
 31
0.0
100
AcDbText
 73
     2
  0
LINE
  5
2FA
330
2BF
100
AcDbEntity
  8
AM_BOR
 62
     1
370
    25
100
AcDbLine
 10
248.3333349999999
 20
10.00000000000005
 30
0.0
 11
248.3333349999999
 21
5.000000000000055
 31
0.0
  0
TEXT
  5
2FB
330
2BF
100
AcDbEntity
  8
AM_BOR
 62
     1
370
    25
100
AcDbText
 10
222.5171587875253
 20
5.500000000000055
 30
0.0
 40
4.0
  1
5
  7
ACDINTS
 72
     1
 11
224.0000014999999
 21
7.500000000000055
 31
0.0
100
AcDbText
 73
     2
  0
TEXT
  5
2FC
330
2BF
100
AcDbEntity
  8
AM_BOR
 62
     1
370
    25
100
AcDbText
 10
271.2871409409448
 20
5.500000000000055
 30
0.0
 40
4.0
  1
6
  7
ACDINTS
 72
     1
 11
272.6666684999999
 21
7.500000000000055
 31
0.0
100
AcDbText
 73
     2
  0
LINE
  5
2FD
330
2BF
100
AcDbEntity
  8
AM_BOR
 62
     1
370
    25
100
AcDbLine
 10
394.3333359999999
 20
10.00000000000005
 30
0.0
 11
394.3333359999999
 21
5.000000000000055
 31
0.0
  0
LINE
  5
2FE
330
2BF
100
AcDbEntity
  8
AM_BOR
 62
     1
370
    25
100
AcDbLine
 10
345.6666689999999
 20
10.00000000000005
 30
0.0
 11
345.6666689999999
 21
5.000000000000055
 31
0.0
  0
TEXT
  5
2FF
330
2BF
100
AcDbEntity
  8
AM_BOR
 62
     1
370
    25
100
AcDbText
 10
368.6000025
 20
5.500000000000055
 30
0.0
 40
4.0
  1
8
  7
ACDINTS
 72
     1
 11
370.0000025
 21
7.500000000000055
 31
0.0
100
AcDbText
 73
     2
  0
TEXT
  5
300
330
2BF
100
AcDbEntity
  8
AM_BOR
 62
     1
370
    25
100
AcDbText
 10
319.9333354999999
 20
5.500000000000055
 30
0.0
 40
4.0
  1
7
  7
ACDINTS
 72
     1
 11
321.3333354999999
 21
7.500000000000055
 31
0.0
100
AcDbText
 73
     2
  0
LINE
  5
301
330
2BF
100
AcDbEntity
  8
AM_BOR
 62
     1
370
    25
100
AcDbLine
 10
588.9999999999997
 20
107.5
 30
0.0
 11
584.0168861241238
 21
107.5
 31
0.0
  0
TEXT
  5
302
330
2BF
100
AcDbEntity
  8
AM_BOR
 62
     1
370
    25
100
AcDbText
 10
585.0119964526552
 20
79.875
 30
0.0
 40
4.0
  1
G
  7
ACDINTS
 72
     1
 11
586.5084430620619
 21
81.875
 31
0.0
100
AcDbText
 73
     2
  0
LINE
  5
303
330
2BF
100
AcDbEntity
  8
AM_BOR
 62
     1
370
    25
100
AcDbLine
 10
588.9999999999997
 20
158.75
 30
0.0
 11
584.0168861241238
 21
158.75
 31
0.0
  0
TEXT
  5
304
330
2BF
100
AcDbEntity
  8
AM_BOR
 62
     1
370
    25
100
AcDbText
 10
585.1084430620619
 20
131.125
 30
0.0
 40
4.0
  1
F
  7
ACDINTS
 72
     1
 11
586.5084430620619
 21
133.125
 31
0.0
100
AcDbText
 73
     2
  0
LINE
  5
305
330
2BF
100
AcDbEntity
  8
AM_BOR
 62
     1
370
    25
100
AcDbLine
 10
588.9999999999997
 20
210.0
 30
0.0
 11
584.0168861241238
 21
210.0
 31
0.0
  0
TEXT
  5
306
330
2BF
100
AcDbEntity
  8
AM_BOR
 62
     1
370
    25
100
AcDbText
 10
585.1084430620619
 20
182.375
 30
0.0
 40
4.0
  1
E
  7
ACDINTS
 72
     1
 11
586.5084430620619
 21
184.375
 31
0.0
100
AcDbText
 73
     2
  0
LINE
  5
307
330
2BF
100
AcDbEntity
  8
AM_BOR
 62
     1
370
    25
100
AcDbLine
 10
588.9999999999997
 20
261.25
 30
0.0
 11
584.0168861241238
 21
261.25
 31
0.0
  0
TEXT
  5
308
330
2BF
100
AcDbEntity
  8
AM_BOR
 62
     1
370
    25
100
AcDbText
 10
584.7945343324092
 20
233.625
 30
0.0
 40
4.0
  1
D
  7
ACDINTS
 72
     1
 11
586.5084430620619
 21
235.625
 31
0.0
100
AcDbText
 73
     2
  0
LINE
  5
309
330
2BF
100
AcDbEntity
  8
AM_BOR
 62
     1
370
    25
100
AcDbLine
 10
588.9999999999997
 20
312.5
 30
0.0
 11
584.0168861241238
 21
312.5
 31
0.0
  0
TEXT
  5
30A
330
2BF
100
AcDbEntity
  8
AM_BOR
 62
     1
370
    25
100
AcDbText
 10
585.2016411135958
 20
284.875
 30
0.0
 40
4.0
  1
C
  7
ACDINTS
 72
     1
 11
586.5084430620619
 21
286.875
 31
0.0
100
AcDbText
 73
     2
  0
LINE
  5
30B
330
2BF
100
AcDbEntity
  8
AM_BOR
 62
     1
370
    25
100
AcDbLine
 10
588.9999999999997
 20
363.75
 30
0.0
 11
584.0168861241238
 21
363.75
 31
0.0
  0
TEXT
  5
30C
330
2BF
100
AcDbEntity
  8
AM_BOR
 62
     1
370
    25
100
AcDbText
 10
584.9084430620619
 20
336.125
 30
0.0
 40
4.0
  1
B
  7
ACDINTS
 72
     1
 11
586.5084430620619
 21
338.125
 31
0.0
100
AcDbText
 73
     2
  0
TEXT
  5
30D
330
2BF
100
AcDbEntity
  8
AM_BOR
 62
     1
370
    25
100
AcDbText
 10
584.7084430620619
 20
387.375
 30
0.0
 40
4.0
  1
A
  7
ACDINTS
 72
     1
 11
586.5084430620619
 21
389.375
 31
0.0
100
AcDbText
 73
     2
  0
TEXT
  5
30E
330
2BF
100
AcDbEntity
  8
AM_BOR
 62
     1
370
    25
100
AcDbText
 10
5.908443062062042
 20
28.62500000000003
 30
0.0
 40
4.0
  1
H
  7
ACDINTS
 72
     1
 11
7.508443062062042
 21
30.62500000000003
 31
0.0
100
AcDbText
 73
     2
  0
LINE
  5
30F
330
2BF
100
AcDbEntity
  8
AM_BOR
 62
     1
370
    25
100
AcDbLine
 10
10.0
 20
56.25000000000003
 30
0.0
 11
5.016886124124083
 21
56.25000000000003
 31
0.0
  0
TEXT
  5
310
330
2BF
100
AcDbEntity
  8
AM_BOR
 62
     1
370
    25
100
AcDbText
 10
6.011996452655316
 20
79.87500000000003
 30
0.0
 40
4.0
  1
G
  7
ACDINTS
 72
     1
 11
7.508443062062042
 21
81.87500000000003
 31
0.0
100
AcDbText
 73
     2
  0
LINE
  5
311
330
2BF
100
AcDbEntity
  8
AM_BOR
 62
     1
370
    25
100
AcDbLine
 10
10.0
 20
107.5
 30
0.0
 11
5.016886124124083
 21
107.5
 31
0.0
  0
TEXT
  5
312
330
2BF
100
AcDbEntity
  8
AM_BOR
 62
     1
370
    25
100
AcDbText
 10
6.108443062062042
 20
131.125
 30
0.0
 40
4.0
  1
F
  7
ACDINTS
 72
     1
 11
7.508443062062042
 21
133.125
 31
0.0
100
AcDbText
 73
     2
  0
LINE
  5
313
330
2BF
100
AcDbEntity
  8
AM_BOR
 62
     1
370
    25
100
AcDbLine
 10
10.0
 20
158.75
 30
0.0
 11
5.016886124124083
 21
158.75
 31
0.0
  0
TEXT
  5
314
330
2BF
100
AcDbEntity
  8
AM_BOR
 62
     1
370
    25
100
AcDbText
 10
6.108443062062042
 20
182.375
 30
0.0
 40
4.0
  1
E
  7
ACDINTS
 72
     1
 11
7.508443062062042
 21
184.375
 31
0.0
100
AcDbText
 73
     2
  0
TEXT
  5
315
330
2BF
100
AcDbEntity
  8
AM_BOR
 62
     1
370
    25
100
AcDbText
 10
5.79453433240944
 20
233.625
 30
0.0
 40
4.0
  1
D
  7
ACDINTS
 72
     1
 11
7.508443062062042
 21
235.625
 31
0.0
100
AcDbText
 73
     2
  0
LINE
  5
316
330
2BF
100
AcDbEntity
  8
AM_BOR
 62
     1
370
    25
100
AcDbLine
 10
10.0
 20
261.2500000000001
 30
0.0
 11
5.016886124124083
 21
261.2500000000001
 31
0.0
  0
TEXT
  5
317
330
2BF
100
AcDbEntity
  8
AM_BOR
 62
     1
370
    25
100
AcDbText
 10
6.201641113595989
 20
284.8750000000001
 30
0.0
 40
4.0
  1
C
  7
ACDINTS
 72
     1
 11
7.508443062062042
 21
286.8750000000001
 31
0.0
100
AcDbText
 73
     2
  0
LINE
  5
318
330
2BF
100
AcDbEntity
  8
AM_BOR
 62
     1
370
    25
100
AcDbLine
 10
10.0
 20
312.5
 30
0.0
 11
5.016886124124083
 21
312.5
 31
0.0
  0
TEXT
  5
319
330
2BF
100
AcDbEntity
  8
AM_BOR
 62
     1
370
    25
100
AcDbText
 10
5.908443062062039
 20
336.125
 30
0.0
 40
4.0
  1
B
  7
ACDINTS
 72
     1
 11
7.508443062062042
 21
338.125
 31
0.0
100
AcDbText
 73
     2
  0
LINE
  5
31A
330
2BF
100
AcDbEntity
  8
AM_BOR
 62
     1
370
    25
100
AcDbLine
 10
10.0
 20
363.7500000000001
 30
0.0
 11
5.016886124124083
 21
363.7500000000001
 31
0.0
  0
TEXT
  5
31B
330
2BF
100
AcDbEntity
  8
AM_BOR
 62
     1
370
    25
100
AcDbText
 10
5.708443062062041
 20
387.3750000000001
 30
0.0
 40
4.0
  1
A
  7
ACDINTS
 72
     1
 11
7.508443062062042
 21
389.3750000000001
 31
0.0
100
AcDbText
 73
     2
  0
TEXT
  5
31C
330
2BF
100
AcDbEntity
  8
AM_BOR
 62
     1
370
    25
100
AcDbText
 10
417.1993365934823
 20
5.5
 30
0.0
 40
4.0
  1
9
  7
ACDINTS
 72
     1
 11
418.6666694999997
 21
7.5
 31
0.0
100
AcDbText
 73
     2
  0
LINE
  5
31D
330
2BF
100
AcDbEntity
  8
AM_BOR
 62
     1
370
    25
100
AcDbLine
 10
491.6666699999997
 20
10.0
 30
0.0
 11
491.6666699999997
 21
5.0
 31
0.0
  0
LINE
  5
31E
330
2BF
100
AcDbEntity
  8
AM_BOR
 62
     1
370
    25
100
AcDbLine
 10
443.0000029999998
 20
10.0
 30
0.0
 11
443.0000029999998
 21
5.0
 31
0.0
  0
TEXT
  5
31F
330
2BF
100
AcDbEntity
  8
AM_BOR
 62
     1
370
    25
100
AcDbText
 10
464.9317616968501
 20
5.5
 30
0.0
 40
4.0
  1
10
  7
ACDINTS
 72
     1
 11
467.3333364999997
 21
7.5
 31
0.0
100
AcDbText
 73
     2
  0
TEXT
  5
320
330
2BF
100
AcDbEntity
  8
AM_BOR
 62
     1
370
    25
100
AcDbText
 10
514.0000034999998
 20
5.5
 30
0.0
 40
4.0
  1
11
  7
ACDINTS
 72
     1
 11
516.0000034999998
 21
7.5
 31
0.0
100
AcDbText
 73
     2
  0
LINE
  5
321
330
2BF
100
AcDbEntity
  8
AM_BOR
 62
     1
370
    25
100
AcDbLine
 10
540.3333369999996
 20
10.0
 30
0.0
 11
540.3333369999996
 21
5.0
 31
0.0
  0
TEXT
  5
322
330
2BF
100
AcDbEntity
  8
AM_BOR
 62
     1
370
    25
100
AcDbText
 10
562.1465523897634
 20
5.5
 30
0.0
 40
4.0
  1
12
  7
ACDINTS
 72
     1
 11
564.6666704999996
 21
7.5
 31
0.0
100
AcDbText
 73
     2
  0
ENDBLK
  5
323
330
2BF
100
AcDbEntity
  8
0
100
AcDbBlockEnd
  0
BLOCK
  5
325
330
324
100
AcDbEntity
  8
0
100
AcDbBlockBegin
  2
sfm
 70
     0
 10
0.0
 20
0.0
 30
0.0
  3
sfm
  1

  0
ARC
  5
326
330
324
100
AcDbEntity
  8
6
100
AcDbCircle
 10
4.790170910187725
 20
3.5
 30
0.0
 40
3.5
100
AcDbArc
 50
270.0
 51
90.0
  0
ARC
  5
327
330
324
100
AcDbEntity
  8
6
100
AcDbCircle
 10
0.0
 20
3.5
 30
0.0
 40
3.5
100
AcDbArc
 50
90.0
 51
270.0
  0
MTEXT
  5
328
330
324
100
AcDbEntity
  8
UMRISS05
 62
     2
100
AcDbMText
 10
-2.394073030151957
 20
5.872859090629845
 30
0.0
 40
3.0
 41
14.07
 71
     1
 72
     5
  1
\fArial Black|b0|i0|c0|p34;SFM
 73
     1
 44
1.0
  0
LINE
  5
329
330
324
100
AcDbEntity
  8
6
100
AcDbLine
 10
0.0
 20
0.0
 30
0.0
 11
4.790170910187725
 21
0.0
 31
0.0
  0
TEXT
  5
32A
330
324
100
AcDbEntity
  8
UMRISS05
 62
     2
100
AcDbText
 10
-0.9325486328996246
 20
0.8119783732929588
 30
0.0
 40
1.5
  1
geprüft
100
AcDbText
  0
LINE
  5
32B
330
324
100
AcDbEntity
  8
6
100
AcDbLine
 10
0.0
 20
7.0
 30
0.0
 11
4.790170910187725
 21
7.0
 31
0.0
  0
ENDBLK
  5
32C
330
324
100
AcDbEntity
  8
0
100
AcDbBlockEnd
  0
BLOCK
  5
32F
330
32D
100
AcDbEntity
  8
0
100
AcDbBlockBegin
  2
REFLEX_EDBTITLE
 70
     2
 10
0.0
 20
0.0
 30
0.0
  3
REFLEX_EDBTITLE
  1

  0
LINE
  5
330
330
32D
100
AcDbEntity
  8
AM_BOR
 62
     2
370
    35
100
AcDbLine
 10
0.0
 20
0.0
 30
0.0
 11
-190.0000000000076
 21
0.0
 31
0.0
  0
TEXT
  5
331
330
32D
100
AcDbEntity
  8
AM_BOR
 62
     1
370
    25
100
AcDbText
 10
-115.7901946630717
 20
76.45962598719686
 30
0.0
 40
2.2
  1
Beschreibung der Änderung
100
AcDbText
  0
LINE
  5
332
330
32D
100
AcDbEntity
  8
AM_BOR
 62
     2
370
    35
100
AcDbLine
 10
-190.0000000000076
 20
95.66666666667151
 30
0.0
 11
0.0
 21
95.66666666667151
 31
0.0
  0
LINE
  5
333
330
32D
100
AcDbEntity
  8
AM_BOR
 62
     2
370
    35
100
AcDbLine
 10
-190.0000000000076
 20
90.66666666667151
 30
0.0
 11
0.0
 21
90.66666666667151
 31
0.0
  0
LINE
  5
334
330
32D
100
AcDbEntity
  8
AM_BOR
 62
     2
370
    35
100
AcDbLine
 10
-190.0000000000076
 20
85.66666666667151
 30
0.0
 11
0.0
 21
85.66666666667151
 31
0.0
  0
LINE
  5
335
330
32D
100
AcDbEntity
  8
AM_BOR
100
AcDbLine
 10
-190.0000000000076
 20
80.66666666667151
 30
0.0
 11
0.0
 21
80.66666666667151
 31
0.0
  0
LINE
  5
336
330
32D
100
AcDbEntity
  8
AM_BOR
100
AcDbLine
 10
0.0
 20
0.0
 30
0.0
 11
-190.0000000000076
 21
0.0
 31
0.0
  0
LINE
  5
337
330
32D
100
AcDbEntity
  8
AM_BOR
100
AcDbLine
 10
-190.0000000000076
 20
74.00000000000297
 30
0.0
 11
0.0
 21
74.00000000000297
 31
0.0
  0
LINE
  5
338
330
32D
100
AcDbEntity
  8
AM_BOR
100
AcDbLine
 10
-148.5000000000076
 20
53.00000000000284
 30
0.0
 11
-110.5000000000077
 21
53.00000000000281
 31
0.0
  0
LINE
  5
339
330
32D
100
AcDbEntity
  8
AM_BOR
 62
     2
370
    35
100
AcDbLine
 10
-148.5000000000076
 20
48.00000000000287
 30
0.0
 11
-110.5000000000077
 21
48.00000000000281
 31
0.0
  0
LINE
  5
33A
330
32D
100
AcDbEntity
  8
AM_BOR
 62
     2
370
    35
100
AcDbLine
 10
-148.5000000000076
 20
43.00000000000287
 30
0.0
 11
-110.5000000000077
 21
43.0000000000028
 31
0.0
  0
LINE
  5
33B
330
32D
100
AcDbEntity
  8
AM_BOR
100
AcDbLine
 10
-148.5000000000076
 20
38.00000000000284
 30
0.0
 11
0.0
 21
38.00000000000284
 31
0.0
  0
LINE
  5
33C
330
32D
100
AcDbEntity
  8
AM_BOR
100
AcDbLine
 10
-148.5000000000076
 20
58.00000000000284
 30
0.0
 11
0.0
 21
58.00000000000284
 31
0.0
  0
TEXT
  5
33D
330
32D
100
AcDbEntity
  8
AM_BOR
 62
     1
370
    25
100
AcDbText
 10
-184.5453046083921
 20
53.82399366428876
 30
0.0
 40
2.5
  1
Allgemeintoleranzen
 72
     1
 11
-169.2500000000076
 21
53.82399366428876
 31
0.0
100
AcDbText
  0
LINE
  5
33E
330
32D
100
AcDbEntity
  8
AM_BOR
100
AcDbLine
 10
-190.0000000000076
 20
135.6666666666715
 30
0.0
 11
-190.0000000000076
 21
0.0
 31
0.0
  0
TEXT
  5
33F
330
32D
100
AcDbEntity
  8
AM_BOR
 62
     1
370
    25
100
AcDbText
 10
-147.0000000000076
 20
71.0
 30
0.0
 40
2.0
  1
Werkstoff:
100
AcDbText
  0
LINE
  5
340
330
32D
100
AcDbEntity
  8
AM_BOR
100
AcDbLine
 10
-148.5000000000076
 20
0.0
 30
0.0
 11
-148.5000000000076
 21
74.00000000000297
 31
0.0
  0
TEXT
  5
341
330
32D
100
AcDbEntity
  8
AM_BOR
 62
     1
370
    25
100
AcDbText
 10
-187.0000452657501
 20
2.857790465878093
 30
0.0
 40
2.5
  1
Alle Rechte vorbehalten.
100
AcDbText
  0
TEXT
  5
342
330
32D
100
AcDbEntity
  8
AM_BOR
 62
     1
370
    25
100
AcDbText
 10
-182.0372162604731
 20
7.819725632913012
 30
0.0
 40
2.5
  1
1995 Reflex,Ahlen
100
AcDbText
1001
GENIUS_GENTRA_14
1002
{
1070
     1
1000
/
1000
1995 Reflex,Ahlen
1000
DEU
1070
     0
1040
1.0
1070
     0
1002
}
  0
LINE
  5
343
330
32D
100
AcDbEntity
  8
AM_BOR
100
AcDbLine
 10
-190.0000000000076
 20
14.00000000000297
 30
0.0
 11
-148.5000000000076
 21
14.00000000000297
 31
0.0
  0
LINE
  5
344
330
32D
100
AcDbEntity
  8
AM_BOR
100
AcDbLine
 10
-190.0000000000076
 20
25.00000000000297
 30
0.0
 11
-148.5000000000076
 21
25.00000000000297
 31
0.0
  0
LINE
  5
345
330
32D
100
AcDbEntity
  8
AM_BOR
100
AcDbLine
 10
-190.0000000000076
 20
36.00000000000297
 30
0.0
 11
-148.5000000000076
 21
36.00000000000297
 31
0.0
  0
LINE
  5
346
330
32D
100
AcDbEntity
  8
AM_BOR
100
AcDbLine
 10
-190.0000000000076
 20
47.00000000000296
 30
0.0
 11
-148.5000000000076
 21
47.00000000000296
 31
0.0
  0
LINE
  5
347
330
32D
100
AcDbEntity
  8
AM_BOR
100
AcDbLine
 10
-190.0000000000076
 20
58.00000000000297
 30
0.0
 11
-148.5000000000076
 21
58.00000000000297
 31
0.0
  0
TEXT
  5
348
330
32D
100
AcDbEntity
  8
AM_BOR
 62
     1
370
    25
100
AcDbText
 10
-188.7953046083922
 20
42.66491288036503
 30
0.0
 40
2.5
  1
Form-und Lagetoleranzen
 72
     1
 11
-169.2500000000076
 21
42.66491288036503
 31
0.0
100
AcDbText
  0
TEXT
  5
349
330
32D
100
AcDbEntity
  8
AM_BOR
 62
     1
370
    25
100
AcDbText
 10
-184.4203046083922
 20
31.50583411760111
 30
0.0
 40
2.5
  1
Oberflächenangaben
 72
     1
 11
-169.2500000000076
 21
31.50583411760111
 31
0.0
100
AcDbText
  0
TEXT
  5
34A
330
32D
100
AcDbEntity
  8
AM_BOR
 62
     1
370
    25
100
AcDbText
 10
-182.4234296083921
 20
20.64555149180674
 30
0.0
 40
2.5
  1
Werkstückkanten
 72
     1
 11
-169.2500000000076
 21
20.64555149180674
 31
0.0
100
AcDbText
  0
CIRCLE
  5
34B
330
32D
100
AcDbEntity
  8
AM_BOR
 62
     1
370
    25
100
AcDbCircle
 10
-185.5283738569115
 20
9.105009442083563
 30
0.0
 40
1.682013222792722
  0
TEXT
  5
34C
330
32D
100
AcDbEntity
  8
AM_BOR
 62
     1
370
    25
100
AcDbText
 10
-186.4808982796636
 20
7.852145036007375
 30
0.0
 40
2.5
  1
C
100
AcDbText
  0
LINE
  5
34D
330
32D
100
AcDbEntity
  8
AM_BOR
100
AcDbLine
 10
-134.7819501338923
 20
0.0
 30
0.0
 11
-134.7819501338922
 21
58.00000000000284
 31
0.0
  0
TEXT
  5
34E
330
32D
100
AcDbEntity
  8
AM_BOR
 62
     1
370
    25
100
AcDbText
 10
-147.0000000000076
 20
16.0
 30
0.0
 40
2.0
  1
Format
 41
1.234567901234567
 72
     5
 11
-137.0000000000076
 21
16.0
 31
0.0
100
AcDbText
  0
LINE
  5
34F
330
32D
100
AcDbEntity
  8
AM_BOR
100
AcDbLine
 10
-134.7819501338922
 20
19.0
 30
0.0
 11
-148.5000000000076
 21
19.0
 31
0.0
  0
TEXT
  5
350
330
32D
100
AcDbEntity
  8
AM_BOR
 62
     1
370
    25
100
AcDbText
 10
-147.0000000000076
 20
34.81005903951976
 30
0.0
 40
2.0
  1
Maßstab
 41
1.002256342277585
 72
     5
 11
-137.0000000000076
 21
34.81005903951976
 31
0.0
100
AcDbText
  0
TEXT
  5
351
330
32D
100
AcDbEntity
  8
AM_BOR
 62
     1
370
    25
100
AcDbText
 10
-147.0000000000076
 20
39.0
 30
0.0
 40
2.0
  1
Normg.
 41
1.298701298701298
 72
     5
 11
-137.0000000000076
 21
39.0
 31
0.0
100
AcDbText
  0
TEXT
  5
352
330
32D
100
AcDbEntity
  8
AM_BOR
 62
     1
370
    25
100
AcDbText
 10
-147.0000000000076
 20
44.0
 30
0.0
 40
2.0
  1
gepr.
 41
1.75438596491228
 72
     5
 11
-137.0000000000076
 21
44.0
 31
0.0
100
AcDbText
  0
TEXT
  5
353
330
32D
100
AcDbEntity
  8
AM_BOR
 62
     1
370
    25
100
AcDbText
 10
-147.0000000000076
 20
49.0
 30
0.0
 40
2.0
  1
Bearb.
 41
1.369863013698629
 72
     5
 11
-137.0000000000076
 21
49.0
 31
0.0
100
AcDbText
  0
TEXT
  5
354
330
32D
100
AcDbEntity
  8
AM_BOR
 62
     1
370
    25
100
AcDbText
 10
-178.8250738189052
 20
26.50908286748418
 30
0.0
 40
2.5
  1
DIN ISO 1302
 72
     1
 11
-169.2500000000076
 21
26.50908286748418
 31
0.0
100
AcDbText
  0
TEXT
  5
355
330
32D
100
AcDbEntity
  8
AM_BOR
 62
     1
370
    25
100
AcDbText
 10
-176.0000000000076
 20
15.81434939808754
 30
0.0
 40
2.5
  1
DIN 6784
 72
     1
 11
-169.2500000000076
 21
15.81434939808754
 31
0.0
100
AcDbText
  0
TEXT
  5
356
330
32D
100
AcDbEntity
  8
AM_BOR
 62
     1
370
    25
100
AcDbText
 10
-178.2500000000076
 20
37.66816163024811
 30
0.0
 40
2.5
  1
DIN ISO 1101
 72
     1
 11
-169.2500000000076
 21
37.66816163024811
 31
0.0
100
AcDbText
  0
LINE
  5
357
330
32D
100
AcDbEntity
  8
AM_BOR
100
AcDbLine
 10
-123.5000000000076
 20
38.00000000000284
 30
0.0
 11
-123.5000000000076
 21
58.00000000000284
 31
0.0
  0
TEXT
  5
358
330
32D
100
AcDbEntity
  8
AM_BOR
 62
     1
370
    25
100
AcDbText
 10
-134.0000000000076
 20
54.0
 30
0.0
 40
2.0
  1
Tag
 41
1.677656365025809
 72
     5
 11
-127.0000000000076
 21
54.0
 31
0.0
100
AcDbText
  0
TEXT
  5
359
330
32D
100
AcDbEntity
  8
AM_BOR
 62
     1
370
    25
100
AcDbText
 10
-123.0000000000076
 20
54.0
 30
0.0
 40
2.0
  1
Name
 41
1.694915254237288
 72
     5
 11
-113.0000000000076
 21
54.0
 31
0.0
100
AcDbText
  0
LINE
  5
35A
330
32D
100
AcDbEntity
  8
AM_BOR
100
AcDbLine
 10
-182.8025158264765
 20
135.6666666666715
 30
0.0
 11
-182.8025158264765
 21
74.00000000000297
 31
0.0
  0
TEXT
  5
35B
330
32D
100
AcDbEntity
  8
AM_BOR
 62
     1
370
    25
100
AcDbText
 10
-189.1672017515284
 20
76.45962598719686
 30
0.0
 40
2.2
  1
Index
100
AcDbText
  0
TEXT
  5
35C
330
32D
100
AcDbEntity
  8
AM_BOR
 62
     1
370
    25
100
AcDbText
 10
-45.0000000000075
 20
71.00000000000001
 30
0.0
 40
2.0
  1
Oberflächenbehandlung:
100
AcDbText
  0
TEXT
  5
35D
330
32D
100
AcDbEntity
  8
AM_BOR
 62
     1
370
    25
100
AcDbText
 10
-92.0000000000075
 20
71.00000000000001
 30
0.0
 40
2.0
  1
Nachbehandlung:
100
AcDbText
  0
LINE
  5
35E
330
32D
100
AcDbEntity
  8
AM_BOR
 62
     2
370
    35
100
AcDbLine
 10
-46.5000000000075
 20
74.00000000000297
 30
0.0
 11
-46.50000000000761
 21
58.00000000000284
 31
0.0
  0
LINE
  5
35F
330
32D
100
AcDbEntity
  8
AM_BOR
100
AcDbLine
 10
-93.50000000000759
 20
38.00000000000284
 30
0.0
 11
-93.50000000000774
 21
74.00000000000297
 31
0.0
  0
LINE
  5
360
330
32D
100
AcDbEntity
  8
AM_BOR
 62
     2
370
    35
100
AcDbLine
 10
-65.50000000000773
 20
7.000000000000029
 30
0.0
 11
-26.50000000000762
 21
7.000000000000029
 31
0.0
  0
LINE
  5
361
330
32D
100
AcDbEntity
  8
AM_BOR
 62
     2
370
    35
100
AcDbLine
 10
-65.50000000000773
 20
31.00000000000282
 30
0.0
 11
-26.50000000000762
 21
31.00000000000282
 31
0.0
  0
LINE
  5
362
330
32D
100
AcDbEntity
  8
AM_BOR
100
AcDbLine
 10
-65.50000000000761
 20
0.0
 30
0.0
 11
-65.50000000000773
 21
58.00000000000281
 31
0.0
  0
TEXT
  5
363
330
32D
100
AcDbEntity
  8
AM_BOR
 62
     1
370
    25
100
AcDbText
 10
-64.00000000000762
 20
4.0
 30
0.0
 40
2.0
  1
Ersetzt durch:
100
AcDbText
  0
TEXT
  5
364
330
32D
100
AcDbEntity
  8
AM_BOR
 62
     1
370
    25
100
AcDbText
 10
-87.00000000000761
 20
42.0
 30
0.0
 40
2.0
  1
geprüft
100
AcDbText
  0
TEXT
  5
365
330
32D
100
AcDbEntity
  8
AM_BOR
 62
     1
370
    25
100
AcDbText
 10
-92.00000000000761
 20
48.0
 30
0.0
 40
2.0
  1
werden besonders
100
AcDbText
  0
LINE
  5
366
330
32D
100
AcDbEntity
  8
AM_BOR
 62
     1
370
    25
100
AcDbLine
 10
-82.00000000000761
 20
54.0
 30
0.0
 11
-76.00000000000761
 21
54.0
 31
0.0
  0
LINE
  5
367
330
32D
100
AcDbEntity
  8
AM_BOR
 62
     1
370
    25
100
AcDbLine
 10
-82.00000000000761
 20
56.0
 30
0.0
 11
-76.00000000000761
 21
56.0
 31
0.0
  0
LINE
  5
368
330
32D
100
AcDbEntity
  8
AM_BOR
100
AcDbLine
 10
-110.5000000000076
 20
38.00000000000284
 30
0.0
 11
-110.5000000000077
 21
58.00000000000284
 31
0.0
  0
TEXT
  5
369
330
32D
100
AcDbEntity
  8
AM_BOR
 62
     1
370
    25
100
AcDbText
 10
-109.0000000000076
 20
54.0
 30
0.0
 40
2.0
  1
Gesehen:
 41
1.26152353226589
 72
     5
 11
-96.00000000000761
 21
54.0
 31
0.0
100
AcDbText
  0
TEXT
  5
36A
330
32D
100
AcDbEntity
  8
AM_BOR
 62
     1
370
    25
100
AcDbText
 10
-92.00000000000761
 20
54.0
 30
0.0
 40
2.0
  1
Diese
 41
1.146601146601143
 72
     5
 11
-85.00000000000762
 21
54.0
 31
0.0
100
AcDbText
  0
ARC
  5
36B
330
32D
100
AcDbEntity
  8
AM_BOR
 62
     1
370
    25
100
AcDbCircle
 10
-82.00000000000761
 20
55.0
 30
0.0
 40
1.0
100
AcDbArc
 50
90.00000000000003
 51
270.0000000000001
  0
TEXT
  5
36C
330
32D
100
AcDbEntity
  8
AM_BOR
 62
     1
370
    25
100
AcDbText
 10
-64.00000000000762
 20
35.0
 30
0.0
 40
2.0
  1
Ersatz für:
100
AcDbText
  0
TEXT
  5
36D
330
32D
100
AcDbEntity
  8
AM_BOR
 62
     1
370
    25
100
AcDbText
 10
-74.00000000000762
 20
54.0
 30
0.0
 40
2.0
  1
Maße
100
AcDbText
  0
ARC
  5
36E
330
32D
100
AcDbEntity
  8
AM_BOR
 62
     1
370
    25
100
AcDbCircle
 10
-76.00000000000761
 20
55.0
 30
0.0
 40
1.0
100
AcDbArc
 50
270.0
 51
90.0
  0
LINE
  5
36F
330
32D
100
AcDbEntity
  8
AM_BOR
 62
     2
370
    35
100
AcDbLine
 10
-10.00000000000011
 20
0.0
 30
0.0
 11
-10.00000000000011
 21
38.00000000000284
 31
0.0
  0
LINE
  5
370
330
32D
100
AcDbEntity
  8
AM_BOR
 62
     2
370
    35
100
AcDbLine
 10
-15.04433005655051
 20
38.00000000000284
 30
0.0
 11
-15.04433005655051
 21
0.0
 31
0.0
  0
LINE
  5
371
330
32D
100
AcDbEntity
  8
AM_BOR
 62
     2
370
    35
100
AcDbLine
 10
-26.50000000000762
 20
7.000000000000029
 30
0.0
 11
-26.50000000000762
 21
0.0
 31
0.0
  0
LINE
  5
372
330
32D
100
AcDbEntity
  8
AM_BOR
 62
     2
370
    35
100
AcDbLine
 10
-15.04433005655051
 20
34.54545000000285
 30
0.0
 11
0.0
 21
34.54545000000285
 31
0.0
  0
LINE
  5
373
330
32D
100
AcDbEntity
  8
AM_BOR
 62
     2
370
    35
100
AcDbLine
 10
-26.50000000000762
 20
31.00000000000282
 30
0.0
 11
-26.50000000000762
 21
38.00000000000284
 31
0.0
  0
LINE
  5
374
330
32D
100
AcDbEntity
  8
AM_BOR
 62
     2
370
    35
100
AcDbLine
 10
-10.00000000000011
 20
34.20000000000283
 30
0.0
 11
-10.00000000000011
 21
38.00000000000284
 31
0.0
  0
TEXT
  5
375
330
32D
100
AcDbEntity
  8
AM_BOR
 62
     1
370
    25
100
AcDbText
 10
-10.22624575893451
 20
76.45962598719686
 30
0.0
 40
2.2
  1
Name
100
AcDbText
  0
LINE
  5
376
330
32D
100
AcDbEntity
  8
AM_BOR
100
AcDbLine
 10
-29.34186369022667
 20
135.6666666666715
 30
0.0
 11
-29.34186369022689
 21
74.00000000000298
 31
0.0
  0
LINE
  5
377
330
32D
100
AcDbEntity
  8
AM_BOR
100
AcDbLine
 10
-15.46099918964126
 20
135.6666666666715
 30
0.0
 11
-15.46099918964148
 21
74.00000000000298
 31
0.0
  0
TEXT
  5
378
330
32D
100
AcDbEntity
  8
AM_BOR
 62
     1
370
    25
100
AcDbText
 10
-26.39399351883265
 20
76.45962598719686
 30
0.0
 40
2.2
  1
Datum
100
AcDbText
  0
LINE
  5
379
330
32D
100
AcDbEntity
  8
AM_BOR
 62
     2
370
    35
100
AcDbLine
 10
-190.0000000000076
 20
100.6666666666715
 30
0.0
 11
0.0
 21
100.6666666666715
 31
0.0
  0
TEXT
  5
37A
330
32D
100
AcDbEntity
  8
AM_BOR
 62
     2
370
    35
100
AcDbText
 10
-58.18101464137426
 20
40.59186368739278
 30
0.0
 40
3.0
  1
Reflex - POLSKA Sp z o.o.
 72
     1
 11
-33.27351464137428
 21
40.59186368739278
 31
0.0
100
AcDbText
  0
LINE
  5
37B
330
32D
100
AcDbEntity
  8
AM_BOR
100
AcDbLine
 10
0.0
 20
135.6666666666715
 30
0.0
 11
0.0
 21
0.0
 31
0.0
  0
TEXT
  5
37C
330
32D
100
AcDbEntity
  8
AM_BOR
 62
     1
370
    25
100
AcDbText
 10
-188.5000000000076
 20
71.0
 30
0.0
 40
2.0
  1
Sachnummer:
100
AcDbText
  0
ATTDEF
  5
37D
330
32D
100
AcDbEntity
  8
AM_BOR
100
AcDbText
 10
-169.2500000000076
 20
63.66666000000002
 30
0.0
 40
4.5
  1

 72
     1
 11
-169.2500000000076
 21
63.66666000000002
 31
0.0
100
AcDbAttributeDefinition
  3
Sachnummer
  2
R_SACH
 70
     0
  0
ATTDEF
  5
37E
330
32D
100
AcDbEntity
  8
AM_BOR
100
AcDbText
 10
-100.14097506695
 20
24.72359202704005
 30
0.0
 40
4.5
  1

 72
     1
 11
-100.14097506695
 21
24.72359202704005
 31
0.0
100
AcDbAttributeDefinition
  3
Benennung1
  2
R_BENENN1
 70
     0
  0
ATTDEF
  5
37F
330
32D
100
AcDbEntity
  8
AM_BOR
100
AcDbText
 10
-100.14097506695
 20
16.72359202704005
 30
0.0
 40
4.5
  1

 72
     1
 11
-100.14097506695
 21
16.72359202704005
 31
0.0
100
AcDbAttributeDefinition
  3
Benennung2
  2
R_BENENN2
 70
     0
  0
ATTDEF
  5
380
330
32D
100
AcDbEntity
  8
AM_BOR
100
AcDbText
 10
-100.14097506695
 20
8.723592027040048
 30
0.0
 40
4.5
  1

 72
     1
 11
-100.14097506695
 21
8.723592027040048
 31
0.0
100
AcDbAttributeDefinition
  3
Benennung3
  2
R_BENENN3
 70
     0
  0
ATTDEF
  5
381
330
32D
100
AcDbEntity
  8
AM_BOR
 62
     1
370
    25
100
AcDbText
 10
-134.2819501338922
 20
49.50000000000287
 30
0.0
 40
2.0
  1

 41
0.6099885807078702
 72
     5
 11
-123.8511454037876
 21
49.50000000000287
 31
0.0
100
AcDbAttributeDefinition
  3
Bearbeitet Datum
  2
R_BEAR_DAT
 70
     0
  0
ATTDEF
  5
382
330
32D
100
AcDbEntity
  8
AM_BOR
 62
     1
370
    25
100
AcDbText
 10
-123.0000000000076
 20
49.50000000000282
 30
0.0
 40
2.0
  1

100
AcDbAttributeDefinition
  3
Bearbeitet Name
  2
R_BEAR_NAM
 70
     0
  0
ATTDEF
  5
383
330
32D
100
AcDbEntity
  8
AM_BOR
100
AcDbText
 10
-147.0000000000076
 20
28.66665999999984
 30
0.0
 40
4.5
  1

100
AcDbAttributeDefinition
  3
Maßstab
  2
GEN-TITLE-SCA{5.42}
 70
     0
1001
GENIUS_GENTRA_14
1002
{
1070
     3
1000
GENTRAPR,%s,(GENMSG gendwg 83)
1000
Maßstab
1000
DEU
1070
     0
1070
     0
1002
}
  0
ATTDEF
  5
384
330
32D
100
AcDbEntity
  8
AM_BOR
 62
     2
370
    35
100
AcDbText
 10
-147.0000000000076
 20
23.33332999999985
 30
0.0
 40
3.0
  1

100
AcDbAttributeDefinition
  3
Maßstab2
  2
R_MASSTAB2
 70
     0
  0
ATTDEF
  5
385
330
32D
100
AcDbEntity
  8
AM_BOR
 62
     1
370
    25
100
AcDbText
 10
-64.00000000000762
 20
32.00000000000282
 30
0.0
 40
2.0
  1

100
AcDbAttributeDefinition
  3
Ersatz für
  2
R_ERSA_FUR
 70
     0
  0
ATTDEF
  5
386
330
32D
100
AcDbEntity
  8
AM_BOR
 62
     1
370
    25
100
AcDbText
 10
-64.00000000000756
 20
0.9999999999999795
 30
0.0
 40
2.0
  1

100
AcDbAttributeDefinition
  3
Ersetzt durch
  2
R_ERSE_DUR
 70
     0
  0
ATTDEF
  5
387
330
32D
100
AcDbEntity
  8
AM_BOR
 62
     2
370
    35
100
AcDbText
 10
-147.0000000000076
 20
65.66666000000002
 30
0.0
 40
3.0
  1

100
AcDbAttributeDefinition
  3
Werkstoff1
  2
R_WERK1
 70
     0
  0
ATTDEF
  5
388
330
32D
100
AcDbEntity
  8
AM_BOR
 62
     2
370
    35
100
AcDbText
 10
-147.0000000000076
 20
60.33332999999997
 30
0.0
 40
3.0
  1

100
AcDbAttributeDefinition
  3
Werkstoff2
  2
R_WERK2
 70
     0
  0
ATTDEF
  5
389
330
32D
100
AcDbEntity
  8
AM_BOR
 62
     2
370
    35
100
AcDbText
 10
-92.00000000000768
 20
65.66666000000002
 30
0.0
 40
3.0
  1

100
AcDbAttributeDefinition
  3
Nachbehandlung1
  2
R_NACHBE1
 70
     0
  0
ATTDEF
  5
38A
330
32D
100
AcDbEntity
  8
AM_BOR
 62
     2
370
    35
100
AcDbText
 10
-92.00000000000768
 20
60.33332999999997
 30
0.0
 40
3.0
  1

100
AcDbAttributeDefinition
  3
Nachbehandlung2
  2
R_NACHBE2
 70
     0
  0
ATTDEF
  5
38B
330
32D
100
AcDbEntity
  8
AM_BOR
 62
     2
370
    35
100
AcDbText
 10
-45.00000000000762
 20
65.66666000000002
 30
0.0
 40
3.0
  1

100
AcDbAttributeDefinition
  3
Oberflächenbehandlung1
  2
R_OBERFL1
 70
     0
  0
ATTDEF
  5
38C
330
32D
100
AcDbEntity
  8
AM_BOR
 62
     2
370
    35
100
AcDbText
 10
-45.00000000000762
 20
60.33332999999997
 30
0.0
 40
3.0
  1

100
AcDbAttributeDefinition
  3
Oberflächenbehandlung2
  2
R_OBERFL2
 70
     0
  0
ATTDEF
  5
38D
330
32D
100
AcDbEntity
  8
AM_BOR
100
AcDbText
 10
-147.0000000000076
 20
7.666659999997
 30
0.0
 40
4.5
  1

100
AcDbAttributeDefinition
  3
Blattformat
  2
BLATTFORMAT
 70
     0
  0
ATTDEF
  5
38E
330
32D
100
AcDbEntity
  8
AM_BOR
 62
     1
370
    25
100
AcDbText
 10
-186.4012579132421
 20
82.16666666667149
 30
0.0
 40
2.0
  1

 72
     1
 11
-186.4012579132421
 21
82.16666666667149
 31
0.0
100
AcDbAttributeDefinition
  3
Änderungsindex 1
  2
R_AEIND1
 70
     0
  0
ATTDEF
  5
38F
330
32D
100
AcDbEntity
  8
AM_BOR
 62
     1
370
    25
100
AcDbText
 10
-12.3315588552569
 20
35.34215080509318
 30
0.0
 40
2.0
  1

 72
     1
 11
-12.3315588552569
 21
35.34215080509318
 31
0.0
100
AcDbAttributeDefinition
  3
Änderungsindex 1
  2
R_AEIND1
 70
     0
  0
ATTDEF
  5
390
330
32D
100
AcDbEntity
  8
AM_BOR
 62
     1
370
    25
100
AcDbText
 10
-8.809393826981704
 20
35.34215080509318
 30
0.0
 40
2.0
  1

100
AcDbAttributeDefinition
  3
Änderungsnummer 1
  2
R_AENR1
 70
     0
  0
ATTDEF
  5
391
330
32D
100
AcDbEntity
  8
AM_BOR
 62
     1
370
    25
100
AcDbText
 10
-181.3025158264765
 20
82.16666666667149
 30
0.0
 40
2.0
  1

100
AcDbAttributeDefinition
  3
Änderungsbeschreibung 1
  2
R_AETEXT1
 70
     0
  0
ATTDEF
  5
392
330
32D
100
AcDbEntity
  8
AM_BOR
 62
     1
370
    25
100
AcDbText
 10
-27.84186369022683
 20
82.16666666667149
 30
0.0
 40
2.0
  1

100
AcDbAttributeDefinition
  3
Änderungsdatum 1
  2
R_AEDAT1
 70
     0
  0
ATTDEF
  5
393
330
32D
100
AcDbEntity
  8
AM_BOR
 62
     1
370
    25
100
AcDbText
 10
-13.96099918964142
 20
82.16666666667149
 30
0.0
 40
2.0
  1

100
AcDbAttributeDefinition
  3
Änderungsname 1
  2
R_AENAM1
 70
     0
  0
ATTDEF
  5
394
330
32D
100
AcDbEntity
  8
AM_BOR
 62
     1
370
    25
100
AcDbText
 10
-181.8252586544574
 20
48.99279157056955
 30
0.0
 40
2.5
  1

100
AcDbAttributeDefinition
  3
Allgemeintoleranzen
  2
R_TOLALL
 70
     0
  0
ATTDEF
  5
395
330
32D
100
AcDbEntity
  8
AM_BOR
100
AcDbText
 10
-53.24838027179692
 20
9.657306607706779
 30
0.0
 40
3.5
  1

100
AcDbAttributeDefinition
  3
Projekt
  2
R_PROJEKT
 70
     0
  0
ATTDEF
  5
396
330
32D
100
AcDbEntity
  8
AM_BOR
100
AcDbText
 10
-62.56400243277346
 20
19.16161098446256
 30
0.0
 40
6.0
  1

100
AcDbAttributeDefinition
  3
Projekt
  2
R_ZEICHNR
 70
     0
  0
LINE
  5
397
330
32D
100
AcDbEntity
  8
AM_BOR
 62
     2
370
    35
100
AcDbLine
 10
-190.0000000000076
 20
105.6666666666715
 30
0.0
 11
0.0
 21
105.6666666666715
 31
0.0
  0
LINE
  5
398
330
32D
100
AcDbEntity
  8
AM_BOR
 62
     2
370
    35
100
AcDbLine
 10
-190.0000000000076
 20
110.6666666666715
 30
0.0
 11
0.0
 21
110.6666666666715
 31
0.0
  0
LINE
  5
399
330
32D
100
AcDbEntity
  8
AM_BOR
 62
     2
370
    35
100
AcDbLine
 10
-190.0000000000076
 20
115.6666666666715
 30
0.0
 11
0.0
 21
115.6666666666715
 31
0.0
  0
LINE
  5
39A
330
32D
100
AcDbEntity
  8
AM_BOR
 62
     2
370
    35
100
AcDbLine
 10
-190.0000000000076
 20
120.6666666666715
 30
0.0
 11
0.0
 21
120.6666666666715
 31
0.0
1001
GENIUS_VERSION1
1070
     1
  0
LINE
  5
39B
330
32D
100
AcDbEntity
  8
AM_BOR
 62
     2
370
    35
100
AcDbLine
 10
-190.0000000000076
 20
115.6666666666715
 30
0.0
 11
0.0
 21
115.6666666666715
 31
0.0
  0
LINE
  5
39C
330
32D
100
AcDbEntity
  8
AM_BOR
 62
     2
370
    35
100
AcDbLine
 10
-190.0000000000076
 20
120.6666666666715
 30
0.0
 11
0.0
 21
120.6666666666715
 31
0.0
  0
LINE
  5
39D
330
32D
100
AcDbEntity
  8
AM_BOR
 62
     2
370
    35
100
AcDbLine
 10
-190.0000000000076
 20
125.6666666666715
 30
0.0
 11
0.0
 21
125.6666666666715
 31
0.0
1001
GENIUS_VERSION1
1070
     1
  0
LINE
  5
39E
330
32D
100
AcDbEntity
  8
AM_BOR
100
AcDbLine
 10
-190.0000000000076
 20
135.6666666666715
 30
0.0
 11
0.0
 21
135.6666666666715
 31
0.0
1001
GENIUS_VERSION1
1070
     1
  0
LINE
  5
39F
330
32D
100
AcDbEntity
  8
AM_BOR
 62
     2
370
    35
100
AcDbLine
 10
-190.0000000000076
 20
130.6666666666715
 30
0.0
 11
0.0
 21
130.6666666666715
 31
0.0
1001
GENIUS_VERSION1
1070
     1
  0
LINE
  5
3A0
330
32D
100
AcDbEntity
  8
AM_BOR
 62
     2
370
    35
100
AcDbLine
 10
-15.04433005655051
 20
31.09090000000285
 30
0.0
 11
0.0
 21
31.09090000000285
 31
0.0
  0
LINE
  5
3A1
330
32D
100
AcDbEntity
  8
AM_BOR
 62
     2
370
    35
100
AcDbLine
 10
-15.04433005655051
 20
27.63635000000285
 30
0.0
 11
0.0
 21
27.63635000000285
 31
0.0
  0
LINE
  5
3A2
330
32D
100
AcDbEntity
  8
AM_BOR
 62
     2
370
    35
100
AcDbLine
 10
-15.04433005655051
 20
24.18180000000285
 30
0.0
 11
0.0
 21
24.18180000000285
 31
0.0
  0
LINE
  5
3A3
330
32D
100
AcDbEntity
  8
AM_BOR
 62
     2
370
    35
100
AcDbLine
 10
-15.04433005655051
 20
20.72725000000286
 30
0.0
 11
0.0
 21
20.72725000000286
 31
0.0
  0
LINE
  5
3A4
330
32D
100
AcDbEntity
  8
AM_BOR
 62
     2
370
    35
100
AcDbLine
 10
-15.04433005655051
 20
17.27270000000285
 30
0.0
 11
0.0
 21
17.27270000000285
 31
0.0
  0
LINE
  5
3A5
330
32D
100
AcDbEntity
  8
AM_BOR
 62
     2
370
    35
100
AcDbLine
 10
-15.04433005655051
 20
13.81815000000285
 30
0.0
 11
0.0
 21
13.81815000000285
 31
0.0
  0
LINE
  5
3A6
330
32D
100
AcDbEntity
  8
AM_BOR
 62
     2
370
    35
100
AcDbLine
 10
-15.04433005655051
 20
10.36360000000286
 30
0.0
 11
0.0
 21
10.36360000000286
 31
0.0
  0
LINE
  5
3A7
330
32D
100
AcDbEntity
  8
AM_BOR
 62
     2
370
    35
100
AcDbLine
 10
-15.04433005655051
 20
6.909050000002859
 30
0.0
 11
0.0
 21
6.909050000002859
 31
0.0
  0
LINE
  5
3A8
330
32D
100
AcDbEntity
  8
AM_BOR
 62
     2
370
    35
100
AcDbLine
 10
-15.04433005655051
 20
3.454500000002862
 30
0.0
 11
0.0
 21
3.454500000002862
 31
0.0
1001
GENIUS_VERSION1
1070
     1
  0
ATTDEF
  5
3A9
330
32D
100
AcDbEntity
  8
AM_BOR
 62
     1
370
    25
100
AcDbText
 10
-12.3315588552569
 20
31.88760080509319
 30
0.0
 40
2.0
  1

 72
     1
 11
-12.3315588552569
 21
31.88760080509319
 31
0.0
100
AcDbAttributeDefinition
  3
Änderungsindex 2
  2
R_AEIND2
 70
     0
  0
ATTDEF
  5
3AA
330
32D
100
AcDbEntity
  8
AM_BOR
 62
     1
370
    25
100
AcDbText
 10
-8.809393826981704
 20
31.88760080509319
 30
0.0
 40
2.0
  1

100
AcDbAttributeDefinition
  3
Änderungsnummer 2
  2
R_AENR2
 70
     0
  0
ATTDEF
  5
3AB
330
32D
100
AcDbEntity
  8
AM_BOR
 62
     1
370
    25
100
AcDbText
 10
-12.3315588552569
 20
28.43305080509319
 30
0.0
 40
2.0
  1

 72
     1
 11
-12.3315588552569
 21
28.43305080509319
 31
0.0
100
AcDbAttributeDefinition
  3
Änderungsindex 3
  2
R_AEIND3
 70
     0
  0
ATTDEF
  5
3AC
330
32D
100
AcDbEntity
  8
AM_BOR
 62
     1
370
    25
100
AcDbText
 10
-8.809393826981704
 20
28.43305080509319
 30
0.0
 40
2.0
  1

100
AcDbAttributeDefinition
  3
Änderungsnummer 3
  2
R_AENR3
 70
     0
  0
ATTDEF
  5
3AD
330
32D
100
AcDbEntity
  8
AM_BOR
 62
     1
370
    25
100
AcDbText
 10
-12.3315588552569
 20
24.97850080509319
 30
0.0
 40
2.0
  1

 72
     1
 11
-12.3315588552569
 21
24.97850080509319
 31
0.0
100
AcDbAttributeDefinition
  3
Änderungsindex 4
  2
R_AEIND4
 70
     0
  0
ATTDEF
  5
3AE
330
32D
100
AcDbEntity
  8
AM_BOR
 62
     1
370
    25
100
AcDbText
 10
-8.809393826981704
 20
24.97850080509319
 30
0.0
 40
2.0
  1

100
AcDbAttributeDefinition
  3
Änderungsnummer 4
  2
R_AENR4
 70
     0
  0
ATTDEF
  5
3AF
330
32D
100
AcDbEntity
  8
AM_BOR
 62
     1
370
    25
100
AcDbText
 10
-12.3315588552569
 20
21.5239508050932
 30
0.0
 40
2.0
  1

 72
     1
 11
-12.3315588552569
 21
21.5239508050932
 31
0.0
100
AcDbAttributeDefinition
  3
Änderungsindex 5
  2
R_AEIND5
 70
     0
  0
ATTDEF
  5
3B0
330
32D
100
AcDbEntity
  8
AM_BOR
 62
     1
370
    25
100
AcDbText
 10
-8.809393826981704
 20
21.5239508050932
 30
0.0
 40
2.0
  1

100
AcDbAttributeDefinition
  3
Änderungsnummer 5
  2
R_AENR5
 70
     0
  0
ATTDEF
  5
3B1
330
32D
100
AcDbEntity
  8
AM_BOR
 62
     1
370
    25
100
AcDbText
 10
-12.3315588552569
 20
18.06940080509319
 30
0.0
 40
2.0
  1

 72
     1
 11
-12.3315588552569
 21
18.06940080509319
 31
0.0
100
AcDbAttributeDefinition
  3
Änderungsindex 6
  2
R_AEIND6
 70
     0
  0
ATTDEF
  5
3B2
330
32D
100
AcDbEntity
  8
AM_BOR
 62
     1
370
    25
100
AcDbText
 10
-8.809393826981704
 20
18.06940080509319
 30
0.0
 40
2.0
  1

100
AcDbAttributeDefinition
  3
Änderungsnummer 6
  2
R_AENR6
 70
     0
  0
ATTDEF
  5
3B3
330
32D
100
AcDbEntity
  8
AM_BOR
 62
     1
370
    25
100
AcDbText
 10
-12.3315588552569
 20
14.61485080509319
 30
0.0
 40
2.0
  1

 72
     1
 11
-12.3315588552569
 21
14.61485080509319
 31
0.0
100
AcDbAttributeDefinition
  3
Änderungsindex 7
  2
R_AEIND7
 70
     0
  0
ATTDEF
  5
3B4
330
32D
100
AcDbEntity
  8
AM_BOR
 62
     1
370
    25
100
AcDbText
 10
-8.809393826981704
 20
14.61485080509319
 30
0.0
 40
2.0
  1

100
AcDbAttributeDefinition
  3
Änderungsnummer 7
  2
R_AENR7
 70
     0
  0
ATTDEF
  5
3B5
330
32D
100
AcDbEntity
  8
AM_BOR
 62
     1
370
    25
100
AcDbText
 10
-12.3315588552569
 20
11.16030080509319
 30
0.0
 40
2.0
  1

 72
     1
 11
-12.3315588552569
 21
11.16030080509319
 31
0.0
100
AcDbAttributeDefinition
  3
Änderungsindex 8
  2
R_AEIND8
 70
     0
  0
ATTDEF
  5
3B6
330
32D
100
AcDbEntity
  8
AM_BOR
 62
     1
370
    25
100
AcDbText
 10
-8.809393826981704
 20
11.16030080509319
 30
0.0
 40
2.0
  1

100
AcDbAttributeDefinition
  3
Änderungsnummer 8
  2
R_AENR8
 70
     0
  0
ATTDEF
  5
3B7
330
32D
100
AcDbEntity
  8
AM_BOR
 62
     1
370
    25
100
AcDbText
 10
-12.3315588552569
 20
7.705750805093199
 30
0.0
 40
2.0
  1

 72
     1
 11
-12.3315588552569
 21
7.705750805093199
 31
0.0
100
AcDbAttributeDefinition
  3
Änderungsindex 9
  2
R_AEIND9
 70
     0
  0
ATTDEF
  5
3B8
330
32D
100
AcDbEntity
  8
AM_BOR
 62
     1
370
    25
100
AcDbText
 10
-8.809393826981704
 20
7.705750805093199
 30
0.0
 40
2.0
  1

100
AcDbAttributeDefinition
  3
Änderungsnummer 9
  2
R_AENR9
 70
     0
  0
ATTDEF
  5
3B9
330
32D
100
AcDbEntity
  8
AM_BOR
 62
     1
370
    25
100
AcDbText
 10
-12.3315588552569
 20
4.2512008050932
 30
0.0
 40
2.0
  1

 72
     1
 11
-12.3315588552569
 21
4.2512008050932
 31
0.0
100
AcDbAttributeDefinition
  3
Änderungsindex 10
  2
R_AEIND10
 70
     0
  0
ATTDEF
  5
3BA
330
32D
100
AcDbEntity
  8
AM_BOR
 62
     1
370
    25
100
AcDbText
 10
-8.809393826981704
 20
4.2512008050932
 30
0.0
 40
2.0
  1

100
AcDbAttributeDefinition
  3
Änderungsnummer 10
  2
R_AENR10
 70
     0
  0
ATTDEF
  5
3BB
330
32D
100
AcDbEntity
  8
AM_BOR
 62
     1
370
    25
100
AcDbText
 10
-12.3315588552569
 20
0.7967008050903388
 30
0.0
 40
2.0
  1

 72
     1
 11
-12.3315588552569
 21
0.7967008050903388
 31
0.0
100
AcDbAttributeDefinition
  3
Änderungsindex 11
  2
R_AEIND11
 70
     0
  0
ATTDEF
  5
3BC
330
32D
100
AcDbEntity
  8
AM_BOR
 62
     1
370
    25
100
AcDbText
 10
-8.809393826981704
 20
0.7967008050903388
 30
0.0
 40
2.0
  1

100
AcDbAttributeDefinition
  3
Änderungsnummer 11
  2
R_AENR11
 70
     0
  0
ATTDEF
  5
3BD
330
32D
100
AcDbEntity
  8
AM_BOR
 62
     1
370
    25
100
AcDbText
 10
-134.2819501338922
 20
44.50000000000289
 30
0.0
 40
2.0
  1

 41
0.6029366896014201
 72
     5
 11
-123.8511454037876
 21
44.50000000000289
 31
0.0
100
AcDbAttributeDefinition
  3
Geprüft Datum
  2
R_PROV_DAT
 70
     0
  0
ATTDEF
  5
3BE
330
32D
100
AcDbEntity
  8
AM_BOR
 62
     1
370
    25
100
AcDbText
 10
-123.0000000000076
 20
44.50000000000284
 30
0.0
 40
2.0
  1

100
AcDbAttributeDefinition
  3
Geprüft Name
  2
R_PROV_NAM
 70
     0
  0
ATTDEF
  5
3BF
330
32D
100
AcDbEntity
  8
AM_BOR
 62
     2
100
AcDbText
 10
-192.0000000000076
 20
2.0
 30
0.0
 40
3.5
  1

 50
90.0
100
AcDbAttributeDefinition
  3
Stempeltext
  2
STEMPELTEXT
 70
     0
  0
ATTDEF
  5
3C0
330
32D
100
AcDbEntity
  8
AM_BOR
 62
     1
370
    25
100
AcDbText
 10
-186.4012579132421
 20
87.16666666667149
 30
0.0
 40
2.0
  1

 72
     1
 11
-186.4012579132421
 21
87.16666666667149
 31
0.0
100
AcDbAttributeDefinition
  3
Änderungsindex 2
  2
R_AEIND2
 70
     0
  0
ATTDEF
  5
3C1
330
32D
100
AcDbEntity
  8
AM_BOR
 62
     1
370
    25
100
AcDbText
 10
-181.3025158264765
 20
87.16666666667149
 30
0.0
 40
2.0
  1

100
AcDbAttributeDefinition
  3
Änderungsbeschreibung 2
  2
R_AETEXT2
 70
     0
  0
ATTDEF
  5
3C2
330
32D
100
AcDbEntity
  8
AM_BOR
 62
     1
370
    25
100
AcDbText
 10
-27.84186369022683
 20
87.16666666667149
 30
0.0
 40
2.0
  1

100
AcDbAttributeDefinition
  3
Änderungsdatum 2
  2
R_AEDAT2
 70
     0
  0
ATTDEF
  5
3C3
330
32D
100
AcDbEntity
  8
AM_BOR
 62
     1
370
    25
100
AcDbText
 10
-13.96099918964142
 20
87.16666666667149
 30
0.0
 40
2.0
  1

100
AcDbAttributeDefinition
  3
Änderungsname 2
  2
R_AENAM2
 70
     0
  0
ATTDEF
  5
3C4
330
32D
100
AcDbEntity
  8
AM_BOR
 62
     1
370
    25
100
AcDbText
 10
-186.4012579132421
 20
92.16666666667148
 30
0.0
 40
2.0
  1

 72
     1
 11
-186.4012579132421
 21
92.16666666667148
 31
0.0
100
AcDbAttributeDefinition
  3
Änderungsindex 3
  2
R_AEIND3
 70
     0
  0
ATTDEF
  5
3C5
330
32D
100
AcDbEntity
  8
AM_BOR
 62
     1
370
    25
100
AcDbText
 10
-181.3025158264765
 20
92.16666666667148
 30
0.0
 40
2.0
  1

100
AcDbAttributeDefinition
  3
Änderungsbeschreibung 3
  2
R_AETEXT3
 70
     0
  0
ATTDEF
  5
3C6
330
32D
100
AcDbEntity
  8
AM_BOR
 62
     1
370
    25
100
AcDbText
 10
-27.84186369022683
 20
92.16666666667148
 30
0.0
 40
2.0
  1

100
AcDbAttributeDefinition
  3
Änderungsdatum 3
  2
R_AEDAT3
 70
     0
  0
ATTDEF
  5
3C7
330
32D
100
AcDbEntity
  8
AM_BOR
 62
     1
370
    25
100
AcDbText
 10
-13.96099918964142
 20
92.16666666667148
 30
0.0
 40
2.0
  1

100
AcDbAttributeDefinition
  3
Änderungsname 3
  2
R_AENAM3
 70
     0
  0
ATTDEF
  5
3C8
330
32D
100
AcDbEntity
  8
AM_BOR
 62
     1
370
    25
100
AcDbText
 10
-186.4012579132421
 20
97.16666666667151
 30
0.0
 40
2.0
  1

 72
     1
 11
-186.4012579132421
 21
97.16666666667151
 31
0.0
100
AcDbAttributeDefinition
  3
Änderungsindex 4
  2
R_AEIND4
 70
     0
  0
ATTDEF
  5
3C9
330
32D
100
AcDbEntity
  8
AM_BOR
 62
     1
370
    25
100
AcDbText
 10
-181.3025158264765
 20
97.16666666667151
 30
0.0
 40
2.0
  1

100
AcDbAttributeDefinition
  3
Änderungsbeschreibung 4
  2
R_AETEXT4
 70
     0
  0
ATTDEF
  5
3CA
330
32D
100
AcDbEntity
  8
AM_BOR
 62
     1
370
    25
100
AcDbText
 10
-27.84186369022683
 20
97.16666666667151
 30
0.0
 40
2.0
  1

100
AcDbAttributeDefinition
  3
Änderungsdatum 4
  2
R_AEDAT4
 70
     0
  0
ATTDEF
  5
3CB
330
32D
100
AcDbEntity
  8
AM_BOR
 62
     1
370
    25
100
AcDbText
 10
-13.96099918964142
 20
97.16666666667151
 30
0.0
 40
2.0
  1

100
AcDbAttributeDefinition
  3
Änderungsname 4
  2
R_AENAM4
 70
     0
  0
ATTDEF
  5
3CC
330
32D
100
AcDbEntity
  8
AM_BOR
 62
     1
370
    25
100
AcDbText
 10
-186.4012579132421
 20
102.1666666666715
 30
0.0
 40
2.0
  1

 72
     1
 11
-186.4012579132421
 21
102.1666666666715
 31
0.0
100
AcDbAttributeDefinition
  3
Änderungsindex 5
  2
R_AEIND5
 70
     0
  0
ATTDEF
  5
3CD
330
32D
100
AcDbEntity
  8
AM_BOR
 62
     1
370
    25
100
AcDbText
 10
-181.3025158264765
 20
102.1666666666715
 30
0.0
 40
2.0
  1

100
AcDbAttributeDefinition
  3
Änderungsbeschreibung 5
  2
R_AETEXT5
 70
     0
  0
ATTDEF
  5
3CE
330
32D
100
AcDbEntity
  8
AM_BOR
 62
     1
370
    25
100
AcDbText
 10
-27.84186369022683
 20
102.1666666666715
 30
0.0
 40
2.0
  1

100
AcDbAttributeDefinition
  3
Änderungsdatum 5
  2
R_AEDAT5
 70
     0
  0
ATTDEF
  5
3CF
330
32D
100
AcDbEntity
  8
AM_BOR
 62
     1
370
    25
100
AcDbText
 10
-13.96099918964142
 20
102.1666666666715
 30
0.0
 40
2.0
  1

100
AcDbAttributeDefinition
  3
Änderungsname 5
  2
R_AENAM5
 70
     0
  0
ATTDEF
  5
3D0
330
32D
100
AcDbEntity
  8
AM_BOR
 62
     1
370
    25
100
AcDbText
 10
-186.4012579132421
 20
107.1666666666715
 30
0.0
 40
2.0
  1

 72
     1
 11
-186.4012579132421
 21
107.1666666666715
 31
0.0
100
AcDbAttributeDefinition
  3
Änderungsindex 6
  2
R_AEIND6
 70
     0
  0
ATTDEF
  5
3D1
330
32D
100
AcDbEntity
  8
AM_BOR
 62
     1
370
    25
100
AcDbText
 10
-181.3025158264765
 20
107.1666666666715
 30
0.0
 40
2.0
  1

100
AcDbAttributeDefinition
  3
Änderungsbeschreibung 6
  2
R_AETEXT6
 70
     0
  0
ATTDEF
  5
3D2
330
32D
100
AcDbEntity
  8
AM_BOR
 62
     1
370
    25
100
AcDbText
 10
-27.84186369022683
 20
107.1666666666715
 30
0.0
 40
2.0
  1

100
AcDbAttributeDefinition
  3
Änderungsdatum 6
  2
R_AEDAT6
 70
     0
  0
ATTDEF
  5
3D3
330
32D
100
AcDbEntity
  8
AM_BOR
 62
     1
370
    25
100
AcDbText
 10
-13.96099918964142
 20
107.1666666666715
 30
0.0
 40
2.0
  1

100
AcDbAttributeDefinition
  3
Änderungsname 6
  2
R_AENAM6
 70
     0
  0
ATTDEF
  5
3D4
330
32D
100
AcDbEntity
  8
AM_BOR
 62
     1
370
    25
100
AcDbText
 10
-186.4012579132421
 20
112.1666666666715
 30
0.0
 40
2.0
  1

 72
     1
 11
-186.4012579132421
 21
112.1666666666715
 31
0.0
100
AcDbAttributeDefinition
  3
Änderungsindex 7
  2
R_AEIND7
 70
     0
  0
ATTDEF
  5
3D5
330
32D
100
AcDbEntity
  8
AM_BOR
 62
     1
370
    25
100
AcDbText
 10
-181.3025158264765
 20
112.1666666666715
 30
0.0
 40
2.0
  1

100
AcDbAttributeDefinition
  3
Änderungsbeschreibung 7
  2
R_AETEXT7
 70
     0
  0
ATTDEF
  5
3D6
330
32D
100
AcDbEntity
  8
AM_BOR
 62
     1
370
    25
100
AcDbText
 10
-27.84186369022683
 20
112.1666666666715
 30
0.0
 40
2.0
  1

100
AcDbAttributeDefinition
  3
Änderungsdatum 7
  2
R_AEDAT7
 70
     0
  0
ATTDEF
  5
3D7
330
32D
100
AcDbEntity
  8
AM_BOR
 62
     1
370
    25
100
AcDbText
 10
-13.96099918964142
 20
112.1666666666715
 30
0.0
 40
2.0
  1

100
AcDbAttributeDefinition
  3
Änderungsname 7
  2
R_AENAM7
 70
     0
  0
ATTDEF
  5
3D8
330
32D
100
AcDbEntity
  8
AM_BOR
 62
     1
370
    25
100
AcDbText
 10
-186.4012579132421
 20
117.1666666666715
 30
0.0
 40
2.0
  1

 72
     1
 11
-186.4012579132421
 21
117.1666666666715
 31
0.0
100
AcDbAttributeDefinition
  3
Änderungsindex 8
  2
R_AEIND8
 70
     0
  0
ATTDEF
  5
3D9
330
32D
100
AcDbEntity
  8
AM_BOR
 62
     1
370
    25
100
AcDbText
 10
-181.3025158264765
 20
117.1666666666715
 30
0.0
 40
2.0
  1

100
AcDbAttributeDefinition
  3
Änderungsbeschreibung 8
  2
R_AETEXT8
 70
     0
  0
ATTDEF
  5
3DA
330
32D
100
AcDbEntity
  8
AM_BOR
 62
     1
370
    25
100
AcDbText
 10
-27.84186369022683
 20
117.1666666666715
 30
0.0
 40
2.0
  1

100
AcDbAttributeDefinition
  3
Änderungsdatum 8
  2
R_AEDAT8
 70
     0
  0
ATTDEF
  5
3DB
330
32D
100
AcDbEntity
  8
AM_BOR
 62
     1
370
    25
100
AcDbText
 10
-13.96099918964142
 20
117.1666666666715
 30
0.0
 40
2.0
  1

100
AcDbAttributeDefinition
  3
Änderungsname 8
  2
R_AENAM8
 70
     0
  0
ATTDEF
  5
3DC
330
32D
100
AcDbEntity
  8
AM_BOR
 62
     1
370
    25
100
AcDbText
 10
-186.4012579132421
 20
122.1666666666715
 30
0.0
 40
2.0
  1

 72
     1
 11
-186.4012579132421
 21
122.1666666666715
 31
0.0
100
AcDbAttributeDefinition
  3
Änderungsindex 9
  2
R_AEIND9
 70
     0
  0
ATTDEF
  5
3DD
330
32D
100
AcDbEntity
  8
AM_BOR
 62
     1
370
    25
100
AcDbText
 10
-181.3025158264765
 20
122.1666666666715
 30
0.0
 40
2.0
  1

100
AcDbAttributeDefinition
  3
Änderungsbeschreibung 9
  2
R_AETEXT9
 70
     0
  0
ATTDEF
  5
3DE
330
32D
100
AcDbEntity
  8
AM_BOR
 62
     1
370
    25
100
AcDbText
 10
-27.84186369022683
 20
122.1666666666715
 30
0.0
 40
2.0
  1

100
AcDbAttributeDefinition
  3
Änderungsdatum 9
  2
R_AEDAT9
 70
     0
  0
ATTDEF
  5
3DF
330
32D
100
AcDbEntity
  8
AM_BOR
 62
     1
370
    25
100
AcDbText
 10
-13.96099918964142
 20
122.1666666666715
 30
0.0
 40
2.0
  1

100
AcDbAttributeDefinition
  3
Änderungsname 9
  2
R_AENAM9
 70
     0
  0
ATTDEF
  5
3E0
330
32D
100
AcDbEntity
  8
AM_BOR
 62
     1
370
    25
100
AcDbText
 10
-186.4012579132421
 20
127.1666666666715
 30
0.0
 40
2.0
  1

 72
     1
 11
-186.4012579132421
 21
127.1666666666715
 31
0.0
100
AcDbAttributeDefinition
  3
Änderungsindex 10
  2
R_AEIND10
 70
     0
  0
ATTDEF
  5
3E1
330
32D
100
AcDbEntity
  8
AM_BOR
 62
     1
370
    25
100
AcDbText
 10
-181.3025158264765
 20
127.1666666666715
 30
0.0
 40
2.0
  1

100
AcDbAttributeDefinition
  3
Änderungsbeschreibung 10
  2
R_AETEXT10
 70
     0
  0
ATTDEF
  5
3E2
330
32D
100
AcDbEntity
  8
AM_BOR
 62
     1
370
    25
100
AcDbText
 10
-27.84186369022683
 20
127.1666666666715
 30
0.0
 40
2.0
  1

100
AcDbAttributeDefinition
  3
Änderungsdatum 10
  2
R_AEDAT10
 70
     0
  0
ATTDEF
  5
3E3
330
32D
100
AcDbEntity
  8
AM_BOR
 62
     1
370
    25
100
AcDbText
 10
-13.96099918964142
 20
127.1666666666715
 30
0.0
 40
2.0
  1

100
AcDbAttributeDefinition
  3
Änderungsname 10
  2
R_AENAM10
 70
     0
  0
ATTDEF
  5
3E4
330
32D
100
AcDbEntity
  8
AM_BOR
 62
     1
370
    25
100
AcDbText
 10
-186.4012579132421
 20
132.1666666666715
 30
0.0
 40
2.0
  1

 72
     1
 11
-186.4012579132421
 21
132.1666666666715
 31
0.0
100
AcDbAttributeDefinition
  3
Änderungsindex 11
  2
R_AEIND11
 70
     0
  0
ATTDEF
  5
3E5
330
32D
100
AcDbEntity
  8
AM_BOR
 62
     1
370
    25
100
AcDbText
 10
-181.3025158264765
 20
132.1666666666715
 30
0.0
 40
2.0
  1

100
AcDbAttributeDefinition
  3
Änderungsbeschreibung 11
  2
R_AETEXT11
 70
     0
  0
ATTDEF
  5
3E6
330
32D
100
AcDbEntity
  8
AM_BOR
 62
     1
370
    25
100
AcDbText
 10
-27.84186369022683
 20
132.1666666666715
 30
0.0
 40
2.0
  1

100
AcDbAttributeDefinition
  3
Änderungsdatum 11
  2
R_AEDAT11
 70
     0
  0
ATTDEF
  5
3E7
330
32D
100
AcDbEntity
  8
AM_BOR
 62
     1
370
    25
100
AcDbText
 10
-13.96099918964142
 20
132.1666666666715
 30
0.0
 40
2.0
  1

100
AcDbAttributeDefinition
  3
Änderungsname 11
  2
R_AENAM11
 70
     0
  0
TEXT
  5
3E8
330
32D
100
AcDbEntity
  8
AM_BOR
 62
     1
370
    25
100
AcDbText
 10
-64.0000000000075
 20
10.99999999999721
 30
0.0
 40
2.0
  1
Projekt:
100
AcDbText
  0
INSERT
  5
3E9
330
32D
100
AcDbEntity
  8
0
100
AcDbBlockReference
  2
sfm
 10
-104.3551519040817
 20
43.22232415594515
 30
0.0
  0
OLE2FRAME
  5
3EA
330
32D
100
AcDbEntity
  8
0
100
AcDbOle2Frame
 70
     2
 73
     1
 90
        0
1001
ACAD
1000
OLEBEGIN
1070
    70
1070
     1
1070
    71
1070
     1
1070
    40
1040
0.0
1070
    41
1040
266.4296197980875
1070
    42
1040
115.0072434317946
1070
    72
1070
     0
1070
     3
1000

1070
    90
1071
        0
1070
    43
1040
0.0
1070
     4
1000

1070
    91
1071
        0
1070
    44
1040
0.0
1000
OLEEND
  0
ENDBLK
  5
3EB
330
32D
100
AcDbEntity
  8
0
100
AcDbBlockEnd
  0
BLOCK
  5
46E
330
46D
100
AcDbEntity
  8
0
100
AcDbBlockBegin
  2
8
 70
     0
 10
0.0
 20
0.0
 30
0.0
  3
8
  1

  0
CIRCLE
  5
46F
330
46D
100
AcDbEntity
  8
AM_3
100
AcDbCircle
 10
19472.21150790571
 20
1062.688531703828
 30
0.0
 40
39.99
  0
CIRCLE
  5
470
330
46D
100
AcDbEntity
  8
AM_3
100
AcDbCircle
 10
19472.21150790571
 20
1062.688531703828
 30
0.0
 40
39.156875
  0
CIRCLE
  5
471
330
46D
100
AcDbEntity
  8
AM_3
100
AcDbCircle
 10
19472.21150790571
 20
1062.688531703828
 30
0.0
 40
13.33
  0
CIRCLE
  5
472
330
46D
100
AcDbEntity
  8
AM_3
100
AcDbCircle
 10
19472.21150790571
 20
1062.688531703828
 30
0.0
 40
11.66375
  0
LINE
  5
473
330
46D
100
AcDbEntity
  8
AM_3
100
AcDbLine
 10
19472.21150790571
 20
1062.688531703828
 30
0.0
 11
19440.3996577036
 21
1094.50038190593
 31
0.0
1001
GENIUS_GENOREF_13
1005
4C3
  0
LINE
  5
474
330
46D
100
AcDbEntity
  8
AM_3
100
AcDbLine
 10
19472.21150790571
 20
1062.688531703828
 30
0.0
 11
19440.39965770361
 21
1030.876681501717
 31
0.0
1001
GENIUS_GENOREF_13
1005
4C3
  0
LINE
  5
475
330
46D
100
AcDbEntity
  8
AM_3
100
AcDbLine
 10
19472.21150790571
 20
1062.688531703828
 30
0.0
 11
19504.02335810783
 21
1030.876681501726
 31
0.0
1001
GENIUS_GENOREF_13
1005
4C3
  0
LINE
  5
476
330
46D
100
AcDbEntity
  8
AM_3
100
AcDbLine
 10
19472.21150790571
 20
1062.688531703828
 30
0.0
 11
19504.02335810782
 21
1094.500381905939
 31
0.0
1001
GENIUS_GENOREF_13
1005
4C3
  0
LINE
  5
477
330
46D
100
AcDbEntity
  8
AM_3
100
AcDbLine
 10
19448.02752478811
 20
1038.504548586216
 30
0.0
 11
19464.12132382663
 21
1052.094296405017
 31
0.0
  0
LINE
  5
478
330
46D
100
AcDbEntity
  8
AM_3
100
AcDbLine
 10
19444.82072907292
 20
1034.706285641398
 30
0.0
 11
19463.4854782426
 21
1050.466966740375
 31
0.0
  0
LINE
  5
479
330
46D
100
AcDbEntity
  8
AM_3
100
AcDbLine
 10
19448.02752478809
 20
1038.504548586201
 30
0.0
 11
19461.6172726069
 21
1054.598347624742
 31
0.0
  0
LINE
  5
47A
330
46D
100
AcDbEntity
  8
AM_3
100
AcDbLine
 10
19444.22926184328
 20
1035.297752871031
 30
0.0
 11
19459.98994294226
 21
1053.962502040706
 31
0.0
  0
LINE
  5
47B
330
46D
100
AcDbEntity
  8
AM_3
100
AcDbLine
 10
19457.19040618163
 20
1031.962377016652
 30
0.0
 11
19467.99961489334
 21
1050.041442819332
 31
0.0
  0
LINE
  5
47C
330
46D
100
AcDbEntity
  8
AM_3
100
AcDbLine
 10
19455.39065746567
 20
1027.32866956836
 30
0.0
 11
19467.92661425523
 21
1048.295827640942
 31
0.0
  0
LINE
  5
47D
330
46D
100
AcDbEntity
  8
AM_3
100
AcDbLine
 10
19457.19040618162
 20
1031.962377016634
 30
0.0
 11
19464.81817597372
 21
1051.596753535141
 31
0.0
  0
LINE
  5
47E
330
46D
100
AcDbEntity
  8
AM_3
100
AcDbLine
 10
19454.63918846648
 20
1027.696040376529
 30
0.0
 11
19463.4854782426
 21
1050.466966740375
 31
0.0
  0
LINE
  5
47F
330
46D
100
AcDbEntity
  8
AM_3
100
AcDbLine
 10
19467.98105702336
 20
1028.749861072857
 30
0.0
 11
19472.33432992219
 21
1049.359097554086
 31
0.0
  0
LINE
  5
480
330
46D
100
AcDbEntity
  8
AM_3
100
AcDbLine
 10
19467.783386006
 20
1023.782843222491
 30
0.0
 11
19472.83208498187
 21
1047.684361352544
 31
0.0
  0
LINE
  5
481
330
46D
100
AcDbEntity
  8
AM_3
100
AcDbLine
 10
19467.98105702336
 20
1028.749861072836
 30
0.0
 11
19468.82026157472
 21
1049.797125716793
 31
0.0
  0
LINE
  5
482
330
46D
100
AcDbEntity
  8
AM_3
100
AcDbLine
 10
19466.95334856354
 20
1023.886307281792
 30
0.0
 11
19467.92661425523
 21
1048.295827640942
 31
0.0
  0
LINE
  5
483
330
46D
100
AcDbEntity
  8
AM_3
100
AcDbLine
 10
19479.23014286041
 20
1029.215126704662
 30
0.0
 11
19476.65573527978
 21
1050.121203306443
 31
0.0
  0
LINE
  5
484
330
46D
100
AcDbEntity
  8
AM_3
100
AcDbLine
 10
19480.65597026353
 20
1024.453051907533
 30
0.0
 11
19477.67030655306
 21
1048.698829735399
 31
0.0
  0
LINE
  5
485
330
46D
100
AcDbEntity
  8
AM_3
100
AcDbLine
 10
19479.23014286041
 20
1029.21512670464
 30
0.0
 11
19473.1898413363
 21
1049.394481767912
 31
0.0
  0
LINE
  5
486
330
46D
100
AcDbEntity
  8
AM_3
100
AcDbLine
 10
19479.83731181407
 20
1024.281397281729
 30
0.0
 11
19472.83208498187
 21
1047.684361352544
 31
0.0
  0
LINE
  5
487
330
46D
100
AcDbEntity
  8
AM_3
100
AcDbLine
 10
19489.71865069477
 20
1033.307755161519
 30
0.0
 11
19480.49553964209
 21
1052.245174092856
 31
0.0
  0
LINE
  5
488
330
46D
100
AcDbEntity
  8
AM_3
100
AcDbLine
 10
19492.61346599528
 20
1029.2666681131
 30
0.0
 11
19481.91698258883
 21
1051.229299399129
 31
0.0
  0
LINE
  5
489
330
46D
100
AcDbEntity
  8
AM_3
100
AcDbLine
 10
19489.71865069478
 20
1033.3077551615
 30
0.0
 11
19477.45340349027
 21
1050.432454408027
 31
0.0
  0
LINE
  5
48A
330
46D
100
AcDbEntity
  8
AM_3
100
AcDbLine
 10
19491.89490088459
 20
1028.838496244398
 30
0.0
 11
19477.67030655306
 21
1048.698829735399
 31
0.0
  0
LINE
  5
48B
330
46D
100
AcDbEntity
  8
AM_3
100
AcDbLine
 10
19498.30998795662
 20
1040.584246646457
 30
0.0
 11
19483.43764062577
 21
1055.500844721799
 31
0.0
  0
LINE
  5
48C
330
46D
100
AcDbEntity
  8
AM_3
100
AcDbLine
 10
19502.36009299902
 20
1037.702061832371
 30
0.0
 11
19485.11191984673
 21
1055.001554691371
 31
0.0
  0
LINE
  5
48D
330
46D
100
AcDbEntity
  8
AM_3
100
AcDbLine
 10
19498.30998795665
 20
1040.584246646437
 30
0.0
 11
19481.14892492126
 21
1052.798563195774
 31
0.0
  0
LINE
  5
48E
330
46D
100
AcDbEntity
  8
AM_3
100
AcDbLine
 10
19501.81948890654
 20
1037.06377178651
 30
0.0
 11
19481.91698258883
 21
1051.229299399129
 31
0.0
  0
LINE
  5
48F
330
46D
100
AcDbEntity
  8
AM_3
100
AcDbLine
 10
19504.07314994532
 20
1050.256080400678
 30
0.0
 11
19485.16321593784
 21
1059.535412763698
 31
0.0
  0
LINE
  5
490
330
46D
100
AcDbEntity
  8
AM_3
100
AcDbLine
 10
19508.8396530044
 20
1048.845127267238
 30
0.0
 11
19486.90889730029
 21
1059.606813218661
 31
0.0
  0
LINE
  5
491
330
46D
100
AcDbEntity
  8
AM_3
100
AcDbLine
 10
19504.07314994535
 20
1050.256080400667
 30
0.0
 11
19483.8759385403
 21
1056.236403530042
 31
0.0
  0
LINE
  5
492
330
46D
100
AcDbEntity
  8
AM_3
100
AcDbLine
 10
19508.53559277189
 20
1048.065887674777
 30
0.0
 11
19485.11191984673
 21
1055.001554691371
 31
0.0
  0
LINE
  5
493
330
46D
100
AcDbEntity
  8
AM_3
100
AcDbLine
 10
19506.38360863472
 20
1061.275163162959
 30
0.0
 11
19485.48527271817
 21
1063.911670168452
 31
0.0
  0
LINE
  5
494
330
46D
100
AcDbEntity
  8
AM_3
100
AcDbLine
 10
19511.34998514411
 20
1061.488340375365
 30
0.0
 11
19487.11318455947
 21
1064.546023761602
 31
0.0
  0
LINE
  5
495
330
46D
100
AcDbEntity
  8
AM_3
100
AcDbLine
 10
19506.38360863473
 20
1061.275163162958
 30
0.0
 11
19485.3389301078
 21
1060.373432067024
 31
0.0
  0
LINE
  5
496
330
46D
100
AcDbEntity
  8
AM_3
100
AcDbLine
 10
19511.31541841574
 20
1060.652593937297
 30
0.0
 11
19486.90889730029
 21
1059.606813218661
 31
0.0
  0
LINE
  5
497
330
46D
100
AcDbEntity
  8
AM_3
100
AcDbLine
 10
19504.99098997535
 20
1072.447406337311
 30
0.0
 11
19484.36891111739
 21
1068.155381541603
 31
0.0
  0
LINE
  5
498
330
46D
100
AcDbEntity
  8
AM_3
100
AcDbLine
 10
19509.619055979
 20
1074.261612836814
 30
0.0
 11
19485.70264392987
 21
1069.283946218124
 31
0.0
  0
LINE
  5
499
330
46D
100
AcDbEntity
  8
AM_3
100
AcDbLine
 10
19504.99098997537
 20
1072.447406337319
 30
0.0
 11
19485.37936178675
 21
1064.761337572128
 31
0.0
  0
LINE
  5
49A
330
46D
100
AcDbEntity
  8
AM_3
100
AcDbLine
 10
19509.85772859614
 20
1073.459925647648
 30
0.0
 11
19487.11318455947
 21
1064.546023761602
 31
0.0
  0
LINE
  5
49B
330
46D
100
AcDbEntity
  8
AM_3
100
AcDbLine
 10
19500.04620580766
 20
1082.56212402059
 30
0.0
 11
19481.93510623707
 21
1071.806674907926
 31
0.0
  0
LINE
  5
49C
330
46D
100
AcDbEntity
  8
AM_3
100
AcDbLine
 10
19503.83443854223
 20
1085.780762382648
 30
0.0
 11
19482.8301293755
 21
1073.307153173618
 31
0.0
  0
LINE
  5
49D
330
46D
100
AcDbEntity
  8
AM_3
100
AcDbLine
 10
19500.04620580768
 20
1082.562124020598
 30
0.0
 11
19483.99285217739
 21
1068.9246223985
 31
0.0
  0
LINE
  5
49E
330
46D
100
AcDbEntity
  8
AM_3
100
AcDbLine
 10
19504.32048662344
 20
1085.10000968879
 30
0.0
 11
19485.70264392987
 21
1069.283946218124
 31
0.0
  0
LINE
  5
49F
330
46D
100
AcDbEntity
  8
AM_3
100
AcDbLine
 10
19492.08510022246
 20
1090.523229605787
 30
0.0
 11
19478.44759860038
 21
1074.46987597551
 31
0.0
  0
LINE
  5
4A0
330
46D
100
AcDbEntity
  8
AM_3
100
AcDbLine
 10
19494.62298589067
 20
1094.797510421557
 30
0.0
 11
19478.80692242001
 21
1076.179667727987
 31
0.0
  0
LINE
  5
4A1
330
46D
100
AcDbEntity
  8
AM_3
100
AcDbLine
 10
19492.08510022248
 20
1090.523229605803
 30
0.0
 11
19481.32965110981
 21
1072.412130035189
 31
0.0
  0
LINE
  5
4A2
330
46D
100
AcDbEntity
  8
AM_3
100
AcDbLine
 10
19495.30373858452
 20
1094.311462340349
 30
0.0
 11
19482.83012937551
 21
1073.307153173625
 31
0.0
  0
LINE
  5
4A3
330
46D
100
AcDbEntity
  8
AM_3
100
AcDbLine
 10
19481.97038253919
 20
1095.468013773464
 30
0.0
 11
19474.28431377401
 21
1075.856385584865
 31
0.0
  0
LINE
  5
4A4
330
46D
100
AcDbEntity
  8
AM_3
100
AcDbLine
 10
19482.98290184952
 20
1100.334752394262
 30
0.0
 11
19474.06899996349
 21
1077.59020835758
 31
0.0
  0
LINE
  5
4A5
330
46D
100
AcDbEntity
  8
AM_3
100
AcDbLine
 10
19481.9703825392
 20
1095.468013773485
 30
0.0
 11
19477.67835774349
 21
1074.845934915502
 31
0.0
  0
LINE
  5
4A6
330
46D
100
AcDbEntity
  8
AM_3
100
AcDbLine
 10
19483.78458903869
 20
1100.096079777114
 30
0.0
 11
19478.80692242001
 21
1076.179667727987
 31
0.0
  0
LINE
  5
4A7
330
46D
100
AcDbEntity
  8
AM_3
100
AcDbLine
 10
19470.79813936483
 20
1096.86063243283
 30
0.0
 11
19469.8964082689
 21
1075.815953905908
 31
0.0
  0
LINE
  5
4A8
330
46D
100
AcDbEntity
  8
AM_3
100
AcDbLine
 10
19470.17557013917
 20
1101.792442213857
 30
0.0
 11
19469.12978942054
 21
1077.385921098411
 31
0.0
  0
LINE
  5
4A9
330
46D
100
AcDbEntity
  8
AM_3
100
AcDbLine
 10
19470.79813936483
 20
1096.860632432851
 30
0.0
 11
19473.43464637033
 21
1075.96229651628
 31
0.0
  0
LINE
  5
4AA
330
46D
100
AcDbEntity
  8
AM_3
100
AcDbLine
 10
19471.01131657724
 20
1101.827008942227
 30
0.0
 11
19474.06899996349
 21
1077.59020835758
 31
0.0
  0
LINE
  5
4AB
330
46D
100
AcDbEntity
  8
AM_3
100
AcDbLine
 10
19459.77905660256
 20
1094.550173743436
 30
0.0
 11
19465.75937973192
 21
1074.352962338411
 31
0.0
  0
LINE
  5
4AC
330
46D
100
AcDbEntity
  8
AM_3
100
AcDbLine
 10
19457.58886387665
 20
1099.012616570005
 30
0.0
 11
19464.52453089326
 21
1075.588943644839
 31
0.0
  0
LINE
  5
4AD
330
46D
100
AcDbEntity
  8
AM_3
100
AcDbLine
 10
19459.77905660254
 20
1094.550173743459
 30
0.0
 11
19469.05838896559
 21
1075.640239735949
 31
0.0
  0
LINE
  5
4AE
330
46D
100
AcDbEntity
  8
AM_3
100
AcDbLine
 10
19458.36810346911
 20
1099.316676802513
 30
0.0
 11
19469.12978942054
 21
1077.385921098411
 31
0.0
  0
LINE
  5
4AF
330
46D
100
AcDbEntity
  8
AM_3
100
AcDbLine
 10
19450.10722284833
 20
1088.787011754732
 30
0.0
 11
19462.32153939766
 21
1071.62594871937
 31
0.0
  0
LINE
  5
4B0
330
46D
100
AcDbEntity
  8
AM_3
100
AcDbLine
 10
19446.58674798839
 20
1092.296512704648
 30
0.0
 11
19460.75227560101
 21
1072.394006386938
 31
0.0
  0
LINE
  5
4B1
330
46D
100
AcDbEntity
  8
AM_3
100
AcDbLine
 10
19450.10722284832
 20
1088.787011754755
 30
0.0
 11
19465.02382092368
 21
1073.914664423884
 31
0.0
  0
LINE
  5
4B2
330
46D
100
AcDbEntity
  8
AM_3
100
AcDbLine
 10
19447.22503803425
 20
1092.837116797125
 30
0.0
 11
19464.52453089326
 21
1075.588943644839
 31
0.0
  0
LINE
  5
4B3
330
46D
100
AcDbEntity
  8
AM_3
100
AcDbLine
 10
19442.8307313634
 20
1080.195674492874
 30
0.0
 11
19459.95543060991
 21
1067.930427288377
 31
0.0
  0
LINE
  5
4B4
330
46D
100
AcDbEntity
  8
AM_3
100
AcDbLine
 10
19438.36147244628
 20
1082.371924682692
 30
0.0
 11
19458.22180593728
 21
1068.147330351179
 31
0.0
  0
LINE
  5
4B5
330
46D
100
AcDbEntity
  8
AM_3
100
AcDbLine
 10
19442.83073136338
 20
1080.195674492884
 30
0.0
 11
19461.76815029474
 21
1070.972563440198
 31
0.0
  0
LINE
  5
4B6
330
46D
100
AcDbEntity
  8
AM_3
100
AcDbLine
 10
19438.78964431498
 20
1083.090489793385
 30
0.0
 11
19460.75227560101
 21
1072.394006386938
 31
0.0
  0
LINE
  5
4B7
330
46D
100
AcDbEntity
  8
AM_3
100
AcDbLine
 10
19438.73810290654
 20
1069.707166658512
 30
0.0
 11
19458.9174579698
 21
1063.666865134412
 31
0.0
  0
LINE
  5
4B8
330
46D
100
AcDbEntity
  8
AM_3
100
AcDbLine
 10
19433.80437348361
 20
1070.314335612173
 30
0.0
 11
19457.20733755443
 21
1063.309108779979
 31
0.0
  0
LINE
  5
4B9
330
46D
100
AcDbEntity
  8
AM_3
100
AcDbLine
 10
19438.73810290652
 20
1069.707166658516
 30
0.0
 11
19459.64417950833
 21
1067.13275907789
 31
0.0
  0
LINE
  5
4BA
330
46D
100
AcDbEntity
  8
AM_3
100
AcDbLine
 10
19433.97602810942
 20
1071.132994061641
 30
0.0
 11
19458.22180593728
 21
1068.147330351179
 31
0.0
  0
LINE
  5
4BB
330
46D
100
AcDbEntity
  8
AM_3
100
AcDbLine
 10
19438.27283727474
 20
1058.458080821466
 30
0.0
 11
19459.32010191868
 21
1059.297285372833
 31
0.0
  0
LINE
  5
4BC
330
46D
100
AcDbEntity
  8
AM_3
100
AcDbLine
 10
19433.40928348368
 20
1057.43037236164
 30
0.0
 11
19457.81880384283
 21
1058.403638053337
 31
0.0
  0
LINE
  5
4BD
330
46D
100
AcDbEntity
  8
AM_3
100
AcDbLine
 10
19438.27283727472
 20
1058.458080821464
 30
0.0
 11
19458.88207375598
 21
1062.811353720294
 31
0.0
  0
LINE
  5
4BE
330
46D
100
AcDbEntity
  8
AM_3
100
AcDbLine
 10
19433.30581942438
 20
1058.260409804097
 30
0.0
 11
19457.20733755443
 21
1063.309108779979
 31
0.0
  0
LINE
  5
4BF
330
46D
100
AcDbEntity
  8
AM_3
100
AcDbLine
 10
19441.48535321854
 20
1047.667429979736
 30
0.0
 11
19461.11972973703
 21
1055.295199771827
 31
0.0
  0
LINE
  5
4C0
330
46D
100
AcDbEntity
  8
AM_3
100
AcDbLine
 10
19437.21901657843
 20
1045.116212264578
 30
0.0
 11
19459.98994294226
 21
1053.962502040706
 31
0.0
  0
LINE
  5
4C1
330
46D
100
AcDbEntity
  8
AM_3
100
AcDbLine
 10
19441.48535321852
 20
1047.667429979725
 30
0.0
 11
19459.56441902122
 21
1058.476638691449
 31
0.0
  0
LINE
  5
4C2
330
46D
100
AcDbEntity
  8
AM_3
100
AcDbLine
 10
19436.85164577025
 20
1045.867681263775
 30
0.0
 11
19457.81880384283
 21
1058.403638053337
 31
0.0
  0
POINT
  5
4C3
330
46D
100
AcDbEntity
  8
0
 60
     1
100
AcDbPoint
 10
24889.23678351928
 20
-1761.317572989584
 30
0.0
 50
224.9999999999917
1001
GENIUS_GENODEF_13
1002
{
1000
HIER
1070
    10
1002
}
1002
{
1000
MANEDIT
1070
     0
1002
}
1002
{
1000
NOSEL
1070
     0
1002
}
1002
{
1000
BEHIND
1070
     0
1002
}
1002
{
1000
OTHER
1070
     0
1002
}
1002
{
1000
REACTOR
1002
}
1001
GENIUS_GENOENT_13
1002
{
1000
MYREF
1005
4C3
1002
}
1002
{
1000
GRP
1005
0
1002
}
1001
GENIUS_GENOLIS_13
1002
{
1000
ENT
1005
476
1005
475
1005
474
1005
473
1002
}
1001
GENIUS_GENOBJ-N-CRS_13
1002
{
1000
OWNER
1000
GEN
1002
}
  0
ENDBLK
  5
4C4
330
46D
100
AcDbEntity
  8
0
100
AcDbBlockEnd
  0
BLOCK
  5
B35
330
B2B
100
AcDbEntity
  8
0
100
AcDbBlockBegin
  2
*D6
 70
     1
 10
0.0
 20
0.0
 30
0.0
  3
*D6
  1

  0
LINE
  5
BB0
330
B2B
100
AcDbEntity
  8
AM_5
100
AcDbLine
 10
1637.255953561567
 20
1232.604164465721
 30
0.0
 11
1952.741290423959
 21
1232.604164465721
 31
0.0
  0
LINE
  5
BB1
330
B2B
100
AcDbEntity
  8
AM_5
100
AcDbLine
 10
1903.829817197931
 20
1453.604164465724
 30
0.0
 11
1952.741290423959
 21
1453.604164465724
 31
0.0
  0
LINE
  5
BB2
330
B2B
100
AcDbEntity
  8
AM_5
100
AcDbLine
 10
1942.741290423959
 20
1245.104164465721
 30
0.0
 11
1942.741290423959
 21
1441.104164465724
 31
0.0
  0
SOLID
  5
BB3
330
B2B
100
AcDbEntity
  8
AM_5
100
AcDbTrace
 10
1940.657957090626
 20
1245.104164465721
 30
0.0
 11
1944.824623757293
 21
1245.104164465721
 31
0.0
 12
1942.741290423959
 22
1232.604164465721
 32
0.0
 13
1942.741290423959
 23
1232.604164465721
 33
0.0
  0
SOLID
  5
BB4
330
B2B
100
AcDbEntity
  8
AM_5
100
AcDbTrace
 10
1940.657957090626
 20
1441.104164465724
 30
0.0
 11
1944.824623757293
 21
1441.104164465724
 31
0.0
 12
1942.741290423959
 22
1453.604164465724
 32
0.0
 13
1942.741290423959
 23
1453.604164465724
 33
0.0
  0
MTEXT
  5
BB5
330
B2B
100
AcDbEntity
  8
AM_5
 62
     2
100
AcDbMText
 10
1926.489567983014
 20
1343.421166113973
 30
0.0
 40
17.5
 41
0.0
 71
     5
 72
     1
  1
221{}{\H0.71x;\C3;%%p5}
 11
0.0000000000000001
 21
1.0
 31
0.0
 73
     1
 44
1.0
  0
POINT
  5
BB6
330
B2B
100
AcDbEntity
  8
Defpoints
 62
     0
100
AcDbPoint
 10
1637.255953561567
 20
1232.604164465721
 30
0.0
  0
POINT
  5
BB7
330
B2B
100
AcDbEntity
  8
Defpoints
 62
     0
100
AcDbPoint
 10
1903.829817197931
 20
1453.604164465724
 30
0.0
  0
POINT
  5
BB8
330
B2B
100
AcDbEntity
  8
Defpoints
 62
     0
100
AcDbPoint
 10
1942.741290423959
 20
1453.604164465724
 30
0.0
  0
ENDBLK
  5
B36
330
B2B
100
AcDbEntity
  8
0
100
AcDbBlockEnd
  0
BLOCK
  5
B41
330
B37
100
AcDbEntity
  8
0
100
AcDbBlockBegin
  2
*D7
 70
     1
 10
0.0
 20
0.0
 30
0.0
  3
*D7
  1

  0
LINE
  5
BB9
330
B37
100
AcDbEntity
  8
AM_5
100
AcDbLine
 10
1516.605543943065
 20
1857.360209656941
 30
0.0
 11
1405.539070574063
 21
1857.360209656941
 31
0.0
  0
LINE
  5
BBA
330
B37
100
AcDbEntity
  8
AM_5
100
AcDbLine
 10
1626.329817197931
 20
1943.910043206512
 30
0.0
 11
1405.539070574063
 21
1943.910043206513
 31
0.0
  0
LINE
  5
BBB
330
B37
100
AcDbEntity
  8
AM_5
100
AcDbLine
 10
1415.539070574063
 20
1869.860209656941
 30
0.0
 11
1415.539070574063
 21
1931.410043206513
 31
0.0
  0
SOLID
  5
BBC
330
B37
100
AcDbEntity
  8
AM_5
100
AcDbTrace
 10
1413.455737240729
 20
1869.860209656941
 30
0.0
 11
1417.622403907396
 21
1869.860209656941
 31
0.0
 12
1415.539070574063
 22
1857.360209656941
 32
0.0
 13
1415.539070574063
 23
1857.360209656941
 33
0.0
  0
SOLID
  5
BBD
330
B37
100
AcDbEntity
  8
AM_5
100
AcDbTrace
 10
1413.455737240729
 20
1931.410043206513
 30
0.0
 11
1417.622403907396
 21
1931.410043206513
 31
0.0
 12
1415.539070574063
 22
1943.910043206513
 32
0.0
 13
1415.539070574063
 23
1943.910043206513
 33
0.0
  0
MTEXT
  5
BBE
330
B37
100
AcDbEntity
  8
AM_5
 62
     2
100
AcDbMText
 10
1399.289070574063
 20
1900.635126431727
 30
0.0
 40
17.5
 41
0.0
 71
     5
 72
     1
  1
87{}{\H0.71x;\C3;%%p2}
 11
0.0000000000000001
 21
1.0
 31
0.0
 73
     1
 44
1.0
  0
POINT
  5
BBF
330
B37
100
AcDbEntity
  8
Defpoints
 62
     0
100
AcDbPoint
 10
1516.605543943065
 20
1857.360209656941
 30
0.0
  0
POINT
  5
BC0
330
B37
100
AcDbEntity
  8
Defpoints
 62
     0
100
AcDbPoint
 10
1626.329817197931
 20
1943.910043206512
 30
0.0
  0
POINT
  5
BC1
330
B37
100
AcDbEntity
  8
Defpoints
 62
     0
100
AcDbPoint
 10
1415.539070574063
 20
1943.910043206513
 30
0.0
  0
ENDBLK
  5
B42
330
B37
100
AcDbEntity
  8
0
100
AcDbBlockEnd
  0
BLOCK
  5
B4D
330
B43
100
AcDbEntity
  8
0
100
AcDbBlockBegin
  2
*D8
 70
     1
 10
0.0
 20
0.0
 30
0.0
  3
*D8
  1

  0
LINE
  5
BC2
330
B43
100
AcDbEntity
  8
AM_5
100
AcDbLine
 10
1626.329817197931
 20
1253.604164465724
 30
0.0
 11
1544.802917907657
 21
1253.604164465724
 31
0.0
  0
LINE
  5
BC3
330
B43
100
AcDbEntity
  8
AM_5
100
AcDbLine
 10
1626.329817198099
 20
1340.153998015295
 30
0.0
 11
1544.802917907657
 21
1340.153998015295
 31
0.0
  0
LINE
  5
BC4
330
B43
100
AcDbEntity
  8
AM_5
100
AcDbLine
 10
1554.802917907657
 20
1266.104164465724
 30
0.0
 11
1554.802917907657
 21
1327.653998015295
 31
0.0
  0
SOLID
  5
BC5
330
B43
100
AcDbEntity
  8
AM_5
100
AcDbTrace
 10
1552.719584574323
 20
1266.104164465724
 30
0.0
 11
1556.88625124099
 21
1266.104164465724
 31
0.0
 12
1554.802917907657
 22
1253.604164465724
 32
0.0
 13
1554.802917907657
 23
1253.604164465724
 33
0.0
  0
SOLID
  5
BC6
330
B43
100
AcDbEntity
  8
AM_5
100
AcDbTrace
 10
1552.719584574323
 20
1327.653998015295
 30
0.0
 11
1556.88625124099
 21
1327.653998015295
 31
0.0
 12
1554.802917907657
 22
1340.153998015295
 32
0.0
 13
1554.802917907657
 23
1340.153998015295
 33
0.0
  0
MTEXT
  5
BC7
330
B43
100
AcDbEntity
  8
AM_5
 62
     2
100
AcDbMText
 10
1538.552917907656
 20
1303.255238215992
 30
0.0
 40
17.5
 41
0.0
 71
     5
 72
     1
  1
87{}{\H0.71x;\C3;%%p2}
 11
0.0000000000000001
 21
1.0
 31
0.0
 73
     1
 44
1.0
  0
POINT
  5
BC8
330
B43
100
AcDbEntity
  8
Defpoints
 62
     0
100
AcDbPoint
 10
1626.329817197931
 20
1253.604164465724
 30
0.0
  0
POINT
  5
BC9
330
B43
100
AcDbEntity
  8
Defpoints
 62
     0
100
AcDbPoint
 10
1626.329817198099
 20
1340.153998015295
 30
0.0
  0
POINT
  5
BCA
330
B43
100
AcDbEntity
  8
Defpoints
 62
     0
100
AcDbPoint
 10
1554.802917907657
 20
1340.153998015295
 30
0.0
  0
ENDBLK
  5
B4E
330
B43
100
AcDbEntity
  8
0
100
AcDbBlockEnd
  0
BLOCK
  5
B59
330
B4F
100
AcDbEntity
  8
0
100
AcDbBlockBegin
  2
*D9
 70
     1
 10
0.0
 20
0.0
 30
0.0
  3
*D9
  1

  0
LINE
  5
BCB
330
B4F
100
AcDbEntity
  8
AM_5
100
AcDbLine
 10
1449.329817197928
 20
1864.064242987602
 30
0.0
 11
1231.204597238861
 21
1864.064242987602
 31
0.0
  0
LINE
  5
BCC
330
B4F
100
AcDbEntity
  8
AM_5
100
AcDbLine
 10
1449.329817198099
 20
1333.449964684634
 30
0.0
 11
1231.20459723886
 21
1333.449964684634
 31
0.0
  0
LINE
  5
BCD
330
B4F
100
AcDbEntity
  8
AM_5
100
AcDbLine
 10
1241.204597238861
 20
1851.564242987602
 30
0.0
 11
1241.204597238861
 21
1345.949964684634
 31
0.0
  0
SOLID
  5
BCE
330
B4F
100
AcDbEntity
  8
AM_5
100
AcDbTrace
 10
1239.121263905528
 20
1851.564242987602
 30
0.0
 11
1243.287930572194
 21
1851.564242987602
 31
0.0
 12
1241.204597238861
 22
1864.064242987602
 32
0.0
 13
1241.204597238861
 23
1864.064242987602
 33
0.0
  0
SOLID
  5
BCF
330
B4F
100
AcDbEntity
  8
AM_5
100
AcDbTrace
 10
1239.121263905527
 20
1345.949964684634
 30
0.0
 11
1243.287930572194
 21
1345.949964684634
 31
0.0
 12
1241.204597238861
 22
1333.449964684634
 32
0.0
 13
1241.204597238861
 23
1333.449964684634
 33
0.0
  0
MTEXT
  5
BD0
330
B4F
100
AcDbEntity
  8
AM_5
 62
     2
100
AcDbMText
 10
1224.95459723886
 20
1536.257103836122
 30
0.0
 40
17.5
 41
0.0
 71
     5
 72
     1
  1
531
 11
0.0000000000000001
 21
1.0
 31
0.0
 73
     1
 44
1.0
  0
POINT
  5
BD1
330
B4F
100
AcDbEntity
  8
Defpoints
 62
     0
100
AcDbPoint
 10
1449.329817197928
 20
1864.064242987602
 30
0.0
  0
POINT
  5
BD2
330
B4F
100
AcDbEntity
  8
Defpoints
 62
     0
100
AcDbPoint
 10
1449.329817198099
 20
1333.449964684634
 30
0.0
  0
POINT
  5
BD3
330
B4F
100
AcDbEntity
  8
Defpoints
 62
     0
100
AcDbPoint
 10
1241.204597238861
 20
1333.449964684634
 30
0.0
  0
ENDBLK
  5
B5A
330
B4F
100
AcDbEntity
  8
0
100
AcDbBlockEnd
  0
BLOCK
  5
B65
330
B5B
100
AcDbEntity
  8
0
100
AcDbBlockBegin
  2
*D10
 70
     1
 10
0.0
 20
0.0
 30
0.0
  3
*D10
  1

  0
LINE
  5
12D4
330
B5B
100
AcDbEntity
  8
AM_5
100
AcDbLine
 10
1030.816604995231
 20
1178.703999934787
 30
0.0
 11
1030.816604995231
 21
1236.903999934852
 31
0.0
  0
LINE
  5
12D5
330
B5B
100
AcDbEntity
  8
AM_5
100
AcDbLine
 10
1384.816604995064
 20
1178.703999934849
 30
0.0
 11
1384.816604995064
 21
1236.903999934852
 31
0.0
  0
LINE
  5
12D6
330
B5B
100
AcDbEntity
  8
AM_5
100
AcDbLine
 10
1043.316604995231
 20
1226.903999934852
 30
0.0
 11
1372.316604995064
 21
1226.903999934852
 31
0.0
  0
SOLID
  5
12D7
330
B5B
100
AcDbEntity
  8
AM_5
100
AcDbTrace
 10
1043.316604995231
 20
1228.987333268185
 30
0.0
 11
1043.316604995231
 21
1224.820666601519
 31
0.0
 12
1030.816604995231
 22
1226.903999934852
 32
0.0
 13
1030.816604995231
 23
1226.903999934852
 33
0.0
  0
SOLID
  5
12D8
330
B5B
100
AcDbEntity
  8
AM_5
100
AcDbTrace
 10
1372.316604995064
 20
1228.987333268185
 30
0.0
 11
1372.316604995064
 21
1224.820666601519
 31
0.0
 12
1384.816604995064
 22
1226.903999934852
 32
0.0
 13
1384.816604995064
 23
1226.903999934852
 33
0.0
  0
MTEXT
  5
12D9
330
B5B
100
AcDbEntity
  8
AM_5
 62
     2
100
AcDbMText
 10
1258.363248725301
 20
1244.028999934852
 30
0.0
 40
17.5
 41
0.0
 71
     5
 72
     1
  1
(%%c354)
 73
     1
 44
1.0
  0
POINT
  5
12DA
330
B5B
100
AcDbEntity
  8
Defpoints
 62
     0
100
AcDbPoint
 10
1030.816604995231
 20
1178.703999934787
 30
0.0
  0
POINT
  5
12DB
330
B5B
100
AcDbEntity
  8
Defpoints
 62
     0
100
AcDbPoint
 10
1384.816604995064
 20
1178.703999934849
 30
0.0
  0
POINT
  5
12DC
330
B5B
100
AcDbEntity
  8
Defpoints
 62
     0
100
AcDbPoint
 10
1384.816604995064
 20
1226.903999934852
 30
0.0
  0
ENDBLK
  5
B66
330
B5B
100
AcDbEntity
  8
0
100
AcDbBlockEnd
  0
BLOCK
  5
B71
330
B67
100
AcDbEntity
  8
0
100
AcDbBlockBegin
  2
*D11
 70
     1
 10
0.0
 20
0.0
 30
0.0
  3
*D11
  1

  0
LINE
  5
1131
330
B67
100
AcDbEntity
  8
AM_5
100
AcDbLine
 10
1217.89931076573
 20
873.5539999348517
 30
0.0
 11
1547.852817705706
 21
873.5539999348517
 31
0.0
  0
LINE
  5
1132
330
B67
100
AcDbEntity
  8
AM_5
100
AcDbLine
 10
1207.816604995071
 20
1605.859878675635
 30
0.0
 11
1547.852817705706
 21
1605.859878675634
 31
0.0
  0
LINE
  5
1133
330
B67
100
AcDbEntity
  8
AM_5
100
AcDbLine
 10
1537.852817705706
 20
886.0539999348517
 30
0.0
 11
1537.852817705706
 21
1593.359878675634
 31
0.0
  0
SOLID
  5
1134
330
B67
100
AcDbEntity
  8
AM_5
100
AcDbTrace
 10
1535.769484372373
 20
886.0539999348517
 30
0.0
 11
1539.936151039039
 21
886.0539999348517
 31
0.0
 12
1537.852817705706
 22
873.5539999348517
 32
0.0
 13
1537.852817705706
 23
873.5539999348517
 33
0.0
  0
SOLID
  5
1135
330
B67
100
AcDbEntity
  8
AM_5
100
AcDbTrace
 10
1535.769484372373
 20
1593.359878675635
 30
0.0
 11
1539.936151039039
 21
1593.359878675634
 31
0.0
 12
1537.852817705706
 22
1605.859878675634
 32
0.0
 13
1537.852817705706
 23
1605.859878675634
 33
0.0
  0
MTEXT
  5
1136
330
B67
100
AcDbEntity
  8
AM_5
 62
     2
100
AcDbMText
 10
1521.601095264761
 20
1184.390867292079
 30
0.0
 40
17.5
 41
0.0
 71
     5
 72
     1
  1
732{}{\H0.71x;\C3;%%p5}
 11
0.0000000000000001
 21
1.0
 31
0.0
 73
     1
 44
1.0
  0
POINT
  5
1137
330
B67
100
AcDbEntity
  8
Defpoints
 62
     0
100
AcDbPoint
 10
1217.89931076573
 20
873.5539999348517
 30
0.0
  0
POINT
  5
1138
330
B67
100
AcDbEntity
  8
Defpoints
 62
     0
100
AcDbPoint
 10
1207.816604995071
 20
1605.859878675635
 30
0.0
  0
POINT
  5
1139
330
B67
100
AcDbEntity
  8
Defpoints
 62
     0
100
AcDbPoint
 10
1537.852817705706
 20
1605.859878675634
 30
0.0
  0
ENDBLK
  5
B72
330
B67
100
AcDbEntity
  8
0
100
AcDbBlockEnd
  0
BLOCK
  5
B7E
330
B73
100
AcDbEntity
  8
0
100
AcDbBlockBegin
  2
*D12
 70
     1
 10
0.0
 20
0.0
 30
0.0
  3
*D12
  1

  0
LINE
  5
1271
330
B73
100
AcDbEntity
  8
AM_5
100
AcDbLine
 10
945.3166049950675
 20
1010.403999934852
 30
0.0
 11
889.1584085032839
 21
1010.403999934852
 31
0.0
  0
LINE
  5
1272
330
B73
100
AcDbEntity
  8
AM_5
100
AcDbLine
 10
945.3166049950675
 20
1178.703999934852
 30
0.0
 11
889.1584085032839
 21
1178.703999934852
 31
0.0
  0
LINE
  5
1273
330
B73
100
AcDbEntity
  8
AM_5
100
AcDbLine
 10
899.1584085032839
 20
1022.903999934852
 30
0.0
 11
899.1584085032839
 21
1166.203999934853
 31
0.0
  0
SOLID
  5
1274
330
B73
100
AcDbEntity
  8
AM_5
100
AcDbTrace
 10
897.0750751699505
 20
1022.903999934852
 30
0.0
 11
901.2417418366171
 21
1022.903999934852
 31
0.0
 12
899.1584085032839
 22
1010.403999934852
 32
0.0
 13
899.1584085032839
 23
1010.403999934852
 33
0.0
  0
SOLID
  5
1275
330
B73
100
AcDbEntity
  8
AM_5
100
AcDbTrace
 10
897.0750751699505
 20
1166.203999934853
 30
0.0
 11
901.2417418366171
 21
1166.203999934853
 31
0.0
 12
899.1584085032839
 22
1178.703999934852
 32
0.0
 13
899.1584085032839
 23
1178.703999934852
 33
0.0
  0
MTEXT
  5
1276
330
B73
100
AcDbEntity
  8
AM_5
 62
     2
100
AcDbMText
 10
882.0334085032838
 20
1108.858006195966
 30
0.0
 40
17.5
 41
0.0
 71
     5
 72
     1
  1
(%%c168.3)
 11
0.0000000000000001
 21
1.0
 31
0.0
 73
     1
 44
1.0
  0
POINT
  5
1277
330
B73
100
AcDbEntity
  8
Defpoints
 62
     0
100
AcDbPoint
 10
945.3166049950675
 20
1010.403999934852
 30
0.0
  0
POINT
  5
1278
330
B73
100
AcDbEntity
  8
Defpoints
 62
     0
100
AcDbPoint
 10
945.3166049950675
 20
1178.703999934852
 30
0.0
  0
POINT
  5
1279
330
B73
100
AcDbEntity
  8
Defpoints
 62
     0
100
AcDbPoint
 10
899.1584085032839
 20
1178.703999934852
 30
0.0
  0
ENDBLK
  5
B7F
330
B73
100
AcDbEntity
  8
0
100
AcDbBlockEnd
  0
BLOCK
  5
B8A
330
B80
100
AcDbEntity
  8
0
100
AcDbBlockBegin
  2
*D13
 70
     1
 10
0.0
 20
0.0
 30
0.0
  3
*D13
  1

  0
LINE
  5
1283
330
B80
100
AcDbEntity
  8
AM_5
100
AcDbLine
 10
945.3166049952352
 20
1010.403999934849
 30
0.0
 11
945.3166049952352
 21
794.0656987712399
 31
0.0
  0
LINE
  5
1284
330
B80
100
AcDbEntity
  8
AM_5
100
AcDbLine
 10
1470.316604995235
 20
1010.403999934849
 30
0.0
 11
1470.316604995235
 21
794.0656987712399
 31
0.0
  0
LINE
  5
1285
330
B80
100
AcDbEntity
  8
AM_5
100
AcDbLine
 10
957.8166049952352
 20
804.0656987712399
 30
0.0
 11
1457.816604995235
 21
804.0656987712399
 31
0.0
  0
SOLID
  5
1286
330
B80
100
AcDbEntity
  8
AM_5
100
AcDbTrace
 10
957.8166049952352
 20
806.1490321045733
 30
0.0
 11
957.8166049952352
 21
801.9823654379065
 31
0.0
 12
945.3166049952352
 22
804.0656987712399
 32
0.0
 13
945.3166049952352
 23
804.0656987712399
 33
0.0
  0
SOLID
  5
1287
330
B80
100
AcDbEntity
  8
AM_5
100
AcDbTrace
 10
1457.816604995235
 20
806.1490321045733
 30
0.0
 11
1457.816604995235
 21
801.9823654379065
 31
0.0
 12
1470.316604995235
 22
804.0656987712399
 32
0.0
 13
1470.316604995235
 23
804.0656987712399
 33
0.0
  0
MTEXT
  5
1288
330
B80
100
AcDbEntity
  8
AM_5
 62
     2
100
AcDbMText
 10
1218.51112607073
 20
821.1906987712399
 30
0.0
 40
17.5
 41
0.0
 71
     5
 72
     1
  1
(525)
 73
     1
 44
1.0
  0
POINT
  5
1289
330
B80
100
AcDbEntity
  8
Defpoints
 62
     0
100
AcDbPoint
 10
945.3166049952352
 20
1010.403999934849
 30
0.0
  0
POINT
  5
128A
330
B80
100
AcDbEntity
  8
Defpoints
 62
     0
100
AcDbPoint
 10
1470.316604995235
 20
1010.403999934849
 30
0.0
  0
POINT
  5
128B
330
B80
100
AcDbEntity
  8
Defpoints
 62
     0
100
AcDbPoint
 10
1470.316604995235
 20
804.0656987712399
 30
0.0
  0
ENDBLK
  5
B8B
330
B80
100
AcDbEntity
  8
0
100
AcDbBlockEnd
  0
BLOCK
  5
B96
330
B8C
100
AcDbEntity
  8
0
100
AcDbBlockBegin
  2
*D14
 70
     1
 10
0.0
 20
0.0
 30
0.0
  3
*D14
  1

  0
LINE
  5
BF9
330
B8C
100
AcDbEntity
  8
AM_5
100
AcDbLine
 10
1626.329817197607
 20
1983.910043206512
 30
0.0
 11
1626.329817197607
 21
2053.910043206513
 31
0.0
  0
LINE
  5
BFA
330
B8C
100
AcDbEntity
  8
AM_5
100
AcDbLine
 10
1511.329817197607
 20
1983.910043206512
 30
0.0
 11
1511.329817197607
 21
2053.910043206513
 31
0.0
  0
LINE
  5
BFB
330
B8C
100
AcDbEntity
  8
AM_5
100
AcDbLine
 10
1613.829817197607
 20
2043.910043206512
 30
0.0
 11
1523.829817197607
 21
2043.910043206512
 31
0.0
  0
SOLID
  5
BFC
330
B8C
100
AcDbEntity
  8
AM_5
100
AcDbTrace
 10
1613.829817197607
 20
2045.993376539846
 30
0.0
 11
1613.829817197607
 21
2041.826709873179
 31
0.0
 12
1626.329817197607
 22
2043.910043206512
 32
0.0
 13
1626.329817197607
 23
2043.910043206512
 33
0.0
  0
SOLID
  5
BFD
330
B8C
100
AcDbEntity
  8
AM_5
100
AcDbTrace
 10
1523.829817197607
 20
2045.993376539846
 30
0.0
 11
1523.829817197607
 21
2041.826709873179
 31
0.0
 12
1511.329817197607
 22
2043.910043206512
 32
0.0
 13
1511.329817197607
 23
2043.910043206512
 33
0.0
  0
MTEXT
  5
BFE
330
B8C
100
AcDbEntity
  8
AM_5
 62
     2
100
AcDbMText
 10
1568.829817197607
 20
2060.160043206513
 30
0.0
 40
17.5
 41
0.0
 71
     5
 72
     1
  1
115{}{\H0.71x;\C3;%%p2}
 73
     1
 44
1.0
  0
POINT
  5
BFF
330
B8C
100
AcDbEntity
  8
Defpoints
 62
     0
100
AcDbPoint
 10
1626.329817197607
 20
1983.910043206512
 30
0.0
  0
POINT
  5
C00
330
B8C
100
AcDbEntity
  8
Defpoints
 62
     0
100
AcDbPoint
 10
1511.329817197607
 20
1983.910043206512
 30
0.0
  0
POINT
  5
C01
330
B8C
100
AcDbEntity
  8
Defpoints
 62
     0
100
AcDbPoint
 10
1511.329817197607
 20
2043.910043206512
 30
0.0
  0
ENDBLK
  5
B97
330
B8C
100
AcDbEntity
  8
0
100
AcDbBlockEnd
  0
BLOCK
  5
BA2
330
B98
100
AcDbEntity
  8
0
100
AcDbBlockBegin
  2
*D15
 70
     1
 10
0.0
 20
0.0
 30
0.0
  3
*D15
  1

  0
LINE
  5
C02
330
B98
100
AcDbEntity
  8
AM_5
100
AcDbLine
 10
1626.329817197764
 20
1968.910043206512
 30
0.0
 11
1626.329817197764
 21
2053.910043206513
 31
0.0
  0
LINE
  5
C03
330
B98
100
AcDbEntity
  8
AM_5
100
AcDbLine
 10
1741.329817197604
 20
1964.432897411549
 30
0.0
 11
1741.329817197604
 21
2053.910043206513
 31
0.0
  0
LINE
  5
C04
330
B98
100
AcDbEntity
  8
AM_5
100
AcDbLine
 10
1638.829817197764
 20
2043.910043206512
 30
0.0
 11
1728.829817197604
 21
2043.910043206512
 31
0.0
  0
SOLID
  5
C05
330
B98
100
AcDbEntity
  8
AM_5
100
AcDbTrace
 10
1638.829817197764
 20
2045.993376539846
 30
0.0
 11
1638.829817197764
 21
2041.826709873179
 31
0.0
 12
1626.329817197764
 22
2043.910043206512
 32
0.0
 13
1626.329817197764
 23
2043.910043206512
 33
0.0
  0
SOLID
  5
C06
330
B98
100
AcDbEntity
  8
AM_5
100
AcDbTrace
 10
1728.829817197604
 20
2045.993376539846
 30
0.0
 11
1728.829817197604
 21
2041.826709873179
 31
0.0
 12
1741.329817197604
 22
2043.910043206512
 32
0.0
 13
1741.329817197604
 23
2043.910043206512
 33
0.0
  0
MTEXT
  5
C07
330
B98
100
AcDbEntity
  8
AM_5
 62
     2
100
AcDbMText
 10
1683.829817197684
 20
2060.160043206513
 30
0.0
 40
17.5
 41
0.0
 71
     5
 72
     1
  1
115{}{\H0.71x;\C3;%%p2}
 73
     1
 44
1.0
  0
POINT
  5
C08
330
B98
100
AcDbEntity
  8
Defpoints
 62
     0
100
AcDbPoint
 10
1626.329817197764
 20
1968.910043206512
 30
0.0
  0
POINT
  5
C09
330
B98
100
AcDbEntity
  8
Defpoints
 62
     0
100
AcDbPoint
 10
1741.329817197604
 20
1964.432897411549
 30
0.0
  0
POINT
  5
C0A
330
B98
100
AcDbEntity
  8
Defpoints
 62
     0
100
AcDbPoint
 10
1741.329817197604
 20
2043.910043206512
 30
0.0
  0
ENDBLK
  5
BA3
330
B98
100
AcDbEntity
  8
0
100
AcDbBlockEnd
  0
BLOCK
  5
BAE
330
BA4
100
AcDbEntity
  8
0
100
AcDbBlockBegin
  2
*D16
 70
     1
 10
0.0
 20
0.0
 30
0.0
  3
*D16
  1

  0
LINE
  5
C0B
330
BA4
100
AcDbEntity
  8
AM_5
100
AcDbLine
 10
1626.329817197949
 20
1943.910043206516
 30
0.0
 11
1181.20459723886
 21
1943.910043206516
 31
0.0
  0
LINE
  5
C0C
330
BA4
100
AcDbEntity
  8
AM_5
100
AcDbLine
 10
1626.329817197953
 20
1253.60416446572
 30
0.0
 11
1181.20459723886
 21
1253.604164465721
 31
0.0
  0
LINE
  5
C0D
330
BA4
100
AcDbEntity
  8
AM_5
100
AcDbLine
 10
1191.20459723886
 20
1931.410043206516
 30
0.0
 11
1191.20459723886
 21
1266.104164465721
 31
0.0
  0
SOLID
  5
C0E
330
BA4
100
AcDbEntity
  8
AM_5
100
AcDbTrace
 10
1189.121263905527
 20
1931.410043206516
 30
0.0
 11
1193.287930572194
 21
1931.410043206516
 31
0.0
 12
1191.20459723886
 22
1943.910043206516
 32
0.0
 13
1191.20459723886
 23
1943.910043206516
 33
0.0
  0
SOLID
  5
C0F
330
BA4
100
AcDbEntity
  8
AM_5
100
AcDbTrace
 10
1189.121263905527
 20
1266.104164465721
 30
0.0
 11
1193.287930572194
 21
1266.104164465721
 31
0.0
 12
1191.20459723886
 22
1253.604164465721
 32
0.0
 13
1191.20459723886
 23
1253.604164465721
 33
0.0
  0
MTEXT
  5
C10
330
BA4
100
AcDbEntity
  8
AM_5
 62
     2
100
AcDbMText
 10
1174.95459723886
 20
1598.757103836119
 30
0.0
 40
17.5
 41
0.0
 71
     5
 72
     1
  1
690{}{\H0.71x;\C3;%%p5}
 11
0.0000000000000001
 21
1.0
 31
0.0
 73
     1
 44
1.0
  0
POINT
  5
C11
330
BA4
100
AcDbEntity
  8
Defpoints
 62
     0
100
AcDbPoint
 10
1626.329817197949
 20
1943.910043206516
 30
0.0
  0
POINT
  5
C12
330
BA4
100
AcDbEntity
  8
Defpoints
 62
     0
100
AcDbPoint
 10
1626.329817197953
 20
1253.60416446572
 30
0.0
  0
POINT
  5
C13
330
BA4
100
AcDbEntity
  8
Defpoints
 62
     0
100
AcDbPoint
 10
1191.20459723886
 20
1253.604164465721
 30
0.0
  0
ENDBLK
  5
BAF
330
BA4
100
AcDbEntity
  8
0
100
AcDbBlockEnd
  0
BLOCK
  5
CAA
330
CA9
100
AcDbEntity
  8
0
100
AcDbBlockBegin
  2
1
 70
     0
 10
0.0
 20
0.0
 30
0.0
  3
1
  1

  0
CIRCLE
  5
CAB
330
CA9
100
AcDbEntity
  8
AM_3
100
AcDbCircle
 10
5966.616540217394
 20
1833.541439503514
 30
0.0
 40
24.0
  0
CIRCLE
  5
CAC
330
CA9
100
AcDbEntity
  8
AM_3
100
AcDbCircle
 10
5966.616540217394
 20
1833.541439503514
 30
0.0
 40
23.5
  0
CIRCLE
  5
CAD
330
CA9
100
AcDbEntity
  8
AM_3
100
AcDbCircle
 10
5966.616540217394
 20
1833.541439503514
 30
0.0
 40
8.0
  0
CIRCLE
  5
CAE
330
CA9
100
AcDbEntity
  8
AM_3
100
AcDbCircle
 10
5966.616540217394
 20
1833.541439503514
 30
0.0
 40
7.0
  0
LINE
  5
CAF
330
CA9
100
AcDbEntity
  8
AM_3
100
AcDbLine
 10
5966.616540217394
 20
1833.541439503514
 30
0.0
 11
5993.616540217394
 21
1833.541439503514
 31
0.0
1001
GENIUS_GENOREF_13
1005
CFF
  0
LINE
  5
CB0
330
CA9
100
AcDbEntity
  8
AM_3
100
AcDbLine
 10
5966.616540217394
 20
1833.541439503514
 30
0.0
 11
5966.616540217394
 21
1860.541439503514
 31
0.0
1001
GENIUS_GENOREF_13
1005
CFF
  0
LINE
  5
CB1
330
CA9
100
AcDbEntity
  8
AM_3
100
AcDbLine
 10
5966.616540217394
 20
1833.541439503514
 30
0.0
 11
5939.616540217394
 21
1833.541439503514
 31
0.0
1001
GENIUS_GENOREF_13
1005
CFF
  0
LINE
  5
CB2
330
CA9
100
AcDbEntity
  8
AM_3
100
AcDbLine
 10
5966.616540217394
 20
1833.541439503514
 30
0.0
 11
5966.616540217394
 21
1806.541439503514
 31
0.0
1001
GENIUS_GENOREF_13
1005
CFF
  0
LINE
  5
CB3
330
CA9
100
AcDbEntity
  8
AM_3
100
AcDbLine
 10
5966.616540217394
 20
1854.067361134196
 30
0.0
 11
5965.553895597496
 21
1841.470549567815
 31
0.0
  0
LINE
  5
CB4
330
CA9
100
AcDbEntity
  8
AM_3
100
AcDbLine
 10
5966.36553917378
 20
1857.040099007326
 30
0.0
 11
5965.133139338328
 21
1842.430973613039
 31
0.0
  0
LINE
  5
CB5
330
CA9
100
AcDbEntity
  8
AM_3
100
AcDbLine
 10
5966.616540217394
 20
1854.067361134209
 30
0.0
 11
5967.679184837291
 21
1841.470549567815
 31
0.0
  0
LINE
  5
CB6
330
CA9
100
AcDbEntity
  8
AM_3
100
AcDbLine
 10
5966.867541261009
 20
1857.040099007326
 30
0.0
 11
5968.099941096459
 21
1842.430973613041
 31
0.0
  0
LINE
  5
CB7
330
CA9
100
AcDbEntity
  8
AM_3
100
AcDbLine
 10
5959.951784358974
 20
1852.955210083609
 30
0.0
 11
5963.036894784949
 21
1840.695888369638
 31
0.0
  0
LINE
  5
CB8
330
CA9
100
AcDbEntity
  8
AM_3
100
AcDbLine
 10
5958.74913683475
 20
1855.685376913441
 30
0.0
 11
5962.327087082776
 21
1841.467654656944
 31
0.0
  0
LINE
  5
CB9
330
CA9
100
AcDbEntity
  8
AM_3
100
AcDbLine
 10
5959.95178435897
 20
1852.955210083621
 30
0.0
 11
5965.047029991549
 21
1841.385968657706
 31
0.0
  0
LINE
  5
CBA
330
CA9
100
AcDbEntity
  8
AM_3
100
AcDbLine
 10
5959.223939064218
 20
1855.848376724703
 30
0.0
 11
5965.133139338328
 21
1842.430973613039
 31
0.0
  0
LINE
  5
CBB
330
CA9
100
AcDbEntity
  8
AM_3
100
AcDbLine
 10
5954.009258212157
 20
1849.73927575498
 30
0.0
 11
5960.907804098931
 21
1839.145931624104
 31
0.0
  0
LINE
  5
CBC
330
CA9
100
AcDbEntity
  8
AM_3
100
AcDbLine
 10
5951.98528972757
 20
1851.931015602599
 30
0.0
 11
5959.985863632085
 21
1839.645407301067
 31
0.0
  0
LINE
  5
CBD
330
CA9
100
AcDbEntity
  8
AM_3
100
AcDbLine
 10
5954.009258212149
 20
1849.73927575499
 30
0.0
 11
5962.584955932237
 21
1840.451311293329
 31
0.0
  0
LINE
  5
CBE
330
CA9
100
AcDbEntity
  8
AM_3
100
AcDbLine
 10
5952.381439910402
 20
1852.23935166637
 30
0.0
 11
5962.327087082776
 21
1841.467654656944
 31
0.0
  0
LINE
  5
CBF
330
CA9
100
AcDbEntity
  8
AM_3
100
AcDbLine
 10
5949.432926692743
 20
1844.76805453318
 30
0.0
 11
5959.397343551517
 21
1836.98864119465
 31
0.0
  0
LINE
  5
CC0
330
CA9
100
AcDbEntity
  8
AM_3
100
AcDbLine
 10
5946.806965638207
 20
1846.183858377749
 30
0.0
 11
5958.363176874962
 21
1837.161700321508
 31
0.0
  0
LINE
  5
CC1
330
CA9
100
AcDbEntity
  8
AM_3
100
AcDbLine
 10
5949.432926692733
 20
1844.768054533188
 30
0.0
 11
5960.559766586699
 21
1838.767862102818
 31
0.0
  0
LINE
  5
CC2
330
CA9
100
AcDbEntity
  8
AM_3
100
AcDbLine
 10
5947.081534755188
 20
1846.604117697192
 30
0.0
 11
5959.985863632085
 21
1839.645407301067
 31
0.0
  0
LINE
  5
CC3
330
CA9
100
AcDbEntity
  8
AM_3
100
AcDbLine
 10
5946.718706329961
 20
1838.580255374036
 30
0.0
 11
5958.669194980224
 21
1834.457792973115
 31
0.0
  0
LINE
  5
CC4
330
CA9
100
AcDbEntity
  8
AM_3
100
AcDbLine
 10
5943.775316331715
 20
1839.066698900534
 30
0.0
 11
5957.63487010012
 21
1834.285681908185
 31
0.0
  0
LINE
  5
CC5
330
CA9
100
AcDbEntity
  8
AM_3
100
AcDbLine
 10
5946.718706329948
 20
1838.58025537404
 30
0.0
 11
5959.190922644571
 21
1836.518048927371
 31
0.0
  0
LINE
  5
CC6
330
CA9
100
AcDbEntity
  8
AM_3
100
AcDbLine
 10
5943.898550558645
 20
1839.553339857393
 30
0.0
 11
5958.363176874962
 21
1837.161700321508
 31
0.0
  0
LINE
  5
CC7
330
CA9
100
AcDbEntity
  8
AM_3
100
AcDbLine
 10
5946.160725015587
 20
1831.846422330036
 30
0.0
 11
5958.802264581149
 21
1831.827643634458
 31
0.0
  0
LINE
  5
CC8
330
CA9
100
AcDbEntity
  8
AM_3
100
AcDbLine
 10
5943.218868051347
 20
1831.350791834419
 30
0.0
 11
5957.879866647448
 21
1831.329013282205
 31
0.0
  0
LINE
  5
CC9
330
CA9
100
AcDbEntity
  8
AM_3
100
AcDbLine
 10
5946.160725015574
 20
1831.846422330035
 30
0.0
 11
5958.626759586787
 21
1833.945673933992
 31
0.0
  0
LINE
  5
CCA
330
CA9
100
AcDbEntity
  8
AM_3
100
AcDbLine
 10
5943.177413047556
 20
1831.851079330005
 30
0.0
 11
5957.63487010012
 21
1834.285681908185
 31
0.0
  0
LINE
  5
CCB
330
CA9
100
AcDbEntity
  8
AM_3
100
AcDbLine
 10
5947.819448683001
 20
1825.296270697684
 30
0.0
 11
5959.782132198238
 21
1829.383210670499
 31
0.0
  0
LINE
  5
CCC
330
CA9
100
AcDbEntity
  8
AM_3
100
AcDbLine
 10
5945.197920602455
 20
1823.872275434651
 30
0.0
 11
5959.071617339546
 21
1828.612095366636
 31
0.0
  0
LINE
  5
CCD
330
CA9
100
AcDbEntity
  8
AM_3
100
AcDbLine
 10
5947.819448682991
 20
1825.296270697678
 30
0.0
 11
5958.928413234549
 21
1831.329493867731
 31
0.0
  0
LINE
  5
CCE
330
CA9
100
AcDbEntity
  8
AM_3
100
AcDbLine
 10
5944.996268660849
 20
1824.331995556059
 30
0.0
 11
5957.879866647448
 21
1831.329013282205
 31
0.0
  0
LINE
  5
CCF
330
CA9
100
AcDbEntity
  8
AM_3
100
AcDbLine
 10
5951.515128885096
 20
1819.639611042419
 30
0.0
 11
5961.502613970972
 21
1827.389386322164
 31
0.0
  0
LINE
  5
CD0
330
CA9
100
AcDbEntity
  8
AM_3
100
AcDbLine
 10
5949.498012932971
 20
1817.441562994283
 30
0.0
 11
5961.080977496994
 21
1826.42934837495
 31
0.0
  0
LINE
  5
CD1
330
CA9
100
AcDbEntity
  8
AM_3
100
AcDbLine
 10
5951.515128885088
 20
1819.63961104241
 30
0.0
 11
5960.063194734484
 21
1828.953012432977
 31
0.0
  0
LINE
  5
CD2
330
CA9
100
AcDbEntity
  8
AM_3
100
AcDbLine
 10
5949.158016170374
 20
1817.810897933064
 30
0.0
 11
5959.071617339546
 21
1828.612095366636
 31
0.0
  0
LINE
  5
CD3
330
CA9
100
AcDbEntity
  8
AM_3
100
AcDbLine
 10
5956.847281327586
 20
1815.489430210008
 30
0.0
 11
5963.777269003245
 21
1826.062232394968
 31
0.0
  0
LINE
  5
CD4
330
CA9
100
AcDbEntity
  8
AM_3
100
AcDbLine
 10
5955.65316331607
 20
1812.755521989016
 30
0.0
 11
5963.690201768304
 21
1825.01730681251
 31
0.0
  0
LINE
  5
CD5
330
CA9
100
AcDbEntity
  8
AM_3
100
AcDbLine
 10
5956.847281327581
 20
1815.489430209996
 30
0.0
 11
5961.908132903124
 21
1827.073758268098
 31
0.0
  0
LINE
  5
CD6
330
CA9
100
AcDbEntity
  8
AM_3
100
AcDbLine
 10
5955.211665657304
 20
1812.99444857373
 30
0.0
 11
5961.080977496994
 21
1826.42934837495
 31
0.0
  0
LINE
  5
CD7
330
CA9
100
AcDbEntity
  8
AM_3
100
AcDbLine
 10
5963.238084556458
 20
1813.295464690332
 30
0.0
 11
5966.359603127403
 21
1825.545566609839
 31
0.0
  0
LINE
  5
CD8
330
CA9
100
AcDbEntity
  8
AM_3
100
AcDbLine
 10
5962.996365700751
 20
1810.321957673183
 30
0.0
 11
5966.616540217394
 21
1824.528987292692
 31
0.0
  0
LINE
  5
CD9
330
CA9
100
AcDbEntity
  8
AM_3
100
AcDbLine
 10
5963.238084556455
 20
1813.295464690319
 30
0.0
 11
5964.263300062733
 21
1825.895377721492
 31
0.0
  0
LINE
  5
CDA
330
CA9
100
AcDbEntity
  8
AM_3
100
AcDbLine
 10
5962.501210267681
 20
1810.404584501051
 30
0.0
 11
5963.690201768304
 21
1825.01730681251
 31
0.0
  0
LINE
  5
CDB
330
CA9
100
AcDbEntity
  8
AM_3
100
AcDbLine
 10
5969.994995878331
 20
1813.295464690332
 30
0.0
 11
5968.969780372057
 21
1825.895377721492
 31
0.0
  0
LINE
  5
CDC
330
CA9
100
AcDbEntity
  8
AM_3
100
AcDbLine
 10
5970.731870167104
 20
1810.404584501051
 30
0.0
 11
5969.542878666482
 21
1825.017306812507
 31
0.0
  0
LINE
  5
CDD
330
CA9
100
AcDbEntity
  8
AM_3
100
AcDbLine
 10
5969.994995878333
 20
1813.295464690319
 30
0.0
 11
5966.873477307383
 21
1825.545566609839
 31
0.0
  0
LINE
  5
CDE
330
CA9
100
AcDbEntity
  8
AM_3
100
AcDbLine
 10
5970.236714734038
 20
1810.321957673183
 30
0.0
 11
5966.616540217394
 21
1824.528987292687
 31
0.0
  0
LINE
  5
CDF
330
CA9
100
AcDbEntity
  8
AM_3
100
AcDbLine
 10
5976.385799107199
 20
1815.489430210008
 30
0.0
 11
5971.324947531662
 21
1827.073758268098
 31
0.0
  0
LINE
  5
CE0
330
CA9
100
AcDbEntity
  8
AM_3
100
AcDbLine
 10
5978.021414777482
 20
1812.994448573729
 30
0.0
 11
5972.152102937791
 21
1826.429348374949
 31
0.0
  0
LINE
  5
CE1
330
CA9
100
AcDbEntity
  8
AM_3
100
AcDbLine
 10
5976.385799107204
 20
1815.489430209996
 30
0.0
 11
5969.455811431539
 21
1826.062232394968
 31
0.0
  0
LINE
  5
CE2
330
CA9
100
AcDbEntity
  8
AM_3
100
AcDbLine
 10
5977.579917118714
 20
1812.755521989015
 30
0.0
 11
5969.542878666482
 21
1825.017306812507
 31
0.0
  0
LINE
  5
CE3
330
CA9
100
AcDbEntity
  8
AM_3
100
AcDbLine
 10
5981.717951549689
 20
1819.639611042419
 30
0.0
 11
5973.169885700303
 21
1828.953012432978
 31
0.0
  0
LINE
  5
CE4
330
CA9
100
AcDbEntity
  8
AM_3
100
AcDbLine
 10
5984.075064264414
 20
1817.810897933064
 30
0.0
 11
5974.161463095246
 21
1828.612095366634
 31
0.0
  0
LINE
  5
CE5
330
CA9
100
AcDbEntity
  8
AM_3
100
AcDbLine
 10
5981.717951549699
 20
1819.63961104241
 30
0.0
 11
5971.730466463816
 21
1827.389386322164
 31
0.0
  0
LINE
  5
CE6
330
CA9
100
AcDbEntity
  8
AM_3
100
AcDbLine
 10
5983.735067501816
 20
1817.441562994283
 30
0.0
 11
5972.152102937791
 21
1826.429348374949
 31
0.0
  0
LINE
  5
CE7
330
CA9
100
AcDbEntity
  8
AM_3
100
AcDbLine
 10
5985.413631751784
 20
1825.296270697684
 30
0.0
 11
5974.30466720024
 21
1831.329493867731
 31
0.0
  0
LINE
  5
CE8
330
CA9
100
AcDbEntity
  8
AM_3
100
AcDbLine
 10
5988.236811773937
 20
1824.331995556058
 30
0.0
 11
5975.353213787339
 21
1831.329013282206
 31
0.0
  0
LINE
  5
CE9
330
CA9
100
AcDbEntity
  8
AM_3
100
AcDbLine
 10
5985.413631751796
 20
1825.296270697678
 30
0.0
 11
5973.450948236548
 21
1829.383210670499
 31
0.0
  0
LINE
  5
CEA
330
CA9
100
AcDbEntity
  8
AM_3
100
AcDbLine
 10
5988.035159832334
 20
1823.872275434652
 30
0.0
 11
5974.161463095246
 21
1828.612095366634
 31
0.0
  0
LINE
  5
CEB
330
CA9
100
AcDbEntity
  8
AM_3
100
AcDbLine
 10
5987.072355419201
 20
1831.846422330036
 30
0.0
 11
5974.606320848
 21
1833.945673933993
 31
0.0
  0
LINE
  5
CEC
330
CA9
100
AcDbEntity
  8
AM_3
100
AcDbLine
 10
5990.05566738723
 20
1831.851079330006
 30
0.0
 11
5975.598210334669
 21
1834.285681908184
 31
0.0
  0
LINE
  5
CED
330
CA9
100
AcDbEntity
  8
AM_3
100
AcDbLine
 10
5987.072355419214
 20
1831.846422330034
 30
0.0
 11
5974.430815853637
 21
1831.827643634459
 31
0.0
  0
LINE
  5
CEE
330
CA9
100
AcDbEntity
  8
AM_3
100
AcDbLine
 10
5990.014212383442
 20
1831.350791834419
 30
0.0
 11
5975.353213787339
 21
1831.329013282206
 31
0.0
  0
LINE
  5
CEF
330
CA9
100
AcDbEntity
  8
AM_3
100
AcDbLine
 10
5986.514374104827
 20
1838.580255374036
 30
0.0
 11
5974.042157790216
 21
1836.51804892737
 31
0.0
  0
LINE
  5
CF0
330
CA9
100
AcDbEntity
  8
AM_3
100
AcDbLine
 10
5989.334529876142
 20
1839.553339857393
 30
0.0
 11
5974.869903559828
 21
1837.161700321508
 31
0.0
  0
LINE
  5
CF1
330
CA9
100
AcDbEntity
  8
AM_3
100
AcDbLine
 10
5986.51437410484
 20
1838.580255374038
 30
0.0
 11
5974.563885454563
 21
1834.457792973115
 31
0.0
  0
LINE
  5
CF2
330
CA9
100
AcDbEntity
  8
AM_3
100
AcDbLine
 10
5989.457764103071
 20
1839.066698900533
 30
0.0
 11
5975.598210334669
 21
1834.285681908184
 31
0.0
  0
LINE
  5
CF3
330
CA9
100
AcDbEntity
  8
AM_3
100
AcDbLine
 10
5983.800153742044
 20
1844.76805453318
 30
0.0
 11
5972.67331384809
 21
1838.767862102817
 31
0.0
  0
LINE
  5
CF4
330
CA9
100
AcDbEntity
  8
AM_3
100
AcDbLine
 10
5986.151545679598
 20
1846.604117697192
 30
0.0
 11
5973.247216802699
 21
1839.645407301065
 31
0.0
  0
LINE
  5
CF5
330
CA9
100
AcDbEntity
  8
AM_3
100
AcDbLine
 10
5983.800153742055
 20
1844.768054533188
 30
0.0
 11
5973.835736883272
 21
1836.988641194649
 31
0.0
  0
LINE
  5
CF6
330
CA9
100
AcDbEntity
  8
AM_3
100
AcDbLine
 10
5986.42611479658
 20
1846.183858377748
 30
0.0
 11
5974.869903559828
 21
1837.161700321508
 31
0.0
  0
LINE
  5
CF7
330
CA9
100
AcDbEntity
  8
AM_3
100
AcDbLine
 10
5979.223822222628
 20
1849.739275754981
 30
0.0
 11
5970.64812450255
 21
1840.45131129333
 31
0.0
  0
LINE
  5
CF8
330
CA9
100
AcDbEntity
  8
AM_3
100
AcDbLine
 10
5980.851640524385
 20
1852.239351666371
 30
0.0
 11
5970.905993352011
 21
1841.467654656943
 31
0.0
  0
LINE
  5
CF9
330
CA9
100
AcDbEntity
  8
AM_3
100
AcDbLine
 10
5979.223822222639
 20
1849.739275754991
 30
0.0
 11
5972.325276335856
 21
1839.145931624105
 31
0.0
  0
LINE
  5
CFA
330
CA9
100
AcDbEntity
  8
AM_3
100
AcDbLine
 10
5981.247790707217
 20
1851.931015602599
 30
0.0
 11
5973.247216802699
 21
1839.645407301065
 31
0.0
  0
LINE
  5
CFB
330
CA9
100
AcDbEntity
  8
AM_3
100
AcDbLine
 10
5973.281296075813
 20
1852.955210083609
 30
0.0
 11
5968.186050443238
 21
1841.385968657706
 31
0.0
  0
LINE
  5
CFC
330
CA9
100
AcDbEntity
  8
AM_3
100
AcDbLine
 10
5974.009141370569
 20
1855.848376724703
 30
0.0
 11
5968.099941096459
 21
1842.430973613041
 31
0.0
  0
LINE
  5
CFD
330
CA9
100
AcDbEntity
  8
AM_3
100
AcDbLine
 10
5973.281296075819
 20
1852.955210083621
 30
0.0
 11
5970.196185649839
 21
1840.695888369638
 31
0.0
  0
LINE
  5
CFE
330
CA9
100
AcDbEntity
  8
AM_3
100
AcDbLine
 10
5974.483943600037
 20
1855.685376913441
 30
0.0
 11
5970.905993352011
 21
1841.467654656943
 31
0.0
  0
POINT
  5
CFF
330
CA9
100
AcDbEntity
  8
0
 60
     1
100
AcDbPoint
 10
139.3273672309351
 20
0.0
 30
0.0
1001
GENIUS_GENODEF_13
1002
{
1000
HIER
1070
    10
1002
}
1002
{
1000
MANEDIT
1070
     0
1002
}
1002
{
1000
NOSEL
1070
     0
1002
}
1002
{
1000
BEHIND
1070
     0
1002
}
1002
{
1000
OTHER
1070
     0
1002
}
1002
{
1000
REACTOR
1002
}
1001
GENIUS_GENOENT_13
1002
{
1000
MYREF
1005
CFF
1002
}
1002
{
1000
GRP
1005
0
1002
}
1001
GENIUS_GENOLIS_13
1002
{
1000
ENT
1005
CB2
1005
CB1
1005
CB0
1005
CAF
1002
}
1001
GENIUS_GENOBJ-N-CRS_13
1002
{
1000
OWNER
1000
GEN
1002
}
  0
ENDBLK
  5
D00
330
CA9
100
AcDbEntity
  8
0
100
AcDbBlockEnd
  0
BLOCK
  5
D1F
330
D18
100
AcDbEntity
  8
0
100
AcDbBlockBegin
  2
A$C0120759A
 70
     0
 10
0.0
 20
0.0
 30
0.0
  3
A$C0120759A
  1

  0
INSERT
  5
D19
330
D18
100
AcDbEntity
  8
0
100
AcDbBlockReference
  2
1
 10
-5873.615392935784
 20
-1833.541439504192
 30
0.0
  0
INSERT
  5
D1A
330
D18
100
AcDbEntity
  8
0
100
AcDbBlockReference
  2
1
 10
5873.615393249999
 20
-1833.541438497628
 30
0.0
 41
-1.0
 50
0.0000000098162278
  0
INSERT
  5
D1B
330
D18
100
AcDbEntity
  8
AM_5
100
AcDbBlockReference
  2
*S2621
 10
0.0
 20
0.0
 30
0.0
  0
ENDBLK
  5
D20
330
D18
100
AcDbEntity
  8
0
100
AcDbBlockEnd
  0
BLOCK
  5
123A
330
1230
100
AcDbEntity
  8
0
100
AcDbBlockBegin
  2
*D19
 70
     1
 10
0.0
 20
0.0
 30
0.0
  3
*D19
  1

  0
LINE
  5
128C
330
1230
100
AcDbEntity
  8
AM_5
100
AcDbLine
 10
1218.524129636334
 20
866.5539999348519
 30
0.0
 11
1540.316605995235
 21
866.5539999348519
 31
0.0
  0
LINE
  5
128D
330
1230
100
AcDbEntity
  8
AM_5
100
AcDbLine
 10
1431.183595763525
 20
1094.553999934849
 30
0.0
 11
1540.316605995235
 21
1094.553999934849
 31
0.0
  0
LINE
  5
128E
330
1230
100
AcDbEntity
  8
AM_5
100
AcDbLine
 10
1530.316605995235
 20
879.0539999348519
 30
0.0
 11
1530.316605995235
 21
1082.053999934849
 31
0.0
  0
SOLID
  5
128F
330
1230
100
AcDbEntity
  8
AM_5
100
AcDbTrace
 10
1528.233272661902
 20
879.0539999348519
 30
0.0
 11
1532.399939328568
 21
879.0539999348519
 31
0.0
 12
1530.316605995235
 22
866.5539999348519
 32
0.0
 13
1530.316605995235
 23
866.5539999348519
 33
0.0
  0
SOLID
  5
1290
330
1230
100
AcDbEntity
  8
AM_5
100
AcDbTrace
 10
1528.233272661902
 20
1082.053999934849
 30
0.0
 11
1532.399939328568
 21
1082.053999934849
 31
0.0
 12
1530.316605995235
 22
1094.553999934849
 32
0.0
 13
1530.316605995235
 23
1094.553999934849
 33
0.0
  0
MTEXT
  5
1291
330
1230
100
AcDbEntity
  8
AM_5
 62
     2
100
AcDbMText
 10
1513.191605995235
 20
980.5539999348509
 30
0.0
 40
17.5
 41
0.0
 71
     5
 72
     1
  1
(228)
 11
0.0000000000000001
 21
1.0
 31
0.0
 73
     1
 44
1.0
  0
POINT
  5
1292
330
1230
100
AcDbEntity
  8
Defpoints
 62
     0
100
AcDbPoint
 10
1218.524129636334
 20
866.5539999348519
 30
0.0
  0
POINT
  5
1293
330
1230
100
AcDbEntity
  8
Defpoints
 62
     0
100
AcDbPoint
 10
1431.183595763525
 20
1094.553999934849
 30
0.0
  0
POINT
  5
1294
330
1230
100
AcDbEntity
  8
Defpoints
 62
     0
100
AcDbPoint
 10
1530.316605995235
 20
1094.553999934849
 30
0.0
  0
ENDBLK
  5
123B
330
1230
100
AcDbEntity
  8
0
100
AcDbBlockEnd
  0
BLOCK
  5
1252
330
1248
100
AcDbEntity
  8
0
100
AcDbBlockBegin
  2
*D20
 70
     1
 10
0.0
 20
0.0
 30
0.0
  3
*D20
  1

  0
LINE
  5
12C2
330
1248
100
AcDbEntity
  8
AM_5
100
AcDbLine
 10
1202.490733246622
 20
866.5539999348519
 30
0.0
 11
1593.351267601323
 21
866.5539999348519
 31
0.0
  0
LINE
  5
12C3
330
1248
100
AcDbEntity
  8
AM_5
100
AcDbLine
 10
1223.766601995235
 20
1759.759872675634
 30
0.0
 11
1593.351267601323
 21
1759.759872675634
 31
0.0
  0
LINE
  5
12C4
330
1248
100
AcDbEntity
  8
AM_5
100
AcDbLine
 10
1583.351267601323
 20
879.0539999348519
 30
0.0
 11
1583.351267601323
 21
1747.259872675634
 31
0.0
  0
SOLID
  5
12C5
330
1248
100
AcDbEntity
  8
AM_5
100
AcDbTrace
 10
1581.26793426799
 20
879.0539999348519
 30
0.0
 11
1585.434600934656
 21
879.0539999348519
 31
0.0
 12
1583.351267601323
 22
866.5539999348519
 32
0.0
 13
1583.351267601323
 23
866.5539999348519
 33
0.0
  0
SOLID
  5
12C6
330
1248
100
AcDbEntity
  8
AM_5
100
AcDbTrace
 10
1581.26793426799
 20
1747.259872675634
 30
0.0
 11
1585.434600934656
 21
1747.259872675634
 31
0.0
 12
1583.351267601323
 22
1759.759872675634
 32
0.0
 13
1583.351267601323
 23
1759.759872675634
 33
0.0
  0
MTEXT
  5
12C7
330
1248
100
AcDbEntity
  8
AM_5
 62
     2
100
AcDbMText
 10
1566.2220382099
 20
1313.156936305243
 30
0.0
 40
17.5
 41
0.0
 71
     5
 72
     1
  1
(893)
 11
0.0000000000000001
 21
1.0
 31
0.0
 73
     1
 44
1.0
  0
POINT
  5
12C8
330
1248
100
AcDbEntity
  8
Defpoints
 62
     0
100
AcDbPoint
 10
1202.490733246622
 20
866.5539999348519
 30
0.0
  0
POINT
  5
12C9
330
1248
100
AcDbEntity
  8
Defpoints
 62
     0
100
AcDbPoint
 10
1223.766601995235
 20
1759.759872675634
 30
0.0
  0
POINT
  5
12CA
330
1248
100
AcDbEntity
  8
Defpoints
 62
     0
100
AcDbPoint
 10
1583.351267601323
 20
1759.759872675634
 30
0.0
  0
ENDBLK
  5
1253
330
1248
100
AcDbEntity
  8
0
100
AcDbBlockEnd
  0
BLOCK
  5
1301
330
12FC
100
AcDbEntity
  8
0
100
AcDbBlockBegin
  2
*S2621
 70
     1
 10
0.0
 20
0.0
 30
0.0
  3
*S2621
  1

  0
LINE
  5
12FD
330
12FC
100
AcDbEntity
  8
AM_5
 62
     3
100
AcDbLine
 10
224.5175033048726
 20
-282.7835948897639
 30
0.0
 11
198.1008944718387
 21
-282.7835948897639
 31
0.0
  0
LINE
  5
12FE
330
12FC
100
AcDbEntity
  8
AM_5
 62
     3
100
AcDbLine
 10
198.1008944718387
 20
-282.7835948897639
 30
0.0
 11
107.4588470599136
 21
-38.90019173697221
 31
0.0
  0
TRACE
  5
12FF
330
12FC
100
AcDbEntity
  8
AM_5
  6
Continuous
 62
     3
100
AcDbTrace
 10
109.6184345075662
 20
-38.09755643957279
 30
0.0
 11
105.299259612261
 21
-39.70282703437164
 31
0.0
 12
101.3622266714721
 22
-22.49649642648683
 32
0.0
 13
101.3622266714721
 23
-22.49649642648683
 33
0.0
  0
MTEXT
  5
1300
330
12FC
100
AcDbEntity
  8
AM_5
 62
     2
100
AcDbMText
 10
215.6008944718387
 20
-274.0335948897639
 30
0.0
 40
17.5
 41
0.0
 71
     7
 72
     5
  1

  7
ACDINTS
 73
     1
 44
1.0
  0
ENDBLK
  5
1302
330
12FC
100
AcDbEntity
  8
0
100
AcDbBlockEnd
  0
BLOCK
  5
13D4
330
13CA
100
AcDbEntity
  8
0
100
AcDbBlockBegin
  2
*D23
 70
     1
 10
0.0
 20
0.0
 30
0.0
  3
*D23
  1

  0
LINE
  5
13EA
330
13CA
100
AcDbEntity
  8
AM_5
100
AcDbLine
 10
2370.316604995236
 20
1063.431472503932
 30
0.0
 11
2370.316604995236
 21
1327.866876611845
 31
0.0
  0
LINE
  5
13EB
330
13CA
100
AcDbEntity
  8
AM_5
100
AcDbLine
 10
1845.316604995236
 20
1037.101023472949
 30
0.0
 11
1845.316604995236
 21
1327.866876611845
 31
0.0
  0
LINE
  5
13EC
330
13CA
100
AcDbEntity
  8
AM_5
100
AcDbLine
 10
2357.816604995236
 20
1317.866876611845
 30
0.0
 11
1857.816604995236
 21
1317.866876611845
 31
0.0
  0
SOLID
  5
13ED
330
13CA
100
AcDbEntity
  8
AM_5
100
AcDbTrace
 10
2357.816604995236
 20
1319.950209945178
 30
0.0
 11
2357.816604995236
 21
1315.783543278512
 31
0.0
 12
2370.316604995236
 22
1317.866876611845
 32
0.0
 13
2370.316604995236
 23
1317.866876611845
 33
0.0
  0
SOLID
  5
13EE
330
13CA
100
AcDbEntity
  8
AM_5
100
AcDbTrace
 10
1857.816604995236
 20
1319.950209945178
 30
0.0
 11
1857.816604995236
 21
1315.783543278512
 31
0.0
 12
1845.316604995236
 22
1317.866876611845
 32
0.0
 13
1845.316604995236
 23
1317.866876611845
 33
0.0
  0
MTEXT
  5
13EF
330
13CA
100
AcDbEntity
  8
AM_5
 62
     2
100
AcDbMText
 10
2107.816604995236
 20
1334.991876611845
 30
0.0
 40
17.5
 41
0.0
 71
     5
 72
     1
  1
(525)
 73
     1
 44
1.0
  0
POINT
  5
13F0
330
13CA
100
AcDbEntity
  8
Defpoints
 62
     0
100
AcDbPoint
 10
2370.316604995236
 20
1063.431472503932
 30
0.0
  0
POINT
  5
13F1
330
13CA
100
AcDbEntity
  8
Defpoints
 62
     0
100
AcDbPoint
 10
1845.316604995236
 20
1037.101023472949
 30
0.0
  0
POINT
  5
13F2
330
13CA
100
AcDbEntity
  8
Defpoints
 62
     0
100
AcDbPoint
 10
1845.316604995236
 20
1317.866876611845
 30
0.0
  0
ENDBLK
  5
13D5
330
13CA
100
AcDbEntity
  8
0
100
AcDbBlockEnd
  0
ENDSEC
  0
SECTION
  2
ENTITIES
  0
LINE
  5
81A
330
1F
100
AcDbEntity
  8
AM_0
100
AcDbLine
 10
1384.816604995246
 20
1505.014078456724
 30
0.0
 11
1384.816604995231
 21
1268.859878675636
 31
0.0
1001
GENIUS_GENODEF_13
1002
{
1000
HIER
1070
     0
1002
}
1002
{
1000
MANEDIT
1070
     0
1002
}
1002
{
1000
NOSEL
1070
     0
1002
}
1002
{
1000
BEHIND
1070
     0
1002
}
1002
{
1000
REACTOR
1002
}
1001
GENIUS_GENOBJ-N-CEN_13
1002
{
1000
OWNER
1000
GEN
1002
}
  0
LINE
  5
81B
330
1F
100
AcDbEntity
  8
AM_0
100
AcDbLine
 10
1030.816604995246
 20
1505.014078456724
 30
0.0
 11
1030.816604995231
 21
1268.859878675636
 31
0.0
1001
GENIUS_GENODEF_13
1002
{
1000
HIER
1070
     0
1002
}
1002
{
1000
MANEDIT
1070
     0
1002
}
1002
{
1000
NOSEL
1070
     0
1002
}
1002
{
1000
BEHIND
1070
     0
1002
}
1002
{
1000
REACTOR
1002
}
1001
GENIUS_GENOBJ-N-CEN_13
1002
{
1000
OWNER
1000
GEN
1002
}
  0
LINE
  5
81C
330
1F
100
AcDbEntity
  8
AM_7
100
AcDbLine
 10
1207.816604995235
 20
894.5539999348492
 30
0.0
 11
1207.816604995231
 21
1482.365603400795
 31
0.0
1001
GENIUS_GENODEF_13
1002
{
1000
HIER
1070
     0
1002
}
1002
{
1000
MANEDIT
1070
     0
1002
}
1002
{
1000
NOSEL
1070
     0
1002
}
1002
{
1000
BEHIND
1070
     0
1002
}
1002
{
1000
OTHER
1070
     0
1002
}
1002
{
1000
REACTOR
1002
}
1001
GENIUS_GENOBJ-N-CEN_13
1002
{
1000
OWNER
1000
GEN
1002
}
1001
GENIUS_GENCEN_19
1002
{
1040
15.0
1002
}
  0
LINE
  5
81D
330
1F
100
AcDbEntity
  8
0
100
AcDbLine
 10
1030.816604995231
 20
1268.859878675636
 30
0.0
 11
1030.816604995231
 21
1178.703999934787
 31
0.0
  0
LINE
  5
81E
330
1F
100
AcDbEntity
  8
0
100
AcDbLine
 10
1384.816604995231
 20
1268.859878675636
 30
0.0
 11
1384.816604995231
 21
1178.703999934813
 31
0.0
  0
LINE
  5
81F
330
1F
100
AcDbEntity
  8
AM_0
100
AcDbLine
 10
1384.816604995242
 20
974.3998001537628
 30
0.0
 11
1384.816604995239
 21
1010.403999934788
 31
0.0
1001
GENIUS_GENODEF_13
1002
{
1000
HIER
1070
     0
1002
}
1002
{
1000
MANEDIT
1070
     0
1002
}
1002
{
1000
NOSEL
1070
     0
1002
}
1002
{
1000
BEHIND
1070
     0
1002
}
1002
{
1000
REACTOR
1002
}
1001
GENIUS_GENOBJ-N-CEN_13
1002
{
1000
OWNER
1000
GEN
1002
}
  0
LINE
  5
820
330
1F
100
AcDbEntity
  8
AM_0
100
AcDbLine
 10
1030.816604995231
 20
974.3998001537628
 30
0.0
 11
1030.816604995231
 21
1010.403999934813
 31
0.0
1001
GENIUS_GENODEF_13
1002
{
1000
HIER
1070
     0
1002
}
1002
{
1000
MANEDIT
1070
     0
1002
}
1002
{
1000
NOSEL
1070
     0
1002
}
1002
{
1000
BEHIND
1070
     0
1002
}
1002
{
1000
REACTOR
1002
}
1001
GENIUS_GENOBJ-N-CEN_13
1002
{
1000
OWNER
1000
GEN
1002
}
  0
LINE
  5
828
330
1F
100
AcDbEntity
  8
0
100
AcDbLine
 10
1384.816604995239
 20
1357.076435940984
 30
0.0
 11
1384.816604995239
 21
1330.176435940984
 31
0.0
  0
LINE
  5
82B
330
1F
100
AcDbEntity
  8
0
100
AcDbLine
 10
1470.316604995235
 20
1178.703999934849
 30
0.0
 11
1470.316604995235
 21
1010.403999934849
 31
0.0
  0
LINE
  5
82C
330
1F
100
AcDbEntity
  8
0
100
AcDbLine
 10
1470.316604995235
 20
1178.703999934849
 30
0.0
 11
1384.816604995235
 21
1178.703999934849
 31
0.0
  0
LINE
  5
82D
330
1F
100
AcDbEntity
  8
AM_3
100
AcDbLine
 10
1470.316604995235
 20
1174.203999934849
 30
0.0
 11
1384.816604995235
 21
1174.203999934849
 31
0.0
  0
LINE
  5
82E
330
1F
100
AcDbEntity
  8
0
100
AcDbLine
 10
1470.316604995235
 20
1010.403999934849
 30
0.0
 11
1384.816604995239
 21
1010.403999934849
 31
0.0
  0
LINE
  5
82F
330
1F
100
AcDbEntity
  8
AM_3
100
AcDbLine
 10
1470.316604995235
 20
1014.903999934849
 30
0.0
 11
1384.816604995239
 21
1014.903999934849
 31
0.0
  0
LINE
  5
830
102
{ACAD_REACTORS
330
123D
102
}
330
1F
100
AcDbEntity
  8
AM_7
100
AcDbLine
 10
1485.316604995235
 20
1094.553999934849
 30
0.0
 11
1354.816604995235
 21
1094.553999934849
 31
0.0
1001
GENIUS_GENOBJ-N-CEN_13
1002
{
1000
OWNER
1000
GEN
1002
}
1001
GENIUS_GENODEF_13
1002
{
1000
HIER
1070
     0
1002
}
1002
{
1000
MANEDIT
1070
     0
1002
}
1002
{
1000
NOSEL
1070
     0
1002
}
1002
{
1000
BEHIND
1070
     0
1002
}
1002
{
1000
OTHER
1070
     0
1002
}
1002
{
1000
REACTOR
1002
}
1001
GENIUS_GENCEN_19
1002
{
1040
15.0
1002
}
  0
LINE
  5
831
330
1F
100
AcDbEntity
  8
0
100
AcDbLine
 10
945.3166049952352
 20
1178.703999934849
 30
0.0
 11
945.3166049952352
 21
1010.403999934849
 31
0.0
  0
LINE
  5
832
330
1F
100
AcDbEntity
  8
0
100
AcDbLine
 10
945.3166049952352
 20
1178.703999934849
 30
0.0
 11
1030.816604995235
 21
1178.703999934849
 31
0.0
  0
LINE
  5
833
330
1F
100
AcDbEntity
  8
AM_3
100
AcDbLine
 10
945.3166049952352
 20
1174.203999934849
 30
0.0
 11
1030.816604995235
 21
1174.203999934849
 31
0.0
  0
LINE
  5
834
330
1F
100
AcDbEntity
  8
0
100
AcDbLine
 10
945.3166049952352
 20
1010.403999934849
 30
0.0
 11
1030.816604995235
 21
1010.403999934849
 31
0.0
  0
LINE
  5
835
330
1F
100
AcDbEntity
  8
AM_3
100
AcDbLine
 10
945.3166049952352
 20
1014.903999934849
 30
0.0
 11
1030.816604995235
 21
1014.903999934849
 31
0.0
  0
LINE
  5
836
330
1F
100
AcDbEntity
  8
AM_7
100
AcDbLine
 10
930.316604995235
 20
1094.553999934849
 30
0.0
 11
1060.816604995235
 21
1094.553999934849
 31
0.0
1001
GENIUS_GENOBJ-N-CEN_13
1002
{
1000
OWNER
1000
GEN
1002
}
1001
GENIUS_GENODEF_13
1002
{
1000
HIER
1070
     0
1002
}
1002
{
1000
MANEDIT
1070
     0
1002
}
1002
{
1000
NOSEL
1070
     0
1002
}
1002
{
1000
BEHIND
1070
     0
1002
}
1002
{
1000
OTHER
1070
     0
1002
}
1002
{
1000
REACTOR
1002
}
1001
GENIUS_GENCEN_19
1002
{
1040
15.0
1002
}
  0
INSERT
  5
843
330
1F
100
AcDbEntity
  8
0
370
     0
100
AcDbBlockReference
  2
DIN_A2
 10
94.53180215884094
 20
101.2317183139676
 30
0.0
 41
5.0
 42
5.0
 43
5.0
1001
GENIUS_GENOREF_13
1005
B2A
1001
GENIUS_GENODEF_13
1002
{
1000
HIER
1070
     0
1002
}
1002
{
1000
MANEDIT
1070
     0
1002
}
1002
{
1000
NOSEL
1070
     0
1002
}
1002
{
1000
BEHIND
1070
     0
1002
}
1002
{
1000
OTHER
1070
     0
1002
}
1002
{
1000
REACTOR
1002
}
1001
GENIUS_GENOBJ-N-SDF_13
1002
{
1000
OWNER
1000
GEN
1002
}
1001
GENIUS_GENSCREG_15
1040
5.0
1040
1.0
1011
94.53180215884094
1021
101.2317183139676
1031
0.0
1011
3064.531802158841
1021
2201.231718313968
1031
0.0
1070
     3
  0
LINE
  5
89F
330
1F
100
AcDbEntity
  8
AM_0
100
AcDbLine
 10
1031.816604995235
 20
1505.014078456724
 30
0.0
 11
1030.816604995235
 21
1505.014078456724
 31
0.0
  0
ARC
  5
8A0
330
1F
100
AcDbEntity
  8
AM_0
100
AcDbCircle
 10
1337.552048494298
 20
1518.45210318585
 30
0.0
 40
47.0
100
AcDbArc
 50
4.000000000087958
 51
72.13933955708935
  0
ARC
  5
8A1
330
1F
100
AcDbEntity
  8
AM_0
100
AcDbCircle
 10
1215.150062094476
 20
1143.41432619661
 30
0.0
 40
441.5064613304541
100
AcDbArc
 50
71.94758980369158
 51
90.9517311771577
  0
LINE
  5
8A2
330
1F
100
AcDbEntity
  8
AM_0
100
AcDbLine
 10
1207.816604995235
 20
1498.310045126062
 30
0.0
 11
1383.816604995235
 21
1498.310045126062
 31
0.0
  0
LINE
  5
8A3
330
1F
100
AcDbEntity
  8
AM_0
100
AcDbLine
 10
1384.816604995235
 20
1504.931365469621
 30
0.0
 11
1384.816604995235
 21
1505.014078456724
 31
0.0
  0
LINE
  5
8A4
330
1F
100
AcDbEntity
  8
AM_0
100
AcDbLine
 10
1384.816604995235
 20
1507.135398800282
 30
0.0
 11
1384.816604995235
 21
1516.310045126062
 31
0.0
  0
LINE
  5
8A5
330
1F
100
AcDbEntity
  8
AM_0
100
AcDbLine
 10
1384.816604995235
 20
1516.310045126062
 30
0.0
 11
1384.43755885651
 21
1521.730657451827
 31
0.0
  0
ARC
  5
8A6
330
1F
100
AcDbEntity
  8
AM_0
100
AcDbCircle
 10
1337.552048494298
 20
1518.45210318585
 30
0.0
 40
46.0
100
AcDbArc
 50
4.000000000087958
 51
72.13933955708935
  0
LINE
  5
8A7
330
1F
100
AcDbEntity
  8
AM_0
100
AcDbLine
 10
1383.816604995235
 20
1504.931365469621
 30
0.0
 11
1383.816604995235
 21
1505.306971675535
 31
0.0
  0
LINE
  5
8A8
330
1F
100
AcDbEntity
  8
AM_0
100
AcDbLine
 10
1383.816604995235
 20
1507.135398800282
 30
0.0
 11
1383.816604995235
 21
1516.310045126062
 31
0.0
  0
LINE
  5
8A9
330
1F
100
AcDbEntity
  8
AM_0
100
AcDbLine
 10
1383.819040944975
 20
1516.240288652317
 30
0.0
 11
1383.43999480625
 21
1521.660900978085
 31
0.0
  0
ARC
  5
8AA
330
1F
100
AcDbEntity
  8
AM_0
100
AcDbCircle
 10
1215.150085903894
 20
1143.414415726606
 30
0.0
 40
440.5063744423154
100
AcDbArc
 50
71.94715384645269
 51
90.95389520060022
  0
ARC
  5
8AB
330
1F
100
AcDbEntity
  8
AM_0
100
AcDbCircle
 10
1200.483124086576
 20
1143.414415726606
 30
0.0
 40
440.5063744423162
100
AcDbArc
 50
89.04610479939979
 51
108.0528461535473
  0
LINE
  5
8AC
330
1F
100
AcDbEntity
  8
AM_0
100
AcDbLine
 10
1031.814169045495
 20
1516.240288652317
 30
0.0
 11
1032.193215184216
 21
1521.660900978085
 31
0.0
  0
LINE
  5
8AD
330
1F
100
AcDbEntity
  8
AM_0
100
AcDbLine
 10
1031.816604995235
 20
1507.135398800282
 30
0.0
 11
1031.816604995235
 21
1516.310045126062
 31
0.0
  0
ARC
  5
8AE
330
1F
100
AcDbEntity
  8
AM_0
100
AcDbCircle
 10
1078.081161496168
 20
1518.45210318585
 30
0.0
 40
46.0
100
AcDbArc
 50
107.8606604429106
 51
175.999999999912
  0
LINE
  5
8AF
330
1F
100
AcDbEntity
  8
AM_0
100
AcDbLine
 10
1030.816604995235
 20
1516.310045126062
 30
0.0
 11
1031.195651133957
 21
1521.730657451827
 31
0.0
  0
LINE
  5
8B0
330
1F
100
AcDbEntity
  8
AM_0
100
AcDbLine
 10
1030.816604995235
 20
1507.135398800282
 30
0.0
 11
1030.816604995235
 21
1516.310045126062
 31
0.0
  0
LINE
  5
8B1
330
1F
100
AcDbEntity
  8
AM_0
100
AcDbLine
 10
1207.816604995235
 20
1498.310045126062
 30
0.0
 11
1031.816604995235
 21
1498.310045126062
 31
0.0
  0
ARC
  5
8B2
330
1F
100
AcDbEntity
  8
AM_0
100
AcDbCircle
 10
1200.482291998535
 20
1143.417544607856
 30
0.0
 40
441.5031361191793
100
AcDbArc
 50
89.04815056533749
 51
108.0524340199086
  0
ARC
  5
8B3
330
1F
100
AcDbEntity
  8
AM_0
100
AcDbCircle
 10
1078.081161496168
 20
1518.45210318585
 30
0.0
 40
47.0
100
AcDbArc
 50
107.8606604429106
 51
175.999999999912
  0
LINE
  5
8B4
330
1F
100
AcDbEntity
  8
AM_0
100
AcDbLine
 10
1382.816604995235
 20
1498.310045126062
 30
0.0
 11
1382.816604995235
 21
1503.102938344877
 31
0.0
  0
LINE
  5
8B5
330
1F
100
AcDbEntity
  8
AM_0
100
AcDbLine
 10
1032.816604995235
 20
1498.310045126062
 30
0.0
 11
1032.816604995235
 21
1505.306971675539
 31
0.0
  0
ARC
  5
8B6
330
1F
100
AcDbEntity
  8
AM_0
100
AcDbCircle
 10
1031.316604995231
 20
1505.306971675535
 30
0.0
 40
1.500000000002728
100
AcDbArc
 50
0.0
 51
44.99999999985237
  0
LINE
  5
8B7
330
1F
100
AcDbEntity
  8
AM_0
100
AcDbLine
 10
1032.377265167016
 20
1506.367631847312
 30
0.0
 11
1031.963051604639
 21
1506.781845409689
 31
0.0
  0
ARC
  5
8B8
330
1F
100
AcDbEntity
  8
AM_0
100
AcDbCircle
 10
1032.316604995235
 20
1507.135398800282
 30
0.0
 40
0.4999999999996825
100
AcDbArc
 50
180.0
 51
225.0000000001471
  0
LINE
  5
8B9
330
1F
100
AcDbEntity
  8
AM_0
100
AcDbLine
 10
1031.816604995235
 20
1498.310045126062
 30
0.0
 11
1031.816604995235
 21
1505.306971675535
 31
0.0
  0
ARC
  5
8BA
330
1F
100
AcDbEntity
  8
AM_0
100
AcDbCircle
 10
1031.316604995235
 20
1505.306971675535
 30
0.0
 40
0.5
100
AcDbArc
 50
0.0
 51
44.99999999985237
  0
LINE
  5
8BB
330
1F
100
AcDbEntity
  8
AM_0
100
AcDbLine
 10
1031.670158385827
 20
1505.660525066128
 30
0.0
 11
1031.255944823454
 21
1506.074738628501
 31
0.0
  0
ARC
  5
8BC
330
1F
100
AcDbEntity
  8
AM_0
100
AcDbCircle
 10
1032.316604995235
 20
1507.135398800282
 30
0.0
 40
1.500000000000091
100
AcDbArc
 50
180.0
 51
224.9999999998524
  0
LINE
  5
8BD
330
1F
100
AcDbEntity
  8
AM_4
100
AcDbLine
 10
1383.106984543789
 20
1507.588972877192
 30
0.0
 11
1031.112235524274
 21
1507.588972877192
 31
0.0
  0
LINE
  5
8BE
330
1F
100
AcDbEntity
  8
AM_0
100
AcDbLine
 10
1383.816604995235
 20
1505.014078456724
 30
0.0
 11
1384.816604995235
 21
1505.014078456724
 31
0.0
  0
LINE
  5
8BF
330
1F
100
AcDbEntity
  8
AM_0
100
AcDbLine
 10
1382.816604995235
 20
1498.310045126062
 30
0.0
 11
1382.816604995235
 21
1505.306971675539
 31
0.0
  0
ARC
  5
8C0
330
1F
100
AcDbEntity
  8
AM_0
100
AcDbCircle
 10
1384.316604995235
 20
1505.306971675535
 30
0.0
 40
1.500000000002728
100
AcDbArc
 50
135.0000000001476
 51
179.9999999997915
  0
LINE
  5
8C1
330
1F
100
AcDbEntity
  8
AM_0
100
AcDbLine
 10
1383.255944823454
 20
1506.367631847312
 30
0.0
 11
1383.670158385827
 21
1506.781845409689
 31
0.0
  0
ARC
  5
8C2
330
1F
100
AcDbEntity
  8
AM_0
100
AcDbCircle
 10
1383.316604995235
 20
1507.135398800282
 30
0.0
 40
0.4999999999996825
100
AcDbArc
 50
314.9999999998528
 51
0.0
  0
LINE
  5
8C3
330
1F
100
AcDbEntity
  8
AM_0
100
AcDbLine
 10
1383.816604995235
 20
1498.310045126062
 30
0.0
 11
1383.816604995235
 21
1505.306971675535
 31
0.0
  0
ARC
  5
8C4
330
1F
100
AcDbEntity
  8
AM_0
100
AcDbCircle
 10
1384.316604995235
 20
1505.306971675535
 30
0.0
 40
0.5
100
AcDbArc
 50
135.0000000001476
 51
180.0
  0
LINE
  5
8C5
330
1F
100
AcDbEntity
  8
AM_0
100
AcDbLine
 10
1383.963051604639
 20
1505.660525066128
 30
0.0
 11
1384.377265167016
 21
1506.074738628501
 31
0.0
  0
ARC
  5
8C6
330
1F
100
AcDbEntity
  8
AM_0
100
AcDbCircle
 10
1383.316604995235
 20
1507.135398800282
 30
0.0
 40
1.500000000000091
100
AcDbArc
 50
315.0000000001476
 51
0.0
  0
LINE
  5
8C7
330
1F
100
AcDbEntity
  8
AM_7
100
AcDbLine
 10
1207.816604995235
 20
1772.279609245739
 30
0.0
 11
1207.816604995231
 21
1498.310045126062
 31
0.0
1001
GENIUS_GENOBJ-N-CEN_13
1002
{
1000
OWNER
1000
GEN
1002
}
1001
GENIUS_GENODEF_13
1002
{
1000
HIER
1070
     0
1002
}
1002
{
1000
MANEDIT
1070
     0
1002
}
1002
{
1000
NOSEL
1070
     0
1002
}
1002
{
1000
BEHIND
1070
     0
1002
}
1002
{
1000
OTHER
1070
     0
1002
}
1002
{
1000
REACTOR
1002
}
  0
LINE
  5
8C8
330
1F
100
AcDbEntity
  8
AM_0
100
AcDbLine
 10
1031.816604995235
 20
974.3998001537628
 30
0.0
 11
1030.816604995235
 21
974.3998001537628
 31
0.0
  0
ARC
  5
8C9
330
1F
100
AcDbEntity
  8
AM_0
100
AcDbCircle
 10
1337.552048494298
 20
960.9617754246363
 30
0.0
 40
47.0
100
AcDbArc
 50
287.8606604429106
 51
355.999999999912
  0
ARC
  5
8CA
330
1F
100
AcDbEntity
  8
AM_0
100
AcDbCircle
 10
1215.150062094476
 20
1335.999552413877
 30
0.0
 40
441.5064613304541
100
AcDbArc
 50
269.0482688228423
 51
288.0524101963084
  0
LINE
  5
8CB
330
1F
100
AcDbEntity
  8
AM_0
100
AcDbLine
 10
1207.816604995235
 20
981.1038334844239
 30
0.0
 11
1383.816604995235
 21
981.1038334844239
 31
0.0
  0
LINE
  5
8CC
330
1F
100
AcDbEntity
  8
AM_0
100
AcDbLine
 10
1384.816604995235
 20
972.2784798102047
 30
0.0
 11
1384.816604995235
 21
963.1038334844239
 31
0.0
  0
LINE
  5
8CD
330
1F
100
AcDbEntity
  8
AM_0
100
AcDbLine
 10
1384.816604995235
 20
963.1038334844239
 30
0.0
 11
1384.43755885651
 21
957.6832211586596
 31
0.0
  0
ARC
  5
8CE
330
1F
100
AcDbEntity
  8
AM_0
100
AcDbCircle
 10
1337.552048494298
 20
960.9617754246363
 30
0.0
 40
46.0
100
AcDbArc
 50
287.8606604429106
 51
355.999999999912
  0
LINE
  5
8CF
330
1F
100
AcDbEntity
  8
AM_0
100
AcDbLine
 10
1383.816604995235
 20
974.482513140866
 30
0.0
 11
1383.816604995235
 21
974.1069069349514
 31
0.0
  0
LINE
  5
8D0
330
1F
100
AcDbEntity
  8
AM_0
100
AcDbLine
 10
1383.816604995235
 20
972.2784798102047
 30
0.0
 11
1383.816604995235
 21
963.1038334844239
 31
0.0
  0
LINE
  5
8D1
330
1F
100
AcDbEntity
  8
AM_0
100
AcDbLine
 10
1383.819040944975
 20
963.1735899581698
 30
0.0
 11
1383.43999480625
 21
957.7529776324015
 31
0.0
  0
ARC
  5
8D2
330
1F
100
AcDbEntity
  8
AM_0
100
AcDbCircle
 10
1215.150085903894
 20
1335.99946288388
 30
0.0
 40
440.5063744423154
100
AcDbArc
 50
269.0461047993998
 51
288.0528461535473
  0
ARC
  5
8D3
330
1F
100
AcDbEntity
  8
AM_0
100
AcDbCircle
 10
1200.483124086576
 20
1335.99946288388
 30
0.0
 40
440.5063744423162
100
AcDbArc
 50
251.9471538464527
 51
270.9538952006003
  0
LINE
  5
8D4
330
1F
100
AcDbEntity
  8
AM_0
100
AcDbLine
 10
1031.814169045495
 20
963.1735899581698
 30
0.0
 11
1032.193215184216
 21
957.7529776324015
 31
0.0
  0
LINE
  5
8D5
330
1F
100
AcDbEntity
  8
AM_0
100
AcDbLine
 10
1031.816604995235
 20
972.2784798102047
 30
0.0
 11
1031.816604995235
 21
963.1038334844239
 31
0.0
  0
ARC
  5
8D6
330
1F
100
AcDbEntity
  8
AM_0
100
AcDbCircle
 10
1078.081161496168
 20
960.9617754246363
 30
0.0
 40
46.0
100
AcDbArc
 50
184.0000000000879
 51
252.1393395570894
  0
LINE
  5
8D7
330
1F
100
AcDbEntity
  8
AM_0
100
AcDbLine
 10
1030.816604995235
 20
963.1038334844239
 30
0.0
 11
1031.195651133957
 21
957.6832211586596
 31
0.0
  0
LINE
  5
8D8
330
1F
100
AcDbEntity
  8
AM_0
100
AcDbLine
 10
1030.816604995235
 20
972.2784798102047
 30
0.0
 11
1030.816604995235
 21
963.1038334844239
 31
0.0
  0
LINE
  5
8D9
330
1F
100
AcDbEntity
  8
AM_0
100
AcDbLine
 10
1207.816604995235
 20
981.1038334844239
 30
0.0
 11
1031.816604995235
 21
981.1038334844239
 31
0.0
  0
ARC
  5
8DA
330
1F
100
AcDbEntity
  8
AM_0
100
AcDbCircle
 10
1200.482291998535
 20
1335.996334002631
 30
0.0
 40
441.5031361191793
100
AcDbArc
 50
251.9475659800914
 51
270.9518494346625
  0
ARC
  5
8DB
330
1F
100
AcDbEntity
  8
AM_0
100
AcDbCircle
 10
1078.081161496168
 20
960.9617754246363
 30
0.0
 40
47.0
100
AcDbArc
 50
184.0000000000879
 51
252.1393395570894
  0
LINE
  5
8DC
330
1F
100
AcDbEntity
  8
AM_0
100
AcDbLine
 10
1382.816604995235
 20
981.1038334844239
 30
0.0
 11
1382.816604995235
 21
976.3109402656088
 31
0.0
  0
LINE
  5
8DD
330
1F
100
AcDbEntity
  8
AM_0
100
AcDbLine
 10
1032.816604995235
 20
981.1038334844239
 30
0.0
 11
1032.816604995235
 21
974.1069069349476
 31
0.0
  0
ARC
  5
8DE
330
1F
100
AcDbEntity
  8
AM_0
100
AcDbCircle
 10
1031.316604995231
 20
974.1069069349514
 30
0.0
 40
1.500000000002728
100
AcDbArc
 50
315.0000000001476
 51
0.0
  0
LINE
  5
8DF
330
1F
100
AcDbEntity
  8
AM_0
100
AcDbLine
 10
1032.377265167016
 20
973.046246763174
 30
0.0
 11
1031.963051604639
 21
972.632033200797
 31
0.0
  0
ARC
  5
8E0
330
1F
100
AcDbEntity
  8
AM_0
100
AcDbCircle
 10
1032.316604995235
 20
972.2784798102047
 30
0.0
 40
0.4999999999996825
100
AcDbArc
 50
134.9999999998528
 51
180.0
  0
LINE
  5
8E1
330
1F
100
AcDbEntity
  8
AM_0
100
AcDbLine
 10
1031.816604995235
 20
981.1038334844239
 30
0.0
 11
1031.816604995235
 21
974.1069069349514
 31
0.0
  0
ARC
  5
8E2
330
1F
100
AcDbEntity
  8
AM_0
100
AcDbCircle
 10
1031.316604995235
 20
974.1069069349514
 30
0.0
 40
0.5
100
AcDbArc
 50
315.0000000001476
 51
0.0
  0
LINE
  5
8E3
330
1F
100
AcDbEntity
  8
AM_0
100
AcDbLine
 10
1031.670158385827
 20
973.7533535443587
 30
0.0
 11
1031.255944823454
 21
973.3391399819856
 31
0.0
  0
ARC
  5
8E4
330
1F
100
AcDbEntity
  8
AM_0
100
AcDbCircle
 10
1032.316604995235
 20
972.2784798102047
 30
0.0
 40
1.500000000000091
100
AcDbArc
 50
135.0000000001476
 51
180.0
  0
LINE
  5
8E5
330
1F
100
AcDbEntity
  8
AM_4
100
AcDbLine
 10
1383.106984543789
 20
971.8249057332949
 30
0.0
 11
1031.112235524274
 21
971.8249057332949
 31
0.0
  0
LINE
  5
8E6
330
1F
100
AcDbEntity
  8
AM_0
100
AcDbLine
 10
1383.816604995235
 20
974.3998001537628
 30
0.0
 11
1384.816604995235
 21
974.3998001537628
 31
0.0
  0
LINE
  5
8E7
330
1F
100
AcDbEntity
  8
AM_0
100
AcDbLine
 10
1382.816604995235
 20
981.1038334844239
 30
0.0
 11
1382.816604995235
 21
974.1069069349476
 31
0.0
  0
ARC
  5
8E8
330
1F
100
AcDbEntity
  8
AM_0
100
AcDbCircle
 10
1384.316604995235
 20
974.1069069349514
 30
0.0
 40
1.500000000002728
100
AcDbArc
 50
180.0000000002084
 51
224.9999999998524
  0
LINE
  5
8E9
330
1F
100
AcDbEntity
  8
AM_0
100
AcDbLine
 10
1383.255944823454
 20
973.046246763174
 30
0.0
 11
1383.670158385827
 21
972.632033200797
 31
0.0
  0
ARC
  5
8EA
330
1F
100
AcDbEntity
  8
AM_0
100
AcDbCircle
 10
1383.316604995235
 20
972.2784798102047
 30
0.0
 40
0.4999999999996825
100
AcDbArc
 50
0.0
 51
45.00000000014715
  0
LINE
  5
8EB
330
1F
100
AcDbEntity
  8
AM_0
100
AcDbLine
 10
1383.816604995235
 20
981.1038334844239
 30
0.0
 11
1383.816604995235
 21
974.1069069349514
 31
0.0
  0
ARC
  5
8EC
330
1F
100
AcDbEntity
  8
AM_0
100
AcDbCircle
 10
1384.316604995235
 20
974.1069069349514
 30
0.0
 40
0.5
100
AcDbArc
 50
180.0
 51
224.9999999998524
  0
LINE
  5
8ED
330
1F
100
AcDbEntity
  8
AM_0
100
AcDbLine
 10
1383.963051604639
 20
973.7533535443587
 30
0.0
 11
1384.377265167016
 21
973.3391399819856
 31
0.0
  0
ARC
  5
8EE
330
1F
100
AcDbEntity
  8
AM_0
100
AcDbCircle
 10
1383.316604995235
 20
972.2784798102047
 30
0.0
 40
1.500000000000091
100
AcDbArc
 50
0.0
 51
44.99999999985237
  0
LINE
  5
8EF
330
1F
100
AcDbEntity
  8
AM_7
100
AcDbLine
 10
1207.816604995235
 20
861.1432069772249
 30
0.0
 11
1207.816604995231
 21
981.1038334844239
 31
0.0
1001
GENIUS_GENOBJ-N-CEN_13
1002
{
1000
OWNER
1000
GEN
1002
}
1001
GENIUS_GENODEF_13
1002
{
1000
HIER
1070
     0
1002
}
1002
{
1000
MANEDIT
1070
     0
1002
}
1002
{
1000
NOSEL
1070
     0
1002
}
1002
{
1000
BEHIND
1070
     0
1002
}
1002
{
1000
OTHER
1070
     0
1002
}
1002
{
1000
REACTOR
1002
}
  0
LINE
  5
8F0
330
1F
100
AcDbEntity
  8
0
100
AcDbLine
 10
1031.816604995235
 20
974.3998001537628
 30
0.0
 11
1031.816604995235
 21
1012.21112683702
 31
0.0
  0
LINE
  5
8F1
330
1F
100
AcDbEntity
  8
0
100
AcDbLine
 10
1031.816604995235
 20
1176.896873032579
 30
0.0
 11
1031.816604995235
 21
1505.014078456724
 31
0.0
  0
LINE
  5
8F2
330
1F
100
AcDbEntity
  8
0
100
AcDbLine
 10
1383.816604995235
 20
1505.014078456724
 30
0.0
 11
1383.816604995235
 21
1176.977201998045
 31
0.0
  0
LINE
  5
8F3
330
1F
100
AcDbEntity
  8
0
100
AcDbLine
 10
1383.816604995235
 20
1012.130797871566
 30
0.0
 11
1383.816604995235
 21
974.482513140866
 31
0.0
  0
LINE
  5
94E
330
1F
100
AcDbEntity
  8
AM_7
100
AcDbLine
 10
2107.816604995233
 20
1080.866875601845
 30
0.0
 11
2311.809415062891
 21
1080.866875601845
 31
0.0
1001
GENIUS_GENOREF_13
1005
B29
  0
LINE
  5
94F
330
1F
100
AcDbEntity
  8
AM_7
100
AcDbLine
 10
2107.816604995233
 20
1080.866875601845
 30
0.0
 11
2107.816604995233
 21
1284.859685669504
 31
0.0
1001
GENIUS_GENOREF_13
1005
B29
  0
LINE
  5
950
330
1F
100
AcDbEntity
  8
AM_7
100
AcDbLine
 10
2107.816604995233
 20
1080.866875601845
 30
0.0
 11
1903.823794927573
 21
1080.866875601845
 31
0.0
1001
GENIUS_GENOREF_13
1005
B29
  0
LINE
  5
951
330
1F
100
AcDbEntity
  8
AM_7
100
AcDbLine
 10
2107.816604995233
 20
1080.866875601845
 30
0.0
 11
2107.816604995233
 21
876.8740655341867
 31
0.0
1001
GENIUS_GENOREF_13
1005
B29
  0
CIRCLE
  5
952
330
1F
100
AcDbEntity
  8
0
100
AcDbCircle
 10
2107.816604995233
 20
1080.866875601845
 30
0.0
 40
177.0
  0
LINE
  5
953
102
{ACAD_REACTORS
330
13D7
102
}
330
1F
100
AcDbEntity
  8
0
100
AcDbLine
 10
2370.316604995236
 20
1165.016875601845
 30
0.0
 11
2370.316604995236
 21
996.716875601845
 31
0.0
  0
LINE
  5
954
330
1F
100
AcDbEntity
  8
0
100
AcDbLine
 10
2370.316604995236
 20
1165.016875601845
 30
0.0
 11
2263.533583838262
 21
1165.016875601845
 31
0.0
  0
LINE
  5
955
330
1F
100
AcDbEntity
  8
AM_3
100
AcDbLine
 10
2370.316604995236
 20
1160.516875601845
 30
0.0
 11
2265.882659225734
 21
1160.516875601845
 31
0.0
  0
LINE
  5
956
330
1F
100
AcDbEntity
  8
0
100
AcDbLine
 10
2370.316604995236
 20
996.716875601845
 30
0.0
 11
2263.533583838262
 21
996.716875601845
 31
0.0
  0
LINE
  5
957
330
1F
100
AcDbEntity
  8
AM_3
100
AcDbLine
 10
2370.316604995236
 20
1001.216875601845
 30
0.0
 11
2265.882659225734
 21
1001.216875601844
 31
0.0
  0
LINE
  5
958
330
1F
100
AcDbEntity
  8
AM_7
100
AcDbLine
 10
2385.316604995236
 20
1080.866875601845
 30
0.0
 11
2254.816604995236
 21
1080.866875601845
 31
0.0
1001
GENIUS_GENOBJ-N-CEN_13
1002
{
1000
OWNER
1000
GEN
1002
}
1001
GENIUS_GENODEF_13
1002
{
1000
HIER
1070
     0
1002
}
1002
{
1000
MANEDIT
1070
     0
1002
}
1002
{
1000
NOSEL
1070
     0
1002
}
1002
{
1000
BEHIND
1070
     0
1002
}
1002
{
1000
OTHER
1070
     0
1002
}
1002
{
1000
REACTOR
1002
}
1001
GENIUS_GENCEN_19
1002
{
1040
15.0
1002
}
  0
LINE
  5
959
102
{ACAD_REACTORS
330
13D7
102
}
330
1F
100
AcDbEntity
  8
0
100
AcDbLine
 10
1845.316604995236
 20
1165.016875601845
 30
0.0
 11
1845.316604995236
 21
996.716875601845
 31
0.0
  0
LINE
  5
95A
330
1F
100
AcDbEntity
  8
0
100
AcDbLine
 10
1845.316604995236
 20
1165.016875601845
 30
0.0
 11
1952.099626152203
 21
1165.016875601845
 31
0.0
  0
LINE
  5
95B
330
1F
100
AcDbEntity
  8
AM_3
100
AcDbLine
 10
1845.316604995236
 20
1160.516875601845
 30
0.0
 11
1949.750550764731
 21
1160.516875601845
 31
0.0
  0
LINE
  5
95C
330
1F
100
AcDbEntity
  8
0
100
AcDbLine
 10
1845.316604995236
 20
996.716875601845
 30
0.0
 11
1952.099626152203
 21
996.7168756018445
 31
0.0
  0
LINE
  5
95D
330
1F
100
AcDbEntity
  8
AM_3
100
AcDbLine
 10
1845.316604995236
 20
1001.216875601845
 30
0.0
 11
1949.750550764731
 21
1001.216875601844
 31
0.0
  0
LINE
  5
95E
330
1F
100
AcDbEntity
  8
AM_7
100
AcDbLine
 10
1830.316604995236
 20
1080.866875601845
 30
0.0
 11
1960.816604995236
 21
1080.866875601845
 31
0.0
1001
GENIUS_GENOBJ-N-CEN_13
1002
{
1000
OWNER
1000
GEN
1002
}
1001
GENIUS_GENODEF_13
1002
{
1000
HIER
1070
     0
1002
}
1002
{
1000
MANEDIT
1070
     0
1002
}
1002
{
1000
NOSEL
1070
     0
1002
}
1002
{
1000
BEHIND
1070
     0
1002
}
1002
{
1000
OTHER
1070
     0
1002
}
1002
{
1000
REACTOR
1002
}
1001
GENIUS_GENCEN_19
1002
{
1040
15.0
1002
}
  0
DIMENSION
  5
9D0
330
1F
100
AcDbEntity
  8
AM_5
100
AcDbDimension
  2
*D10
 10
1384.816604995064
 20
1226.903999934852
 30
0.0
 11
1258.363248725301
 21
1226.903999934852
 31
0.0
 70
   160
  1
(%%c<>)
 71
     5
 42
353.9999999998327
  3
AM_DIN$0
100
AcDbAlignedDimension
 13
1030.816604995231
 23
1178.703999934787
 33
0.0
 14
1384.816604995064
 24
1178.703999934849
 34
0.0
100
AcDbRotatedDimension
1001
ACAD
1000
DSTYLE
1002
{
1070
    40
1040
5.0
1002
}
  0
DIMENSION
  5
9D2
330
1F
100
AcDbEntity
  8
AM_5
100
AcDbDimension
  2
*D12
 10
899.1584085032839
 20
1178.703999934852
 30
0.0
 11
899.1584085032839
 21
1108.858006195966
 31
0.0
 70
   160
  1
(%%c<>)
 71
     5
 42
168.3000000000004
  3
AM_DIN$0
100
AcDbAlignedDimension
 13
945.3166049950675
 23
1010.403999934852
 33
0.0
 14
945.3166049950675
 24
1178.703999934852
 34
0.0
 50
90.0
100
AcDbRotatedDimension
1001
ACAD
1000
DSTYLE
1002
{
1070
    40
1040
5.0
1002
}
  0
LINE
  5
9DE
330
1F
100
AcDbEntity
  8
AM_7
100
AcDbLine
 10
1207.816604995235
 20
894.5539999348529
 30
0.0
 11
1207.816604995231
 21
1482.365603400799
 31
0.0
1001
GENIUS_GENODEF_13
1002
{
1000
HIER
1070
     0
1002
}
1002
{
1000
MANEDIT
1070
     0
1002
}
1002
{
1000
NOSEL
1070
     0
1002
}
1002
{
1000
BEHIND
1070
     0
1002
}
1002
{
1000
OTHER
1070
     0
1002
}
1002
{
1000
REACTOR
1002
}
1001
GENIUS_GENOBJ-N-CEN_13
1002
{
1000
OWNER
1000
GEN
1002
}
1001
GENIUS_GENCEN_19
1002
{
1040
15.0
1002
}
  0
ARC
  5
9E1
330
1F
100
AcDbEntity
  8
0
100
AcDbCircle
 10
880.8797299952248
 20
1094.553999934799
 30
0.0
 40
171.9368749999994
100
AcDbArc
 50
330.6972828563667
 51
29.30271714363324
  0
ARC
  5
9E2
330
1F
100
AcDbEntity
  8
0
100
AcDbCircle
 10
1528.1357358176
 20
1094.553999934805
 30
0.0
 40
166.1974601481028
100
AcDbArc
 50
149.5806232419868
 51
210.4193767580351
  0
LINE
  5
9E3
330
1F
100
AcDbEntity
  8
UMRISS05
100
AcDbLine
 10
1060.31379287427
 20
1563.534345567087
 30
0.0
 11
1060.31379287427
 21
1605.382733557005
 31
0.0
  0
LINE
  5
9E4
330
1F
100
AcDbEntity
  8
UMRISS05
100
AcDbLine
 10
1125.3194171162
 20
1580.684600893763
 30
0.0
 11
1125.3194171162
 21
1605.382735169175
 31
0.0
  0
CIRCLE
  5
9E5
330
1F
100
AcDbEntity
  8
UMRISS05
100
AcDbCircle
 10
1092.816604995235
 20
1605.382732880667
 30
0.0
 40
15.0
  0
ARC
  5
9E6
330
1F
100
AcDbEntity
  8
UMRISS05
100
AcDbCircle
 10
1092.816604995235
 20
1605.382732880667
 30
0.0
 40
32.5
100
AcDbArc
 50
0.0
 51
180.0
  0
LINE
  5
9E7
330
1F
100
AcDbEntity
  8
UMRISS05
100
AcDbLine
 10
1060.943202396823
 20
1563.051382653944
 30
0.0
 11
1124.94882663875
 21
1580.201637980618
 31
0.0
  0
ARC
  5
9E8
330
1F
100
AcDbEntity
  8
UMRISS05
100
AcDbCircle
 10
1060.81379287427
 20
1563.534345567087
 30
0.0
 40
0.5
100
AcDbArc
 50
180.0
 51
284.9999999999944
  0
ARC
  5
9E9
330
1F
100
AcDbEntity
  8
UMRISS05
100
AcDbCircle
 10
1124.8194171162
 20
1580.684600893763
 30
0.0
 40
0.5
100
AcDbArc
 50
284.9999999999944
 51
0.0
  0
LINE
  5
9EA
330
1F
100
AcDbEntity
  8
AM_7
  6
AM_DIN_G_W050x2
100
AcDbLine
 10
1092.816604995235
 20
1605.382732880667
 30
0.0
 11
1122.816604995235
 21
1605.382732880667
 31
0.0
1001
GENIUS_GENOREF_13
1005
B28
  0
LINE
  5
9EB
330
1F
100
AcDbEntity
  8
AM_7
  6
AM_DIN_G_W050x2
100
AcDbLine
 10
1092.816604995235
 20
1605.382732880667
 30
0.0
 11
1092.816604995235
 21
1635.382732880667
 31
0.0
1001
GENIUS_GENOREF_13
1005
B28
  0
LINE
  5
9EC
330
1F
100
AcDbEntity
  8
AM_7
  6
AM_DIN_G_W050x2
100
AcDbLine
 10
1092.816604995235
 20
1605.382732880667
 30
0.0
 11
1062.816604995235
 21
1605.382732880667
 31
0.0
1001
GENIUS_GENOREF_13
1005
B28
  0
LINE
  5
9ED
330
1F
100
AcDbEntity
  8
AM_7
  6
AM_DIN_G_W050x2
100
AcDbLine
 10
1092.816604995235
 20
1605.382732880667
 30
0.0
 11
1092.816604995235
 21
1575.382732880667
 31
0.0
1001
GENIUS_GENOREF_13
1005
B28
  0
LINE
  5
9EE
330
1F
100
AcDbEntity
  8
UMRISS05
100
AcDbLine
 10
1355.3194171162
 20
1563.534345567096
 30
0.0
 11
1355.319417116197
 21
1605.382733557014
 31
0.0
  0
LINE
  5
9EF
330
1F
100
AcDbEntity
  8
UMRISS05
100
AcDbLine
 10
1290.31379287427
 20
1580.684600893767
 30
0.0
 11
1290.313792874266
 21
1605.38273516918
 31
0.0
  0
CIRCLE
  5
9F0
330
1F
100
AcDbEntity
  8
UMRISS05
100
AcDbCircle
 10
1322.816604995231
 20
1605.382732880674
 30
0.0
 40
15.0
  0
ARC
  5
9F1
330
1F
100
AcDbEntity
  8
UMRISS05
100
AcDbCircle
 10
1322.816604995231
 20
1605.382732880674
 30
0.0
 40
32.5
100
AcDbArc
 50
0.0
 51
180.0
  0
LINE
  5
9F2
330
1F
100
AcDbEntity
  8
UMRISS05
100
AcDbLine
 10
1354.690007593647
 20
1563.051382653952
 30
0.0
 11
1290.68438335172
 21
1580.201637980624
 31
0.0
  0
ARC
  5
9F3
330
1F
100
AcDbEntity
  8
UMRISS05
100
AcDbCircle
 10
1354.8194171162
 20
1563.534345567096
 30
0.0
 40
0.5
100
AcDbArc
 50
255.0000000002213
 51
0.0
  0
ARC
  5
9F4
330
1F
100
AcDbEntity
  8
UMRISS05
100
AcDbCircle
 10
1290.81379287427
 20
1580.684600893767
 30
0.0
 40
0.5
100
AcDbArc
 50
180.0
 51
255.0000000002213
  0
LINE
  5
9F5
330
1F
100
AcDbEntity
  8
AM_7
  6
AM_DIN_G_W050x2
100
AcDbLine
 10
1322.816604995231
 20
1605.382732880674
 30
0.0
 11
1292.816604995231
 21
1605.382732880672
 31
0.0
1001
GENIUS_GENOREF_13
1005
B27
  0
LINE
  5
9F6
330
1F
100
AcDbEntity
  8
AM_7
  6
AM_DIN_G_W050x2
100
AcDbLine
 10
1322.816604995231
 20
1605.382732880674
 30
0.0
 11
1322.816604995231
 21
1635.382732880674
 31
0.0
1001
GENIUS_GENOREF_13
1005
B27
  0
LINE
  5
9F7
330
1F
100
AcDbEntity
  8
AM_7
  6
AM_DIN_G_W050x2
100
AcDbLine
 10
1322.816604995231
 20
1605.382732880674
 30
0.0
 11
1352.816604995231
 21
1605.382732880676
 31
0.0
1001
GENIUS_GENOREF_13
1005
B27
  0
LINE
  5
9F8
330
1F
100
AcDbEntity
  8
AM_7
  6
AM_DIN_G_W050x2
100
AcDbLine
 10
1322.816604995231
 20
1605.382732880674
 30
0.0
 11
1322.816604995235
 21
1575.382732880674
 31
0.0
1001
GENIUS_GENOREF_13
1005
B27
  0
LINE
  5
A45
330
1F
100
AcDbEntity
  8
0
100
AcDbLine
 10
1188.816604995071
 20
1605.859878675635
 30
0.0
 11
1226.816604995071
 21
1605.859878675635
 31
0.0
  0
LINE
  5
A46
330
1F
100
AcDbEntity
  8
0
100
AcDbLine
 10
1226.816604995075
 20
1605.859878675635
 30
0.0
 11
1226.816604995075
 21
1584.859878675635
 31
0.0
  0
LINE
  5
A47
330
1F
100
AcDbEntity
  8
0
100
AcDbLine
 10
1226.816604995071
 20
1584.859878675635
 30
0.0
 11
1188.816604995071
 21
1584.859878675635
 31
0.0
  0
LINE
  5
A48
330
1F
100
AcDbEntity
  8
0
100
AcDbLine
 10
1188.816604995075
 20
1584.859878675635
 30
0.0
 11
1188.816604995075
 21
1605.859878675635
 31
0.0
  0
LINE
  5
A53
330
1F
100
AcDbEntity
  8
0
100
AcDbLine
 10
1188.816604995071
 20
894.553999934852
 30
0.0
 11
1226.816604995071
 21
894.553999934852
 31
0.0
  0
LINE
  5
A54
330
1F
100
AcDbEntity
  8
0
100
AcDbLine
 10
1226.816604995075
 20
894.553999934852
 30
0.0
 11
1226.816604995075
 21
873.5539999348517
 31
0.0
  0
LINE
  5
A55
330
1F
100
AcDbEntity
  8
0
100
AcDbLine
 10
1226.816604995071
 20
873.5539999348517
 30
0.0
 11
1188.816604995071
 21
873.5539999348517
 31
0.0
  0
LINE
  5
A56
330
1F
100
AcDbEntity
  8
0
100
AcDbLine
 10
1188.816604995075
 20
873.5539999348517
 30
0.0
 11
1188.816604995075
 21
894.553999934852
 31
0.0
  0
POINT
  5
B27
330
1F
100
AcDbEntity
  8
0
 60
     1
100
AcDbPoint
 10
19549.80737275852
 20
-523.2710689611267
 30
0.0
 50
180.0000000000032
1001
GENIUS_GENOLIS_13
1002
{
1000
ENT
1005
9F8
1005
9F7
1005
9F6
1005
9F5
1002
}
1001
GENIUS_GENOENT_13
1002
{
1000
MYREF
1005
B27
1002
}
1002
{
1000
GRP
1005
0
1002
}
1001
GENIUS_GENOBJ-N-CRS_13
1002
{
1000
OWNER
1000
GEN
1002
}
1001
GENIUS_GENODEF_13
1002
{
1000
HIER
1070
    10
1002
}
1002
{
1000
MANEDIT
1070
     0
1002
}
1002
{
1000
NOSEL
1070
     0
1002
}
1002
{
1000
BEHIND
1070
     0
1002
}
1002
{
1000
OTHER
1070
     0
1002
}
1002
{
1000
REACTOR
1002
}
  0
POINT
  5
B28
330
1F
100
AcDbEntity
  8
0
 60
     1
100
AcDbPoint
 10
-18187.29118161659
 20
-523.2710689622116
 30
0.0
1001
GENIUS_GENOLIS_13
1002
{
1000
ENT
1005
9ED
1005
9EC
1005
9EB
1005
9EA
1002
}
1001
GENIUS_GENOENT_13
1002
{
1000
MYREF
1005
B28
1002
}
1002
{
1000
GRP
1005
0
1002
}
1001
GENIUS_GENOBJ-N-CRS_13
1002
{
1000
OWNER
1000
GEN
1002
}
1001
GENIUS_GENODEF_13
1002
{
1000
HIER
1070
    10
1002
}
1002
{
1000
MANEDIT
1070
     0
1002
}
1002
{
1000
NOSEL
1070
     0
1002
}
1002
{
1000
BEHIND
1070
     0
1002
}
1002
{
1000
OTHER
1070
     0
1002
}
1002
{
1000
REACTOR
1002
}
  0
POINT
  5
B29
330
1F
100
AcDbEntity
  8
0
 60
     1
100
AcDbPoint
 10
-14556.57006466
 20
-3056.37755303572
 30
0.0
1001
GENIUS_GENOBJ-N-CRS_13
1002
{
1000
OWNER
1000
GEN
1002
}
1001
GENIUS_GENOENT_13
1002
{
1000
MYREF
1005
B29
1002
}
1002
{
1000
GRP
1005
0
1002
}
1001
GENIUS_GENOLIS_13
1002
{
1000
ENT
1005
951
1005
950
1005
94F
1005
94E
1002
}
1001
GENIUS_GENODEF_13
1002
{
1000
HIER
1070
    10
1002
}
1002
{
1000
MANEDIT
1070
     0
1002
}
1002
{
1000
NOSEL
1070
     0
1002
}
1002
{
1000
BEHIND
1070
     0
1002
}
1002
{
1000
OTHER
1070
     0
1002
}
1002
{
1000
REACTOR
1002
}
  0
POINT
  5
B2A
330
1F
100
AcDbEntity
  8
0
 60
     1
100
AcDbPoint
 10
-4226.646191673233
 20
-5552.147551946597
 30
0.0
1001
GENIUS_GENOLIS_13
1002
{
1000
ENT
1005
844
1005
843
1002
}
1001
GENIUS_GENOENT_13
1002
{
1000
MYREF
1005
B2A
1002
}
1002
{
1000
GRP
1005
0
1002
}
1001
GENIUS_GENOBJ-N-TIT_13
1002
{
1000
OWNER
1000
GEN
1002
}
1001
GENIUS_GENTITLE_13
1002
{
1000
BORDER
1000
DIN_A2
1002
}
1002
{
1000
TITLE
1000
G:\Umgebung_ACAD\MDT2007\Reflex\Dwg\Title\REFLEX_EDBTITLE
1002
}
1002
{
1000
SCALE
1000
1:5
1002
}
1002
{
1000
TITLESTD
1000
DIN
1002
}
1002
{
1000
HRA
1005
843
1002
}
1002
{
1000
HTIT
1005
844
1002
}
1002
{
1000
INVTXTID
1005
0
1002
}
1002
{
1000
UNCHG
1002
{
1000
GEN-TITLE-SIZ
1000
GEN-TITLE-SCA
1002
}
1002
}
1002
{
1000
GENIUSID
1005
B2A
1002
}
1001
GENIUS_GENODEF_13
1002
{
1000
HIER
1070
     1
1002
}
1002
{
1000
MANEDIT
1070
     1
1002
}
1002
{
1000
NOSEL
1070
     0
1002
}
1002
{
1000
BEHIND
1070
     0
1002
}
1002
{
1000
OTHER
1070
     0
1002
}
1002
{
1000
REACTOR
1002
}
  0
LINE
  5
F6D
330
1F
100
AcDbEntity
  8
0
  6
DASHDOT
 62
     7
 48
0.417
100
AcDbLine
 10
2155.206604995232
 20
1080.866875601845
 30
0.0
 11
2138.526596995232
 21
1080.866875601845
 31
0.0
  0
LINE
  5
F6E
330
1F
100
AcDbEntity
  8
0
  6
DASHDOT
 62
     7
100
AcDbLine
 10
2104.626602995233
 20
1080.866875601845
 30
0.0
 11
2142.906601995233
 21
1080.866875601845
 31
0.0
  0
LINE
  5
F6F
330
1F
100
AcDbEntity
  8
0
 62
     7
 48
0.195775
100
AcDbLine
 10
2153.816604995232
 20
1080.866875601845
 30
0.0
 11
2153.816604995232
 21
1073.035874601845
 31
0.0
  0
LINE
  5
F70
330
1F
100
AcDbEntity
  8
0
 62
     7
 48
0.208275
100
AcDbLine
 10
2153.316604995232
 20
1080.866875601845
 30
0.0
 11
2153.316604995232
 21
1072.535874601845
 31
0.0
  0
LINE
  5
F71
330
1F
100
AcDbEntity
  8
0
 62
     7
 48
0.195775
100
AcDbLine
 10
2153.816604995232
 20
1088.697876601845
 30
0.0
 11
2153.816604995232
 21
1080.866875601845
 31
0.0
  0
LINE
  5
F72
330
1F
100
AcDbEntity
  8
0
 62
     7
 48
0.208275
100
AcDbLine
 10
2153.316604995232
 20
1089.197876601845
 30
0.0
 11
2153.316604995232
 21
1080.866875601845
 31
0.0
  0
LINE
  5
F73
330
1F
100
AcDbEntity
  8
0
 62
     7
 48
0.017678
100
AcDbLine
 10
2153.816604995232
 20
1073.035874601845
 30
0.0
 11
2153.316604995232
 21
1072.535874601845
 31
0.0
  0
LINE
  5
F74
330
1F
100
AcDbEntity
  8
0
 62
     7
 48
0.017678
100
AcDbLine
 10
2153.816604995232
 20
1088.697876601845
 30
0.0
 11
2153.316604995232
 21
1089.197876601845
 31
0.0
  0
LINE
  5
F75
330
1F
100
AcDbEntity
  8
0
 62
     7
 48
0.0125
100
AcDbLine
 10
2153.316604995232
 20
1072.535874601845
 30
0.0
 11
2152.816604995233
 21
1072.535874601845
 31
0.0
  0
LINE
  5
F76
330
1F
100
AcDbEntity
  8
0
 62
     7
 48
0.0125
100
AcDbLine
 10
2153.316604995232
 20
1089.197876601845
 30
0.0
 11
2152.816604995233
 21
1089.197876601845
 31
0.0
  0
LINE
  5
F77
330
1F
100
AcDbEntity
  8
0
 62
     7
 48
0.0125
100
AcDbLine
 10
2153.816604995232
 20
1073.391877601845
 30
0.0
 11
2153.316604995232
 21
1073.391877601845
 31
0.0
  0
LINE
  5
F78
330
1F
100
AcDbEntity
  8
0
 62
     7
 48
0.0125
100
AcDbLine
 10
2153.316604995232
 20
1073.391877601845
 30
0.0
 11
2152.816604995233
 21
1073.391877601845
 31
0.0
  0
LINE
  5
F79
330
1F
100
AcDbEntity
  8
0
 62
     7
 48
0.0125
100
AcDbLine
 10
2153.816604995232
 20
1088.341873601845
 30
0.0
 11
2153.316604995232
 21
1088.341873601845
 31
0.0
  0
LINE
  5
F7A
330
1F
100
AcDbEntity
  8
0
 62
     7
 48
0.0125
100
AcDbLine
 10
2153.316604995232
 20
1088.341873601845
 30
0.0
 11
2152.816604995233
 21
1088.341873601845
 31
0.0
  0
LINE
  5
F7B
330
1F
100
AcDbEntity
  8
0
 62
     7
 48
0.473875
100
AcDbLine
 10
2152.816604995233
 20
1071.389374601845
 30
0.0
 11
2152.816604995233
 21
1090.344376601845
 31
0.0
  0
LINE
  5
F7C
330
1F
100
AcDbEntity
  8
0
 62
     7
 48
0.035355
100
AcDbLine
 10
2151.816604995233
 20
1070.389374601846
 30
0.0
 11
2152.816604995233
 21
1071.389374601845
 31
0.0
  0
LINE
  5
F7D
330
1F
100
AcDbEntity
  8
0
 62
     7
 48
0.035355
100
AcDbLine
 10
2151.816604995233
 20
1091.344376601845
 30
0.0
 11
2152.816604995233
 21
1090.344376601845
 31
0.0
  0
LINE
  5
F7E
330
1F
100
AcDbEntity
  8
0
 62
     7
100
AcDbLine
 10
2151.816604995233
 20
1070.389374601846
 30
0.0
 11
2151.816604995233
 21
1091.344376601845
 31
0.0
  0
POLYLINE
  5
F7F
330
1F
100
AcDbEntity
  8
0
 62
     7
100
AcDb2dPolyline
 66
     1
 10
0.0
 20
0.0
 30
0.0
  0
VERTEX
  5
F80
330
F7F
100
AcDbEntity
  8
0
100
AcDbVertex
100
AcDb2dVertex
 10
2107.816604995233
 20
1090.826165601845
 30
0.0
  0
VERTEX
  5
F81
330
F7F
100
AcDbEntity
  8
0
100
AcDbVertex
100
AcDb2dVertex
 10
2108.582779995233
 20
1091.112206601845
 30
0.0
  0
VERTEX
  5
F82
330
F7F
100
AcDbEntity
  8
0
100
AcDbVertex
100
AcDb2dVertex
 10
2110.174804995233
 20
1091.599572601845
 30
0.0
  0
VERTEX
  5
F83
330
F7F
100
AcDbEntity
  8
0
100
AcDbVertex
100
AcDb2dVertex
 10
2111.631424995233
 20
1091.932785601845
 30
0.0
  0
VERTEX
  5
F84
330
F7F
100
AcDbEntity
  8
0
100
AcDbVertex
100
AcDb2dVertex
 10
2113.124679995233
 20
1092.172737601845
 30
0.0
  0
VERTEX
  5
F85
330
F7F
100
AcDbEntity
  8
0
100
AcDbVertex
100
AcDb2dVertex
 10
2114.646148995232
 20
1092.318001601846
 30
0.0
  0
VERTEX
  5
F86
330
F7F
100
AcDbEntity
  8
0
100
AcDbVertex
100
AcDb2dVertex
 10
2116.188186995233
 20
1092.366875601845
 30
0.0
  0
SEQEND
  5
F87
330
F7F
100
AcDbEntity
  8
0
  0
POLYLINE
  5
F88
330
1F
100
AcDbEntity
  8
0
 62
     7
100
AcDb2dPolyline
 66
     1
 10
0.0
 20
0.0
 30
0.0
  0
VERTEX
  5
F89
330
F88
100
AcDbEntity
  8
0
100
AcDbVertex
100
AcDb2dVertex
 10
2107.816604995233
 20
1090.826165601845
 30
0.0
  0
VERTEX
  5
F8A
330
F88
100
AcDbEntity
  8
0
100
AcDbVertex
100
AcDb2dVertex
 10
2108.429016995232
 20
1091.191445601845
 30
0.0
  0
VERTEX
  5
F8B
330
F88
100
AcDbEntity
  8
0
100
AcDbVertex
100
AcDb2dVertex
 10
2109.396881995233
 20
1091.689255601845
 30
0.0
  0
VERTEX
  5
F8C
330
F88
100
AcDbEntity
  8
0
100
AcDbVertex
100
AcDb2dVertex
 10
2110.412872995234
 20
1092.120713601845
 30
0.0
  0
VERTEX
  5
F8D
330
F88
100
AcDbEntity
  8
0
100
AcDbVertex
100
AcDb2dVertex
 10
2111.846786995232
 20
1092.590164601845
 30
0.0
  0
VERTEX
  5
F8E
330
F88
100
AcDbEntity
  8
0
100
AcDbVertex
100
AcDb2dVertex
 10
2113.343429995232
 20
1092.924546601845
 30
0.0
  0
VERTEX
  5
F8F
330
F88
100
AcDbEntity
  8
0
100
AcDbVertex
100
AcDb2dVertex
 10
2114.889145995233
 20
1093.116875601845
 30
0.0
  0
SEQEND
  5
F90
330
F88
100
AcDbEntity
  8
0
  0
LINE
  5
F91
330
1F
100
AcDbEntity
  8
0
 62
     7
 48
0.248982
100
AcDbLine
 10
2107.816604995233
 20
1080.866875601845
 30
0.0
 11
2107.816604995233
 21
1090.826165601845
 31
0.0
  0
ARC
  5
F92
330
1F
100
AcDbEntity
  8
0
 62
     7
100
AcDbCircle
 10
2107.816604995233
 20
1080.866875601845
 30
0.0
 40
9.959291999999999
100
AcDbArc
 50
90.00000299999769
 51
269.9999970000023
  0
POLYLINE
  5
F93
330
1F
100
AcDbEntity
  8
0
 62
     7
100
AcDb2dPolyline
 66
     1
 10
0.0
 20
0.0
 30
0.0
  0
VERTEX
  5
F94
330
F93
100
AcDbEntity
  8
0
100
AcDbVertex
100
AcDb2dVertex
 10
2116.188171995232
 20
1069.366875601845
 30
0.0
  0
VERTEX
  5
F95
330
F93
100
AcDbEntity
  8
0
100
AcDbVertex
100
AcDb2dVertex
 10
2114.427993995233
 20
1069.430603601845
 30
0.0
  0
VERTEX
  5
F96
330
F93
100
AcDbEntity
  8
0
100
AcDbVertex
100
AcDb2dVertex
 10
2112.695953995233
 20
1069.619812601845
 30
0.0
  0
VERTEX
  5
F97
330
F93
100
AcDbEntity
  8
0
100
AcDbVertex
100
AcDb2dVertex
 10
2111.003784995233
 20
1069.932068601846
 30
0.0
  0
VERTEX
  5
F98
330
F93
100
AcDbEntity
  8
0
100
AcDbVertex
100
AcDb2dVertex
 10
2109.364639995233
 20
1070.365235601845
 30
0.0
  0
VERTEX
  5
F99
330
F93
100
AcDbEntity
  8
0
100
AcDbVertex
100
AcDb2dVertex
 10
2107.816604995233
 20
1070.907585601845
 30
0.0
  0
SEQEND
  5
F9A
330
F93
100
AcDbEntity
  8
0
  0
POLYLINE
  5
F9B
330
1F
100
AcDbEntity
  8
0
 62
     7
100
AcDb2dPolyline
 66
     1
 10
0.0
 20
0.0
 30
0.0
  0
VERTEX
  5
F9C
330
F9B
100
AcDbEntity
  8
0
100
AcDbVertex
100
AcDb2dVertex
 10
2114.889160995232
 20
1068.616890601845
 30
0.0
  0
VERTEX
  5
F9D
330
F9B
100
AcDbEntity
  8
0
100
AcDbVertex
100
AcDb2dVertex
 10
2113.345382995234
 20
1068.808869601845
 30
0.0
  0
VERTEX
  5
F9E
330
F9B
100
AcDbEntity
  8
0
100
AcDbVertex
100
AcDb2dVertex
 10
2111.850509995234
 20
1069.142563601846
 30
0.0
  0
VERTEX
  5
F9F
330
F9B
100
AcDbEntity
  8
0
100
AcDbVertex
100
AcDb2dVertex
 10
2110.418152995233
 20
1069.611016601845
 30
0.0
  0
VERTEX
  5
FA0
330
F9B
100
AcDbEntity
  8
0
100
AcDbVertex
100
AcDb2dVertex
 10
2109.062652995232
 20
1070.206330601845
 30
0.0
  0
VERTEX
  5
FA1
330
F9B
100
AcDbEntity
  8
0
100
AcDbVertex
100
AcDb2dVertex
 10
2108.116912995233
 20
1070.723313601845
 30
0.0
  0
VERTEX
  5
FA2
330
F9B
100
AcDbEntity
  8
0
100
AcDbVertex
100
AcDb2dVertex
 10
2107.816604995233
 20
1070.907585601845
 30
0.0
  0
SEQEND
  5
FA3
330
F9B
100
AcDbEntity
  8
0
  0
ARC
  5
FA4
330
1F
100
AcDbEntity
  8
0
 62
     7
100
AcDbCircle
 10
2116.136200995234
 20
1084.803810601845
 30
0.0
 40
16.234334
100
AcDbArc
 50
265.594573000008
 51
288.0013370000046
  0
ARC
  5
FA5
330
1F
100
AcDbEntity
  8
0
 62
     7
100
AcDbCircle
 10
2116.136047995232
 20
1076.926644601845
 30
0.0
 40
16.237607
100
AcDbArc
 50
71.98811099999173
 51
94.40395800000123
  0
ARC
  5
FA6
330
1F
100
AcDbEntity
  8
0
 62
     7
100
AcDbCircle
 10
2107.816604995233
 20
1080.866875601845
 30
0.0
 40
24.866025
100
AcDbArc
 50
27.54711399999184
 51
331.3521099999948
  0
ARC
  5
FA7
330
1F
100
AcDbEntity
  8
0
 62
     7
100
AcDbCircle
 10
2107.816604995233
 20
1080.866875601845
 30
0.0
 40
24.866025
100
AcDbArc
 50
331.3521099999948
 51
332.4528110000084
  0
ARC
  5
FA8
330
1F
100
AcDbEntity
  8
0
 62
     7
100
AcDbCircle
 10
2107.816604995233
 20
1080.866875601845
 30
0.0
 40
31.5
100
AcDbArc
 50
21.41236000000111
 51
331.3521099999948
  0
ARC
  5
FA9
330
1F
100
AcDbEntity
  8
0
 62
     7
100
AcDbCircle
 10
2107.816604995233
 20
1080.866875601845
 30
0.0
 40
31.5
100
AcDbArc
 50
331.3521099999948
 51
338.58742499999
  0
ARC
  5
FAA
330
1F
100
AcDbEntity
  8
0
 62
     7
100
AcDbCircle
 10
2107.816604995233
 20
1080.866875601845
 30
0.0
 40
30.256725
100
AcDbArc
 50
22.33857799999473
 51
331.3521099999948
  0
ARC
  5
FAB
330
1F
100
AcDbEntity
  8
0
 62
     7
100
AcDbCircle
 10
2107.816604995233
 20
1080.866875601845
 30
0.0
 40
30.256725
100
AcDbArc
 50
331.3521099999948
 51
337.661202000001
  0
ARC
  5
FAC
330
1F
100
AcDbEntity
  8
0
 62
     7
100
AcDbCircle
 10
2107.816604995233
 20
1080.866875601845
 30
0.0
 40
26.243275
100
AcDbArc
 50
25.98944000001039
 51
334.0103040000017
  0
ARC
  5
FAD
330
1F
100
AcDbEntity
  8
0
 62
     7
100
AcDbCircle
 10
2107.816604995233
 20
1080.866875601845
 30
0.0
 40
25.0
100
AcDbArc
 50
27.38706900000419
 51
332.612854
  0
LINE
  5
FAE
330
1F
100
AcDbEntity
  8
0
 62
     7
 48
0.248982
100
AcDbLine
 10
2107.816604995233
 20
1080.866875601845
 30
0.0
 11
2107.816604995233
 21
1070.907585601845
 31
0.0
  0
LINE
  5
FAF
330
1F
100
AcDbEntity
  8
0
 62
     7
100
AcDbLine
 10
2139.716598995232
 20
1069.366875601845
 30
0.0
 11
2139.716598995232
 21
1092.366875601845
 31
0.0
  0
LINE
  5
FB0
330
1F
100
AcDbEntity
  8
0
 62
     7
100
AcDbLine
 10
2139.716598995232
 20
1069.366875601845
 30
0.0
 11
2116.188156995232
 21
1069.366875601845
 31
0.0
  0
LINE
  5
FB1
330
1F
100
AcDbEntity
  8
0
 62
     7
100
AcDbLine
 10
2139.716598995232
 20
1092.366875601845
 30
0.0
 11
2116.188186995233
 21
1092.366875601845
 31
0.0
  0
ARC
  5
FB2
330
1F
100
AcDbEntity
  8
0
 62
     7
100
AcDbCircle
 10
2139.716598995232
 20
1092.266877601846
 30
0.0
 40
0.1
100
AcDbArc
 50
0.0
 51
90.00000299999769
  0
ARC
  5
FB3
330
1F
100
AcDbEntity
  8
0
 62
     7
100
AcDbCircle
 10
2139.716598995232
 20
1069.466873601846
 30
0.0
 40
0.1
100
AcDbArc
 50
269.9999970000023
 51
0.0
  0
LINE
  5
FB4
330
1F
100
AcDbEntity
  8
0
 62
     7
100
AcDbLine
 10
2139.816604995233
 20
1069.466873601846
 30
0.0
 11
2139.816604995233
 21
1092.266877601846
 31
0.0
  0
LINE
  5
FB5
330
1F
100
AcDbEntity
  8
0
 62
     7
 48
0.2975
100
AcDbLine
 10
2139.916610995233
 20
1091.344376601845
 30
0.0
 11
2151.816604995233
 21
1091.344376601845
 31
0.0
  0
LINE
  5
FB6
330
1F
100
AcDbEntity
  8
0
 62
     7
 48
0.2975
100
AcDbLine
 10
2139.916610995233
 20
1070.389374601846
 30
0.0
 11
2151.816604995233
 21
1070.389374601846
 31
0.0
  0
LINE
  5
FB7
330
1F
100
AcDbEntity
  8
0
 62
     7
100
AcDbLine
 10
2139.916610995233
 20
1070.389374601846
 30
0.0
 11
2139.916610995233
 21
1091.344376601845
 31
0.0
  0
ARC
  5
FB8
330
1F
100
AcDbEntity
  8
0
 62
     7
100
AcDbCircle
 10
2139.916610995233
 20
1070.289376601845
 30
0.0
 40
0.1
100
AcDbArc
 50
90.00000299999769
 51
179.9999949999995
  0
ARC
  5
FB9
330
1F
100
AcDbEntity
  8
0
 62
     7
100
AcDbCircle
 10
2139.916610995233
 20
1091.444374601845
 30
0.0
 40
0.1
100
AcDbArc
 50
180.0000050000005
 51
269.9999970000023
  0
POLYLINE
  5
FBA
330
1F
100
AcDbEntity
  8
0
 62
     7
100
AcDb2dPolyline
 66
     1
 10
0.0
 20
0.0
 30
0.0
  0
VERTEX
  5
FBB
330
FBA
100
AcDbEntity
  8
0
100
AcDbVertex
100
AcDb2dVertex
 10
2108.454437995233
 20
1070.667168601846
 30
0.0
  0
VERTEX
  5
FBC
330
FBA
100
AcDbEntity
  8
0
100
AcDbVertex
100
AcDb2dVertex
 10
2108.432968995233
 20
1070.656868601846
 30
0.0
  0
VERTEX
  5
FBD
330
FBA
100
AcDbEntity
  8
0
100
AcDbVertex
100
AcDb2dVertex
 10
2108.411514995234
 20
1070.646302601846
 30
0.0
  0
VERTEX
  5
FBE
330
FBA
100
AcDbEntity
  8
0
100
AcDbVertex
100
AcDb2dVertex
 10
2108.390396995232
 20
1070.630272601845
 30
0.0
  0
VERTEX
  5
FBF
330
FBA
100
AcDbEntity
  8
0
100
AcDbVertex
100
AcDb2dVertex
 10
2108.368606995232
 20
1070.624329601845
 30
0.0
  0
VERTEX
  5
FC0
330
FBA
100
AcDbEntity
  8
0
100
AcDbVertex
100
AcDb2dVertex
 10
2108.291366995234
 20
1070.636360601845
 30
0.0
  0
VERTEX
  5
FC1
330
FBA
100
AcDbEntity
  8
0
100
AcDbVertex
100
AcDb2dVertex
 10
2108.149368995233
 20
1070.728928601845
 30
0.0
  0
VERTEX
  5
FC2
330
FBA
100
AcDbEntity
  8
0
100
AcDbVertex
100
AcDb2dVertex
 10
2107.980621995233
 20
1070.822258601845
 30
0.0
  0
VERTEX
  5
FC3
330
FBA
100
AcDbEntity
  8
0
100
AcDbVertex
100
AcDb2dVertex
 10
2107.816604995233
 20
1070.907585601845
 30
0.0
  0
SEQEND
  5
FC4
330
FBA
100
AcDbEntity
  8
0
  0
LINE
  5
FC5
330
1F
100
AcDbEntity
  8
0
 62
     7
 48
0.0025
100
AcDbLine
 10
2139.816604995233
 20
1090.182373601846
 30
0.0
 11
2139.916610995233
 21
1090.182373601846
 31
0.0
  0
LINE
  5
FC6
330
1F
100
AcDbEntity
  8
0
 62
     7
 48
0.2975
100
AcDbLine
 10
2139.916610995233
 20
1090.182373601846
 30
0.0
 11
2151.816604995233
 21
1090.182373601846
 31
0.0
  0
LINE
  5
FC7
330
1F
100
AcDbEntity
  8
0
 62
     7
 48
0.025
100
AcDbLine
 10
2151.816604995233
 20
1090.182373601846
 30
0.0
 11
2152.816604995233
 21
1090.182373601846
 31
0.0
  0
LINE
  5
FC8
330
1F
100
AcDbEntity
  8
0
 62
     7
 48
0.0025
100
AcDbLine
 10
2139.816604995233
 20
1071.551377601845
 30
0.0
 11
2139.916610995233
 21
1071.551377601845
 31
0.0
  0
LINE
  5
FC9
330
1F
100
AcDbEntity
  8
0
 62
     7
 48
0.2975
100
AcDbLine
 10
2139.916610995233
 20
1071.551377601845
 30
0.0
 11
2151.816604995233
 21
1071.551377601845
 31
0.0
  0
LINE
  5
FCA
330
1F
100
AcDbEntity
  8
0
 62
     7
 48
0.025
100
AcDbLine
 10
2151.816604995233
 20
1071.551377601845
 30
0.0
 11
2152.816604995233
 21
1071.551377601845
 31
0.0
  0
LINE
  5
FCB
330
1F
100
AcDbEntity
  8
0
  6
DASHDOT
 62
     7
100
AcDbLine
 10
2140.828812026482
 20
1080.866875601845
 30
0.0
 11
2074.804397963982
 21
1080.866875601845
 31
0.0
  0
LINE
  5
FCC
330
1F
100
AcDbEntity
  8
0
  6
DASHDOT
 62
     7
100
AcDbLine
 10
2107.816604995233
 20
1113.879082633095
 30
0.0
 11
2107.816604995233
 21
1047.854668570595
 31
0.0
  0
LINE
  5
FCD
330
1F
100
AcDbEntity
  8
0
  6
DASHDOT
 62
     7
100
AcDbLine
 10
2137.36662330578
 20
1080.866875601845
 30
0.0
 11
2160.766617202264
 21
1080.866875601845
 31
0.0
  0
LINE
  5
FCE
330
1F
100
AcDbEntity
  8
0
 62
     7
100
AcDbLine
 10
2139.316604995233
 20
1062.680336905556
 30
0.0
 11
2139.316604995233
 21
1069.366875601846
 31
0.0
  0
LINE
  5
FCF
330
1F
100
AcDbEntity
  8
0
 62
     7
100
AcDbLine
 10
2139.316604995233
 20
1092.366875601845
 30
0.0
 11
2139.316604995233
 21
1099.053414298134
 31
0.0
  0
LINE
  5
FD0
330
1F
100
AcDbEntity
  8
0
 62
     7
100
AcDbLine
 10
2139.316604995233
 20
1099.053414298134
 30
0.0
 11
2107.816604995233
 21
1117.239937735635
 31
0.0
  0
LINE
  5
FD1
330
1F
100
AcDbEntity
  8
0
 62
     7
100
AcDbLine
 10
2107.816604995233
 20
1117.239937735635
 30
0.0
 11
2076.316604995232
 21
1099.053414298134
 31
0.0
  0
LINE
  5
FD2
330
1F
100
AcDbEntity
  8
0
 62
     7
100
AcDbLine
 10
2076.316604995232
 20
1099.053414298134
 30
0.0
 11
2076.316604995232
 21
1062.680336905556
 31
0.0
  0
LINE
  5
FD3
330
1F
100
AcDbEntity
  8
0
 62
     7
100
AcDbLine
 10
2076.316604995232
 20
1062.680336905556
 30
0.0
 11
2107.816604995233
 21
1044.493813468056
 31
0.0
  0
LINE
  5
FD4
330
1F
100
AcDbEntity
  8
0
 62
     7
100
AcDbLine
 10
2107.816604995233
 20
1044.493813468056
 30
0.0
 11
2139.316604995233
 21
1062.680336905556
 31
0.0
  0
LINE
  5
FD5
330
1F
100
AcDbEntity
  8
0
 62
     7
 48
0.0856407165527344
100
AcDbLine
 10
2118.816604995232
 20
1112.866875601845
 30
0.0
 11
2115.390976333124
 21
1112.866875601845
 31
0.0
  0
LINE
  5
FD6
330
1F
100
AcDbEntity
  8
0
 62
     7
 48
0.0010013580322266
100
AcDbLine
 10
2158.816604995232
 20
1099.906441641884
 30
0.0
 11
2158.816604995232
 21
1099.946495963173
 31
0.0
  0
LINE
  5
FD7
330
1F
100
AcDbEntity
  8
0
 62
     7
 48
0.3279914855957031
100
AcDbLine
 10
2158.816604995232
 20
1099.906441641884
 30
0.0
 11
2158.816604995232
 21
1086.786782218056
 31
0.0
  0
LINE
  5
FD8
330
1F
100
AcDbEntity
  8
0
 62
     7
 48
0.2960189819335937
100
AcDbLine
 10
2158.816604995232
 20
1074.946022940713
 30
0.0
 11
2158.816604995232
 21
1086.786782218056
 31
0.0
  0
LINE
  5
FD9
330
1F
100
AcDbEntity
  8
0
 62
     7
 48
0.3259895324707031
100
AcDbLine
 10
2158.816604995232
 20
1074.946022940713
 30
0.0
 11
2158.816604995232
 21
1061.906441641884
 31
0.0
  0
LINE
  5
FDA
330
1F
100
AcDbEntity
  8
0
 62
     7
 48
0.0009891510009766
100
AcDbLine
 10
2158.816604995232
 20
1061.866875601845
 30
0.0
 11
2158.816604995232
 21
1061.906441641884
 31
0.0
  0
LINE
  5
FDB
330
1F
100
AcDbEntity
  8
0
 62
     7
 48
0.275
100
AcDbLine
 10
2147.816604995233
 20
1061.906441641884
 30
0.0
 11
2158.816604995232
 21
1061.906441641884
 31
0.0
  0
LINE
  5
FDC
330
1F
100
AcDbEntity
  8
0
 62
     7
 48
0.0009891510009766
100
AcDbLine
 10
2147.816604995233
 20
1061.866875601845
 30
0.0
 11
2147.816604995233
 21
1061.906441641884
 31
0.0
  0
LINE
  5
FDD
330
1F
100
AcDbEntity
  8
0
 62
     7
 48
0.275
100
AcDbLine
 10
2153.816604995232
 20
1074.946022940713
 30
0.0
 11
2158.816604995232
 21
1074.946022940713
 31
0.0
  0
LINE
  5
FDE
330
1F
100
AcDbEntity
  8
0
 62
     7
 48
0.3259895324707031
100
AcDbLine
 10
2147.816604995233
 20
1070.389374601846
 30
0.0
 11
2147.816604995233
 21
1061.906441641884
 31
0.0
  0
LINE
  5
FDF
330
1F
100
AcDbEntity
  8
0
 62
     7
 48
0.275
100
AcDbLine
 10
2153.816604995232
 20
1086.786782218056
 30
0.0
 11
2158.816604995232
 21
1086.786782218056
 31
0.0
  0
LINE
  5
FE0
330
1F
100
AcDbEntity
  8
0
 62
     7
 48
0.275
100
AcDbLine
 10
2147.816604995233
 20
1099.906441641884
 30
0.0
 11
2158.816604995232
 21
1099.906441641884
 31
0.0
  0
LINE
  5
FE1
330
1F
100
AcDbEntity
  8
0
 62
     7
 48
0.3279914855957031
100
AcDbLine
 10
2147.816604995233
 20
1099.906441641884
 30
0.0
 11
2147.816604995233
 21
1091.344376601845
 31
0.0
  0
LINE
  5
FE2
330
1F
100
AcDbEntity
  8
0
 62
     7
 48
0.0010013580322266
100
AcDbLine
 10
2147.816604995233
 20
1099.906441641884
 30
0.0
 11
2147.816604995233
 21
1099.946495963173
 31
0.0
  0
LINE
  5
FE3
330
1F
100
AcDbEntity
  8
0
 62
     7
 48
0.2
100
AcDbLine
 10
2139.816604995233
 20
1067.866875601845
 30
0.0
 11
2147.816604995233
 21
1067.866875601845
 31
0.0
  0
LINE
  5
FE4
330
1F
100
AcDbEntity
  8
0
 62
     7
 48
0.2
100
AcDbLine
 10
2139.816604995233
 20
1093.866875601845
 30
0.0
 11
2147.816604995233
 21
1093.866875601845
 31
0.0
  0
LINE
  5
FE5
330
1F
100
AcDbEntity
  8
0
 62
     7
100
AcDbLine
 10
2139.816604995233
 20
1067.866875601845
 30
0.0
 11
2139.816604995233
 21
1093.866875601845
 31
0.0
  0
LINE
  5
FE6
330
1F
100
AcDbEntity
  8
0
 62
     7
 48
0.0856407165527344
100
AcDbLine
 10
2100.242233657342
 20
1112.866875601845
 30
0.0
 11
2096.816604995233
 21
1112.866875601845
 31
0.0
  0
LINE
  5
FE7
330
1F
100
AcDbEntity
  8
0
 62
     7
 48
0.0494434356689453
100
AcDbLine
 10
2118.816604995232
 20
1110.889138175088
 30
0.0
 11
2118.816604995232
 21
1112.866875601845
 31
0.0
  0
LINE
  5
FE8
330
1F
100
AcDbEntity
  8
0
 62
     7
 48
0.275
100
AcDbLine
 10
2147.816604995233
 20
1061.866875601845
 30
0.0
 11
2158.816604995232
 21
1061.866875601845
 31
0.0
  0
LINE
  5
FE9
330
1F
100
AcDbEntity
  8
0
 62
     7
 48
0.275
100
AcDbLine
 10
2147.816604995233
 20
1099.946495963173
 30
0.0
 11
2158.816604995232
 21
1099.946495963173
 31
0.0
  0
LINE
  5
FEA
330
1F
100
AcDbEntity
  8
0
 62
     7
 48
0.0494441986083984
100
AcDbLine
 10
2096.816604995233
 20
1110.889107657509
 30
0.0
 11
2096.816604995233
 21
1112.866875601845
 31
0.0
  0
LINE
  5
FEB
330
1F
100
AcDbEntity
  8
0
  6
DASHDOT
 62
     7
 48
0.4800003051757813
100
AcDbLine
 10
1207.816604995235
 20
1588.259872572119
 30
0.0
 11
1207.816604995235
 21
1607.45988477915
 31
0.0
  0
LINE
  5
FEF
330
1F
100
AcDbEntity
  8
0
 62
     7
100
AcDbLine
 10
1176.316604995235
 20
1667.859878675635
 30
0.0
 11
1207.816604995235
 21
1667.859878675635
 31
0.0
  0
LINE
  5
FF0
330
1F
100
AcDbEntity
  8
0
 62
     7
100
AcDbLine
 10
1207.816604995235
 20
1667.859878675635
 30
0.0
 11
1239.316604995235
 21
1667.859878675635
 31
0.0
  0
LINE
  5
FF1
330
1F
100
AcDbEntity
  8
0
 62
     7
100
AcDbLine
 10
1239.316604995235
 20
1645.859878675635
 30
0.0
 11
1239.316604995235
 21
1667.859878675635
 31
0.0
  0
LINE
  5
FF2
330
1F
100
AcDbEntity
  8
0
 62
     7
100
AcDbLine
 10
1176.316604995235
 20
1645.859878675635
 30
0.0
 11
1176.316604995235
 21
1667.859878675635
 31
0.0
  0
LINE
  5
FF3
330
1F
100
AcDbEntity
  8
0
 62
     7
100
AcDbLine
 10
1176.316604995235
 20
1645.859878675635
 30
0.0
 11
1207.816604995235
 21
1645.859878675635
 31
0.0
  0
LINE
  5
FF4
330
1F
100
AcDbEntity
  8
0
 62
     7
100
AcDbLine
 10
1207.816604995235
 20
1645.859878675635
 30
0.0
 11
1207.816604995235
 21
1667.859878675635
 31
0.0
  0
LINE
  5
FF5
330
1F
100
AcDbEntity
  8
0
 62
     7
100
AcDbLine
 10
1207.816604995235
 20
1645.859878675635
 30
0.0
 11
1239.316604995235
 21
1645.859878675635
 31
0.0
  0
LINE
  5
FF6
330
1F
100
AcDbEntity
  8
0
 62
     7
 48
0.3
100
AcDbLine
 10
1184.816604995235
 20
1633.859878675635
 30
0.0
 11
1184.816604995235
 21
1645.859878675635
 31
0.0
  0
LINE
  5
FF7
330
1F
100
AcDbEntity
  8
0
 62
     7
 48
0.225
100
AcDbLine
 10
1230.816604995235
 20
1636.859878675634
 30
0.0
 11
1230.816604995235
 21
1645.859878675635
 31
0.0
  0
LINE
  5
FF8
330
1F
100
AcDbEntity
  8
0
 62
     7
100
AcDbLine
 10
1229.816604995235
 20
1633.859878675635
 30
0.0
 11
1184.816604995235
 21
1633.859878675635
 31
0.0
  0
ARC
  5
FF9
330
1F
100
AcDbEntity
  8
0
 62
     7
100
AcDbCircle
 10
1258.561081313595
 20
1625.935775892431
 30
0.0
 40
29.81731915668617
100
AcDbArc
 50
158.5084459552987
 51
164.5878334109867
  0
LINE
  5
FFA
330
1F
100
AcDbEntity
  8
0
 62
     7
 48
0.4625
100
AcDbLine
 10
1185.316604995235
 20
1615.359878675635
 30
0.0
 11
1185.316604995235
 21
1633.859878675635
 31
0.0
  0
LINE
  5
FFB
330
1F
100
AcDbEntity
  8
0
 62
     7
100
AcDbLine
 10
1230.316604995235
 20
1615.359878675635
 30
0.0
 11
1185.316604995235
 21
1615.359878675635
 31
0.0
  0
LINE
  5
FFC
330
1F
100
AcDbEntity
  8
0
 62
     7
 48
0.0875
100
AcDbLine
 10
1230.316604995235
 20
1615.359878675635
 30
0.0
 11
1230.316604995235
 21
1618.859878675634
 31
0.0
  0
POLYLINE
  5
FFD
330
1F
100
AcDbEntity
  8
0
 62
     7
100
AcDb2dPolyline
 66
     1
 10
0.0
 20
0.0
 30
0.0
  0
VERTEX
  5
FFE
330
FFD
100
AcDbEntity
  8
0
100
AcDbVertex
100
AcDb2dVertex
 10
1228.438187026485
 20
1627.859878675635
 30
0.0
  0
VERTEX
  5
FFF
330
FFD
100
AcDbEntity
  8
0
100
AcDbVertex
100
AcDb2dVertex
 10
1228.459549331173
 20
1626.920974867041
 30
0.0
  0
VERTEX
  5
1000
330
FFD
100
AcDbEntity
  8
0
100
AcDbVertex
100
AcDb2dVertex
 10
1228.522659682735
 20
1625.991165296728
 30
0.0
  0
VERTEX
  5
1001
330
FFD
100
AcDbEntity
  8
0
100
AcDbVertex
100
AcDb2dVertex
 10
1228.624832534298
 20
1625.078842298681
 30
0.0
  0
VERTEX
  5
1002
330
FFD
100
AcDbEntity
  8
0
100
AcDbVertex
100
AcDb2dVertex
 10
1228.761825942501
 20
1624.191940443213
 30
0.0
  0
VERTEX
  5
1003
330
FFD
100
AcDbEntity
  8
0
100
AcDbVertex
100
AcDb2dVertex
 10
1229.116714858517
 20
1622.526474134619
 30
0.0
  0
VERTEX
  5
1004
330
FFD
100
AcDbEntity
  8
0
100
AcDbVertex
100
AcDb2dVertex
 10
1229.401962661251
 20
1621.482101576025
 30
0.0
  0
VERTEX
  5
1005
330
FFD
100
AcDbEntity
  8
0
100
AcDbVertex
100
AcDb2dVertex
 10
1229.957168960079
 20
1619.800399915869
 30
0.0
  0
VERTEX
  5
1006
330
FFD
100
AcDbEntity
  8
0
100
AcDbVertex
100
AcDb2dVertex
 10
1230.316604995235
 20
1618.859878675634
 30
0.0
  0
SEQEND
  5
1007
330
FFD
100
AcDbEntity
  8
0
  0
POLYLINE
  5
1008
330
1F
100
AcDbEntity
  8
0
 62
     7
100
AcDb2dPolyline
 66
     1
 10
0.0
 20
0.0
 30
0.0
  0
VERTEX
  5
1009
330
1008
100
AcDbEntity
  8
0
100
AcDbVertex
100
AcDb2dVertex
 10
1228.438187026485
 20
1627.859878675635
 30
0.0
  0
VERTEX
  5
100A
330
1008
100
AcDbEntity
  8
0
100
AcDbVertex
100
AcDb2dVertex
 10
1228.511001967891
 20
1629.594406263525
 30
0.0
  0
VERTEX
  5
100B
330
1008
100
AcDbEntity
  8
0
100
AcDbVertex
100
AcDb2dVertex
 10
1228.718796157345
 20
1631.273483411963
 30
0.0
  0
VERTEX
  5
100C
330
1008
100
AcDbEntity
  8
0
100
AcDbVertex
100
AcDb2dVertex
 10
1229.032303237423
 20
1632.84547437876
 30
0.0
  0
VERTEX
  5
100D
330
1008
100
AcDbEntity
  8
0
100
AcDbVertex
100
AcDb2dVertex
 10
1229.293350600704
 20
1633.859878675635
 30
0.0
  0
SEQEND
  5
100E
330
1008
100
AcDbEntity
  8
0
  0
LINE
  5
100F
330
1F
100
AcDbEntity
  8
0
 62
     7
 48
0.387298583984375
100
AcDbLine
 10
1206.062576674923
 20
1613.859878675635
 30
0.0
 11
1190.570633315548
 21
1613.859878675635
 31
0.0
  0
ARC
  5
1010
330
1F
100
AcDbEntity
  8
0
 62
     7
100
AcDbCircle
 10
1192.813217544063
 20
1640.699295179541
 30
0.0
 40
29.9317263998276
100
AcDbArc
 50
296.2733719871034
 51
300.0828007136504
  0
ARC
  5
1011
330
1F
100
AcDbEntity
  8
0
 62
     7
100
AcDbCircle
 10
1222.821060561641
 20
1640.700363294775
 30
0.0
 40
29.93318513588919
100
AcDbArc
 50
239.9164361263979
 51
243.7256872680149
  0
LINE
  5
1012
330
1F
100
AcDbEntity
  8
0
 62
     7
 48
0.387298583984375
100
AcDbLine
 10
1225.062576674923
 20
1613.859878675635
 30
0.0
 11
1209.570633315548
 21
1613.859878675635
 31
0.0
  0
ARC
  5
1013
330
1F
100
AcDbEntity
  8
0
 62
     7
100
AcDbCircle
 10
1211.813217544063
 20
1640.699295179541
 30
0.0
 40
29.93172640551351
100
AcDbArc
 50
296.2733719871034
 51
300.0828007136504
  0
LINE
  5
1014
330
1F
100
AcDbEntity
  8
0
 62
     7
 48
0.05
100
AcDbLine
 10
1228.816604995235
 20
1613.859878675635
 30
0.0
 11
1226.816604995235
 21
1613.859878675635
 31
0.0
  0
LINE
  5
1015
330
1F
100
AcDbEntity
  8
0
 62
     7
 48
0.0530330085889911
100
AcDbLine
 10
1228.816604995235
 20
1613.859878675635
 30
0.0
 11
1230.316604995235
 21
1615.359878675635
 31
0.0
  0
LINE
  5
1016
330
1F
100
AcDbEntity
  8
0
 62
     7
 48
0.0530330085889911
100
AcDbLine
 10
1186.816604995235
 20
1613.859878675635
 30
0.0
 11
1185.316604995235
 21
1615.359878675635
 31
0.0
  0
LINE
  5
1017
330
1F
100
AcDbEntity
  8
0
 62
     7
 48
0.05
100
AcDbLine
 10
1188.816604995235
 20
1613.859878675635
 30
0.0
 11
1186.816604995235
 21
1613.859878675635
 31
0.0
  0
ARC
  5
1018
330
1F
100
AcDbEntity
  8
0
 62
     7
100
AcDbCircle
 10
1203.821060561642
 20
1640.700363294775
 30
0.0
 40
29.93318513794582
100
AcDbArc
 50
239.9164361263979
 51
243.7256872680149
  0
LINE
  5
1019
330
1F
100
AcDbEntity
  8
0
 62
     7
 48
0.2234825134277344
100
AcDbLine
 10
1188.816604995235
 20
1614.799179212744
 30
0.0
 11
1188.816604995235
 21
1605.859878675635
 31
0.0
  0
LINE
  5
101A
330
1F
100
AcDbEntity
  8
0
 62
     7
 48
0.475
100
AcDbLine
 10
1188.816604995235
 20
1605.859878675635
 30
0.0
 11
1207.816604995235
 21
1605.859878675635
 31
0.0
  0
LINE
  5
101B
330
1F
100
AcDbEntity
  8
0
 62
     7
 48
0.2234825134277344
100
AcDbLine
 10
1207.816604995235
 20
1614.799179212744
 30
0.0
 11
1207.816604995235
 21
1605.859878675635
 31
0.0
  0
LINE
  5
101C
330
1F
100
AcDbEntity
  8
0
 62
     7
 48
0.475
100
AcDbLine
 10
1207.816604995235
 20
1605.859878675635
 30
0.0
 11
1226.816604995235
 21
1605.859878675635
 31
0.0
  0
LINE
  5
101D
330
1F
100
AcDbEntity
  8
0
 62
     7
 48
0.2234825134277344
100
AcDbLine
 10
1226.816604995235
 20
1614.799179212744
 30
0.0
 11
1226.816604995235
 21
1605.859878675635
 31
0.0
  0
LINE
  5
101E
330
1F
100
AcDbEntity
  8
0
 62
     7
 48
0.1257171630859375
100
AcDbLine
 10
1258.816604995235
 20
1682.831192152197
 30
0.0
 11
1258.816604995235
 21
1687.859878675635
 31
0.0
  0
LINE
  5
101F
330
1F
100
AcDbEntity
  8
0
 62
     7
100
AcDbLine
 10
1258.816604995235
 20
1682.831192152197
 30
0.0
 11
1258.816604995235
 21
1603.345535413916
 31
0.0
  0
LINE
  5
1020
330
1F
100
AcDbEntity
  8
0
 62
     7
 48
0.0871414184570313
100
AcDbLine
 10
1258.816604995235
 20
1599.859878675635
 30
0.0
 11
1258.816604995235
 21
1603.345535413916
 31
0.0
  0
LINE
  5
1021
330
1F
100
AcDbEntity
  8
0
 62
     7
 48
0.275
100
AcDbLine
 10
1247.816604995235
 20
1603.345535413916
 30
0.0
 11
1258.816604995235
 21
1603.345535413916
 31
0.0
  0
LINE
  5
1022
330
1F
100
AcDbEntity
  8
0
 62
     7
 48
0.0871414184570313
100
AcDbLine
 10
1247.816604995235
 20
1599.859878675635
 30
0.0
 11
1247.816604995235
 21
1603.345535413916
 31
0.0
  0
LINE
  5
1023
330
1F
100
AcDbEntity
  8
0
 62
     7
 48
0.275
100
AcDbLine
 10
1247.816604995235
 20
1682.831192152197
 30
0.0
 11
1258.816604995235
 21
1682.831192152197
 31
0.0
  0
LINE
  5
1024
330
1F
100
AcDbEntity
  8
0
 62
     7
100
AcDbLine
 10
1247.816604995235
 20
1682.831192152197
 30
0.0
 11
1247.816604995235
 21
1603.345535413916
 31
0.0
  0
LINE
  5
1025
330
1F
100
AcDbEntity
  8
0
 62
     7
 48
0.1257171630859375
100
AcDbLine
 10
1247.816604995235
 20
1682.831192152197
 30
0.0
 11
1247.816604995235
 21
1687.859878675635
 31
0.0
  0
LINE
  5
1026
330
1F
100
AcDbEntity
  8
0
 62
     7
 48
0.325
100
AcDbLine
 10
1239.816604995235
 20
1614.859878675634
 30
0.0
 11
1239.816604995235
 21
1627.859878675635
 31
0.0
  0
LINE
  5
1027
330
1F
100
AcDbEntity
  8
0
 62
     7
 48
0.325
100
AcDbLine
 10
1239.816604995235
 20
1627.859878675635
 30
0.0
 11
1239.816604995235
 21
1640.859878675634
 31
0.0
  0
LINE
  5
1028
330
1F
100
AcDbEntity
  8
0
 62
     7
 48
0.275
100
AcDbLine
 10
1247.816604995235
 20
1599.859878675635
 30
0.0
 11
1258.816604995235
 21
1599.859878675635
 31
0.0
  0
LINE
  5
1029
330
1F
100
AcDbEntity
  8
0
 62
     7
 48
0.275
100
AcDbLine
 10
1247.816604995235
 20
1687.859878675635
 30
0.0
 11
1258.816604995235
 21
1687.859878675635
 31
0.0
  0
LINE
  5
102A
330
1F
100
AcDbEntity
  8
0
 62
     7
 48
0.275
100
AcDbLine
 10
1247.816604995235
 20
1599.859878675635
 30
0.0
 11
1258.816604995235
 21
1599.859878675635
 31
0.0
  0
LINE
  5
102B
330
1F
100
AcDbEntity
  8
0
 62
     7
 48
0.2
100
AcDbLine
 10
1239.816604995235
 20
1614.859878675634
 30
0.0
 11
1247.816604995235
 21
1614.859878675634
 31
0.0
  0
LINE
  5
102C
330
1F
100
AcDbEntity
  8
0
 62
     7
 48
0.2
100
AcDbLine
 10
1239.816604995235
 20
1640.859878675634
 30
0.0
 11
1247.816604995235
 21
1640.859878675634
 31
0.0
  0
LINE
  5
102D
330
1F
100
AcDbEntity
  8
0
 62
     7
 48
0.2375
100
AcDbLine
 10
1230.316604995235
 20
1618.859878675634
 30
0.0
 11
1239.816604995235
 21
1618.859878675634
 31
0.0
  0
LINE
  5
102E
330
1F
100
AcDbEntity
  8
0
 62
     7
 48
0.225
100
AcDbLine
 10
1230.816604995235
 20
1636.859878675634
 30
0.0
 11
1239.816604995235
 21
1636.859878675634
 31
0.0
  0
LINE
  5
1032
330
1F
100
AcDbEntity
  8
0
 62
     7
 48
0.017678
100
AcDbLine
 10
1253.816604995235
 20
1740.428878675635
 30
0.0
 11
1253.316604995235
 21
1739.928878675635
 31
0.0
  0
LINE
  5
1033
330
1F
100
AcDbEntity
  8
0
 62
     7
 48
0.39155
100
AcDbLine
 10
1253.816604995235
 20
1756.090865675634
 30
0.0
 11
1253.816604995235
 21
1740.428878675635
 31
0.0
  0
LINE
  5
1034
330
1F
100
AcDbEntity
  8
0
 62
     7
 48
0.017678
100
AcDbLine
 10
1253.816604995235
 20
1756.090865675634
 30
0.0
 11
1253.316604995235
 21
1756.590865675635
 31
0.0
  0
LINE
  5
1035
330
1F
100
AcDbEntity
  8
0
 62
     7
 48
0.41655
100
AcDbLine
 10
1253.316604995235
 20
1756.590865675635
 30
0.0
 11
1253.316604995235
 21
1739.928878675635
 31
0.0
  0
LINE
  5
1036
330
1F
100
AcDbEntity
  8
0
 62
     7
 48
0.0125
100
AcDbLine
 10
1253.316604995235
 20
1739.928878675635
 30
0.0
 11
1252.816604995235
 21
1739.928878675635
 31
0.0
  0
LINE
  5
1037
330
1F
100
AcDbEntity
  8
0
 62
     7
 48
0.0125
100
AcDbLine
 10
1253.316604995235
 20
1756.590865675635
 30
0.0
 11
1252.816604995235
 21
1756.590865675635
 31
0.0
  0
LINE
  5
1038
330
1F
100
AcDbEntity
  8
0
 62
     7
 48
0.0125
100
AcDbLine
 10
1252.816604995235
 20
1740.784866675635
 30
0.0
 11
1253.316604995235
 21
1740.784866675635
 31
0.0
  0
LINE
  5
1039
330
1F
100
AcDbEntity
  8
0
 62
     7
 48
0.0125
100
AcDbLine
 10
1253.316604995235
 20
1740.784866675635
 30
0.0
 11
1253.816604995235
 21
1740.784866675635
 31
0.0
  0
LINE
  5
103A
330
1F
100
AcDbEntity
  8
0
 62
     7
 48
0.0125
100
AcDbLine
 10
1252.816604995235
 20
1755.734878675635
 30
0.0
 11
1253.316604995235
 21
1755.734878675635
 31
0.0
  0
LINE
  5
103B
330
1F
100
AcDbEntity
  8
0
 62
     7
 48
0.0125
100
AcDbLine
 10
1253.316604995235
 20
1755.734878675635
 30
0.0
 11
1253.816604995235
 21
1755.734878675635
 31
0.0
  0
LINE
  5
103C
330
1F
100
AcDbEntity
  8
0
 62
     7
 48
0.236938
100
AcDbLine
 10
1252.816604995235
 20
1738.782363675635
 30
0.0
 11
1252.816604995235
 21
1748.259872675634
 31
0.0
  0
LINE
  5
103D
330
1F
100
AcDbEntity
  8
0
 62
     7
 48
0.236938
100
AcDbLine
 10
1252.816604995235
 20
1748.259872675634
 30
0.0
 11
1252.816604995235
 21
1757.737380675634
 31
0.0
  0
LINE
  5
103E
330
1F
100
AcDbEntity
  8
0
 62
     7
 48
0.261938
100
AcDbLine
 10
1251.816604995235
 20
1737.782363675635
 30
0.0
 11
1251.816604995235
 21
1748.259872675634
 31
0.0
  0
LINE
  5
103F
330
1F
100
AcDbEntity
  8
0
 62
     7
 48
0.261938
100
AcDbLine
 10
1251.816604995235
 20
1748.259872675634
 30
0.0
 11
1251.816604995235
 21
1758.737380675634
 31
0.0
  0
LINE
  5
1040
330
1F
100
AcDbEntity
  8
0
 62
     7
 48
0.253902
100
AcDbLine
 10
1216.188171995235
 20
1748.259856675634
 30
0.0
 11
1207.816604995235
 21
1754.009872675635
 31
0.0
  0
POLYLINE
  5
1041
330
1F
100
AcDbEntity
  8
0
 62
     7
100
AcDb2dPolyline
 66
     1
 10
0.0
 20
0.0
 30
0.0
  0
VERTEX
  5
1042
330
1041
100
AcDbEntity
  8
0
100
AcDbVertex
100
AcDb2dVertex
 10
1214.889160995235
 20
1746.759887675634
 30
0.0
  0
VERTEX
  5
1043
330
1041
100
AcDbEntity
  8
0
100
AcDbVertex
100
AcDb2dVertex
 10
1211.866760995235
 20
1749.767928675635
 30
0.0
  0
VERTEX
  5
1044
330
1041
100
AcDbEntity
  8
0
100
AcDbVertex
100
AcDb2dVertex
 10
1209.054382995235
 20
1752.678329675635
 30
0.0
  0
VERTEX
  5
1045
330
1041
100
AcDbEntity
  8
0
100
AcDbVertex
100
AcDb2dVertex
 10
1207.816604995235
 20
1754.009872675635
 30
0.0
  0
SEQEND
  5
1046
330
1041
100
AcDbEntity
  8
0
  0
LINE
  5
1047
330
1F
100
AcDbEntity
  8
0
 62
     7
 48
0.341652
100
AcDbLine
 10
1227.453018995235
 20
1740.522643675635
 30
0.0
 11
1216.188156995235
 21
1748.259872675634
 31
0.0
  0
POLYLINE
  5
1048
330
1F
100
AcDbEntity
  8
0
 62
     7
100
AcDb2dPolyline
 66
     1
 10
0.0
 20
0.0
 30
0.0
  0
VERTEX
  5
1049
330
1048
100
AcDbEntity
  8
0
100
AcDbVertex
100
AcDb2dVertex
 10
1225.172989995235
 20
1737.004226675635
 30
0.0
  0
VERTEX
  5
104A
330
1048
100
AcDbEntity
  8
0
100
AcDbVertex
100
AcDb2dVertex
 10
1220.031189995235
 20
1741.815093675634
 30
0.0
  0
VERTEX
  5
104B
330
1048
100
AcDbEntity
  8
0
100
AcDbVertex
100
AcDb2dVertex
 10
1214.889145995235
 20
1746.759902675635
 30
0.0
  0
SEQEND
  5
104C
330
1048
100
AcDbEntity
  8
0
  0
LINE
  5
104D
330
1F
100
AcDbEntity
  8
0
 62
     7
 48
0.166152
100
AcDbLine
 10
1232.931350995235
 20
1736.759872675635
 30
0.0
 11
1227.453018995235
 21
1740.522643675635
 31
0.0
  0
ARC
  5
104E
330
1F
100
AcDbEntity
  8
0
 62
     7
100
AcDbCircle
 10
1902.287918995235
 20
2468.344344675635
 30
0.0
 40
996.666109
100
AcDbArc
 50
227.2047850000007
 51
227.6077659999971
  0
LINE
  5
104F
330
1F
100
AcDbEntity
  8
0
 62
     7
 48
0.076101
100
AcDbLine
 10
1229.638595995235
 20
1728.190658675635
 30
0.0
 11
1232.682632995235
 21
1728.190658675635
 31
0.0
  0
LINE
  5
1050
330
1F
100
AcDbEntity
  8
0
 62
     7
 48
0.248982
100
AcDbLine
 10
1197.857315995235
 20
1754.009872675635
 30
0.0
 11
1207.816604995235
 21
1754.009872675635
 31
0.0
  0
LINE
  5
1051
330
1F
100
AcDbEntity
  8
0
 62
     7
100
AcDbLine
 10
1182.950576995235
 20
1728.190658675635
 30
0.0
 11
1229.638595995235
 21
1728.190658675635
 31
0.0
  0
LINE
  5
1052
330
1F
100
AcDbEntity
  8
0
 62
     7
 48
0.096404
100
AcDbLine
 10
1235.460449995235
 20
1670.416747675635
 30
0.0
 11
1239.316604995235
 21
1670.416747675635
 31
0.0
  0
LINE
  5
1053
330
1F
100
AcDbEntity
  8
0
 62
     7
 48
0.092599
100
AcDbLine
 10
1234.369384995235
 20
1672.268066675634
 30
0.0
 11
1238.073333995235
 21
1672.268066675634
 31
0.0
  0
LINE
  5
1054
330
1F
100
AcDbEntity
  8
0
 62
     7
100
AcDbLine
 10
1176.316604995235
 20
1670.416747675635
 30
0.0
 11
1235.460449995235
 21
1670.416747675635
 31
0.0
  0
LINE
  5
1055
330
1F
100
AcDbEntity
  8
0
 62
     7
100
AcDbLine
 10
1177.559875995235
 20
1672.268066675634
 30
0.0
 11
1234.369384995235
 21
1672.268066675634
 31
0.0
  0
LINE
  5
1056
330
1F
100
AcDbEntity
  8
0
 62
     7
100
AcDbLine
 10
1181.573333995235
 20
1673.908553675635
 30
0.0
 11
1230.847244995235
 21
1673.908553675635
 31
0.0
  0
LINE
  5
1057
330
1F
100
AcDbEntity
  8
0
 62
     7
 48
0.080316
100
AcDbLine
 10
1230.847244995235
 20
1673.908553675635
 30
0.0
 11
1234.059875995235
 21
1673.908553675635
 31
0.0
  0
LINE
  5
1058
330
1F
100
AcDbEntity
  8
0
 62
     7
100
AcDbLine
 10
1182.816604995235
 20
1675.759872675634
 30
0.0
 11
1229.756164995235
 21
1675.759872675634
 31
0.0
  0
LINE
  5
1059
330
1F
100
AcDbEntity
  8
0
 62
     7
 48
0.076511
100
AcDbLine
 10
1229.756164995235
 20
1675.759872675634
 30
0.0
 11
1232.816604995235
 21
1675.759872675634
 31
0.0
  0
LINE
  5
105A
330
1F
100
AcDbEntity
  8
0
 62
     7
100
AcDbLine
 10
1182.816604995235
 20
1727.690658675635
 30
0.0
 11
1229.756164995235
 21
1727.690658675635
 31
0.0
  0
LINE
  5
105B
330
1F
100
AcDbEntity
  8
0
 62
     7
 48
0.076511
100
AcDbLine
 10
1229.756164995235
 20
1727.690658675635
 30
0.0
 11
1232.816604995235
 21
1727.690658675635
 31
0.0
  0
LINE
  5
105C
330
1F
100
AcDbEntity
  8
0
 62
     7
 48
0.14375
100
AcDbLine
 10
1207.816604995235
 20
1759.759872675634
 30
0.0
 11
1207.816604995235
 21
1754.009872675635
 31
0.0
  0
LINE
  5
105D
330
1F
100
AcDbEntity
  8
0
 62
     7
 48
0.096404
100
AcDbLine
 10
1235.460449995235
 20
1667.859878675635
 30
0.0
 11
1239.316604995235
 21
1667.859878675635
 31
0.0
  0
LINE
  5
105E
330
1F
100
AcDbEntity
  8
0
 62
     7
100
AcDbLine
 10
1176.316604995235
 20
1667.859878675635
 30
0.0
 11
1235.460449995235
 21
1667.859878675635
 31
0.0
  0
LINE
  5
105F
330
1F
100
AcDbEntity
  8
0
 62
     7
 48
0.096098
100
AcDbLine
 10
1235.372696995235
 20
1667.759872675634
 30
0.0
 11
1239.216598995235
 21
1667.759872675634
 31
0.0
  0
LINE
  5
1060
330
1F
100
AcDbEntity
  8
0
 62
     7
100
AcDbLine
 10
1176.416610995235
 20
1667.759872675634
 30
0.0
 11
1235.372696995235
 21
1667.759872675634
 31
0.0
  0
LINE
  5
1061
330
1F
100
AcDbEntity
  8
0
 62
     7
 48
0.2875
100
AcDbLine
 10
1239.716598995235
 20
1748.259872675634
 30
0.0
 11
1239.716598995235
 21
1759.759872675634
 31
0.0
  0
LINE
  5
1062
330
1F
100
AcDbEntity
  8
0
 62
     7
 48
0.2875
100
AcDbLine
 10
1239.716598995235
 20
1736.759872675635
 30
0.0
 11
1239.716598995235
 21
1748.259872675634
 31
0.0
  0
LINE
  5
1063
330
1F
100
AcDbEntity
  8
0
 62
     7
 48
0.285
100
AcDbLine
 10
1239.816604995235
 20
1748.259872675634
 30
0.0
 11
1239.816604995235
 21
1759.659866675635
 31
0.0
  0
LINE
  5
1064
330
1F
100
AcDbEntity
  8
0
 62
     7
 48
0.285
100
AcDbLine
 10
1239.816604995235
 20
1736.859878675635
 30
0.0
 11
1239.816604995235
 21
1748.259872675634
 31
0.0
  0
LINE
  5
1065
330
1F
100
AcDbEntity
  8
0
 62
     7
 48
0.261938
100
AcDbLine
 10
1239.916610995235
 20
1737.782363675635
 30
0.0
 11
1239.916610995235
 21
1748.259872675634
 31
0.0
  0
LINE
  5
1066
330
1F
100
AcDbEntity
  8
0
 62
     7
 48
0.261938
100
AcDbLine
 10
1239.916610995235
 20
1748.259872675634
 30
0.0
 11
1239.916610995235
 21
1758.737380675634
 31
0.0
  0
LINE
  5
1067
330
1F
100
AcDbEntity
  8
0
 62
     7
 48
0.035355
100
AcDbLine
 10
1252.816604995235
 20
1738.782363675635
 30
0.0
 11
1251.816604995235
 21
1737.782363675635
 31
0.0
  0
LINE
  5
1068
330
1F
100
AcDbEntity
  8
0
 62
     7
 48
0.035355
100
AcDbLine
 10
1252.816604995235
 20
1757.737380675634
 30
0.0
 11
1251.816604995235
 21
1758.737380675634
 31
0.0
  0
ARC
  5
1069
330
1F
100
AcDbEntity
  8
0
 62
     7
100
AcDbCircle
 10
1232.931350995235
 20
1733.759872675634
 30
0.0
 40
3.0
100
AcDbArc
 50
90.00000899999308
 51
209.9999889999969
  0
LINE
  5
106A
330
1F
100
AcDbEntity
  8
0
 62
     7
 48
0.117468
100
AcDbLine
 10
1230.333267995235
 20
1732.259872675634
 30
0.0
 11
1232.682632995235
 21
1728.190658675635
 31
0.0
  0
LINE
  5
106B
330
1F
100
AcDbEntity
  8
0
 62
     7
100
AcDbLine
 10
1197.857315995235
 20
1754.009872675635
 30
0.0
 11
1182.950576995235
 21
1728.190658675635
 31
0.0
  0
ARC
  5
106C
330
1F
100
AcDbEntity
  8
0
 62
     7
100
AcDbCircle
 10
1237.316604995235
 20
1670.416747675635
 30
0.0
 40
2.0
100
AcDbArc
 50
0.0
 51
67.76772299999236
  0
ARC
  5
106D
330
1F
100
AcDbEntity
  8
0
 62
     7
100
AcDbCircle
 10
1178.316604995235
 20
1670.416747675635
 30
0.0
 40
2.0
100
AcDbArc
 50
112.232275000003
 51
179.9999949999995
  0
LINE
  5
106E
330
1F
100
AcDbEntity
  8
0
 62
     7
 48
0.108395
100
AcDbLine
 10
1181.573333995235
 20
1673.908553675635
 30
0.0
 11
1177.559875995235
 21
1672.268066675634
 31
0.0
  0
LINE
  5
106F
330
1F
100
AcDbEntity
  8
0
 62
     7
 48
0.108395
100
AcDbLine
 10
1234.059875995235
 20
1673.908553675635
 30
0.0
 11
1238.073333995235
 21
1672.268066675634
 31
0.0
  0
ARC
  5
1070
330
1F
100
AcDbEntity
  8
0
 62
     7
100
AcDbCircle
 10
1180.816604995235
 20
1675.759872675634
 30
0.0
 40
2.0
100
AcDbArc
 50
292.2322770000076
 51
0.0
  0
ARC
  5
1071
330
1F
100
AcDbEntity
  8
0
 62
     7
100
AcDbCircle
 10
1234.816604995235
 20
1675.759872675634
 30
0.0
 40
2.0
100
AcDbArc
 50
180.0000050000005
 51
247.7677249999969
  0
LINE
  5
1072
330
1F
100
AcDbEntity
  8
0
 62
     7
100
AcDbLine
 10
1182.816604995235
 20
1727.690658675635
 30
0.0
 11
1182.816604995235
 21
1675.759872675634
 31
0.0
  0
LINE
  5
1073
330
1F
100
AcDbEntity
  8
0
 62
     7
100
AcDbLine
 10
1232.816604995235
 20
1727.690658675635
 30
0.0
 11
1232.816604995235
 21
1675.759872675634
 31
0.0
  0
ARC
  5
1074
330
1F
100
AcDbEntity
  8
0
 62
     7
100
AcDbCircle
 10
1183.816604995235
 20
1727.690658675635
 30
0.0
 40
1.0
100
AcDbArc
 50
149.9999970000009
 51
179.9999949999995
  0
ARC
  5
1075
330
1F
100
AcDbEntity
  8
0
 62
     7
100
AcDbCircle
 10
1231.816604995235
 20
1727.690658675635
 30
0.0
 40
1.0
100
AcDbArc
 50
0.0
 51
30.00000100000907
  0
ARC
  5
1076
330
1F
100
AcDbEntity
  8
0
 62
     7
100
AcDbCircle
 10
1207.816604995235
 20
1748.259872675634
 30
0.0
 40
11.5
100
AcDbArc
 50
90.00000299999769
 51
149.9999970000009
  0
LINE
  5
1077
330
1F
100
AcDbEntity
  8
0
 62
     7
 48
0.063922
100
AcDbLine
 10
1239.316604995235
 20
1670.416747675635
 30
0.0
 11
1239.316604995235
 21
1667.859878675635
 31
0.0
  0
LINE
  5
1078
330
1F
100
AcDbEntity
  8
0
 62
     7
 48
0.063922
100
AcDbLine
 10
1176.316604995235
 20
1670.416747675635
 30
0.0
 11
1176.316604995235
 21
1667.859878675635
 31
0.0
  0
ARC
  5
1079
330
1F
100
AcDbEntity
  8
0
 62
     7
100
AcDbCircle
 10
1239.216522995235
 20
1667.859954675635
 30
0.0
 40
0.100071
100
AcDbArc
 50
270.0460739999935
 51
359.9539319999908
  0
ARC
  5
107A
330
1F
100
AcDbEntity
  8
0
 62
     7
100
AcDbCircle
 10
1176.416687995235
 20
1667.859954675635
 30
0.0
 40
0.100071
100
AcDbArc
 50
180.0460709999948
 51
269.953927999997
  0
LINE
  5
107B
102
{ACAD_REACTORS
330
1255
102
}
330
1F
100
AcDbEntity
  8
0
 62
     7
100
AcDbLine
 10
1207.816604995235
 20
1759.759872675634
 30
0.0
 11
1239.716598995235
 21
1759.759872675634
 31
0.0
  0
LINE
  5
107C
330
1F
100
AcDbEntity
  8
0
 62
     7
 48
0.169631
100
AcDbLine
 10
1232.931350995235
 20
1736.759872675635
 30
0.0
 11
1239.716598995235
 21
1736.759872675635
 31
0.0
  0
ARC
  5
107D
330
1F
100
AcDbEntity
  8
0
 62
     7
100
AcDbCircle
 10
1239.716522995235
 20
1759.659774675635
 30
0.0
 40
0.100071
100
AcDbArc
 50
0.0460839999977313
 51
89.95391900000095
  0
ARC
  5
107E
330
1F
100
AcDbEntity
  8
0
 62
     7
100
AcDbCircle
 10
1239.716522995235
 20
1736.859954675635
 30
0.0
 40
0.100071
100
AcDbArc
 50
270.0460809999991
 51
359.9539160000023
  0
LINE
  5
107F
330
1F
100
AcDbEntity
  8
0
 62
     7
 48
0.2975
100
AcDbLine
 10
1239.916610995235
 20
1737.782363675635
 30
0.0
 11
1251.816604995235
 21
1737.782363675635
 31
0.0
  0
LINE
  5
1080
330
1F
100
AcDbEntity
  8
0
 62
     7
 48
0.2975
100
AcDbLine
 10
1239.916610995235
 20
1758.737380675634
 30
0.0
 11
1251.816604995235
 21
1758.737380675634
 31
0.0
  0
ARC
  5
1081
330
1F
100
AcDbEntity
  8
0
 62
     7
100
AcDbCircle
 10
1239.916687995235
 20
1758.837447675635
 30
0.0
 40
0.100071
100
AcDbArc
 50
180.0460849999929
 51
269.9539139999989
  0
ARC
  5
1082
330
1F
100
AcDbEntity
  8
0
 62
     7
100
AcDbCircle
 10
1239.916687995235
 20
1737.682296675634
 30
0.0
 40
0.100071
100
AcDbArc
 50
90.04608600000118
 51
179.953914999994
  0
LINE
  5
1083
330
1F
100
AcDbEntity
  8
0
 62
     7
 48
0.0025
100
AcDbLine
 10
1239.816604995235
 20
1757.575362675635
 30
0.0
 11
1239.916610995235
 21
1757.575362675635
 31
0.0
  0
LINE
  5
1084
330
1F
100
AcDbEntity
  8
0
 62
     7
 48
0.2975
100
AcDbLine
 10
1239.916610995235
 20
1757.575362675635
 30
0.0
 11
1251.816604995235
 21
1757.575362675635
 31
0.0
  0
LINE
  5
1085
330
1F
100
AcDbEntity
  8
0
 62
     7
 48
0.025
100
AcDbLine
 10
1251.816604995235
 20
1757.575362675635
 30
0.0
 11
1252.816604995235
 21
1757.575362675635
 31
0.0
  0
LINE
  5
1086
330
1F
100
AcDbEntity
  8
0
 62
     7
 48
0.0025
100
AcDbLine
 10
1239.816604995235
 20
1738.944381675635
 30
0.0
 11
1239.916610995235
 21
1738.944381675635
 31
0.0
  0
LINE
  5
1087
330
1F
100
AcDbEntity
  8
0
 62
     7
 48
0.2975
100
AcDbLine
 10
1239.916610995235
 20
1738.944381675635
 30
0.0
 11
1251.816604995235
 21
1738.944381675635
 31
0.0
  0
LINE
  5
1088
330
1F
100
AcDbEntity
  8
0
 62
     7
 48
0.025
100
AcDbLine
 10
1251.816604995235
 20
1738.944381675635
 30
0.0
 11
1252.816604995235
 21
1738.944381675635
 31
0.0
  0
LINE
  5
1089
330
1F
100
AcDbEntity
  8
0
 62
     7
 48
0.261938
100
AcDbLine
 10
1239.816604995235
 20
1748.259872675634
 30
0.0
 11
1239.816604995235
 21
1758.737380675634
 31
0.0
  0
LINE
  5
108A
330
1F
100
AcDbEntity
  8
0
 62
     7
 48
0.261935
100
AcDbLine
 10
1239.816604995235
 20
1737.782455675635
 30
0.0
 11
1239.816604995235
 21
1748.259872675634
 31
0.0
  0
LINE
  5
108B
330
1F
100
AcDbEntity
  8
0
 62
     7
 48
0.261938
100
AcDbLine
 10
1239.816604995235
 20
1748.259872675634
 30
0.0
 11
1239.816604995235
 21
1737.782348675634
 31
0.0
  0
LINE
  5
108C
330
1F
100
AcDbEntity
  8
0
 62
     7
 48
0.261938
100
AcDbLine
 10
1239.816604995235
 20
1758.737380675634
 30
0.0
 11
1239.816604995235
 21
1748.259872675634
 31
0.0
  0
POLYLINE
  5
108D
330
1F
100
AcDbEntity
  8
0
 62
     7
100
AcDb2dPolyline
 66
     1
 10
0.0
 20
0.0
 30
0.0
  0
VERTEX
  5
108E
330
108D
100
AcDbEntity
  8
0
100
AcDbVertex
100
AcDb2dVertex
 10
1210.517914199173
 20
873.5539999348517
 30
0.0
  0
VERTEX
  5
108F
330
108D
100
AcDbEntity
  8
0
100
AcDbVertex
100
AcDb2dVertex
 10
1211.74957313472
 20
873.4164572102425
 30
0.0
  0
VERTEX
  5
1090
330
108D
100
AcDbEntity
  8
0
100
AcDbVertex
100
AcDb2dVertex
 10
1212.985336684525
 20
873.2299490315316
 30
0.0
  0
VERTEX
  5
1091
330
108D
100
AcDbEntity
  8
0
100
AcDbVertex
100
AcDb2dVertex
 10
1214.228561782181
 20
872.9957418782113
 30
0.0
  0
VERTEX
  5
1092
330
108D
100
AcDbEntity
  8
0
100
AcDbVertex
100
AcDb2dVertex
 10
1215.476028823196
 20
872.7166738850471
 30
0.0
  0
VERTEX
  5
1093
330
108D
100
AcDbEntity
  8
0
100
AcDbVertex
100
AcDb2dVertex
 10
1217.920242690384
 20
872.0539999348519
 30
0.0
  0
SEQEND
  5
1094
330
108D
100
AcDbEntity
  8
0
  0
LINE
  5
1095
330
1F
100
AcDbEntity
  8
0
 62
     7
 48
0.1350654602050781
100
AcDbLine
 10
1210.517914199173
 20
873.5539999348517
 30
0.0
 11
1205.11529579097
 21
873.5539999348517
 31
0.0
  0
POLYLINE
  5
1096
330
1F
100
AcDbEntity
  8
0
 62
     7
100
AcDb2dPolyline
 66
     1
 10
0.0
 20
0.0
 30
0.0
  0
VERTEX
  5
1097
330
1096
100
AcDbEntity
  8
0
100
AcDbVertex
100
AcDb2dVertex
 10
1205.11529579097
 20
873.5539999348517
 30
0.0
  0
VERTEX
  5
1098
330
1096
100
AcDbEntity
  8
0
100
AcDbVertex
100
AcDb2dVertex
 10
1203.883636855423
 20
873.4164572102425
 30
0.0
  0
VERTEX
  5
1099
330
1096
100
AcDbEntity
  8
0
100
AcDbVertex
100
AcDb2dVertex
 10
1202.647873305618
 20
873.2299490315316
 30
0.0
  0
VERTEX
  5
109A
330
1096
100
AcDbEntity
  8
0
100
AcDbVertex
100
AcDb2dVertex
 10
1201.404648207962
 20
872.9957418782113
 30
0.0
  0
VERTEX
  5
109B
330
1096
100
AcDbEntity
  8
0
100
AcDbVertex
100
AcDb2dVertex
 10
1200.157181166946
 20
872.7166738850471
 30
0.0
  0
VERTEX
  5
109C
330
1096
100
AcDbEntity
  8
0
100
AcDbVertex
100
AcDb2dVertex
 10
1197.712967299759
 20
872.0539999348519
 30
0.0
  0
SEQEND
  5
109D
330
1096
100
AcDbEntity
  8
0
  0
LINE
  5
109E
330
1F
100
AcDbEntity
  8
0
 62
     7
 48
0.1
100
AcDbLine
 10
1197.712967299759
 20
872.0539999348519
 30
0.0
 11
1197.712967299759
 21
868.0539999348518
 31
0.0
  0
POLYLINE
  5
109F
330
1F
100
AcDbEntity
  8
0
 62
     7
100
AcDb2dPolyline
 66
     1
 10
0.0
 20
0.0
 30
0.0
  0
VERTEX
  5
10A0
330
109F
100
AcDbEntity
  8
0
100
AcDbVertex
100
AcDb2dVertex
 10
1205.11529579097
 20
866.5539999348519
 30
0.0
  0
VERTEX
  5
10A1
330
109F
100
AcDbEntity
  8
0
100
AcDbVertex
100
AcDb2dVertex
 10
1203.883636855423
 20
866.6915426594613
 30
0.0
  0
VERTEX
  5
10A2
330
109F
100
AcDbEntity
  8
0
100
AcDbVertex
100
AcDb2dVertex
 10
1202.647873305618
 20
866.8780508381725
 30
0.0
  0
VERTEX
  5
10A3
330
109F
100
AcDbEntity
  8
0
100
AcDbVertex
100
AcDb2dVertex
 10
1201.404648207962
 20
867.1122579914928
 30
0.0
  0
VERTEX
  5
10A4
330
109F
100
AcDbEntity
  8
0
100
AcDbVertex
100
AcDb2dVertex
 10
1200.157181166946
 20
867.3913259846566
 30
0.0
  0
VERTEX
  5
10A5
330
109F
100
AcDbEntity
  8
0
100
AcDbVertex
100
AcDb2dVertex
 10
1197.712967299759
 20
868.0539999348518
 30
0.0
  0
SEQEND
  5
10A6
330
109F
100
AcDbEntity
  8
0
  0
LINE
  5
10A7
330
1F
100
AcDbEntity
  8
0
 62
     7
 48
0.1350654602050781
100
AcDbLine
 10
1210.517914199173
 20
866.5539999348519
 30
0.0
 11
1205.11529579097
 21
866.5539999348519
 31
0.0
  0
POLYLINE
  5
10A8
330
1F
100
AcDbEntity
  8
0
 62
     7
100
AcDb2dPolyline
 66
     1
 10
0.0
 20
0.0
 30
0.0
  0
VERTEX
  5
10A9
330
10A8
100
AcDbEntity
  8
0
100
AcDbVertex
100
AcDb2dVertex
 10
1210.517914199173
 20
866.5539999348519
 30
0.0
  0
VERTEX
  5
10AA
330
10A8
100
AcDbEntity
  8
0
100
AcDbVertex
100
AcDb2dVertex
 10
1211.74957313472
 20
866.6915426594613
 30
0.0
  0
VERTEX
  5
10AB
330
10A8
100
AcDbEntity
  8
0
100
AcDbVertex
100
AcDb2dVertex
 10
1212.985336684525
 20
866.8780508381725
 30
0.0
  0
VERTEX
  5
10AC
330
10A8
100
AcDbEntity
  8
0
100
AcDbVertex
100
AcDb2dVertex
 10
1214.228561782181
 20
867.1122579914928
 30
0.0
  0
VERTEX
  5
10AD
330
10A8
100
AcDbEntity
  8
0
100
AcDbVertex
100
AcDb2dVertex
 10
1215.476028823196
 20
867.3913259846566
 30
0.0
  0
VERTEX
  5
10AE
330
10A8
100
AcDbEntity
  8
0
100
AcDbVertex
100
AcDb2dVertex
 10
1217.920242690384
 20
868.0539999348518
 30
0.0
  0
SEQEND
  5
10AF
330
10A8
100
AcDbEntity
  8
0
  0
LINE
  5
10B0
330
1F
100
AcDbEntity
  8
0
 62
     7
 48
0.1
100
AcDbLine
 10
1217.920242690384
 20
872.0539999348519
 30
0.0
 11
1217.920242690384
 21
868.0539999348518
 31
0.0
  0
POLYLINE
  5
10B1
330
1F
100
AcDbEntity
  8
0
 62
     7
100
AcDb2dPolyline
 66
     1
 10
0.0
 20
0.0
 30
0.0
  0
VERTEX
  5
10B2
330
10B1
100
AcDbEntity
  8
0
100
AcDbVertex
100
AcDb2dVertex
 10
1194.011810683548
 20
873.5539999348517
 30
0.0
  0
VERTEX
  5
10B3
330
10B1
100
AcDbEntity
  8
0
100
AcDbVertex
100
AcDb2dVertex
 10
1194.603699111282
 20
873.4227133137585
 30
0.0
  0
VERTEX
  5
10B4
330
10B1
100
AcDbEntity
  8
0
100
AcDbVertex
100
AcDb2dVertex
 10
1195.197479628861
 20
873.2461386067269
 30
0.0
  0
VERTEX
  5
10B5
330
10B1
100
AcDbEntity
  8
0
100
AcDbVertex
100
AcDb2dVertex
 10
1195.843033217728
 20
873.005675349891
 30
0.0
  0
VERTEX
  5
10B6
330
10B1
100
AcDbEntity
  8
0
100
AcDbVertex
100
AcDb2dVertex
 10
1196.490875624954
 20
872.7166738850471
 30
0.0
  0
VERTEX
  5
10B7
330
10B1
100
AcDbEntity
  8
0
100
AcDbVertex
100
AcDb2dVertex
 10
1197.712967299759
 20
872.0539999348519
 30
0.0
  0
SEQEND
  5
10B8
330
10B1
100
AcDbEntity
  8
0
  0
LINE
  5
10B9
330
1F
100
AcDbEntity
  8
0
 62
     7
 48
0.0675327301025391
100
AcDbLine
 10
1194.011810683548
 20
873.5539999348517
 30
0.0
 11
1191.310501479446
 21
873.5539999348517
 31
0.0
  0
POLYLINE
  5
10BA
330
1F
100
AcDbEntity
  8
0
 62
     7
100
AcDb2dPolyline
 66
     1
 10
0.0
 20
0.0
 30
0.0
  0
VERTEX
  5
10BB
330
10BA
100
AcDbEntity
  8
0
100
AcDbVertex
100
AcDb2dVertex
 10
1191.310501479446
 20
873.5539999348517
 30
0.0
  0
VERTEX
  5
10BC
330
10BA
100
AcDbEntity
  8
0
100
AcDbVertex
100
AcDb2dVertex
 10
1190.718613051712
 20
873.4227133137585
 30
0.0
  0
VERTEX
  5
10BD
330
10BA
100
AcDbEntity
  8
0
100
AcDbVertex
100
AcDb2dVertex
 10
1190.124847792923
 20
873.2461386067269
 30
0.0
  0
VERTEX
  5
10BE
330
10BA
100
AcDbEntity
  8
0
100
AcDbVertex
100
AcDb2dVertex
 10
1189.479294204056
 20
873.005675349891
 30
0.0
  0
VERTEX
  5
10BF
330
10BA
100
AcDbEntity
  8
0
100
AcDbVertex
100
AcDb2dVertex
 10
1188.831451796829
 20
872.7166738850471
 30
0.0
  0
VERTEX
  5
10C0
330
10BA
100
AcDbEntity
  8
0
100
AcDbVertex
100
AcDb2dVertex
 10
1187.609344863236
 20
872.0539999348519
 30
0.0
  0
SEQEND
  5
10C1
330
10BA
100
AcDbEntity
  8
0
  0
LINE
  5
10C2
330
1F
100
AcDbEntity
  8
0
 62
     7
 48
0.1
100
AcDbLine
 10
1187.609344863236
 20
872.0539999348519
 30
0.0
 11
1187.609344863236
 21
868.0539999348518
 31
0.0
  0
POLYLINE
  5
10C3
330
1F
100
AcDbEntity
  8
0
 62
     7
100
AcDb2dPolyline
 66
     1
 10
0.0
 20
0.0
 30
0.0
  0
VERTEX
  5
10C4
330
10C3
100
AcDbEntity
  8
0
100
AcDbVertex
100
AcDb2dVertex
 10
1191.310501479446
 20
866.5539999348519
 30
0.0
  0
VERTEX
  5
10C5
330
10C3
100
AcDbEntity
  8
0
100
AcDbVertex
100
AcDb2dVertex
 10
1190.718613051712
 20
866.6852865559459
 30
0.0
  0
VERTEX
  5
10C6
330
10C3
100
AcDbEntity
  8
0
100
AcDbVertex
100
AcDb2dVertex
 10
1190.124847792923
 20
866.8618612629769
 30
0.0
  0
VERTEX
  5
10C7
330
10C3
100
AcDbEntity
  8
0
100
AcDbVertex
100
AcDb2dVertex
 10
1189.479294204056
 20
867.1023245198131
 30
0.0
  0
VERTEX
  5
10C8
330
10C3
100
AcDbEntity
  8
0
100
AcDbVertex
100
AcDb2dVertex
 10
1188.831451796829
 20
867.3913259846566
 30
0.0
  0
VERTEX
  5
10C9
330
10C3
100
AcDbEntity
  8
0
100
AcDbVertex
100
AcDb2dVertex
 10
1187.609344863236
 20
868.0539999348518
 30
0.0
  0
SEQEND
  5
10CA
330
10C3
100
AcDbEntity
  8
0
  0
LINE
  5
10CB
330
1F
100
AcDbEntity
  8
0
 62
     7
 48
0.0675327301025391
100
AcDbLine
 10
1194.011810683548
 20
866.5539999348519
 30
0.0
 11
1191.310501479446
 21
866.5539999348519
 31
0.0
  0
POLYLINE
  5
10CC
330
1F
100
AcDbEntity
  8
0
 62
     7
100
AcDb2dPolyline
 66
     1
 10
0.0
 20
0.0
 30
0.0
  0
VERTEX
  5
10CD
330
10CC
100
AcDbEntity
  8
0
100
AcDbVertex
100
AcDb2dVertex
 10
1194.011810683548
 20
866.5539999348519
 30
0.0
  0
VERTEX
  5
10CE
330
10CC
100
AcDbEntity
  8
0
100
AcDbVertex
100
AcDb2dVertex
 10
1194.603699111282
 20
866.6852865559459
 30
0.0
  0
VERTEX
  5
10CF
330
10CC
100
AcDbEntity
  8
0
100
AcDbVertex
100
AcDb2dVertex
 10
1195.197479628861
 20
866.8618612629769
 30
0.0
  0
VERTEX
  5
10D0
330
10CC
100
AcDbEntity
  8
0
100
AcDbVertex
100
AcDb2dVertex
 10
1195.843033217728
 20
867.1023245198131
 30
0.0
  0
VERTEX
  5
10D1
330
10CC
100
AcDbEntity
  8
0
100
AcDbVertex
100
AcDb2dVertex
 10
1196.490875624954
 20
867.3913259846566
 30
0.0
  0
VERTEX
  5
10D2
330
10CC
100
AcDbEntity
  8
0
100
AcDbVertex
100
AcDb2dVertex
 10
1197.712967299759
 20
868.0539999348518
 30
0.0
  0
SEQEND
  5
10D3
330
10CC
100
AcDbEntity
  8
0
  0
LINE
  5
10D4
330
1F
100
AcDbEntity
  8
0
 62
     7
 48
0.1
100
AcDbLine
 10
1228.023865126907
 20
872.0539999348519
 30
0.0
 11
1228.023865126907
 21
868.0539999348518
 31
0.0
  0
POLYLINE
  5
10D5
330
1F
100
AcDbEntity
  8
0
 62
     7
100
AcDb2dPolyline
 66
     1
 10
0.0
 20
0.0
 30
0.0
  0
VERTEX
  5
10D6
330
10D5
100
AcDbEntity
  8
0
100
AcDbVertex
100
AcDb2dVertex
 10
1224.322708510697
 20
873.5539999348517
 30
0.0
  0
VERTEX
  5
10D7
330
10D5
100
AcDbEntity
  8
0
100
AcDbVertex
100
AcDb2dVertex
 10
1224.914596938431
 20
873.4227133137585
 30
0.0
  0
VERTEX
  5
10D8
330
10D5
100
AcDbEntity
  8
0
100
AcDbVertex
100
AcDb2dVertex
 10
1225.50836219722
 20
873.2461386067269
 30
0.0
  0
VERTEX
  5
10D9
330
10D5
100
AcDbEntity
  8
0
100
AcDbVertex
100
AcDb2dVertex
 10
1226.153915786087
 20
873.005675349891
 30
0.0
  0
VERTEX
  5
10DA
330
10D5
100
AcDbEntity
  8
0
100
AcDbVertex
100
AcDb2dVertex
 10
1226.801758193314
 20
872.7166738850471
 30
0.0
  0
VERTEX
  5
10DB
330
10D5
100
AcDbEntity
  8
0
100
AcDbVertex
100
AcDb2dVertex
 10
1228.023865126907
 20
872.0539999348519
 30
0.0
  0
SEQEND
  5
10DC
330
10D5
100
AcDbEntity
  8
0
  0
LINE
  5
10DD
330
1F
100
AcDbEntity
  8
0
 62
     7
 48
0.0675327301025391
100
AcDbLine
 10
1224.322708510697
 20
873.5539999348517
 30
0.0
 11
1221.621399306595
 21
873.5539999348517
 31
0.0
  0
POLYLINE
  5
10DE
330
1F
100
AcDbEntity
  8
0
 62
     7
100
AcDb2dPolyline
 66
     1
 10
0.0
 20
0.0
 30
0.0
  0
VERTEX
  5
10DF
330
10DE
100
AcDbEntity
  8
0
100
AcDbVertex
100
AcDb2dVertex
 10
1221.621399306595
 20
873.5539999348517
 30
0.0
  0
VERTEX
  5
10E0
330
10DE
100
AcDbEntity
  8
0
100
AcDbVertex
100
AcDb2dVertex
 10
1221.029510878861
 20
873.4227133137585
 30
0.0
  0
VERTEX
  5
10E1
330
10DE
100
AcDbEntity
  8
0
100
AcDbVertex
100
AcDb2dVertex
 10
1220.435730361282
 20
873.2461386067269
 30
0.0
  0
VERTEX
  5
10E2
330
10DE
100
AcDbEntity
  8
0
100
AcDbVertex
100
AcDb2dVertex
 10
1219.790176772415
 20
873.005675349891
 30
0.0
  0
VERTEX
  5
10E3
330
10DE
100
AcDbEntity
  8
0
100
AcDbVertex
100
AcDb2dVertex
 10
1219.142334365189
 20
872.7166738850471
 30
0.0
  0
VERTEX
  5
10E4
330
10DE
100
AcDbEntity
  8
0
100
AcDbVertex
100
AcDb2dVertex
 10
1217.920242690384
 20
872.0539999348519
 30
0.0
  0
SEQEND
  5
10E5
330
10DE
100
AcDbEntity
  8
0
  0
POLYLINE
  5
10E6
330
1F
100
AcDbEntity
  8
0
 62
     7
100
AcDb2dPolyline
 66
     1
 10
0.0
 20
0.0
 30
0.0
  0
VERTEX
  5
10E7
330
10E6
100
AcDbEntity
  8
0
100
AcDbVertex
100
AcDb2dVertex
 10
1221.621399306595
 20
866.5539999348519
 30
0.0
  0
VERTEX
  5
10E8
330
10E6
100
AcDbEntity
  8
0
100
AcDbVertex
100
AcDb2dVertex
 10
1221.029510878861
 20
866.6852865559459
 30
0.0
  0
VERTEX
  5
10E9
330
10E6
100
AcDbEntity
  8
0
100
AcDbVertex
100
AcDb2dVertex
 10
1220.435730361282
 20
866.8618612629769
 30
0.0
  0
VERTEX
  5
10EA
330
10E6
100
AcDbEntity
  8
0
100
AcDbVertex
100
AcDb2dVertex
 10
1219.790176772415
 20
867.1023245198131
 30
0.0
  0
VERTEX
  5
10EB
330
10E6
100
AcDbEntity
  8
0
100
AcDbVertex
100
AcDb2dVertex
 10
1219.142334365189
 20
867.3913259846566
 30
0.0
  0
VERTEX
  5
10EC
330
10E6
100
AcDbEntity
  8
0
100
AcDbVertex
100
AcDb2dVertex
 10
1217.920242690384
 20
868.0539999348518
 30
0.0
  0
SEQEND
  5
10ED
330
10E6
100
AcDbEntity
  8
0
  0
LINE
  5
10EE
330
1F
100
AcDbEntity
  8
0
 62
     7
 48
0.0675327301025391
100
AcDbLine
 10
1224.322708510697
 20
866.5539999348519
 30
0.0
 11
1221.621399306595
 21
866.5539999348519
 31
0.0
  0
POLYLINE
  5
10EF
330
1F
100
AcDbEntity
  8
0
 62
     7
100
AcDb2dPolyline
 66
     1
 10
0.0
 20
0.0
 30
0.0
  0
VERTEX
  5
10F0
330
10EF
100
AcDbEntity
  8
0
100
AcDbVertex
100
AcDb2dVertex
 10
1224.322708510697
 20
866.5539999348519
 30
0.0
  0
VERTEX
  5
10F1
330
10EF
100
AcDbEntity
  8
0
100
AcDbVertex
100
AcDb2dVertex
 10
1224.914596938431
 20
866.6852865559459
 30
0.0
  0
VERTEX
  5
10F2
330
10EF
100
AcDbEntity
  8
0
100
AcDbVertex
100
AcDb2dVertex
 10
1225.50836219722
 20
866.8618612629769
 30
0.0
  0
VERTEX
  5
10F3
330
10EF
100
AcDbEntity
  8
0
100
AcDbVertex
100
AcDb2dVertex
 10
1226.153915786087
 20
867.1023245198131
 30
0.0
  0
VERTEX
  5
10F4
330
10EF
100
AcDbEntity
  8
0
100
AcDbVertex
100
AcDb2dVertex
 10
1226.801758193314
 20
867.3913259846566
 30
0.0
  0
VERTEX
  5
10F5
330
10EF
100
AcDbEntity
  8
0
100
AcDbVertex
100
AcDb2dVertex
 10
1228.023865126907
 20
868.0539999348518
 30
0.0
  0
SEQEND
  5
10F6
330
10EF
100
AcDbEntity
  8
0
  0
LINE
  5
10F7
330
1F
100
AcDbEntity
  8
0
 62
     7
 48
0.2775871276855469
100
AcDbLine
 10
1194.011810683548
 20
866.5539999348519
 30
0.0
 11
1205.11529579097
 21
866.5539999348519
 31
0.0
  0
LINE
  5
10F8
330
1F
100
AcDbEntity
  8
0
 62
     7
 48
0.0300289154052734
100
AcDbLine
 10
1190.109344863235
 20
866.5539999348519
 30
0.0
 11
1191.310501479446
 21
866.5539999348519
 31
0.0
  0
LINE
  5
10F9
330
1F
100
AcDbEntity
  8
0
 62
     7
 48
0.0300289154052734
100
AcDbLine
 10
1224.322708510697
 20
866.5539999348519
 30
0.0
 11
1225.523865126907
 21
866.5539999348519
 31
0.0
  0
LINE
  5
10FA
102
{ACAD_REACTORS
330
123D
102
}
330
1F
100
AcDbEntity
  8
0
 62
     7
 48
0.2775871276855469
100
AcDbLine
 10
1210.517914199173
 20
866.5539999348519
 30
0.0
 11
1221.621399306595
 21
866.5539999348519
 31
0.0
  0
LINE
  5
10FB
330
1F
100
AcDbEntity
  8
0
 62
     7
 48
0.2775871276855469
100
AcDbLine
 10
1194.011810683548
 20
873.5539999348517
 30
0.0
 11
1205.11529579097
 21
873.5539999348517
 31
0.0
  0
LINE
  5
10FC
330
1F
100
AcDbEntity
  8
0
 62
     7
 48
0.0300289154052734
100
AcDbLine
 10
1190.109344863235
 20
873.5539999348517
 30
0.0
 11
1191.310501479446
 21
873.5539999348517
 31
0.0
  0
LINE
  5
10FD
330
1F
100
AcDbEntity
  8
0
 62
     7
 48
0.0300289154052734
100
AcDbLine
 10
1224.322708510697
 20
873.5539999348517
 30
0.0
 11
1225.523865126907
 21
873.5539999348517
 31
0.0
  0
LINE
  5
10FE
330
1F
100
AcDbEntity
  8
0
 62
     7
 48
0.2775871276855469
100
AcDbLine
 10
1210.517914199173
 20
873.5539999348517
 30
0.0
 11
1221.621399306595
 21
873.5539999348517
 31
0.0
  0
LINE
  5
10FF
330
1F
100
AcDbEntity
  8
0
 62
     7
 48
0.0728868986855663
100
AcDbLine
 10
1225.523865126907
 20
866.5539999348519
 30
0.0
 11
1228.023865126907
 21
868.0539999348518
 31
0.0
  0
LINE
  5
1100
330
1F
100
AcDbEntity
  8
0
 62
     7
 48
0.0728868986855663
100
AcDbLine
 10
1225.523865126907
 20
873.5539999348517
 30
0.0
 11
1228.023865126907
 21
872.0539999348519
 31
0.0
  0
LINE
  5
1101
330
1F
100
AcDbEntity
  8
0
 62
     7
 48
0.0728868986855663
100
AcDbLine
 10
1190.109344863235
 20
873.5539999348517
 30
0.0
 11
1187.609344863236
 21
872.0539999348519
 31
0.0
  0
LINE
  5
1102
330
1F
100
AcDbEntity
  8
0
 62
     7
 48
0.0728868986855663
100
AcDbLine
 10
1190.109344863235
 20
866.5539999348519
 30
0.0
 11
1187.609344863236
 21
868.0539999348518
 31
0.0
  0
LINE
  5
11C3
330
1F
100
AcDbEntity
  8
LOGO_VON_SCHLASSE_120709
 62
     7
100
AcDbLine
 10
2701.728994823965
 20
310.0488314302806
 30
0.0
 11
2701.728994823965
 21
318.4685048960441
 31
0.0
  0
LINE
  5
11C4
330
1F
100
AcDbEntity
  8
LOGO_VON_SCHLASSE_120709
 62
     7
100
AcDbLine
 10
2701.728994823965
 20
318.4685048960441
 30
0.0
 11
2695.417807101496
 21
318.4685048960441
 31
0.0
  0
SPLINE
  5
11C5
330
1F
100
AcDbEntity
  8
LOGO_VON_SCHLASSE_120709
 62
     7
100
AcDbSpline
210
0.0
220
0.0
230
1.0
 70
     8
 71
     3
 72
     8
 73
     4
 74
     0
 42
0.0000000001
 43
0.0000000001
 40
8.739716666666684
 40
8.739716666666684
 40
8.739716666666684
 40
8.739716666666684
 40
9.739716666666687
 40
9.739716666666687
 40
9.739716666666687
 40
9.739716666666687
 10
2695.417807569691
 20
318.4685043342083
 30
0.0
 10
2686.436823738127
 20
318.4685043342083
 30
0.0
 10
2682.310232915096
 20
312.9630137822715
 30
0.0
 10
2682.310232915096
 20
304.300146102049
 30
0.0
  0
LINE
  5
11C6
330
1F
100
AcDbEntity
  8
LOGO_VON_SCHLASSE_120709
 62
     7
100
AcDbLine
 10
2682.310233008735
 20
304.300146476607
 30
0.0
 11
2682.310233008735
 21
277.194866553282
 31
0.0
  0
LINE
  5
11C7
330
1F
100
AcDbEntity
  8
LOGO_VON_SCHLASSE_120709
 62
     7
100
AcDbLine
 10
2682.310233008735
 20
277.194866553282
 30
0.0
 11
2691.210945289543
 21
277.194866553282
 31
0.0
  0
LINE
  5
11C8
330
1F
100
AcDbEntity
  8
LOGO_VON_SCHLASSE_120709
 62
     7
100
AcDbLine
 10
2691.210945289543
 20
277.194866553282
 30
0.0
 11
2691.210945289543
 21
303.4908820228604
 31
0.0
  0
SPLINE
  5
11C9
330
1F
100
AcDbEntity
  8
LOGO_VON_SCHLASSE_120709
 62
     7
100
AcDbSpline
210
0.0
220
0.0
230
1.0
 70
     8
 71
     3
 72
     8
 73
     4
 74
     0
 42
0.0000000001
 43
0.0000000001
 40
46.70306666666665
 40
46.70306666666665
 40
46.70306666666665
 40
46.70306666666665
 40
47.70306666666665
 40
47.70306666666665
 40
47.70306666666665
 40
47.70306666666665
 10
2691.210944446791
 20
303.4908823974177
 30
0.0
 10
2691.210944446791
 20
307.5383901398345
 30
0.0
 10
2692.909744155924
 20
310.0488319921167
 30
0.0
 10
2697.278935707457
 20
310.0488319921167
 30
0.0
  0
LINE
  5
11CA
330
1F
100
AcDbEntity
  8
LOGO_VON_SCHLASSE_120709
 62
     7
100
AcDbLine
 10
2697.278936175653
 20
310.0488314302806
 30
0.0
 11
2701.728994823965
 21
310.0488314302806
 31
0.0
  0
LINE
  5
11CB
330
1F
100
AcDbEntity
  8
LOGO_VON_SCHLASSE_120709
 62
     7
100
AcDbLine
 10
2735.466371319929
 20
294.4292695002036
 30
0.0
 11
2735.466371319929
 21
302.5195273588935
 31
0.0
  0
SPLINE
  5
11CC
330
1F
100
AcDbEntity
  8
LOGO_VON_SCHLASSE_120709
 62
     7
100
AcDbSpline
210
0.0
220
0.0
230
1.0
 70
     8
 71
     3
 72
     8
 73
     4
 74
     0
 42
0.0000000001
 43
0.0000000001
 40
4.799894444444444
 40
4.799894444444444
 40
4.799894444444444
 40
4.799894444444444
 40
5.799894444444443
 40
5.799894444444443
 40
5.799894444444443
 40
5.799894444444443
 10
2735.466371507209
 20
302.5195281080079
 30
0.0
 10
2735.466371507209
 20
312.0737156216191
 30
0.0
 10
2730.611978498672
 20
318.4693367876886
 30
0.0
 10
2721.063737081348
 20
318.4693367876886
 30
0.0
  0
LINE
  5
11CD
330
1F
100
AcDbEntity
  8
LOGO_VON_SCHLASSE_120709
 62
     7
100
AcDbLine
 10
2721.063737455907
 20
318.4693375368036
 30
0.0
 11
2719.365531232728
 21
318.4693375368036
 31
0.0
  0
SPLINE
  5
11CE
330
1F
100
AcDbEntity
  8
LOGO_VON_SCHLASSE_120709
 62
     7
100
AcDbSpline
210
0.0
220
0.0
230
1.0
 70
     8
 71
     3
 72
     8
 73
     4
 74
     0
 42
0.0000000001
 43
0.0000000001
 40
6.807427777777782
 40
6.807427777777782
 40
6.807427777777782
 40
6.807427777777782
 40
7.807427777777782
 40
7.807427777777782
 40
7.807427777777782
 40
7.807427777777782
 10
2719.365531981845
 20
318.4693367876886
 30
0.0
 10
2709.736423655018
 20
318.4693367876886
 30
0.0
 10
2704.720296827483
 20
312.0737156216191
 30
0.0
 10
2704.720296827483
 20
302.5195281080079
 30
0.0
  0
LINE
  5
11CF
330
1F
100
AcDbEntity
  8
LOGO_VON_SCHLASSE_120709
 62
     7
100
AcDbLine
 10
2704.720297202042
 20
302.5195273588935
 30
0.0
 11
2704.720297202042
 21
293.1348047131268
 31
0.0
  0
SPLINE
  5
11D0
330
1F
100
AcDbEntity
  8
LOGO_VON_SCHLASSE_120709
 62
     7
100
AcDbSpline
210
0.0
220
0.0
230
1.0
 70
     8
 71
     3
 72
     8
 73
     4
 74
     0
 42
0.0000000001
 43
0.0000000001
 40
13.37531944444445
 40
13.37531944444445
 40
13.37531944444445
 40
13.37531944444445
 40
14.37531944444445
 40
14.37531944444445
 40
14.37531944444445
 40
14.37531944444445
 10
2704.720296827483
 20
293.13480433857
 30
0.0
 10
2704.720296827483
 20
282.5352930977408
 30
0.0
 10
2710.626554269151
 20
277.1951040225765
 30
0.0
 10
2720.416207195718
 20
277.1951040225765
 30
0.0
  0
LINE
  5
11D1
330
1F
100
AcDbEntity
  8
LOGO_VON_SCHLASSE_120709
 62
     7
100
AcDbLine
 10
2720.416207570277
 20
277.195104209855
 30
0.0
 11
2733.443509363165
 21
277.195104209855
 31
0.0
  0
LINE
  5
11D2
330
1F
100
AcDbEntity
  8
LOGO_VON_SCHLASSE_120709
 62
     7
100
AcDbLine
 10
2733.443509363165
 20
277.195104209855
 30
0.0
 11
2733.443509363165
 21
285.1248174688014
 31
0.0
  0
LINE
  5
11D3
330
1F
100
AcDbEntity
  8
LOGO_VON_SCHLASSE_120709
 62
     7
100
AcDbLine
 10
2733.443509363165
 20
285.1248174688014
 30
0.0
 11
2721.2260653227
 21
285.1248174688014
 31
0.0
  0
SPLINE
  5
11D4
330
1F
100
AcDbEntity
  8
LOGO_VON_SCHLASSE_120709
 62
     7
100
AcDbSpline
210
0.0
220
0.0
230
1.0
 70
     8
 71
     3
 72
     8
 73
     4
 74
     0
 42
0.0000000001
 43
0.0000000001
 40
34.05749722222223
 40
34.05749722222223
 40
34.05749722222223
 40
34.05749722222223
 40
35.05749722222223
 40
35.05749722222223
 40
35.05749722222223
 40
35.05749722222223
 10
2721.226065509978
 20
285.1248180306372
 30
0.0
 10
2716.129071772944
 20
285.1248180306372
 30
0.0
 10
2713.619819139917
 20
288.2798167204072
 30
0.0
 10
2713.619819139917
 20
292.5681413624383
 30
0.0
  0
LINE
  5
11D5
330
1F
100
AcDbEntity
  8
LOGO_VON_SCHLASSE_120709
 62
     7
100
AcDbLine
 10
2713.619819514476
 20
292.5681421115531
 30
0.0
 11
2713.619819514476
 21
294.4292695002036
 31
0.0
  0
LINE
  5
11D6
330
1F
100
AcDbEntity
  8
LOGO_VON_SCHLASSE_120709
 62
     7
100
AcDbLine
 10
2713.619819514476
 20
294.4292695002036
 30
0.0
 11
2735.466371319929
 21
294.4292695002036
 31
0.0
  0
LINE
  5
11D7
330
1F
100
AcDbEntity
  8
LOGO_VON_SCHLASSE_120709
 62
     7
100
AcDbLine
 10
2726.56566072463
 20
301.0639229878874
 30
0.0
 11
2713.619819514476
 21
301.0639229878874
 31
0.0
  0
LINE
  5
11D8
330
1F
100
AcDbEntity
  8
LOGO_VON_SCHLASSE_120709
 62
     7
100
AcDbLine
 10
2713.619819514476
 20
301.0639229878874
 30
0.0
 11
2713.619819514476
 21
303.3293867968254
 31
0.0
  0
SPLINE
  5
11D9
330
1F
100
AcDbEntity
  8
LOGO_VON_SCHLASSE_120709
 62
     7
100
AcDbSpline
210
0.0
220
0.0
230
1.0
 70
     8
 71
     3
 72
     8
 73
     4
 74
     0
 42
0.0000000001
 43
0.0000000001
 40
9.024761111111118
 40
9.024761111111118
 40
9.024761111111118
 40
9.024761111111118
 40
10.02476111111112
 40
10.02476111111112
 40
10.02476111111112
 40
10.02476111111112
 10
2713.619819139917
 20
303.3293864222681
 30
0.0
 10
2713.619819139917
 20
307.3768941646849
 30
0.0
 10
2715.158074249313
 20
311.0206619692295
 30
0.0
 10
2719.446398891342
 20
311.0206619692295
 30
0.0
  0
LINE
  5
11DA
330
1F
100
AcDbEntity
  8
LOGO_VON_SCHLASSE_120709
 62
     7
100
AcDbLine
 10
2719.446398516786
 20
311.0206614073927
 30
0.0
 11
2720.821135603735
 21
311.0206614073927
 31
0.0
  0
SPLINE
  5
11DB
330
1F
100
AcDbEntity
  8
LOGO_VON_SCHLASSE_120709
 62
     7
100
AcDbSpline
210
0.0
220
0.0
230
1.0
 70
     8
 71
     3
 72
     8
 73
     4
 74
     0
 42
0.0000000001
 43
0.0000000001
 40
10.84038333333334
 40
10.84038333333334
 40
10.84038333333334
 40
10.84038333333334
 40
11.84038333333335
 40
11.84038333333335
 40
11.84038333333335
 40
11.84038333333335
 10
2720.821136352846
 20
311.0206619692295
 30
0.0
 10
2725.110055604508
 20
311.0206619692295
 30
0.0
 10
2726.565659975513
 20
307.3768941646849
 30
0.0
 10
2726.565659975513
 20
303.3293864222681
 30
0.0
  0
LINE
  5
11DC
330
1F
100
AcDbEntity
  8
LOGO_VON_SCHLASSE_120709
 62
     7
100
AcDbLine
 10
2726.56566072463
 20
303.3293867968254
 30
0.0
 11
2726.56566072463
 21
301.0639229878874
 31
0.0
  0
LINE
  5
11DD
330
1F
100
AcDbEntity
  8
LOGO_VON_SCHLASSE_120709
 62
     7
100
AcDbLine
 10
2759.534742400295
 20
326.3976838490788
 30
0.0
 11
2759.534742400295
 21
334.6502695745615
 31
0.0
  0
LINE
  5
11DE
330
1F
100
AcDbEntity
  8
LOGO_VON_SCHLASSE_120709
 62
     7
100
AcDbLine
 10
2759.534742400295
 20
334.6502695745615
 30
0.0
 11
2753.628484396795
 21
334.6502695745615
 31
0.0
  0
SPLINE
  5
11DF
330
1F
100
AcDbEntity
  8
LOGO_VON_SCHLASSE_120709
 62
     7
100
AcDbSpline
210
0.0
220
0.0
230
1.0
 70
     8
 71
     3
 72
     8
 73
     4
 74
     0
 42
0.0000000001
 43
0.0000000001
 40
8.400344444444426
 40
8.400344444444426
 40
8.400344444444426
 40
8.400344444444426
 40
9.400344444444426
 40
9.400344444444426
 40
9.400344444444426
 40
9.400344444444426
 10
2753.628484771349
 20
334.6502702300372
 30
0.0
 10
2747.640765810555
 20
334.6502702300372
 30
0.0
 10
2742.947512011392
 20
331.6570053592678
 30
0.0
 10
2742.947512011392
 20
322.9994891657036
 30
0.0
  0
LINE
  5
11E0
330
1F
100
AcDbEntity
  8
LOGO_VON_SCHLASSE_120709
 62
     7
100
AcDbLine
 10
2742.947512011395
 20
322.9994898211791
 30
0.0
 11
2742.947512011395
 21
318.4685638888107
 31
0.0
  0
LINE
  5
11E1
330
1F
100
AcDbEntity
  8
LOGO_VON_SCHLASSE_120709
 62
     7
100
AcDbLine
 10
2742.947512011395
 20
318.4685638888107
 30
0.0
 11
2737.284449158742
 21
318.4685638888107
 31
0.0
  0
LINE
  5
11E2
330
1F
100
AcDbEntity
  8
LOGO_VON_SCHLASSE_120709
 62
     7
100
AcDbLine
 10
2737.284449158742
 20
318.4685638888107
 30
0.0
 11
2737.284449158742
 21
310.6155547101285
 31
0.0
  0
LINE
  5
11E3
330
1F
100
AcDbEntity
  8
LOGO_VON_SCHLASSE_120709
 62
     7
100
AcDbLine
 10
2737.284449158742
 20
310.6155547101285
 30
0.0
 11
2742.947512011395
 21
310.6155547101285
 31
0.0
  0
LINE
  5
11E4
330
1F
100
AcDbEntity
  8
LOGO_VON_SCHLASSE_120709
 62
     7
100
AcDbLine
 10
2742.947512011395
 20
310.6155547101285
 30
0.0
 11
2742.947512011395
 21
277.1955205302342
 31
0.0
  0
LINE
  5
11E5
330
1F
100
AcDbEntity
  8
LOGO_VON_SCHLASSE_120709
 62
     7
100
AcDbLine
 10
2742.947512011395
 20
277.1955205302342
 30
0.0
 11
2751.848224292203
 21
277.1955205302342
 31
0.0
  0
LINE
  5
11E6
330
1F
100
AcDbEntity
  8
LOGO_VON_SCHLASSE_120709
 62
     7
100
AcDbLine
 10
2751.848224292203
 20
277.1955205302342
 30
0.0
 11
2751.848224292203
 21
310.6155547101285
 31
0.0
  0
LINE
  5
11E7
330
1F
100
AcDbEntity
  8
LOGO_VON_SCHLASSE_120709
 62
     7
100
AcDbLine
 10
2751.848224292203
 20
310.6155547101285
 30
0.0
 11
2758.72547794655
 21
310.6155547101285
 31
0.0
  0
LINE
  5
11E8
330
1F
100
AcDbEntity
  8
LOGO_VON_SCHLASSE_120709
 62
     7
100
AcDbLine
 10
2758.72547794655
 20
310.6155547101285
 30
0.0
 11
2758.72547794655
 21
318.4685638888107
 31
0.0
  0
LINE
  5
11E9
330
1F
100
AcDbEntity
  8
LOGO_VON_SCHLASSE_120709
 62
     7
100
AcDbLine
 10
2758.72547794655
 20
318.4685638888107
 30
0.0
 11
2751.848224292203
 21
318.4685638888107
 31
0.0
  0
LINE
  5
11EA
330
1F
100
AcDbEntity
  8
LOGO_VON_SCHLASSE_120709
 62
     7
100
AcDbLine
 10
2751.848224292203
 20
318.4685638888107
 30
0.0
 11
2751.848224292203
 21
322.676020684949
 31
0.0
  0
SPLINE
  5
11EB
330
1F
100
AcDbEntity
  8
LOGO_VON_SCHLASSE_120709
 62
     7
100
AcDbSpline
210
0.0
220
0.0
230
1.0
 70
     8
 71
     3
 72
     8
 73
     4
 74
     0
 42
0.0000000001
 43
0.0000000001
 40
83.7196861111111
 40
83.7196861111111
 40
83.7196861111111
 40
83.7196861111111
 40
84.7196861111111
 40
84.7196861111111
 40
84.7196861111111
 40
84.7196861111111
 10
2751.848223543085
 20
322.6760215277022
 30
0.0
 10
2751.848223543085
 20
325.6692863984714
 30
0.0
 10
2753.466750952351
 20
326.3976831936033
 30
0.0
 10
2755.327284480485
 20
326.3976831936033
 30
0.0
  0
LINE
  5
11EC
330
1F
100
AcDbEntity
  8
LOGO_VON_SCHLASSE_120709
 62
     7
100
AcDbLine
 10
2755.327283918651
 20
326.3976838490788
 30
0.0
 11
2759.534742400295
 21
326.3976838490788
 31
0.0
  0
LINE
  5
11ED
330
1F
100
AcDbEntity
  8
LOGO_VON_SCHLASSE_120709
 62
     7
100
AcDbLine
 10
2773.086014572534
 20
334.6499139324565
 30
0.0
 11
2764.185897275912
 21
334.6499139324565
 31
0.0
  0
LINE
  5
11EE
330
1F
100
AcDbEntity
  8
LOGO_VON_SCHLASSE_120709
 62
     7
100
AcDbLine
 10
2764.185897275912
 20
334.6499139324565
 30
0.0
 11
2764.185897275912
 21
277.1939749197575
 31
0.0
  0
LINE
  5
11EF
330
1F
100
AcDbEntity
  8
LOGO_VON_SCHLASSE_120709
 62
     7
100
AcDbLine
 10
2764.185897275912
 20
277.1939749197575
 30
0.0
 11
2773.086014572534
 21
277.1939749197575
 31
0.0
  0
LINE
  5
11F0
330
1F
100
AcDbEntity
  8
LOGO_VON_SCHLASSE_120709
 62
     7
100
AcDbLine
 10
2773.086014572534
 20
277.1939749197575
 30
0.0
 11
2773.086014572534
 21
334.6499139324565
 31
0.0
  0
LINE
  5
11F1
330
1F
100
AcDbEntity
  8
LOGO_VON_SCHLASSE_120709
 62
     7
100
AcDbLine
 10
2809.984811729537
 20
294.4286745160173
 30
0.0
 11
2809.984811729537
 21
302.5195273588935
 31
0.0
  0
SPLINE
  5
11F2
330
1F
100
AcDbEntity
  8
LOGO_VON_SCHLASSE_120709
 62
     7
100
AcDbSpline
210
0.0
220
0.0
230
1.0
 70
     8
 71
     3
 72
     8
 73
     4
 74
     0
 42
0.0000000001
 43
0.0000000001
 40
4.800247222222195
 40
4.800247222222195
 40
4.800247222222195
 40
4.800247222222195
 40
5.800247222222195
 40
5.800247222222195
 40
5.800247222222195
 40
5.800247222222195
 10
2809.984812385013
 20
302.5195281080079
 30
0.0
 10
2809.984812385013
 20
312.0725264023615
 30
0.0
 10
2805.130419376477
 20
318.4687421780599
 30
0.0
 10
2795.582177959156
 20
318.4687421780599
 30
0.0
  0
LINE
  5
11F3
330
1F
100
AcDbEntity
  8
LOGO_VON_SCHLASSE_120709
 62
     7
100
AcDbLine
 10
2795.582177865516
 20
318.468742552617
 30
0.0
 11
2793.882783359471
 21
318.468742552617
 31
0.0
  0
SPLINE
  5
11F4
330
1F
100
AcDbEntity
  8
LOGO_VON_SCHLASSE_120709
 62
     7
100
AcDbSpline
210
0.0
220
0.0
230
1.0
 70
     8
 71
     3
 72
     8
 73
     4
 74
     0
 42
0.0000000001
 43
0.0000000001
 40
6.808486111111077
 40
6.808486111111077
 40
6.808486111111077
 40
6.808486111111077
 40
7.808486111111077
 40
7.808486111111077
 40
7.808486111111077
 40
7.808486111111077
 10
2793.88278364039
 20
318.4687421780599
 30
0.0
 10
2784.254864532824
 20
318.4687421780599
 30
0.0
 10
2779.238143095659
 20
312.0725264023615
 30
0.0
 10
2779.238143095659
 20
302.5195281080079
 30
0.0
  0
LINE
  5
11F5
330
1F
100
AcDbEntity
  8
LOGO_VON_SCHLASSE_120709
 62
     7
100
AcDbLine
 10
2779.238142627464
 20
302.5195273588935
 30
0.0
 11
2779.238142627464
 21
293.1342097289415
 31
0.0
  0
SPLINE
  5
11F6
330
1F
100
AcDbEntity
  8
LOGO_VON_SCHLASSE_120709
 62
     7
100
AcDbSpline
210
0.0
220
0.0
230
1.0
 70
     8
 71
     3
 72
     8
 73
     4
 74
     0
 42
0.0000000001
 43
0.0000000001
 40
13.37673055555552
 40
13.37673055555552
 40
13.37673055555552
 40
13.37673055555552
 40
14.37673055555552
 40
14.37673055555552
 40
14.37673055555552
 40
14.37673055555552
 10
2779.238143095659
 20
293.1342097289412
 30
0.0
 10
2779.238143095659
 20
282.534698488112
 30
0.0
 10
2785.145589756583
 20
277.1951040225765
 30
0.0
 10
2794.934648073523
 20
277.1951040225765
 30
0.0
  0
LINE
  5
11F7
330
1F
100
AcDbEntity
  8
LOGO_VON_SCHLASSE_120709
 62
     7
100
AcDbLine
 10
2794.934647979884
 20
277.195104209855
 30
0.0
 11
2807.961949772774
 21
277.195104209855
 31
0.0
  0
LINE
  5
11F8
330
1F
100
AcDbEntity
  8
LOGO_VON_SCHLASSE_120709
 62
     7
100
AcDbLine
 10
2807.961949772774
 20
277.195104209855
 30
0.0
 11
2807.961949772774
 21
285.1248174688014
 31
0.0
  0
LINE
  5
11F9
330
1F
100
AcDbEntity
  8
LOGO_VON_SCHLASSE_120709
 62
     7
100
AcDbLine
 10
2807.961949772774
 20
285.1248174688014
 30
0.0
 11
2795.744505732309
 21
285.1248174688014
 31
0.0
  0
SPLINE
  5
11FA
330
1F
100
AcDbEntity
  8
LOGO_VON_SCHLASSE_120709
 62
     7
100
AcDbSpline
210
0.0
220
0.0
230
1.0
 70
     8
 71
     3
 72
     8
 73
     4
 74
     0
 42
0.0000000001
 43
0.0000000001
 40
34.05890833333331
 40
34.05890833333331
 40
34.05890833333331
 40
34.05890833333331
 40
35.05890833333331
 40
35.05890833333331
 40
35.05890833333331
 40
35.05890833333331
 10
2795.744506387785
 20
285.1248180306372
 30
0.0
 10
2790.647512650751
 20
285.1248180306372
 30
0.0
 10
2788.138854627353
 20
288.2792221107779
 30
0.0
 10
2788.138854627353
 20
292.5675467528101
 30
0.0
  0
LINE
  5
11FB
330
1F
100
AcDbEntity
  8
LOGO_VON_SCHLASSE_120709
 62
     7
100
AcDbLine
 10
2788.138854908271
 20
292.5675471273672
 30
0.0
 11
2788.138854908271
 21
294.4286745160173
 31
0.0
  0
LINE
  5
11FC
330
1F
100
AcDbEntity
  8
LOGO_VON_SCHLASSE_120709
 62
     7
100
AcDbLine
 10
2788.138854908271
 20
294.4286745160173
 30
0.0
 11
2809.984811729537
 21
294.4286745160173
 31
0.0
  0
LINE
  5
11FD
330
1F
100
AcDbEntity
  8
LOGO_VON_SCHLASSE_120709
 62
     7
100
AcDbLine
 10
2801.084101134236
 20
301.0633296892087
 30
0.0
 11
2788.138854908271
 21
301.0633296892087
 31
0.0
  0
LINE
  5
11FE
330
1F
100
AcDbEntity
  8
LOGO_VON_SCHLASSE_120709
 62
     7
100
AcDbLine
 10
2788.138854908271
 20
301.0633296892087
 30
0.0
 11
2788.138854908271
 21
303.3293867968254
 31
0.0
  0
SPLINE
  5
11FF
330
1F
100
AcDbEntity
  8
LOGO_VON_SCHLASSE_120709
 62
     7
100
AcDbSpline
210
0.0
220
0.0
230
1.0
 70
     8
 71
     3
 72
     8
 73
     4
 74
     0
 42
0.0000000001
 43
0.0000000001
 40
9.024761111111132
 40
9.024761111111132
 40
9.024761111111132
 40
9.024761111111132
 40
10.02476111111113
 40
10.02476111111113
 40
10.02476111111113
 40
10.02476111111113
 10
2788.138854627353
 20
303.3293864222681
 30
0.0
 10
2788.138854627353
 20
307.3768941646849
 30
0.0
 10
2789.676515127119
 20
311.0200673595997
 30
0.0
 10
2793.964245159519
 20
311.0200673595997
 30
0.0
  0
LINE
  5
1200
330
1F
100
AcDbEntity
  8
LOGO_VON_SCHLASSE_120709
 62
     7
100
AcDbLine
 10
2793.964245627718
 20
311.0200681087146
 30
0.0
 11
2795.339577698849
 21
311.0200681087146
 31
0.0
  0
SPLINE
  5
1201
330
1F
100
AcDbEntity
  8
LOGO_VON_SCHLASSE_120709
 62
     7
100
AcDbSpline
210
0.0
220
0.0
230
1.0
 70
     8
 71
     3
 72
     8
 73
     4
 74
     0
 42
0.0000000001
 43
0.0000000001
 40
10.84073611111112
 40
10.84073611111112
 40
10.84073611111112
 40
10.84073611111112
 40
11.84073611111112
 40
11.84073611111112
 40
11.84073611111112
 40
11.84073611111112
 10
2795.339577230653
 20
311.0200673595997
 30
0.0
 10
2799.627901872685
 20
311.0200673595997
 30
0.0
 10
2801.084100853319
 20
307.3768941646849
 30
0.0
 10
2801.084100853319
 20
303.3293864222681
 30
0.0
  0
LINE
  5
1202
330
1F
100
AcDbEntity
  8
LOGO_VON_SCHLASSE_120709
 62
     7
100
AcDbLine
 10
2801.084101134236
 20
303.3293867968254
 30
0.0
 11
2801.084101134236
 21
301.0633296892087
 31
0.0
  0
SPLINE
  5
1203
330
1F
100
AcDbEntity
  8
LOGO_VON_SCHLASSE_120709
 62
     7
100
AcDbSpline
210
0.0
220
0.0
230
1.0
 70
     8
 71
     3
 72
     8
 73
     4
 74
     0
 42
0.0000000001
 43
0.0000000001
 40
0.0
 40
0.0
 40
0.0
 40
0.0
 40
1.0
 40
1.0
 40
1.0
 40
1.0
 10
2839.4923152082
 20
297.9025627242049
 30
0.0
 10
2843.129542306829
 20
300.6585783531308
 30
0.0
 10
2845.005404783323
 20
305.1044745651833
 30
0.0
 10
2845.004941075681
 20
310.9411626618744
 30
0.0
  0
LINE
  5
1204
330
1F
100
AcDbEntity
  8
LOGO_VON_SCHLASSE_120709
 62
     7
100
AcDbLine
 10
2845.004940420206
 20
310.941162755514
 30
0.0
 11
2845.004347121527
 21
318.4255143389728
 31
0.0
  0
LINE
  5
1205
330
1F
100
AcDbEntity
  8
LOGO_VON_SCHLASSE_120709
 62
     7
100
AcDbLine
 10
2845.004347121527
 20
318.4255143389728
 30
0.0
 11
2836.067957701164
 21
318.4255143389728
 31
0.0
  0
LINE
  5
1206
330
1F
100
AcDbEntity
  8
LOGO_VON_SCHLASSE_120709
 62
     7
100
AcDbLine
 10
2836.067957701164
 20
318.4255143389728
 30
0.0
 11
2836.067957701164
 21
310.1283317676668
 31
0.0
  0
SPLINE
  5
1207
330
1F
100
AcDbEntity
  8
LOGO_VON_SCHLASSE_120709
 62
     7
100
AcDbSpline
210
0.0
220
0.0
230
1.0
 70
     8
 71
     3
 72
     8
 73
     4
 74
     0
 42
0.0000000001
 43
0.0000000001
 40
15.66497223623581
 40
15.66497223623581
 40
15.66497223623581
 40
15.66497223623581
 40
16.66497223623581
 40
16.66497223623581
 40
16.66497223623581
 40
16.66497223623581
 10
2836.067958356639
 20
310.1283312994709
 30
0.0
 10
2836.067958356639
 20
306.0629852681936
 30
0.0
 10
2834.524351760589
 20
302.4388395813957
 30
0.0
 10
2830.218188829697
 20
302.4388395813957
 30
0.0
  0
LINE
  5
1208
330
1F
100
AcDbEntity
  8
LOGO_VON_SCHLASSE_120709
 62
     7
100
AcDbLine
 10
2830.218189485172
 20
302.4388404241496
 30
0.0
 11
2828.836910943193
 21
302.4388404241496
 31
0.0
  0
SPLINE
  5
1209
330
1F
100
AcDbEntity
  8
LOGO_VON_SCHLASSE_120709
 62
     7
100
AcDbSpline
210
0.0
220
0.0
230
1.0
 70
     8
 71
     3
 72
     8
 73
     4
 74
     0
 42
0.0000000001
 43
0.0000000001
 40
17.48447501401361
 40
17.48447501401361
 40
17.48447501401361
 40
17.48447501401361
 40
18.48447501401361
 40
18.48447501401361
 40
18.48447501401361
 40
18.48447501401361
 10
2828.836910662277
 20
302.4388395813957
 30
0.0
 10
2824.530747731384
 20
302.4388395813957
 30
0.0
 10
2823.068602654462
 20
306.0629852681936
 30
0.0
 10
2823.068602654462
 20
310.1283312994709
 30
0.0
  0
LINE
  5
120A
330
1F
100
AcDbEntity
  8
LOGO_VON_SCHLASSE_120709
 62
     7
100
AcDbLine
 10
2823.068603309939
 20
310.1283317676668
 30
0.0
 11
2823.068603309939
 21
318.4255143389728
 31
0.0
  0
LINE
  5
120B
330
1F
100
AcDbEntity
  8
LOGO_VON_SCHLASSE_120709
 62
     7
100
AcDbLine
 10
2823.068603309939
 20
318.4255143389728
 30
0.0
 11
2814.131025606708
 21
318.4255143389728
 31
0.0
  0
LINE
  5
120C
330
1F
100
AcDbEntity
  8
LOGO_VON_SCHLASSE_120709
 62
     7
100
AcDbLine
 10
2814.131025606708
 20
318.4255143389728
 30
0.0
 11
2814.131025606708
 21
310.941162755514
 31
0.0
  0
SPLINE
  5
120D
330
1F
100
AcDbEntity
  8
LOGO_VON_SCHLASSE_120709
 62
     7
100
AcDbSpline
210
0.0
220
0.0
230
1.0
 70
     8
 71
     3
 72
     8
 73
     4
 74
     0
 42
0.0000000001
 43
0.0000000001
 40
33.1501527917914
 40
33.1501527917914
 40
33.1501527917914
 40
33.1501527917914
 40
34.1501527917914
 40
34.1501527917914
 40
34.1501527917914
 40
34.1501527917914
 10
2814.131025325791
 20
310.9411626618744
 30
0.0
 10
2814.131025325791
 20
304.9677143321663
 30
0.0
 10
2816.023073164246
 20
300.4308428653475
 30
0.0
 10
2819.763167728636
 20
297.702773888969
 30
0.0
  0
SPLINE
  5
120E
330
1F
100
AcDbEntity
  8
LOGO_VON_SCHLASSE_120709
 62
     7
100
AcDbSpline
210
0.0
220
0.0
230
1.0
 70
     8
 71
     3
 72
     8
 73
     4
 74
     0
 42
0.0000000001
 43
0.0000000001
 40
34.1501527917914
 40
34.1501527917914
 40
34.1501527917914
 40
34.1501527917914
 40
35.1501527917914
 40
35.1501527917914
 40
35.1501527917914
 40
35.1501527917914
 10
2819.763167728636
 20
297.702773888969
 30
0.0
 10
2816.125940630006
 20
294.9479474793001
 30
0.0
 10
2814.249583588622
 20
290.2653965747331
 30
0.0
 10
2814.250541861153
 20
284.432870805744
 30
0.0
  0
LINE
  5
120F
330
1F
100
AcDbEntity
  8
LOGO_VON_SCHLASSE_120709
 62
     7
100
AcDbLine
 10
2814.250541580236
 20
284.4328710866621
 30
0.0
 11
2814.251731548608
 21
277.1946878894757
 31
0.0
  0
LINE
  5
1210
330
1F
100
AcDbEntity
  8
LOGO_VON_SCHLASSE_120709
 62
     7
100
AcDbLine
 10
2814.251731548608
 20
277.1946878894757
 30
0.0
 11
2823.187524299279
 21
277.1946878894757
 31
0.0
  0
LINE
  5
1211
330
1F
100
AcDbEntity
  8
LOGO_VON_SCHLASSE_120709
 62
     7
100
AcDbLine
 10
2823.187524299279
 20
277.1946878894757
 30
0.0
 11
2823.187524299279
 21
285.245702074508
 31
0.0
  0
SPLINE
  5
1212
330
1F
100
AcDbEntity
  8
LOGO_VON_SCHLASSE_120709
 62
     7
100
AcDbSpline
210
0.0
220
0.0
230
1.0
 70
     8
 71
     3
 72
     8
 73
     4
 74
     0
 42
0.0000000001
 43
0.0000000001
 40
49.52267229419653
 40
49.52267229419653
 40
49.52267229419653
 40
49.52267229419653
 40
50.52267229419655
 40
50.52267229419655
 40
50.52267229419655
 40
50.52267229419655
 10
2823.187524580196
 20
285.2457021681474
 30
0.0
 10
2823.187524580196
 20
289.3080751512816
 30
0.0
 10
2824.731725785875
 20
293.1659024221498
 30
0.0
 10
2829.037294107138
 20
293.1659024221498
 30
0.0
  0
LINE
  5
1213
330
1F
100
AcDbEntity
  8
LOGO_VON_SCHLASSE_120709
 62
     7
100
AcDbLine
 10
2829.037294200779
 20
293.1659023285103
 30
0.0
 11
2830.41857274276
 21
293.1659023285103
 31
0.0
  0
SPLINE
  5
1214
330
1F
100
AcDbEntity
  8
LOGO_VON_SCHLASSE_120709
 62
     7
100
AcDbSpline
210
0.0
220
0.0
230
1.0
 70
     8
 71
     3
 72
     8
 73
     4
 74
     0
 42
0.0000000001
 43
0.0000000001
 40
51.34217507197432
 40
51.34217507197432
 40
51.34217507197432
 40
51.34217507197432
 40
52.34217507197431
 40
52.34217507197431
 40
52.34217507197431
 40
52.34217507197431
 10
2830.418572274558
 20
293.1659024221498
 30
0.0
 10
2834.724735205451
 20
293.1659024221498
 30
0.0
 10
2836.186880282377
 20
289.3080751512816
 30
0.0
 10
2836.186880282377
 20
285.2457021681474
 30
0.0
  0
LINE
  5
1215
330
1F
100
AcDbEntity
  8
LOGO_VON_SCHLASSE_120709
 62
     7
100
AcDbLine
 10
2836.186880376013
 20
285.245702074508
 30
0.0
 11
2836.186880376013
 21
277.1946878894757
 31
0.0
  0
LINE
  5
1216
330
1F
100
AcDbEntity
  8
LOGO_VON_SCHLASSE_120709
 62
     7
100
AcDbLine
 10
2836.186880376013
 20
277.1946878894757
 30
0.0
 11
2845.123863095058
 21
277.1946878894757
 31
0.0
  0
LINE
  5
1217
330
1F
100
AcDbEntity
  8
LOGO_VON_SCHLASSE_120709
 62
     7
100
AcDbLine
 10
2845.123863095058
 20
277.1946878894757
 30
0.0
 11
2845.123863095058
 21
284.4328710866621
 31
0.0
  0
SPLINE
  5
1218
330
1F
100
AcDbEntity
  8
LOGO_VON_SCHLASSE_120709
 62
     7
100
AcDbSpline
210
0.0
220
0.0
230
1.0
 70
     8
 71
     3
 72
     8
 73
     4
 74
     0
 42
0.0000000001
 43
0.0000000001
 40
66.71540007197433
 40
66.71540007197433
 40
66.71540007197433
 40
66.71540007197433
 40
67.71540007197433
 40
67.71540007197433
 40
67.71540007197433
 40
67.71540007197433
 10
2845.123863001416
 20
284.432870805744
 30
0.0
 10
2845.123863001416
 20
290.4021568680501
 30
0.0
 10
2843.232409772588
 20
295.1744937478266
 30
0.0
 10
2839.4923152082
 20
297.9025627242049
 30
0.0
  0
ARC
  5
1219
330
1F
100
AcDbEntity
  8
AM_0
 62
     7
100
AcDbCircle
 10
2672.871049926619
 20
271.2360527370282
 30
0.0
 40
8.427409945688564
100
AcDbArc
 50
180.0000479999957
 51
269.9999519999848
  0
LINE
  5
121A
330
1F
100
AcDbEntity
  8
AM_0
 62
     7
100
AcDbLine
 10
2672.871043184587
 20
262.8086427913395
 30
0.0
 11
2854.906023378468
 21
262.8086427913395
 31
0.0
  0
ARC
  5
121B
330
1F
100
AcDbEntity
  8
AM_0
 62
     7
100
AcDbCircle
 10
2854.906380706081
 20
271.2356886673837
 30
0.0
 40
8.427045876045053
100
AcDbArc
 50
269.9975760000107
 51
0.0024240000088827
  0
LINE
  5
121C
330
1F
100
AcDbEntity
  8
AM_0
 62
     7
100
AcDbLine
 10
2863.333426582128
 20
271.2360459949975
 30
0.0
 11
2863.333426582128
 21
335.2850165704873
 31
0.0
  0
ARC
  5
121D
330
1F
100
AcDbEntity
  8
AM_0
 62
     7
100
AcDbCircle
 10
2854.906016636436
 20
335.2850081429489
 30
0.0
 40
8.427409945688564
100
AcDbArc
 50
0.0000479999957116
 51
89.99995199998474
  0
LINE
  5
121E
330
1F
100
AcDbEntity
  8
AM_0
 62
     7
100
AcDbLine
 10
2854.906023378468
 20
343.7124180886381
 30
0.0
 11
2672.871043184587
 21
343.7124180886381
 31
0.0
  0
ARC
  5
121F
330
1F
100
AcDbEntity
  8
AM_0
 62
     7
100
AcDbCircle
 10
2672.871161170122
 20
335.2848968994469
 30
0.0
 40
8.427521189190747
100
AcDbArc
 50
90.00080599999776
 51
179.9991939999957
  0
LINE
  5
1220
330
1F
100
AcDbEntity
  8
AM_0
 62
     7
100
AcDbLine
 10
2664.443639980931
 20
335.2850165704873
 30
0.0
 11
2664.443639980931
 21
271.2360459949975
 31
0.0
  0
ARC
  5
1221
330
1F
100
AcDbEntity
  8
AM_0
 62
     7
100
AcDbCircle
 10
2668.32079796401
 20
261.6290015246083
 30
0.0
 40
12.30420217361436
100
AcDbArc
 50
179.9997459999952
 51
270.0002540000047
  0
LINE
  5
1222
330
1F
100
AcDbEntity
  8
AM_0
 62
     7
100
AcDbLine
 10
2668.32085190025
 20
249.3247993509945
 30
0.0
 11
2896.538568654936
 21
249.3247993509945
 31
0.0
  0
ARC
  5
1223
330
1F
100
AcDbEntity
  8
AM_0
 62
     7
100
AcDbCircle
 10
2896.539003515899
 20
261.6286205998887
 30
0.0
 40
12.30382124889476
100
AcDbArc
 50
269.9979730000308
 51
0.0020269999985906
  0
LINE
  5
1224
330
1F
100
AcDbEntity
  8
AM_0
 62
     7
100
AcDbLine
 10
2908.842824764793
 20
261.6290571463591
 30
0.0
 11
2908.842824764793
 21
344.8922430756976
 31
0.0
  0
ARC
  5
1225
330
1F
100
AcDbEntity
  8
AM_0
 62
     7
100
AcDbCircle
 10
2896.538496178109
 20
344.8927655830569
 30
0.0
 40
12.30432858668503
100
AcDbArc
 50
359.997568000006
 51
89.99966299999279
  0
LINE
  5
1226
330
1F
100
AcDbEntity
  8
AM_0
 62
     7
100
AcDbLine
 10
2896.538568654936
 20
357.1970941697416
 30
0.0
 11
2668.32085190025
 21
357.1970941697416
 31
0.0
  0
ARC
  5
1227
330
1F
100
AcDbEntity
  8
AM_0
 62
     7
100
AcDbCircle
 10
2668.321305301798
 20
344.8923846583372
 30
0.0
 40
12.30470951140462
100
AcDbArc
 50
90.00210899998343
 51
180.0006600000013
  0
LINE
  5
1228
330
1F
100
AcDbEntity
  8
AM_0
 62
     7
100
AcDbLine
 10
2656.016595790393
 20
344.8922430756976
 30
0.0
 11
2656.016595790393
 21
261.6290571463591
 31
0.0
  0
TEXT
  5
1229
330
1F
100
AcDbEntity
  8
6
100
AcDbText
 10
2694.392331076033
 20
185.7836787289931
 30
0.0
 40
22.75435271952047
  1
59227 Ahlen
 72
     1
 11
2780.173260204128
 21
185.7836787289931
 31
0.0
100
AcDbText
  0
TEXT
  5
122A
330
1F
100
AcDbEntity
  8
6
100
AcDbText
 10
2615.515950910637
 20
217.7072356789865
 30
0.0
 40
22.75435271952047
  1
Reflex Winkelmann GmbH
 41
0.95
 72
     1
 11
2779.802377545575
 21
217.7072356789865
 31
0.0
100
AcDbText
  0
MTEXT
  5
122B
330
1F
100
AcDbEntity
  8
0
100
AcDbMText
 10
1518.698901755648
 20
338.2888170956625
 30
0.0
 40
30.0
 41
755.7740133808063
 71
     1
 72
     5
  1
Exvoid
 73
     1
 44
1.0
  0
MTEXT
  5
122C
330
1F
100
AcDbEntity
  8
0
100
AcDbMText
 10
1464.38929839361
 20
295.6098614371102
 30
0.0
 40
30.0
 41
755.7740133808063
 71
     1
 72
     5
  1
{\Fisocp,bigfont|c238;Typ } A 168,3
 73
     1
 44
1.0
  0
MTEXT
  5
122D
330
1F
100
AcDbEntity
  8
0
100
AcDbMText
 10
1461.234941594377
 20
254.3129448280319
 30
0.0
 40
30.0
 41
755.7740133808063
 71
     1
 72
     5
  1
10{\Fisocp,bigfont|c238;bar - }110{\Fisocp,bigfont|c238;%%DC}
 73
     1
 44
1.0
  0
DIMENSION
  5
122F
102
{ACAD_XDICTIONARY
360
123C
102
}
102
{ACAD_REACTORS
330
123D
102
}
330
1F
100
AcDbEntity
  8
AM_5
100
AcDbDimension
  2
*D19
 10
1530.316605995235
 20
1094.553999934849
 30
0.0
 11
1513.191605995235
 21
980.5539999348509
 31
0.0
 70
    32
  1
(<>)
 71
     5
 42
227.9999999999974
  3
AM_DIN$0
100
AcDbAlignedDimension
 13
1218.524129636334
 23
866.5539999348519
 33
0.0
 14
1431.183595763525
 24
1094.553999934849
 34
0.0
 50
90.00000000000003
100
AcDbRotatedDimension
1001
ACAD
1000
DSTYLE
1002
{
1070
    40
1040
5.0
1002
}
  0
DIMENSION
  5
1247
102
{ACAD_XDICTIONARY
360
1254
102
}
102
{ACAD_REACTORS
330
1255
102
}
330
1F
100
AcDbEntity
  8
AM_5
100
AcDbDimension
  2
*D20
 10
1583.351267601323
 20
1759.759872675634
 30
0.0
 11
1566.2220382099
 21
1313.156936305243
 31
0.0
 70
    32
  1
(<>)
 71
     5
 42
893.2058727407826
  3
AM_DIN$0
100
AcDbAlignedDimension
 13
1202.490733246622
 23
866.5539999348519
 33
0.0
 14
1223.766601995235
 24
1759.759872675634
 34
0.0
 50
90.00000000000003
100
AcDbRotatedDimension
1001
ACAD
1000
DSTYLE
1002
{
1070
    40
1040
5.0
1070
   271
1070
     0
1002
}
  0
DIMENSION
  5
13C9
102
{ACAD_XDICTIONARY
360
13D6
102
}
102
{ACAD_REACTORS
330
13D7
102
}
330
1F
100
AcDbEntity
  8
AM_5
100
AcDbDimension
  2
*D23
 10
1845.316604995236
 20
1317.866876611845
 30
0.0
 11
2107.816604995236
 21
1334.991876611845
 31
0.0
 70
    32
  1
(<>)
 71
     5
 42
525.0
  3
AM_DIN$0
100
AcDbAlignedDimension
 13
2370.316604995236
 23
1063.431472503932
 33
0.0
 14
1845.316604995236
 24
1037.101023472949
 34
0.0
 50
360.0
100
AcDbRotatedDimension
1001
ACAD
1000
DSTYLE
1002
{
1070
    40
1040
5.0
1002
}
  0
ENDSEC
  0
SECTION
  2
OBJECTS
  0
DICTIONARY
  5
C
330
0
100
AcDbDictionary
281
     1
  3
ACAD_COLOR
350
BE
  3
ACAD_GROUP
350
D
  3
ACAD_LAYOUT
350
1A
  3
ACAD_MATERIAL
350
BD
  3
ACAD_MLINESTYLE
350
17
  3
ACAD_PLOTSETTINGS
350
19
  3
ACAD_PLOTSTYLENAME
350
E
  3
ACAD_TABLESTYLE
350
11A
  3
ACAD_VISUALSTYLE
350
258
  3
AcDbVariableDictionary
350
94
  3
AcmDictionary
350
5B
  3
AMG
350
41
  3
AMGSNAPSETTINGS
350
1B3
  3
ASE_INDEX_DICTIONARY
350
D34
  0
DICTIONARY
  5
4FE
330
2
100
AcDbDictionary
280
     1
281
     1
  3
ACAD_LAYERSTATES
360
4FF
  0
DICTIONARY
  5
8F
330
1F
100
AcDbDictionary
280
     1
281
     1
  0
DICTIONARY
  5
32E
330
32D
100
AcDbDictionary
280
     1
281
     1
  0
DICTIONARY
  5
D1E
330
D18
100
AcDbDictionary
280
     1
281
     1
  0
DICTIONARY
  5
123C
330
122F
100
AcDbDictionary
280
     1
281
     1
  3
ACAD_DIMASSOC
360
123D
  0
DICTIONARY
  5
1254
330
1247
100
AcDbDictionary
280
     1
281
     1
  3
ACAD_DIMASSOC
360
1255
  0
DICTIONARY
  5
13D6
330
13C9
100
AcDbDictionary
280
     1
281
     1
  3
ACAD_DIMASSOC
360
13D7
  0
DICTIONARY
  5
BE
102
{ACAD_REACTORS
330
C
102
}
330
C
100
AcDbDictionary
281
     1
  0
DICTIONARY
  5
D
102
{ACAD_REACTORS
330
C
102
}
330
C
100
AcDbDictionary
281
     1
  0
DICTIONARY
  5
1A
102
{ACAD_REACTORS
330
C
102
}
330
C
100
AcDbDictionary
281
     1
  3
Layout1
350
1E
  3
Layout2
350
26
  3
Model
350
22
  0
DICTIONARY
  5
BD
102
{ACAD_REACTORS
330
C
102
}
330
C
100
AcDbDictionary
281
     1
  3
ByBlock
350
256
  3
ByLayer
350
255
  3
Global
350
257
  0
DICTIONARY
  5
17
102
{ACAD_REACTORS
330
C
102
}
330
C
100
AcDbDictionary
281
     1
  3
Standard
350
18
  0
DICTIONARY
  5
19
102
{ACAD_REACTORS
330
C
102
}
330
C
100
AcDbDictionary
281
     1
  0
ACDBDICTIONARYWDFLT
  5
E
102
{ACAD_REACTORS
330
C
102
}
330
C
100
AcDbDictionary
281
     1
  3
Normal
350
F
100
AcDbDictionaryWithDefault
340
F
  0
DICTIONARY
  5
11A
102
{ACAD_REACTORS
330
C
102
}
330
C
100
AcDbDictionary
281
     1
  3
Standard
350
11B
  0
DICTIONARY
  5
258
102
{ACAD_REACTORS
330
C
102
}
330
C
100
AcDbDictionary
281
     1
  3
2dWireframe
350
25E
  3
3D Hidden
350
260
  3
3dWireframe
350
25F
  3
Basic
350
25D
  3
Brighten
350
264
  3
ColorChange
350
268
  3
Conceptual
350
261
  3
Dim
350
263
  3
Facepattern
350
267
  3
Flat
350
259
  3
FlatWithEdges
350
25A
  3
Gouraud
350
25B
  3
GouraudWithEdges
350
25C
  3
Linepattern
350
266
  3
Realistic
350
262
  3
Thicken
350
265
  0
DICTIONARY
  5
94
102
{ACAD_REACTORS
330
C
102
}
330
C
100
AcDbDictionary
281
     1
  3
CTABLESTYLE
350
138
  3
DIMASSOC
350
96
  3
INDEXCTL
350
95
  0
DICTIONARY
  5
5B
102
{ACAD_REACTORS
330
C
102
}
330
C
100
AcDbDictionary
281
     1
  3
AcmBOM
350
1B0
  3
AcmStdDictionary
350
61
  3
AMDTSECTSYM_ARROWCOLOR
350
123
  0
DICTIONARY
  5
41
102
{ACAD_REACTORS
330
C
102
}
330
C
100
AcDbDictionary
281
     1
  0
DICTIONARY
  5
1B3
102
{ACAD_REACTORS
330
C
102
}
330
C
100
AcDbDictionary
281
     1
  0
DICTIONARY
  5
D34
102
{ACAD_REACTORS
330
C
102
}
330
C
100
AcDbDictionary
281
     1
  3
ASEBlockHierarchyIndexRecord
350
D35
1001
DCO15
1040
1762501133.695
  0
DICTIONARY
  5
4FF
102
{ACAD_REACTORS
330
4FE
102
}
330
4FE
100
AcDbDictionary
281
     1
  0
DIMASSOC
  5
123D
102
{ACAD_REACTORS
330
123C
102
}
330
123C
100
AcDbDimAssoc
330
122F
 90
        3
 70
     0
 71
     0
  1
AcDbOsnapPointRef
 72
    10
331
10FA
 73
     0
 91
        0
 40
0.7210542779770919
 10
0.0
 20
0.0
 30
0.0
 75
     0
  1
AcDbOsnapPointRef
 72
    10
331
830
 73
     0
 91
        0
 40
0.4148123312774718
 10
0.0
 20
0.0
 30
0.0
 75
     0
  0
DIMASSOC
  5
1255
102
{ACAD_REACTORS
330
1254
102
}
330
1254
100
AcDbDimAssoc
330
1247
 90
        2
 70
     0
 71
     0
  1
AcDbOsnapPointRef
 72
     2
331
107B
 73
     0
 91
        0
 40
0.0
 10
0.0
 20
0.0
 30
0.0
 75
     0
  0
DIMASSOC
  5
13D7
102
{ACAD_REACTORS
330
13D6
102
}
330
13D6
100
AcDbDimAssoc
330
13C9
 90
        3
 70
     0
 71
     0
  1
AcDbOsnapPointRef
 72
    10
331
953
 73
     0
 91
        0
 40
0.6035971663571783
 10
0.0
 20
0.0
 30
0.0
 75
     0
  1
AcDbOsnapPointRef
 72
    10
331
959
 73
     0
 91
        0
 40
0.7600466555489931
 10
0.0
 20
0.0
 30
0.0
 75
     0
  0
LAYOUT
  5
1E
102
{ACAD_REACTORS
330
1A
102
}
330
1A
100
AcDbPlotSettings
  1

  2

  4

  6

 40
0.0
 41
0.0
 42
0.0
 43
0.0
 44
0.0
 45
0.0
 46
0.0
 47
0.0
 48
0.0
 49
0.0
140
0.0
141
0.0
142
1.0
143
1.0
 70
   688
 72
     0
 73
     0
 74
     5
  7
monochrome.ctb
 75
    16
147
1.0
 76
     0
 77
     2
 78
   300
148
0.0
149
0.0
100
AcDbLayout
  1
Layout1
 70
     1
 71
     1
 10
0.0
 20
0.0
 11
420.0
 21
297.0
 12
0.0
 22
0.0
 32
0.0
 14
1.000000000000000E+20
 24
1.000000000000000E+20
 34
1.000000000000000E+20
 15
-1.000000000000000E+20
 25
-1.000000000000000E+20
 35
-1.000000000000000E+20
146
0.0
 13
0.0
 23
0.0
 33
0.0
 16
1.0
 26
0.0
 36
0.0
 17
0.0
 27
1.0
 37
0.0
 76
     0
330
1B
  0
LAYOUT
  5
26
102
{ACAD_REACTORS
330
1A
102
}
330
1A
100
AcDbPlotSettings
  1

  2

  4

  6

 40
0.0
 41
0.0
 42
0.0
 43
0.0
 44
0.0
 45
0.0
 46
0.0
 47
0.0
 48
0.0
 49
0.0
140
0.0
141
0.0
142
1.0
143
1.0
 70
   688
 72
     0
 73
     0
 74
     5
  7
monochrome.ctb
 75
    16
147
1.0
 76
     0
 77
     2
 78
   300
148
0.0
149
0.0
100
AcDbLayout
  1
Layout2
 70
     1
 71
     2
 10
0.0
 20
0.0
 11
12.0
 21
9.0
 12
0.0
 22
0.0
 32
0.0
 14
0.0
 24
0.0
 34
0.0
 15
0.0
 25
0.0
 35
0.0
146
0.0
 13
0.0
 23
0.0
 33
0.0
 16
1.0
 26
0.0
 36
0.0
 17
0.0
 27
1.0
 37
0.0
 76
     0
330
23
  0
LAYOUT
  5
22
102
{ACAD_REACTORS
330
1A
102
}
330
1A
100
AcDbPlotSettings
  1

  2
none_device
  4
ISO_A4_(210.00_x_297.00_MM)
  6

 40
7.5
 41
20.0
 42
7.5
 43
20.0
 44
210.0
 45
297.0
 46
0.0
 47
0.0
 48
0.0
 49
0.0
140
0.0
141
0.0
142
1.0
143
15.52922981938261
 70
 11952
 72
     1
 73
     1
 74
     0
  7
monochrome.ctb
 75
     0
147
0.0643946938535138
 76
     0
 77
     2
 78
   300
148
415.9632627068565
149
-94.57901441939723
100
AcDbLayout
  1
Model
 70
     1
 71
     0
 10
0.0
 20
0.0
 11
12.0
 21
9.0
 12
0.0
 22
0.0
 32
0.0
 14
0.0
 24
0.0
 34
0.0
 15
0.0
 25
0.0
 35
0.0
146
0.0
 13
0.0
 23
0.0
 33
0.0
 16
1.0
 26
0.0
 36
0.0
 17
0.0
 27
1.0
 37
0.0
 76
     0
330
1F
331
253
1001
ACAD_PSEXT
1000
Kein
1000
Kein
1000
Nicht anwendbar
1000
Das Layout wird erst geplottet, wenn ein neuer Plotter-Konfigurationsname ausgewählt wird.
1070
     0
  0
MATERIAL
  5
256
102
{ACAD_XDICTIONARY
360
1308
102
}
102
{ACAD_REACTORS
330
BD
102
}
330
BD
100
AcDbMaterial
  1
ByBlock
  0
MATERIAL
  5
255
102
{ACAD_XDICTIONARY
360
1306
102
}
102
{ACAD_REACTORS
330
BD
102
}
330
BD
100
AcDbMaterial
  1
ByLayer
  0
MATERIAL
  5
257
102
{ACAD_XDICTIONARY
360
130A
102
}
102
{ACAD_REACTORS
330
BD
102
}
330
BD
100
AcDbMaterial
  1
Global
  0
MLINESTYLE
  5
18
102
{ACAD_REACTORS
330
17
102
}
330
17
100
AcDbMlineStyle
  2
STANDARD
 70
     0
  3

 62
   256
 51
90.0
 52
90.0
 71
     2
 49
0.5
 62
   256
  6
BYLAYER
 49
-0.5
 62
   256
  6
BYLAYER
  0
ACDBPLACEHOLDER
  5
F
102
{ACAD_REACTORS
330
E
102
}
330
E
  0
TABLESTYLE
  5
11B
102
{ACAD_XDICTIONARY
360
1404
102
}
102
{ACAD_REACTORS
330
11A
102
}
330
11A
100
AcDbTableStyle
  3
Standard
 70
     0
 71
     0
 40
1.5
 41
1.5
280
     0
281
     0
  7
Standard
140
4.5
170
     2
 62
     0
 63
     7
283
     0
274
    -2
284
     1
 64
     0
275
    -2
285
     1
 65
     0
276
    -2
286
     1
 66
     0
277
    -2
287
     1
 67
     0
278
    -2
288
     1
 68
     0
279
    -2
289
     1
 69
     0
  7
Standard
140
6.0
170
     5
 62
     0
 63
     7
283
     0
274
    -2
284
     1
 64
     0
275
    -2
285
     1
 65
     0
276
    -2
286
     1
 66
     0
277
    -2
287
     1
 67
     0
278
    -2
288
     1
 68
     0
279
    -2
289
     1
 69
     0
  7
Standard
140
4.5
170
     5
 62
     0
 63
     7
283
     0
274
    -2
284
     1
 64
     0
275
    -2
285
     1
 65
     0
276
    -2
286
     1
 66
     0
277
    -2
287
     1
 67
     0
278
    -2
288
     1
 68
     0
279
    -2
289
     1
 69
     0
  0
VISUALSTYLE
  5
25E
102
{ACAD_REACTORS
330
258
102
}
330
258
100
AcDbVisualStyle
  2
2dWireframe
 70
     4
 71
     0
 72
     2
 73
     0
 90
        0
 40
-0.6
 41
-30.0
 62
     5
 63
     7
421
 16777215
 74
     1
 91
        4
 64
     7
 65
   257
 75
     1
175
     1
 42
1.0
 92
        0
 66
   257
 43
1.0
 76
     1
 77
     6
 78
     2
 67
     7
 79
     5
170
     0
171
     0
290
     0
174
     0
 93
        1
 44
0.0
173
     0
291
     0
 45
0.0
1001
ACAD
1000
AcDbSavedByObjectVersion
1070
     0
1000
AcDbSavedByObjectVersion
1070
     0
  0
VISUALSTYLE
  5
260
102
{ACAD_REACTORS
330
258
102
}
330
258
100
AcDbVisualStyle
  2
3D Hidden
 70
     6
 71
     1
 72
     2
 73
     2
 90
        0
 40
-0.6
 41
-30.0
 62
     5
 63
     7
421
 16777215
 74
     2
 91
        2
 64
     7
 65
   257
 75
     2
175
     1
 42
40.0
 92
        0
 66
   257
 43
1.0
 76
     1
 77
     6
 78
     2
 67
     7
 79
     3
170
     0
171
     0
290
     0
174
     0
 93
        1
 44
0.0
173
     0
291
     0
 45
0.0
1001
ACAD
1000
AcDbSavedByObjectVersion
1070
     0
1000
AcDbSavedByObjectVersion
1070
     0
  0
VISUALSTYLE
  5
25F
102
{ACAD_REACTORS
330
258
102
}
330
258
100
AcDbVisualStyle
  2
3dWireframe
 70
     5
 71
     0
 72
     2
 73
     0
 90
        0
 40
-0.6
 41
-30.0
 62
     5
 63
     7
421
 16777215
 74
     1
 91
        4
 64
     7
 65
   257
 75
     1
175
     1
 42
1.0
 92
        0
 66
   257
 43
1.0
 76
     1
 77
     6
 78
     2
 67
     7
 79
     5
170
     0
171
     0
290
     0
174
     0
 93
        1
 44
0.0
173
     0
291
     0
 45
0.0
1001
ACAD
1000
AcDbSavedByObjectVersion
1070
     0
1000
AcDbSavedByObjectVersion
1070
     0
  0
VISUALSTYLE
  5
25D
102
{ACAD_REACTORS
330
258
102
}
330
258
100
AcDbVisualStyle
  2
Basic
 70
     7
 71
     1
 72
     0
 73
     1
 90
        0
 40
-0.6
 41
-30.0
 62
     5
 63
     7
421
 16777215
 74
     0
 91
        4
 64
     7
 65
   257
 75
     1
175
     1
 42
1.0
 92
        8
 66
     7
 43
1.0
 76
     1
 77
     6
 78
     2
 67
     7
 79
     5
170
     0
171
     0
290
     0
174
     0
 93
        1
 44
0.0
173
     0
291
     1
 45
0.0
1001
ACAD
1000
AcDbSavedByObjectVersion
1070
     0
1000
AcDbSavedByObjectVersion
1070
     0
  0
VISUALSTYLE
  5
264
102
{ACAD_REACTORS
330
258
102
}
330
258
100
AcDbVisualStyle
  2
Brighten
 70
    12
 71
     2
 72
     2
 73
     0
 90
        0
 40
-0.6
 41
-30.0
 62
     5
 63
     7
421
 16777215
 74
     1
 91
        4
 64
     7
 65
   257
 75
     1
175
     1
 42
1.0
 92
        8
 66
     7
 43
1.0
 76
     1
 77
     6
 78
     2
 67
     7
 79
     5
170
     0
171
     0
290
     0
174
     0
 93
        1
 44
50.0
173
     0
291
     1
 45
0.0
1001
ACAD
1000
AcDbSavedByObjectVersion
1070
     0
1000
AcDbSavedByObjectVersion
1070
     0
  0
VISUALSTYLE
  5
268
102
{ACAD_REACTORS
330
258
102
}
330
258
100
AcDbVisualStyle
  2
ColorChange
 70
    16
 71
     2
 72
     2
 73
     3
 90
        0
 40
-0.6
 41
-30.0
 62
     5
 63
     8
421
  8421504
 74
     1
 91
        4
 64
     7
 65
   257
 75
     1
175
     1
 42
1.0
 92
        8
 66
     8
424
  8421504
 43
1.0
 76
     1
 77
     6
 78
     2
 67
     7
 79
     5
170
     0
171
     0
290
     0
174
     0
 93
        1
 44
0.0
173
     0
291
     1
 45
0.0
1001
ACAD
1000
AcDbSavedByObjectVersion
1070
     0
1000
AcDbSavedByObjectVersion
1070
     0
  0
VISUALSTYLE
  5
261
102
{ACAD_REACTORS
330
258
102
}
330
258
100
AcDbVisualStyle
  2
Conceptual
 70
     9
 71
     3
 72
     2
 73
     0
 90
        0
 40
-0.6
 41
-30.0
 62
     5
 63
     7
421
 16777215
 74
     2
 91
        2
 64
     7
 65
   257
 75
     1
175
     1
 42
40.0
 92
        8
 66
     7
 43
1.0
 76
     1
 77
     6
 78
     2
 67
     7
 79
     3
170
     0
171
     0
290
     0
174
     0
 93
        1
 44
0.0
173
     0
291
     0
 45
0.0
1001
ACAD
1000
AcDbSavedByObjectVersion
1070
     0
1000
AcDbSavedByObjectVersion
1070
     0
  0
VISUALSTYLE
  5
263
102
{ACAD_REACTORS
330
258
102
}
330
258
100
AcDbVisualStyle
  2
Dim
 70
    11
 71
     2
 72
     2
 73
     0
 90
        0
 40
-0.6
 41
-30.0
 62
     5
 63
     7
421
 16777215
 74
     1
 91
        4
 64
     7
 65
   257
 75
     1
175
     1
 42
1.0
 92
        8
 66
     7
 43
1.0
 76
     1
 77
     6
 78
     2
 67
     7
 79
     5
170
     0
171
     0
290
     0
174
     0
 93
        1
 44
-50.0
173
     0
291
     1
 45
0.0
1001
ACAD
1000
AcDbSavedByObjectVersion
1070
     0
1000
AcDbSavedByObjectVersion
1070
     0
  0
VISUALSTYLE
  5
267
102
{ACAD_REACTORS
330
258
102
}
330
258
100
AcDbVisualStyle
  2
Facepattern
 70
    15
 71
     2
 72
     2
 73
     0
 90
        0
 40
-0.6
 41
-30.0
 62
     5
 63
     7
421
 16777215
 74
     1
 91
        4
 64
     7
 65
   257
 75
     1
175
     1
 42
1.0
 92
        8
 66
     7
 43
1.0
 76
     1
 77
     6
 78
     2
 67
     7
 79
     5
170
     0
171
     0
290
     0
174
     0
 93
        1
 44
0.0
173
     0
291
     1
 45
0.0
1001
ACAD
1000
AcDbSavedByObjectVersion
1070
     0
1000
AcDbSavedByObjectVersion
1070
     0
  0
VISUALSTYLE
  5
259
102
{ACAD_REACTORS
330
258
102
}
330
258
100
AcDbVisualStyle
  2
Flat
 70
     0
 71
     2
 72
     1
 73
     1
 90
        2
 40
-0.6
 41
30.0
 62
     5
 63
     7
421
 16777215
 74
     0
 91
        4
 64
     7
 65
   257
 75
     1
175
     1
 42
1.0
 92
        8
 66
     7
 43
1.0
 76
     1
 77
     6
 78
     2
 67
     7
 79
     5
170
     0
171
     0
290
     0
174
     0
 93
       13
 44
0.0
173
     0
291
     1
 45
0.0
1001
ACAD
1000
AcDbSavedByObjectVersion
1070
     0
1000
AcDbSavedByObjectVersion
1070
     0
  0
VISUALSTYLE
  5
25A
102
{ACAD_REACTORS
330
258
102
}
330
258
100
AcDbVisualStyle
  2
FlatWithEdges
 70
     1
 71
     2
 72
     1
 73
     1
 90
        2
 40
-0.6
 41
30.0
 62
     5
 63
     7
421
 16777215
 74
     1
 91
        4
 64
     7
 65
   257
 75
     1
175
     1
 42
1.0
 92
        0
 66
   257
 43
1.0
 76
     1
 77
     6
 78
     2
 67
     7
 79
     5
170
     0
171
     0
290
     0
174
     0
 93
       13
 44
0.0
173
     0
291
     1
 45
0.0
1001
ACAD
1000
AcDbSavedByObjectVersion
1070
     0
1000
AcDbSavedByObjectVersion
1070
     0
  0
VISUALSTYLE
  5
25B
102
{ACAD_REACTORS
330
258
102
}
330
258
100
AcDbVisualStyle
  2
Gouraud
 70
     2
 71
     2
 72
     2
 73
     1
 90
        2
 40
-0.6
 41
30.0
 62
     5
 63
     7
421
 16777215
 74
     0
 91
        4
 64
     7
 65
   257
 75
     1
175
     1
 42
1.0
 92
        0
 66
     7
 43
1.0
 76
     1
 77
     6
 78
     2
 67
     7
 79
     5
170
     0
171
     0
290
     0
174
     0
 93
       13
 44
0.0
173
     0
291
     1
 45
0.0
1001
ACAD
1000
AcDbSavedByObjectVersion
1070
     0
1000
AcDbSavedByObjectVersion
1070
     0
  0
VISUALSTYLE
  5
25C
102
{ACAD_REACTORS
330
258
102
}
330
258
100
AcDbVisualStyle
  2
GouraudWithEdges
 70
     3
 71
     2
 72
     2
 73
     1
 90
        2
 40
-0.6
 41
30.0
 62
     5
 63
     7
421
 16777215
 74
     1
 91
        4
 64
     7
 65
   257
 75
     1
175
     1
 42
1.0
 92
        0
 66
   257
 43
1.0
 76
     1
 77
     6
 78
     2
 67
     7
 79
     5
170
     0
171
     0
290
     0
174
     0
 93
       13
 44
0.0
173
     0
291
     1
 45
0.0
1001
ACAD
1000
AcDbSavedByObjectVersion
1070
     0
1000
AcDbSavedByObjectVersion
1070
     0
  0
VISUALSTYLE
  5
266
102
{ACAD_REACTORS
330
258
102
}
330
258
100
AcDbVisualStyle
  2
Linepattern
 70
    14
 71
     2
 72
     2
 73
     0
 90
        0
 40
-0.6
 41
-30.0
 62
     5
 63
     7
421
 16777215
 74
     1
 91
        4
 64
     7
 65
   257
 75
     7
175
     7
 42
1.0
 92
        8
 66
     7
 43
1.0
 76
     1
 77
     6
 78
     2
 67
     7
 79
     5
170
     0
171
     0
290
     0
174
     0
 93
        1
 44
0.0
173
     0
291
     1
 45
0.0
1001
ACAD
1000
AcDbSavedByObjectVersion
1070
     0
1000
AcDbSavedByObjectVersion
1070
     0
  0
VISUALSTYLE
  5
262
102
{ACAD_REACTORS
330
258
102
}
330
258
100
AcDbVisualStyle
  2
Realistic
 70
     8
 71
     2
 72
     2
 73
     0
 90
        0
 40
-0.6
 41
-30.0
 62
     5
 63
     7
421
 16777215
 74
     1
 91
        0
 64
     7
 65
   257
 75
     1
175
     1
 42
1.0
 92
        8
 66
     8
424
  7895160
 43
1.0
 76
     1
 77
     6
 78
     2
 67
     7
 79
     5
170
     0
171
     0
290
     0
174
     0
 93
       13
 44
0.0
173
     0
291
     0
 45
0.0
1001
ACAD
1000
AcDbSavedByObjectVersion
1070
     0
1000
AcDbSavedByObjectVersion
1070
     0
  0
VISUALSTYLE
  5
265
102
{ACAD_REACTORS
330
258
102
}
330
258
100
AcDbVisualStyle
  2
Thicken
 70
    13
 71
     2
 72
     2
 73
     0
 90
        0
 40
-0.6
 41
-30.0
 62
     5
 63
     7
421
 16777215
 74
     1
 91
        4
 64
     7
 65
   257
 75
     1
175
     1
 42
1.0
 92
       12
 66
     7
 43
1.0
 76
     1
 77
     6
 78
     2
 67
     7
 79
     5
170
     0
171
     0
290
     0
174
     0
 93
        1
 44
0.0
173
     0
291
     1
 45
0.0
1001
ACAD
1000
AcDbSavedByObjectVersion
1070
     0
1000
AcDbSavedByObjectVersion
1070
     0
  0
DICTIONARYVAR
  5
138
102
{ACAD_REACTORS
330
94
102
}
330
94
100
DictionaryVariables
280
     0
  1
STANDARD
  0
DICTIONARYVAR
  5
96
102
{ACAD_REACTORS
330
94
102
}
330
94
100
DictionaryVariables
280
     0
  1
2
  0
DICTIONARYVAR
  5
95
102
{ACAD_REACTORS
330
94
102
}
330
94
100
DictionaryVariables
280
     0
  1
1
  0
DICTIONARY
  5
1B0
102
{ACAD_REACTORS
330
5B
102
}
330
5B
100
AcDbDictionary
281
     1
  0
DICTIONARY
  5
61
102
{ACAD_REACTORS
330
5B
102
}
330
5B
100
AcDbDictionary
281
     1
  0
XRECORD
  5
123
102
{ACAD_REACTORS
330
5B
102
}
330
5B
100
AcDbXrecord
280
     1
 90
-1023410169
  0
XRECORD
  5
D35
102
{ACAD_REACTORS
330
D34
102
}
330
D34
100
AcDbXrecord
280
     1
330
A61
330
A63
330
A64
330
A65
330
A67
330
A68
330
A69
330
A6A
330
A6B
330
A6C
330
D10
330
D11
330
843
330
844
330
3E9
330
D19
330
D1A
  0
DICTIONARY
  5
1308
330
256
100
AcDbDictionary
280
     1
281
     1
  3
ACAD_XREC_ROUNDTRIP
360
1309
  0
DICTIONARY
  5
1306
330
255
100
AcDbDictionary
280
     1
281
     1
  3
ACAD_XREC_ROUNDTRIP
360
1307
  0
DICTIONARY
  5
130A
330
257
100
AcDbDictionary
280
     1
281
     1
  3
ACAD_XREC_ROUNDTRIP
360
130B
  0
DICTIONARY
  5
1404
330
11B
100
AcDbDictionary
280
     1
281
     1
  3
ACAD_XREC_ROUNDTRIP
360
1405
  0
XRECORD
  5
1309
102
{ACAD_REACTORS
330
1308
102
}
330
1308
100
AcDbXrecord
280
     1
102
MATERIAL
148
0.0
149
0.0
149
0.0
 93
        0
 94
       63
282
     0
 72
     1
 77
     1
171
     1
175
     1
179
     1
273
     0
  0
XRECORD
  5
1307
102
{ACAD_REACTORS
330
1306
102
}
330
1306
100
AcDbXrecord
280
     1
102
MATERIAL
148
0.0
149
0.0
149
0.0
 93
        0
 94
       63
282
     0
 72
     1
 77
     1
171
     1
175
     1
179
     1
273
     0
  0
XRECORD
  5
130B
102
{ACAD_REACTORS
330
130A
102
}
330
130A
100
AcDbXrecord
280
     1
102
MATERIAL
148
0.0
149
0.0
149
0.0
 93
        0
 94
       63
282
     0
 72
     1
 77
     1
171
     1
175
     1
179
     1
273
     0
  0
XRECORD
  5
1405
102
{ACAD_REACTORS
330
1404
102
}
330
1404
100
AcDbXrecord
280
     1
102
ACAD_ROUNDTRIP_PRE2007_TABLESTYLE
 90
        4
 91
        0
  1

 92
        4
 93
        0
  2

 94
        4
 95
        0
  3

  0
ENDSEC
  0
EOF
