  0
SECTION
  2
HEADER
  9
$ACADVER
  1
AC1018
  9
$ACADMAINTVER
 70
   104
  9
$DWGCODEPAGE
  3
ANSI_1252
  9
$LASTSAVEDBY
  1
Siekaup
  9
$CUSTOMPROPERTYTAG
  1
AmdtFileType
  9
$CUSTOMPROPERTY
  1
84
  9
$INSBASE
 10
0.0
 20
0.0
 30
0.0
  9
$EXTMIN
 10
84.45560066023089
 20
91.22032034684476
 30
-0.0000000000112531
  9
$EXTMAX
 10
1766.558766343723
 20
1279.251244393553
 30
0.0000000000002922
  9
$LIMMIN
 10
0.0
 20
0.0
  9
$LIMMAX
 10
420.0
 20
297.0
  9
$ORTHOMODE
 70
     0
  9
$REGENMODE
 70
     1
  9
$FILLMODE
 70
     1
  9
$QTEXTMODE
 70
     0
  9
$MIRRTEXT
 70
     1
  9
$LTSCALE
 40
1.0
  9
$ATTMODE
 70
     1
  9
$TEXTSIZE
 40
2.5
  9
$TRACEWID
 40
1.0
  9
$TEXTSTYLE
  7
Standard
  9
$CLAYER
  8
0
  9
$CELTYPE
  6
ByLayer
  9
$CECOLOR
 62
   256
  9
$CELTSCALE
 40
1.0
  9
$DISPSILH
 70
     0
  9
$DIMSCALE
 40
1.0
  9
$DIMASZ
 40
2.5
  9
$DIMEXO
 40
1.0
  9
$DIMDLI
 40
10.0
  9
$DIMRND
 40
0.0
  9
$DIMDLE
 40
0.0
  9
$DIMEXE
 40
1.0
  9
$DIMTP
 40
0.1
  9
$DIMTM
 40
0.1
  9
$DIMTXT
 40
3.5
  9
$DIMCEN
 40
0.0
  9
$DIMTSZ
 40
0.0
  9
$DIMTOL
 70
     0
  9
$DIMLIM
 70
     0
  9
$DIMTIH
 70
     0
  9
$DIMTOH
 70
     0
  9
$DIMSE1
 70
     0
  9
$DIMSE2
 70
     0
  9
$DIMTAD
 70
     1
  9
$DIMZIN
 70
     8
  9
$DIMBLK
  1

  9
$DIMASO
 70
     1
  9
$DIMSHO
 70
     1
  9
$DIMPOST
  1

  9
$DIMAPOST
  1
"
  9
$DIMALT
 70
     0
  9
$DIMALTD
 70
     2
  9
$DIMALTF
 40
0.0393701
  9
$DIMLFAC
 40
1.0
  9
$DIMTOFL
 70
     1
  9
$DIMTVP
 40
0.0
  9
$DIMTIX
 70
     0
  9
$DIMSOXD
 70
     0
  9
$DIMSAH
 70
     0
  9
$DIMBLK1
  1

  9
$DIMBLK2
  1

  9
$DIMSTYLE
  2
AM_DIN
  9
$DIMCLRD
 70
   256
  9
$DIMCLRE
 70
   256
  9
$DIMCLRT
 70
     2
  9
$DIMTFAC
 40
0.71
  9
$DIMGAP
 40
1.5
  9
$DIMJUST
 70
     0
  9
$DIMSD1
 70
     0
  9
$DIMSD2
 70
     0
  9
$DIMTOLJ
 70
     0
  9
$DIMTZIN
 70
     8
  9
$DIMALTZ
 70
     0
  9
$DIMALTTZ
 70
     0
  9
$DIMUPT
 70
     0
  9
$DIMDEC
 70
     2
  9
$DIMTDEC
 70
     3
  9
$DIMALTU
 70
     2
  9
$DIMALTTD
 70
     4
  9
$DIMTXSTY
  7
Standard
  9
$DIMAUNIT
 70
     0
  9
$DIMADEC
 70
     0
  9
$DIMALTRND
 40
0.0
  9
$DIMAZIN
 70
     2
  9
$DIMDSEP
 70
    46
  9
$DIMATFIT
 70
     3
  9
$DIMFRAC
 70
     0
  9
$DIMLDRBLK
  1

  9
$DIMLUNIT
 70
     2
  9
$DIMLWD
 70
    -1
  9
$DIMLWE
 70
    -1
  9
$DIMTMOVE
 70
     0
  9
$LUNITS
 70
     2
  9
$LUPREC
 70
     4
  9
$SKETCHINC
 40
1.0
  9
$FILLETRAD
 40
10.0
  9
$AUNITS
 70
     0
  9
$AUPREC
 70
     0
  9
$MENU
  1
.
  9
$ELEVATION
 40
0.0
  9
$PELEVATION
 40
0.0
  9
$THICKNESS
 40
0.0
  9
$LIMCHECK
 70
     0
  9
$CHAMFERA
 40
10.0
  9
$CHAMFERB
 40
10.0
  9
$CHAMFERC
 40
20.0
  9
$CHAMFERD
 40
0.0
  9
$SKPOLY
 70
     0
  9
$TDCREATE
 40
2456043.519364583
  9
$TDUCREATE
 40
2456043.436031250
  9
$TDUPDATE
 40
2456484.564736076
  9
$TDUUPDATE
 40
2456484.481402743
  9
$TDINDWG
 40
0.0331144329
  9
$TDUSRTIMER
 40
0.0331018981
  9
$USRTIMER
 70
     1
  9
$ANGBASE
 50
0.0
  9
$ANGDIR
 70
     0
  9
$PDMODE
 70
     0
  9
$PDSIZE
 40
0.0
  9
$PLINEWID
 40
0.0
  9
$SPLFRAME
 70
     0
  9
$SPLINETYPE
 70
     6
  9
$SPLINESEGS
 70
     8
  9
$HANDSEED
  5
1110
  9
$SURFTAB1
 70
     6
  9
$SURFTAB2
 70
     6
  9
$SURFTYPE
 70
     6
  9
$SURFU
 70
     6
  9
$SURFV
 70
     6
  9
$UCSBASE
  2

  9
$UCSNAME
  2

  9
$UCSORG
 10
0.0
 20
0.0
 30
0.0
  9
$UCSXDIR
 10
1.0
 20
0.0
 30
0.0
  9
$UCSYDIR
 10
0.0
 20
1.0
 30
0.0
  9
$UCSORTHOREF
  2

  9
$UCSORTHOVIEW
 70
     0
  9
$UCSORGTOP
 10
0.0
 20
0.0
 30
0.0
  9
$UCSORGBOTTOM
 10
0.0
 20
0.0
 30
0.0
  9
$UCSORGLEFT
 10
0.0
 20
0.0
 30
0.0
  9
$UCSORGRIGHT
 10
0.0
 20
0.0
 30
0.0
  9
$UCSORGFRONT
 10
0.0
 20
0.0
 30
0.0
  9
$UCSORGBACK
 10
0.0
 20
0.0
 30
0.0
  9
$PUCSBASE
  2

  9
$PUCSNAME
  2

  9
$PUCSORG
 10
0.0
 20
0.0
 30
0.0
  9
$PUCSXDIR
 10
1.0
 20
0.0
 30
0.0
  9
$PUCSYDIR
 10
0.0
 20
1.0
 30
0.0
  9
$PUCSORTHOREF
  2

  9
$PUCSORTHOVIEW
 70
     0
  9
$PUCSORGTOP
 10
0.0
 20
0.0
 30
0.0
  9
$PUCSORGBOTTOM
 10
0.0
 20
0.0
 30
0.0
  9
$PUCSORGLEFT
 10
0.0
 20
0.0
 30
0.0
  9
$PUCSORGRIGHT
 10
0.0
 20
0.0
 30
0.0
  9
$PUCSORGFRONT
 10
0.0
 20
0.0
 30
0.0
  9
$PUCSORGBACK
 10
0.0
 20
0.0
 30
0.0
  9
$USERI1
 70
     0
  9
$USERI2
 70
     0
  9
$USERI3
 70
     0
  9
$USERI4
 70
     0
  9
$USERI5
 70
     0
  9
$USERR1
 40
0.0
  9
$USERR2
 40
0.0
  9
$USERR3
 40
0.0
  9
$USERR4
 40
0.0
  9
$USERR5
 40
0.0
  9
$WORLDVIEW
 70
     1
  9
$SHADEDGE
 70
     3
  9
$SHADEDIF
 70
    70
  9
$TILEMODE
 70
     1
  9
$MAXACTVP
 70
    64
  9
$PINSBASE
 10
0.0
 20
0.0
 30
0.0
  9
$PLIMCHECK
 70
     0
  9
$PEXTMIN
 10
1.000000000000000E+20
 20
1.000000000000000E+20
 30
1.000000000000000E+20
  9
$PEXTMAX
 10
-1.000000000000000E+20
 20
-1.000000000000000E+20
 30
-1.000000000000000E+20
  9
$PLIMMIN
 10
0.0
 20
0.0
  9
$PLIMMAX
 10
420.0
 20
297.0
  9
$UNITMODE
 70
     0
  9
$VISRETAIN
 70
     1
  9
$PLINEGEN
 70
     0
  9
$PSLTSCALE
 70
     1
  9
$TREEDEPTH
 70
  3020
  9
$CMLSTYLE
  2
Standard
  9
$CMLJUST
 70
     0
  9
$CMLSCALE
 40
20.0
  9
$PROXYGRAPHICS
 70
     1
  9
$MEASUREMENT
 70
     1
  9
$CELWEIGHT
370
    -1
  9
$ENDCAPS
280
     0
  9
$JOINSTYLE
280
     0
  9
$LWDISPLAY
290
     0
  9
$INSUNITS
 70
     4
  9
$HYPERLINKBASE
  1

  9
$STYLESHEET
  1
monochrome.ctb
  9
$XEDIT
290
     1
  9
$CEPSNTYPE
380
     0
  9
$PSTYLEMODE
290
     1
  9
$FINGERPRINTGUID
  2
{C4373334-DB12-47E8-9857-A8115BE009D8}
  9
$VERSIONGUID
  2
{6685492D-8C73-4995-A215-2923DF1671F1}
  9
$EXTNAMES
290
     1
  9
$PSVPSCALE
 40
0.0
  9
$OLESTARTUP
290
     0
  9
$SORTENTS
280
   127
  9
$INDEXCTL
280
     0
  9
$HIDETEXT
280
     0
  9
$XCLIPFRAME
290
     0
  9
$HALOGAP
280
     0
  9
$OBSCOLOR
 70
   257
  9
$OBSLTYPE
280
     0
  9
$INTERSECTIONDISPLAY
280
     0
  9
$INTERSECTIONCOLOR
 70
   257
  9
$DIMASSOC
280
     2
  9
$PROJECTNAME
  1

  0
ENDSEC
  0
SECTION
  2
CLASSES
  0
CLASS
  1
ACDBDICTIONARYWDFLT
  2
AcDbDictionaryWithDefault
  3
ObjectDBX Classes
 90
        0
 91
        1
280
     0
281
     0
  0
CLASS
  1
ACME_DOCUMENT
  2
AcMeDbDoc
  3
AcMeServices
 90
        0
 91
        1
280
     0
281
     0
  0
CLASS
  1
AMGSETTINGSOBJ
  2
AmgSettingsObj
  3
"AcadM|Product Description: AutoCAD Mechanical|Company: Autodesk"
 90
        0
 91
        2
280
     0
281
     0
  0
CLASS
  1
ACMESCOPE
  2
AcMeScope
  3
AcMeServices
 90
        0
 91
        1
280
     0
281
     0
  0
CLASS
  1
ACMECOMMANDHISTORY
  2
AcMeCommandHistory
  3
AcMeServices
 90
        0
 91
        1
280
     0
281
     0
  0
CLASS
  1
ACIMSYSVARMAN
  2
AcImSysVarManager
  3
AcMeServices
 90
        0
 91
        5
280
     0
281
     0
  0
CLASS
  1
ACIMREALSYSVAR
  2
AcImRealSysVar
  3
AcMeServices
 90
        0
 91
        1
280
     0
281
     0
  0
CLASS
  1
ACIMINTSYSVAR
  2
AcImIntSysVar
  3
AcMeServices
 90
        0
 91
       28
280
     0
281
     0
  0
CLASS
  1
ACMEDRAWINGMAN
  2
AcMeDrawingMan
  3
AcMeServices
 90
        0
 91
        1
280
     0
281
     0
  0
CLASS
  1
ACMEVIEW
  2
AcMeView
  3
AcMeServices
 90
        0
 91
        1
280
     0
281
     0
  0
CLASS
  1
ACDBENTITYCACHE
  2
AcMeEntityCache
  3
AcMeServices
 90
        0
 91
        1
280
     0
281
     0
  0
CLASS
  1
GSMANAGER
  2
AcMeGSManager
  3
AcMeServices
 90
        0
 91
        1
280
     0
281
     0
  0
CLASS
  1
AMDTINTERNALREACTOR
  2
AmdtInternalReactor
  3
AcMeServices
 90
        0
 91
        2
280
     0
281
     0
  0
CLASS
  1
ACMESTATEMGR
  2
AcMeStateMgr
  3
AcMeServices
 90
        0
 91
        1
280
     0
281
     0
  0
CLASS
  1
ACGREFMASTER
  2
AcGrefMaster
  3
AcAttribServices
 90
        0
 91
        1
280
     0
281
     0
  0
CLASS
  1
ACME_DATABASE
  2
AcMeDbDatabase
  3
AcMeServices
 90
        0
 91
        1
280
     0
281
     0
  0
CLASS
  1
ACRFINSADJUSTERMGR
  2
AcRfInsAdjusterMgr
  3
AcMeServices
 90
        0
 91
        1
280
     0
281
     0
  0
CLASS
  1
ACGREFACADMASTER
  2
AcGrefacadMaster
  3
AcGrefServices
 90
        0
 91
        1
280
     0
281
     0
  0
CLASS
  1
AMIMASTER
  2
AmiMaster
  3
AmiServices
 90
        0
 91
        1
280
     0
281
     0
  0
CLASS
  1
ACMDATADICTIONARY
  2
AcmDataDictionary
  3
"AcmSymBB|Product Description: AutoCAD Mechanical|Company: Autodesk"
 90
        0
 91
        1
280
     0
281
     0
  0
CLASS
  1
ACMDATAENTRYBLOCK
  2
AcmDataEntryBlock
  3
"AcmSymBB|Product Description: AutoCAD Mechanical|Company: Autodesk"
 90
        0
 91
        0
280
     0
281
     0
  0
CLASS
  1
ACIMSTRSYSVAR
  2
AcImStrSysVar
  3
AcMeServices
 90
        0
 91
        5
280
     0
281
     0
  0
CLASS
  1
ACMSTANDARDISO
  2
AcmStandardISO
  3
"Amdt_StdImp|Product Description: AutoCAD Mechanical|Company: Autodesk"
 90
        0
 91
        1
280
     0
281
     0
  0
CLASS
  1
AMGOBJPROPCFG
  2
AmgObjPropCfg
  3
"AmgLay|Product Description: AutoCAD Mechanical|Company: Autodesk"
 90
        1
 91
        2
280
     0
281
     0
  0
CLASS
  1
AMDTEDGESTANDARDISO
  2
AmdtEdgeStdISO
  3
"Amdt_StdImp|Product Description: AutoCAD Mechanical|Company: Autodesk"
 90
        0
 91
        1
280
     0
281
     0
  0
CLASS
  1
ACMSURFSTANDARDISO
  2
AcmSurfTextStdISO
  3
"Amdt_StdImp|Product Description: AutoCAD Mechanical|Company: Autodesk"
 90
        0
 91
        1
280
     0
281
     0
  0
CLASS
  1
ACMFCFSTANDARDISO
  2
AcmFCFStdISO
  3
"Amdt_StdImp|Product Description: AutoCAD Mechanical|Company: Autodesk"
 90
        0
 91
        1
280
     0
281
     0
  0
CLASS
  1
ACMWELDSTANDARDISO
  2
AcmWeldingStdISO
  3
"Amdt_StdImp|Product Description: AutoCAD Mechanical|Company: Autodesk"
 90
        0
 91
        1
280
     0
281
     0
  0
CLASS
  1
ACMIDSTANDARDISO
  2
AcmIdStdISO
  3
"Amdt_StdImp|Product Description: AutoCAD Mechanical|Company: Autodesk"
 90
        0
 91
        1
280
     0
281
     0
  0
CLASS
  1
ACMDATUMSTANDARDISO
  2
AcmDatumStdISO
  3
"Amdt_StdImp|Product Description: AutoCAD Mechanical|Company: Autodesk"
 90
        0
 91
        1
280
     0
281
     0
  0
CLASS
  1
ACMBOMSTANDARDISO
  2
AcmBOMStdISO
  3
"Amdt_StdImp|Product Description: AutoCAD Mechanical|Company: Autodesk"
 90
        0
 91
        1
280
     0
281
     0
  0
CLASS
  1
ACMDETAILSTANDARDISO
  2
AmdtDetailSymStdISO
  3
"Amdt_StdImp|Product Description: AutoCAD Mechanical|Company: Autodesk"
 90
        0
 91
        1
280
     0
281
     0
  0
CLASS
  1
ACMSECTIONSTANDARDISO
  2
AmdtSectionSymStdISO
  3
"Amdt_StdImp|Product Description: AutoCAD Mechanical|Company: Autodesk"
 90
        0
 91
        1
280
     0
281
     0
  0
CLASS
  1
ACMCENTERLINESTANDARDISO
  2
AmdtCenterLineStdISO
  3
"Amdt_StdImp|Product Description: AutoCAD Mechanical|Company: Autodesk"
 90
        0
 91
        1
280
     0
281
     0
  0
CLASS
  1
ACMNOTESTANDARDISO
  2
AmdtNoteStdISO
  3
"Amdt_StdImp|Product Description: AutoCAD Mechanical|Company: Autodesk"
 90
        0
 91
        1
280
     0
281
     0
  0
CLASS
  1
ACAMGLAYSTD
  2
AcAmgLayStd
  3
"AmgLay|Product Description: AutoCAD Mechanical|Company: Autodesk"
 90
        0
 91
        2
280
     0
281
     0
  0
CLASS
  1
ACAMGDIMSTD
  2
AcAmgDimStd
  3
"AmgDim|Product Description: AutoCAD Mechanical|Company: Autodesk"
 90
        0
 91
        2
280
     0
281
     0
  0
CLASS
  1
ACAMGHOLECHARTSTDISO
  2
AcAmgHoleChartStdISO
  3
ACMSYMBB_MODULE_NAME
 90
        0
 91
        1
280
     0
281
     0
  0
CLASS
  1
ACAMGTITLESTD
  2
AcAmgTitleStd
  3
"AmgTitle|Product Description: AutoCAD Mechanical|Company: Autodesk"
 90
        0
 91
        2
280
     0
281
     0
  0
CLASS
  1
LAYER_INDEX
  2
AcDbLayerIndex
  3
ObjectDBX Classes
 90
        0
 91
        0
280
     0
281
     0
  0
CLASS
  1
IDBUFFER
  2
AcDbIdBuffer
  3
ObjectDBX Classes
 90
        0
 91
        0
280
     0
281
     0
  0
CLASS
  1
DICTIONARYVAR
  2
AcDbDictionaryVar
  3
ObjectDBX Classes
 90
        0
 91
        3
280
     0
281
     0
  0
CLASS
  1
AM_DRAWING_MGR
  2
AcDmDwgMgr
  3
AcMechDwgViewMgmt
 90
        0
 91
        1
280
     0
281
     0
  0
CLASS
  1
AM_DWG_DOCUMENT
  2
AcDmDwgDocument
  3
AcMechDwgViewMgmt
 90
        0
 91
        1
280
     0
281
     0
  0
CLASS
  1
AM_DWG_SHEET
  2
AcDmSheet
  3
AcMechDwgViewMgmt
 90
        0
 91
        2
280
     0
281
     0
  0
CLASS
  1
AM_VIEWDIMPARMAP
  2
AcDmViewDimParMap
  3
AcMechDwgViewMgmt
 90
        0
 91
        2
280
     0
281
     0
  0
CLASS
  1
AM_DWGMGR_NAME
  2
AcDmDwgMgrName
  3
AcMechDwgViewMgmt
 90
        0
 91
        1
280
     0
281
     0
  0
CLASS
  1
AMDTMENUSTATEMGR
  2
AmdtMenuStateMgr
  3
McadcomServices
 90
        0
 91
        1
280
     0
281
     0
  0
CLASS
  1
AMDTMCOMMENUSTATE
  2
AmdtMcomMenuState
  3
McadcomServices
 90
        0
 91
        1
280
     0
281
     0
  0
CLASS
  1
MAPIAMMOUDLE
  2
MApiAmModule
  3
MApiAmServices
 90
        0
 91
        1
280
     0
281
     0
  0
CLASS
  1
AMDTADMENUSTATE
  2
AmdtAdMenuState
  3
DesignerServices
 90
        0
 91
        1
280
     0
281
     0
  0
CLASS
  1
ADAPPL
  2
AcAdAppl
  3
DesignerServices
 90
        0
 91
        1
280
     0
281
     0
  0
CLASS
  1
DEPMGR
  2
AcAdDepMgr
  3
DesignerServices
 90
        0
 91
        1
280
     0
281
     0
  0
CLASS
  1
PARAMMGR
  2
AcAdParamMgr
  3
DesignerServices
 90
        0
 91
        1
280
     0
281
     0
  0
CLASS
  1
PARAMSCOPE
  2
AcAdParamScope
  3
DesignerServices
 90
        0
 91
        1
280
     0
281
     0
  0
CLASS
  1
NAMEDAPPL
  2
AcAdNamedAppl
  3
DesignerServices
 90
        0
 91
        1
280
     0
281
     0
  0
CLASS
  1
AMDTDMMENUSTATE
  2
AmdtDmMenuState
  3
AcMechDwgViewMgmt
 90
        0
 91
        1
280
     0
281
     0
  0
CLASS
  1
AMDTAMMENUSTATE
  2
AmdtAmMenuState
  3
DesignerAssemblies
 90
        0
 91
        1
280
     0
281
     0
  0
CLASS
  1
ACAMPROJECT
  2
AcAmProject
  3
DesignerAssemblies
 90
        0
 91
        1
280
     0
281
     0
  0
CLASS
  1
ACAMGRCOMPDEF
  2
AcAmGrCompDef
  3
DesignerAssemblies
 90
        0
 91
        1
280
     0
281
     0
  0
CLASS
  1
ACCMCONTEXT
  2
AcCmContext
  3
DesignerAssemblies
 90
        0
 91
        1
280
     0
281
     0
  0
CLASS
  1
ACAMCOMPDEF
  2
AcAmCompDef
  3
DesignerAssemblies
 90
        0
 91
        1
280
     0
281
     0
  0
CLASS
  1
ACAMCOMPDEFMGR
  2
AcAmCompDefMgr
  3
DesignerAssemblies
 90
        0
 91
        1
280
     0
281
     0
  0
CLASS
  1
AMCONTEXTMGR
  2
AcAmContextMgr
  3
DesignerAssemblies
 90
        0
 91
        1
280
     0
281
     0
  0
CLASS
  1
ACAMCONTEXTMODELER
  2
AcAmContextModeler
  3
DesignerAssemblies
 90
        0
 91
        1
280
     0
281
     0
  0
CLASS
  1
ACMTHREADLINESTANDARDISO
  2
AmdtThreadLineStdISO
  3
"Amdt_StdImp|Product Description: AutoCAD Mechanical|Company: Autodesk"
 90
        0
 91
        1
280
     0
281
     0
  0
CLASS
  1
CATALOGSTATE
  2
AcAmCatalogState
  3
DesignerAssemblies
 90
        0
 91
        1
280
     0
281
     0
  0
CLASS
  1
ACAMGRCOMPDEFSET
  2
AcAmGrCompDefSet
  3
DesignerAssemblies
 90
        0
 91
        1
280
     0
281
     0
  0
CLASS
  1
AMDTBROWSERDBTAB
  2
AmdtBrowserDbTab
  3
McadcomServices
 90
        0
 91
        1
280
     0
281
     0
  0
CLASS
  1
CBROWSERAPPOBJECT
  2
CBrowserAppObject
  3
McadcomServices
 90
        0
 91
        3
280
     0
281
     0
  0
CLASS
  1
DM_PLACEHOLDER
  2
AcDmSelsetPlaceholder
  3
AcMechDwgViewMgmt
 90
        0
 91
        1
280
     0
281
     0
  0
CLASS
  1
TABLESTYLE
  2
AcDbTableStyle
  3
ObjectDBX Classes
 90
     4095
 91
        1
280
     0
281
     0
  0
CLASS
  1
VAACXREFPANELOBJECT
  2
VaAcXREFPanelObject
  3
VAAC_ADDIN
 90
        0
 91
        0
280
     0
281
     0
  0
CLASS
  1
VAACIMAGEINVENTORY
  2
VaAcImageInventory
  3
VAAC_ADDIN
 90
        0
 91
        0
280
     0
281
     0
  0
CLASS
  1
AMDTNOTETEMPLATEDB
  2
AmdtNoteTemplateDB
  3
AMDT_STDIMP_MODULE_NAME
 90
        0
 91
        9
280
     0
281
     0
  0
CLASS
  1
ACMBOM
  2
AcmBom
  3
"AcmSymBB|Product Description: AutoCAD Mechanical|Company: Autodesk"
 90
        0
 91
        0
280
     0
281
     0
  0
CLASS
  1
AMDTFORMULAUPDATEDISPATCHER
  2
AmdtFormulaUpdateDispatcher
  3
AcMeServices
 90
        0
 91
        0
280
     0
281
     0
  0
CLASS
  1
ACAMGFILTERDAT
  2
AcAmgFilterDat
  3
"AcadM|Product Description: AutoCAD Mechanical|Company: Autodesk"
 90
        0
 91
        0
280
     0
281
     0
  0
CLASS
  1
ACMSTANDARDDIN
  2
AcmStandardDIN
  3
"Amdt_StdImp|Product Description: AutoCAD Mechanical|Company: Autodesk"
 90
        0
 91
        1
280
     0
281
     0
  0
CLASS
  1
AMDTEDGESTANDARDDIN13715
  2
AmdtEdgeStdDIN13715
  3
"Amdt_StdImp|Product Description: AutoCAD Mechanical|Company: Autodesk"
 90
        0
 91
        1
280
     0
281
     0
  0
CLASS
  1
ACMSURFSTANDARDDIN
  2
AcmSurfTextStdDIN
  3
"Amdt_StdImp|Product Description: AutoCAD Mechanical|Company: Autodesk"
 90
        0
 91
        1
280
     0
281
     0
  0
CLASS
  1
ACMFCFSTANDARDDIN
  2
AcmFCFStdDIN
  3
"Amdt_StdImp|Product Description: AutoCAD Mechanical|Company: Autodesk"
 90
        0
 91
        1
280
     0
281
     0
  0
CLASS
  1
ACMWELDSTANDARDDIN
  2
AcmWeldingStdDIN
  3
"Amdt_StdImp|Product Description: AutoCAD Mechanical|Company: Autodesk"
 90
        0
 91
        1
280
     0
281
     0
  0
CLASS
  1
ACMIDSTANDARDDIN
  2
AcmIdStdDIN
  3
"Amdt_StdImp|Product Description: AutoCAD Mechanical|Company: Autodesk"
 90
        0
 91
        1
280
     0
281
     0
  0
CLASS
  1
ACMDATUMSTANDARDDIN
  2
AcmDatumStdDIN
  3
"Amdt_StdImp|Product Description: AutoCAD Mechanical|Company: Autodesk"
 90
        0
 91
        1
280
     0
281
     0
  0
CLASS
  1
ACMBOMSTANDARDDIN
  2
AcmBOMStdDIN
  3
"Amdt_StdImp|Product Description: AutoCAD Mechanical|Company: Autodesk"
 90
        0
 91
        1
280
     0
281
     0
  0
CLASS
  1
ACMDETAILSTANDARDDIN
  2
AmdtDetailSymStdDIN
  3
"Amdt_StdImp|Product Description: AutoCAD Mechanical|Company: Autodesk"
 90
        0
 91
        1
280
     0
281
     0
  0
CLASS
  1
ACMSECTIONSTANDARDDIN
  2
AmdtSectionSymStdDIN
  3
"Amdt_StdImp|Product Description: AutoCAD Mechanical|Company: Autodesk"
 90
        0
 91
        1
280
     0
281
     0
  0
CLASS
  1
ACMCENTERLINESTANDARDDIN
  2
AmdtCenterLineStdDIN
  3
"Amdt_StdImp|Product Description: AutoCAD Mechanical|Company: Autodesk"
 90
        0
 91
        1
280
     0
281
     0
  0
CLASS
  1
ACMTHREADLINESTANDARDDIN
  2
AmdtThreadLineStdDIN
  3
"Amdt_StdImp|Product Description: AutoCAD Mechanical|Company: Autodesk"
 90
        0
 91
        1
280
     0
281
     0
  0
CLASS
  1
ACMNOTESTANDARDDIN
  2
AmdtNoteStdDIN
  3
"Amdt_StdImp|Product Description: AutoCAD Mechanical|Company: Autodesk"
 90
        0
 91
        1
280
     0
281
     0
  0
CLASS
  1
ACAMGHOLECHARTSTDDIN
  2
AcAmgHoleChartStdDIN
  3
ACMSYMBB_MODULE_NAME
 90
        0
 91
        1
280
     0
281
     0
  0
CLASS
  1
MATERIAL
  2
AcDbMaterial
  3
ObjectDBX Classes
 90
     1024
 91
        3
280
     0
281
     0
  0
CLASS
  1
VISUALSTYLE
  2
AcDbVisualStyle
  3
ObjectDBX Classes
 90
     4095
 91
       16
280
     0
281
     0
  0
CLASS
  1
ACRFATTGENMGR
  2
AcRfAttGeneralMgr
  3
AcAttribServices
 90
        0
 91
        0
280
     0
281
     0
  0
CLASS
  1
ACRFOBJATTMGR
  2
AcRfObjAttGroupMgr
  3
AcAttribServices
 90
        0
 91
        0
280
     0
281
     0
  0
CLASS
  1
ACRFMCADAPIATTHOLDER
  2
AcRfMCADAPIAttHolder
  3
AcAttribServices
 90
        0
 91
        0
280
     0
281
     0
  0
CLASS
  1
AMDTSYSATTR
  2
AmdtSystemAttribute
  3
AcAttribServices
 90
        0
 91
        0
280
     0
281
     0
  0
CLASS
  1
ACMTAPERSTANDARDISO
  2
AcmTaperStdISO
  3
"Amdt_StdImp|Product Description: AutoCAD Mechanical|Company: Autodesk"
 90
        0
 91
        1
280
     0
281
     0
  0
CLASS
  1
ACMTAPERSTANDARDDIN
  2
AcmTaperStdDIN
  3
"Amdt_StdImp|Product Description: AutoCAD Mechanical|Company: Autodesk"
 90
        0
 91
        1
280
     0
281
     0
  0
CLASS
  1
CAMSSTRUCTBTNSTATE
  2
StructBtnState
  3
L"DesignerAssemblies"
 90
        0
 91
        0
280
     0
281
     0
  0
CLASS
  1
STDPART2D
  2
AmgStdPart
  3
"g3vace|Class: AmgStdPart|Product Description: AutoCAD Mechanical|Company: Autodesk"
 90
     3071
 91
        0
280
     0
281
     1
  0
CLASS
  1
ACMWELDSYM
  2
AcmWelding
  3
"AcmSymBB|Product Description: AutoCAD Mechanical|Company: Autodesk"
 90
     3071
 91
        0
280
     0
281
     1
  0
CLASS
  1
AMDTNOTE
  2
AmdtNote
  3
"AcmSymBB|Product Description: AutoCAD Mechanical|Company: Autodesk"
 90
     3071
 91
        0
280
     0
281
     1
  0
CLASS
  1
ACDBLINERES
  2
AcDbLineRes
  3
AcGrefServices
 90
        0
 91
        0
280
     0
281
     0
  0
CLASS
  1
SORTENTSTABLE
  2
AcDbSortentsTable
  3
ObjectDBX Classes
 90
        0
 91
        0
280
     0
281
     0
  0
CLASS
  1
DIMASSOC
  2
AcDbDimAssoc
  3
"AcDbDimAssoc|Product Desc:     AcDim ARX App For Dimension|Company:          Autodesk, Inc.|WEB Address:      www.autodesk.com"
 90
        0
 91
        3
280
     0
281
     0
  0
ENDSEC
  0
SECTION
  2
TABLES
  0
TABLE
  2
VPORT
  5
8
330
0
100
AcDbSymbolTable
 70
     1
  0
VPORT
  5
253
330
8
100
AcDbSymbolTableRecord
100
AcDbViewportTableRecord
  2
*Active
 70
     0
 10
0.0
 20
0.0
 11
1.0
 21
1.0
 12
1348.491150897076
 22
990.8604492227837
 13
0.0
 23
0.0
 14
10.0
 24
10.0
 15
10.0
 25
10.0
 16
0.0
 26
0.0
 36
1.0
 17
0.0
 27
0.0
 37
0.0
 40
1100.056857402597
 41
1.651898734177215
 42
50.0
 43
0.0
 44
0.0
 50
0.0
 51
0.0
 71
     0
 72
  8000
 73
     1
 74
     3
 75
     0
 76
     0
 77
     0
 78
     0
281
     0
 65
     1
110
0.0
120
0.0
130
0.0
111
1.0
121
0.0
131
0.0
112
0.0
122
1.0
132
0.0
 79
     0
146
0.0
  0
ENDTAB
  0
TABLE
  2
LTYPE
  5
5
330
0
100
AcDbSymbolTable
 70
    24
  0
LTYPE
  5
14
330
5
100
AcDbSymbolTableRecord
100
AcDbLinetypeTableRecord
  2
ByBlock
 70
     0
  3

 72
    65
 73
     0
 40
0.0
  0
LTYPE
  5
15
330
5
100
AcDbSymbolTableRecord
100
AcDbLinetypeTableRecord
  2
ByLayer
 70
     0
  3

 72
    65
 73
     0
 40
0.0
  0
LTYPE
  5
16
330
5
100
AcDbSymbolTableRecord
100
AcDbLinetypeTableRecord
  2
Continuous
 70
     0
  3
Solid line
 72
    65
 73
     0
 40
0.0
  0
LTYPE
  5
64
330
5
100
AcDbSymbolTableRecord
100
AcDbLinetypeTableRecord
  2
AM_ISO02W050
 70
     0
  3
__ __ __ __ __ __ __ __ __ __ __ __ __ __ __
 72
    65
 73
     2
 40
7.5
 49
6.0
 74
     0
 49
-1.5
 74
     0
  0
LTYPE
  5
65
330
5
100
AcDbSymbolTableRecord
100
AcDbLinetypeTableRecord
  2
AM_ISO08W050
 70
     0
  3
____ . ____ . ____ . ____ . ____ . ____ . ____
 72
    65
 73
     4
 40
18.0
 49
12.0
 74
     0
 49
-1.5
 74
     0
 49
3.0
 74
     0
 49
-1.5
 74
     0
  0
LTYPE
  5
66
330
5
100
AcDbSymbolTableRecord
100
AcDbLinetypeTableRecord
  2
AM_ISO09W050
 70
     0
  3
_____ . . _____ . . _____ . . ____ .. ____
 72
    65
 73
     6
 40
22.5
 49
12.0
 74
     0
 49
-1.5
 74
     0
 49
3.0
 74
     0
 49
-1.5
 74
     0
 49
3.0
 74
     0
 49
-1.5
 74
     0
  0
LTYPE
  5
67
330
5
100
AcDbSymbolTableRecord
100
AcDbLinetypeTableRecord
  2
Amconstr
 70
     0
  3
_______________________
 72
    65
 73
     2
 40
9999.0
 49
9999.0
 74
     0
 49
0.0
 74
     0
  0
LTYPE
  5
68
330
5
100
AcDbSymbolTableRecord
100
AcDbLinetypeTableRecord
  2
AM_ISO08W050x2
 70
     0
  3
__ . __ . __ . __ . __ . __
 72
    65
 73
     4
 40
9.0
 49
6.0
 74
     0
 49
-0.75
 74
     0
 49
1.5
 74
     0
 49
-0.75
 74
     0
  0
LTYPE
  5
69
330
5
100
AcDbSymbolTableRecord
100
AcDbLinetypeTableRecord
  2
AM_ISO02W050x2
 70
     0
  3
 _ _ _ _ _ _ _ _ _ _ _ _
 72
    65
 73
     2
 40
3.75
 49
3.0
 74
     0
 49
-0.75
 74
     0
  0
LTYPE
  5
6C
330
5
100
AcDbSymbolTableRecord
100
AcDbLinetypeTableRecord
  2
Amzigzag
 70
     0
  3
/\/-/\/-/\/-/\/-/\/-/\/
 72
    65
 73
     2
 40
11.0001
 49
0.0001
 74
     4
 75
   135
340
6B
 46
0.04
 50
0.0
 44
0.0
 45
0.0
 49
-11.0
 74
     0
  0
LTYPE
  5
7A
330
5
100
AcDbSymbolTableRecord
100
AcDbLinetypeTableRecord
  2
ACISOWELD
 70
     0
  3
_ _ _ _ _
 72
    65
 73
     2
 40
2.0
 49
2.0
 74
     0
 49
-1.0
 74
     0
  0
LTYPE
  5
7B
330
5
100
AcDbSymbolTableRecord
100
AcDbLinetypeTableRecord
  2
ACISOTGB
 70
     0
  3
__ . . __ . .
 72
    65
 73
     6
 40
9.0
 49
4.0
 74
     0
 49
-1.0
 74
     0
 49
1.0
 74
     0
 49
-1.0
 74
     0
 49
1.0
 74
     0
 49
-1.0
 74
     0
  0
LTYPE
  5
7C
330
5
100
AcDbSymbolTableRecord
100
AcDbLinetypeTableRecord
  2
ACISOTGL
 70
     0
  3
_ _ _ _ _
 72
    65
 73
     2
 40
3.0
 49
2.0
 74
     0
 49
-1.0
 74
     0
  0
LTYPE
  5
7E
330
5
100
AcDbSymbolTableRecord
100
AcDbLinetypeTableRecord
  2
CENTER
 70
     0
  3
__ . __
 72
    65
 73
     4
 40
7.0
 49
4.0
 74
     0
 49
-1.0
 74
     0
 49
1.0
 74
     0
 49
-1.0
 74
     0
  0
LTYPE
  5
D8
330
5
100
AcDbSymbolTableRecord
100
AcDbLinetypeTableRecord
  2
HIDDEN
 70
     0
  3
Hidden __ __ __ __ __ __ __ __ __ __ __ __ __ _
 72
    65
 73
     2
 40
9.524999999999998
 49
6.349999999999998
 74
     0
 49
-3.174999999999998
 74
     0
  0
LTYPE
  5
D9
330
5
100
AcDbSymbolTableRecord
100
AcDbLinetypeTableRecord
  2
PHANTOM2
 70
     0
  3
Phantom (.5x) ___ _ _ ___ _ _ ___ _ _ ___ _ _
 72
    65
 73
     6
 40
31.75
 49
15.875
 74
     0
 49
-3.174999999999998
 74
     0
 49
3.174999999999998
 74
     0
 49
-3.174999999999998
 74
     0
 49
3.174999999999998
 74
     0
 49
-3.174999999999998
 74
     0
  0
LTYPE
  5
23B
330
5
100
AcDbSymbolTableRecord
100
AcDbLinetypeTableRecord
  2
ACDINWELD
 70
     0
  3
_ _ _ _ _
 72
    65
 73
     2
 40
2.0
 49
2.0
 74
     0
 49
-1.0
 74
     0
  0
LTYPE
  5
23C
330
5
100
AcDbSymbolTableRecord
100
AcDbLinetypeTableRecord
  2
ACDINTGB
 70
     0
  3
__ . . __ . .
 72
    65
 73
     6
 40
9.0
 49
4.0
 74
     0
 49
-1.0
 74
     0
 49
1.0
 74
     0
 49
-1.0
 74
     0
 49
1.0
 74
     0
 49
-1.0
 74
     0
  0
LTYPE
  5
23D
330
5
100
AcDbSymbolTableRecord
100
AcDbLinetypeTableRecord
  2
ACDINTGL
 70
     0
  3
_ _ _ _ _
 72
    65
 73
     2
 40
3.0
 49
2.0
 74
     0
 49
-1.0
 74
     0
  0
LTYPE
  5
24E
330
5
100
AcDbSymbolTableRecord
100
AcDbLinetypeTableRecord
  2
AM_DIN_F_W050
 70
     0
  3
__ __ __ __ __ __ __ __ __ __ __ __ __ __ __
 72
    65
 73
     2
 40
6.25
 49
4.75
 74
     0
 49
-1.5
 74
     0
  0
LTYPE
  5
24F
330
5
100
AcDbSymbolTableRecord
100
AcDbLinetypeTableRecord
  2
AM_DIN_G_W050
 70
     0
  3
____ . ____ . ____ . ____ . ____ . ____ . ____
 72
    65
 73
     4
 40
13.75
 49
9.75
 74
     0
 49
-1.5
 74
     0
 49
1.0
 74
     0
 49
-1.5
 74
     0
  0
LTYPE
  5
250
330
5
100
AcDbSymbolTableRecord
100
AcDbLinetypeTableRecord
  2
AM_DIN_K_W050
 70
     0
  3
_____ . . _____ . . _____ . . ____ .. ____
 72
    65
 73
     6
 40
16.25
 49
9.75
 74
     0
 49
-1.5
 74
     0
 49
1.0
 74
     0
 49
-1.5
 74
     0
 49
1.0
 74
     0
 49
-1.5
 74
     0
  0
LTYPE
  5
251
330
5
100
AcDbSymbolTableRecord
100
AcDbLinetypeTableRecord
  2
AM_DIN_G_W050x2
 70
     0
  3
__ . __ . __ . __ . __ . __
 72
    65
 73
     4
 40
6.875
 49
4.75
 74
     0
 49
-0.875
 74
     0
 49
0.375
 74
     0
 49
-0.875
 74
     0
  0
LTYPE
  5
252
330
5
100
AcDbSymbolTableRecord
100
AcDbLinetypeTableRecord
  2
AM_DIN_F_W050x2
 70
     0
  3
 _ _ _ _ _ _ _ _ _ _ _ _
 72
    65
 73
     2
 40
3.125
 49
2.25
 74
     0
 49
-0.875
 74
     0
  0
LTYPE
  5
AE4
330
5
100
AcDbSymbolTableRecord
100
AcDbLinetypeTableRecord
  2
DASHDOT
 70
     0
  3
 __ . __ . __ . __ . __ . __ . __ . 
 72
    65
 73
     4
 40
18.5
 49
12.0
 74
     0
 49
-3.0
 74
     0
 49
0.5
 74
     0
 49
-3.0
 74
     0
  0
ENDTAB
  0
TABLE
  2
LAYER
  5
2
102
{ACAD_XDICTIONARY
360
5B6
102
}
330
0
100
AcDbSymbolTable
 70
    14
  0
LAYER
  5
10
330
2
100
AcDbSymbolTableRecord
100
AcDbLayerTableRecord
  2
0
 70
     0
 62
     7
  6
Continuous
370
    -3
390
F
  0
LAYER
  5
597
330
2
100
AcDbSymbolTableRecord
100
AcDbLayerTableRecord
  2
AM_5
 70
     0
 62
     3
  6
Continuous
370
    25
390
F
  0
LAYER
  5
598
330
2
100
AcDbSymbolTableRecord
100
AcDbLayerTableRecord
  2
AM_7
 70
     0
 62
     4
  6
AM_DIN_G_W050
370
    25
390
F
1001
AcAecLayerStandard
1000

1000

  0
LAYER
  5
599
330
2
100
AcDbSymbolTableRecord
100
AcDbLayerTableRecord
  2
AM_0
 70
     0
 62
     7
  6
Continuous
370
    50
390
F
  0
LAYER
  5
59A
330
2
100
AcDbSymbolTableRecord
100
AcDbLayerTableRecord
  2
DEFPOINTS
 70
     0
 62
     7
  6
Continuous
290
     0
370
    -3
390
F
  0
LAYER
  5
59B
330
2
100
AcDbSymbolTableRecord
100
AcDbLayerTableRecord
  2
AM_3
 70
     0
 62
     6
  6
AM_DIN_F_W050
370
    25
390
F
  0
LAYER
  5
59C
330
2
100
AcDbSymbolTableRecord
100
AcDbLayerTableRecord
  2
AM_4
 70
     0
 62
     3
  6
Continuous
370
    25
390
F
1001
AcAecLayerStandard
1000

1000

  0
LAYER
  5
59D
330
2
100
AcDbSymbolTableRecord
100
AcDbLayerTableRecord
  2
AM_9
 70
     0
 62
  -253
  6
Continuous
370
     0
390
F
1001
AcAecLayerStandard
1000

1000

  0
LAYER
  5
59E
330
2
100
AcDbSymbolTableRecord
100
AcDbLayerTableRecord
  2
AM_8
 70
     0
 62
     1
  6
Continuous
370
    25
390
F
1001
AcAecLayerStandard
1000

1000

  0
LAYER
  5
59F
330
2
100
AcDbSymbolTableRecord
100
AcDbLayerTableRecord
  2
AM_BOR
 70
     0
 62
     7
  6
Continuous
370
    50
390
F
  0
LAYER
  5
5A0
330
2
100
AcDbSymbolTableRecord
100
AcDbLayerTableRecord
  2
UMRISS05
 70
     0
 62
     7
  6
Continuous
370
    -3
390
F
  0
LAYER
  5
5A1
330
2
100
AcDbSymbolTableRecord
100
AcDbLayerTableRecord
  2
6
 70
     0
 62
     2
  6
Continuous
370
    -3
390
F
  0
LAYER
  5
AE5
330
2
100
AcDbSymbolTableRecord
100
AcDbLayerTableRecord
  2
LOGO_VON_SCHLASSE_120709
 70
     0
 62
     7
  6
Continuous
370
    -3
390
F
  0
LAYER
  5
FE8
330
2
100
AcDbSymbolTableRecord
100
AcDbLayerTableRecord
  2
AM_CL
 70
     0
 62
     1
  6
Amconstr
370
    25
390
F
1001
AcAecLayerStandard
1000

1000

  0
ENDTAB
  0
TABLE
  2
STYLE
  5
3
330
0
100
AcDbSymbolTable
 70
     7
  0
STYLE
  5
11
330
3
100
AcDbSymbolTableRecord
100
AcDbTextStyleTableRecord
  2
Standard
 70
     0
 40
0.0
 41
1.0
 50
0.0
 71
     0
 42
2.5
  3
ISOCP.SHX
  4
bigfont.shx
  0
STYLE
  5
6B
330
3
100
AcDbSymbolTableRecord
100
AcDbTextStyleTableRecord
  2

 70
     1
 40
0.0
 41
1.0
 50
0.0
 71
     0
 42
2.5
  3
ltypeshp.shx
  4

  0
STYLE
  5
6D
330
3
100
AcDbSymbolTableRecord
100
AcDbTextStyleTableRecord
  2
ACISOTS
 70
     0
 40
1.0
 41
1.0
 50
0.0
 71
     0
 42
2.5
  3
isocp.shx
  4
bigfont.shx
  0
STYLE
  5
79
330
3
100
AcDbSymbolTableRecord
100
AcDbTextStyleTableRecord
  2
ACISOGDT
 70
     0
 40
0.0
 41
1.0
 50
0.0
 71
     0
 42
2.5
  3
amgdt.shx
  4
bigfont.shx
  0
STYLE
  5
22D
330
3
100
AcDbSymbolTableRecord
100
AcDbTextStyleTableRecord
  2
ACDINTS
 70
     0
 40
1.0
 41
1.0
 50
0.0
 71
     0
 42
2.5
  3
isocp.shx
  4

  0
STYLE
  5
23A
330
3
100
AcDbSymbolTableRecord
100
AcDbTextStyleTableRecord
  2
ACDINGDT
 70
     0
 40
0.0
 41
1.0
 50
0.0
 71
     0
 42
2.5
  3
amgdt.shx
  4

  0
ENDTAB
  0
TABLE
  2
VIEW
  5
6
330
0
100
AcDbSymbolTable
 70
     0
  0
ENDTAB
  0
TABLE
  2
UCS
  5
7
330
0
100
AcDbSymbolTable
 70
     0
  0
ENDTAB
  0
TABLE
  2
APPID
  5
9
330
0
100
AcDbSymbolTable
 70
    32
  0
APPID
  5
12
330
9
100
AcDbSymbolTableRecord
100
AcDbRegAppTableRecord
  2
ACAD
 70
     0
  0
APPID
  5
46
330
9
100
AcDbSymbolTableRecord
100
AcDbRegAppTableRecord
  2
MCAD_NO_VIS
 70
     0
  0
APPID
  5
47
330
9
100
AcDbSymbolTableRecord
100
AcDbRegAppTableRecord
  2
ACAD_TEMP_GRAPHIC
 70
     0
  0
APPID
  5
58
330
9
100
AcDbSymbolTableRecord
100
AcDbRegAppTableRecord
  2
ACATTRIBSERVICES
 70
     0
  0
APPID
  5
EE
330
9
100
AcDbSymbolTableRecord
100
AcDbRegAppTableRecord
  2
AD_DRAW
 70
     0
  0
APPID
  5
10C
330
9
100
AcDbSymbolTableRecord
100
AcDbRegAppTableRecord
  2
DESIGNERASSEMBLIES
 70
     0
  0
APPID
  5
111
330
9
100
AcDbSymbolTableRecord
100
AcDbRegAppTableRecord
  2
ACADM_DIM_EDIT
 70
     0
  0
APPID
  5
112
330
9
100
AcDbSymbolTableRecord
100
AcDbRegAppTableRecord
  2
AMDT_DM_ADJ
 70
     0
  0
APPID
  5
5A3
330
9
100
AcDbSymbolTableRecord
100
AcDbRegAppTableRecord
  2
GENIUS_GENSCREG_15
 70
     0
  0
APPID
  5
5A4
330
9
100
AcDbSymbolTableRecord
100
AcDbRegAppTableRecord
  2
GENIUS_GENOBJ-N-SDF_13
 70
     0
  0
APPID
  5
5A5
330
9
100
AcDbSymbolTableRecord
100
AcDbRegAppTableRecord
  2
GENIUS_GENODEF_13
 70
     0
  0
APPID
  5
5A6
330
9
100
AcDbSymbolTableRecord
100
AcDbRegAppTableRecord
  2
AcAecLayerStandard
 70
     0
  0
APPID
  5
5A7
330
9
100
AcDbSymbolTableRecord
100
AcDbRegAppTableRecord
  2
GENIUS_GENOLIS_13
 70
     0
  0
APPID
  5
5A8
330
9
100
AcDbSymbolTableRecord
100
AcDbRegAppTableRecord
  2
GENIUS_GENOENT_13
 70
     0
  0
APPID
  5
5A9
330
9
100
AcDbSymbolTableRecord
100
AcDbRegAppTableRecord
  2
GENIUS_GENOBJ-N-CRS_13
 70
     0
  0
APPID
  5
5AA
330
9
100
AcDbSymbolTableRecord
100
AcDbRegAppTableRecord
  2
GENIUS_GENOREF_13
 70
     0
  0
APPID
  5
5AB
330
9
100
AcDbSymbolTableRecord
100
AcDbRegAppTableRecord
  2
GENIUS_GENOBJ-N-CEN_13
 70
     0
  0
APPID
  5
5AC
330
9
100
AcDbSymbolTableRecord
100
AcDbRegAppTableRecord
  2
GENIUS_GENCEN_19
 70
     0
  0
APPID
  5
5AD
330
9
100
AcDbSymbolTableRecord
100
AcDbRegAppTableRecord
  2
GENIUS_GENOBJ-N-FIL_13
 70
     0
  0
APPID
  5
5AE
330
9
100
AcDbSymbolTableRecord
100
AcDbRegAppTableRecord
  2
AMG_2DSTRUCT_BTR
 70
     0
  0
APPID
  5
5AF
330
9
100
AcDbSymbolTableRecord
100
AcDbRegAppTableRecord
  2
GENIUS_GENOBJ-N-HTC_13
 70
     0
  0
APPID
  5
5B0
330
9
100
AcDbSymbolTableRecord
100
AcDbRegAppTableRecord
  2
GENIUS_GENHATCH_13
 70
     0
  0
APPID
  5
5B1
330
9
100
AcDbSymbolTableRecord
100
AcDbRegAppTableRecord
  2
GENIUS_VERSION1
 70
     0
  0
APPID
  5
5B2
330
9
100
AcDbSymbolTableRecord
100
AcDbRegAppTableRecord
  2
GENIUS_GENDTOL_13
 70
     0
  0
APPID
  5
5B3
330
9
100
AcDbSymbolTableRecord
100
AcDbRegAppTableRecord
  2
GENIUS_GENTRA_14
 70
     0
  0
APPID
  5
5B4
330
9
100
AcDbSymbolTableRecord
100
AcDbRegAppTableRecord
  2
GENIUS_GENOBJ-N-TIT_13
 70
     0
  0
APPID
  5
5B5
330
9
100
AcDbSymbolTableRecord
100
AcDbRegAppTableRecord
  2
GENIUS_GENTITLE_13
 70
     0
  0
APPID
  5
A1C
330
9
100
AcDbSymbolTableRecord
100
AcDbRegAppTableRecord
  2
GENIUS_GENREC_14
 70
     0
  0
APPID
  5
A1D
330
9
100
AcDbSymbolTableRecord
100
AcDbRegAppTableRecord
  2
GENIUS_GENOBJ-N-REC_13
 70
     0
  0
APPID
  5
AE6
330
9
100
AcDbSymbolTableRecord
100
AcDbRegAppTableRecord
  2
ACAD_PSEXT
 70
     0
  0
APPID
  5
AE7
330
9
100
AcDbSymbolTableRecord
100
AcDbRegAppTableRecord
  2
DCO15
 70
     0
  0
APPID
  5
FEB
330
9
100
AcDbSymbolTableRecord
100
AcDbRegAppTableRecord
  2
ACAD_EXEMPT_FROM_CAD_STANDARDS
 70
     0
  0
ENDTAB
  0
TABLE
  2
DIMSTYLE
  5
A
330
0
100
AcDbSymbolTable
 70
    18
100
AcDbDimStyleTable
 71
     1
340
245
  0
DIMSTYLE
105
27
330
A
100
AcDbSymbolTableRecord
100
AcDbDimStyleTableRecord
  2
ISO-25
 70
     0
 41
2.5
 42
0.625
 43
3.75
 44
1.25
 73
     0
 74
     0
 77
     1
 78
     8
140
2.5
141
2.5
143
0.03937007874016
147
0.625
171
     3
172
     1
271
     2
272
     2
274
     3
278
    44
283
     0
284
     8
340
11
  0
DIMSTYLE
105
81
330
A
100
AcDbSymbolTableRecord
100
AcDbDimStyleTableRecord
  2
AM_ISO
 70
     0
  4
"
 41
2.5
 42
1.0
 43
10.0
 44
1.0
 47
0.1
 48
0.1
 73
     0
 74
     0
 77
     1
 78
     8
 79
     2
140
3.5
141
0.0
143
0.0393701
146
0.71
147
1.5
172
     1
176
   256
177
   256
178
     2
271
     2
272
     3
274
     4
283
     0
284
     8
340
11
371
    -1
372
    -1
  0
DIMSTYLE
105
82
330
A
100
AcDbSymbolTableRecord
100
AcDbDimStyleTableRecord
  2
AM_ISO$3
 70
     0
  4
"
 41
2.5
 42
1.0
 43
10.0
 44
1.0
 47
0.1
 48
0.1
 73
     0
 77
     1
 78
     8
 79
     2
140
3.5
141
0.0
143
0.0393701
146
0.71
147
1.5
176
   256
177
   256
178
     2
271
     2
272
     3
274
     4
283
     0
284
     8
288
     1
289
     0
340
11
371
    -1
372
    -1
  0
DIMSTYLE
105
83
330
A
100
AcDbSymbolTableRecord
100
AcDbDimStyleTableRecord
  2
AM_ISO$4
 70
     0
  4
"
 41
2.5
 42
1.0
 43
10.0
 44
1.0
 47
0.1
 48
0.1
 73
     0
 77
     1
 78
     8
 79
     2
140
3.5
141
0.0
143
0.0393701
146
0.71
147
1.5
176
   256
177
   256
178
     2
271
     2
272
     3
274
     4
283
     0
284
     8
288
     1
289
     0
340
11
371
    -1
372
    -1
  0
DIMSTYLE
105
84
330
A
100
AcDbSymbolTableRecord
100
AcDbDimStyleTableRecord
  2
AM_ISO$6
 70
     0
  4
"
 41
2.5
 42
1.0
 43
10.0
 44
1.0
 47
0.1
 48
0.1
 73
     0
 74
     0
 78
     8
 79
     2
140
3.5
141
0.0
143
0.0393701
146
0.71
147
1.5
172
     1
176
   256
177
   256
178
     2
271
     2
272
     3
274
     4
283
     0
284
     8
340
11
371
    -1
372
    -1
  0
DIMSTYLE
105
85
330
A
100
AcDbSymbolTableRecord
100
AcDbDimStyleTableRecord
  2
AM_ISO$7
 70
     0
  4
"
 41
2.5
 42
1.0
 43
10.0
 44
1.0
 47
0.1
 48
0.1
 73
     0
 74
     0
 77
     1
 78
     8
 79
     2
140
5.0
141
0.0
143
0.0393701
146
0.71
147
1.5
172
     1
176
   256
177
   256
178
     2
271
     2
272
     3
274
     4
283
     0
284
     8
340
11
371
    -1
372
    -1
  0
DIMSTYLE
105
86
330
A
100
AcDbSymbolTableRecord
100
AcDbDimStyleTableRecord
  2
AM_ISO$SF
 70
     0
  4
"
 41
2.5
 42
1.0
 43
10.0
 44
1.0
 47
0.1
 48
0.1
 73
     0
 74
     0
 75
     1
 76
     1
 77
     1
 78
     8
 79
     2
140
3.5
141
0.0
143
0.0393701
146
0.71
147
1.5
172
     1
176
   256
177
   256
178
     2
271
     2
272
     3
274
     4
283
     0
284
     8
340
11
371
    -1
372
    -1
  0
DIMSTYLE
105
8B
330
A
100
AcDbSymbolTableRecord
100
AcDbDimStyleTableRecord
  2
AM_ISO$SH
 70
     0
  4
"
 41
2.5
 42
1.0
 43
10.0
 44
1.0
 47
0.1
 48
0.1
 73
     0
 74
     0
 75
     1
 76
     1
 77
     1
 78
     8
 79
     2
140
3.5
141
0.0
143
0.0393701
144
2.0
146
0.71
147
1.5
172
     1
173
     1
176
   256
177
   256
178
     2
271
     2
272
     3
274
     4
283
     0
284
     8
340
11
343
87
371
    -1
372
    -1
  0
DIMSTYLE
105
245
330
A
100
AcDbSymbolTableRecord
100
AcDbDimStyleTableRecord
  2
AM_DIN
 70
     0
  4
"
 41
2.5
 42
1.0
 43
10.0
 44
1.0
 47
0.1
 48
0.1
 73
     0
 74
     0
 77
     1
 78
     8
 79
     2
140
3.5
141
0.0
143
0.0393701
146
0.71
147
1.5
172
     1
176
   256
177
   256
178
     2
271
     2
272
     3
274
     4
283
     0
284
     8
340
11
371
    -1
372
    -1
  0
DIMSTYLE
105
246
330
A
100
AcDbSymbolTableRecord
100
AcDbDimStyleTableRecord
  2
AM_DIN$3
 70
     0
  4
"
 41
2.5
 42
1.0
 43
10.0
 44
1.0
 47
0.1
 48
0.1
 73
     0
 77
     1
 78
     8
 79
     2
140
3.5
141
0.0
143
0.0393701
146
0.71
147
1.5
176
   256
177
   256
178
     2
271
     2
272
     3
274
     4
283
     0
284
     8
288
     1
289
     0
340
11
371
    -1
372
    -1
  0
DIMSTYLE
105
247
330
A
100
AcDbSymbolTableRecord
100
AcDbDimStyleTableRecord
  2
AM_DIN$4
 70
     0
  4
"
 41
2.5
 42
1.0
 43
10.0
 44
1.0
 47
0.1
 48
0.1
 73
     0
 77
     1
 78
     8
 79
     2
140
3.5
141
0.0
143
0.0393701
146
0.71
147
1.5
176
   256
177
   256
178
     2
271
     2
272
     3
274
     4
283
     0
284
     8
288
     1
289
     0
340
11
371
    -1
372
    -1
  0
DIMSTYLE
105
248
330
A
100
AcDbSymbolTableRecord
100
AcDbDimStyleTableRecord
  2
AM_DIN$6
 70
     0
  4
"
 41
2.5
 42
1.0
 43
10.0
 44
1.0
 47
0.1
 48
0.1
 73
     0
 74
     0
 78
     8
 79
     2
140
3.5
141
0.0
143
0.0393701
146
0.71
147
1.5
172
     1
176
   256
177
   256
178
     2
271
     2
272
     3
274
     4
283
     0
284
     8
340
11
371
    -1
372
    -1
  0
DIMSTYLE
105
249
330
A
100
AcDbSymbolTableRecord
100
AcDbDimStyleTableRecord
  2
AM_DIN$7
 70
     0
  4
"
 41
2.5
 42
1.0
 43
10.0
 44
1.0
 47
0.1
 48
0.1
 73
     0
 74
     0
 77
     1
 78
     8
 79
     2
140
5.0
141
0.0
143
0.0393701
146
0.71
147
1.5
172
     1
176
   256
177
   256
178
     2
271
     2
272
     3
274
     4
283
     0
284
     8
340
11
371
    -1
372
    -1
  0
DIMSTYLE
105
24A
330
A
100
AcDbSymbolTableRecord
100
AcDbDimStyleTableRecord
  2
AM_DIN$SF
 70
     0
  4
"
 41
2.5
 42
1.0
 43
10.0
 44
1.0
 47
0.1
 48
0.1
 73
     0
 74
     0
 75
     1
 76
     1
 77
     1
 78
     8
 79
     2
140
3.5
141
0.0
143
0.0393701
146
0.71
147
1.5
172
     1
176
   256
177
   256
178
     2
271
     2
272
     3
274
     4
283
     0
284
     8
340
11
371
    -1
372
    -1
  0
DIMSTYLE
105
24B
330
A
100
AcDbSymbolTableRecord
100
AcDbDimStyleTableRecord
  2
AM_DIN$SH
 70
     0
  4
"
 41
2.5
 42
1.0
 43
10.0
 44
1.0
 47
0.1
 48
0.1
 73
     0
 74
     0
 75
     1
 76
     1
 77
     1
 78
     8
 79
     2
140
3.5
141
0.0
143
0.0393701
144
2.0
146
0.71
147
1.5
172
     1
173
     1
176
   256
177
   256
178
     2
271
     2
272
     3
274
     4
283
     0
284
     8
340
11
343
87
371
    -1
372
    -1
  0
DIMSTYLE
105
5A2
102
{ACAD_REACTORS
330
89E
330
89F
330
F0C
330
F24
330
10DC
102
}
330
A
100
AcDbSymbolTableRecord
100
AcDbDimStyleTableRecord
  2
AM_DIN$0
 70
     0
  4
"
 41
2.5
 42
0.0
 43
10.0
 44
2.0
 47
0.1
 48
0.1
 73
     0
 74
     0
 77
     1
 78
     8
 79
     2
140
3.5
141
0.0
143
0.0393701
146
0.71
147
1.5
172
     1
176
   256
177
   256
178
     2
271
     2
272
     2
283
     0
284
     8
340
11
371
    -1
372
    -1
  0
ENDTAB
  0
TABLE
  2
BLOCK_RECORD
  5
1
330
0
100
AcDbSymbolTable
 70
    24
  0
BLOCK_RECORD
  5
1F
102
{ACAD_XDICTIONARY
360
8F
102
}
330
1
100
AcDbSymbolTableRecord
100
AcDbBlockTableRecord
  2
*Model_Space
340
22
  0
BLOCK_RECORD
  5
1B
330
1
100
AcDbSymbolTableRecord
100
AcDbBlockTableRecord
  2
*Paper_Space
340
1E
  0
BLOCK_RECORD
  5
23
330
1
100
AcDbSymbolTableRecord
100
AcDbBlockTableRecord
  2
*Paper_Space0
340
26
  0
BLOCK_RECORD
  5
87
330
1
100
AcDbSymbolTableRecord
100
AcDbBlockTableRecord
  2
GENAXEH
340
0
  0
BLOCK_RECORD
  5
2BF
330
1
100
AcDbSymbolTableRecord
100
AcDbBlockTableRecord
  2
sfm
340
0
102
{BLKREFS
331
384
102
}
  0
BLOCK_RECORD
  5
2C8
102
{ACAD_XDICTIONARY
360
2C9
102
}
330
1
100
AcDbSymbolTableRecord
100
AcDbBlockTableRecord
  2
REFLEX_EDBTITLE
340
0
  0
BLOCK_RECORD
  5
387
330
1
100
AcDbSymbolTableRecord
100
AcDbBlockTableRecord
  2
DIN_A1
340
0
102
{BLKREFS
331
81F
102
}
  0
BLOCK_RECORD
  5
40D
330
1
100
AcDbSymbolTableRecord
100
AcDbBlockTableRecord
  2
4
340
0
310
2800000020000000200000000100080000000000000400000000000000000000000000000000000000000000000080000080000000808000800000008000800080800000C0C0C000C0DCC000F0CAA6000020400000206000002080000020A0000020C0000020E00000400000004020000040400000406000004080000040A0
310
000040C0000040E00000600000006020000060400000606000006080000060A0000060C0000060E00000800000008020000080400000806000008080000080A0000080C0000080E00000A0000000A0200000A0400000A0600000A0800000A0A00000A0C00000A0E00000C0000000C0200000C0400000C0600000C0800000C0
310
A00000C0C00000C0E00000E0000000E0200000E0400000E0600000E0800000E0A00000E0C00000E0E00040000000400020004000400040006000400080004000A0004000C0004000E00040200000402020004020400040206000402080004020A0004020C0004020E000404000004040200040404000404060004040800040
310
40A0004040C0004040E00040600000406020004060400040606000406080004060A0004060C0004060E00040800000408020004080400040806000408080004080A0004080C0004080E00040A0000040A0200040A0400040A0600040A0800040A0A00040A0C00040A0E00040C0000040C0200040C0400040C0600040C08000
310
40C0A00040C0C00040C0E00040E0000040E0200040E0400040E0600040E0800040E0A00040E0C00040E0E00080000000800020008000400080006000800080008000A0008000C0008000E00080200000802020008020400080206000802080008020A0008020C0008020E00080400000804020008040400080406000804080
310
008040A0008040C0008040E00080600000806020008060400080606000806080008060A0008060C0008060E00080800000808020008080400080806000808080008080A0008080C0008080E00080A0000080A0200080A0400080A0600080A0800080A0A00080A0C00080A0E00080C0000080C0200080C0400080C0600080C0
310
800080C0A00080C0C00080C0E00080E0000080E0200080E0400080E0600080E0800080E0A00080E0C00080E0E000C0000000C0002000C0004000C0006000C0008000C000A000C000C000C000E000C0200000C0202000C0204000C0206000C0208000C020A000C020C000C020E000C0400000C0402000C0404000C0406000C0
310
408000C040A000C040C000C040E000C0600000C0602000C0604000C0606000C0608000C060A000C060C000C060E000C0800000C0802000C0804000C0806000C0808000C080A000C080C000C080E000C0A00000C0A02000C0A04000C0A06000C0A08000C0A0A000C0A0C000C0A0E000C0C00000C0C02000C0C04000C0C06000
310
C0C08000C0C0A000F0FBFF00A4A0A000808080000000FF0000FF000000FFFF00FF000000FF00FF00FFFF0000FFFFFF000000000000000000000000000000000000000000000000000000000000000000000000000000000000000000000000FD0000000000000000000000000000000000000000000000000000000000FDFD
310
FDFDFDFD0000000000000000000000000000000000000000000000000000FDFDFDFDFDFD0000000000000000000000000000000000000000000000000000FDFDFDFDFDFD0000000000000000000000000000000000000000000000000000FDFDFDFDFDFD0000000000000000000000000000000000000000000000000000FD
310
FDFDFDFDFD0000000000000000000000000000000000000000000000000000FDFDFDFDFDFD0000000000000000000000000000000000000000000000000000FDFDFDFDFDFD0000000000000000000000000000000000000000000000000000FDFDFDFDFDFD0000000000000000000000000000000000000000000000000000
310
FDFDFDFDFDFD0000000000000000000000000000000000000000000000000000FDFDFDFDFDFD0000000000000000000000000000000000000000000000000000FDFDFDFDFDFD0000000000000000000000000000000000000000000000000000FDFDFDFDFDFD00000000000000000000000000000000000000000000000000
310
00FDFDFDFDFDFD0000000000000000000000000000000000000000000000000000FDFDFDFDFDFD0000000000000000000000000000000000000000000000000000FDFDFDFDFDFD0000000000000000000000000000000000000000000000000000FDFDFDFDFDFD000000000000000000000000000000000000000000000000
310
0000FDFDFDFDFDFD0000000000000000000000000000000000000000000000000000FDFDFDFDFDFD0000000000000000000000000000000000000000000000000000FDFDFDFDFDFD0000000000000000000000000000000000000000000000000000FDFDFDFDFDFD0000000000000000000000000000000000000000000000
310
000000FDFDFDFDFDFD0000000000000000000000000000000000000000000000000000FDFDFDFDFDFD0000000000000000000000000000000000000000000000000000FDFDFDFDFDFD0000000000000000000000000000000000000000000000000000FDFDFDFDFDFD00000000000000000000000000000000000000000000
310
00000000FDFDFDFDFDFD0000000000000000000000000000000000000000000000000000FDFDFDFDFDFD0000000000000000000000000000000000000000000000000000FDFDFDFDFDFD0000000000000000000000000000000000000000000000000000FDFDFDFDFDFD000000000000000000000000000000000000000000
310
0000000000FDFDFDFDFDFD000000000000000000000000000000000000000000000000000000000000000000000000000000000000000000
1001
ACAD
1000
DesignCenter Data
1002
{
1070
     1
1070
     4
1002
}
  0
BLOCK_RECORD
  5
50A
330
1
100
AcDbSymbolTableRecord
100
AcDbBlockTableRecord
  2
7
340
0
310
2800000020000000200000000100080000000000000400000000000000000000000000000000000000000000000080000080000000808000800000008000800080800000C0C0C000C0DCC000F0CAA6000020400000206000002080000020A0000020C0000020E00000400000004020000040400000406000004080000040A0
310
000040C0000040E00000600000006020000060400000606000006080000060A0000060C0000060E00000800000008020000080400000806000008080000080A0000080C0000080E00000A0000000A0200000A0400000A0600000A0800000A0A00000A0C00000A0E00000C0000000C0200000C0400000C0600000C0800000C0
310
A00000C0C00000C0E00000E0000000E0200000E0400000E0600000E0800000E0A00000E0C00000E0E00040000000400020004000400040006000400080004000A0004000C0004000E00040200000402020004020400040206000402080004020A0004020C0004020E000404000004040200040404000404060004040800040
310
40A0004040C0004040E00040600000406020004060400040606000406080004060A0004060C0004060E00040800000408020004080400040806000408080004080A0004080C0004080E00040A0000040A0200040A0400040A0600040A0800040A0A00040A0C00040A0E00040C0000040C0200040C0400040C0600040C08000
310
40C0A00040C0C00040C0E00040E0000040E0200040E0400040E0600040E0800040E0A00040E0C00040E0E00080000000800020008000400080006000800080008000A0008000C0008000E00080200000802020008020400080206000802080008020A0008020C0008020E00080400000804020008040400080406000804080
310
008040A0008040C0008040E00080600000806020008060400080606000806080008060A0008060C0008060E00080800000808020008080400080806000808080008080A0008080C0008080E00080A0000080A0200080A0400080A0600080A0800080A0A00080A0C00080A0E00080C0000080C0200080C0400080C0600080C0
310
800080C0A00080C0C00080C0E00080E0000080E0200080E0400080E0600080E0800080E0A00080E0C00080E0E000C0000000C0002000C0004000C0006000C0008000C000A000C000C000C000E000C0200000C0202000C0204000C0206000C0208000C020A000C020C000C020E000C0400000C0402000C0404000C0406000C0
310
408000C040A000C040C000C040E000C0600000C0602000C0604000C0606000C0608000C060A000C060C000C060E000C0800000C0802000C0804000C0806000C0808000C080A000C080C000C080E000C0A00000C0A02000C0A04000C0A06000C0A08000C0A0A000C0A0C000C0A0E000C0C00000C0C02000C0C04000C0C06000
310
C0C08000C0C0A000F0FBFF00A4A0A000808080000000FF0000FF000000FFFF00FF000000FF00FF00FFFF0000FFFFFF0000000000000000000000000000000000000000000000000000000000000000000000000000000000000000000000000000000000000000000000000000000000000000000000000000000000000000
310
0000000000000000000000000000000000000000000000000000000000000000000000000000000000000000000000000000000000000000000000000000000000000000000000000000000000FFFF00000000000000000000000000000000000000000000000000000000FFFFFEFEFF000000000000000000000000000000
310
000000000000000000000000FEFE00FFFF0000000000000000000000000000000000000000000000000000FFFEFFFF00000000000000000000000000000000000000000000000000000000FFFF0000000000000000000000000000000000000000000000000000000000FFFEFF000000000000000000000000000000000000
310
0000000000000000000000FFFF0000000000000000000000000000000000000000000000000000000000FFFE00FF000000000000000000000000000000000000000000FE000000000000FF00FEFF0000000000000000FFFFFF00000000000000000000FE00000000000000FFFE00FF0000000000FFFF00FEFEFFFFFF000000
310
0000000000FE000000000000FFFE00FF000000000000FFFEFFFFFFFE00FFFF000000000000FE000000000000FFFE00FF000000000000FFFF000000FFFFFEFF00000000000000FE0000000000FFFE00FF000000000000000000000000FFFE00FF000000000000FE0000000000FFFE00FF00000000000000000000000000FFFE
310
FF000000000000FE0000000000FFFE00FF00000000000000000000000000FFFE00FF000000000000FE00000000FFFE00FF0000000000000000000000000000FFFE00FF0000000000FE000000FFFE00FF000000000000000000000000000000FF00FE00FF0000000000FE00FF00FEFF00000000000000000000000000000000
310
00FFFE0000FFFFFF0000FEFF00FE00FF0000000000000000000000000000000000FF00FEFEFE0000FFFFFEFEFEFEFF00000000000000000000000000000000000000FFFF0000FEFEFEFEFEFEFFFF00000000000000000000000000000000000000000000FFFFFF000000FFFE00000000000000000000000000000000000000
310
0000000000000000FFFFFF0000FE00000000000000000000000000000000000000000000000000000000000000FE000000000000000000000000000000000000000000000000000000000000000000000000000000000000000000000000000000000000000000000000000000000000000000000000000000000000000000
310
0000000000000000000000000000000000000000000000000000000000000000000000000000000000000000000000000000000000000000
102
{BLKREFS
331
930
331
931
102
}
1001
ACAD
1000
DesignCenter Data
1002
{
1070
     1
1070
     4
1002
}
  0
BLOCK_RECORD
  5
525
330
1
100
AcDbSymbolTableRecord
100
AcDbBlockTableRecord
  2
6
340
0
310
2800000020000000200000000100080000000000000400000000000000000000000000000000000000000000000080000080000000808000800000008000800080800000C0C0C000C0DCC000F0CAA6000020400000206000002080000020A0000020C0000020E00000400000004020000040400000406000004080000040A0
310
000040C0000040E00000600000006020000060400000606000006080000060A0000060C0000060E00000800000008020000080400000806000008080000080A0000080C0000080E00000A0000000A0200000A0400000A0600000A0800000A0A00000A0C00000A0E00000C0000000C0200000C0400000C0600000C0800000C0
310
A00000C0C00000C0E00000E0000000E0200000E0400000E0600000E0800000E0A00000E0C00000E0E00040000000400020004000400040006000400080004000A0004000C0004000E00040200000402020004020400040206000402080004020A0004020C0004020E000404000004040200040404000404060004040800040
310
40A0004040C0004040E00040600000406020004060400040606000406080004060A0004060C0004060E00040800000408020004080400040806000408080004080A0004080C0004080E00040A0000040A0200040A0400040A0600040A0800040A0A00040A0C00040A0E00040C0000040C0200040C0400040C0600040C08000
310
40C0A00040C0C00040C0E00040E0000040E0200040E0400040E0600040E0800040E0A00040E0C00040E0E00080000000800020008000400080006000800080008000A0008000C0008000E00080200000802020008020400080206000802080008020A0008020C0008020E00080400000804020008040400080406000804080
310
008040A0008040C0008040E00080600000806020008060400080606000806080008060A0008060C0008060E00080800000808020008080400080806000808080008080A0008080C0008080E00080A0000080A0200080A0400080A0600080A0800080A0A00080A0C00080A0E00080C0000080C0200080C0400080C0600080C0
310
800080C0A00080C0C00080C0E00080E0000080E0200080E0400080E0600080E0800080E0A00080E0C00080E0E000C0000000C0002000C0004000C0006000C0008000C000A000C000C000C000E000C0200000C0202000C0204000C0206000C0208000C020A000C020C000C020E000C0400000C0402000C0404000C0406000C0
310
408000C040A000C040C000C040E000C0600000C0602000C0604000C0606000C0608000C060A000C060C000C060E000C0800000C0802000C0804000C0806000C0808000C080A000C080C000C080E000C0A00000C0A02000C0A04000C0A06000C0A08000C0A0A000C0A0C000C0A0E000C0C00000C0C02000C0C04000C0C06000
310
C0C08000C0C0A000F0FBFF00A4A0A000808080000000FF0000FF000000FFFF00FF000000FF00FF00FFFF0000FFFFFF00000000000000000000000000000000000000000000000000000000000000000000000000000000000000000000000000FD000000000000000000000000000000000000000000000000000000000000
310
00FD0000000000000000000000000000000000000000000000000000000000FDFDFDFD00000000000000000000000000000000000000000000000000FDFDFD00FDFD00FDFDFD0000000000000000000000000000000000000000FDFDFDFD0000FDFD0000FDFDFD000000000000000000000000000000000000FD000000FDFD
310
00FDFD00FDFD0000FDFD000000000000000000000000000000FD00FD0000FDFD00FDFD00FDFD0000FD00FD00000000000000000000000000FD0000FDFD00FDFDFDFDFDFDFDFD00FDFD0000FD0000000000000000000000FDFD000000FDFDFDFDFDFDFDFDFDFDFDFD000000FDFD00000000000000000000FDFDFDFD0000FDFD
310
FD00FDFDFDFDFDFD0000FDFDFDFD000000000000000000FD0000FDFDFDFDFDFDFDFDFDFDFDFDFDFDFDFDFDFD0000FD0000000000000000FDFD0000FDFDFDFDFDFDFDFDFDFDFDFDFDFDFDFD0000FDFD0000000000000000FDFDFDFDFDFDFDFDFDFDFD00FDFDFDFDFDFDFDFDFDFDFDFD00000000000000FD0000FDFDFDFDFDFD
310
FDFD0000FD00FDFDFDFDFDFDFDFD0000FD000000000000FD00000000FDFDFDFDFD000000FD0000FDFDFDFDFD00000000FD00000000FDFDFDFDFDFDFDFDFDFDFDFDFDFDFDFDFDFDFDFDFDFDFDFDFDFDFDFDFDFD00000000FDFDFDFDFDFDFDFDFDFDFD0000FD0000FDFDFDFDFDFDFDFDFDFD00000000000000FD000000FDFDFD
310
FDFDFDFD00FD00FDFDFDFDFDFD00000000FD00000000000000FD00FDFDFDFDFDFD00FDFDFDFDFDFD00FDFDFDFDFDFD00FD0000000000000000FDFDFDFD0000FD00FDFDFDFDFDFDFDFD00FD0000FDFDFDFD0000000000000000FDFD000000FDFDFDFDFDFDFDFDFDFDFDFDFDFD000000FDFD00000000000000000000FD00FDFD
310
0000FDFDFDFDFDFDFDFDFD00FDFD0000FD0000000000000000000000FDFDFD0000FDFD00FDFDFDFD00FDFD0000FDFDFD000000000000000000000000FDFD000000FD0000FDFDFDFDFD00FDFD0000FDFD0000000000000000000000000000FDFDFDFD00FDFDFDFDFDFD00FDFD00FD0000000000000000000000000000000000
310
00FD0000FDFDFDFDFDFD0000FDFD0000000000000000000000000000000000000000FDFDFDFD00FDFDFDFDFD000000000000000000000000000000000000000000000000FDFDFDFDFDFD0000000000000000000000000000000000000000000000000000000000FD0000000000000000000000000000000000000000000000
310
0000000000000000FD0000000000000000000000000000000000000000000000000000000000000000000000000000000000000000000000
1001
ACAD
1000
DesignCenter Data
1002
{
1070
     1
1070
     4
1002
}
  0
BLOCK_RECORD
  5
948
330
1
100
AcDbSymbolTableRecord
100
AcDbBlockTableRecord
  2
*D8
340
0
  0
BLOCK_RECORD
  5
954
330
1
100
AcDbSymbolTableRecord
100
AcDbBlockTableRecord
  2
*D9
340
0
  0
BLOCK_RECORD
  5
960
330
1
100
AcDbSymbolTableRecord
100
AcDbBlockTableRecord
  2
*D10
340
0
  0
BLOCK_RECORD
  5
96C
330
1
100
AcDbSymbolTableRecord
100
AcDbBlockTableRecord
  2
*D11
340
0
  0
BLOCK_RECORD
  5
978
330
1
100
AcDbSymbolTableRecord
100
AcDbBlockTableRecord
  2
*D12
340
0
  0
BLOCK_RECORD
  5
984
330
1
100
AcDbSymbolTableRecord
100
AcDbBlockTableRecord
  2
*D13
340
0
  0
BLOCK_RECORD
  5
990
330
1
100
AcDbSymbolTableRecord
100
AcDbBlockTableRecord
  2
*D14
340
0
  0
BLOCK_RECORD
  5
99C
330
1
100
AcDbSymbolTableRecord
100
AcDbBlockTableRecord
  2
*D15
340
0
  0
BLOCK_RECORD
  5
9A8
330
1
100
AcDbSymbolTableRecord
100
AcDbBlockTableRecord
  2
*D16
340
0
  0
BLOCK_RECORD
  5
9B4
330
1
100
AcDbSymbolTableRecord
100
AcDbBlockTableRecord
  2
*D17
340
0
  0
BLOCK_RECORD
  5
F0D
330
1
100
AcDbSymbolTableRecord
100
AcDbBlockTableRecord
  2
*D18
340
0
  0
BLOCK_RECORD
  5
F25
330
1
100
AcDbSymbolTableRecord
100
AcDbBlockTableRecord
  2
*D19
340
0
  0
BLOCK_RECORD
  5
10DD
330
1
100
AcDbSymbolTableRecord
100
AcDbBlockTableRecord
  2
*D21
340
0
  0
ENDTAB
  0
ENDSEC
  0
SECTION
  2
BLOCKS
  0
BLOCK
  5
20
330
1F
100
AcDbEntity
  8
0
100
AcDbBlockBegin
  2
*Model_Space
 70
     0
 10
0.0
 20
0.0
 30
0.0
  3
*Model_Space
  1

  0
ENDBLK
  5
21
330
1F
100
AcDbEntity
  8
0
100
AcDbBlockEnd
  0
BLOCK
  5
1C
330
1B
100
AcDbEntity
 67
     1
  8
0
100
AcDbBlockBegin
  2
*Paper_Space
 70
     0
 10
0.0
 20
0.0
 30
0.0
  3
*Paper_Space
  1

  0
ENDBLK
  5
1D
330
1B
100
AcDbEntity
 67
     1
  8
0
100
AcDbBlockEnd
  0
BLOCK
  5
24
330
23
100
AcDbEntity
 67
     1
  8
0
100
AcDbBlockBegin
  2
*Paper_Space0
 70
     0
 10
0.0
 20
0.0
 30
0.0
  3
*Paper_Space0
  1

  0
ENDBLK
  5
25
330
23
100
AcDbEntity
 67
     1
  8
0
100
AcDbBlockEnd
  0
BLOCK
  5
108C
330
87
100
AcDbEntity
  8
0
100
AcDbBlockBegin
  2
GENAXEH
 70
     0
 10
0.0
 20
0.0
 30
0.0
  3
GENAXEH
  1

  0
LINE
  5
108D
330
87
100
AcDbEntity
  8
0
100
AcDbLine
 10
-1.0
 20
0.0
 30
0.0
 11
1.0
 21
0.0
 31
0.0
  0
ENDBLK
  5
108E
330
87
100
AcDbEntity
  8
0
100
AcDbBlockEnd
  0
BLOCK
  5
2C0
330
2BF
100
AcDbEntity
  8
0
100
AcDbBlockBegin
  2
sfm
 70
     0
 10
0.0
 20
0.0
 30
0.0
  3
sfm
  1

  0
ARC
  5
2C1
330
2BF
100
AcDbEntity
  8
6
100
AcDbCircle
 10
4.790170910187725
 20
3.5
 30
0.0
 40
3.5
100
AcDbArc
 50
270.0
 51
90.0
  0
ARC
  5
2C2
330
2BF
100
AcDbEntity
  8
6
100
AcDbCircle
 10
0.0
 20
3.5
 30
0.0
 40
3.5
100
AcDbArc
 50
90.0
 51
270.0
  0
MTEXT
  5
2C3
330
2BF
100
AcDbEntity
  8
UMRISS05
 62
     2
100
AcDbMText
 10
-2.394073030151957
 20
5.872859090629845
 30
0.0
 40
3.0
 41
14.07
 71
     1
 72
     5
  1
\fArial Black|b0|i0|c0|p34;SFM
 73
     1
 44
1.0
  0
LINE
  5
2C4
330
2BF
100
AcDbEntity
  8
6
100
AcDbLine
 10
0.0
 20
0.0
 30
0.0
 11
4.790170910187725
 21
0.0
 31
0.0
  0
TEXT
  5
2C5
330
2BF
100
AcDbEntity
  8
UMRISS05
 62
     2
100
AcDbText
 10
-0.9325486328996246
 20
0.8119783732929588
 30
0.0
 40
1.5
  1
geprüft
100
AcDbText
  0
LINE
  5
2C6
330
2BF
100
AcDbEntity
  8
6
100
AcDbLine
 10
0.0
 20
7.0
 30
0.0
 11
4.790170910187725
 21
7.0
 31
0.0
  0
ENDBLK
  5
2C7
330
2BF
100
AcDbEntity
  8
0
100
AcDbBlockEnd
  0
BLOCK
  5
2CA
330
2C8
100
AcDbEntity
  8
0
100
AcDbBlockBegin
  2
REFLEX_EDBTITLE
 70
     2
 10
0.0
 20
0.0
 30
0.0
  3
REFLEX_EDBTITLE
  1

  0
LINE
  5
2CB
330
2C8
100
AcDbEntity
  8
AM_BOR
 62
     2
370
    35
100
AcDbLine
 10
0.0
 20
0.0
 30
0.0
 11
-190.0000000000076
 21
0.0
 31
0.0
  0
TEXT
  5
2CC
330
2C8
100
AcDbEntity
  8
AM_BOR
 62
     1
370
    25
100
AcDbText
 10
-115.7901946630717
 20
76.45962598719686
 30
0.0
 40
2.2
  1
Beschreibung der Änderung
100
AcDbText
  0
LINE
  5
2CD
330
2C8
100
AcDbEntity
  8
AM_BOR
 62
     2
370
    35
100
AcDbLine
 10
-190.0000000000076
 20
95.66666666667151
 30
0.0
 11
0.0
 21
95.66666666667151
 31
0.0
  0
LINE
  5
2CE
330
2C8
100
AcDbEntity
  8
AM_BOR
 62
     2
370
    35
100
AcDbLine
 10
-190.0000000000076
 20
90.66666666667151
 30
0.0
 11
0.0
 21
90.66666666667151
 31
0.0
  0
LINE
  5
2CF
330
2C8
100
AcDbEntity
  8
AM_BOR
 62
     2
370
    35
100
AcDbLine
 10
-190.0000000000076
 20
85.66666666667151
 30
0.0
 11
0.0
 21
85.66666666667151
 31
0.0
  0
LINE
  5
2D0
330
2C8
100
AcDbEntity
  8
AM_BOR
100
AcDbLine
 10
-190.0000000000076
 20
80.66666666667151
 30
0.0
 11
0.0
 21
80.66666666667151
 31
0.0
  0
LINE
  5
2D1
330
2C8
100
AcDbEntity
  8
AM_BOR
100
AcDbLine
 10
0.0
 20
0.0
 30
0.0
 11
-190.0000000000076
 21
0.0
 31
0.0
  0
LINE
  5
2D2
330
2C8
100
AcDbEntity
  8
AM_BOR
100
AcDbLine
 10
-190.0000000000076
 20
74.00000000000297
 30
0.0
 11
0.0
 21
74.00000000000297
 31
0.0
  0
LINE
  5
2D3
330
2C8
100
AcDbEntity
  8
AM_BOR
100
AcDbLine
 10
-148.5000000000076
 20
53.00000000000284
 30
0.0
 11
-110.5000000000077
 21
53.00000000000281
 31
0.0
  0
LINE
  5
2D4
330
2C8
100
AcDbEntity
  8
AM_BOR
 62
     2
370
    35
100
AcDbLine
 10
-148.5000000000076
 20
48.00000000000287
 30
0.0
 11
-110.5000000000077
 21
48.00000000000281
 31
0.0
  0
LINE
  5
2D5
330
2C8
100
AcDbEntity
  8
AM_BOR
 62
     2
370
    35
100
AcDbLine
 10
-148.5000000000076
 20
43.00000000000287
 30
0.0
 11
-110.5000000000077
 21
43.0000000000028
 31
0.0
  0
LINE
  5
2D6
330
2C8
100
AcDbEntity
  8
AM_BOR
100
AcDbLine
 10
-148.5000000000076
 20
38.00000000000284
 30
0.0
 11
0.0
 21
38.00000000000284
 31
0.0
  0
LINE
  5
2D7
330
2C8
100
AcDbEntity
  8
AM_BOR
100
AcDbLine
 10
-148.5000000000076
 20
58.00000000000284
 30
0.0
 11
0.0
 21
58.00000000000284
 31
0.0
  0
TEXT
  5
2D8
330
2C8
100
AcDbEntity
  8
AM_BOR
 62
     1
370
    25
100
AcDbText
 10
-184.5453046083921
 20
53.82399366428876
 30
0.0
 40
2.5
  1
Allgemeintoleranzen
 72
     1
 11
-169.2500000000076
 21
53.82399366428876
 31
0.0
100
AcDbText
  0
LINE
  5
2D9
330
2C8
100
AcDbEntity
  8
AM_BOR
100
AcDbLine
 10
-190.0000000000076
 20
135.6666666666715
 30
0.0
 11
-190.0000000000076
 21
0.0
 31
0.0
  0
TEXT
  5
2DA
330
2C8
100
AcDbEntity
  8
AM_BOR
 62
     1
370
    25
100
AcDbText
 10
-147.0000000000076
 20
71.0
 30
0.0
 40
2.0
  1
Werkstoff:
100
AcDbText
  0
LINE
  5
2DB
330
2C8
100
AcDbEntity
  8
AM_BOR
100
AcDbLine
 10
-148.5000000000076
 20
0.0
 30
0.0
 11
-148.5000000000076
 21
74.00000000000297
 31
0.0
  0
TEXT
  5
2DC
330
2C8
100
AcDbEntity
  8
AM_BOR
 62
     1
370
    25
100
AcDbText
 10
-187.0000452657501
 20
2.857790465878093
 30
0.0
 40
2.5
  1
Alle Rechte vorbehalten.
100
AcDbText
  0
TEXT
  5
2DD
330
2C8
100
AcDbEntity
  8
AM_BOR
 62
     1
370
    25
100
AcDbText
 10
-182.0372162604731
 20
7.819725632913012
 30
0.0
 40
2.5
  1
1995 Reflex,Ahlen
100
AcDbText
1001
GENIUS_GENTRA_14
1002
{
1070
     1
1000
/
1000
1995 Reflex,Ahlen
1000
DEU
1070
     0
1040
1.0
1070
     0
1002
}
  0
LINE
  5
2DE
330
2C8
100
AcDbEntity
  8
AM_BOR
100
AcDbLine
 10
-190.0000000000076
 20
14.00000000000297
 30
0.0
 11
-148.5000000000076
 21
14.00000000000297
 31
0.0
  0
LINE
  5
2DF
330
2C8
100
AcDbEntity
  8
AM_BOR
100
AcDbLine
 10
-190.0000000000076
 20
25.00000000000297
 30
0.0
 11
-148.5000000000076
 21
25.00000000000297
 31
0.0
  0
LINE
  5
2E0
330
2C8
100
AcDbEntity
  8
AM_BOR
100
AcDbLine
 10
-190.0000000000076
 20
36.00000000000297
 30
0.0
 11
-148.5000000000076
 21
36.00000000000297
 31
0.0
  0
LINE
  5
2E1
330
2C8
100
AcDbEntity
  8
AM_BOR
100
AcDbLine
 10
-190.0000000000076
 20
47.00000000000296
 30
0.0
 11
-148.5000000000076
 21
47.00000000000296
 31
0.0
  0
LINE
  5
2E2
330
2C8
100
AcDbEntity
  8
AM_BOR
100
AcDbLine
 10
-190.0000000000076
 20
58.00000000000297
 30
0.0
 11
-148.5000000000076
 21
58.00000000000297
 31
0.0
  0
TEXT
  5
2E3
330
2C8
100
AcDbEntity
  8
AM_BOR
 62
     1
370
    25
100
AcDbText
 10
-188.7953046083922
 20
42.66491288036503
 30
0.0
 40
2.5
  1
Form-und Lagetoleranzen
 72
     1
 11
-169.2500000000076
 21
42.66491288036503
 31
0.0
100
AcDbText
  0
TEXT
  5
2E4
330
2C8
100
AcDbEntity
  8
AM_BOR
 62
     1
370
    25
100
AcDbText
 10
-184.4203046083922
 20
31.50583411760111
 30
0.0
 40
2.5
  1
Oberflächenangaben
 72
     1
 11
-169.2500000000076
 21
31.50583411760111
 31
0.0
100
AcDbText
  0
TEXT
  5
2E5
330
2C8
100
AcDbEntity
  8
AM_BOR
 62
     1
370
    25
100
AcDbText
 10
-182.4234296083921
 20
20.64555149180674
 30
0.0
 40
2.5
  1
Werkstückkanten
 72
     1
 11
-169.2500000000076
 21
20.64555149180674
 31
0.0
100
AcDbText
  0
CIRCLE
  5
2E6
330
2C8
100
AcDbEntity
  8
AM_BOR
 62
     1
370
    25
100
AcDbCircle
 10
-185.5283738569115
 20
9.105009442083563
 30
0.0
 40
1.682013222792722
  0
TEXT
  5
2E7
330
2C8
100
AcDbEntity
  8
AM_BOR
 62
     1
370
    25
100
AcDbText
 10
-186.4808982796636
 20
7.852145036007375
 30
0.0
 40
2.5
  1
C
100
AcDbText
  0
LINE
  5
2E8
330
2C8
100
AcDbEntity
  8
AM_BOR
100
AcDbLine
 10
-134.7819501338923
 20
0.0
 30
0.0
 11
-134.7819501338922
 21
58.00000000000284
 31
0.0
  0
TEXT
  5
2E9
330
2C8
100
AcDbEntity
  8
AM_BOR
 62
     1
370
    25
100
AcDbText
 10
-147.0000000000076
 20
16.0
 30
0.0
 40
2.0
  1
Format
 41
1.234567901234567
 72
     5
 11
-137.0000000000076
 21
16.0
 31
0.0
100
AcDbText
  0
LINE
  5
2EA
330
2C8
100
AcDbEntity
  8
AM_BOR
100
AcDbLine
 10
-134.7819501338922
 20
19.0
 30
0.0
 11
-148.5000000000076
 21
19.0
 31
0.0
  0
TEXT
  5
2EB
330
2C8
100
AcDbEntity
  8
AM_BOR
 62
     1
370
    25
100
AcDbText
 10
-147.0000000000076
 20
34.81005903951976
 30
0.0
 40
2.0
  1
Maßstab
 41
1.002256342277585
 72
     5
 11
-137.0000000000076
 21
34.81005903951976
 31
0.0
100
AcDbText
  0
TEXT
  5
2EC
330
2C8
100
AcDbEntity
  8
AM_BOR
 62
     1
370
    25
100
AcDbText
 10
-147.0000000000076
 20
39.0
 30
0.0
 40
2.0
  1
Normg.
 41
1.298701298701298
 72
     5
 11
-137.0000000000076
 21
39.0
 31
0.0
100
AcDbText
  0
TEXT
  5
2ED
330
2C8
100
AcDbEntity
  8
AM_BOR
 62
     1
370
    25
100
AcDbText
 10
-147.0000000000076
 20
44.0
 30
0.0
 40
2.0
  1
gepr.
 41
1.75438596491228
 72
     5
 11
-137.0000000000076
 21
44.0
 31
0.0
100
AcDbText
  0
TEXT
  5
2EE
330
2C8
100
AcDbEntity
  8
AM_BOR
 62
     1
370
    25
100
AcDbText
 10
-147.0000000000076
 20
49.0
 30
0.0
 40
2.0
  1
Bearb.
 41
1.369863013698629
 72
     5
 11
-137.0000000000076
 21
49.0
 31
0.0
100
AcDbText
  0
TEXT
  5
2EF
330
2C8
100
AcDbEntity
  8
AM_BOR
 62
     1
370
    25
100
AcDbText
 10
-178.8250738189052
 20
26.50908286748418
 30
0.0
 40
2.5
  1
DIN ISO 1302
 72
     1
 11
-169.2500000000076
 21
26.50908286748418
 31
0.0
100
AcDbText
  0
TEXT
  5
2F0
330
2C8
100
AcDbEntity
  8
AM_BOR
 62
     1
370
    25
100
AcDbText
 10
-176.0000000000076
 20
15.81434939808754
 30
0.0
 40
2.5
  1
DIN 6784
 72
     1
 11
-169.2500000000076
 21
15.81434939808754
 31
0.0
100
AcDbText
  0
TEXT
  5
2F1
330
2C8
100
AcDbEntity
  8
AM_BOR
 62
     1
370
    25
100
AcDbText
 10
-178.2500000000076
 20
37.66816163024811
 30
0.0
 40
2.5
  1
DIN ISO 1101
 72
     1
 11
-169.2500000000076
 21
37.66816163024811
 31
0.0
100
AcDbText
  0
LINE
  5
2F2
330
2C8
100
AcDbEntity
  8
AM_BOR
100
AcDbLine
 10
-123.5000000000076
 20
38.00000000000284
 30
0.0
 11
-123.5000000000076
 21
58.00000000000284
 31
0.0
  0
TEXT
  5
2F3
330
2C8
100
AcDbEntity
  8
AM_BOR
 62
     1
370
    25
100
AcDbText
 10
-134.0000000000076
 20
54.0
 30
0.0
 40
2.0
  1
Tag
 41
1.677656365025809
 72
     5
 11
-127.0000000000076
 21
54.0
 31
0.0
100
AcDbText
  0
TEXT
  5
2F4
330
2C8
100
AcDbEntity
  8
AM_BOR
 62
     1
370
    25
100
AcDbText
 10
-123.0000000000076
 20
54.0
 30
0.0
 40
2.0
  1
Name
 41
1.694915254237288
 72
     5
 11
-113.0000000000076
 21
54.0
 31
0.0
100
AcDbText
  0
LINE
  5
2F5
330
2C8
100
AcDbEntity
  8
AM_BOR
100
AcDbLine
 10
-182.8025158264765
 20
135.6666666666715
 30
0.0
 11
-182.8025158264765
 21
74.00000000000297
 31
0.0
  0
TEXT
  5
2F6
330
2C8
100
AcDbEntity
  8
AM_BOR
 62
     1
370
    25
100
AcDbText
 10
-189.1672017515284
 20
76.45962598719686
 30
0.0
 40
2.2
  1
Index
100
AcDbText
  0
TEXT
  5
2F7
330
2C8
100
AcDbEntity
  8
AM_BOR
 62
     1
370
    25
100
AcDbText
 10
-45.0000000000075
 20
71.00000000000001
 30
0.0
 40
2.0
  1
Oberflächenbehandlung:
100
AcDbText
  0
TEXT
  5
2F8
330
2C8
100
AcDbEntity
  8
AM_BOR
 62
     1
370
    25
100
AcDbText
 10
-92.0000000000075
 20
71.00000000000001
 30
0.0
 40
2.0
  1
Nachbehandlung:
100
AcDbText
  0
LINE
  5
2F9
330
2C8
100
AcDbEntity
  8
AM_BOR
 62
     2
370
    35
100
AcDbLine
 10
-46.5000000000075
 20
74.00000000000297
 30
0.0
 11
-46.50000000000761
 21
58.00000000000284
 31
0.0
  0
LINE
  5
2FA
330
2C8
100
AcDbEntity
  8
AM_BOR
100
AcDbLine
 10
-93.50000000000759
 20
38.00000000000284
 30
0.0
 11
-93.50000000000774
 21
74.00000000000297
 31
0.0
  0
LINE
  5
2FB
330
2C8
100
AcDbEntity
  8
AM_BOR
 62
     2
370
    35
100
AcDbLine
 10
-65.50000000000773
 20
7.000000000000029
 30
0.0
 11
-26.50000000000762
 21
7.000000000000029
 31
0.0
  0
LINE
  5
2FC
330
2C8
100
AcDbEntity
  8
AM_BOR
 62
     2
370
    35
100
AcDbLine
 10
-65.50000000000773
 20
31.00000000000282
 30
0.0
 11
-26.50000000000762
 21
31.00000000000282
 31
0.0
  0
LINE
  5
2FD
330
2C8
100
AcDbEntity
  8
AM_BOR
100
AcDbLine
 10
-65.50000000000761
 20
0.0
 30
0.0
 11
-65.50000000000773
 21
58.00000000000281
 31
0.0
  0
TEXT
  5
2FE
330
2C8
100
AcDbEntity
  8
AM_BOR
 62
     1
370
    25
100
AcDbText
 10
-64.00000000000762
 20
4.0
 30
0.0
 40
2.0
  1
Ersetzt durch:
100
AcDbText
  0
TEXT
  5
2FF
330
2C8
100
AcDbEntity
  8
AM_BOR
 62
     1
370
    25
100
AcDbText
 10
-87.00000000000761
 20
42.0
 30
0.0
 40
2.0
  1
geprüft
100
AcDbText
  0
TEXT
  5
300
330
2C8
100
AcDbEntity
  8
AM_BOR
 62
     1
370
    25
100
AcDbText
 10
-92.00000000000761
 20
48.0
 30
0.0
 40
2.0
  1
werden besonders
100
AcDbText
  0
LINE
  5
301
330
2C8
100
AcDbEntity
  8
AM_BOR
 62
     1
370
    25
100
AcDbLine
 10
-82.00000000000761
 20
54.0
 30
0.0
 11
-76.00000000000761
 21
54.0
 31
0.0
  0
LINE
  5
302
330
2C8
100
AcDbEntity
  8
AM_BOR
 62
     1
370
    25
100
AcDbLine
 10
-82.00000000000761
 20
56.0
 30
0.0
 11
-76.00000000000761
 21
56.0
 31
0.0
  0
LINE
  5
303
330
2C8
100
AcDbEntity
  8
AM_BOR
100
AcDbLine
 10
-110.5000000000076
 20
38.00000000000284
 30
0.0
 11
-110.5000000000077
 21
58.00000000000284
 31
0.0
  0
TEXT
  5
304
330
2C8
100
AcDbEntity
  8
AM_BOR
 62
     1
370
    25
100
AcDbText
 10
-109.0000000000076
 20
54.0
 30
0.0
 40
2.0
  1
Gesehen:
 41
1.26152353226589
 72
     5
 11
-96.00000000000761
 21
54.0
 31
0.0
100
AcDbText
  0
TEXT
  5
305
330
2C8
100
AcDbEntity
  8
AM_BOR
 62
     1
370
    25
100
AcDbText
 10
-92.00000000000761
 20
54.0
 30
0.0
 40
2.0
  1
Diese
 41
1.146601146601143
 72
     5
 11
-85.00000000000762
 21
54.0
 31
0.0
100
AcDbText
  0
ARC
  5
306
330
2C8
100
AcDbEntity
  8
AM_BOR
 62
     1
370
    25
100
AcDbCircle
 10
-82.00000000000761
 20
55.0
 30
0.0
 40
1.0
100
AcDbArc
 50
90.00000000000003
 51
270.0000000000001
  0
TEXT
  5
307
330
2C8
100
AcDbEntity
  8
AM_BOR
 62
     1
370
    25
100
AcDbText
 10
-64.00000000000762
 20
35.0
 30
0.0
 40
2.0
  1
Ersatz für:
100
AcDbText
  0
TEXT
  5
308
330
2C8
100
AcDbEntity
  8
AM_BOR
 62
     1
370
    25
100
AcDbText
 10
-74.00000000000762
 20
54.0
 30
0.0
 40
2.0
  1
Maße
100
AcDbText
  0
ARC
  5
309
330
2C8
100
AcDbEntity
  8
AM_BOR
 62
     1
370
    25
100
AcDbCircle
 10
-76.00000000000761
 20
55.0
 30
0.0
 40
1.0
100
AcDbArc
 50
270.0
 51
90.0
  0
LINE
  5
30A
330
2C8
100
AcDbEntity
  8
AM_BOR
 62
     2
370
    35
100
AcDbLine
 10
-10.00000000000011
 20
0.0
 30
0.0
 11
-10.00000000000011
 21
38.00000000000284
 31
0.0
  0
LINE
  5
30B
330
2C8
100
AcDbEntity
  8
AM_BOR
 62
     2
370
    35
100
AcDbLine
 10
-15.04433005655051
 20
38.00000000000284
 30
0.0
 11
-15.04433005655051
 21
0.0
 31
0.0
  0
LINE
  5
30C
330
2C8
100
AcDbEntity
  8
AM_BOR
 62
     2
370
    35
100
AcDbLine
 10
-26.50000000000762
 20
7.000000000000029
 30
0.0
 11
-26.50000000000762
 21
0.0
 31
0.0
  0
LINE
  5
30D
330
2C8
100
AcDbEntity
  8
AM_BOR
 62
     2
370
    35
100
AcDbLine
 10
-15.04433005655051
 20
34.54545000000285
 30
0.0
 11
0.0
 21
34.54545000000285
 31
0.0
  0
LINE
  5
30E
330
2C8
100
AcDbEntity
  8
AM_BOR
 62
     2
370
    35
100
AcDbLine
 10
-26.50000000000762
 20
31.00000000000282
 30
0.0
 11
-26.50000000000762
 21
38.00000000000284
 31
0.0
  0
LINE
  5
30F
330
2C8
100
AcDbEntity
  8
AM_BOR
 62
     2
370
    35
100
AcDbLine
 10
-10.00000000000011
 20
34.20000000000283
 30
0.0
 11
-10.00000000000011
 21
38.00000000000284
 31
0.0
  0
TEXT
  5
310
330
2C8
100
AcDbEntity
  8
AM_BOR
 62
     1
370
    25
100
AcDbText
 10
-10.22624575893451
 20
76.45962598719686
 30
0.0
 40
2.2
  1
Name
100
AcDbText
  0
LINE
  5
311
330
2C8
100
AcDbEntity
  8
AM_BOR
100
AcDbLine
 10
-29.34186369022667
 20
135.6666666666715
 30
0.0
 11
-29.34186369022689
 21
74.00000000000298
 31
0.0
  0
LINE
  5
312
330
2C8
100
AcDbEntity
  8
AM_BOR
100
AcDbLine
 10
-15.46099918964126
 20
135.6666666666715
 30
0.0
 11
-15.46099918964148
 21
74.00000000000298
 31
0.0
  0
TEXT
  5
313
330
2C8
100
AcDbEntity
  8
AM_BOR
 62
     1
370
    25
100
AcDbText
 10
-26.39399351883265
 20
76.45962598719686
 30
0.0
 40
2.2
  1
Datum
100
AcDbText
  0
LINE
  5
314
330
2C8
100
AcDbEntity
  8
AM_BOR
 62
     2
370
    35
100
AcDbLine
 10
-190.0000000000076
 20
100.6666666666715
 30
0.0
 11
0.0
 21
100.6666666666715
 31
0.0
  0
TEXT
  5
315
330
2C8
100
AcDbEntity
  8
AM_BOR
 62
     2
370
    35
100
AcDbText
 10
-58.18101464137426
 20
40.59186368739278
 30
0.0
 40
3.0
  1
Reflex - POLSKA Sp z o.o.
 72
     1
 11
-33.27351464137428
 21
40.59186368739278
 31
0.0
100
AcDbText
  0
LINE
  5
316
330
2C8
100
AcDbEntity
  8
AM_BOR
100
AcDbLine
 10
0.0
 20
135.6666666666715
 30
0.0
 11
0.0
 21
0.0
 31
0.0
  0
TEXT
  5
317
330
2C8
100
AcDbEntity
  8
AM_BOR
 62
     1
370
    25
100
AcDbText
 10
-188.5000000000076
 20
71.0
 30
0.0
 40
2.0
  1
Sachnummer:
100
AcDbText
  0
ATTDEF
  5
318
330
2C8
100
AcDbEntity
  8
AM_BOR
100
AcDbText
 10
-169.2500000000076
 20
63.66666000000002
 30
0.0
 40
4.5
  1

 72
     1
 11
-169.2500000000076
 21
63.66666000000002
 31
0.0
100
AcDbAttributeDefinition
  3
Sachnummer
  2
R_SACH
 70
     0
  0
ATTDEF
  5
319
330
2C8
100
AcDbEntity
  8
AM_BOR
100
AcDbText
 10
-100.14097506695
 20
24.72359202704005
 30
0.0
 40
4.5
  1

 72
     1
 11
-100.14097506695
 21
24.72359202704005
 31
0.0
100
AcDbAttributeDefinition
  3
Benennung1
  2
R_BENENN1
 70
     0
  0
ATTDEF
  5
31A
330
2C8
100
AcDbEntity
  8
AM_BOR
100
AcDbText
 10
-100.14097506695
 20
16.72359202704005
 30
0.0
 40
4.5
  1

 72
     1
 11
-100.14097506695
 21
16.72359202704005
 31
0.0
100
AcDbAttributeDefinition
  3
Benennung2
  2
R_BENENN2
 70
     0
  0
ATTDEF
  5
31B
330
2C8
100
AcDbEntity
  8
AM_BOR
100
AcDbText
 10
-100.14097506695
 20
8.723592027040048
 30
0.0
 40
4.5
  1

 72
     1
 11
-100.14097506695
 21
8.723592027040048
 31
0.0
100
AcDbAttributeDefinition
  3
Benennung3
  2
R_BENENN3
 70
     0
  0
ATTDEF
  5
31C
330
2C8
100
AcDbEntity
  8
AM_BOR
 62
     1
370
    25
100
AcDbText
 10
-134.2819501338922
 20
49.50000000000287
 30
0.0
 40
2.0
  1

 41
0.6099885807078702
 72
     5
 11
-123.8511454037876
 21
49.50000000000287
 31
0.0
100
AcDbAttributeDefinition
  3
Bearbeitet Datum
  2
R_BEAR_DAT
 70
     0
  0
ATTDEF
  5
31D
330
2C8
100
AcDbEntity
  8
AM_BOR
 62
     1
370
    25
100
AcDbText
 10
-123.0000000000076
 20
49.50000000000282
 30
0.0
 40
2.0
  1

100
AcDbAttributeDefinition
  3
Bearbeitet Name
  2
R_BEAR_NAM
 70
     0
  0
ATTDEF
  5
31E
330
2C8
100
AcDbEntity
  8
AM_BOR
100
AcDbText
 10
-147.0000000000076
 20
28.66665999999984
 30
0.0
 40
4.5
  1

100
AcDbAttributeDefinition
  3
Maßstab
  2
GEN-TITLE-SCA{5.42}
 70
     0
1001
GENIUS_GENTRA_14
1002
{
1070
     3
1000
GENTRAPR,%s,(GENMSG gendwg 83)
1000
Maßstab
1000
DEU
1070
     0
1070
     0
1002
}
  0
ATTDEF
  5
31F
330
2C8
100
AcDbEntity
  8
AM_BOR
 62
     2
370
    35
100
AcDbText
 10
-147.0000000000076
 20
23.33332999999985
 30
0.0
 40
3.0
  1

100
AcDbAttributeDefinition
  3
Maßstab2
  2
R_MASSTAB2
 70
     0
  0
ATTDEF
  5
320
330
2C8
100
AcDbEntity
  8
AM_BOR
 62
     1
370
    25
100
AcDbText
 10
-64.00000000000762
 20
32.00000000000282
 30
0.0
 40
2.0
  1

100
AcDbAttributeDefinition
  3
Ersatz für
  2
R_ERSA_FUR
 70
     0
  0
ATTDEF
  5
321
330
2C8
100
AcDbEntity
  8
AM_BOR
 62
     1
370
    25
100
AcDbText
 10
-64.00000000000756
 20
0.9999999999999795
 30
0.0
 40
2.0
  1

100
AcDbAttributeDefinition
  3
Ersetzt durch
  2
R_ERSE_DUR
 70
     0
  0
ATTDEF
  5
322
330
2C8
100
AcDbEntity
  8
AM_BOR
 62
     2
370
    35
100
AcDbText
 10
-147.0000000000076
 20
65.66666000000002
 30
0.0
 40
3.0
  1

100
AcDbAttributeDefinition
  3
Werkstoff1
  2
R_WERK1
 70
     0
  0
ATTDEF
  5
323
330
2C8
100
AcDbEntity
  8
AM_BOR
 62
     2
370
    35
100
AcDbText
 10
-147.0000000000076
 20
60.33332999999997
 30
0.0
 40
3.0
  1

100
AcDbAttributeDefinition
  3
Werkstoff2
  2
R_WERK2
 70
     0
  0
ATTDEF
  5
324
330
2C8
100
AcDbEntity
  8
AM_BOR
 62
     2
370
    35
100
AcDbText
 10
-92.00000000000768
 20
65.66666000000002
 30
0.0
 40
3.0
  1

100
AcDbAttributeDefinition
  3
Nachbehandlung1
  2
R_NACHBE1
 70
     0
  0
ATTDEF
  5
325
330
2C8
100
AcDbEntity
  8
AM_BOR
 62
     2
370
    35
100
AcDbText
 10
-92.00000000000768
 20
60.33332999999997
 30
0.0
 40
3.0
  1

100
AcDbAttributeDefinition
  3
Nachbehandlung2
  2
R_NACHBE2
 70
     0
  0
ATTDEF
  5
326
330
2C8
100
AcDbEntity
  8
AM_BOR
 62
     2
370
    35
100
AcDbText
 10
-45.00000000000762
 20
65.66666000000002
 30
0.0
 40
3.0
  1

100
AcDbAttributeDefinition
  3
Oberflächenbehandlung1
  2
R_OBERFL1
 70
     0
  0
ATTDEF
  5
327
330
2C8
100
AcDbEntity
  8
AM_BOR
 62
     2
370
    35
100
AcDbText
 10
-45.00000000000762
 20
60.33332999999997
 30
0.0
 40
3.0
  1

100
AcDbAttributeDefinition
  3
Oberflächenbehandlung2
  2
R_OBERFL2
 70
     0
  0
ATTDEF
  5
328
330
2C8
100
AcDbEntity
  8
AM_BOR
100
AcDbText
 10
-147.0000000000076
 20
7.666659999997
 30
0.0
 40
4.5
  1

100
AcDbAttributeDefinition
  3
Blattformat
  2
BLATTFORMAT
 70
     0
  0
ATTDEF
  5
329
330
2C8
100
AcDbEntity
  8
AM_BOR
 62
     1
370
    25
100
AcDbText
 10
-186.4012579132421
 20
82.16666666667149
 30
0.0
 40
2.0
  1

 72
     1
 11
-186.4012579132421
 21
82.16666666667149
 31
0.0
100
AcDbAttributeDefinition
  3
Änderungsindex 1
  2
R_AEIND1
 70
     0
  0
ATTDEF
  5
32A
330
2C8
100
AcDbEntity
  8
AM_BOR
 62
     1
370
    25
100
AcDbText
 10
-12.3315588552569
 20
35.34215080509318
 30
0.0
 40
2.0
  1

 72
     1
 11
-12.3315588552569
 21
35.34215080509318
 31
0.0
100
AcDbAttributeDefinition
  3
Änderungsindex 1
  2
R_AEIND1
 70
     0
  0
ATTDEF
  5
32B
330
2C8
100
AcDbEntity
  8
AM_BOR
 62
     1
370
    25
100
AcDbText
 10
-8.809393826981704
 20
35.34215080509318
 30
0.0
 40
2.0
  1

100
AcDbAttributeDefinition
  3
Änderungsnummer 1
  2
R_AENR1
 70
     0
  0
ATTDEF
  5
32C
330
2C8
100
AcDbEntity
  8
AM_BOR
 62
     1
370
    25
100
AcDbText
 10
-181.3025158264765
 20
82.16666666667149
 30
0.0
 40
2.0
  1

100
AcDbAttributeDefinition
  3
Änderungsbeschreibung 1
  2
R_AETEXT1
 70
     0
  0
ATTDEF
  5
32D
330
2C8
100
AcDbEntity
  8
AM_BOR
 62
     1
370
    25
100
AcDbText
 10
-27.84186369022683
 20
82.16666666667149
 30
0.0
 40
2.0
  1

100
AcDbAttributeDefinition
  3
Änderungsdatum 1
  2
R_AEDAT1
 70
     0
  0
ATTDEF
  5
32E
330
2C8
100
AcDbEntity
  8
AM_BOR
 62
     1
370
    25
100
AcDbText
 10
-13.96099918964142
 20
82.16666666667149
 30
0.0
 40
2.0
  1

100
AcDbAttributeDefinition
  3
Änderungsname 1
  2
R_AENAM1
 70
     0
  0
ATTDEF
  5
32F
330
2C8
100
AcDbEntity
  8
AM_BOR
 62
     1
370
    25
100
AcDbText
 10
-181.8252586544574
 20
48.99279157056955
 30
0.0
 40
2.5
  1

100
AcDbAttributeDefinition
  3
Allgemeintoleranzen
  2
R_TOLALL
 70
     0
  0
ATTDEF
  5
330
330
2C8
100
AcDbEntity
  8
AM_BOR
100
AcDbText
 10
-53.24838027179692
 20
9.657306607706779
 30
0.0
 40
3.5
  1

100
AcDbAttributeDefinition
  3
Projekt
  2
R_PROJEKT
 70
     0
  0
ATTDEF
  5
331
330
2C8
100
AcDbEntity
  8
AM_BOR
100
AcDbText
 10
-62.56400243277346
 20
19.16161098446256
 30
0.0
 40
6.0
  1

100
AcDbAttributeDefinition
  3
Projekt
  2
R_ZEICHNR
 70
     0
  0
LINE
  5
332
330
2C8
100
AcDbEntity
  8
AM_BOR
 62
     2
370
    35
100
AcDbLine
 10
-190.0000000000076
 20
105.6666666666715
 30
0.0
 11
0.0
 21
105.6666666666715
 31
0.0
  0
LINE
  5
333
330
2C8
100
AcDbEntity
  8
AM_BOR
 62
     2
370
    35
100
AcDbLine
 10
-190.0000000000076
 20
110.6666666666715
 30
0.0
 11
0.0
 21
110.6666666666715
 31
0.0
  0
LINE
  5
334
330
2C8
100
AcDbEntity
  8
AM_BOR
 62
     2
370
    35
100
AcDbLine
 10
-190.0000000000076
 20
115.6666666666715
 30
0.0
 11
0.0
 21
115.6666666666715
 31
0.0
  0
LINE
  5
335
330
2C8
100
AcDbEntity
  8
AM_BOR
 62
     2
370
    35
100
AcDbLine
 10
-190.0000000000076
 20
120.6666666666715
 30
0.0
 11
0.0
 21
120.6666666666715
 31
0.0
1001
GENIUS_VERSION1
1070
     1
  0
LINE
  5
336
330
2C8
100
AcDbEntity
  8
AM_BOR
 62
     2
370
    35
100
AcDbLine
 10
-190.0000000000076
 20
115.6666666666715
 30
0.0
 11
0.0
 21
115.6666666666715
 31
0.0
  0
LINE
  5
337
330
2C8
100
AcDbEntity
  8
AM_BOR
 62
     2
370
    35
100
AcDbLine
 10
-190.0000000000076
 20
120.6666666666715
 30
0.0
 11
0.0
 21
120.6666666666715
 31
0.0
  0
LINE
  5
338
330
2C8
100
AcDbEntity
  8
AM_BOR
 62
     2
370
    35
100
AcDbLine
 10
-190.0000000000076
 20
125.6666666666715
 30
0.0
 11
0.0
 21
125.6666666666715
 31
0.0
1001
GENIUS_VERSION1
1070
     1
  0
LINE
  5
339
330
2C8
100
AcDbEntity
  8
AM_BOR
100
AcDbLine
 10
-190.0000000000076
 20
135.6666666666715
 30
0.0
 11
0.0
 21
135.6666666666715
 31
0.0
1001
GENIUS_VERSION1
1070
     1
  0
LINE
  5
33A
330
2C8
100
AcDbEntity
  8
AM_BOR
 62
     2
370
    35
100
AcDbLine
 10
-190.0000000000076
 20
130.6666666666715
 30
0.0
 11
0.0
 21
130.6666666666715
 31
0.0
1001
GENIUS_VERSION1
1070
     1
  0
LINE
  5
33B
330
2C8
100
AcDbEntity
  8
AM_BOR
 62
     2
370
    35
100
AcDbLine
 10
-15.04433005655051
 20
31.09090000000285
 30
0.0
 11
0.0
 21
31.09090000000285
 31
0.0
  0
LINE
  5
33C
330
2C8
100
AcDbEntity
  8
AM_BOR
 62
     2
370
    35
100
AcDbLine
 10
-15.04433005655051
 20
27.63635000000285
 30
0.0
 11
0.0
 21
27.63635000000285
 31
0.0
  0
LINE
  5
33D
330
2C8
100
AcDbEntity
  8
AM_BOR
 62
     2
370
    35
100
AcDbLine
 10
-15.04433005655051
 20
24.18180000000285
 30
0.0
 11
0.0
 21
24.18180000000285
 31
0.0
  0
LINE
  5
33E
330
2C8
100
AcDbEntity
  8
AM_BOR
 62
     2
370
    35
100
AcDbLine
 10
-15.04433005655051
 20
20.72725000000286
 30
0.0
 11
0.0
 21
20.72725000000286
 31
0.0
  0
LINE
  5
33F
330
2C8
100
AcDbEntity
  8
AM_BOR
 62
     2
370
    35
100
AcDbLine
 10
-15.04433005655051
 20
17.27270000000285
 30
0.0
 11
0.0
 21
17.27270000000285
 31
0.0
  0
LINE
  5
340
330
2C8
100
AcDbEntity
  8
AM_BOR
 62
     2
370
    35
100
AcDbLine
 10
-15.04433005655051
 20
13.81815000000285
 30
0.0
 11
0.0
 21
13.81815000000285
 31
0.0
  0
LINE
  5
341
330
2C8
100
AcDbEntity
  8
AM_BOR
 62
     2
370
    35
100
AcDbLine
 10
-15.04433005655051
 20
10.36360000000286
 30
0.0
 11
0.0
 21
10.36360000000286
 31
0.0
  0
LINE
  5
342
330
2C8
100
AcDbEntity
  8
AM_BOR
 62
     2
370
    35
100
AcDbLine
 10
-15.04433005655051
 20
6.909050000002859
 30
0.0
 11
0.0
 21
6.909050000002859
 31
0.0
  0
LINE
  5
343
330
2C8
100
AcDbEntity
  8
AM_BOR
 62
     2
370
    35
100
AcDbLine
 10
-15.04433005655051
 20
3.454500000002862
 30
0.0
 11
0.0
 21
3.454500000002862
 31
0.0
1001
GENIUS_VERSION1
1070
     1
  0
ATTDEF
  5
344
330
2C8
100
AcDbEntity
  8
AM_BOR
 62
     1
370
    25
100
AcDbText
 10
-12.3315588552569
 20
31.88760080509319
 30
0.0
 40
2.0
  1

 72
     1
 11
-12.3315588552569
 21
31.88760080509319
 31
0.0
100
AcDbAttributeDefinition
  3
Änderungsindex 2
  2
R_AEIND2
 70
     0
  0
ATTDEF
  5
345
330
2C8
100
AcDbEntity
  8
AM_BOR
 62
     1
370
    25
100
AcDbText
 10
-8.809393826981704
 20
31.88760080509319
 30
0.0
 40
2.0
  1

100
AcDbAttributeDefinition
  3
Änderungsnummer 2
  2
R_AENR2
 70
     0
  0
ATTDEF
  5
346
330
2C8
100
AcDbEntity
  8
AM_BOR
 62
     1
370
    25
100
AcDbText
 10
-12.3315588552569
 20
28.43305080509319
 30
0.0
 40
2.0
  1

 72
     1
 11
-12.3315588552569
 21
28.43305080509319
 31
0.0
100
AcDbAttributeDefinition
  3
Änderungsindex 3
  2
R_AEIND3
 70
     0
  0
ATTDEF
  5
347
330
2C8
100
AcDbEntity
  8
AM_BOR
 62
     1
370
    25
100
AcDbText
 10
-8.809393826981704
 20
28.43305080509319
 30
0.0
 40
2.0
  1

100
AcDbAttributeDefinition
  3
Änderungsnummer 3
  2
R_AENR3
 70
     0
  0
ATTDEF
  5
348
330
2C8
100
AcDbEntity
  8
AM_BOR
 62
     1
370
    25
100
AcDbText
 10
-12.3315588552569
 20
24.97850080509319
 30
0.0
 40
2.0
  1

 72
     1
 11
-12.3315588552569
 21
24.97850080509319
 31
0.0
100
AcDbAttributeDefinition
  3
Änderungsindex 4
  2
R_AEIND4
 70
     0
  0
ATTDEF
  5
349
330
2C8
100
AcDbEntity
  8
AM_BOR
 62
     1
370
    25
100
AcDbText
 10
-8.809393826981704
 20
24.97850080509319
 30
0.0
 40
2.0
  1

100
AcDbAttributeDefinition
  3
Änderungsnummer 4
  2
R_AENR4
 70
     0
  0
ATTDEF
  5
34A
330
2C8
100
AcDbEntity
  8
AM_BOR
 62
     1
370
    25
100
AcDbText
 10
-12.3315588552569
 20
21.5239508050932
 30
0.0
 40
2.0
  1

 72
     1
 11
-12.3315588552569
 21
21.5239508050932
 31
0.0
100
AcDbAttributeDefinition
  3
Änderungsindex 5
  2
R_AEIND5
 70
     0
  0
ATTDEF
  5
34B
330
2C8
100
AcDbEntity
  8
AM_BOR
 62
     1
370
    25
100
AcDbText
 10
-8.809393826981704
 20
21.5239508050932
 30
0.0
 40
2.0
  1

100
AcDbAttributeDefinition
  3
Änderungsnummer 5
  2
R_AENR5
 70
     0
  0
ATTDEF
  5
34C
330
2C8
100
AcDbEntity
  8
AM_BOR
 62
     1
370
    25
100
AcDbText
 10
-12.3315588552569
 20
18.06940080509319
 30
0.0
 40
2.0
  1

 72
     1
 11
-12.3315588552569
 21
18.06940080509319
 31
0.0
100
AcDbAttributeDefinition
  3
Änderungsindex 6
  2
R_AEIND6
 70
     0
  0
ATTDEF
  5
34D
330
2C8
100
AcDbEntity
  8
AM_BOR
 62
     1
370
    25
100
AcDbText
 10
-8.809393826981704
 20
18.06940080509319
 30
0.0
 40
2.0
  1

100
AcDbAttributeDefinition
  3
Änderungsnummer 6
  2
R_AENR6
 70
     0
  0
ATTDEF
  5
34E
330
2C8
100
AcDbEntity
  8
AM_BOR
 62
     1
370
    25
100
AcDbText
 10
-12.3315588552569
 20
14.61485080509319
 30
0.0
 40
2.0
  1

 72
     1
 11
-12.3315588552569
 21
14.61485080509319
 31
0.0
100
AcDbAttributeDefinition
  3
Änderungsindex 7
  2
R_AEIND7
 70
     0
  0
ATTDEF
  5
34F
330
2C8
100
AcDbEntity
  8
AM_BOR
 62
     1
370
    25
100
AcDbText
 10
-8.809393826981704
 20
14.61485080509319
 30
0.0
 40
2.0
  1

100
AcDbAttributeDefinition
  3
Änderungsnummer 7
  2
R_AENR7
 70
     0
  0
ATTDEF
  5
350
330
2C8
100
AcDbEntity
  8
AM_BOR
 62
     1
370
    25
100
AcDbText
 10
-12.3315588552569
 20
11.16030080509319
 30
0.0
 40
2.0
  1

 72
     1
 11
-12.3315588552569
 21
11.16030080509319
 31
0.0
100
AcDbAttributeDefinition
  3
Änderungsindex 8
  2
R_AEIND8
 70
     0
  0
ATTDEF
  5
351
330
2C8
100
AcDbEntity
  8
AM_BOR
 62
     1
370
    25
100
AcDbText
 10
-8.809393826981704
 20
11.16030080509319
 30
0.0
 40
2.0
  1

100
AcDbAttributeDefinition
  3
Änderungsnummer 8
  2
R_AENR8
 70
     0
  0
ATTDEF
  5
352
330
2C8
100
AcDbEntity
  8
AM_BOR
 62
     1
370
    25
100
AcDbText
 10
-12.3315588552569
 20
7.705750805093199
 30
0.0
 40
2.0
  1

 72
     1
 11
-12.3315588552569
 21
7.705750805093199
 31
0.0
100
AcDbAttributeDefinition
  3
Änderungsindex 9
  2
R_AEIND9
 70
     0
  0
ATTDEF
  5
353
330
2C8
100
AcDbEntity
  8
AM_BOR
 62
     1
370
    25
100
AcDbText
 10
-8.809393826981704
 20
7.705750805093199
 30
0.0
 40
2.0
  1

100
AcDbAttributeDefinition
  3
Änderungsnummer 9
  2
R_AENR9
 70
     0
  0
ATTDEF
  5
354
330
2C8
100
AcDbEntity
  8
AM_BOR
 62
     1
370
    25
100
AcDbText
 10
-12.3315588552569
 20
4.2512008050932
 30
0.0
 40
2.0
  1

 72
     1
 11
-12.3315588552569
 21
4.2512008050932
 31
0.0
100
AcDbAttributeDefinition
  3
Änderungsindex 10
  2
R_AEIND10
 70
     0
  0
ATTDEF
  5
355
330
2C8
100
AcDbEntity
  8
AM_BOR
 62
     1
370
    25
100
AcDbText
 10
-8.809393826981704
 20
4.2512008050932
 30
0.0
 40
2.0
  1

100
AcDbAttributeDefinition
  3
Änderungsnummer 10
  2
R_AENR10
 70
     0
  0
ATTDEF
  5
356
330
2C8
100
AcDbEntity
  8
AM_BOR
 62
     1
370
    25
100
AcDbText
 10
-12.3315588552569
 20
0.7967008050903388
 30
0.0
 40
2.0
  1

 72
     1
 11
-12.3315588552569
 21
0.7967008050903388
 31
0.0
100
AcDbAttributeDefinition
  3
Änderungsindex 11
  2
R_AEIND11
 70
     0
  0
ATTDEF
  5
357
330
2C8
100
AcDbEntity
  8
AM_BOR
 62
     1
370
    25
100
AcDbText
 10
-8.809393826981704
 20
0.7967008050903388
 30
0.0
 40
2.0
  1

100
AcDbAttributeDefinition
  3
Änderungsnummer 11
  2
R_AENR11
 70
     0
  0
ATTDEF
  5
358
330
2C8
100
AcDbEntity
  8
AM_BOR
 62
     1
370
    25
100
AcDbText
 10
-134.2819501338922
 20
44.50000000000289
 30
0.0
 40
2.0
  1

 41
0.6029366896014201
 72
     5
 11
-123.8511454037876
 21
44.50000000000289
 31
0.0
100
AcDbAttributeDefinition
  3
Geprüft Datum
  2
R_PROV_DAT
 70
     0
  0
ATTDEF
  5
359
330
2C8
100
AcDbEntity
  8
AM_BOR
 62
     1
370
    25
100
AcDbText
 10
-123.0000000000076
 20
44.50000000000284
 30
0.0
 40
2.0
  1

100
AcDbAttributeDefinition
  3
Geprüft Name
  2
R_PROV_NAM
 70
     0
  0
ATTDEF
  5
35A
330
2C8
100
AcDbEntity
  8
AM_BOR
 62
     2
100
AcDbText
 10
-192.0000000000076
 20
2.0
 30
0.0
 40
3.5
  1

 50
90.0
100
AcDbAttributeDefinition
  3
Stempeltext
  2
STEMPELTEXT
 70
     0
  0
ATTDEF
  5
35B
330
2C8
100
AcDbEntity
  8
AM_BOR
 62
     1
370
    25
100
AcDbText
 10
-186.4012579132421
 20
87.16666666667149
 30
0.0
 40
2.0
  1

 72
     1
 11
-186.4012579132421
 21
87.16666666667149
 31
0.0
100
AcDbAttributeDefinition
  3
Änderungsindex 2
  2
R_AEIND2
 70
     0
  0
ATTDEF
  5
35C
330
2C8
100
AcDbEntity
  8
AM_BOR
 62
     1
370
    25
100
AcDbText
 10
-181.3025158264765
 20
87.16666666667149
 30
0.0
 40
2.0
  1

100
AcDbAttributeDefinition
  3
Änderungsbeschreibung 2
  2
R_AETEXT2
 70
     0
  0
ATTDEF
  5
35D
330
2C8
100
AcDbEntity
  8
AM_BOR
 62
     1
370
    25
100
AcDbText
 10
-27.84186369022683
 20
87.16666666667149
 30
0.0
 40
2.0
  1

100
AcDbAttributeDefinition
  3
Änderungsdatum 2
  2
R_AEDAT2
 70
     0
  0
ATTDEF
  5
35E
330
2C8
100
AcDbEntity
  8
AM_BOR
 62
     1
370
    25
100
AcDbText
 10
-13.96099918964142
 20
87.16666666667149
 30
0.0
 40
2.0
  1

100
AcDbAttributeDefinition
  3
Änderungsname 2
  2
R_AENAM2
 70
     0
  0
ATTDEF
  5
35F
330
2C8
100
AcDbEntity
  8
AM_BOR
 62
     1
370
    25
100
AcDbText
 10
-186.4012579132421
 20
92.16666666667148
 30
0.0
 40
2.0
  1

 72
     1
 11
-186.4012579132421
 21
92.16666666667148
 31
0.0
100
AcDbAttributeDefinition
  3
Änderungsindex 3
  2
R_AEIND3
 70
     0
  0
ATTDEF
  5
360
330
2C8
100
AcDbEntity
  8
AM_BOR
 62
     1
370
    25
100
AcDbText
 10
-181.3025158264765
 20
92.16666666667148
 30
0.0
 40
2.0
  1

100
AcDbAttributeDefinition
  3
Änderungsbeschreibung 3
  2
R_AETEXT3
 70
     0
  0
ATTDEF
  5
361
330
2C8
100
AcDbEntity
  8
AM_BOR
 62
     1
370
    25
100
AcDbText
 10
-27.84186369022683
 20
92.16666666667148
 30
0.0
 40
2.0
  1

100
AcDbAttributeDefinition
  3
Änderungsdatum 3
  2
R_AEDAT3
 70
     0
  0
ATTDEF
  5
362
330
2C8
100
AcDbEntity
  8
AM_BOR
 62
     1
370
    25
100
AcDbText
 10
-13.96099918964142
 20
92.16666666667148
 30
0.0
 40
2.0
  1

100
AcDbAttributeDefinition
  3
Änderungsname 3
  2
R_AENAM3
 70
     0
  0
ATTDEF
  5
363
330
2C8
100
AcDbEntity
  8
AM_BOR
 62
     1
370
    25
100
AcDbText
 10
-186.4012579132421
 20
97.16666666667151
 30
0.0
 40
2.0
  1

 72
     1
 11
-186.4012579132421
 21
97.16666666667151
 31
0.0
100
AcDbAttributeDefinition
  3
Änderungsindex 4
  2
R_AEIND4
 70
     0
  0
ATTDEF
  5
364
330
2C8
100
AcDbEntity
  8
AM_BOR
 62
     1
370
    25
100
AcDbText
 10
-181.3025158264765
 20
97.16666666667151
 30
0.0
 40
2.0
  1

100
AcDbAttributeDefinition
  3
Änderungsbeschreibung 4
  2
R_AETEXT4
 70
     0
  0
ATTDEF
  5
365
330
2C8
100
AcDbEntity
  8
AM_BOR
 62
     1
370
    25
100
AcDbText
 10
-27.84186369022683
 20
97.16666666667151
 30
0.0
 40
2.0
  1

100
AcDbAttributeDefinition
  3
Änderungsdatum 4
  2
R_AEDAT4
 70
     0
  0
ATTDEF
  5
366
330
2C8
100
AcDbEntity
  8
AM_BOR
 62
     1
370
    25
100
AcDbText
 10
-13.96099918964142
 20
97.16666666667151
 30
0.0
 40
2.0
  1

100
AcDbAttributeDefinition
  3
Änderungsname 4
  2
R_AENAM4
 70
     0
  0
ATTDEF
  5
367
330
2C8
100
AcDbEntity
  8
AM_BOR
 62
     1
370
    25
100
AcDbText
 10
-186.4012579132421
 20
102.1666666666715
 30
0.0
 40
2.0
  1

 72
     1
 11
-186.4012579132421
 21
102.1666666666715
 31
0.0
100
AcDbAttributeDefinition
  3
Änderungsindex 5
  2
R_AEIND5
 70
     0
  0
ATTDEF
  5
368
330
2C8
100
AcDbEntity
  8
AM_BOR
 62
     1
370
    25
100
AcDbText
 10
-181.3025158264765
 20
102.1666666666715
 30
0.0
 40
2.0
  1

100
AcDbAttributeDefinition
  3
Änderungsbeschreibung 5
  2
R_AETEXT5
 70
     0
  0
ATTDEF
  5
369
330
2C8
100
AcDbEntity
  8
AM_BOR
 62
     1
370
    25
100
AcDbText
 10
-27.84186369022683
 20
102.1666666666715
 30
0.0
 40
2.0
  1

100
AcDbAttributeDefinition
  3
Änderungsdatum 5
  2
R_AEDAT5
 70
     0
  0
ATTDEF
  5
36A
330
2C8
100
AcDbEntity
  8
AM_BOR
 62
     1
370
    25
100
AcDbText
 10
-13.96099918964142
 20
102.1666666666715
 30
0.0
 40
2.0
  1

100
AcDbAttributeDefinition
  3
Änderungsname 5
  2
R_AENAM5
 70
     0
  0
ATTDEF
  5
36B
330
2C8
100
AcDbEntity
  8
AM_BOR
 62
     1
370
    25
100
AcDbText
 10
-186.4012579132421
 20
107.1666666666715
 30
0.0
 40
2.0
  1

 72
     1
 11
-186.4012579132421
 21
107.1666666666715
 31
0.0
100
AcDbAttributeDefinition
  3
Änderungsindex 6
  2
R_AEIND6
 70
     0
  0
ATTDEF
  5
36C
330
2C8
100
AcDbEntity
  8
AM_BOR
 62
     1
370
    25
100
AcDbText
 10
-181.3025158264765
 20
107.1666666666715
 30
0.0
 40
2.0
  1

100
AcDbAttributeDefinition
  3
Änderungsbeschreibung 6
  2
R_AETEXT6
 70
     0
  0
ATTDEF
  5
36D
330
2C8
100
AcDbEntity
  8
AM_BOR
 62
     1
370
    25
100
AcDbText
 10
-27.84186369022683
 20
107.1666666666715
 30
0.0
 40
2.0
  1

100
AcDbAttributeDefinition
  3
Änderungsdatum 6
  2
R_AEDAT6
 70
     0
  0
ATTDEF
  5
36E
330
2C8
100
AcDbEntity
  8
AM_BOR
 62
     1
370
    25
100
AcDbText
 10
-13.96099918964142
 20
107.1666666666715
 30
0.0
 40
2.0
  1

100
AcDbAttributeDefinition
  3
Änderungsname 6
  2
R_AENAM6
 70
     0
  0
ATTDEF
  5
36F
330
2C8
100
AcDbEntity
  8
AM_BOR
 62
     1
370
    25
100
AcDbText
 10
-186.4012579132421
 20
112.1666666666715
 30
0.0
 40
2.0
  1

 72
     1
 11
-186.4012579132421
 21
112.1666666666715
 31
0.0
100
AcDbAttributeDefinition
  3
Änderungsindex 7
  2
R_AEIND7
 70
     0
  0
ATTDEF
  5
370
330
2C8
100
AcDbEntity
  8
AM_BOR
 62
     1
370
    25
100
AcDbText
 10
-181.3025158264765
 20
112.1666666666715
 30
0.0
 40
2.0
  1

100
AcDbAttributeDefinition
  3
Änderungsbeschreibung 7
  2
R_AETEXT7
 70
     0
  0
ATTDEF
  5
371
330
2C8
100
AcDbEntity
  8
AM_BOR
 62
     1
370
    25
100
AcDbText
 10
-27.84186369022683
 20
112.1666666666715
 30
0.0
 40
2.0
  1

100
AcDbAttributeDefinition
  3
Änderungsdatum 7
  2
R_AEDAT7
 70
     0
  0
ATTDEF
  5
372
330
2C8
100
AcDbEntity
  8
AM_BOR
 62
     1
370
    25
100
AcDbText
 10
-13.96099918964142
 20
112.1666666666715
 30
0.0
 40
2.0
  1

100
AcDbAttributeDefinition
  3
Änderungsname 7
  2
R_AENAM7
 70
     0
  0
ATTDEF
  5
373
330
2C8
100
AcDbEntity
  8
AM_BOR
 62
     1
370
    25
100
AcDbText
 10
-186.4012579132421
 20
117.1666666666715
 30
0.0
 40
2.0
  1

 72
     1
 11
-186.4012579132421
 21
117.1666666666715
 31
0.0
100
AcDbAttributeDefinition
  3
Änderungsindex 8
  2
R_AEIND8
 70
     0
  0
ATTDEF
  5
374
330
2C8
100
AcDbEntity
  8
AM_BOR
 62
     1
370
    25
100
AcDbText
 10
-181.3025158264765
 20
117.1666666666715
 30
0.0
 40
2.0
  1

100
AcDbAttributeDefinition
  3
Änderungsbeschreibung 8
  2
R_AETEXT8
 70
     0
  0
ATTDEF
  5
375
330
2C8
100
AcDbEntity
  8
AM_BOR
 62
     1
370
    25
100
AcDbText
 10
-27.84186369022683
 20
117.1666666666715
 30
0.0
 40
2.0
  1

100
AcDbAttributeDefinition
  3
Änderungsdatum 8
  2
R_AEDAT8
 70
     0
  0
ATTDEF
  5
376
330
2C8
100
AcDbEntity
  8
AM_BOR
 62
     1
370
    25
100
AcDbText
 10
-13.96099918964142
 20
117.1666666666715
 30
0.0
 40
2.0
  1

100
AcDbAttributeDefinition
  3
Änderungsname 8
  2
R_AENAM8
 70
     0
  0
ATTDEF
  5
377
330
2C8
100
AcDbEntity
  8
AM_BOR
 62
     1
370
    25
100
AcDbText
 10
-186.4012579132421
 20
122.1666666666715
 30
0.0
 40
2.0
  1

 72
     1
 11
-186.4012579132421
 21
122.1666666666715
 31
0.0
100
AcDbAttributeDefinition
  3
Änderungsindex 9
  2
R_AEIND9
 70
     0
  0
ATTDEF
  5
378
330
2C8
100
AcDbEntity
  8
AM_BOR
 62
     1
370
    25
100
AcDbText
 10
-181.3025158264765
 20
122.1666666666715
 30
0.0
 40
2.0
  1

100
AcDbAttributeDefinition
  3
Änderungsbeschreibung 9
  2
R_AETEXT9
 70
     0
  0
ATTDEF
  5
379
330
2C8
100
AcDbEntity
  8
AM_BOR
 62
     1
370
    25
100
AcDbText
 10
-27.84186369022683
 20
122.1666666666715
 30
0.0
 40
2.0
  1

100
AcDbAttributeDefinition
  3
Änderungsdatum 9
  2
R_AEDAT9
 70
     0
  0
ATTDEF
  5
37A
330
2C8
100
AcDbEntity
  8
AM_BOR
 62
     1
370
    25
100
AcDbText
 10
-13.96099918964142
 20
122.1666666666715
 30
0.0
 40
2.0
  1

100
AcDbAttributeDefinition
  3
Änderungsname 9
  2
R_AENAM9
 70
     0
  0
ATTDEF
  5
37B
330
2C8
100
AcDbEntity
  8
AM_BOR
 62
     1
370
    25
100
AcDbText
 10
-186.4012579132421
 20
127.1666666666715
 30
0.0
 40
2.0
  1

 72
     1
 11
-186.4012579132421
 21
127.1666666666715
 31
0.0
100
AcDbAttributeDefinition
  3
Änderungsindex 10
  2
R_AEIND10
 70
     0
  0
ATTDEF
  5
37C
330
2C8
100
AcDbEntity
  8
AM_BOR
 62
     1
370
    25
100
AcDbText
 10
-181.3025158264765
 20
127.1666666666715
 30
0.0
 40
2.0
  1

100
AcDbAttributeDefinition
  3
Änderungsbeschreibung 10
  2
R_AETEXT10
 70
     0
  0
ATTDEF
  5
37D
330
2C8
100
AcDbEntity
  8
AM_BOR
 62
     1
370
    25
100
AcDbText
 10
-27.84186369022683
 20
127.1666666666715
 30
0.0
 40
2.0
  1

100
AcDbAttributeDefinition
  3
Änderungsdatum 10
  2
R_AEDAT10
 70
     0
  0
ATTDEF
  5
37E
330
2C8
100
AcDbEntity
  8
AM_BOR
 62
     1
370
    25
100
AcDbText
 10
-13.96099918964142
 20
127.1666666666715
 30
0.0
 40
2.0
  1

100
AcDbAttributeDefinition
  3
Änderungsname 10
  2
R_AENAM10
 70
     0
  0
ATTDEF
  5
37F
330
2C8
100
AcDbEntity
  8
AM_BOR
 62
     1
370
    25
100
AcDbText
 10
-186.4012579132421
 20
132.1666666666715
 30
0.0
 40
2.0
  1

 72
     1
 11
-186.4012579132421
 21
132.1666666666715
 31
0.0
100
AcDbAttributeDefinition
  3
Änderungsindex 11
  2
R_AEIND11
 70
     0
  0
ATTDEF
  5
380
330
2C8
100
AcDbEntity
  8
AM_BOR
 62
     1
370
    25
100
AcDbText
 10
-181.3025158264765
 20
132.1666666666715
 30
0.0
 40
2.0
  1

100
AcDbAttributeDefinition
  3
Änderungsbeschreibung 11
  2
R_AETEXT11
 70
     0
  0
ATTDEF
  5
381
330
2C8
100
AcDbEntity
  8
AM_BOR
 62
     1
370
    25
100
AcDbText
 10
-27.84186369022683
 20
132.1666666666715
 30
0.0
 40
2.0
  1

100
AcDbAttributeDefinition
  3
Änderungsdatum 11
  2
R_AEDAT11
 70
     0
  0
ATTDEF
  5
382
330
2C8
100
AcDbEntity
  8
AM_BOR
 62
     1
370
    25
100
AcDbText
 10
-13.96099918964142
 20
132.1666666666715
 30
0.0
 40
2.0
  1

100
AcDbAttributeDefinition
  3
Änderungsname 11
  2
R_AENAM11
 70
     0
  0
TEXT
  5
383
330
2C8
100
AcDbEntity
  8
AM_BOR
 62
     1
370
    25
100
AcDbText
 10
-64.0000000000075
 20
10.99999999999721
 30
0.0
 40
2.0
  1
Projekt:
100
AcDbText
  0
INSERT
  5
384
330
2C8
100
AcDbEntity
  8
0
100
AcDbBlockReference
  2
sfm
 10
-104.3551519040817
 20
43.22232415594515
 30
0.0
  0
OLE2FRAME
  5
385
330
2C8
100
AcDbEntity
  8
0
100
AcDbOle2Frame
 70
     2
 73
     1
 90
        0
1001
ACAD
1000
OLEBEGIN
1070
    70
1070
     1
1070
    71
1070
     1
1070
    40
1040
0.0
1070
    41
1040
266.4296197980875
1070
    42
1040
115.0072434317946
1070
    72
1070
     0
1070
     3
1000

1070
    90
1071
        0
1070
    43
1040
0.0
1070
     4
1000

1070
    91
1071
        0
1070
    44
1040
0.0
1000
OLEEND
  0
ENDBLK
  5
386
330
2C8
100
AcDbEntity
  8
0
100
AcDbBlockEnd
  0
BLOCK
  5
388
330
387
100
AcDbEntity
  8
0
100
AcDbBlockBegin
  2
DIN_A1
 70
     0
 10
0.0
 20
0.0
 30
0.0
  3
DIN_A1
  1

  0
LINE
  5
389
330
387
100
AcDbEntity
  8
AM_BOR
 62
     1
370
    25
100
AcDbLine
 10
841.0
 20
594.0
 30
0.0
 11
840.9999999999998
 21
0.0
 31
0.0
  0
TEXT
  5
38A
330
387
100
AcDbEntity
  8
0
 60
     1
100
AcDbText
 10
831.0
 20
10.0
 30
0.0
 40
3.5
  1
!GENTITLE-INSERT
  7
ACDINTS
100
AcDbText
  0
TEXT
  5
38B
330
387
100
AcDbEntity
  8
0
 60
     1
100
AcDbText
 10
10.0
 20
10.0
 30
0.0
 40
3.5
  1
!GENTITLE-LL
  7
ACDINTS
100
AcDbText
  0
TEXT
  5
38C
330
387
100
AcDbEntity
  8
0
 60
     1
100
AcDbText
 10
831.0
 20
584.0
 30
0.0
 40
3.5
  1
!GENTITLE-RU
  7
ACDINTS
100
AcDbText
  0
TEXT
  5
38D
330
387
100
AcDbEntity
  8
0
 60
     1
100
AcDbText
 10
841.0
 20
594.0
 30
0.0
 40
3.5
  1
!GENTITLE-MAX
  7
ACDINTS
100
AcDbText
  0
LINE
  5
38E
330
387
100
AcDbEntity
  8
AM_BOR
 62
     1
370
    25
100
AcDbLine
 10
0.0
 20
0.0
 30
0.0
 11
0.0000000000000364
 21
594.0
 31
0.0
  0
LINE
  5
38F
330
387
100
AcDbEntity
  8
AM_BOR
 62
     1
370
    25
100
AcDbLine
 10
840.9999999999998
 20
0.0
 30
0.0
 11
0.0
 21
0.0
 31
0.0
  0
LINE
  5
390
330
387
100
AcDbEntity
  8
AM_BOR
 62
     1
370
    25
100
AcDbLine
 10
105.0
 20
594.0
 30
0.0
 11
105.0
 21
589.0
 31
0.0
  0
LINE
  5
391
330
387
100
AcDbEntity
  8
AM_BOR
 62
     1
370
    25
100
AcDbLine
 10
0.0
 20
297.0
 30
0.0
 11
5.0
 21
297.0
 31
0.0
  0
LINE
  5
392
330
387
100
AcDbEntity
  8
AM_BOR
 62
     1
370
    25
100
AcDbLine
 10
210.0
 20
5.0
 30
0.0
 11
210.0
 21
0.0
 31
0.0
  0
LINE
  5
393
330
387
100
AcDbEntity
  8
AM_BOR
 62
     1
370
    25
100
AcDbLine
 10
461.0
 20
5.0
 30
0.0
 11
461.0
 21
0.0
 31
0.0
  0
LINE
  5
394
330
387
100
AcDbEntity
  8
AM_BOR
 62
     1
370
    25
100
AcDbLine
 10
651.0
 20
5.0
 30
0.0
 11
651.0
 21
0.0
 31
0.0
  0
LINE
  5
395
330
387
100
AcDbEntity
  8
AM_BOR
 62
     1
370
    25
100
AcDbLine
 10
841.0
 20
5.0
 30
0.0
 11
841.0
 21
0.0
 31
0.0
  0
LINE
  5
396
330
387
100
AcDbEntity
  8
AM_BOR
 62
     1
370
    25
100
AcDbLine
 10
0.0000000000000364
 20
594.0
 30
0.0
 11
841.0
 21
594.0
 31
0.0
  0
LINE
  5
397
330
387
100
AcDbEntity
  8
0
100
AcDbLine
 10
5.0
 20
5.0
 30
0.0
 11
5.000000000000034
 21
589.0
 31
0.0
  0
LINE
  5
398
330
387
100
AcDbEntity
  8
0
100
AcDbLine
 10
5.000000000000034
 20
589.0
 30
0.0
 11
836.0
 21
589.0
 31
0.0
  0
LINE
  5
399
330
387
100
AcDbEntity
  8
0
100
AcDbLine
 10
836.0
 20
589.0
 30
0.0
 11
835.9999999999999
 21
5.0
 31
0.0
  0
LINE
  5
39A
330
387
100
AcDbEntity
  8
0
100
AcDbLine
 10
835.9999999999999
 20
5.0
 30
0.0
 11
5.0
 21
5.0
 31
0.0
  0
LINE
  5
39B
330
387
100
AcDbEntity
  8
AM_BOR
 62
     1
370
    25
100
AcDbLine
 10
10.0
 20
10.0
 30
0.0
 11
10.00000000000003
 21
584.0
 31
0.0
  0
LINE
  5
39C
330
387
100
AcDbEntity
  8
AM_BOR
 62
     1
370
    25
100
AcDbLine
 10
10.00000000000003
 20
584.0
 30
0.0
 11
831.0
 21
584.0
 31
0.0
  0
LINE
  5
39D
330
387
100
AcDbEntity
  8
AM_BOR
 62
     1
370
    25
100
AcDbLine
 10
831.0
 20
584.0
 30
0.0
 11
830.9999999999998
 21
10.0
 31
0.0
  0
LINE
  5
39E
330
387
100
AcDbEntity
  8
AM_BOR
 62
     1
370
    25
100
AcDbLine
 10
835.9999999999999
 20
53.6666667
 30
0.0
 11
830.9999999999998
 21
53.6666667
 31
0.0
  0
LINE
  5
39F
330
387
100
AcDbEntity
  8
AM_BOR
 62
     1
370
    25
100
AcDbLine
 10
56.93750000000003
 20
589.0
 30
0.0
 11
56.93750000000003
 21
584.0
 31
0.0
  0
TEXT
  5
3A0
330
387
100
AcDbEntity
  8
AM_BOR
 62
     1
370
    25
100
AcDbText
 10
832.0999999999999
 20
27.33333335
 30
0.0
 40
4.0
  1
L
  7
ACDINTS
 72
     1
 11
833.4999999999999
 21
29.33333335
 31
0.0
100
AcDbText
 73
     2
  0
TEXT
  5
3A1
330
387
100
AcDbEntity
  8
AM_BOR
 62
     1
370
    25
100
AcDbText
 10
29.96875000000003
 20
584.4999999999999
 30
0.0
 40
4.0
  1
1
  7
ACDINTS
 72
     1
 11
30.96875000000003
 21
586.5
 31
0.0
100
AcDbText
 73
     2
  0
LINE
  5
3A2
330
387
100
AcDbEntity
  8
AM_BOR
 62
     1
370
    25
100
AcDbLine
 10
336.0000000000001
 20
0.0000000000000153
 30
0.0
 11
336.0000000000001
 21
5.0
 31
0.0
  0
LINE
  5
3A3
330
387
100
AcDbEntity
  8
AM_BOR
 62
     1
370
    25
100
AcDbLine
 10
831.0
 20
10.0
 30
0.0
 11
10.0
 21
10.0
 31
0.0
  0
LINE
  5
3A4
330
387
100
AcDbEntity
  8
AM_BOR
 62
     2
370
    35
100
AcDbLine
 10
420.5
 20
589.0
 30
0.0
 11
420.5
 21
574.0
 31
0.0
  0
LINE
  5
3A5
330
387
100
AcDbEntity
  8
AM_BOR
 62
     2
370
    35
100
AcDbLine
 10
5.000000000000016
 20
297.0
 30
0.0
 11
20.00000000000002
 21
297.0
 31
0.0
  0
LINE
  5
3A6
330
387
100
AcDbEntity
  8
AM_BOR
 62
     2
370
    35
100
AcDbLine
 10
836.0
 20
297.0
 30
0.0
 11
821.0
 21
297.0
 31
0.0
  0
LINE
  5
3A7
330
387
100
AcDbEntity
  8
AM_BOR
 62
     2
370
    35
100
AcDbLine
 10
420.4999999999999
 20
5.0
 30
0.0
 11
420.4999999999999
 21
20.0
 31
0.0
  0
TEXT
  5
3A8
330
387
100
AcDbEntity
  8
AM_BOR
 62
     1
370
    25
100
AcDbText
 10
81.43691929133861
 20
584.4999999999999
 30
0.0
 40
4.0
  1
2
  7
ACDINTS
 72
     1
 11
82.90625000000003
 21
586.5
 31
0.0
100
AcDbText
 73
     2
  0
LINE
  5
3A9
330
387
100
AcDbEntity
  8
AM_BOR
 62
     1
370
    25
100
AcDbLine
 10
108.875
 20
589.0
 30
0.0
 11
108.875
 21
584.0
 31
0.0
  0
TEXT
  5
3AA
330
387
100
AcDbEntity
  8
AM_BOR
 62
     1
370
    25
100
AcDbText
 10
133.3609072875254
 20
584.4999999999999
 30
0.0
 40
4.0
  1
3
  7
ACDINTS
 72
     1
 11
134.84375
 21
586.5
 31
0.0
100
AcDbText
 73
     2
  0
LINE
  5
3AB
330
387
100
AcDbEntity
  8
AM_BOR
 62
     1
370
    25
100
AcDbLine
 10
160.8125
 20
589.0
 30
0.0
 11
160.8125
 21
584.0
 31
0.0
  0
TEXT
  5
3AC
330
387
100
AcDbEntity
  8
AM_BOR
 62
     1
370
    25
100
AcDbText
 10
185.18125
 20
584.4999999999999
 30
0.0
 40
4.0
  1
4
  7
ACDINTS
 72
     1
 11
186.78125
 21
586.5
 31
0.0
100
AcDbText
 73
     2
  0
LINE
  5
3AD
330
387
100
AcDbEntity
  8
AM_BOR
 62
     1
370
    25
100
AcDbLine
 10
212.75
 20
589.0
 30
0.0
 11
212.75
 21
584.0
 31
0.0
  0
TEXT
  5
3AE
330
387
100
AcDbEntity
  8
AM_BOR
 62
     1
370
    25
100
AcDbText
 10
237.2359072875254
 20
584.4999999999999
 30
0.0
 40
4.0
  1
5
  7
ACDINTS
 72
     1
 11
238.71875
 21
586.5
 31
0.0
100
AcDbText
 73
     2
  0
LINE
  5
3AF
330
387
100
AcDbEntity
  8
AM_BOR
 62
     1
370
    25
100
AcDbLine
 10
264.6875
 20
589.0
 30
0.0
 11
264.6875
 21
584.0
 31
0.0
  0
TEXT
  5
3B0
330
387
100
AcDbEntity
  8
AM_BOR
 62
     1
370
    25
100
AcDbText
 10
289.2767224409449
 20
584.4999999999999
 30
0.0
 40
4.0
  1
6
  7
ACDINTS
 72
     1
 11
290.65625
 21
586.5
 31
0.0
100
AcDbText
 73
     2
  0
LINE
  5
3B1
330
387
100
AcDbEntity
  8
AM_BOR
 62
     1
370
    25
100
AcDbLine
 10
316.625
 20
589.0
 30
0.0
 11
316.625
 21
584.0
 31
0.0
  0
TEXT
  5
3B2
330
387
100
AcDbEntity
  8
AM_BOR
 62
     1
370
    25
100
AcDbText
 10
341.19375
 20
584.4999999999999
 30
0.0
 40
4.0
  1
7
  7
ACDINTS
 72
     1
 11
342.59375
 21
586.5
 31
0.0
100
AcDbText
 73
     2
  0
LINE
  5
3B3
330
387
100
AcDbEntity
  8
AM_BOR
 62
     1
370
    25
100
AcDbLine
 10
368.5625
 20
589.0
 30
0.0
 11
368.5625
 21
584.0
 31
0.0
  0
TEXT
  5
3B4
330
387
100
AcDbEntity
  8
AM_BOR
 62
     1
370
    25
100
AcDbText
 10
393.13125
 20
584.4999999999999
 30
0.0
 40
4.0
  1
8
  7
ACDINTS
 72
     1
 11
394.53125
 21
586.5
 31
0.0
100
AcDbText
 73
     2
  0
TEXT
  5
3B5
330
387
100
AcDbEntity
  8
AM_BOR
 62
     1
370
    25
100
AcDbText
 10
445.0014170934825
 20
584.4999999999999
 30
0.0
 40
4.0
  1
9
  7
ACDINTS
 72
     1
 11
446.46875
 21
586.5
 31
0.0
100
AcDbText
 73
     2
  0
LINE
  5
3B6
330
387
100
AcDbEntity
  8
AM_BOR
 62
     1
370
    25
100
AcDbLine
 10
472.4375
 20
589.0
 30
0.0
 11
472.4375
 21
584.0
 31
0.0
  0
TEXT
  5
3B7
330
387
100
AcDbEntity
  8
AM_BOR
 62
     1
370
    25
100
AcDbText
 10
496.0046751968503
 20
584.4999999999999
 30
0.0
 40
4.0
  1
10
  7
ACDINTS
 72
     1
 11
498.40625
 21
586.5
 31
0.0
100
AcDbText
 73
     2
  0
LINE
  5
3B8
330
387
100
AcDbEntity
  8
AM_BOR
 62
     1
370
    25
100
AcDbLine
 10
524.375
 20
589.0
 30
0.0
 11
524.375
 21
584.0
 31
0.0
  0
TEXT
  5
3B9
330
387
100
AcDbEntity
  8
AM_BOR
 62
     1
370
    25
100
AcDbText
 10
548.3437499999999
 20
584.4999999999999
 30
0.0
 40
4.0
  1
11
  7
ACDINTS
 72
     1
 11
550.34375
 21
586.5
 31
0.0
100
AcDbText
 73
     2
  0
LINE
  5
3BA
330
387
100
AcDbEntity
  8
AM_BOR
 62
     1
370
    25
100
AcDbLine
 10
576.3125
 20
589.0
 30
0.0
 11
576.3125
 21
584.0
 31
0.0
  0
TEXT
  5
3BB
330
387
100
AcDbEntity
  8
AM_BOR
 62
     1
370
    25
100
AcDbText
 10
599.7611318897638
 20
584.4999999999999
 30
0.0
 40
4.0
  1
12
  7
ACDINTS
 72
     1
 11
602.28125
 21
586.5
 31
0.0
100
AcDbText
 73
     2
  0
LINE
  5
3BC
330
387
100
AcDbEntity
  8
AM_BOR
 62
     1
370
    25
100
AcDbLine
 10
628.2499999999998
 20
589.0
 30
0.0
 11
628.2499999999998
 21
584.0
 31
0.0
  0
TEXT
  5
3BD
330
387
100
AcDbEntity
  8
AM_BOR
 62
     1
370
    25
100
AcDbText
 10
651.7359072875252
 20
584.4999999999999
 30
0.0
 40
4.0
  1
13
  7
ACDINTS
 72
     1
 11
654.2187499999998
 21
586.5
 31
0.0
100
AcDbText
 73
     2
  0
LINE
  5
3BE
330
387
100
AcDbEntity
  8
AM_BOR
 62
     1
370
    25
100
AcDbLine
 10
680.1874999999999
 20
589.0
 30
0.0
 11
680.1874999999999
 21
584.0
 31
0.0
  0
TEXT
  5
3BF
330
387
100
AcDbEntity
  8
AM_BOR
 62
     1
370
    25
100
AcDbText
 10
703.5562499999998
 20
584.4999999999999
 30
0.0
 40
4.0
  1
14
  7
ACDINTS
 72
     1
 11
706.1562499999999
 21
586.5
 31
0.0
100
AcDbText
 73
     2
  0
LINE
  5
3C0
330
387
100
AcDbEntity
  8
AM_BOR
 62
     1
370
    25
100
AcDbLine
 10
732.125
 20
589.0
 30
0.0
 11
732.125
 21
584.0
 31
0.0
  0
TEXT
  5
3C1
330
387
100
AcDbEntity
  8
AM_BOR
 62
     1
370
    25
100
AcDbText
 10
755.6109072875253
 20
584.4999999999999
 30
0.0
 40
4.0
  1
15
  7
ACDINTS
 72
     1
 11
758.09375
 21
586.5
 31
0.0
100
AcDbText
 73
     2
  0
LINE
  5
3C2
330
387
100
AcDbEntity
  8
AM_BOR
 62
     1
370
    25
100
AcDbLine
 10
784.0625
 20
589.0
 30
0.0
 11
784.0625
 21
584.0
 31
0.0
  0
TEXT
  5
3C3
330
387
100
AcDbEntity
  8
AM_BOR
 62
     1
370
    25
100
AcDbText
 10
807.5320374015747
 20
584.4999999999999
 30
0.0
 40
4.0
  1
16
  7
ACDINTS
 72
     1
 11
810.0312499999999
 21
586.5
 31
0.0
100
AcDbText
 73
     2
  0
TEXT
  5
3C4
330
387
100
AcDbEntity
  8
AM_BOR
 62
     1
370
    25
100
AcDbText
 10
29.96875
 20
5.5
 30
0.0
 40
4.0
  1
1
  7
ACDINTS
 72
     1
 11
30.96875
 21
7.5
 31
0.0
100
AcDbText
 73
     2
  0
LINE
  5
3C5
330
387
100
AcDbEntity
  8
AM_BOR
 62
     1
370
    25
100
AcDbLine
 10
56.9375
 20
10.0
 30
0.0
 11
56.9375
 21
5.0
 31
0.0
  0
TEXT
  5
3C6
330
387
100
AcDbEntity
  8
AM_BOR
 62
     1
370
    25
100
AcDbText
 10
81.43691929133858
 20
5.5
 30
0.0
 40
4.0
  1
2
  7
ACDINTS
 72
     1
 11
82.90625
 21
7.5
 31
0.0
100
AcDbText
 73
     2
  0
LINE
  5
3C7
330
387
100
AcDbEntity
  8
AM_BOR
 62
     1
370
    25
100
AcDbLine
 10
108.875
 20
10.0
 30
0.0
 11
108.875
 21
5.0
 31
0.0
  0
TEXT
  5
3C8
330
387
100
AcDbEntity
  8
AM_BOR
 62
     1
370
    25
100
AcDbText
 10
133.3609072875254
 20
5.5
 30
0.0
 40
4.0
  1
3
  7
ACDINTS
 72
     1
 11
134.84375
 21
7.5
 31
0.0
100
AcDbText
 73
     2
  0
LINE
  5
3C9
330
387
100
AcDbEntity
  8
AM_BOR
 62
     1
370
    25
100
AcDbLine
 10
160.8125
 20
10.0
 30
0.0
 11
160.8125
 21
5.0
 31
0.0
  0
TEXT
  5
3CA
330
387
100
AcDbEntity
  8
AM_BOR
 62
     1
370
    25
100
AcDbText
 10
185.18125
 20
5.5
 30
0.0
 40
4.0
  1
4
  7
ACDINTS
 72
     1
 11
186.78125
 21
7.5
 31
0.0
100
AcDbText
 73
     2
  0
LINE
  5
3CB
330
387
100
AcDbEntity
  8
AM_BOR
 62
     1
370
    25
100
AcDbLine
 10
212.75
 20
10.0
 30
0.0
 11
212.75
 21
5.0
 31
0.0
  0
TEXT
  5
3CC
330
387
100
AcDbEntity
  8
AM_BOR
 62
     1
370
    25
100
AcDbText
 10
237.2359072875254
 20
5.5
 30
0.0
 40
4.0
  1
5
  7
ACDINTS
 72
     1
 11
238.71875
 21
7.5
 31
0.0
100
AcDbText
 73
     2
  0
LINE
  5
3CD
330
387
100
AcDbEntity
  8
AM_BOR
 62
     1
370
    25
100
AcDbLine
 10
264.6875
 20
10.0
 30
0.0
 11
264.6875
 21
5.0
 31
0.0
  0
TEXT
  5
3CE
330
387
100
AcDbEntity
  8
AM_BOR
 62
     1
370
    25
100
AcDbText
 10
289.2767224409449
 20
5.5
 30
0.0
 40
4.0
  1
6
  7
ACDINTS
 72
     1
 11
290.65625
 21
7.5
 31
0.0
100
AcDbText
 73
     2
  0
LINE
  5
3CF
330
387
100
AcDbEntity
  8
AM_BOR
 62
     1
370
    25
100
AcDbLine
 10
316.625
 20
10.0
 30
0.0
 11
316.625
 21
5.0
 31
0.0
  0
TEXT
  5
3D0
330
387
100
AcDbEntity
  8
AM_BOR
 62
     1
370
    25
100
AcDbText
 10
341.19375
 20
5.5
 30
0.0
 40
4.0
  1
7
  7
ACDINTS
 72
     1
 11
342.59375
 21
7.5
 31
0.0
100
AcDbText
 73
     2
  0
LINE
  5
3D1
330
387
100
AcDbEntity
  8
AM_BOR
 62
     1
370
    25
100
AcDbLine
 10
368.5625
 20
10.0
 30
0.0
 11
368.5625
 21
5.0
 31
0.0
  0
TEXT
  5
3D2
330
387
100
AcDbEntity
  8
AM_BOR
 62
     1
370
    25
100
AcDbText
 10
393.13125
 20
5.5
 30
0.0
 40
4.0
  1
8
  7
ACDINTS
 72
     1
 11
394.53125
 21
7.5
 31
0.0
100
AcDbText
 73
     2
  0
TEXT
  5
3D3
330
387
100
AcDbEntity
  8
AM_BOR
 62
     1
370
    25
100
AcDbText
 10
445.0014170934825
 20
5.5
 30
0.0
 40
4.0
  1
9
  7
ACDINTS
 72
     1
 11
446.46875
 21
7.5
 31
0.0
100
AcDbText
 73
     2
  0
LINE
  5
3D4
330
387
100
AcDbEntity
  8
AM_BOR
 62
     1
370
    25
100
AcDbLine
 10
472.4375
 20
10.0
 30
0.0
 11
472.4375
 21
5.0
 31
0.0
  0
TEXT
  5
3D5
330
387
100
AcDbEntity
  8
AM_BOR
 62
     1
370
    25
100
AcDbText
 10
496.0046751968503
 20
5.5
 30
0.0
 40
4.0
  1
10
  7
ACDINTS
 72
     1
 11
498.40625
 21
7.5
 31
0.0
100
AcDbText
 73
     2
  0
LINE
  5
3D6
330
387
100
AcDbEntity
  8
AM_BOR
 62
     1
370
    25
100
AcDbLine
 10
524.375
 20
10.0
 30
0.0
 11
524.375
 21
5.0
 31
0.0
  0
TEXT
  5
3D7
330
387
100
AcDbEntity
  8
AM_BOR
 62
     1
370
    25
100
AcDbText
 10
548.3437499999999
 20
5.5
 30
0.0
 40
4.0
  1
11
  7
ACDINTS
 72
     1
 11
550.34375
 21
7.5
 31
0.0
100
AcDbText
 73
     2
  0
LINE
  5
3D8
330
387
100
AcDbEntity
  8
AM_BOR
 62
     1
370
    25
100
AcDbLine
 10
576.3125
 20
10.0
 30
0.0
 11
576.3125
 21
5.0
 31
0.0
  0
TEXT
  5
3D9
330
387
100
AcDbEntity
  8
AM_BOR
 62
     1
370
    25
100
AcDbText
 10
599.7611318897638
 20
5.5
 30
0.0
 40
4.0
  1
12
  7
ACDINTS
 72
     1
 11
602.28125
 21
7.5
 31
0.0
100
AcDbText
 73
     2
  0
LINE
  5
3DA
330
387
100
AcDbEntity
  8
AM_BOR
 62
     1
370
    25
100
AcDbLine
 10
628.2499999999998
 20
10.0
 30
0.0
 11
628.2499999999998
 21
5.0
 31
0.0
  0
LINE
  5
3DB
330
387
100
AcDbEntity
  8
AM_BOR
 62
     1
370
    25
100
AcDbLine
 10
835.9999999999999
 20
102.3333334
 30
0.0
 11
830.9999999999998
 21
102.3333334
 31
0.0
  0
TEXT
  5
3DC
330
387
100
AcDbEntity
  8
AM_BOR
 62
     1
370
    25
100
AcDbText
 10
831.8899999999999
 20
76.00000005
 30
0.0
 40
4.0
  1
K
  7
ACDINTS
 72
     1
 11
833.4999999999999
 21
78.00000005
 31
0.0
100
AcDbText
 73
     2
  0
LINE
  5
3DD
330
387
100
AcDbEntity
  8
AM_BOR
 62
     1
370
    25
100
AcDbLine
 10
835.9999999999999
 20
151.0000001
 30
0.0
 11
830.9999999999998
 21
151.0000001
 31
0.0
  0
TEXT
  5
3DE
330
387
100
AcDbEntity
  8
AM_BOR
 62
     1
370
    25
100
AcDbText
 10
832.2171572875253
 20
124.66666675
 30
0.0
 40
4.0
  1
J
  7
ACDINTS
 72
     1
 11
833.4999999999999
 21
126.66666675
 31
0.0
100
AcDbText
 73
     2
  0
LINE
  5
3DF
330
387
100
AcDbEntity
  8
AM_BOR
 62
     1
370
    25
100
AcDbLine
 10
835.9999999999999
 20
199.6666668
 30
0.0
 11
830.9999999999998
 21
199.6666668
 31
0.0
  0
TEXT
  5
3E0
330
387
100
AcDbEntity
  8
AM_BOR
 62
     1
370
    25
100
AcDbText
 10
832.8999999999998
 20
173.33333345
 30
0.0
 40
4.0
  1
I
  7
ACDINTS
 72
     1
 11
833.4999999999999
 21
175.33333345
 31
0.0
100
AcDbText
 73
     2
  0
LINE
  5
3E1
330
387
100
AcDbEntity
  8
AM_BOR
 62
     1
370
    25
100
AcDbLine
 10
835.9999999999999
 20
248.3333335
 30
0.0
 11
830.9999999999998
 21
248.3333335
 31
0.0
  0
TEXT
  5
3E2
330
387
100
AcDbEntity
  8
AM_BOR
 62
     1
370
    25
100
AcDbText
 10
831.8999999999999
 20
222.00000015
 30
0.0
 40
4.0
  1
H
  7
ACDINTS
 72
     1
 11
833.4999999999999
 21
224.00000015
 31
0.0
100
AcDbText
 73
     2
  0
TEXT
  5
3E3
330
387
100
AcDbEntity
  8
AM_BOR
 62
     1
370
    25
100
AcDbText
 10
832.0035533905931
 20
270.66666685
 30
0.0
 40
4.0
  1
G
  7
ACDINTS
 72
     1
 11
833.4999999999999
 21
272.66666685
 31
0.0
100
AcDbText
 73
     2
  0
LINE
  5
3E4
330
387
100
AcDbEntity
  8
AM_BOR
 62
     1
370
    25
100
AcDbLine
 10
835.9999999999999
 20
345.6666669
 30
0.0
 11
830.9999999999998
 21
345.6666669
 31
0.0
  0
TEXT
  5
3E5
330
387
100
AcDbEntity
  8
AM_BOR
 62
     1
370
    25
100
AcDbText
 10
832.0999999999999
 20
319.33333355
 30
0.0
 40
4.0
  1
F
  7
ACDINTS
 72
     1
 11
833.4999999999999
 21
321.33333355
 31
0.0
100
AcDbText
 73
     2
  0
LINE
  5
3E6
330
387
100
AcDbEntity
  8
AM_BOR
 62
     1
370
    25
100
AcDbLine
 10
835.9999999999999
 20
394.3333336
 30
0.0
 11
830.9999999999998
 21
394.3333336
 31
0.0
  0
TEXT
  5
3E7
330
387
100
AcDbEntity
  8
AM_BOR
 62
     1
370
    25
100
AcDbText
 10
832.0999999999999
 20
368.00000025
 30
0.0
 40
4.0
  1
E
  7
ACDINTS
 72
     1
 11
833.4999999999999
 21
370.00000025
 31
0.0
100
AcDbText
 73
     2
  0
LINE
  5
3E8
330
387
100
AcDbEntity
  8
AM_BOR
 62
     1
370
    25
100
AcDbLine
 10
835.9999999999999
 20
443.0000002999999
 30
0.0
 11
830.9999999999998
 21
443.0000002999999
 31
0.0
  0
TEXT
  5
3E9
330
387
100
AcDbEntity
  8
AM_BOR
 62
     1
370
    25
100
AcDbText
 10
831.7860912703473
 20
416.6666669499999
 30
0.0
 40
4.0
  1
D
  7
ACDINTS
 72
     1
 11
833.4999999999999
 21
418.66666695
 31
0.0
100
AcDbText
 73
     2
  0
LINE
  5
3EA
330
387
100
AcDbEntity
  8
AM_BOR
 62
     1
370
    25
100
AcDbLine
 10
835.9999999999999
 20
491.666667
 30
0.0
 11
830.9999999999998
 21
491.666667
 31
0.0
  0
TEXT
  5
3EB
330
387
100
AcDbEntity
  8
AM_BOR
 62
     1
370
    25
100
AcDbText
 10
832.1931980515339
 20
465.3333336499998
 30
0.0
 40
4.0
  1
C
  7
ACDINTS
 72
     1
 11
833.4999999999999
 21
467.3333336499998
 31
0.0
100
AcDbText
 73
     2
  0
LINE
  5
3EC
330
387
100
AcDbEntity
  8
AM_BOR
 62
     1
370
    25
100
AcDbLine
 10
835.9999999999999
 20
540.3333337
 30
0.0
 11
830.9999999999998
 21
540.3333337
 31
0.0
  0
TEXT
  5
3ED
330
387
100
AcDbEntity
  8
AM_BOR
 62
     1
370
    25
100
AcDbText
 10
831.8999999999999
 20
514.00000035
 30
0.0
 40
4.0
  1
B
  7
ACDINTS
 72
     1
 11
833.4999999999999
 21
516.00000035
 31
0.0
100
AcDbText
 73
     2
  0
TEXT
  5
3EE
330
387
100
AcDbEntity
  8
AM_BOR
 62
     1
370
    25
100
AcDbText
 10
831.7
 20
562.6666670499999
 30
0.0
 40
4.0
  1
A
  7
ACDINTS
 72
     1
 11
833.4999999999999
 21
564.66666705
 31
0.0
100
AcDbText
 73
     2
  0
TEXT
  5
3EF
330
387
100
AcDbEntity
  8
AM_BOR
 62
     1
370
    25
100
AcDbText
 10
6.099999999999999
 20
27.33333335000004
 30
0.0
 40
4.0
  1
L
  7
ACDINTS
 72
     1
 11
7.5
 21
29.33333335000004
 31
0.0
100
AcDbText
 73
     2
  0
LINE
  5
3F0
330
387
100
AcDbEntity
  8
AM_BOR
 62
     1
370
    25
100
AcDbLine
 10
10.0
 20
53.66666670000004
 30
0.0
 11
5.0
 21
53.66666670000004
 31
0.0
  0
TEXT
  5
3F1
330
387
100
AcDbEntity
  8
AM_BOR
 62
     1
370
    25
100
AcDbText
 10
5.889999999999999
 20
76.00000005000004
 30
0.0
 40
4.0
  1
K
  7
ACDINTS
 72
     1
 11
7.5
 21
78.00000005000004
 31
0.0
100
AcDbText
 73
     2
  0
LINE
  5
3F2
330
387
100
AcDbEntity
  8
AM_BOR
 62
     1
370
    25
100
AcDbLine
 10
10.0
 20
102.3333334
 30
0.0
 11
5.0
 21
102.3333334
 31
0.0
  0
TEXT
  5
3F3
330
387
100
AcDbEntity
  8
AM_BOR
 62
     1
370
    25
100
AcDbText
 10
6.217157287525381
 20
124.66666675
 30
0.0
 40
4.0
  1
J
  7
ACDINTS
 72
     1
 11
7.5
 21
126.66666675
 31
0.0
100
AcDbText
 73
     2
  0
LINE
  5
3F4
330
387
100
AcDbEntity
  8
AM_BOR
 62
     1
370
    25
100
AcDbLine
 10
10.0
 20
151.0000001
 30
0.0
 11
5.0
 21
151.0000001
 31
0.0
  0
TEXT
  5
3F5
330
387
100
AcDbEntity
  8
AM_BOR
 62
     1
370
    25
100
AcDbText
 10
6.9
 20
173.33333345
 30
0.0
 40
4.0
  1
I
  7
ACDINTS
 72
     1
 11
7.5
 21
175.33333345
 31
0.0
100
AcDbText
 73
     2
  0
LINE
  5
3F6
330
387
100
AcDbEntity
  8
AM_BOR
 62
     1
370
    25
100
AcDbLine
 10
10.0
 20
199.6666668
 30
0.0
 11
5.0
 21
199.6666668
 31
0.0
  0
TEXT
  5
3F7
330
387
100
AcDbEntity
  8
AM_BOR
 62
     1
370
    25
100
AcDbText
 10
5.9
 20
222.0000001500001
 30
0.0
 40
4.0
  1
H
  7
ACDINTS
 72
     1
 11
7.5
 21
224.0000001500001
 31
0.0
100
AcDbText
 73
     2
  0
LINE
  5
3F8
330
387
100
AcDbEntity
  8
AM_BOR
 62
     1
370
    25
100
AcDbLine
 10
10.0
 20
248.3333335000001
 30
0.0
 11
5.0
 21
248.3333335000001
 31
0.0
  0
TEXT
  5
3F9
330
387
100
AcDbEntity
  8
AM_BOR
 62
     1
370
    25
100
AcDbText
 10
6.003553390593274
 20
270.6666668500001
 30
0.0
 40
4.0
  1
G
  7
ACDINTS
 72
     1
 11
7.5
 21
272.6666668500001
 31
0.0
100
AcDbText
 73
     2
  0
TEXT
  5
3FA
330
387
100
AcDbEntity
  8
AM_BOR
 62
     1
370
    25
100
AcDbText
 10
6.099999999999999
 20
319.33333355
 30
0.0
 40
4.0
  1
F
  7
ACDINTS
 72
     1
 11
7.5
 21
321.33333355
 31
0.0
100
AcDbText
 73
     2
  0
TEXT
  5
3FB
330
387
100
AcDbEntity
  8
AM_BOR
 62
     1
370
    25
100
AcDbText
 10
6.099999999999999
 20
368.00000025
 30
0.0
 40
4.0
  1
E
  7
ACDINTS
 72
     1
 11
7.5
 21
370.00000025
 31
0.0
100
AcDbText
 73
     2
  0
LINE
  5
3FC
330
387
100
AcDbEntity
  8
AM_BOR
 62
     1
370
    25
100
AcDbLine
 10
10.0
 20
345.6666669
 30
0.0
 11
5.0
 21
345.6666669
 31
0.0
  0
LINE
  5
3FD
330
387
100
AcDbEntity
  8
AM_BOR
 62
     1
370
    25
100
AcDbLine
 10
10.0
 20
394.3333336000001
 30
0.0
 11
5.0
 21
394.3333336000001
 31
0.0
  0
TEXT
  5
3FE
330
387
100
AcDbEntity
  8
AM_BOR
 62
     1
370
    25
100
AcDbText
 10
5.786091270347398
 20
416.6666669499999
 30
0.0
 40
4.0
  1
D
  7
ACDINTS
 72
     1
 11
7.5
 21
418.66666695
 31
0.0
100
AcDbText
 73
     2
  0
LINE
  5
3FF
330
387
100
AcDbEntity
  8
AM_BOR
 62
     1
370
    25
100
AcDbLine
 10
10.0
 20
443.0000002999999
 30
0.0
 11
5.0
 21
443.0000002999999
 31
0.0
  0
TEXT
  5
400
330
387
100
AcDbEntity
  8
AM_BOR
 62
     1
370
    25
100
AcDbText
 10
6.193198051533947
 20
465.33333365
 30
0.0
 40
4.0
  1
C
  7
ACDINTS
 72
     1
 11
7.5
 21
467.3333336499999
 31
0.0
100
AcDbText
 73
     2
  0
LINE
  5
401
330
387
100
AcDbEntity
  8
AM_BOR
 62
     1
370
    25
100
AcDbLine
 10
10.0
 20
491.666667
 30
0.0
 11
5.0
 21
491.666667
 31
0.0
  0
TEXT
  5
402
330
387
100
AcDbEntity
  8
AM_BOR
 62
     1
370
    25
100
AcDbText
 10
5.899999999999996
 20
514.00000035
 30
0.0
 40
4.0
  1
B
  7
ACDINTS
 72
     1
 11
7.5
 21
516.00000035
 31
0.0
100
AcDbText
 73
     2
  0
LINE
  5
403
330
387
100
AcDbEntity
  8
AM_BOR
 62
     1
370
    25
100
AcDbLine
 10
10.0
 20
540.3333337
 30
0.0
 11
5.0
 21
540.3333337
 31
0.0
  0
TEXT
  5
404
330
387
100
AcDbEntity
  8
AM_BOR
 62
     1
370
    25
100
AcDbText
 10
5.699999999999999
 20
562.6666670499999
 30
0.0
 40
4.0
  1
A
  7
ACDINTS
 72
     1
 11
7.5
 21
564.66666705
 31
0.0
100
AcDbText
 73
     2
  0
TEXT
  5
405
330
387
100
AcDbEntity
  8
AM_BOR
 62
     1
370
    25
100
AcDbText
 10
651.7359072875252
 20
5.5
 30
0.0
 40
4.0
  1
13
  7
ACDINTS
 72
     1
 11
654.2187499999998
 21
7.5
 31
0.0
100
AcDbText
 73
     2
  0
LINE
  5
406
330
387
100
AcDbEntity
  8
AM_BOR
 62
     1
370
    25
100
AcDbLine
 10
680.1874999999999
 20
10.0
 30
0.0
 11
680.1874999999999
 21
5.0
 31
0.0
  0
TEXT
  5
407
330
387
100
AcDbEntity
  8
AM_BOR
 62
     1
370
    25
100
AcDbText
 10
703.5562499999998
 20
5.5
 30
0.0
 40
4.0
  1
14
  7
ACDINTS
 72
     1
 11
706.1562499999999
 21
7.5
 31
0.0
100
AcDbText
 73
     2
  0
LINE
  5
408
330
387
100
AcDbEntity
  8
AM_BOR
 62
     1
370
    25
100
AcDbLine
 10
732.125
 20
10.0
 30
0.0
 11
732.125
 21
5.0
 31
0.0
  0
TEXT
  5
409
330
387
100
AcDbEntity
  8
AM_BOR
 62
     1
370
    25
100
AcDbText
 10
755.6109072875253
 20
5.5
 30
0.0
 40
4.0
  1
15
  7
ACDINTS
 72
     1
 11
758.09375
 21
7.5
 31
0.0
100
AcDbText
 73
     2
  0
LINE
  5
40A
330
387
100
AcDbEntity
  8
AM_BOR
 62
     1
370
    25
100
AcDbLine
 10
784.0625
 20
10.0
 30
0.0
 11
784.0625
 21
5.0
 31
0.0
  0
TEXT
  5
40B
330
387
100
AcDbEntity
  8
AM_BOR
 62
     1
370
    25
100
AcDbText
 10
807.5320374015747
 20
5.5
 30
0.0
 40
4.0
  1
16
  7
ACDINTS
 72
     1
 11
810.0312499999999
 21
7.5
 31
0.0
100
AcDbText
 73
     2
  0
ENDBLK
  5
40C
330
387
100
AcDbEntity
  8
0
100
AcDbBlockEnd
  0
BLOCK
  5
40E
330
40D
100
AcDbEntity
  8
0
100
AcDbBlockBegin
  2
4
 70
     0
 10
0.0
 20
0.0
 30
0.0
  3
4
  1

  0
LINE
  5
40F
330
40D
100
AcDbEntity
  8
AM_3
100
AcDbLine
 10
11357.01246776209
 20
691.4515106228137
 30
0.0
 11
11405.01246776209
 21
691.4515106228137
 31
0.0
  0
LINE
  5
410
330
40D
100
AcDbEntity
  8
AM_3
100
AcDbLine
 10
11373.01246776209
 20
691.4515106228137
 30
0.0
 11
11373.01246776209
 21
991.4515106228135
 31
0.0
  0
LINE
  5
411
330
40D
100
AcDbEntity
  8
AM_3
100
AcDbLine
 10
11374.01246776209
 20
691.4515106228137
 30
0.0
 11
11374.01246776209
 21
991.4515106228135
 31
0.0
  0
LINE
  5
412
330
40D
100
AcDbEntity
  8
AM_3
100
AcDbLine
 10
11389.01246776209
 20
691.4515106228137
 30
0.0
 11
11389.01246776209
 21
991.4515106228135
 31
0.0
  0
LINE
  5
413
330
40D
100
AcDbEntity
  8
AM_3
100
AcDbLine
 10
11388.01246776209
 20
691.4515106228137
 30
0.0
 11
11388.01246776209
 21
991.4515106228135
 31
0.0
  0
LINE
  5
414
330
40D
100
AcDbEntity
  8
AM_3
100
AcDbLine
 10
11405.01246776209
 20
691.4515106228137
 30
0.0
 11
11405.01246776209
 21
991.4515106228135
 31
0.0
  0
SPLINE
  5
415
330
40D
100
AcDbEntity
  8
AM_3
100
AcDbSpline
210
0.0
220
0.0
230
1.0
 70
    24
 71
     3
 72
    10
 73
     6
 74
     0
 42
0.0000000001
 43
0.0000000001
 40
9.999999999948871
 40
9.999999999948871
 40
9.999999999948871
 40
9.999999999948871
 40
198.0618653350513
 40
198.0618653350513
 40
200.0624902374256
 40
200.0624902374256
 40
200.0624902374256
 40
200.0624902374256
 10
11405.01246776209
 20
701.4546351346333
 30
0.0
 10
11403.44577506595
 20
764.1223429799561
 30
0.0
 10
11401.87908236982
 20
826.7900508252806
 30
0.0
 10
11400.29572300702
 20
890.1244253372706
 30
0.0
 10
11400.27905634036
 20
890.7910920039366
 30
0.0
 10
11400.26238967369
 20
891.4577586706032
 30
0.0
  0
SPLINE
  5
416
330
40D
100
AcDbEntity
  8
AM_3
100
AcDbSpline
210
0.0
220
0.0
230
1.0
 70
    24
 71
     3
 72
    10
 73
     6
 74
     0
 42
0.0000000001
 43
0.0000000001
 40
0.0
 40
0.0
 40
0.0
 40
0.0
 40
198.0618653350513
 40
198.0618653350513
 40
200.0624902374256
 40
200.0624902374256
 40
200.0624902374256
 40
200.0624902374256
 10
11404.76254585049
 20
691.4452625750235
 30
0.0
 10
11403.11254585049
 20
757.4452625750232
 30
0.0
 10
11401.46254585049
 20
823.4452625750241
 30
0.0
 10
11399.79587918382
 20
890.1119292416906
 30
0.0
 10
11399.77921251716
 20
890.7785959083566
 30
0.0
 10
11399.76254585049
 20
891.4452625750232
 30
0.0
  0
SPLINE
  5
417
330
40D
100
AcDbEntity
  8
AM_3
100
AcDbSpline
210
0.0
220
0.0
230
1.0
 70
    24
 71
     3
 72
    10
 73
     6
 74
     0
 42
0.0000000001
 43
0.0000000001
 40
0.0
 40
0.0
 40
0.0
 40
0.0
 40
198.0618653350513
 40
198.0618653350513
 40
200.0624902374256
 40
200.0624902374256
 40
200.0624902374256
 40
200.0624902374256
 10
11396.26254585049
 20
691.4452625750235
 30
0.0
 10
11394.61254585049
 20
757.4452625750232
 30
0.0
 10
11392.96254585049
 20
823.4452625750241
 30
0.0
 10
11391.29587918382
 20
890.1119292416906
 30
0.0
 10
11391.27921251716
 20
890.7785959083566
 30
0.0
 10
11391.26254585049
 20
891.4452625750232
 30
0.0
  0
SPLINE
  5
418
330
40D
100
AcDbEntity
  8
AM_3
100
AcDbSpline
210
0.0
220
0.0
230
1.0
 70
    24
 71
     3
 72
    10
 73
     6
 74
     0
 42
0.0000000001
 43
0.0000000001
 40
0.0
 40
0.0
 40
0.0
 40
0.0
 40
198.0618653350513
 40
198.0618653350513
 40
200.0624902374256
 40
200.0624902374256
 40
200.0624902374256
 40
200.0624902374256
 10
11396.76238967369
 20
691.4577586706037
 30
0.0
 10
11395.11238967369
 20
757.457758670603
 30
0.0
 10
11393.46238967369
 20
823.4577586706041
 30
0.0
 10
11391.79572300702
 20
890.1244253372706
 30
0.0
 10
11391.77905634036
 20
890.7910920039366
 30
0.0
 10
11391.76238967369
 20
891.4577586706032
 30
0.0
  0
SPLINE
  5
419
330
40D
100
AcDbEntity
  8
AM_3
100
AcDbSpline
210
0.0
220
0.0
230
1.0
 70
    24
 71
     3
 72
    10
 73
     6
 74
     0
 42
0.0000000001
 43
0.0000000001
 40
0.0
 40
0.0
 40
0.0
 40
0.0
 40
198.0618653350513
 40
198.0618653350513
 40
200.0624902374256
 40
200.0624902374256
 40
200.0624902374256
 40
200.0624902374256
 10
11387.76254585049
 20
691.4452625750231
 30
0.0
 10
11386.11254585049
 20
757.4452625750223
 30
0.0
 10
11384.46254585049
 20
823.4452625750233
 30
0.0
 10
11382.79587918382
 20
890.1119292416897
 30
0.0
 10
11382.77921251716
 20
890.7785959083563
 30
0.0
 10
11382.76254585049
 20
891.4452625750227
 30
0.0
  0
SPLINE
  5
41A
330
40D
100
AcDbEntity
  8
AM_3
100
AcDbSpline
210
0.0
220
0.0
230
1.0
 70
    24
 71
     3
 72
    10
 73
     6
 74
     0
 42
0.0000000001
 43
0.0000000001
 40
0.0
 40
0.0
 40
0.0
 40
0.0
 40
198.0618653350513
 40
198.0618653350513
 40
200.0624902374256
 40
200.0624902374256
 40
200.0624902374256
 40
200.0624902374256
 10
11388.26238967369
 20
691.457758670603
 30
0.0
 10
11386.61238967369
 20
757.4577586706022
 30
0.0
 10
11384.96238967369
 20
823.4577586706032
 30
0.0
 10
11383.29572300702
 20
890.1244253372702
 30
0.0
 10
11383.27905634036
 20
890.7910920039363
 30
0.0
 10
11383.26238967369
 20
891.4577586706027
 30
0.0
  0
SPLINE
  5
41B
330
40D
100
AcDbEntity
  8
AM_3
100
AcDbSpline
210
0.0
220
0.0
230
1.0
 70
    24
 71
     3
 72
    10
 73
     6
 74
     0
 42
0.0000000001
 43
0.0000000001
 40
0.0
 40
0.0
 40
0.0
 40
0.0
 40
198.0618653350513
 40
198.0618653350513
 40
200.0624902374256
 40
200.0624902374256
 40
200.0624902374256
 40
200.0624902374256
 10
11379.26254585049
 20
691.4452625750227
 30
0.0
 10
11377.61254585049
 20
757.4452625750223
 30
0.0
 10
11375.96254585049
 20
823.4452625750227
 30
0.0
 10
11374.29587918382
 20
890.1119292416892
 30
0.0
 10
11374.27921251716
 20
890.7785959083556
 30
0.0
 10
11374.26254585049
 20
891.4452625750223
 30
0.0
  0
SPLINE
  5
41C
330
40D
100
AcDbEntity
  8
AM_3
100
AcDbSpline
210
0.0
220
0.0
230
1.0
 70
    24
 71
     3
 72
    10
 73
     6
 74
     0
 42
0.0000000001
 43
0.0000000001
 40
0.0
 40
0.0
 40
0.0
 40
0.0
 40
198.0618653350513
 40
198.0618653350513
 40
200.0624902374256
 40
200.0624902374256
 40
200.0624902374256
 40
200.0624902374256
 10
11379.76238967369
 20
691.4577586706027
 30
0.0
 10
11378.11238967369
 20
757.4577586706022
 30
0.0
 10
11376.46238967369
 20
823.4577586706032
 30
0.0
 10
11374.79572300703
 20
890.1244253372697
 30
0.0
 10
11374.77905634036
 20
890.7910920039356
 30
0.0
 10
11374.7623896737
 20
891.4577586706023
 30
0.0
  0
SPLINE
  5
41D
330
40D
100
AcDbEntity
  8
AM_3
100
AcDbSpline
210
0.0
220
0.0
230
1.0
 70
    24
 71
     3
 72
    10
 73
     6
 74
     0
 42
0.0000000001
 43
0.0000000001
 40
0.0
 40
0.0
 40
0.0
 40
0.0
 40
198.0618653350513
 40
198.0618653350513
 40
200.0624902374256
 40
200.0624902374256
 40
200.0624902374256
 40
200.0624902374256
 10
11370.76254585049
 20
691.4452625750223
 30
0.0
 10
11369.11254585049
 20
757.4452625750214
 30
0.0
 10
11367.46254585049
 20
823.4452625750222
 30
0.0
 10
11365.79587918383
 20
890.1119292416888
 30
0.0
 10
11365.77921251716
 20
890.7785959083552
 30
0.0
 10
11365.76254585049
 20
891.4452625750218
 30
0.0
  0
SPLINE
  5
41E
330
40D
100
AcDbEntity
  8
AM_3
100
AcDbSpline
210
0.0
220
0.0
230
1.0
 70
    24
 71
     3
 72
    10
 73
     6
 74
     0
 42
0.0000000001
 43
0.0000000001
 40
0.0
 40
0.0
 40
0.0
 40
0.0
 40
198.0618653350513
 40
198.0618653350513
 40
200.0624902374256
 40
200.0624902374256
 40
200.0624902374256
 40
200.0624902374256
 10
11371.2623896737
 20
691.4577586706021
 30
0.0
 10
11369.6123896737
 20
757.4577586706014
 30
0.0
 10
11367.96238967369
 20
823.4577586706022
 30
0.0
 10
11366.29572300703
 20
890.1244253372693
 30
0.0
 10
11366.27905634036
 20
890.7910920039354
 30
0.0
 10
11366.2623896737
 20
891.4577586706018
 30
0.0
  0
SPLINE
  5
41F
330
40D
100
AcDbEntity
  8
AM_3
100
AcDbSpline
210
0.0
220
0.0
230
1.0
 70
    24
 71
     3
 72
    10
 73
     6
 74
     0
 42
0.0000000001
 43
0.0000000001
 40
0.0
 40
0.0
 40
0.0
 40
0.0
 40
198.0618653350513
 40
198.0618653350513
 40
200.0624902374256
 40
200.0624902374256
 40
200.0624902374256
 40
200.0624902374256
 10
11362.26254585049
 20
691.4452625750218
 30
0.0
 10
11360.61254585049
 20
757.4452625750214
 30
0.0
 10
11358.96254585049
 20
823.4452625750218
 30
0.0
 10
11357.29587918383
 20
890.1119292416883
 30
0.0
 10
11357.27921251716
 20
890.7785959083549
 30
0.0
 10
11357.2625458505
 20
891.4452625750213
 30
0.0
  0
SPLINE
  5
420
330
40D
100
AcDbEntity
  8
AM_3
100
AcDbSpline
210
0.0
220
0.0
230
1.0
 70
    24
 71
     3
 72
    10
 73
     6
 74
     0
 42
0.0000000001
 43
0.0000000001
 40
0.0
 40
0.0
 40
0.0
 40
0.0
 40
198.0618653350513
 40
198.0618653350513
 40
200.0624902374256
 40
200.0624902374256
 40
200.0624902374256
 40
200.0624902374256
 10
11362.7623896737
 20
691.4577586706018
 30
0.0
 10
11361.1123896737
 20
757.4577586706014
 30
0.0
 10
11359.4623896737
 20
823.4577586706022
 30
0.0
 10
11357.79572300703
 20
890.1244253372688
 30
0.0
 10
11357.77905634037
 20
890.7910920039347
 30
0.0
 10
11357.7623896737
 20
891.4577586706014
 30
0.0
  0
LINE
  5
421
330
40D
100
AcDbEntity
  8
AM_3
100
AcDbLine
 10
11357.01246776209
 20
991.4515106228135
 30
0.0
 11
11357.01246776209
 21
691.4515106228137
 31
0.0
  0
LINE
  5
422
330
40D
100
AcDbEntity
  8
AM_3
100
AcDbLine
 10
11357.01246776209
 20
697.7018153949625
 30
0.0
 11
11405.01246776209
 21
699.3780123305673
 31
0.0
  0
LINE
  5
423
330
40D
100
AcDbEntity
  8
AM_3
100
AcDbLine
 10
11357.01246776209
 20
697.2015106228135
 30
0.0
 11
11405.01246776209
 21
698.8777075584176
 31
0.0
  0
LINE
  5
424
330
40D
100
AcDbEntity
  8
AM_3
100
AcDbLine
 10
11357.01246776209
 20
703.7018153949625
 30
0.0
 11
11405.01246776209
 21
705.3780123305673
 31
0.0
  0
LINE
  5
425
330
40D
100
AcDbEntity
  8
AM_3
100
AcDbLine
 10
11357.01246776209
 20
703.2015106228135
 30
0.0
 11
11405.01246776209
 21
704.8777075584174
 31
0.0
  0
LINE
  5
426
330
40D
100
AcDbEntity
  8
AM_3
100
AcDbLine
 10
11357.01246776209
 20
709.701815394963
 30
0.0
 11
11405.01246776209
 21
711.3780123305673
 31
0.0
  0
LINE
  5
427
330
40D
100
AcDbEntity
  8
AM_3
100
AcDbLine
 10
11357.01246776209
 20
709.2015106228135
 30
0.0
 11
11405.01246776209
 21
710.8777075584171
 31
0.0
  0
LINE
  5
428
330
40D
100
AcDbEntity
  8
AM_3
100
AcDbLine
 10
11357.01246776209
 20
715.7018153949628
 30
0.0
 11
11405.01246776209
 21
717.3780123305673
 31
0.0
  0
LINE
  5
429
330
40D
100
AcDbEntity
  8
AM_3
100
AcDbLine
 10
11357.01246776209
 20
715.2015106228135
 30
0.0
 11
11405.01246776209
 21
716.8777075584171
 31
0.0
  0
LINE
  5
42A
330
40D
100
AcDbEntity
  8
AM_3
100
AcDbLine
 10
11357.01246776209
 20
721.701815394963
 30
0.0
 11
11405.01246776209
 21
723.3780123305673
 31
0.0
  0
LINE
  5
42B
330
40D
100
AcDbEntity
  8
AM_3
100
AcDbLine
 10
11357.01246776209
 20
721.2015106228135
 30
0.0
 11
11405.01246776209
 21
722.877707558418
 31
0.0
  0
LINE
  5
42C
330
40D
100
AcDbEntity
  8
AM_3
100
AcDbLine
 10
11357.01246776209
 20
727.7018153949629
 30
0.0
 11
11405.01246776209
 21
729.3780123305673
 31
0.0
  0
LINE
  5
42D
330
40D
100
AcDbEntity
  8
AM_3
100
AcDbLine
 10
11357.01246776209
 20
727.2015106228137
 30
0.0
 11
11405.01246776209
 21
728.877707558418
 31
0.0
  0
LINE
  5
42E
330
40D
100
AcDbEntity
  8
AM_3
100
AcDbLine
 10
11357.01246776209
 20
733.7018153949634
 30
0.0
 11
11405.01246776209
 21
735.3780123305673
 31
0.0
  0
LINE
  5
42F
330
40D
100
AcDbEntity
  8
AM_3
100
AcDbLine
 10
11357.01246776209
 20
733.2015106228135
 30
0.0
 11
11405.01246776209
 21
734.877707558418
 31
0.0
  0
LINE
  5
430
330
40D
100
AcDbEntity
  8
AM_3
100
AcDbLine
 10
11357.01246776209
 20
739.7018153949625
 30
0.0
 11
11405.01246776209
 21
741.3780123305667
 31
0.0
  0
LINE
  5
431
330
40D
100
AcDbEntity
  8
AM_3
100
AcDbLine
 10
11357.01246776209
 20
739.2015106228135
 30
0.0
 11
11405.01246776209
 21
740.877707558418
 31
0.0
  0
LINE
  5
432
330
40D
100
AcDbEntity
  8
AM_3
100
AcDbLine
 10
11357.01246776209
 20
745.7018153949625
 30
0.0
 11
11405.01246776209
 21
747.3780123305673
 31
0.0
  0
LINE
  5
433
330
40D
100
AcDbEntity
  8
AM_3
100
AcDbLine
 10
11357.01246776209
 20
745.2015106228135
 30
0.0
 11
11405.01246776209
 21
746.877707558418
 31
0.0
  0
LINE
  5
434
330
40D
100
AcDbEntity
  8
AM_3
100
AcDbLine
 10
11357.01246776209
 20
751.701815394963
 30
0.0
 11
11405.01246776209
 21
753.3780123305673
 31
0.0
  0
LINE
  5
435
330
40D
100
AcDbEntity
  8
AM_3
100
AcDbLine
 10
11357.01246776209
 20
751.2015106228135
 30
0.0
 11
11405.01246776209
 21
752.877707558418
 31
0.0
  0
LINE
  5
436
330
40D
100
AcDbEntity
  8
AM_3
100
AcDbLine
 10
11357.01246776209
 20
757.7018153949628
 30
0.0
 11
11405.01246776209
 21
759.3780123305673
 31
0.0
  0
LINE
  5
437
330
40D
100
AcDbEntity
  8
AM_3
100
AcDbLine
 10
11357.01246776209
 20
757.2015106228136
 30
0.0
 11
11405.01246776209
 21
758.877707558418
 31
0.0
  0
LINE
  5
438
330
40D
100
AcDbEntity
  8
AM_3
100
AcDbLine
 10
11357.01246776209
 20
763.701815394963
 30
0.0
 11
11405.01246776209
 21
765.3780123305673
 31
0.0
  0
LINE
  5
439
330
40D
100
AcDbEntity
  8
AM_3
100
AcDbLine
 10
11357.01246776209
 20
763.2015106228135
 30
0.0
 11
11405.01246776209
 21
764.877707558418
 31
0.0
  0
LINE
  5
43A
330
40D
100
AcDbEntity
  8
AM_3
100
AcDbLine
 10
11357.01246776209
 20
769.7018153949625
 30
0.0
 11
11405.01246776209
 21
771.3780123305673
 31
0.0
  0
LINE
  5
43B
330
40D
100
AcDbEntity
  8
AM_3
100
AcDbLine
 10
11357.01246776209
 20
769.2015106228137
 30
0.0
 11
11405.01246776209
 21
770.877707558418
 31
0.0
  0
LINE
  5
43C
330
40D
100
AcDbEntity
  8
AM_3
100
AcDbLine
 10
11357.01246776209
 20
775.7018153949625
 30
0.0
 11
11405.01246776209
 21
777.3780123305673
 31
0.0
  0
LINE
  5
43D
330
40D
100
AcDbEntity
  8
AM_3
100
AcDbLine
 10
11357.01246776209
 20
775.2015106228135
 30
0.0
 11
11405.01246776209
 21
776.877707558418
 31
0.0
  0
LINE
  5
43E
330
40D
100
AcDbEntity
  8
AM_3
100
AcDbLine
 10
11357.01246776209
 20
781.7018153949625
 30
0.0
 11
11405.01246776209
 21
783.3780123305673
 31
0.0
  0
LINE
  5
43F
330
40D
100
AcDbEntity
  8
AM_3
100
AcDbLine
 10
11357.01246776209
 20
781.2015106228137
 30
0.0
 11
11405.01246776209
 21
782.877707558418
 31
0.0
  0
LINE
  5
440
330
40D
100
AcDbEntity
  8
AM_3
100
AcDbLine
 10
11357.01246776209
 20
787.7018153949628
 30
0.0
 11
11405.01246776209
 21
789.3780123305673
 31
0.0
  0
LINE
  5
441
330
40D
100
AcDbEntity
  8
AM_3
100
AcDbLine
 10
11357.01246776209
 20
787.2015106228135
 30
0.0
 11
11405.01246776209
 21
788.877707558418
 31
0.0
  0
LINE
  5
442
330
40D
100
AcDbEntity
  8
AM_3
100
AcDbLine
 10
11357.01246776209
 20
793.7018153949634
 30
0.0
 11
11405.01246776209
 21
795.3780123305673
 31
0.0
  0
LINE
  5
443
330
40D
100
AcDbEntity
  8
AM_3
100
AcDbLine
 10
11357.01246776209
 20
793.2015106228135
 30
0.0
 11
11405.01246776209
 21
794.877707558418
 31
0.0
  0
LINE
  5
444
330
40D
100
AcDbEntity
  8
AM_3
100
AcDbLine
 10
11357.01246776209
 20
799.7018153949634
 30
0.0
 11
11405.01246776209
 21
801.3780123305673
 31
0.0
  0
LINE
  5
445
330
40D
100
AcDbEntity
  8
AM_3
100
AcDbLine
 10
11357.01246776209
 20
799.2015106228135
 30
0.0
 11
11405.01246776209
 21
800.877707558418
 31
0.0
  0
LINE
  5
446
330
40D
100
AcDbEntity
  8
AM_3
100
AcDbLine
 10
11357.01246776209
 20
805.7018153949629
 30
0.0
 11
11405.01246776209
 21
807.3780123305674
 31
0.0
  0
LINE
  5
447
330
40D
100
AcDbEntity
  8
AM_3
100
AcDbLine
 10
11357.01246776209
 20
805.2015106228136
 30
0.0
 11
11405.01246776209
 21
806.8777075584179
 31
0.0
  0
LINE
  5
448
330
40D
100
AcDbEntity
  8
AM_3
100
AcDbLine
 10
11357.01246776209
 20
811.7018153949635
 30
0.0
 11
11405.01246776209
 21
813.3780123305664
 31
0.0
  0
LINE
  5
449
330
40D
100
AcDbEntity
  8
AM_3
100
AcDbLine
 10
11357.01246776209
 20
811.2015106228135
 30
0.0
 11
11405.01246776209
 21
812.877707558418
 31
0.0
  0
LINE
  5
44A
330
40D
100
AcDbEntity
  8
AM_3
100
AcDbLine
 10
11357.01246776209
 20
817.7018153949633
 30
0.0
 11
11405.01246776209
 21
819.3780123305673
 31
0.0
  0
LINE
  5
44B
330
40D
100
AcDbEntity
  8
AM_3
100
AcDbLine
 10
11357.01246776209
 20
817.2015106228137
 30
0.0
 11
11405.01246776209
 21
818.877707558418
 31
0.0
  0
LINE
  5
44C
330
40D
100
AcDbEntity
  8
AM_3
100
AcDbLine
 10
11357.01246776209
 20
823.7018153949634
 30
0.0
 11
11405.01246776209
 21
825.3780123305668
 31
0.0
  0
LINE
  5
44D
330
40D
100
AcDbEntity
  8
AM_3
100
AcDbLine
 10
11357.01246776209
 20
823.2015106228136
 30
0.0
 11
11405.01246776209
 21
824.8777075584181
 31
0.0
  0
LINE
  5
44E
330
40D
100
AcDbEntity
  8
AM_3
100
AcDbLine
 10
11357.01246776209
 20
829.7018153949634
 30
0.0
 11
11405.01246776209
 21
831.3780123305672
 31
0.0
  0
LINE
  5
44F
330
40D
100
AcDbEntity
  8
AM_3
100
AcDbLine
 10
11357.01246776209
 20
829.2015106228134
 30
0.0
 11
11405.01246776209
 21
830.8777075584179
 31
0.0
  0
LINE
  5
450
330
40D
100
AcDbEntity
  8
AM_3
100
AcDbLine
 10
11357.01246776209
 20
835.7018153949624
 30
0.0
 11
11405.01246776209
 21
837.3780123305673
 31
0.0
  0
LINE
  5
451
330
40D
100
AcDbEntity
  8
AM_3
100
AcDbLine
 10
11357.01246776209
 20
835.2015106228137
 30
0.0
 11
11405.01246776209
 21
836.8777075584171
 31
0.0
  0
LINE
  5
452
330
40D
100
AcDbEntity
  8
AM_3
100
AcDbLine
 10
11357.01246776209
 20
841.7018153949625
 30
0.0
 11
11405.01246776209
 21
843.3780123305664
 31
0.0
  0
LINE
  5
453
330
40D
100
AcDbEntity
  8
AM_3
100
AcDbLine
 10
11357.01246776209
 20
841.2015106228135
 30
0.0
 11
11405.01246776209
 21
842.8777075584175
 31
0.0
  0
LINE
  5
454
330
40D
100
AcDbEntity
  8
AM_3
100
AcDbLine
 10
11357.01246776209
 20
847.7018153949625
 30
0.0
 11
11405.01246776209
 21
849.3780123305665
 31
0.0
  0
LINE
  5
455
330
40D
100
AcDbEntity
  8
AM_3
100
AcDbLine
 10
11357.01246776209
 20
847.2015106228136
 30
0.0
 11
11405.01246776209
 21
848.8777075584176
 31
0.0
  0
LINE
  5
456
330
40D
100
AcDbEntity
  8
AM_3
100
AcDbLine
 10
11357.01246776209
 20
853.7018153949626
 30
0.0
 11
11405.01246776209
 21
855.3780123305664
 31
0.0
  0
LINE
  5
457
330
40D
100
AcDbEntity
  8
AM_3
100
AcDbLine
 10
11357.01246776209
 20
853.2015106228135
 30
0.0
 11
11405.01246776209
 21
854.8777075584171
 31
0.0
  0
LINE
  5
458
330
40D
100
AcDbEntity
  8
AM_3
100
AcDbLine
 10
11357.01246776209
 20
859.7018153949624
 30
0.0
 11
11405.01246776209
 21
861.3780123305669
 31
0.0
  0
LINE
  5
459
330
40D
100
AcDbEntity
  8
AM_3
100
AcDbLine
 10
11357.01246776209
 20
859.2015106228137
 30
0.0
 11
11405.01246776209
 21
860.8777075584171
 31
0.0
  0
LINE
  5
45A
330
40D
100
AcDbEntity
  8
AM_3
100
AcDbLine
 10
11357.01246776209
 20
865.7018153949625
 30
0.0
 11
11405.01246776209
 21
867.3780123305668
 31
0.0
  0
LINE
  5
45B
330
40D
100
AcDbEntity
  8
AM_3
100
AcDbLine
 10
11357.01246776209
 20
865.2015106228136
 30
0.0
 11
11405.01246776209
 21
866.8777075584173
 31
0.0
  0
LINE
  5
45C
330
40D
100
AcDbEntity
  8
AM_3
100
AcDbLine
 10
11357.01246776209
 20
871.7018153949625
 30
0.0
 11
11405.01246776209
 21
873.3780123305663
 31
0.0
  0
LINE
  5
45D
330
40D
100
AcDbEntity
  8
AM_3
100
AcDbLine
 10
11357.01246776209
 20
871.2015106228134
 30
0.0
 11
11405.01246776209
 21
872.8777075584176
 31
0.0
  0
LINE
  5
45E
330
40D
100
AcDbEntity
  8
AM_3
100
AcDbLine
 10
11357.01246776209
 20
877.7018153949624
 30
0.0
 11
11405.01246776209
 21
879.3780123305669
 31
0.0
  0
LINE
  5
45F
330
40D
100
AcDbEntity
  8
AM_3
100
AcDbLine
 10
11357.01246776209
 20
877.2015106228137
 30
0.0
 11
11405.01246776209
 21
878.8777075584176
 31
0.0
  0
LINE
  5
460
330
40D
100
AcDbEntity
  8
AM_3
100
AcDbLine
 10
11357.01246776209
 20
883.7018153949625
 30
0.0
 11
11405.01246776209
 21
885.3780123305668
 31
0.0
  0
LINE
  5
461
330
40D
100
AcDbEntity
  8
AM_3
100
AcDbLine
 10
11357.01246776209
 20
883.2015106228137
 30
0.0
 11
11405.01246776209
 21
884.8777075584175
 31
0.0
  0
LINE
  5
462
330
40D
100
AcDbEntity
  8
AM_3
100
AcDbLine
 10
11357.01246776209
 20
889.7018153949629
 30
0.0
 11
11405.01246776209
 21
891.3780123305668
 31
0.0
  0
LINE
  5
463
330
40D
100
AcDbEntity
  8
AM_3
100
AcDbLine
 10
11357.01246776209
 20
889.2015106228136
 30
0.0
 11
11405.01246776209
 21
890.877707558417
 31
0.0
  0
LINE
  5
464
330
40D
100
AcDbEntity
  8
AM_3
100
AcDbLine
 10
11381.01246776209
 20
688.4515106228136
 30
0.0
 11
11381.01246776209
 21
991.4515106228135
 31
0.0
1001
GENIUS_GENOBJ-N-CEN_13
1002
{
1000
OWNER
1000
GEN
1002
}
1001
GENIUS_GENODEF_13
1002
{
1000
HIER
1070
     0
1002
}
1002
{
1000
MANEDIT
1070
     0
1002
}
1002
{
1000
NOSEL
1070
     0
1002
}
1002
{
1000
BEHIND
1070
     0
1002
}
1002
{
1000
OTHER
1070
     0
1002
}
1002
{
1000
REACTOR
1002
}
1001
GENIUS_GENCEN_19
1002
{
1040
3.0
1002
}
  0
LINE
  5
465
330
40D
100
AcDbEntity
  8
AM_3
100
AcDbLine
 10
11357.01246776209
 20
691.7018153949625
 30
0.0
 11
11405.01246776209
 21
693.3780123305673
 31
0.0
  0
LINE
  5
466
330
40D
100
AcDbEntity
  8
AM_3
100
AcDbLine
 10
11364.17153108281
 20
691.4515106228137
 30
0.0
 11
11405.01246776209
 21
692.8777075584174
 31
0.0
  0
LINE
  5
467
330
40D
100
AcDbEntity
  8
AM_3
100
AcDbLine
 10
11357.01246776209
 20
991.4515106228135
 30
0.0
 11
11405.01246776209
 21
991.4515106228135
 31
0.0
  0
LINE
  5
468
330
40D
100
AcDbEntity
  8
AM_3
100
AcDbLine
 10
11404.76254585049
 20
691.4452625750235
 30
0.0
 11
11397.2623896493
 21
991.4515106228135
 31
0.0
  0
LINE
  5
469
330
40D
100
AcDbEntity
  8
AM_3
100
AcDbLine
 10
11405.01246776209
 20
701.4546351346333
 30
0.0
 11
11397.76254587489
 21
991.4515106228135
 31
0.0
  0
LINE
  5
46A
330
40D
100
AcDbEntity
  8
AM_3
100
AcDbLine
 10
11396.26254585049
 20
691.4452625750235
 30
0.0
 11
11388.7623896493
 21
991.4515106228135
 31
0.0
  0
LINE
  5
46B
330
40D
100
AcDbEntity
  8
AM_3
100
AcDbLine
 10
11396.51246776209
 20
701.4546351346333
 30
0.0
 11
11389.26254587489
 21
991.4515106228135
 31
0.0
  0
LINE
  5
46C
330
40D
100
AcDbEntity
  8
AM_3
100
AcDbLine
 10
11387.76254585049
 20
691.4452625750231
 30
0.0
 11
11380.2623896493
 21
991.4515106228135
 31
0.0
  0
LINE
  5
46D
330
40D
100
AcDbEntity
  8
AM_3
100
AcDbLine
 10
11388.01246776209
 20
701.4546351346329
 30
0.0
 11
11380.76254587489
 21
991.4515106228135
 31
0.0
  0
LINE
  5
46E
330
40D
100
AcDbEntity
  8
AM_3
100
AcDbLine
 10
11379.26254585049
 20
691.4452625750227
 30
0.0
 11
11371.7623896493
 21
991.4515106228135
 31
0.0
  0
LINE
  5
46F
330
40D
100
AcDbEntity
  8
AM_3
100
AcDbLine
 10
11379.51246776209
 20
701.4546351346325
 30
0.0
 11
11372.2625458749
 21
991.4515106228135
 31
0.0
  0
LINE
  5
470
330
40D
100
AcDbEntity
  8
AM_3
100
AcDbLine
 10
11370.76254585049
 20
691.4452625750223
 30
0.0
 11
11363.2623896493
 21
991.4515106228135
 31
0.0
  0
LINE
  5
471
330
40D
100
AcDbEntity
  8
AM_3
100
AcDbLine
 10
11371.01246776209
 20
701.4546351346321
 30
0.0
 11
11363.7625458749
 21
991.4515106228135
 31
0.0
  0
LINE
  5
472
330
40D
100
AcDbEntity
  8
AM_3
100
AcDbLine
 10
11362.26254585049
 20
691.4452625750218
 30
0.0
 11
11357.01246776209
 21
901.4483861114326
 31
0.0
  0
LINE
  5
473
330
40D
100
AcDbEntity
  8
AM_3
100
AcDbLine
 10
11362.5124677621
 20
701.4546351346316
 30
0.0
 11
11357.01246776209
 21
921.4546351351918
 31
0.0
  0
LINE
  5
474
330
40D
100
AcDbEntity
  8
AM_3
100
AcDbLine
 10
11357.01246776209
 20
895.7018153949629
 30
0.0
 11
11405.01246776209
 21
897.3780123305669
 31
0.0
  0
LINE
  5
475
330
40D
100
AcDbEntity
  8
AM_3
100
AcDbLine
 10
11357.01246776209
 20
895.2015106228135
 30
0.0
 11
11405.01246776209
 21
896.8777075584171
 31
0.0
  0
LINE
  5
476
330
40D
100
AcDbEntity
  8
AM_3
100
AcDbLine
 10
11357.01246776209
 20
901.701815394963
 30
0.0
 11
11405.01246776209
 21
903.3780123305668
 31
0.0
  0
LINE
  5
477
330
40D
100
AcDbEntity
  8
AM_3
100
AcDbLine
 10
11357.01246776209
 20
901.2015106228135
 30
0.0
 11
11405.01246776209
 21
902.8777075584171
 31
0.0
  0
LINE
  5
478
330
40D
100
AcDbEntity
  8
AM_3
100
AcDbLine
 10
11357.01863426583
 20
907.7020307340186
 30
0.0
 11
11405.01863426583
 21
909.3782276696224
 31
0.0
  0
LINE
  5
479
330
40D
100
AcDbEntity
  8
AM_3
100
AcDbLine
 10
11357.01863426583
 20
907.2017259618691
 30
0.0
 11
11405.01863426583
 21
908.8779228974727
 31
0.0
  0
LINE
  5
47A
330
40D
100
AcDbEntity
  8
AM_3
100
AcDbLine
 10
11357.01863426583
 20
913.7020307340184
 30
0.0
 11
11405.01863426583
 21
915.3782276696224
 31
0.0
  0
LINE
  5
47B
330
40D
100
AcDbEntity
  8
AM_3
100
AcDbLine
 10
11357.01863426583
 20
913.2017259618692
 30
0.0
 11
11405.01863426583
 21
914.8779228974726
 31
0.0
  0
LINE
  5
47C
330
40D
100
AcDbEntity
  8
AM_3
100
AcDbLine
 10
11357.01863426583
 20
919.7020307340183
 30
0.0
 11
11405.01863426583
 21
921.3782276696225
 31
0.0
  0
LINE
  5
47D
330
40D
100
AcDbEntity
  8
AM_3
100
AcDbLine
 10
11357.01863426583
 20
919.2017259618692
 30
0.0
 11
11405.01863426583
 21
920.8779228974728
 31
0.0
  0
LINE
  5
47E
330
40D
100
AcDbEntity
  8
AM_3
100
AcDbLine
 10
11357.01863426583
 20
925.7020307340184
 30
0.0
 11
11405.01863426583
 21
927.3782276696223
 31
0.0
  0
LINE
  5
47F
330
40D
100
AcDbEntity
  8
AM_3
100
AcDbLine
 10
11357.01863426583
 20
925.2017259618693
 30
0.0
 11
11405.01863426583
 21
926.8779228974727
 31
0.0
  0
LINE
  5
480
330
40D
100
AcDbEntity
  8
AM_3
100
AcDbLine
 10
11357.01863426583
 20
931.7020307340184
 30
0.0
 11
11405.01863426583
 21
933.3782276696224
 31
0.0
  0
LINE
  5
481
330
40D
100
AcDbEntity
  8
AM_3
100
AcDbLine
 10
11357.01863426583
 20
931.2017259618691
 30
0.0
 11
11405.01863426583
 21
932.8779228974726
 31
0.0
  0
LINE
  5
482
330
40D
100
AcDbEntity
  8
AM_3
100
AcDbLine
 10
11357.01863426583
 20
937.7020307340185
 30
0.0
 11
11405.01863426583
 21
939.3782276696224
 31
0.0
  0
LINE
  5
483
330
40D
100
AcDbEntity
  8
AM_3
100
AcDbLine
 10
11357.01863426583
 20
937.2017259618692
 30
0.0
 11
11405.01863426583
 21
938.8779228974724
 31
0.0
  0
LINE
  5
484
330
40D
100
AcDbEntity
  8
AM_3
100
AcDbLine
 10
11357.01863426583
 20
943.7020307340183
 30
0.0
 11
11405.01863426583
 21
945.3782276696225
 31
0.0
  0
LINE
  5
485
330
40D
100
AcDbEntity
  8
AM_3
100
AcDbLine
 10
11357.01863426583
 20
943.2017259618692
 30
0.0
 11
11405.01863426583
 21
944.8779228974727
 31
0.0
  0
LINE
  5
486
330
40D
100
AcDbEntity
  8
AM_3
100
AcDbLine
 10
11357.01863426583
 20
949.7020307340186
 30
0.0
 11
11405.01863426583
 21
951.3782276696224
 31
0.0
  0
LINE
  5
487
330
40D
100
AcDbEntity
  8
AM_3
100
AcDbLine
 10
11357.01863426583
 20
949.2017259618691
 30
0.0
 11
11405.01863426583
 21
950.8779228974727
 31
0.0
  0
LINE
  5
488
330
40D
100
AcDbEntity
  8
AM_3
100
AcDbLine
 10
11357.01863426583
 20
955.7020307340184
 30
0.0
 11
11405.01863426583
 21
957.3782276696224
 31
0.0
  0
LINE
  5
489
330
40D
100
AcDbEntity
  8
AM_3
100
AcDbLine
 10
11357.01863426583
 20
955.2017259618692
 30
0.0
 11
11405.01863426583
 21
956.8779228974726
 31
0.0
  0
LINE
  5
48A
330
40D
100
AcDbEntity
  8
AM_3
100
AcDbLine
 10
11357.01863426583
 20
961.7020307340183
 30
0.0
 11
11405.01863426583
 21
963.3782276696225
 31
0.0
  0
LINE
  5
48B
330
40D
100
AcDbEntity
  8
AM_3
100
AcDbLine
 10
11357.01863426583
 20
961.2017259618692
 30
0.0
 11
11405.01863426583
 21
962.8779228974725
 31
0.0
  0
LINE
  5
48C
330
40D
100
AcDbEntity
  8
AM_3
100
AcDbLine
 10
11357.01863426583
 20
967.7020307340184
 30
0.0
 11
11405.01863426583
 21
969.3782276696223
 31
0.0
  0
LINE
  5
48D
330
40D
100
AcDbEntity
  8
AM_3
100
AcDbLine
 10
11357.01863426583
 20
967.2017259618693
 30
0.0
 11
11405.01863426583
 21
968.8779228974727
 31
0.0
  0
LINE
  5
48E
330
40D
100
AcDbEntity
  8
AM_3
100
AcDbLine
 10
11357.01863426583
 20
973.7020307340186
 30
0.0
 11
11405.01863426583
 21
975.3782276696224
 31
0.0
  0
LINE
  5
48F
330
40D
100
AcDbEntity
  8
AM_3
100
AcDbLine
 10
11357.01863426583
 20
973.2017259618691
 30
0.0
 11
11405.01863426583
 21
974.8779228974726
 31
0.0
  0
LINE
  5
490
330
40D
100
AcDbEntity
  8
AM_3
100
AcDbLine
 10
11357.01863426583
 20
979.7020307340185
 30
0.0
 11
11405.01863426583
 21
981.3782276696224
 31
0.0
  0
LINE
  5
491
330
40D
100
AcDbEntity
  8
AM_3
100
AcDbLine
 10
11357.01863426583
 20
979.2017259618692
 30
0.0
 11
11405.01863426583
 21
980.8779228974726
 31
0.0
  0
LINE
  5
492
330
40D
100
AcDbEntity
  8
AM_3
100
AcDbLine
 10
11357.01863426583
 20
985.7020307340183
 30
0.0
 11
11405.01863426583
 21
987.3782276696225
 31
0.0
  0
LINE
  5
493
330
40D
100
AcDbEntity
  8
AM_3
100
AcDbLine
 10
11357.01863426583
 20
985.2017259618692
 30
0.0
 11
11405.01863426583
 21
986.8779228974728
 31
0.0
  0
LINE
  5
494
330
40D
100
AcDbEntity
  8
AM_3
100
AcDbLine
 10
11357.01863426583
 20
991.2017259618691
 30
0.0
 11
11364.17153108282
 21
991.4515106228135
 31
0.0
  0
ENDBLK
  5
495
330
40D
100
AcDbEntity
  8
0
100
AcDbBlockEnd
  0
BLOCK
  5
50B
330
50A
100
AcDbEntity
  8
0
100
AcDbBlockBegin
  2
7
 70
     0
 10
0.0
 20
0.0
 30
0.0
  3
7
  1

  0
ARC
  5
50C
330
50A
100
AcDbEntity
  8
AM_7
100
AcDbCircle
 10
10921.2242537173
 20
2385.09842714561
 30
0.0
 40
12.5
100
AcDbArc
 50
339.9999999999618
 51
159.9999999999617
  0
ARC
  5
50D
330
50A
100
AcDbEntity
  8
0
100
AcDbCircle
 10
10921.2242537173
 20
2385.09842714561
 30
0.0
 40
10.5
100
AcDbArc
 50
339.9999999999618
 51
159.9999999999617
  0
ARC
  5
50E
330
50A
100
AcDbEntity
  8
0
100
AcDbCircle
 10
10921.2242537173
 20
2385.09842714561
 30
0.0
 40
14.5
100
AcDbArc
 50
339.9999999999618
 51
159.9999999999617
  0
LINE
  5
50F
330
50A
100
AcDbEntity
  8
AM_7
100
AcDbLine
 10
10909.47809595748
 20
2389.37367893718
 30
0.0
 11
10907.76799524085
 21
2384.675215833251
 31
0.0
  0
LINE
  5
510
330
50A
100
AcDbEntity
  8
0
100
AcDbLine
 10
10911.35748119905
 20
2388.689638650529
 30
0.0
 11
10909.64738048242
 21
2383.991175546599
 31
0.0
  0
LINE
  5
511
330
50A
100
AcDbEntity
  8
0
100
AcDbLine
 10
10907.5987107159
 20
2390.057719223832
 30
0.0
 11
10905.88860999928
 21
2385.359256119902
 31
0.0
  0
ARC
  5
512
330
50A
100
AcDbEntity
  8
AM_7
100
AcDbCircle
 10
10903.06953213692
 20
2386.385316549879
 30
0.0
 40
5.0
100
AcDbArc
 50
250.0000000000405
 51
339.9999999999618
1001
GENIUS_GENODEF_13
1002
{
1000
HIER
1070
     0
1002
}
1002
{
1000
MANEDIT
1070
     0
1002
}
1002
{
1000
NOSEL
1070
     0
1002
}
1002
{
1000
BEHIND
1070
     0
1002
}
1002
{
1000
OTHER
1070
     0
1002
}
1002
{
1000
REACTOR
1002
}
1001
GENIUS_GENOBJ-N-FIL_13
1002
{
1000
OWNER
1000
GEN
1002
}
  0
ARC
  5
513
330
50A
100
AcDbEntity
  8
0
100
AcDbCircle
 10
10903.06953213692
 20
2386.385316549879
 30
0.0
 40
7.0
100
AcDbArc
 50
250.0000000000405
 51
339.9999999999618
1001
GENIUS_GENODEF_13
1002
{
1000
HIER
1070
     0
1002
}
1002
{
1000
MANEDIT
1070
     0
1002
}
1002
{
1000
NOSEL
1070
     0
1002
}
1002
{
1000
BEHIND
1070
     0
1002
}
1002
{
1000
OTHER
1070
     0
1002
}
1002
{
1000
REACTOR
1002
}
1001
GENIUS_GENOBJ-N-FIL_13
1002
{
1000
OWNER
1000
GEN
1002
}
  0
ARC
  5
514
330
50A
100
AcDbEntity
  8
0
100
AcDbCircle
 10
10903.06953213692
 20
2386.385316549879
 30
0.0
 40
3.0
100
AcDbArc
 50
250.0000000000405
 51
339.9999999999618
1001
GENIUS_GENODEF_13
1002
{
1000
HIER
1070
     0
1002
}
1002
{
1000
MANEDIT
1070
     0
1002
}
1002
{
1000
NOSEL
1070
     0
1002
}
1002
{
1000
BEHIND
1070
     0
1002
}
1002
{
1000
OTHER
1070
     0
1002
}
1002
{
1000
REACTOR
1002
}
1001
GENIUS_GENOBJ-N-FIL_13
1002
{
1000
OWNER
1000
GEN
1002
}
  0
LINE
  5
515
330
50A
100
AcDbEntity
  8
AM_7
100
AcDbLine
 10
10932.97041147712
 20
2380.823175354038
 30
0.0
 11
10931.26031076049
 21
2376.124712250109
 31
0.0
  0
LINE
  5
516
330
50A
100
AcDbEntity
  8
0
100
AcDbLine
 10
10931.09102623555
 20
2381.50721564069
 30
0.0
 11
10929.38092551893
 21
2376.80875253676
 31
0.0
  0
LINE
  5
517
330
50A
100
AcDbEntity
  8
0
100
AcDbLine
 10
10934.84979671869
 20
2380.139135067388
 30
0.0
 11
10933.13969600207
 21
2375.440671963458
 31
0.0
  0
ARC
  5
518
330
50A
100
AcDbEntity
  8
AM_7
100
AcDbCircle
 10
10935.95877386443
 20
2374.414611533481
 30
0.0
 40
5.0
100
AcDbArc
 50
159.9999999999617
 51
250.0000000000405
1001
GENIUS_GENOBJ-N-FIL_13
1002
{
1000
OWNER
1000
GEN
1002
}
1001
GENIUS_GENODEF_13
1002
{
1000
HIER
1070
     0
1002
}
1002
{
1000
MANEDIT
1070
     0
1002
}
1002
{
1000
NOSEL
1070
     0
1002
}
1002
{
1000
BEHIND
1070
     0
1002
}
1002
{
1000
OTHER
1070
     0
1002
}
1002
{
1000
REACTOR
1002
}
  0
ARC
  5
519
330
50A
100
AcDbEntity
  8
0
100
AcDbCircle
 10
10935.95877386443
 20
2374.414611533481
 30
0.0
 40
7.0
100
AcDbArc
 50
159.9999999999617
 51
250.0000000000405
1001
GENIUS_GENOBJ-N-FIL_13
1002
{
1000
OWNER
1000
GEN
1002
}
1001
GENIUS_GENODEF_13
1002
{
1000
HIER
1070
     0
1002
}
1002
{
1000
MANEDIT
1070
     0
1002
}
1002
{
1000
NOSEL
1070
     0
1002
}
1002
{
1000
BEHIND
1070
     0
1002
}
1002
{
1000
OTHER
1070
     0
1002
}
1002
{
1000
REACTOR
1002
}
  0
ARC
  5
51A
330
50A
100
AcDbEntity
  8
0
100
AcDbCircle
 10
10935.95877386443
 20
2374.414611533481
 30
0.0
 40
3.0
100
AcDbArc
 50
159.9999999999617
 51
250.0000000000405
1001
GENIUS_GENOBJ-N-FIL_13
1002
{
1000
OWNER
1000
GEN
1002
}
1001
GENIUS_GENODEF_13
1002
{
1000
HIER
1070
     0
1002
}
1002
{
1000
MANEDIT
1070
     0
1002
}
1002
{
1000
NOSEL
1070
     0
1002
}
1002
{
1000
BEHIND
1070
     0
1002
}
1002
{
1000
OTHER
1070
     0
1002
}
1002
{
1000
REACTOR
1002
}
  0
LINE
  5
51B
330
50A
100
AcDbEntity
  8
AM_7
100
AcDbLine
 10
10934.2486731478
 20
2369.716148429551
 30
0.0
 11
10938.94713625172
 21
2368.006047712922
 31
0.0
  0
LINE
  5
51C
330
50A
100
AcDbEntity
  8
0
100
AcDbLine
 10
10933.56463286115
 20
2367.83676318798
 30
0.0
 11
10938.26309596507
 21
2366.126662471351
 31
0.0
  0
LINE
  5
51D
330
50A
100
AcDbEntity
  8
0
100
AcDbLine
 10
10934.93271343445
 20
2371.595533671122
 30
0.0
 11
10939.63117653838
 21
2369.885432954494
 31
0.0
  0
LINE
  5
51E
330
50A
100
AcDbEntity
  8
AM_7
100
AcDbLine
 10
10901.35943142029
 20
2381.68685344595
 30
0.0
 11
10896.66096831636
 21
2383.396954162579
 31
0.0
  0
LINE
  5
51F
330
50A
100
AcDbEntity
  8
0
100
AcDbLine
 10
10900.67539113364
 20
2379.807468204378
 30
0.0
 11
10895.97692802971
 21
2381.517568921006
 31
0.0
  0
LINE
  5
520
330
50A
100
AcDbEntity
  8
0
100
AcDbLine
 10
10902.04347170694
 20
2383.566238687522
 30
0.0
 11
10897.34500860301
 21
2385.27633940415
 31
0.0
  0
LINE
  5
521
330
50A
100
AcDbEntity
  8
0
100
AcDbLine
 10
10895.97692802971
 20
2381.517568921005
 30
0.0
 11
10897.34500860301
 21
2385.276339404149
 31
0.0
  0
LINE
  5
522
330
50A
100
AcDbEntity
  8
0
100
AcDbLine
 10
10938.26309596507
 20
2366.126662471351
 30
0.0
 11
10939.63117653838
 21
2369.885432954494
 31
0.0
  0
LINE
  5
523
330
50A
100
AcDbEntity
  8
AM_7
  6
AM_DIN_G_W050x2
100
AcDbLine
 10
10927.38061629717
 20
2402.012894319753
 30
0.0
 11
10918.65910264235
 21
2378.050732489716
 31
0.0
1001
GENIUS_GENODEF_13
1002
{
1000
HIER
1070
     0
1002
}
1002
{
1000
MANEDIT
1070
     0
1002
}
1002
{
1000
NOSEL
1070
     0
1002
}
1002
{
1000
BEHIND
1070
     0
1002
}
1002
{
1000
OTHER
1070
     0
1002
}
1002
{
1000
REACTOR
1002
}
1001
GENIUS_GENOBJ-N-CEN_13
1002
{
1000
OWNER
1000
GEN
1002
}
1001
GENIUS_GENCEN_19
1002
{
1040
7.5
1002
}
  0
ENDBLK
  5
524
330
50A
100
AcDbEntity
  8
0
100
AcDbBlockEnd
  0
BLOCK
  5
526
330
525
100
AcDbEntity
  8
0
100
AcDbBlockBegin
  2
6
 70
     0
 10
0.0
 20
0.0
 30
0.0
  3
6
  1

  0
CIRCLE
  5
527
330
525
100
AcDbEntity
  8
AM_3
100
AcDbCircle
 10
12103.32445068452
 20
389.1488836964728
 30
0.0
 40
39.99
  0
CIRCLE
  5
528
330
525
100
AcDbEntity
  8
AM_3
100
AcDbCircle
 10
12103.32445068452
 20
389.1488836964728
 30
0.0
 40
39.156875
  0
CIRCLE
  5
529
330
525
100
AcDbEntity
  8
AM_3
100
AcDbCircle
 10
12103.32445068452
 20
389.1488836964728
 30
0.0
 40
13.33
  0
CIRCLE
  5
52A
330
525
100
AcDbEntity
  8
AM_3
100
AcDbCircle
 10
12103.32445068452
 20
389.1488836964728
 30
0.0
 40
11.66375
  0
LINE
  5
52B
330
525
100
AcDbEntity
  8
AM_3
100
AcDbLine
 10
12103.32445068452
 20
389.1488836964728
 30
0.0
 11
12058.33570068452
 21
389.1488836964728
 31
0.0
1001
GENIUS_GENOREF_13
1005
57B
  0
LINE
  5
52C
330
525
100
AcDbEntity
  8
AM_3
100
AcDbLine
 10
12103.32445068452
 20
389.1488836964728
 30
0.0
 11
12103.32445068452
 21
344.1601336964728
 31
0.0
1001
GENIUS_GENOREF_13
1005
57B
  0
LINE
  5
52D
330
525
100
AcDbEntity
  8
AM_3
100
AcDbLine
 10
12103.32445068452
 20
389.1488836964728
 30
0.0
 11
12148.31320068452
 21
389.1488836964728
 31
0.0
1001
GENIUS_GENOREF_13
1005
57B
  0
LINE
  5
52E
330
525
100
AcDbEntity
  8
AM_3
100
AcDbLine
 10
12103.32445068452
 20
389.1488836964728
 30
0.0
 11
12103.32445068452
 21
434.1376336964726
 31
0.0
1001
GENIUS_GENOREF_13
1005
57B
  0
LINE
  5
52F
330
525
100
AcDbEntity
  8
AM_3
100
AcDbLine
 10
12103.32445068452
 20
354.9475667793498
 30
0.0
 11
12105.09508228243
 21
375.9370040518305
 31
0.0
  0
LINE
  5
530
330
525
100
AcDbEntity
  8
AM_3
100
AcDbLine
 10
12103.74268117344
 20
349.9942422982465
 30
0.0
 11
12105.79616739926
 21
374.336697486477
 31
0.0
  0
LINE
  5
531
330
525
100
AcDbEntity
  8
AM_3
100
AcDbLine
 10
12103.32445068452
 20
354.9475667793274
 30
0.0
 11
12101.55381908662
 21
375.9370040518305
 31
0.0
  0
LINE
  5
532
330
525
100
AcDbEntity
  8
AM_3
100
AcDbLine
 10
12102.90622019559
 20
349.9942422982465
 30
0.0
 11
12100.85273396978
 21
374.3366974864739
 31
0.0
  0
LINE
  5
533
330
525
100
AcDbEntity
  8
AM_3
100
AcDbLine
 10
12114.42960013361
 20
356.8006884673896
 30
0.0
 11
12109.28903488633
 21
377.2277832732921
 31
0.0
  0
LINE
  5
534
330
525
100
AcDbEntity
  8
AM_3
100
AcDbLine
 10
12116.43351157085
 20
352.2515479871812
 30
0.0
 11
12110.47175197007
 21
375.941827697071
 31
0.0
  0
LINE
  5
535
330
525
100
AcDbEntity
  8
AM_3
100
AcDbLine
 10
12114.42960013362
 20
356.8006884673696
 30
0.0
 11
12105.93964709834
 21
376.0779369933003
 31
0.0
  0
LINE
  5
536
330
525
100
AcDbEntity
  8
AM_3
100
AcDbLine
 10
12115.642372356
 20
351.9799495516675
 30
0.0
 11
12105.79616739926
 21
374.336697486477
 31
0.0
  0
LINE
  5
537
330
525
100
AcDbEntity
  8
AM_3
100
AcDbLine
 10
12124.33133432575
 20
362.1592390424665
 30
0.0
 11
12112.83663224191
 21
379.8103987005392
 31
0.0
  0
LINE
  5
538
330
525
100
AcDbEntity
  8
AM_3
100
AcDbLine
 10
12127.70377181319
 20
358.507252521373
 30
0.0
 11
12114.37281554479
 21
378.9781473537998
 31
0.0
  0
LINE
  5
539
330
525
100
AcDbEntity
  8
AM_3
100
AcDbLine
 10
12124.33133432576
 20
362.1592390424501
 30
0.0
 11
12110.04207799966
 21
377.6353098266932
 31
0.0
  0
LINE
  5
53A
330
525
100
AcDbEntity
  8
AM_3
100
AcDbLine
 10
12127.04368657105
 20
357.9934875551129
 30
0.0
 11
12110.47175197007
 21
375.941827697071
 31
0.0
  0
LINE
  5
53B
330
525
100
AcDbEntity
  8
AM_3
100
AcDbLine
 10
12131.95664671997
 20
370.4425364032909
 30
0.0
 11
12115.35343712905
 21
383.4049838786173
 31
0.0
  0
LINE
  5
53C
330
525
100
AcDbEntity
  8
AM_3
100
AcDbLine
 10
12136.33215432709
 20
368.0834532472772
 30
0.0
 11
12117.07661735385
 21
383.1166241084889
 31
0.0
  0
LINE
  5
53D
330
525
100
AcDbEntity
  8
AM_3
100
AcDbLine
 10
12131.95664671999
 20
370.4425364032788
 30
0.0
 11
12113.41654974667
 21
380.4403570403825
 31
0.0
  0
LINE
  5
53E
330
525
100
AcDbEntity
  8
AM_3
100
AcDbLine
 10
12135.87465353592
 20
367.3831961562565
 30
0.0
 11
12114.37281554479
 21
378.9781473537998
 31
0.0
  0
LINE
  5
53F
330
525
100
AcDbEntity
  8
AM_3
100
AcDbLine
 10
12136.47921639946
 20
380.7529567522155
 30
0.0
 11
12116.56671468595
 21
387.6220097277502
 31
0.0
  0
LINE
  5
540
330
525
100
AcDbEntity
  8
AM_3
100
AcDbLine
 10
12141.38363998403
 20
379.9424202261884
 30
0.0
 11
12118.29015851743
 21
387.9087897896894
 31
0.0
  0
LINE
  5
541
330
525
100
AcDbEntity
  8
AM_3
100
AcDbLine
 10
12136.47921639948
 20
380.7529567522095
 30
0.0
 11
12115.69738596524
 21
384.1891082439717
 31
0.0
  0
LINE
  5
542
330
525
100
AcDbEntity
  8
AM_3
100
AcDbLine
 10
12141.17830095341
 20
379.131554731821
 30
0.0
 11
12117.07661735385
 21
383.1166241084889
 31
0.0
  0
LINE
  5
543
330
525
100
AcDbEntity
  8
AM_3
100
AcDbLine
 10
12137.40895276453
 20
391.9732060617801
 30
0.0
 11
12116.34498746341
 21
392.0044960632862
 31
0.0
  0
LINE
  5
544
330
525
100
AcDbEntity
  8
AM_3
100
AcDbLine
 10
12142.3108219312
 20
392.7990503751018
 30
0.0
 11
12117.88193302045
 21
392.8353388877275
 31
0.0
  0
LINE
  5
545
330
525
100
AcDbEntity
  8
AM_3
100
AcDbLine
 10
12137.40895276456
 20
391.9732060617819
 30
0.0
 11
12116.63742266027
 21
388.4753280766888
 31
0.0
  0
LINE
  5
546
330
525
100
AcDbEntity
  8
AM_3
100
AcDbLine
 10
12142.37989633126
 20
391.9654463355825
 30
0.0
 11
12118.29015851743
 21
387.9087897896894
 31
0.0
  0
LINE
  5
547
330
525
100
AcDbEntity
  8
AM_3
100
AcDbLine
 10
12134.6451044537
 20
402.887396219187
 30
0.0
 11
12114.71228304644
 21
396.0775324894831
 31
0.0
  0
LINE
  5
548
330
525
100
AcDbEntity
  8
AM_3
100
AcDbLine
 10
12139.01322561791
 20
405.2601283262146
 30
0.0
 11
12115.89617842974
 21
397.3624033645458
 31
0.0
  0
LINE
  5
549
330
525
100
AcDbEntity
  8
AM_3
100
AcDbLine
 10
12134.64510445372
 20
402.8873962191959
 30
0.0
 11
12116.13479226969
 21
392.8345381120966
 31
0.0
  0
LINE
  5
54A
330
525
100
AcDbEntity
  8
AM_3
100
AcDbLine
 10
12139.34922816561
 20
404.4941196739195
 30
0.0
 11
12117.88193302045
 21
392.8353388877275
 31
0.0
  0
LINE
  5
54B
330
525
100
AcDbEntity
  8
AM_3
100
AcDbLine
 10
12128.48717731696
 20
412.3128053697733
 30
0.0
 11
12111.84553029262
 21
399.3997423098975
 31
0.0
  0
LINE
  5
54C
330
525
100
AcDbEntity
  8
AM_3
100
AcDbLine
 10
12131.84819677219
 20
415.975302929977
 30
0.0
 11
12112.54808206739
 21
400.9994055394416
 31
0.0
  0
LINE
  5
54D
330
525
100
AcDbEntity
  8
AM_3
100
AcDbLine
 10
12128.48717731697
 20
412.3128053697866
 30
0.0
 11
12114.24396259542
 21
396.7943503027557
 31
0.0
  0
LINE
  5
54E
330
525
100
AcDbEntity
  8
AM_3
100
AcDbLine
 10
12132.41471637787
 20
415.3598985882339
 30
0.0
 11
12115.89617842974
 21
397.3624033645458
 31
0.0
  0
LINE
  5
54F
330
525
100
AcDbEntity
  8
AM_3
100
AcDbLine
 10
12119.60247830966
 20
419.2280441817768
 30
0.0
 11
12108.0553863451
 21
401.6111125410869
 31
0.0
  0
LINE
  5
550
330
525
100
AcDbEntity
  8
AM_3
100
AcDbLine
 10
12121.59217744635
 20
423.783418755006
 30
0.0
 11
12108.20046212532
 21
403.3522197928575
 31
0.0
  0
LINE
  5
551
330
525
100
AcDbEntity
  8
AM_3
100
AcDbLine
 10
12119.60247830967
 20
419.2280441817962
 30
0.0
 11
12111.16983437192
 21
399.9256575549839
 31
0.0
  0
LINE
  5
552
330
525
100
AcDbEntity
  8
AM_3
100
AcDbLine
 10
12122.32782292027
 20
423.3853073332261
 30
0.0
 11
12112.54808206739
 21
400.9994055394416
 31
0.0
  0
LINE
  5
553
330
525
100
AcDbEntity
  8
AM_3
100
AcDbLine
 10
12108.95380242955
 20
422.8837392289379
 30
0.0
 11
12103.75257211071
 21
402.4720069055578
 31
0.0
  0
LINE
  5
554
330
525
100
AcDbEntity
  8
AM_3
100
AcDbLine
 10
12109.35656647288
 20
427.8383452962611
 30
0.0
 11
12103.32445068452
 21
404.1658821927545
 31
0.0
  0
LINE
  5
555
330
525
100
AcDbEntity
  8
AM_3
100
AcDbLine
 10
12108.95380242956
 20
422.8837392289589
 30
0.0
 11
12107.24553709223
 21
401.8891341407669
 31
0.0
  0
LINE
  5
556
330
525
100
AcDbEntity
  8
AM_3
100
AcDbLine
 10
12110.18161921322
 20
427.7006683443277
 30
0.0
 11
12108.20046212532
 21
403.3522197928575
 31
0.0
  0
LINE
  5
557
330
525
100
AcDbEntity
  8
AM_3
100
AcDbLine
 10
12097.69509893948
 20
422.883739228936
 30
0.0
 11
12099.40336427682
 21
401.8891341407669
 31
0.0
  0
LINE
  5
558
330
525
100
AcDbEntity
  8
AM_3
100
AcDbLine
 10
12096.46728215582
 20
427.7006683443277
 30
0.0
 11
12098.44843924373
 21
403.3522197928635
 31
0.0
  0
LINE
  5
559
330
525
100
AcDbEntity
  8
AM_3
100
AcDbLine
 10
12097.69509893948
 20
422.8837392289589
 30
0.0
 11
12102.89632925833
 21
402.4720069055578
 31
0.0
  0
LINE
  5
55A
330
525
100
AcDbEntity
  8
AM_3
100
AcDbLine
 10
12097.29233489616
 20
427.8383452962611
 30
0.0
 11
12103.32445068452
 21
404.1658821927636
 31
0.0
  0
LINE
  5
55B
330
525
100
AcDbEntity
  8
AM_3
100
AcDbLine
 10
12087.04642305938
 20
419.2280441817768
 30
0.0
 11
12095.47906699712
 21
399.9256575549839
 31
0.0
  0
LINE
  5
55C
330
525
100
AcDbEntity
  8
AM_3
100
AcDbLine
 10
12084.32107844877
 20
423.3853073332261
 30
0.0
 11
12094.10081930166
 21
400.9994055394446
 31
0.0
  0
LINE
  5
55D
330
525
100
AcDbEntity
  8
AM_3
100
AcDbLine
 10
12087.04642305937
 20
419.2280441817962
 30
0.0
 11
12098.59351502395
 21
401.6111125410869
 31
0.0
  0
LINE
  5
55E
330
525
100
AcDbEntity
  8
AM_3
100
AcDbLine
 10
12085.0567239227
 20
423.7834187550071
 30
0.0
 11
12098.44843924373
 21
403.3522197928635
 31
0.0
  0
LINE
  5
55F
330
525
100
AcDbEntity
  8
AM_3
100
AcDbLine
 10
12078.16172405208
 20
412.3128053697715
 30
0.0
 11
12092.40493877362
 21
396.7943503027539
 31
0.0
  0
LINE
  5
560
330
525
100
AcDbEntity
  8
AM_3
100
AcDbLine
 10
12074.23418499118
 20
415.3598985882358
 30
0.0
 11
12090.7527229393
 21
397.3624033645476
 31
0.0
  0
LINE
  5
561
330
525
100
AcDbEntity
  8
AM_3
100
AcDbLine
 10
12078.16172405207
 20
412.3128053697866
 30
0.0
 11
12094.80337107643
 21
399.3997423098975
 31
0.0
  0
LINE
  5
562
330
525
100
AcDbEntity
  8
AM_3
100
AcDbLine
 10
12074.80070459685
 20
415.9753029299784
 30
0.0
 11
12094.10081930166
 21
400.9994055394446
 31
0.0
  0
LINE
  5
563
330
525
100
AcDbEntity
  8
AM_3
100
AcDbLine
 10
12072.00379691534
 20
402.887396219187
 30
0.0
 11
12090.51410909936
 21
392.8345381120966
 31
0.0
  0
LINE
  5
564
330
525
100
AcDbEntity
  8
AM_3
100
AcDbLine
 10
12067.29967320343
 20
404.4941196739206
 30
0.0
 11
12088.7669683486
 21
392.8353388877275
 31
0.0
  0
LINE
  5
565
330
525
100
AcDbEntity
  8
AM_3
100
AcDbLine
 10
12072.00379691532
 20
402.8873962191959
 30
0.0
 11
12091.93661832261
 21
396.0775324894831
 31
0.0
  0
LINE
  5
566
330
525
100
AcDbEntity
  8
AM_3
100
AcDbLine
 10
12067.63567575113
 20
405.2601283262146
 30
0.0
 11
12090.7527229393
 21
397.3624033645476
 31
0.0
  0
LINE
  5
567
330
525
100
AcDbEntity
  8
AM_3
100
AcDbLine
 10
12069.23994860451
 20
391.9732060617801
 30
0.0
 11
12090.01147870877
 21
388.475328076687
 31
0.0
  0
LINE
  5
568
330
525
100
AcDbEntity
  8
AM_3
100
AcDbLine
 10
12064.26900503778
 20
391.9654463355812
 30
0.0
 11
12088.35874285161
 21
387.9087897896906
 31
0.0
  0
LINE
  5
569
330
525
100
AcDbEntity
  8
AM_3
100
AcDbLine
 10
12069.23994860448
 20
391.9732060617832
 30
0.0
 11
12090.30391390563
 21
392.004496063285
 31
0.0
  0
LINE
  5
56A
330
525
100
AcDbEntity
  8
AM_3
100
AcDbLine
 10
12064.33807943785
 20
392.7990503751018
 30
0.0
 11
12088.7669683486
 21
392.8353388877275
 31
0.0
  0
LINE
  5
56B
330
525
100
AcDbEntity
  8
AM_3
100
AcDbLine
 10
12070.16968496959
 20
380.7529567522155
 30
0.0
 11
12090.95151540381
 21
384.1891082439729
 31
0.0
  0
LINE
  5
56C
330
525
100
AcDbEntity
  8
AM_3
100
AcDbLine
 10
12065.47060041563
 20
379.131554731821
 30
0.0
 11
12089.57228401519
 21
383.1166241084907
 31
0.0
  0
LINE
  5
56D
330
525
100
AcDbEntity
  8
AM_3
100
AcDbLine
 10
12070.16968496957
 20
380.7529567522113
 30
0.0
 11
12090.08218668309
 21
387.6220097277502
 31
0.0
  0
LINE
  5
56E
330
525
100
AcDbEntity
  8
AM_3
100
AcDbLine
 10
12065.26526138501
 20
379.9424202261884
 30
0.0
 11
12088.35874285161
 21
387.9087897896906
 31
0.0
  0
LINE
  5
56F
330
525
100
AcDbEntity
  8
AM_3
100
AcDbLine
 10
12074.69225464907
 20
370.4425364032909
 30
0.0
 11
12093.23235162238
 21
380.4403570403837
 31
0.0
  0
LINE
  5
570
330
525
100
AcDbEntity
  8
AM_3
100
AcDbLine
 10
12070.77424783312
 20
367.3831961562565
 30
0.0
 11
12092.27608582426
 21
378.9781473538028
 31
0.0
  0
LINE
  5
571
330
525
100
AcDbEntity
  8
AM_3
100
AcDbLine
 10
12074.69225464905
 20
370.4425364032788
 30
0.0
 11
12091.29546424
 21
383.4049838786191
 31
0.0
  0
LINE
  5
572
330
525
100
AcDbEntity
  8
AM_3
100
AcDbLine
 10
12070.31674704195
 20
368.0834532472802
 30
0.0
 11
12089.57228401519
 21
383.1166241084907
 31
0.0
  0
LINE
  5
573
330
525
100
AcDbEntity
  8
AM_3
100
AcDbLine
 10
12082.3175670433
 20
362.1592390424653
 30
0.0
 11
12096.60682336938
 21
377.635309826692
 31
0.0
  0
LINE
  5
574
330
525
100
AcDbEntity
  8
AM_3
100
AcDbLine
 10
12079.60521479799
 20
357.9934875551129
 30
0.0
 11
12096.17714939897
 21
375.9418276970722
 31
0.0
  0
LINE
  5
575
330
525
100
AcDbEntity
  8
AM_3
100
AcDbLine
 10
12082.31756704328
 20
362.1592390424483
 30
0.0
 11
12093.81226912714
 21
379.8103987005374
 31
0.0
  0
LINE
  5
576
330
525
100
AcDbEntity
  8
AM_3
100
AcDbLine
 10
12078.94512955585
 20
358.5072525213718
 30
0.0
 11
12092.27608582426
 21
378.9781473538028
 31
0.0
  0
LINE
  5
577
330
525
100
AcDbEntity
  8
AM_3
100
AcDbLine
 10
12092.21930123543
 20
356.8006884673896
 30
0.0
 11
12100.70925427071
 21
376.0779369933003
 31
0.0
  0
LINE
  5
578
330
525
100
AcDbEntity
  8
AM_3
100
AcDbLine
 10
12091.00652901305
 20
351.9799495516656
 30
0.0
 11
12100.85273396978
 21
374.3366974864739
 31
0.0
  0
LINE
  5
579
330
525
100
AcDbEntity
  8
AM_3
100
AcDbLine
 10
12092.21930123542
 20
356.8006884673696
 30
0.0
 11
12097.35986648271
 21
377.2277832732939
 31
0.0
  0
LINE
  5
57A
330
525
100
AcDbEntity
  8
AM_3
100
AcDbLine
 10
12090.2153897982
 20
352.2515479871812
 30
0.0
 11
12096.17714939897
 21
375.9418276970722
 31
0.0
  0
POINT
  5
57B
330
525
100
AcDbEntity
  8
0
 60
     1
100
AcDbPoint
 10
17930.61362367098
 20
2222.690323199986
 30
0.0
 50
180.0
1001
GENIUS_GENODEF_13
1002
{
1000
HIER
1070
    10
1002
}
1002
{
1000
MANEDIT
1070
     0
1002
}
1002
{
1000
NOSEL
1070
     0
1002
}
1002
{
1000
BEHIND
1070
     0
1002
}
1002
{
1000
OTHER
1070
     0
1002
}
1002
{
1000
REACTOR
1002
}
1001
GENIUS_GENOENT_13
1002
{
1000
MYREF
1005
57B
1002
}
1002
{
1000
GRP
1005
0
1002
}
1001
GENIUS_GENOLIS_13
1002
{
1000
ENT
1005
52E
1005
52D
1005
52C
1005
52B
1002
}
1001
GENIUS_GENOBJ-N-CRS_13
1002
{
1000
OWNER
1000
GEN
1002
}
  0
ENDBLK
  5
57C
330
525
100
AcDbEntity
  8
0
100
AcDbBlockEnd
  0
BLOCK
  5
952
330
948
100
AcDbEntity
  8
0
100
AcDbBlockBegin
  2
*D8
 70
     1
 10
0.0
 20
0.0
 30
0.0
  3
*D8
  1

  0
LINE
  5
9C1
330
948
100
AcDbEntity
  8
AM_5
100
AcDbLine
 10
1034.231993104169
 20
621.1349574161645
 30
0.0
 11
1247.45764989216
 21
621.1349574161645
 31
0.0
  0
LINE
  5
9C2
330
948
100
AcDbEntity
  8
AM_5
100
AcDbLine
 10
1208.858701049694
 20
782.1349574161645
 30
0.0
 11
1247.45764989216
 21
782.1349574161645
 31
0.0
  0
LINE
  5
9C3
330
948
100
AcDbEntity
  8
AM_5
100
AcDbLine
 10
1243.45764989216
 20
626.1349574161645
 30
0.0
 11
1243.45764989216
 21
777.1349574161645
 31
0.0
  0
SOLID
  5
9C4
330
948
100
AcDbEntity
  8
AM_5
100
AcDbTrace
 10
1242.624316558826
 20
626.1349574161645
 30
0.0
 11
1244.290983225493
 21
626.1349574161645
 31
0.0
 12
1243.45764989216
 22
621.1349574161645
 32
0.0
 13
1243.45764989216
 23
621.1349574161645
 33
0.0
  0
SOLID
  5
9C5
330
948
100
AcDbEntity
  8
AM_5
100
AcDbTrace
 10
1242.624316558826
 20
777.1349574161645
 30
0.0
 11
1244.290983225493
 21
777.1349574161645
 31
0.0
 12
1243.45764989216
 22
782.1349574161645
 32
0.0
 13
1243.45764989216
 23
782.1349574161645
 33
0.0
  0
MTEXT
  5
9C6
330
948
100
AcDbEntity
  8
AM_5
 62
     2
100
AcDbMText
 10
1236.957649892159
 20
697.7426657773421
 30
0.0
 40
7.0
 41
0.0
 71
     5
 72
     1
  1
161{}{\H0.71x;\C3;%%p5}
 11
0.0000000000000001
 21
1.0
 31
0.0
 73
     1
 44
1.0
  0
POINT
  5
9C7
330
948
100
AcDbEntity
  8
DEFPOINTS
 62
     0
100
AcDbPoint
 10
1034.231993104169
 20
621.1349574161645
 30
0.0
  0
POINT
  5
9C8
330
948
100
AcDbEntity
  8
DEFPOINTS
 62
     0
100
AcDbPoint
 10
1208.858701049694
 20
782.1349574161645
 30
0.0
  0
POINT
  5
9C9
330
948
100
AcDbEntity
  8
DEFPOINTS
 62
     0
100
AcDbPoint
 10
1243.45764989216
 20
782.1349574161645
 30
0.0
  0
ENDBLK
  5
953
330
948
100
AcDbEntity
  8
0
100
AcDbBlockEnd
  0
BLOCK
  5
95E
330
954
100
AcDbEntity
  8
0
100
AcDbBlockBegin
  2
*D9
 70
     1
 10
0.0
 20
0.0
 30
0.0
  3
*D9
  1

  0
LINE
  5
9CA
330
954
100
AcDbEntity
  8
AM_5
100
AcDbLine
 10
1023.858701049694
 20
642.1349574161641
 30
0.0
 11
961.6307720226124
 21
642.1349574161641
 31
0.0
  0
LINE
  5
9CB
330
954
100
AcDbEntity
  8
AM_5
100
AcDbLine
 10
1023.858701049676
 20
706.1349574161911
 30
0.0
 11
961.6307720226124
 21
706.1349574161911
 31
0.0
  0
LINE
  5
9CC
330
954
100
AcDbEntity
  8
AM_5
100
AcDbLine
 10
965.6307720226122
 20
647.1349574161641
 30
0.0
 11
965.6307720226122
 21
701.1349574161911
 31
0.0
  0
SOLID
  5
9CD
330
954
100
AcDbEntity
  8
AM_5
100
AcDbTrace
 10
964.7974386892787
 20
647.1349574161641
 30
0.0
 11
966.4641053559455
 21
647.1349574161641
 31
0.0
 12
965.6307720226122
 22
642.1349574161641
 32
0.0
 13
965.6307720226122
 23
642.1349574161641
 33
0.0
  0
SOLID
  5
9CE
330
954
100
AcDbEntity
  8
AM_5
100
AcDbTrace
 10
964.7974386892787
 20
701.1349574161911
 30
0.0
 11
966.4641053559455
 21
701.1349574161911
 31
0.0
 12
965.6307720226122
 22
706.1349574161911
 32
0.0
 13
965.6307720226122
 23
706.1349574161911
 33
0.0
  0
MTEXT
  5
9CF
330
954
100
AcDbEntity
  8
AM_5
 62
     2
100
AcDbMText
 10
959.1307720226122
 20
674.1349574161778
 30
0.0
 40
7.0
 41
0.0
 71
     5
 72
     1
  1
64{}{\H0.71x;\C3;%%p2}
 11
0.0000000000000001
 21
1.0
 31
0.0
 73
     1
 44
1.0
  0
POINT
  5
9D0
330
954
100
AcDbEntity
  8
DEFPOINTS
 62
     0
100
AcDbPoint
 10
1023.858701049694
 20
642.1349574161641
 30
0.0
  0
POINT
  5
9D1
330
954
100
AcDbEntity
  8
DEFPOINTS
 62
     0
100
AcDbPoint
 10
1023.858701049676
 20
706.1349574161911
 30
0.0
  0
POINT
  5
9D2
330
954
100
AcDbEntity
  8
DEFPOINTS
 62
     0
100
AcDbPoint
 10
965.6307720226122
 20
706.1349574161911
 30
0.0
  0
ENDBLK
  5
95F
330
954
100
AcDbEntity
  8
0
100
AcDbBlockEnd
  0
BLOCK
  5
96A
330
960
100
AcDbEntity
  8
0
100
AcDbBlockBegin
  2
*D10
 70
     1
 10
0.0
 20
0.0
 30
0.0
  3
*D10
  1

  0
LINE
  5
9D3
330
960
100
AcDbEntity
  8
AM_5
100
AcDbLine
 10
1023.858701049694
 20
1157.408182558649
 30
0.0
 11
974.7264174171617
 21
1157.408182558649
 31
0.0
  0
LINE
  5
9D4
330
960
100
AcDbEntity
  8
AM_5
100
AcDbLine
 10
1023.858701049694
 20
1093.40818255865
 30
0.0
 11
974.7264174171617
 21
1093.40818255865
 31
0.0
  0
LINE
  5
9D5
330
960
100
AcDbEntity
  8
AM_5
100
AcDbLine
 10
978.7264174171614
 20
1152.40818255865
 30
0.0
 11
978.7264174171614
 21
1098.40818255865
 31
0.0
  0
SOLID
  5
9D6
330
960
100
AcDbEntity
  8
AM_5
100
AcDbTrace
 10
977.8930840838279
 20
1152.40818255865
 30
0.0
 11
979.5597507504949
 21
1152.40818255865
 31
0.0
 12
978.7264174171614
 22
1157.408182558649
 32
0.0
 13
978.7264174171614
 23
1157.408182558649
 33
0.0
  0
SOLID
  5
9D7
330
960
100
AcDbEntity
  8
AM_5
100
AcDbTrace
 10
977.8930840838279
 20
1098.40818255865
 30
0.0
 11
979.5597507504949
 21
1098.40818255865
 31
0.0
 12
978.7264174171614
 22
1093.40818255865
 32
0.0
 13
978.7264174171614
 23
1093.40818255865
 33
0.0
  0
MTEXT
  5
9D8
330
960
100
AcDbEntity
  8
AM_5
 62
     2
100
AcDbMText
 10
972.2264174171611
 20
1125.40818255865
 30
0.0
 40
7.0
 41
0.0
 71
     5
 72
     1
  1
64{}{\H0.71x;\C3;%%p2}
 11
0.0000000000000001
 21
1.0
 31
0.0
 73
     1
 44
1.0
  0
POINT
  5
9D9
330
960
100
AcDbEntity
  8
DEFPOINTS
 62
     0
100
AcDbPoint
 10
1023.858701049694
 20
1157.408182558649
 30
0.0
  0
POINT
  5
9DA
330
960
100
AcDbEntity
  8
DEFPOINTS
 62
     0
100
AcDbPoint
 10
1023.858701049694
 20
1093.40818255865
 30
0.0
  0
POINT
  5
9DB
330
960
100
AcDbEntity
  8
DEFPOINTS
 62
     0
100
AcDbPoint
 10
978.7264174171614
 20
1093.40818255865
 30
0.0
  0
ENDBLK
  5
96B
330
960
100
AcDbEntity
  8
0
100
AcDbBlockEnd
  0
BLOCK
  5
976
330
96C
100
AcDbEntity
  8
0
100
AcDbBlockBegin
  2
*D11
 70
     1
 10
0.0
 20
0.0
 30
0.0
  3
*D11
  1

  0
LINE
  5
9DC
330
96C
100
AcDbEntity
  8
AM_5
100
AcDbLine
 10
556.9606582696414
 20
1100.255243188256
 30
0.0
 11
724.3804085461471
 21
1100.255243188256
 31
0.0
  0
LINE
  5
9DD
330
96C
100
AcDbEntity
  8
AM_5
100
AcDbLine
 10
556.9606582693086
 20
699.287896786557
 30
0.0
 11
724.3804085461468
 21
699.287896786557
 31
0.0
  0
LINE
  5
9DE
330
96C
100
AcDbEntity
  8
AM_5
100
AcDbLine
 10
720.3804085461471
 20
1095.255243188256
 30
0.0
 11
720.380408546147
 21
704.2878967865568
 31
0.0
  0
SOLID
  5
9DF
330
96C
100
AcDbEntity
  8
AM_5
100
AcDbTrace
 10
719.5470752128137
 20
1095.255243188256
 30
0.0
 11
721.2137418794805
 21
1095.255243188256
 31
0.0
 12
720.3804085461471
 22
1100.255243188256
 32
0.0
 13
720.3804085461471
 23
1100.255243188256
 33
0.0
  0
SOLID
  5
9E0
330
96C
100
AcDbEntity
  8
AM_5
100
AcDbTrace
 10
719.5470752128136
 20
704.2878967865568
 30
0.0
 11
721.2137418794802
 21
704.2878967865568
 31
0.0
 12
720.380408546147
 22
699.287896786557
 32
0.0
 13
720.380408546147
 23
699.287896786557
 33
0.0
  0
MTEXT
  5
9E1
330
96C
100
AcDbEntity
  8
AM_5
 62
     2
100
AcDbMText
 10
713.8804085461469
 20
899.7715699874071
 30
0.0
 40
7.0
 41
0.0
 71
     5
 72
     1
  1
401
 11
0.0000000000000001
 21
1.0
 31
0.0
 73
     1
 44
1.0
  0
POINT
  5
9E2
330
96C
100
AcDbEntity
  8
DEFPOINTS
 62
     0
100
AcDbPoint
 10
556.9606582696414
 20
1100.255243188256
 30
0.0
  0
POINT
  5
9E3
330
96C
100
AcDbEntity
  8
DEFPOINTS
 62
     0
100
AcDbPoint
 10
556.9606582693086
 20
699.287896786557
 30
0.0
  0
POINT
  5
9E4
330
96C
100
AcDbEntity
  8
DEFPOINTS
 62
     0
100
AcDbPoint
 10
720.380408546147
 20
699.287896786557
 30
0.0
  0
ENDBLK
  5
977
330
96C
100
AcDbEntity
  8
0
100
AcDbBlockEnd
  0
BLOCK
  5
982
330
978
100
AcDbEntity
  8
0
100
AcDbBlockBegin
  2
*D12
 70
     1
 10
0.0
 20
0.0
 30
0.0
  3
*D12
  1

  0
LINE
  5
9E5
330
978
100
AcDbEntity
  8
AM_5
100
AcDbLine
 10
470.810658269309
 20
621.1349574161645
 30
0.0
 11
744.3804085461469
 21
621.1349574161645
 31
0.0
  0
LINE
  5
9E6
330
978
100
AcDbEntity
  8
AM_5
100
AcDbLine
 10
453.9606582696413
 20
1178.40818255865
 30
0.0
 11
744.3804085461469
 21
1178.408182558649
 31
0.0
  0
LINE
  5
9E7
330
978
100
AcDbEntity
  8
AM_5
100
AcDbLine
 10
740.3804085461469
 20
626.1349574161645
 30
0.0
 11
740.3804085461469
 21
1173.408182558649
 31
0.0
  0
SOLID
  5
9E8
330
978
100
AcDbEntity
  8
AM_5
100
AcDbTrace
 10
739.5470752128135
 20
626.1349574161645
 30
0.0
 11
741.2137418794801
 21
626.1349574161645
 31
0.0
 12
740.3804085461469
 22
621.1349574161645
 32
0.0
 13
740.3804085461469
 23
621.1349574161645
 33
0.0
  0
SOLID
  5
9E9
330
978
100
AcDbEntity
  8
AM_5
100
AcDbTrace
 10
739.5470752128136
 20
1173.408182558649
 30
0.0
 11
741.2137418794802
 21
1173.408182558649
 31
0.0
 12
740.3804085461469
 22
1178.408182558649
 32
0.0
 13
740.3804085461469
 23
1178.408182558649
 33
0.0
  0
MTEXT
  5
9EA
330
978
100
AcDbEntity
  8
AM_5
 62
     2
100
AcDbMText
 10
733.8804085461466
 20
899.7715699874072
 30
0.0
 40
7.0
 41
0.0
 71
     5
 72
     1
  1
557{}{\H0.71x;\C3;%%p5}
 11
0.0000000000000001
 21
1.0
 31
0.0
 73
     1
 44
1.0
  0
POINT
  5
9EB
330
978
100
AcDbEntity
  8
DEFPOINTS
 62
     0
100
AcDbPoint
 10
470.810658269309
 20
621.1349574161645
 30
0.0
  0
POINT
  5
9EC
330
978
100
AcDbEntity
  8
DEFPOINTS
 62
     0
100
AcDbPoint
 10
453.9606582696413
 20
1178.40818255865
 30
0.0
  0
POINT
  5
9ED
330
978
100
AcDbEntity
  8
DEFPOINTS
 62
     0
100
AcDbPoint
 10
740.3804085461469
 20
1178.408182558649
 30
0.0
  0
ENDBLK
  5
983
330
978
100
AcDbEntity
  8
0
100
AcDbBlockEnd
  0
BLOCK
  5
98E
330
984
100
AcDbEntity
  8
0
100
AcDbBlockBegin
  2
*D13
 70
     1
 10
0.0
 20
0.0
 30
0.0
  3
*D13
  1

  0
LINE
  5
FBA
330
984
100
AcDbEntity
  8
AM_5
100
AcDbLine
 10
485.4079982640562
 20
547.3956422187425
 30
0.0
 11
485.4079982640562
 21
396.4383862902332
 31
0.0
  0
LINE
  5
FBB
330
984
100
AcDbEntity
  8
AM_5
100
AcDbLine
 10
855.4079982640562
 20
547.3956422187425
 30
0.0
 11
855.4079982640562
 21
396.4383862902332
 31
0.0
  0
LINE
  5
FBC
330
984
100
AcDbEntity
  8
AM_5
100
AcDbLine
 10
490.4079982640562
 20
400.4383862902332
 30
0.0
 11
850.4079982640561
 21
400.4383862902332
 31
0.0
  0
SOLID
  5
FBD
330
984
100
AcDbEntity
  8
AM_5
100
AcDbTrace
 10
490.4079982640562
 20
401.2717196235665
 30
0.0
 11
490.4079982640562
 21
399.6050529568999
 31
0.0
 12
485.4079982640562
 22
400.4383862902332
 32
0.0
 13
485.4079982640562
 23
400.4383862902332
 33
0.0
  0
SOLID
  5
FBE
330
984
100
AcDbEntity
  8
AM_5
100
AcDbTrace
 10
850.4079982640561
 20
401.2717196235665
 30
0.0
 11
850.4079982640561
 21
399.6050529568999
 31
0.0
 12
855.4079982640562
 22
400.4383862902332
 32
0.0
 13
855.4079982640562
 23
400.4383862902332
 33
0.0
  0
MTEXT
  5
FBF
330
984
100
AcDbEntity
  8
AM_5
 62
     2
100
AcDbMText
 10
670.4079982640562
 20
407.2883862902331
 30
0.0
 40
7.0
 41
0.0
 71
     5
 72
     1
  1
(370)
 73
     1
 44
1.0
  0
POINT
  5
FC0
330
984
100
AcDbEntity
  8
DEFPOINTS
 62
     0
100
AcDbPoint
 10
485.4079982640562
 20
547.3956422187425
 30
0.0
  0
POINT
  5
FC1
330
984
100
AcDbEntity
  8
DEFPOINTS
 62
     0
100
AcDbPoint
 10
855.4079982640562
 20
547.3956422187425
 30
0.0
  0
POINT
  5
FC2
330
984
100
AcDbEntity
  8
DEFPOINTS
 62
     0
100
AcDbPoint
 10
855.4079982640562
 20
400.4383862902332
 30
0.0
  0
ENDBLK
  5
98F
330
984
100
AcDbEntity
  8
0
100
AcDbBlockEnd
  0
BLOCK
  5
99A
330
990
100
AcDbEntity
  8
0
100
AcDbBlockBegin
  2
*D14
 70
     1
 10
0.0
 20
0.0
 30
0.0
  3
*D14
  1

  0
LINE
  5
FC3
330
990
100
AcDbEntity
  8
AM_5
100
AcDbLine
 10
535.1205734857724
 20
544.6956422187418
 30
0.0
 11
456.6314276306625
 21
544.6956422187418
 31
0.0
  0
LINE
  5
FC4
330
990
100
AcDbEntity
  8
AM_5
100
AcDbLine
 10
535.1205734857724
 20
658.9956422187408
 30
0.0
 11
456.6314276306625
 21
658.9956422187408
 31
0.0
  0
LINE
  5
FC5
330
990
100
AcDbEntity
  8
AM_5
100
AcDbLine
 10
460.6314276306625
 20
549.6956422187418
 30
0.0
 11
460.6314276306625
 21
653.9956422187408
 31
0.0
  0
SOLID
  5
FC6
330
990
100
AcDbEntity
  8
AM_5
100
AcDbTrace
 10
459.7980942973292
 20
549.6956422187418
 30
0.0
 11
461.464760963996
 21
549.6956422187418
 31
0.0
 12
460.6314276306625
 22
544.6956422187418
 32
0.0
 13
460.6314276306625
 23
544.6956422187418
 33
0.0
  0
SOLID
  5
FC7
330
990
100
AcDbEntity
  8
AM_5
100
AcDbTrace
 10
459.7980942973292
 20
653.9956422187408
 30
0.0
 11
461.464760963996
 21
653.9956422187408
 31
0.0
 12
460.6314276306625
 22
658.9956422187408
 32
0.0
 13
460.6314276306625
 23
658.9956422187408
 33
0.0
  0
MTEXT
  5
FC8
330
990
100
AcDbEntity
  8
AM_5
 62
     2
100
AcDbMText
 10
453.7814276306626
 20
607.40705000404
 30
0.0
 40
7.0
 41
0.0
 71
     5
 72
     1
  1
(%%c114.3)
 11
0.0000000000000001
 21
1.0
 31
0.0
 73
     1
 44
1.0
  0
POINT
  5
FC9
330
990
100
AcDbEntity
  8
DEFPOINTS
 62
     0
100
AcDbPoint
 10
535.1205734857724
 20
544.6956422187418
 30
0.0
  0
POINT
  5
FCA
330
990
100
AcDbEntity
  8
DEFPOINTS
 62
     0
100
AcDbPoint
 10
535.1205734857724
 20
658.9956422187408
 30
0.0
  0
POINT
  5
FCB
330
990
100
AcDbEntity
  8
DEFPOINTS
 62
     0
100
AcDbPoint
 10
460.6314276306625
 20
658.9956422187408
 30
0.0
  0
ENDBLK
  5
99B
330
990
100
AcDbEntity
  8
0
100
AcDbBlockEnd
  0
BLOCK
  5
9A6
330
99C
100
AcDbEntity
  8
0
100
AcDbBlockBegin
  2
*D15
 70
     1
 10
0.0
 20
0.0
 30
0.0
  3
*D15
  1

  0
LINE
  5
FCC
330
99C
100
AcDbEntity
  8
AM_5
100
AcDbLine
 10
567.4079982637232
 20
719.6597433969039
 30
0.0
 11
567.4079982637232
 21
770.773833463591
 31
0.0
  0
LINE
  5
FCD
330
99C
100
AcDbEntity
  8
AM_5
100
AcDbLine
 10
773.4079982637234
 20
719.6597433969039
 30
0.0
 11
773.4079982637234
 21
770.773833463591
 31
0.0
  0
LINE
  5
FCE
330
99C
100
AcDbEntity
  8
AM_5
100
AcDbLine
 10
572.4079982637232
 20
766.773833463591
 30
0.0
 11
768.4079982637232
 21
766.773833463591
 31
0.0
  0
SOLID
  5
FCF
330
99C
100
AcDbEntity
  8
AM_5
100
AcDbTrace
 10
572.4079982637232
 20
767.6071667969242
 30
0.0
 11
572.4079982637232
 21
765.9405001302576
 31
0.0
 12
567.4079982637232
 22
766.773833463591
 32
0.0
 13
567.4079982637232
 23
766.773833463591
 33
0.0
  0
SOLID
  5
FD0
330
99C
100
AcDbEntity
  8
AM_5
100
AcDbTrace
 10
768.4079982637232
 20
767.6071667969242
 30
0.0
 11
768.4079982637232
 21
765.9405001302576
 31
0.0
 12
773.4079982637234
 22
766.773833463591
 32
0.0
 13
773.4079982637234
 23
766.773833463591
 33
0.0
  0
MTEXT
  5
FD1
330
99C
100
AcDbEntity
  8
AM_5
 62
     2
100
AcDbMText
 10
688.7138943741013
 20
773.623833463591
 30
0.0
 40
7.0
 41
0.0
 71
     5
 72
     1
  1
(%%c206)
 73
     1
 44
1.0
  0
POINT
  5
FD2
330
99C
100
AcDbEntity
  8
DEFPOINTS
 62
     0
100
AcDbPoint
 10
567.4079982637232
 20
719.6597433969039
 30
0.0
  0
POINT
  5
FD3
330
99C
100
AcDbEntity
  8
DEFPOINTS
 62
     0
100
AcDbPoint
 10
773.4079982637234
 20
719.6597433969039
 30
0.0
  0
POINT
  5
FD4
330
99C
100
AcDbEntity
  8
DEFPOINTS
 62
     0
100
AcDbPoint
 10
773.4079982637234
 20
766.773833463591
 30
0.0
  0
ENDBLK
  5
9A7
330
99C
100
AcDbEntity
  8
0
100
AcDbBlockEnd
  0
BLOCK
  5
9B2
330
9A8
100
AcDbEntity
  8
0
100
AcDbBlockBegin
  2
*D16
 70
     1
 10
0.0
 20
0.0
 30
0.0
  3
*D16
  1

  0
LINE
  5
A09
330
9A8
100
AcDbEntity
  8
AM_5
100
AcDbLine
 10
1023.858701049694
 20
642.1349574161641
 30
0.0
 11
945.0201721769898
 21
642.1349574161641
 31
0.0
  0
LINE
  5
A0A
330
9A8
100
AcDbEntity
  8
AM_5
100
AcDbLine
 10
964.9396560608638
 20
714.2878967865478
 30
0.0
 11
945.0201721769898
 21
714.2878967865478
 31
0.0
  0
LINE
  5
A0B
330
9A8
100
AcDbEntity
  8
AM_5
100
AcDbLine
 10
949.0201721769899
 20
647.1349574161641
 30
0.0
 11
949.0201721769899
 21
709.2878967865479
 31
0.0
  0
SOLID
  5
A0C
330
9A8
100
AcDbEntity
  8
AM_5
100
AcDbTrace
 10
948.1868388436563
 20
647.1349574161641
 30
0.0
 11
949.8535055103232
 21
647.1349574161641
 31
0.0
 12
949.0201721769899
 22
642.1349574161641
 32
0.0
 13
949.0201721769899
 23
642.1349574161641
 33
0.0
  0
SOLID
  5
A0D
330
9A8
100
AcDbEntity
  8
AM_5
100
AcDbTrace
 10
948.1868388436563
 20
709.2878967865479
 30
0.0
 11
949.8535055103232
 21
709.2878967865479
 31
0.0
 12
949.0201721769899
 22
714.2878967865478
 32
0.0
 13
949.0201721769899
 23
714.2878967865478
 33
0.0
  0
MTEXT
  5
A0E
330
9A8
100
AcDbEntity
  8
AM_5
 62
     2
100
AcDbMText
 10
942.1701721769895
 20
678.211427101356
 30
0.0
 40
7.0
 41
0.0
 71
     5
 72
     1
  1
(72)
 11
0.0000000000000001
 21
1.0
 31
0.0
 73
     1
 44
1.0
  0
POINT
  5
A0F
330
9A8
100
AcDbEntity
  8
DEFPOINTS
 62
     0
100
AcDbPoint
 10
1023.858701049694
 20
642.1349574161641
 30
0.0
  0
POINT
  5
A10
330
9A8
100
AcDbEntity
  8
DEFPOINTS
 62
     0
100
AcDbPoint
 10
964.9396560608638
 20
714.2878967865478
 30
0.0
  0
POINT
  5
A11
330
9A8
100
AcDbEntity
  8
DEFPOINTS
 62
     0
100
AcDbPoint
 10
949.0201721769899
 20
714.2878967865478
 30
0.0
  0
ENDBLK
  5
9B3
330
9A8
100
AcDbEntity
  8
0
100
AcDbBlockEnd
  0
BLOCK
  5
9BE
330
9B4
100
AcDbEntity
  8
0
100
AcDbBlockBegin
  2
*D17
 70
     1
 10
0.0
 20
0.0
 30
0.0
  3
*D17
  1

  0
LINE
  5
A12
330
9B4
100
AcDbEntity
  8
AM_5
100
AcDbLine
 10
1023.858701049694
 20
642.1349574161641
 30
0.0
 11
798.1186523330523
 21
642.1349574161641
 31
0.0
  0
LINE
  5
A13
330
9B4
100
AcDbEntity
  8
AM_5
100
AcDbLine
 10
1023.858701049696
 20
1157.408182558649
 30
0.0
 11
798.1186523330525
 21
1157.408182558649
 31
0.0
  0
LINE
  5
A14
330
9B4
100
AcDbEntity
  8
AM_5
100
AcDbLine
 10
802.1186523330523
 20
647.1349574161641
 30
0.0
 11
802.1186523330525
 21
1152.40818255865
 31
0.0
  0
SOLID
  5
A15
330
9B4
100
AcDbEntity
  8
AM_5
100
AcDbTrace
 10
801.2853189997191
 20
647.1349574161641
 30
0.0
 11
802.9519856663858
 21
647.1349574161641
 31
0.0
 12
802.1186523330523
 22
642.1349574161641
 32
0.0
 13
802.1186523330523
 23
642.1349574161641
 33
0.0
  0
SOLID
  5
A16
330
9B4
100
AcDbEntity
  8
AM_5
100
AcDbTrace
 10
801.2853189997191
 20
1152.40818255865
 30
0.0
 11
802.9519856663858
 21
1152.40818255865
 31
0.0
 12
802.1186523330525
 22
1157.408182558649
 32
0.0
 13
802.1186523330525
 23
1157.408182558649
 33
0.0
  0
MTEXT
  5
A17
330
9B4
100
AcDbEntity
  8
AM_5
 62
     2
100
AcDbMText
 10
795.6186523330523
 20
899.7715699874072
 30
0.0
 40
7.0
 41
0.0
 71
     5
 72
     1
  1
515{}{\H0.71x;\C3;%%p5}
 11
0.0000000000000001
 21
1.0
 31
0.0
 73
     1
 44
1.0
  0
POINT
  5
A18
330
9B4
100
AcDbEntity
  8
DEFPOINTS
 62
     0
100
AcDbPoint
 10
1023.858701049694
 20
642.1349574161641
 30
0.0
  0
POINT
  5
A19
330
9B4
100
AcDbEntity
  8
DEFPOINTS
 62
     0
100
AcDbPoint
 10
1023.858701049696
 20
1157.408182558649
 30
0.0
  0
POINT
  5
A1A
330
9B4
100
AcDbEntity
  8
DEFPOINTS
 62
     0
100
AcDbPoint
 10
802.1186523330525
 20
1157.408182558649
 30
0.0
  0
ENDBLK
  5
9BF
330
9B4
100
AcDbEntity
  8
0
100
AcDbBlockEnd
  0
BLOCK
  5
F17
330
F0D
100
AcDbEntity
  8
0
100
AcDbBlockBegin
  2
*D18
 70
     1
 10
0.0
 20
0.0
 30
0.0
  3
*D18
  1

  0
LINE
  5
FD5
330
F0D
100
AcDbEntity
  8
AM_5
100
AcDbLine
 10
670.4079982640562
 20
433.8456422187427
 30
0.0
 11
915.5703144799606
 21
433.8456422187427
 31
0.0
  0
LINE
  5
FD6
330
F0D
100
AcDbEntity
  8
AM_5
100
AcDbLine
 10
694.2247452005135
 20
1152.018861361228
 30
0.0
 11
915.5703144799606
 21
1152.018861361228
 31
0.0
  0
LINE
  5
FD7
330
F0D
100
AcDbEntity
  8
AM_5
100
AcDbLine
 10
911.5703144799605
 20
438.8456422187426
 30
0.0
 11
911.5703144799606
 21
1147.018861361228
 31
0.0
  0
SOLID
  5
FD8
330
F0D
100
AcDbEntity
  8
AM_5
100
AcDbTrace
 10
910.7369811466272
 20
438.8456422187426
 30
0.0
 11
912.4036478132939
 21
438.8456422187426
 31
0.0
 12
911.5703144799605
 22
433.8456422187427
 32
0.0
 13
911.5703144799605
 23
433.8456422187427
 33
0.0
  0
SOLID
  5
FD9
330
F0D
100
AcDbEntity
  8
AM_5
100
AcDbTrace
 10
910.7369811466272
 20
1147.018861361228
 30
0.0
 11
912.4036478132939
 21
1147.018861361228
 31
0.0
 12
911.5703144799606
 22
1152.018861361228
 32
0.0
 13
911.5703144799606
 23
1152.018861361228
 33
0.0
  0
MTEXT
  5
FDA
330
F0D
100
AcDbEntity
  8
AM_5
 62
     2
100
AcDbMText
 10
904.7203144799604
 20
792.9322517899856
 30
0.0
 40
7.0
 41
0.0
 71
     5
 72
     1
  1
(718)
 11
0.0000000000000001
 21
1.0
 31
0.0
 73
     1
 44
1.0
  0
POINT
  5
FDB
330
F0D
100
AcDbEntity
  8
DEFPOINTS
 62
     0
100
AcDbPoint
 10
670.4079982640562
 20
433.8456422187427
 30
0.0
  0
POINT
  5
FDC
330
F0D
100
AcDbEntity
  8
DEFPOINTS
 62
     0
100
AcDbPoint
 10
694.2247452005135
 20
1152.018861361228
 30
0.0
  0
POINT
  5
FDD
330
F0D
100
AcDbEntity
  8
DEFPOINTS
 62
     0
100
AcDbPoint
 10
911.5703144799606
 20
1152.018861361228
 30
0.0
  0
ENDBLK
  5
F18
330
F0D
100
AcDbEntity
  8
0
100
AcDbBlockEnd
  0
BLOCK
  5
F2F
330
F25
100
AcDbEntity
  8
0
100
AcDbBlockBegin
  2
*D19
 70
     1
 10
0.0
 20
0.0
 30
0.0
  3
*D19
  1

  0
LINE
  5
FFA
330
F25
100
AcDbEntity
  8
AM_5
100
AcDbLine
 10
662.1549465062437
 20
433.8456422187427
 30
0.0
 11
886.3697350846051
 21
433.8456422187427
 31
0.0
  0
LINE
  5
FFB
330
F25
100
AcDbEntity
  8
AM_5
100
AcDbLine
 10
791.9808589711591
 20
601.8456422187429
 30
0.0
 11
886.3697350846051
 21
601.8456422187429
 31
0.0
  0
LINE
  5
FFC
330
F25
100
AcDbEntity
  8
AM_5
100
AcDbLine
 10
882.3697350846053
 20
438.8456422187426
 30
0.0
 11
882.3697350846053
 21
596.8456422187429
 31
0.0
  0
SOLID
  5
FFD
330
F25
100
AcDbEntity
  8
AM_5
100
AcDbTrace
 10
881.5364017512719
 20
438.8456422187426
 30
0.0
 11
883.2030684179386
 21
438.8456422187426
 31
0.0
 12
882.3697350846053
 22
433.8456422187427
 32
0.0
 13
882.3697350846053
 23
433.8456422187427
 33
0.0
  0
SOLID
  5
FFE
330
F25
100
AcDbEntity
  8
AM_5
100
AcDbTrace
 10
881.5364017512719
 20
596.8456422187429
 30
0.0
 11
883.2030684179386
 21
596.8456422187429
 31
0.0
 12
882.3697350846053
 22
601.8456422187429
 32
0.0
 13
882.3697350846053
 23
601.8456422187429
 33
0.0
  0
MTEXT
  5
FFF
330
F25
100
AcDbEntity
  8
AM_5
 62
     2
100
AcDbMText
 10
875.5197350846051
 20
517.845642218743
 30
0.0
 40
7.0
 41
0.0
 71
     5
 72
     1
  1
(168)
 11
0.0000000000000001
 21
1.0
 31
0.0
 73
     1
 44
1.0
  0
POINT
  5
1000
330
F25
100
AcDbEntity
  8
DEFPOINTS
 62
     0
100
AcDbPoint
 10
662.1549465062437
 20
433.8456422187427
 30
0.0
  0
POINT
  5
1001
330
F25
100
AcDbEntity
  8
DEFPOINTS
 62
     0
100
AcDbPoint
 10
791.9808589711591
 20
601.8456422187429
 30
0.0
  0
POINT
  5
1002
330
F25
100
AcDbEntity
  8
DEFPOINTS
 62
     0
100
AcDbPoint
 10
882.3697350846053
 20
601.8456422187429
 30
0.0
  0
ENDBLK
  5
F30
330
F25
100
AcDbEntity
  8
0
100
AcDbBlockEnd
  0
BLOCK
  5
10E7
330
10DD
100
AcDbEntity
  8
0
100
AcDbBlockBegin
  2
*D21
 70
     1
 10
0.0
 20
0.0
 30
0.0
  3
*D21
  1

  0
LINE
  5
10F4
330
10DD
100
AcDbEntity
  8
AM_5
100
AcDbLine
 10
1455.407998264056
 20
571.0197402724097
 30
0.0
 11
1455.407998264056
 21
730.6294941238081
 31
0.0
  0
LINE
  5
10F5
330
10DD
100
AcDbEntity
  8
AM_5
100
AcDbLine
 10
1085.407998264056
 20
573.3398444218795
 30
0.0
 11
1085.407998264056
 21
730.6294941238081
 31
0.0
  0
LINE
  5
10F6
330
10DD
100
AcDbEntity
  8
AM_5
100
AcDbLine
 10
1450.407998264056
 20
726.6294941238081
 30
0.0
 11
1090.407998264056
 21
726.6294941238081
 31
0.0
  0
SOLID
  5
10F7
330
10DD
100
AcDbEntity
  8
AM_5
100
AcDbTrace
 10
1450.407998264056
 20
727.4628274571415
 30
0.0
 11
1450.407998264056
 21
725.7961607904747
 31
0.0
 12
1455.407998264056
 22
726.6294941238081
 32
0.0
 13
1455.407998264056
 23
726.6294941238081
 33
0.0
  0
SOLID
  5
10F8
330
10DD
100
AcDbEntity
  8
AM_5
100
AcDbTrace
 10
1090.407998264056
 20
727.4628274571415
 30
0.0
 11
1090.407998264056
 21
725.7961607904747
 31
0.0
 12
1085.407998264056
 22
726.6294941238081
 32
0.0
 13
1085.407998264056
 23
726.6294941238081
 33
0.0
  0
MTEXT
  5
10F9
330
10DD
100
AcDbEntity
  8
AM_5
 62
     2
100
AcDbMText
 10
1270.407998264056
 20
733.4794941238081
 30
0.0
 40
7.0
 41
0.0
 71
     5
 72
     1
  1
(370)
 73
     1
 44
1.0
  0
POINT
  5
10FA
330
10DD
100
AcDbEntity
  8
DEFPOINTS
 62
     0
100
AcDbPoint
 10
1455.407998264056
 20
571.0197402724097
 30
0.0
  0
POINT
  5
10FB
330
10DD
100
AcDbEntity
  8
DEFPOINTS
 62
     0
100
AcDbPoint
 10
1085.407998264056
 20
573.3398444218795
 30
0.0
  0
POINT
  5
10FC
330
10DD
100
AcDbEntity
  8
DEFPOINTS
 62
     0
100
AcDbPoint
 10
1085.407998264056
 20
726.6294941238081
 30
0.0
  0
ENDBLK
  5
10E8
330
10DD
100
AcDbEntity
  8
0
100
AcDbBlockEnd
  0
ENDSEC
  0
SECTION
  2
ENTITIES
  0
ARC
  5
785
330
1F
100
AcDbEntity
  8
AM_0
100
AcDbCircle
 10
751.557998264054
 20
936.5657104627102
 30
0.0
 40
21.85
100
AcDbArc
 50
0.0
 51
64.04263171655872
1001
GENIUS_GENODEF_13
1002
{
1000
HIER
1070
     0
1002
}
1002
{
1000
MANEDIT
1070
     0
1002
}
1002
{
1000
NOSEL
1070
     0
1002
}
1002
{
1000
BEHIND
1070
     0
1002
}
1002
{
1000
REACTOR
1002
}
1001
GENIUS_GENOBJ-N-FIL_13
1002
{
1000
OWNER
1000
GEN
1002
}
  0
ARC
  5
786
330
1F
100
AcDbEntity
  8
AM_0
100
AcDbCircle
 10
751.557998264054
 20
936.5657104627102
 30
0.0
 40
20.1
100
AcDbArc
 50
0.0
 51
64.04263171655872
1001
GENIUS_GENODEF_13
1002
{
1000
HIER
1070
     0
1002
}
1002
{
1000
MANEDIT
1070
     0
1002
}
1002
{
1000
NOSEL
1070
     0
1002
}
1002
{
1000
BEHIND
1070
     0
1002
}
1002
{
1000
REACTOR
1002
}
1001
GENIUS_GENOBJ-N-FIL_13
1002
{
1000
OWNER
1000
GEN
1002
}
  0
LINE
  5
787
330
1F
100
AcDbEntity
  8
AM_0
 62
     7
100
AcDbLine
 10
773.4079982640562
 20
936.5657104627102
 30
0.0
 11
773.4079982640562
 21
922.6188673612282
 31
0.0
  0
LINE
  5
788
330
1F
100
AcDbEntity
  8
AM_0
 62
     7
100
AcDbLine
 10
773.4079982640562
 20
919.9659279908352
 30
0.0
 11
773.4079982640562
 21
878.6188673612283
 31
0.0
  0
LINE
  5
789
330
1F
100
AcDbEntity
  8
AM_0
 62
     7
100
AcDbLine
 10
773.4079982640562
 20
878.6188673612283
 30
0.0
 11
773.4079982640562
 21
739.1188673612282
 31
0.0
  0
LINE
  5
78A
330
1F
100
AcDbEntity
  8
AM_0
 62
     7
100
AcDbLine
 10
771.6579982640524
 20
936.5657104627109
 30
0.0
 11
771.6579982640524
 21
922.752841957438
 31
0.0
  0
LINE
  5
78B
330
1F
100
AcDbEntity
  8
AM_0
 62
     7
100
AcDbLine
 10
771.6579982640524
 20
919.9659279908352
 30
0.0
 11
771.6579982640562
 21
878.7528419574428
 31
0.0
  0
LINE
  5
78C
330
1F
100
AcDbEntity
  8
AM_0
 62
     7
100
AcDbLine
 10
771.6579982640562
 20
878.7528419574428
 30
0.0
 11
771.6579982640562
 21
739.252841957444
 31
0.0
  0
ARC
  5
78D
330
1F
100
AcDbEntity
  8
AM_0
100
AcDbCircle
 10
589.2579982640548
 20
936.5657104627102
 30
0.0
 40
21.85
100
AcDbArc
 50
115.9573682834413
 51
180.0
1001
GENIUS_GENODEF_13
1002
{
1000
HIER
1070
     0
1002
}
1002
{
1000
MANEDIT
1070
     0
1002
}
1002
{
1000
NOSEL
1070
     0
1002
}
1002
{
1000
BEHIND
1070
     0
1002
}
1002
{
1000
REACTOR
1002
}
1001
GENIUS_GENOBJ-N-FIL_13
1002
{
1000
OWNER
1000
GEN
1002
}
  0
ARC
  5
78E
330
1F
100
AcDbEntity
  8
AM_0
100
AcDbCircle
 10
589.2579982640548
 20
936.5657104627102
 30
0.0
 40
20.1
100
AcDbArc
 50
115.9573682834413
 51
180.0
1001
GENIUS_GENODEF_13
1002
{
1000
HIER
1070
     0
1002
}
1002
{
1000
MANEDIT
1070
     0
1002
}
1002
{
1000
NOSEL
1070
     0
1002
}
1002
{
1000
BEHIND
1070
     0
1002
}
1002
{
1000
REACTOR
1002
}
1001
GENIUS_GENOBJ-N-FIL_13
1002
{
1000
OWNER
1000
GEN
1002
}
  0
LINE
  5
78F
330
1F
100
AcDbEntity
  8
AM_0
 62
     7
100
AcDbLine
 10
567.4079982640562
 20
936.5657104627102
 30
0.0
 11
567.4079982640562
 21
922.6188673612282
 31
0.0
  0
LINE
  5
790
330
1F
100
AcDbEntity
  8
AM_0
 62
     7
100
AcDbLine
 10
567.4079982640562
 20
919.9659279908352
 30
0.0
 11
567.4079982640562
 21
878.6188673612283
 31
0.0
  0
LINE
  5
791
330
1F
100
AcDbEntity
  8
AM_0
 62
     7
100
AcDbLine
 10
567.4079982640562
 20
878.6188673612283
 30
0.0
 11
567.4079982640562
 21
739.1188673612282
 31
0.0
  0
LINE
  5
792
330
1F
100
AcDbEntity
  8
AM_0
 62
     7
100
AcDbLine
 10
569.1579982640562
 20
936.5657104627102
 30
0.0
 11
569.1579982640562
 21
922.7528419574442
 31
0.0
  0
LINE
  5
793
330
1F
100
AcDbEntity
  8
AM_0
 62
     7
100
AcDbLine
 10
569.1579982640562
 20
919.9659279908344
 30
0.0
 11
569.1579982640562
 21
878.7528419574432
 31
0.0
  0
LINE
  5
794
330
1F
100
AcDbEntity
  8
AM_0
 62
     7
100
AcDbLine
 10
569.1579982640562
 20
878.7528419574432
 30
0.0
 11
569.1579982640562
 21
739.1188673612282
 31
0.0
  0
ARC
  5
795
330
1F
100
AcDbEntity
  8
AM_0
100
AcDbCircle
 10
670.4079982640562
 20
769.8688673612282
 30
0.0
 40
207.25
100
AcDbArc
 50
64.04263171655872
 51
115.9573682834413
  0
ARC
  5
796
330
1F
100
AcDbEntity
  8
AM_0
100
AcDbCircle
 10
670.4079982640562
 20
769.8688673612282
 30
0.0
 40
205.5
100
AcDbArc
 50
64.04263171655872
 51
115.9573682834413
  0
ARC
  5
797
330
1F
100
AcDbEntity
  8
AM_0
100
AcDbCircle
 10
751.557998264054
 20
502.3987991172607
 30
0.0
 40
21.85
100
AcDbArc
 50
295.9573682834413
 51
0.0
1001
GENIUS_GENODEF_13
1002
{
1000
HIER
1070
     0
1002
}
1002
{
1000
MANEDIT
1070
     0
1002
}
1002
{
1000
NOSEL
1070
     0
1002
}
1002
{
1000
BEHIND
1070
     0
1002
}
1002
{
1000
REACTOR
1002
}
1001
GENIUS_GENOBJ-N-FIL_13
1002
{
1000
OWNER
1000
GEN
1002
}
  0
ARC
  5
798
330
1F
100
AcDbEntity
  8
AM_0
100
AcDbCircle
 10
751.557998264054
 20
502.3987991172607
 30
0.0
 40
20.1
100
AcDbArc
 50
295.9573682834413
 51
0.0
1001
GENIUS_GENODEF_13
1002
{
1000
HIER
1070
     0
1002
}
1002
{
1000
MANEDIT
1070
     0
1002
}
1002
{
1000
NOSEL
1070
     0
1002
}
1002
{
1000
BEHIND
1070
     0
1002
}
1002
{
1000
REACTOR
1002
}
1001
GENIUS_GENOBJ-N-FIL_13
1002
{
1000
OWNER
1000
GEN
1002
}
  0
ARC
  5
799
330
1F
100
AcDbEntity
  8
AM_0
100
AcDbCircle
 10
670.4079982640562
 20
669.0956422187428
 30
0.0
 40
207.25
100
AcDbArc
 50
270.0
 51
295.9573682834413
  0
ARC
  5
79A
330
1F
100
AcDbEntity
  8
AM_0
100
AcDbCircle
 10
670.4079982640562
 20
669.0956422187428
 30
0.0
 40
205.5
100
AcDbArc
 50
270.0
 51
295.9573682834413
  0
ARC
  5
79B
330
1F
100
AcDbEntity
  8
AM_0
100
AcDbCircle
 10
589.2579982640548
 20
502.3987991172607
 30
0.0
 40
21.85
100
AcDbArc
 50
180.0
 51
244.0426317165587
1001
GENIUS_GENODEF_13
1002
{
1000
HIER
1070
     0
1002
}
1002
{
1000
MANEDIT
1070
     0
1002
}
1002
{
1000
NOSEL
1070
     0
1002
}
1002
{
1000
BEHIND
1070
     0
1002
}
1002
{
1000
REACTOR
1002
}
1001
GENIUS_GENOBJ-N-FIL_13
1002
{
1000
OWNER
1000
GEN
1002
}
  0
ARC
  5
79C
330
1F
100
AcDbEntity
  8
AM_0
100
AcDbCircle
 10
589.2579982640548
 20
502.3987991172607
 30
0.0
 40
20.1
100
AcDbArc
 50
180.0
 51
244.0426317165587
1001
GENIUS_GENODEF_13
1002
{
1000
HIER
1070
     0
1002
}
1002
{
1000
MANEDIT
1070
     0
1002
}
1002
{
1000
NOSEL
1070
     0
1002
}
1002
{
1000
BEHIND
1070
     0
1002
}
1002
{
1000
REACTOR
1002
}
1001
GENIUS_GENOBJ-N-FIL_13
1002
{
1000
OWNER
1000
GEN
1002
}
  0
ARC
  5
79D
330
1F
100
AcDbEntity
  8
AM_0
100
AcDbCircle
 10
670.4079982640562
 20
669.0956422187428
 30
0.0
 40
207.25
100
AcDbArc
 50
244.0426317165587
 51
270.0
  0
ARC
  5
79E
330
1F
100
AcDbEntity
  8
AM_0
100
AcDbCircle
 10
670.4079982640562
 20
669.0956422187428
 30
0.0
 40
205.5
100
AcDbArc
 50
244.0426317165587
 51
270.0
  0
LINE
  5
79F
330
1F
100
AcDbEntity
  8
AM_0
 62
     7
100
AcDbLine
 10
773.4079982640562
 20
739.1188673612282
 30
0.0
 11
773.4079982640562
 21
658.9956422187595
 31
0.0
  0
LINE
  5
7A0
330
1F
100
AcDbEntity
  8
AM_0
 62
     7
100
AcDbLine
 10
773.4079982640562
 20
544.6956422187391
 30
0.0
 11
773.4079982640562
 21
518.9985815891353
 31
0.0
  0
LINE
  5
7A1
330
1F
100
AcDbEntity
  8
AM_0
 62
     7
100
AcDbLine
 10
773.4079982640562
 20
516.3456422187423
 30
0.0
 11
773.4079982640562
 21
502.3987991172612
 31
0.0
  0
LINE
  5
7A2
330
1F
100
AcDbEntity
  8
AM_0
 62
     7
100
AcDbLine
 10
771.6579982640562
 20
739.252841957444
 30
0.0
 11
771.6579982640562
 21
656.2201905603609
 31
0.0
  0
LINE
  5
7A3
330
1F
100
AcDbEntity
  8
AM_0
 62
     7
100
AcDbLine
 10
771.6579982640562
 20
547.4710938771377
 30
0.0
 11
771.6579982640562
 21
518.9985815891353
 31
0.0
  0
LINE
  5
7A4
330
1F
100
AcDbEntity
  8
AM_0
 62
     7
100
AcDbLine
 10
771.6579982640562
 20
516.2116676225291
 30
0.0
 11
771.6579982640562
 21
502.3987991172612
 31
0.0
  0
LINE
  5
7A5
330
1F
100
AcDbEntity
  8
AM_0
 62
     7
100
AcDbLine
 10
567.4079982640562
 20
739.1188673612282
 30
0.0
 11
567.4079982640562
 21
658.995642218742
 31
0.0
  0
LINE
  5
7A6
330
1F
100
AcDbEntity
  8
AM_0
 62
     7
100
AcDbLine
 10
567.4079982640562
 20
544.6956422187422
 30
0.0
 11
567.4079982640562
 21
518.9985815891357
 31
0.0
  0
LINE
  5
7A7
330
1F
100
AcDbEntity
  8
AM_0
 62
     7
100
AcDbLine
 10
567.4079982640562
 20
516.3456422187423
 30
0.0
 11
567.4079982640562
 21
502.3987991172607
 31
0.0
  0
LINE
  5
7A8
330
1F
100
AcDbEntity
  8
AM_0
 62
     7
100
AcDbLine
 10
569.1579982640562
 20
739.1188673612282
 30
0.0
 11
569.1579982640562
 21
656.2201905603411
 31
0.0
  0
LINE
  5
7A9
330
1F
100
AcDbEntity
  8
AM_0
 62
     7
100
AcDbLine
 10
569.1579982640562
 20
547.4710938771427
 30
0.0
 11
569.1579982640562
 21
518.998581589136
 31
0.0
  0
LINE
  5
7AA
330
1F
100
AcDbEntity
  8
AM_0
 62
     7
100
AcDbLine
 10
569.1579982640562
 20
516.2116676225255
 30
0.0
 11
569.1579982640562
 21
502.3987991172607
 31
0.0
  0
LINE
  5
7D3
330
1F
100
AcDbEntity
  8
AM_0
100
AcDbLine
 10
773.4079982640562
 20
919.9659279908352
 30
0.0
 11
771.6579982640562
 21
919.9659279908352
 31
0.0
  0
LINE
  5
7D4
330
1F
100
AcDbEntity
  8
AM_0
100
AcDbLine
 10
771.6579982640562
 20
919.9659279908352
 30
0.0
 11
773.2405300187877
 21
921.9938673612283
 31
0.0
  0
LINE
  5
7D5
330
1F
100
AcDbEntity
  8
AM_0
100
AcDbLine
 10
769.9079982640562
 20
919.7217530441987
 30
0.0
 11
771.6579982640562
 21
922.7528419574442
 31
0.0
  0
ARC
  5
7D6
330
1F
100
AcDbEntity
  8
AM_0
100
AcDbCircle
 10
772.1579982640562
 20
922.6188673612282
 30
0.0
 40
1.25
100
AcDbArc
 50
329.999999999986
 51
0.0
1001
GENIUS_GENODEF_13
1002
{
1000
HIER
1070
     0
1002
}
1002
{
1000
MANEDIT
1070
     0
1002
}
1002
{
1000
NOSEL
1070
     0
1002
}
1002
{
1000
BEHIND
1070
     0
1002
}
1002
{
1000
REACTOR
1002
}
1001
GENIUS_GENOBJ-N-FIL_13
1002
{
1000
OWNER
1000
GEN
1002
}
  0
LINE
  5
7D7
330
1F
100
AcDbEntity
  8
AM_0
 62
     7
100
AcDbLine
 10
769.9079982640562
 20
919.7217530442015
 30
0.0
 11
769.9079982640526
 21
913.1188673612282
 31
0.0
  0
LINE
  5
7D8
330
1F
100
AcDbEntity
  8
AM_0
100
AcDbLine
 10
569.1579982640562
 20
919.9659279908352
 30
0.0
 11
567.5754665093246
 21
921.9938673612283
 31
0.0
  0
LINE
  5
7D9
330
1F
100
AcDbEntity
  8
AM_0
100
AcDbLine
 10
570.9079982640562
 20
919.7217530441903
 30
0.0
 11
569.0910109659474
 21
922.8688673612271
 31
0.0
  0
ARC
  5
7DA
330
1F
100
AcDbEntity
  8
AM_0
100
AcDbCircle
 10
568.6579982640562
 20
922.6188673612282
 30
0.0
 40
1.25
100
AcDbArc
 50
180.0
 51
210.0000000000139
1001
GENIUS_GENODEF_13
1002
{
1000
HIER
1070
     0
1002
}
1002
{
1000
MANEDIT
1070
     0
1002
}
1002
{
1000
NOSEL
1070
     0
1002
}
1002
{
1000
BEHIND
1070
     0
1002
}
1002
{
1000
REACTOR
1002
}
1001
GENIUS_GENOBJ-N-FIL_13
1002
{
1000
OWNER
1000
GEN
1002
}
  0
LINE
  5
7DB
330
1F
100
AcDbEntity
  8
AM_0
 62
     7
100
AcDbLine
 10
570.9079982640562
 20
919.7217530441887
 30
0.0
 11
570.9079982640562
 21
913.1188673612287
 31
0.0
  0
LINE
  5
7DC
330
1F
100
AcDbEntity
  8
0
100
AcDbLine
 10
570.9079982640562
 20
913.1188673612282
 30
0.0
 11
569.1579982640562
 21
913.1188673612282
 31
0.0
  0
LINE
  5
7DD
330
1F
100
AcDbEntity
  8
0
100
AcDbLine
 10
567.4079982640562
 20
919.9659279908352
 30
0.0
 11
569.1579982640562
 21
919.9659279908344
 31
0.0
  0
LINE
  5
7DE
330
1F
100
AcDbEntity
  8
0
100
AcDbLine
 10
769.9079982640526
 20
913.1188673612282
 30
0.0
 11
771.6579982640562
 21
913.1188673612282
 31
0.0
  0
LINE
  5
7DF
330
1F
100
AcDbEntity
  8
0
100
AcDbLine
 10
769.9079982640526
 20
913.1188673612282
 30
0.0
 11
570.9079982640562
 21
913.1188673612282
 31
0.0
  0
LINE
  5
7EC
330
1F
100
AcDbEntity
  8
AM_0
100
AcDbLine
 10
773.4079982640562
 20
518.9985815891353
 30
0.0
 11
771.6579982640562
 21
518.9985815891353
 31
0.0
  0
LINE
  5
7ED
330
1F
100
AcDbEntity
  8
AM_0
100
AcDbLine
 10
771.6579982640562
 20
518.9985815891353
 30
0.0
 11
773.2405300187877
 21
516.9706422187423
 31
0.0
  0
LINE
  5
7EE
330
1F
100
AcDbEntity
  8
AM_0
100
AcDbLine
 10
769.9079982640562
 20
519.2427565357716
 30
0.0
 11
771.6579982640562
 21
516.2116676225264
 31
0.0
  0
ARC
  5
7EF
330
1F
100
AcDbEntity
  8
AM_0
100
AcDbCircle
 10
772.1579982640562
 20
516.3456422187423
 30
0.0
 40
1.25
100
AcDbArc
 50
0.0
 51
30.00000000001044
1001
GENIUS_GENODEF_13
1002
{
1000
HIER
1070
     0
1002
}
1002
{
1000
MANEDIT
1070
     0
1002
}
1002
{
1000
NOSEL
1070
     0
1002
}
1002
{
1000
BEHIND
1070
     0
1002
}
1002
{
1000
REACTOR
1002
}
1001
GENIUS_GENOBJ-N-FIL_13
1002
{
1000
OWNER
1000
GEN
1002
}
  0
LINE
  5
7F0
330
1F
100
AcDbEntity
  8
AM_0
 62
     7
100
AcDbLine
 10
769.9079982640562
 20
519.2427565357689
 30
0.0
 11
769.9079982640526
 21
525.8456422187423
 31
0.0
  0
LINE
  5
7F1
330
1F
100
AcDbEntity
  8
AM_0
100
AcDbLine
 10
569.1579982640562
 20
518.9985815891353
 30
0.0
 11
567.5754665093246
 21
516.9706422187423
 31
0.0
  0
LINE
  5
7F2
330
1F
100
AcDbEntity
  8
AM_0
100
AcDbLine
 10
570.9079982640562
 20
519.2427565357802
 30
0.0
 11
569.1579982640562
 21
516.2116676225289
 31
0.0
  0
ARC
  5
7F3
330
1F
100
AcDbEntity
  8
AM_0
100
AcDbCircle
 10
568.6579982640562
 20
516.3456422187423
 30
0.0
 40
1.25
100
AcDbArc
 50
149.999999999986
 51
180.0
1001
GENIUS_GENODEF_13
1002
{
1000
HIER
1070
     0
1002
}
1002
{
1000
MANEDIT
1070
     0
1002
}
1002
{
1000
NOSEL
1070
     0
1002
}
1002
{
1000
BEHIND
1070
     0
1002
}
1002
{
1000
REACTOR
1002
}
1001
GENIUS_GENOBJ-N-FIL_13
1002
{
1000
OWNER
1000
GEN
1002
}
  0
LINE
  5
7F4
330
1F
100
AcDbEntity
  8
AM_0
 62
     7
100
AcDbLine
 10
570.9079982640562
 20
519.2427565357816
 30
0.0
 11
570.9079982640562
 21
525.8456422187419
 31
0.0
  0
LINE
  5
7F5
330
1F
100
AcDbEntity
  8
0
100
AcDbLine
 10
570.9079982640562
 20
525.8456422187423
 30
0.0
 11
569.1579982640562
 21
525.8456422187423
 31
0.0
  0
LINE
  5
7F6
330
1F
100
AcDbEntity
  8
0
100
AcDbLine
 10
567.4079982640562
 20
518.9985815891353
 30
0.0
 11
569.1579982640562
 21
518.9985815891359
 31
0.0
  0
LINE
  5
7F7
330
1F
100
AcDbEntity
  8
0
100
AcDbLine
 10
769.9079982640526
 20
525.8456422187423
 30
0.0
 11
771.6579982640562
 21
525.8456422187423
 31
0.0
  0
LINE
  5
7F8
330
1F
100
AcDbEntity
  8
0
100
AcDbLine
 10
570.9079982640562
 20
525.8456422187423
 30
0.0
 11
769.9079982640526
 21
525.8456422187967
 31
0.0
  0
LINE
  5
806
330
1F
100
AcDbEntity
  8
AM_7
100
AcDbLine
 10
670.4079982640562
 20
1157.964213535537
 30
0.0
 11
670.4079982640562
 21
427.3974196816013
 31
0.0
1001
GENIUS_GENODEF_13
1002
{
1000
HIER
1070
     0
1002
}
1002
{
1000
MANEDIT
1070
     0
1002
}
1002
{
1000
NOSEL
1070
     0
1002
}
1002
{
1000
BEHIND
1070
     0
1002
}
1002
{
1000
OTHER
1070
     0
1002
}
1002
{
1000
REACTOR
1002
}
1001
GENIUS_GENOBJ-N-CEN_13
1002
{
1000
OWNER
1000
GEN
1002
}
1001
GENIUS_GENCEN_19
1002
{
1040
7.5
1002
}
  0
LINE
  5
807
330
1F
100
AcDbEntity
  8
0
100
AcDbLine
 10
485.4079982640562
 20
658.9956422187404
 30
0.0
 11
567.4079982640562
 21
658.9956422187411
 31
0.0
  0
LINE
  5
808
330
1F
100
AcDbEntity
  8
AM_3
100
AcDbLine
 10
485.4079982640562
 20
655.3956422187403
 30
0.0
 11
567.4079982640562
 21
655.3956422187403
 31
0.0
  0
LINE
  5
809
330
1F
100
AcDbEntity
  8
0
100
AcDbLine
 10
485.4079982640562
 20
544.6956422187414
 30
0.0
 11
567.4079982640562
 21
544.6956422187418
 31
0.0
  0
LINE
  5
80A
330
1F
100
AcDbEntity
  8
AM_3
100
AcDbLine
 10
485.4079982640562
 20
548.2956422187419
 30
0.0
 11
567.4079982640562
 21
548.2956422187419
 31
0.0
  0
LINE
  5
80B
330
1F
100
AcDbEntity
  8
AM_7
100
AcDbLine
 10
485.4079982640562
 20
601.845642218743
 30
0.0
 11
595.4321428376585
 21
601.845642218743
 31
0.0
1001
GENIUS_GENOBJ-N-CEN_13
1002
{
1000
OWNER
1000
GEN
1002
}
1001
GENIUS_GENODEF_13
1002
{
1000
HIER
1070
     0
1002
}
1002
{
1000
MANEDIT
1070
     0
1002
}
1002
{
1000
NOSEL
1070
     0
1002
}
1002
{
1000
BEHIND
1070
     0
1002
}
1002
{
1000
OTHER
1070
     0
1002
}
1002
{
1000
REACTOR
1002
}
1001
GENIUS_GENCEN_19
1002
{
1040
3.0
1002
}
  0
LINE
  5
80C
330
1F
100
AcDbEntity
  8
0
100
AcDbLine
 10
855.4079982640562
 20
658.9956422187404
 30
0.0
 11
773.4079982640562
 21
658.9956422187408
 31
0.0
  0
LINE
  5
80D
330
1F
100
AcDbEntity
  8
AM_3
100
AcDbLine
 10
855.4079982640562
 20
655.3956422187403
 30
0.0
 11
773.4079982640562
 21
655.3956422187403
 31
0.0
  0
LINE
  5
80E
330
1F
100
AcDbEntity
  8
0
100
AcDbLine
 10
855.4079982640562
 20
544.6956422187414
 30
0.0
 11
773.4079982640562
 21
544.6956422187414
 31
0.0
  0
LINE
  5
80F
330
1F
100
AcDbEntity
  8
AM_3
100
AcDbLine
 10
855.4079982640562
 20
548.2956422187417
 30
0.0
 11
773.4079982640562
 21
548.2956422187419
 31
0.0
  0
LINE
  5
810
102
{ACAD_REACTORS
330
F32
102
}
330
1F
100
AcDbEntity
  8
AM_7
100
AcDbLine
 10
855.4079982640562
 20
601.845642218743
 30
0.0
 11
746.0488476669937
 21
601.845642218743
 31
0.0
1001
GENIUS_GENOBJ-N-CEN_13
1002
{
1000
OWNER
1000
GEN
1002
}
1001
GENIUS_GENODEF_13
1002
{
1000
HIER
1070
     0
1002
}
1002
{
1000
MANEDIT
1070
     0
1002
}
1002
{
1000
NOSEL
1070
     0
1002
}
1002
{
1000
BEHIND
1070
     0
1002
}
1002
{
1000
OTHER
1070
     0
1002
}
1002
{
1000
REACTOR
1002
}
1001
GENIUS_GENCEN_19
1002
{
1040
3.0
1002
}
  0
LINE
  5
811
330
1F
100
AcDbEntity
  8
0
100
AcDbLine
 10
855.4079982640562
 20
544.6956422187414
 30
0.0
 11
855.4079982640562
 21
658.9956422187408
 31
0.0
  0
LINE
  5
812
330
1F
100
AcDbEntity
  8
0
100
AcDbLine
 10
485.4079982640562
 20
544.6956422187414
 30
0.0
 11
485.4079982640562
 21
658.9956422187408
 31
0.0
  0
INSERT
  5
81F
330
1F
100
AcDbEntity
  8
0
370
     0
100
AcDbBlockReference
  2
DIN_A1
 10
84.53180215884094
 20
91.23171831396758
 30
0.0
 41
2.0
 42
2.0
 43
2.0
1001
GENIUS_GENOREF_13
1005
947
1001
GENIUS_GENODEF_13
1002
{
1000
HIER
1070
     0
1002
}
1002
{
1000
MANEDIT
1070
     0
1002
}
1002
{
1000
NOSEL
1070
     0
1002
}
1002
{
1000
BEHIND
1070
     0
1002
}
1002
{
1000
OTHER
1070
     0
1002
}
1002
{
1000
REACTOR
1002
}
1001
GENIUS_GENOBJ-N-SDF_13
1002
{
1000
OWNER
1000
GEN
1002
}
1001
GENIUS_GENSCREG_15
1040
2.0
1040
1.0
1011
84.53180215884094
1021
91.23171831396758
1031
0.0
1011
1766.531802158841
1021
1279.231718313967
1031
0.0
1070
     3
  0
LINE
  5
87B
330
1F
100
AcDbEntity
  8
AM_7
100
AcDbLine
 10
1270.407998264056
 20
599.6294931138081
 30
0.0
 11
1381.248773686044
 21
599.6294931138081
 31
0.0
1001
GENIUS_GENOREF_13
1005
946
  0
LINE
  5
87C
330
1F
100
AcDbEntity
  8
AM_7
100
AcDbLine
 10
1270.407998264056
 20
599.6294931138081
 30
0.0
 11
1270.407998264056
 21
710.470268535797
 31
0.0
1001
GENIUS_GENOREF_13
1005
946
  0
LINE
  5
87D
330
1F
100
AcDbEntity
  8
AM_7
100
AcDbLine
 10
1270.407998264056
 20
599.6294931138081
 30
0.0
 11
1159.567222842068
 21
599.6294931138081
 31
0.0
1001
GENIUS_GENOREF_13
1005
946
  0
LINE
  5
87E
330
1F
100
AcDbEntity
  8
AM_7
100
AcDbLine
 10
1270.407998264056
 20
599.6294931138081
 30
0.0
 11
1270.407998264056
 21
488.7887176918193
 31
0.0
1001
GENIUS_GENOREF_13
1005
946
  0
CIRCLE
  5
87F
330
1F
100
AcDbEntity
  8
0
100
AcDbCircle
 10
1270.407998264056
 20
599.6294931138081
 30
0.0
 40
103.0
  0
LINE
  5
880
330
1F
100
AcDbEntity
  8
0
100
AcDbLine
 10
1085.407998264056
 20
656.7794931138059
 30
0.0
 11
1184.717406598458
 21
656.7794931138063
 31
0.0
  0
LINE
  5
881
330
1F
100
AcDbEntity
  8
AM_3
100
AcDbLine
 10
1085.407998264056
 20
653.1794931138057
 30
0.0
 11
1182.42278643843
 21
653.1794931138057
 31
0.0
  0
LINE
  5
882
330
1F
100
AcDbEntity
  8
0
100
AcDbLine
 10
1085.407998264056
 20
542.4794931138068
 30
0.0
 11
1184.71740659846
 21
542.4794931138071
 31
0.0
  0
LINE
  5
883
330
1F
100
AcDbEntity
  8
AM_3
100
AcDbLine
 10
1085.407998264056
 20
546.0794931138072
 30
0.0
 11
1182.422786438432
 21
546.0794931138072
 31
0.0
  0
LINE
  5
884
330
1F
100
AcDbEntity
  8
AM_7
100
AcDbLine
 10
1085.407998264056
 20
599.6294931138081
 30
0.0
 11
1163.907998264056
 21
599.6294931138081
 31
0.0
1001
GENIUS_GENOBJ-N-CEN_13
1002
{
1000
OWNER
1000
GEN
1002
}
1001
GENIUS_GENODEF_13
1002
{
1000
HIER
1070
     0
1002
}
1002
{
1000
MANEDIT
1070
     0
1002
}
1002
{
1000
NOSEL
1070
     0
1002
}
1002
{
1000
BEHIND
1070
     0
1002
}
1002
{
1000
OTHER
1070
     0
1002
}
1002
{
1000
REACTOR
1002
}
1001
GENIUS_GENCEN_19
1002
{
1040
3.0
1002
}
  0
LINE
  5
885
102
{ACAD_REACTORS
330
10EA
102
}
330
1F
100
AcDbEntity
  8
0
100
AcDbLine
 10
1085.407998264056
 20
542.4794931138068
 30
0.0
 11
1085.407998264056
 21
656.7794931138061
 31
0.0
  0
LINE
  5
886
330
1F
100
AcDbEntity
  8
0
100
AcDbLine
 10
1455.407998264056
 20
542.4794931138068
 30
0.0
 11
1356.098589929652
 21
542.4794931138068
 31
0.0
  0
LINE
  5
887
330
1F
100
AcDbEntity
  8
0
100
AcDbLine
 10
1455.407998264056
 20
656.7794931138059
 30
0.0
 11
1356.098589929654
 21
656.7794931138061
 31
0.0
  0
LINE
  5
888
330
1F
100
AcDbEntity
  8
AM_3
100
AcDbLine
 10
1455.407998264056
 20
653.1794931138057
 30
0.0
 11
1358.393210089682
 21
653.1794931138057
 31
0.0
  0
LINE
  5
889
330
1F
100
AcDbEntity
  8
AM_3
100
AcDbLine
 10
1455.407998264056
 20
546.0794931138068
 30
0.0
 11
1358.39321008968
 21
546.0794931138072
 31
0.0
  0
LINE
  5
88A
330
1F
100
AcDbEntity
  8
AM_7
100
AcDbLine
 10
1455.407998264056
 20
599.6294931138081
 30
0.0
 11
1376.907998264056
 21
599.6294931138081
 31
0.0
1001
GENIUS_GENOBJ-N-CEN_13
1002
{
1000
OWNER
1000
GEN
1002
}
1001
GENIUS_GENODEF_13
1002
{
1000
HIER
1070
     0
1002
}
1002
{
1000
MANEDIT
1070
     0
1002
}
1002
{
1000
NOSEL
1070
     0
1002
}
1002
{
1000
BEHIND
1070
     0
1002
}
1002
{
1000
OTHER
1070
     0
1002
}
1002
{
1000
REACTOR
1002
}
1001
GENIUS_GENCEN_19
1002
{
1040
3.0
1002
}
  0
LINE
  5
88B
102
{ACAD_REACTORS
330
10EA
102
}
330
1F
100
AcDbEntity
  8
0
100
AcDbLine
 10
1455.407998264056
 20
542.4794931138068
 30
0.0
 11
1455.407998264056
 21
656.7794931138061
 31
0.0
  0
DIMENSION
  5
89E
330
1F
100
AcDbEntity
  8
AM_5
100
AcDbDimension
  2
*D14
 10
460.6314276306625
 20
658.9956422187408
 30
0.0
 11
460.6314276306625
 21
607.40705000404
 31
0.0
 70
   160
  1
(%%c<>)
 71
     5
 42
114.299999999999
  3
AM_DIN$0
100
AcDbAlignedDimension
 13
535.1205734857724
 23
544.6956422187418
 33
0.0
 14
535.1205734857724
 24
658.9956422187408
 34
0.0
 50
90.0
100
AcDbRotatedDimension
1001
ACAD
1000
DSTYLE
1002
{
1070
   286
1070
     0
1070
   284
1070
     8
1070
   274
1070
     2
1070
   272
1070
     2
1070
    40
1040
2.0
1070
    47
1040
5.0
1070
    48
1040
5.0
1070
   271
1070
     1
1002
}
  0
DIMENSION
  5
89F
330
1F
100
AcDbEntity
  8
AM_5
100
AcDbDimension
  2
*D15
 10
773.4079982637234
 20
766.773833463591
 30
0.0
 11
688.7138943741013
 21
766.773833463591
 31
0.0
 70
   160
  1
(%%c<>)
 71
     5
 42
206.0
  3
AM_DIN$0
100
AcDbAlignedDimension
 13
567.4079982637232
 23
719.6597433969039
 33
0.0
 14
773.4079982637234
 24
719.6597433969039
 34
0.0
100
AcDbRotatedDimension
1001
ACAD
1000
DSTYLE
1002
{
1070
    40
1040
2.0
1070
    47
1040
5.0
1070
    48
1040
5.0
1070
   271
1070
     1
1002
}
  0
ARC
  5
90D
330
1F
100
AcDbEntity
  8
0
100
AcDbCircle
 10
479.8455717934687
 20
601.8456422187414
 30
0.0
 40
104.5624264705874
100
AcDbArc
 50
326.8684311465837
 51
33.1315688534163
  0
ARC
  5
90E
330
1F
100
AcDbEntity
  8
0
100
AcDbCircle
 10
860.9704247346364
 20
601.845642218749
 30
0.0
 40
104.5624264705874
100
AcDbArc
 50
146.8684311466157
 51
213.1315688533842
  0
LINE
  5
91A
330
1F
100
AcDbEntity
  8
0
100
AcDbLine
 10
651.4079982640562
 20
998.118867361228
 30
0.0
 11
689.4079982640562
 21
998.118867361228
 31
0.0
  0
LINE
  5
91B
330
1F
100
AcDbEntity
  8
0
100
AcDbLine
 10
689.4079982640562
 20
998.1188673612283
 30
0.0
 11
689.4079982640562
 21
977.1188673612286
 31
0.0
  0
LINE
  5
91C
330
1F
100
AcDbEntity
  8
0
100
AcDbLine
 10
689.4079982640562
 20
977.1188673612281
 30
0.0
 11
651.4079982640562
 21
977.1188673612281
 31
0.0
  0
LINE
  5
91D
330
1F
100
AcDbEntity
  8
0
100
AcDbLine
 10
651.4079982640562
 20
977.1188673612286
 30
0.0
 11
651.4079982640562
 21
998.1188673612283
 31
0.0
  0
LINE
  5
928
330
1F
100
AcDbEntity
  8
0
100
AcDbLine
 10
651.4079982640562
 20
461.8456422187428
 30
0.0
 11
689.4079982640562
 21
461.8456422187428
 31
0.0
  0
LINE
  5
929
330
1F
100
AcDbEntity
  8
0
100
AcDbLine
 10
689.4079982640562
 20
461.8456422187431
 30
0.0
 11
689.4079982640562
 21
440.8456422187431
 31
0.0
  0
LINE
  5
92A
330
1F
100
AcDbEntity
  8
0
100
AcDbLine
 10
689.4079982640562
 20
440.8456422187428
 30
0.0
 11
651.4079982640562
 21
440.8456422187428
 31
0.0
  0
LINE
  5
92B
330
1F
100
AcDbEntity
  8
0
100
AcDbLine
 10
651.4079982640562
 20
440.8456422187431
 30
0.0
 11
651.4079982640562
 21
461.8456422187431
 31
0.0
  0
INSERT
  5
930
330
1F
100
AcDbEntity
  8
0
100
AcDbBlockReference
  2
7
 10
-10175.87323213467
 20
-1409.660437875683
 30
0.0
  0
INSERT
  5
931
330
1F
100
AcDbEntity
  8
0
100
AcDbBlockReference
  2
7
 10
11516.68922866279
 20
-1409.660437875683
 30
0.0
 41
-1.0
  0
POINT
  5
946
330
1F
100
AcDbEntity
  8
0
 60
     1
100
AcDbPoint
 10
-4209.175333228605
 20
-1089.603386666526
 30
0.0
1001
GENIUS_GENODEF_13
1002
{
1000
HIER
1070
    10
1002
}
1002
{
1000
MANEDIT
1070
     0
1002
}
1002
{
1000
NOSEL
1070
     0
1002
}
1002
{
1000
BEHIND
1070
     0
1002
}
1002
{
1000
OTHER
1070
     0
1002
}
1002
{
1000
REACTOR
1002
}
1001
GENIUS_GENOBJ-N-CRS_13
1002
{
1000
OWNER
1000
GEN
1002
}
1001
GENIUS_GENOENT_13
1002
{
1000
MYREF
1005
946
1002
}
1002
{
1000
GRP
1005
0
1002
}
1001
GENIUS_GENOLIS_13
1002
{
1000
ENT
1005
87E
1005
87D
1005
87C
1005
87B
1002
}
  0
POINT
  5
947
330
1F
100
AcDbEntity
  8
0
 60
     1
100
AcDbPoint
 10
-377.407143821807
 20
190.2590173338928
 30
0.0
1001
GENIUS_GENOENT_13
1002
{
1000
MYREF
1005
947
1002
}
1002
{
1000
GRP
1005
0
1002
}
1001
GENIUS_GENOBJ-N-TIT_13
1002
{
1000
OWNER
1000
GEN
1002
}
1001
GENIUS_GENOLIS_13
1002
{
1000
ENT
1005
820
1005
81F
1005
0
1002
}
1001
GENIUS_GENTITLE_13
1002
{
1000
BORDER
1000
DIN_A1
1002
}
1002
{
1000
TITLE
1000
G:\Umgebung_ACAD\MDT2007\Reflex\Dwg\Title\REFLEX_EDBTITLE
1002
}
1002
{
1000
SCALE
1000
1:2
1002
}
1002
{
1000
TITLESTD
1000
DIN
1002
}
1002
{
1000
HRA
1005
81F
1002
}
1002
{
1000
HTIT
1005
820
1002
}
1002
{
1000
GENIUSID
1005
947
1002
}
1002
{
1000
INVTXTID
1005
0
1002
}
1002
{
1000
UNCHG
1002
{
1000
GEN-TITLE-SIZ
1000
GEN-TITLE-SCA
1002
}
1002
}
1001
GENIUS_GENODEF_13
1002
{
1000
HIER
1070
     1
1002
}
1002
{
1000
MANEDIT
1070
     1
1002
}
1002
{
1000
NOSEL
1070
     0
1002
}
1002
{
1000
BEHIND
1070
     0
1002
}
1002
{
1000
OTHER
1070
     0
1002
}
1002
{
1000
REACTOR
1002
}
  0
LINE
  5
CEF
330
1F
100
AcDbEntity
  8
0
  6
DASHDOT
 62
     7
 48
0.417
100
AcDbLine
 10
1317.797998264056
 20
599.6294931138081
 30
0.0
 11
1301.117990264056
 21
599.6294931138081
 31
0.0
  0
LINE
  5
CF0
330
1F
100
AcDbEntity
  8
0
  6
DASHDOT
 62
     7
100
AcDbLine
 10
1267.217996264056
 20
599.6294931138081
 30
0.0
 11
1305.497995264056
 21
599.6294931138081
 31
0.0
  0
LINE
  5
CF1
330
1F
100
AcDbEntity
  8
0
 62
     7
 48
0.195775
100
AcDbLine
 10
1316.407998264056
 20
599.6294931138081
 30
0.0
 11
1316.407998264056
 21
591.7984921138081
 31
0.0
  0
LINE
  5
CF2
330
1F
100
AcDbEntity
  8
0
 62
     7
 48
0.208275
100
AcDbLine
 10
1315.907998264056
 20
599.6294931138081
 30
0.0
 11
1315.907998264056
 21
591.2984921138082
 31
0.0
  0
LINE
  5
CF3
330
1F
100
AcDbEntity
  8
0
 62
     7
 48
0.195775
100
AcDbLine
 10
1316.407998264056
 20
607.4604941138082
 30
0.0
 11
1316.407998264056
 21
599.6294931138081
 31
0.0
  0
LINE
  5
CF4
330
1F
100
AcDbEntity
  8
0
 62
     7
 48
0.208275
100
AcDbLine
 10
1315.907998264056
 20
607.9604941138081
 30
0.0
 11
1315.907998264056
 21
599.6294931138081
 31
0.0
  0
LINE
  5
CF5
330
1F
100
AcDbEntity
  8
0
 62
     7
 48
0.017678
100
AcDbLine
 10
1316.407998264056
 20
591.7984921138081
 30
0.0
 11
1315.907998264056
 21
591.2984921138082
 31
0.0
  0
LINE
  5
CF6
330
1F
100
AcDbEntity
  8
0
 62
     7
 48
0.017678
100
AcDbLine
 10
1316.407998264056
 20
607.4604941138082
 30
0.0
 11
1315.907998264056
 21
607.9604941138081
 31
0.0
  0
LINE
  5
CF7
330
1F
100
AcDbEntity
  8
0
 62
     7
 48
0.0125
100
AcDbLine
 10
1315.907998264056
 20
591.2984921138082
 30
0.0
 11
1315.407998264056
 21
591.2984921138082
 31
0.0
  0
LINE
  5
CF8
330
1F
100
AcDbEntity
  8
0
 62
     7
 48
0.0125
100
AcDbLine
 10
1315.907998264056
 20
607.9604941138081
 30
0.0
 11
1315.407998264056
 21
607.9604941138081
 31
0.0
  0
LINE
  5
CF9
330
1F
100
AcDbEntity
  8
0
 62
     7
 48
0.0125
100
AcDbLine
 10
1316.407998264056
 20
592.1544951138082
 30
0.0
 11
1315.907998264056
 21
592.1544951138082
 31
0.0
  0
LINE
  5
CFA
330
1F
100
AcDbEntity
  8
0
 62
     7
 48
0.0125
100
AcDbLine
 10
1315.907998264056
 20
592.1544951138082
 30
0.0
 11
1315.407998264056
 21
592.1544951138082
 31
0.0
  0
LINE
  5
CFB
330
1F
100
AcDbEntity
  8
0
 62
     7
 48
0.0125
100
AcDbLine
 10
1316.407998264056
 20
607.1044911138081
 30
0.0
 11
1315.907998264056
 21
607.1044911138081
 31
0.0
  0
LINE
  5
CFC
330
1F
100
AcDbEntity
  8
0
 62
     7
 48
0.0125
100
AcDbLine
 10
1315.907998264056
 20
607.1044911138081
 30
0.0
 11
1315.407998264056
 21
607.1044911138081
 31
0.0
  0
LINE
  5
CFD
330
1F
100
AcDbEntity
  8
0
 62
     7
 48
0.473875
100
AcDbLine
 10
1315.407998264056
 20
590.1519921138083
 30
0.0
 11
1315.407998264056
 21
609.1069941138082
 31
0.0
  0
LINE
  5
CFE
330
1F
100
AcDbEntity
  8
0
 62
     7
 48
0.035355
100
AcDbLine
 10
1314.407998264056
 20
589.1519921138081
 30
0.0
 11
1315.407998264056
 21
590.1519921138083
 31
0.0
  0
LINE
  5
CFF
330
1F
100
AcDbEntity
  8
0
 62
     7
 48
0.035355
100
AcDbLine
 10
1314.407998264056
 20
610.1069941138082
 30
0.0
 11
1315.407998264056
 21
609.1069941138082
 31
0.0
  0
LINE
  5
D00
330
1F
100
AcDbEntity
  8
0
 62
     7
100
AcDbLine
 10
1314.407998264056
 20
589.1519921138081
 30
0.0
 11
1314.407998264056
 21
610.1069941138082
 31
0.0
  0
POLYLINE
  5
D01
330
1F
100
AcDbEntity
  8
0
 62
     7
100
AcDb2dPolyline
 66
     1
 10
0.0
 20
0.0
 30
0.0
  0
VERTEX
  5
D02
330
D01
100
AcDbEntity
  8
0
100
AcDbVertex
100
AcDb2dVertex
 10
1270.407998264056
 20
609.5887831138083
 30
0.0
  0
VERTEX
  5
D03
330
D01
100
AcDbEntity
  8
0
100
AcDbVertex
100
AcDb2dVertex
 10
1271.174173264056
 20
609.8748241138082
 30
0.0
  0
VERTEX
  5
D04
330
D01
100
AcDbEntity
  8
0
100
AcDbVertex
100
AcDb2dVertex
 10
1272.766198264056
 20
610.3621901138083
 30
0.0
  0
VERTEX
  5
D05
330
D01
100
AcDbEntity
  8
0
100
AcDbVertex
100
AcDb2dVertex
 10
1274.222818264056
 20
610.6954031138083
 30
0.0
  0
VERTEX
  5
D06
330
D01
100
AcDbEntity
  8
0
100
AcDbVertex
100
AcDb2dVertex
 10
1275.716073264056
 20
610.9353551138083
 30
0.0
  0
VERTEX
  5
D07
330
D01
100
AcDbEntity
  8
0
100
AcDbVertex
100
AcDb2dVertex
 10
1277.237542264056
 20
611.0806191138083
 30
0.0
  0
VERTEX
  5
D08
330
D01
100
AcDbEntity
  8
0
100
AcDbVertex
100
AcDb2dVertex
 10
1278.779580264056
 20
611.1294931138083
 30
0.0
  0
SEQEND
  5
D09
330
D01
100
AcDbEntity
  8
0
  0
POLYLINE
  5
D0A
330
1F
100
AcDbEntity
  8
0
 62
     7
100
AcDb2dPolyline
 66
     1
 10
0.0
 20
0.0
 30
0.0
  0
VERTEX
  5
D0B
330
D0A
100
AcDbEntity
  8
0
100
AcDbVertex
100
AcDb2dVertex
 10
1270.407998264056
 20
609.5887831138083
 30
0.0
  0
VERTEX
  5
D0C
330
D0A
100
AcDbEntity
  8
0
100
AcDbVertex
100
AcDb2dVertex
 10
1271.020410264056
 20
609.9540631138083
 30
0.0
  0
VERTEX
  5
D0D
330
D0A
100
AcDbEntity
  8
0
100
AcDbVertex
100
AcDb2dVertex
 10
1271.988275264056
 20
610.4518731138082
 30
0.0
  0
VERTEX
  5
D0E
330
D0A
100
AcDbEntity
  8
0
100
AcDbVertex
100
AcDb2dVertex
 10
1273.004266264056
 20
610.8833311138083
 30
0.0
  0
VERTEX
  5
D0F
330
D0A
100
AcDbEntity
  8
0
100
AcDbVertex
100
AcDb2dVertex
 10
1274.438180264056
 20
611.3527821138083
 30
0.0
  0
VERTEX
  5
D10
330
D0A
100
AcDbEntity
  8
0
100
AcDbVertex
100
AcDb2dVertex
 10
1275.934823264056
 20
611.6871641138081
 30
0.0
  0
VERTEX
  5
D11
330
D0A
100
AcDbEntity
  8
0
100
AcDbVertex
100
AcDb2dVertex
 10
1277.480539264056
 20
611.8794931138083
 30
0.0
  0
SEQEND
  5
D12
330
D0A
100
AcDbEntity
  8
0
  0
LINE
  5
D13
330
1F
100
AcDbEntity
  8
0
 62
     7
 48
0.248982
100
AcDbLine
 10
1270.407998264056
 20
599.6294931138081
 30
0.0
 11
1270.407998264056
 21
609.5887831138083
 31
0.0
  0
ARC
  5
D14
330
1F
100
AcDbEntity
  8
0
 62
     7
100
AcDbCircle
 10
1270.407998264056
 20
599.6294931138081
 30
0.0
 40
9.959291999999999
100
AcDbArc
 50
90.00000299999769
 51
269.9999970000023
  0
POLYLINE
  5
D15
330
1F
100
AcDbEntity
  8
0
 62
     7
100
AcDb2dPolyline
 66
     1
 10
0.0
 20
0.0
 30
0.0
  0
VERTEX
  5
D16
330
D15
100
AcDbEntity
  8
0
100
AcDbVertex
100
AcDb2dVertex
 10
1278.779565264056
 20
588.1294931138081
 30
0.0
  0
VERTEX
  5
D17
330
D15
100
AcDbEntity
  8
0
100
AcDbVertex
100
AcDb2dVertex
 10
1277.019387264056
 20
588.1932211138082
 30
0.0
  0
VERTEX
  5
D18
330
D15
100
AcDbEntity
  8
0
100
AcDbVertex
100
AcDb2dVertex
 10
1275.287347264056
 20
588.3824301138083
 30
0.0
  0
VERTEX
  5
D19
330
D15
100
AcDbEntity
  8
0
100
AcDbVertex
100
AcDb2dVertex
 10
1273.595178264056
 20
588.6946861138083
 30
0.0
  0
VERTEX
  5
D1A
330
D15
100
AcDbEntity
  8
0
100
AcDbVertex
100
AcDb2dVertex
 10
1271.956033264056
 20
589.1278531138083
 30
0.0
  0
VERTEX
  5
D1B
330
D15
100
AcDbEntity
  8
0
100
AcDbVertex
100
AcDb2dVertex
 10
1270.407998264056
 20
589.6702031138081
 30
0.0
  0
SEQEND
  5
D1C
330
D15
100
AcDbEntity
  8
0
  0
POLYLINE
  5
D1D
330
1F
100
AcDbEntity
  8
0
 62
     7
100
AcDb2dPolyline
 66
     1
 10
0.0
 20
0.0
 30
0.0
  0
VERTEX
  5
D1E
330
D1D
100
AcDbEntity
  8
0
100
AcDbVertex
100
AcDb2dVertex
 10
1277.480554264056
 20
587.3795081138082
 30
0.0
  0
VERTEX
  5
D1F
330
D1D
100
AcDbEntity
  8
0
100
AcDbVertex
100
AcDb2dVertex
 10
1275.936776264056
 20
587.5714871138081
 30
0.0
  0
VERTEX
  5
D20
330
D1D
100
AcDbEntity
  8
0
100
AcDbVertex
100
AcDb2dVertex
 10
1274.441903264056
 20
587.9051811138083
 30
0.0
  0
VERTEX
  5
D21
330
D1D
100
AcDbEntity
  8
0
100
AcDbVertex
100
AcDb2dVertex
 10
1273.009546264056
 20
588.3736341138082
 30
0.0
  0
VERTEX
  5
D22
330
D1D
100
AcDbEntity
  8
0
100
AcDbVertex
100
AcDb2dVertex
 10
1271.654046264056
 20
588.9689481138083
 30
0.0
  0
VERTEX
  5
D23
330
D1D
100
AcDbEntity
  8
0
100
AcDbVertex
100
AcDb2dVertex
 10
1270.708306264056
 20
589.4859311138083
 30
0.0
  0
VERTEX
  5
D24
330
D1D
100
AcDbEntity
  8
0
100
AcDbVertex
100
AcDb2dVertex
 10
1270.407998264056
 20
589.6702031138081
 30
0.0
  0
SEQEND
  5
D25
330
D1D
100
AcDbEntity
  8
0
  0
ARC
  5
D26
330
1F
100
AcDbEntity
  8
0
 62
     7
100
AcDbCircle
 10
1278.727594264056
 20
603.5664281138083
 30
0.0
 40
16.234334
100
AcDbArc
 50
265.594573000008
 51
288.001337000005
  0
ARC
  5
D27
330
1F
100
AcDbEntity
  8
0
 62
     7
100
AcDbCircle
 10
1278.727441264056
 20
595.6892621138082
 30
0.0
 40
16.237607
100
AcDbArc
 50
71.98811099999122
 51
94.40395800000123
  0
ARC
  5
D28
330
1F
100
AcDbEntity
  8
0
 62
     7
100
AcDbCircle
 10
1270.407998264056
 20
599.6294931138081
 30
0.0
 40
24.866025
100
AcDbArc
 50
27.54711399999438
 51
331.3521099999973
  0
ARC
  5
D29
330
1F
100
AcDbEntity
  8
0
 62
     7
100
AcDbCircle
 10
1270.407998264056
 20
599.6294931138081
 30
0.0
 40
24.866025
100
AcDbArc
 50
331.3521099999973
 51
332.4528110000023
  0
ARC
  5
D2A
330
1F
100
AcDbEntity
  8
0
 62
     7
100
AcDbCircle
 10
1270.407998264056
 20
599.6294931138081
 30
0.0
 40
31.5
100
AcDbArc
 50
21.41236000000128
 51
331.3521099999973
  0
ARC
  5
D2B
330
1F
100
AcDbEntity
  8
0
 62
     7
100
AcDbCircle
 10
1270.407998264056
 20
599.6294931138081
 30
0.0
 40
31.5
100
AcDbArc
 50
331.3521099999973
 51
338.5874249999986
  0
ARC
  5
D2C
330
1F
100
AcDbEntity
  8
0
 62
     7
100
AcDbCircle
 10
1270.407998264056
 20
599.6294931138081
 30
0.0
 40
30.256725
100
AcDbArc
 50
22.33857799999825
 51
331.3521099999973
  0
ARC
  5
D2D
330
1F
100
AcDbEntity
  8
0
 62
     7
100
AcDbCircle
 10
1270.407998264056
 20
599.6294931138081
 30
0.0
 40
30.256725
100
AcDbArc
 50
331.3521099999973
 51
337.6612019999976
  0
ARC
  5
D2E
330
1F
100
AcDbEntity
  8
0
 62
     7
100
AcDbCircle
 10
1270.407998264056
 20
599.6294931138081
 30
0.0
 40
26.243275
100
AcDbArc
 50
25.98944000000756
 51
334.0103040000051
  0
ARC
  5
D2F
330
1F
100
AcDbEntity
  8
0
 62
     7
100
AcDbCircle
 10
1270.407998264056
 20
599.6294931138081
 30
0.0
 40
25.0
100
AcDbArc
 50
27.38706900000141
 51
332.6128540000033
  0
LINE
  5
D30
330
1F
100
AcDbEntity
  8
0
 62
     7
 48
0.248982
100
AcDbLine
 10
1270.407998264056
 20
599.6294931138081
 30
0.0
 11
1270.407998264056
 21
589.6702031138081
 31
0.0
  0
LINE
  5
D31
330
1F
100
AcDbEntity
  8
0
 62
     7
100
AcDbLine
 10
1302.307992264056
 20
588.1294931138081
 30
0.0
 11
1302.307992264056
 21
611.1294931138083
 31
0.0
  0
LINE
  5
D32
330
1F
100
AcDbEntity
  8
0
 62
     7
100
AcDbLine
 10
1302.307992264056
 20
588.1294931138081
 30
0.0
 11
1278.779550264056
 21
588.1294931138081
 31
0.0
  0
LINE
  5
D33
330
1F
100
AcDbEntity
  8
0
 62
     7
100
AcDbLine
 10
1302.307992264056
 20
611.1294931138083
 30
0.0
 11
1278.779580264056
 21
611.1294931138083
 31
0.0
  0
ARC
  5
D34
330
1F
100
AcDbEntity
  8
0
 62
     7
100
AcDbCircle
 10
1302.307992264056
 20
611.0294951138082
 30
0.0
 40
0.1
100
AcDbArc
 50
0.0
 51
90.00000299999769
  0
ARC
  5
D35
330
1F
100
AcDbEntity
  8
0
 62
     7
100
AcDbCircle
 10
1302.307992264056
 20
588.2294911138083
 30
0.0
 40
0.1
100
AcDbArc
 50
269.9999970000023
 51
0.0
  0
LINE
  5
D36
330
1F
100
AcDbEntity
  8
0
 62
     7
100
AcDbLine
 10
1302.407998264056
 20
588.2294911138083
 30
0.0
 11
1302.407998264056
 21
611.0294951138082
 31
0.0
  0
LINE
  5
D37
330
1F
100
AcDbEntity
  8
0
 62
     7
 48
0.2975
100
AcDbLine
 10
1302.508004264056
 20
610.1069941138082
 30
0.0
 11
1314.407998264056
 21
610.1069941138082
 31
0.0
  0
LINE
  5
D38
330
1F
100
AcDbEntity
  8
0
 62
     7
 48
0.2975
100
AcDbLine
 10
1302.508004264056
 20
589.1519921138081
 30
0.0
 11
1314.407998264056
 21
589.1519921138081
 31
0.0
  0
LINE
  5
D39
330
1F
100
AcDbEntity
  8
0
 62
     7
100
AcDbLine
 10
1302.508004264056
 20
589.1519921138081
 30
0.0
 11
1302.508004264056
 21
610.1069941138082
 31
0.0
  0
ARC
  5
D3A
330
1F
100
AcDbEntity
  8
0
 62
     7
100
AcDbCircle
 10
1302.508004264056
 20
589.0519941138083
 30
0.0
 40
0.1
100
AcDbArc
 50
90.00000299999769
 51
179.9999949999995
  0
ARC
  5
D3B
330
1F
100
AcDbEntity
  8
0
 62
     7
100
AcDbCircle
 10
1302.508004264056
 20
610.2069921138081
 30
0.0
 40
0.1
100
AcDbArc
 50
180.0000050000005
 51
269.9999970000023
  0
POLYLINE
  5
D3C
330
1F
100
AcDbEntity
  8
0
 62
     7
100
AcDb2dPolyline
 66
     1
 10
0.0
 20
0.0
 30
0.0
  0
VERTEX
  5
D3D
330
D3C
100
AcDbEntity
  8
0
100
AcDbVertex
100
AcDb2dVertex
 10
1271.045831264056
 20
589.4297861138083
 30
0.0
  0
VERTEX
  5
D3E
330
D3C
100
AcDbEntity
  8
0
100
AcDbVertex
100
AcDb2dVertex
 10
1271.024362264056
 20
589.4194861138081
 30
0.0
  0
VERTEX
  5
D3F
330
D3C
100
AcDbEntity
  8
0
100
AcDbVertex
100
AcDb2dVertex
 10
1271.002908264056
 20
589.4089201138083
 30
0.0
  0
VERTEX
  5
D40
330
D3C
100
AcDbEntity
  8
0
100
AcDbVertex
100
AcDb2dVertex
 10
1270.981790264056
 20
589.3928901138083
 30
0.0
  0
VERTEX
  5
D41
330
D3C
100
AcDbEntity
  8
0
100
AcDbVertex
100
AcDb2dVertex
 10
1270.960000264056
 20
589.3869471138083
 30
0.0
  0
VERTEX
  5
D42
330
D3C
100
AcDbEntity
  8
0
100
AcDbVertex
100
AcDb2dVertex
 10
1270.882760264056
 20
589.3989781138083
 30
0.0
  0
VERTEX
  5
D43
330
D3C
100
AcDbEntity
  8
0
100
AcDbVertex
100
AcDb2dVertex
 10
1270.740762264056
 20
589.4915461138082
 30
0.0
  0
VERTEX
  5
D44
330
D3C
100
AcDbEntity
  8
0
100
AcDbVertex
100
AcDb2dVertex
 10
1270.572015264056
 20
589.5848761138081
 30
0.0
  0
VERTEX
  5
D45
330
D3C
100
AcDbEntity
  8
0
100
AcDbVertex
100
AcDb2dVertex
 10
1270.407998264056
 20
589.6702031138081
 30
0.0
  0
SEQEND
  5
D46
330
D3C
100
AcDbEntity
  8
0
  0
LINE
  5
D47
330
1F
100
AcDbEntity
  8
0
 62
     7
 48
0.0025
100
AcDbLine
 10
1302.407998264056
 20
608.9449911138083
 30
0.0
 11
1302.508004264056
 21
608.9449911138083
 31
0.0
  0
LINE
  5
D48
330
1F
100
AcDbEntity
  8
0
 62
     7
 48
0.2975
100
AcDbLine
 10
1302.508004264056
 20
608.9449911138083
 30
0.0
 11
1314.407998264056
 21
608.9449911138083
 31
0.0
  0
LINE
  5
D49
330
1F
100
AcDbEntity
  8
0
 62
     7
 48
0.025
100
AcDbLine
 10
1314.407998264056
 20
608.9449911138083
 30
0.0
 11
1315.407998264056
 21
608.9449911138083
 31
0.0
  0
LINE
  5
D4A
330
1F
100
AcDbEntity
  8
0
 62
     7
 48
0.0025
100
AcDbLine
 10
1302.407998264056
 20
590.3139951138082
 30
0.0
 11
1302.508004264056
 21
590.3139951138082
 31
0.0
  0
LINE
  5
D4B
330
1F
100
AcDbEntity
  8
0
 62
     7
 48
0.2975
100
AcDbLine
 10
1302.508004264056
 20
590.3139951138082
 30
0.0
 11
1314.407998264056
 21
590.3139951138082
 31
0.0
  0
LINE
  5
D4C
330
1F
100
AcDbEntity
  8
0
 62
     7
 48
0.025
100
AcDbLine
 10
1314.407998264056
 20
590.3139951138082
 30
0.0
 11
1315.407998264056
 21
590.3139951138082
 31
0.0
  0
LINE
  5
D4D
330
1F
100
AcDbEntity
  8
0
  6
DASHDOT
 62
     7
100
AcDbLine
 10
1303.420205295306
 20
599.6294931138081
 30
0.0
 11
1237.395791232806
 21
599.6294931138081
 31
0.0
  0
LINE
  5
D4E
330
1F
100
AcDbEntity
  8
0
  6
DASHDOT
 62
     7
100
AcDbLine
 10
1270.407998264056
 20
632.6417001450582
 30
0.0
 11
1270.407998264056
 21
566.6172860825581
 31
0.0
  0
LINE
  5
D4F
330
1F
100
AcDbEntity
  8
0
  6
DASHDOT
 62
     7
100
AcDbLine
 10
1299.958016574603
 20
599.6294931138081
 30
0.0
 11
1323.358010471087
 21
599.6294931138081
 31
0.0
  0
LINE
  5
D50
330
1F
100
AcDbEntity
  8
0
 62
     7
100
AcDbLine
 10
1301.907998264056
 20
581.4429544175192
 30
0.0
 11
1301.907998264056
 21
588.1294931138084
 31
0.0
  0
LINE
  5
D51
330
1F
100
AcDbEntity
  8
0
 62
     7
100
AcDbLine
 10
1301.907998264056
 20
611.1294931138083
 30
0.0
 11
1301.907998264056
 21
617.8160318100973
 31
0.0
  0
LINE
  5
D52
330
1F
100
AcDbEntity
  8
0
 62
     7
100
AcDbLine
 10
1301.907998264056
 20
617.8160318100973
 30
0.0
 11
1270.407998264056
 21
636.0025552475973
 31
0.0
  0
LINE
  5
D53
330
1F
100
AcDbEntity
  8
0
 62
     7
100
AcDbLine
 10
1270.407998264056
 20
636.0025552475973
 30
0.0
 11
1238.907998264056
 21
617.8160318100973
 31
0.0
  0
LINE
  5
D54
330
1F
100
AcDbEntity
  8
0
 62
     7
100
AcDbLine
 10
1238.907998264056
 20
617.8160318100973
 30
0.0
 11
1238.907998264056
 21
581.4429544175192
 31
0.0
  0
LINE
  5
D55
330
1F
100
AcDbEntity
  8
0
 62
     7
100
AcDbLine
 10
1238.907998264056
 20
581.4429544175192
 30
0.0
 11
1270.407998264056
 21
563.2564309800192
 31
0.0
  0
LINE
  5
D56
330
1F
100
AcDbEntity
  8
0
 62
     7
100
AcDbLine
 10
1270.407998264056
 20
563.2564309800192
 30
0.0
 11
1301.907998264056
 21
581.4429544175192
 31
0.0
  0
LINE
  5
D57
330
1F
100
AcDbEntity
  8
0
 62
     7
 48
0.0856407165527344
100
AcDbLine
 10
1281.407998264056
 20
631.6294931138083
 30
0.0
 11
1277.982369601947
 21
631.6294931138083
 31
0.0
  0
LINE
  5
D58
330
1F
100
AcDbEntity
  8
0
 62
     7
 48
0.0010013580322266
100
AcDbLine
 10
1321.407998264056
 20
618.6690591538473
 30
0.0
 11
1321.407998264056
 21
618.7091134751364
 31
0.0
  0
LINE
  5
D59
330
1F
100
AcDbEntity
  8
0
 62
     7
 48
0.3279914855957031
100
AcDbLine
 10
1321.407998264056
 20
618.6690591538473
 30
0.0
 11
1321.407998264056
 21
605.5493997300191
 31
0.0
  0
LINE
  5
D5A
330
1F
100
AcDbEntity
  8
0
 62
     7
 48
0.2960189819335937
100
AcDbLine
 10
1321.407998264056
 20
593.7086404526755
 30
0.0
 11
1321.407998264056
 21
605.5493997300191
 31
0.0
  0
LINE
  5
D5B
330
1F
100
AcDbEntity
  8
0
 62
     7
 48
0.3259895324707031
100
AcDbLine
 10
1321.407998264056
 20
593.7086404526755
 30
0.0
 11
1321.407998264056
 21
580.6690591538473
 31
0.0
  0
LINE
  5
D5C
330
1F
100
AcDbEntity
  8
0
 62
     7
 48
0.0009891510009766
100
AcDbLine
 10
1321.407998264056
 20
580.6294931138081
 30
0.0
 11
1321.407998264056
 21
580.6690591538473
 31
0.0
  0
LINE
  5
D5D
330
1F
100
AcDbEntity
  8
0
 62
     7
 48
0.275
100
AcDbLine
 10
1310.407998264056
 20
580.6690591538473
 30
0.0
 11
1321.407998264056
 21
580.6690591538473
 31
0.0
  0
LINE
  5
D5E
330
1F
100
AcDbEntity
  8
0
 62
     7
 48
0.0009891510009766
100
AcDbLine
 10
1310.407998264056
 20
580.6294931138081
 30
0.0
 11
1310.407998264056
 21
580.6690591538473
 31
0.0
  0
LINE
  5
D5F
330
1F
100
AcDbEntity
  8
0
 62
     7
 48
0.275
100
AcDbLine
 10
1316.407998264056
 20
593.7086404526755
 30
0.0
 11
1321.407998264056
 21
593.7086404526755
 31
0.0
  0
LINE
  5
D60
330
1F
100
AcDbEntity
  8
0
 62
     7
 48
0.3259895324707031
100
AcDbLine
 10
1310.407998264056
 20
589.1519921138081
 30
0.0
 11
1310.407998264056
 21
580.6690591538473
 31
0.0
  0
LINE
  5
D61
330
1F
100
AcDbEntity
  8
0
 62
     7
 48
0.275
100
AcDbLine
 10
1316.407998264056
 20
605.5493997300191
 30
0.0
 11
1321.407998264056
 21
605.5493997300191
 31
0.0
  0
LINE
  5
D62
330
1F
100
AcDbEntity
  8
0
 62
     7
 48
0.275
100
AcDbLine
 10
1310.407998264056
 20
618.6690591538473
 30
0.0
 11
1321.407998264056
 21
618.6690591538473
 31
0.0
  0
LINE
  5
D63
330
1F
100
AcDbEntity
  8
0
 62
     7
 48
0.3279914855957031
100
AcDbLine
 10
1310.407998264056
 20
618.6690591538473
 30
0.0
 11
1310.407998264056
 21
610.1069941138082
 31
0.0
  0
LINE
  5
D64
330
1F
100
AcDbEntity
  8
0
 62
     7
 48
0.0010013580322266
100
AcDbLine
 10
1310.407998264056
 20
618.6690591538473
 30
0.0
 11
1310.407998264056
 21
618.7091134751364
 31
0.0
  0
LINE
  5
D65
330
1F
100
AcDbEntity
  8
0
 62
     7
 48
0.2
100
AcDbLine
 10
1302.407998264056
 20
586.6294931138082
 30
0.0
 11
1310.407998264056
 21
586.6294931138082
 31
0.0
  0
LINE
  5
D66
330
1F
100
AcDbEntity
  8
0
 62
     7
 48
0.2
100
AcDbLine
 10
1302.407998264056
 20
612.6294931138081
 30
0.0
 11
1310.407998264056
 21
612.6294931138081
 31
0.0
  0
LINE
  5
D67
330
1F
100
AcDbEntity
  8
0
 62
     7
100
AcDbLine
 10
1302.407998264056
 20
586.6294931138082
 30
0.0
 11
1302.407998264056
 21
612.6294931138081
 31
0.0
  0
LINE
  5
D68
330
1F
100
AcDbEntity
  8
0
 62
     7
 48
0.0856407165527344
100
AcDbLine
 10
1262.833626926165
 20
631.6294931138083
 30
0.0
 11
1259.407998264056
 21
631.6294931138083
 31
0.0
  0
LINE
  5
D69
330
1F
100
AcDbEntity
  8
0
 62
     7
 48
0.0494434356689453
100
AcDbLine
 10
1281.407998264056
 20
629.6517556870504
 30
0.0
 11
1281.407998264056
 21
631.6294931138083
 31
0.0
  0
LINE
  5
D6A
330
1F
100
AcDbEntity
  8
0
 62
     7
 48
0.275
100
AcDbLine
 10
1310.407998264056
 20
580.6294931138081
 30
0.0
 11
1321.407998264056
 21
580.6294931138081
 31
0.0
  0
LINE
  5
D6B
330
1F
100
AcDbEntity
  8
0
 62
     7
 48
0.275
100
AcDbLine
 10
1310.407998264056
 20
618.7091134751364
 30
0.0
 11
1321.407998264056
 21
618.7091134751364
 31
0.0
  0
LINE
  5
D6C
330
1F
100
AcDbEntity
  8
0
 62
     7
 48
0.0494441986083984
100
AcDbLine
 10
1259.407998264056
 20
629.6517251694723
 30
0.0
 11
1259.407998264056
 21
631.6294931138083
 31
0.0
  0
LINE
  5
D6D
330
1F
100
AcDbEntity
  8
0
  6
DASHDOT
 62
     7
 48
0.4800003051757813
100
AcDbLine
 10
670.4079982640562
 20
980.5188612577124
 30
0.0
 11
670.4079982640562
 21
999.7188734647435
 31
0.0
  0
LINE
  5
D6E
330
1F
100
AcDbEntity
  8
0
  6
DASHDOT
 62
     7
 48
0.3300003051757812
100
AcDbLine
 10
709.3079921605406
 20
995.118867361228
 30
0.0
 11
722.5080043675717
 21
995.118867361228
 31
0.0
  0
LINE
  5
D6F
330
1F
100
AcDbEntity
  8
0
  6
DASHDOT
 62
     7
100
AcDbLine
 10
688.9118129613217
 20
1020.118867361228
 30
0.0
 11
712.3621913792906
 21
1020.118867361228
 31
0.0
  0
LINE
  5
D71
330
1F
100
AcDbEntity
  8
0
 62
     7
100
AcDbLine
 10
638.9079982640562
 20
1060.118867361228
 30
0.0
 11
670.4079982640562
 21
1060.118867361228
 31
0.0
  0
LINE
  5
D72
330
1F
100
AcDbEntity
  8
0
 62
     7
100
AcDbLine
 10
670.4079982640562
 20
1060.118867361228
 30
0.0
 11
701.9079982640562
 21
1060.118867361228
 31
0.0
  0
LINE
  5
D73
330
1F
100
AcDbEntity
  8
0
 62
     7
100
AcDbLine
 10
701.9079982640562
 20
1038.118867361228
 30
0.0
 11
701.9079982640562
 21
1060.118867361228
 31
0.0
  0
LINE
  5
D74
330
1F
100
AcDbEntity
  8
0
 62
     7
100
AcDbLine
 10
638.9079982640562
 20
1038.118867361228
 30
0.0
 11
638.9079982640562
 21
1060.118867361228
 31
0.0
  0
LINE
  5
D75
330
1F
100
AcDbEntity
  8
0
 62
     7
100
AcDbLine
 10
638.9079982640562
 20
1038.118867361228
 30
0.0
 11
670.4079982640562
 21
1038.118867361228
 31
0.0
  0
LINE
  5
D76
330
1F
100
AcDbEntity
  8
0
 62
     7
100
AcDbLine
 10
670.4079982640562
 20
1038.118867361228
 30
0.0
 11
670.4079982640562
 21
1060.118867361228
 31
0.0
  0
LINE
  5
D77
330
1F
100
AcDbEntity
  8
0
 62
     7
100
AcDbLine
 10
670.4079982640562
 20
1038.118867361228
 30
0.0
 11
701.9079982640562
 21
1038.118867361228
 31
0.0
  0
LINE
  5
D78
330
1F
100
AcDbEntity
  8
0
 62
     7
 48
0.3
100
AcDbLine
 10
647.4079982640562
 20
1026.118867361228
 30
0.0
 11
647.4079982640562
 21
1038.118867361228
 31
0.0
  0
LINE
  5
D79
330
1F
100
AcDbEntity
  8
0
 62
     7
 48
0.225
100
AcDbLine
 10
693.4079982640562
 20
1029.118867361228
 30
0.0
 11
693.4079982640562
 21
1038.118867361228
 31
0.0
  0
LINE
  5
D7A
330
1F
100
AcDbEntity
  8
0
 62
     7
100
AcDbLine
 10
692.4079982640562
 20
1026.118867361228
 30
0.0
 11
647.4079982640562
 21
1026.118867361228
 31
0.0
  0
ARC
  5
D7B
330
1F
100
AcDbEntity
  8
0
 62
     7
100
AcDbCircle
 10
721.1524745824156
 20
1018.194764578025
 30
0.0
 40
29.81731915668617
100
AcDbArc
 50
158.5084459552985
 51
164.5878334109865
  0
LINE
  5
D7C
330
1F
100
AcDbEntity
  8
0
 62
     7
 48
0.4625
100
AcDbLine
 10
647.9079982640562
 20
1007.618867361228
 30
0.0
 11
647.9079982640562
 21
1026.118867361228
 31
0.0
  0
LINE
  5
D7D
330
1F
100
AcDbEntity
  8
0
 62
     7
100
AcDbLine
 10
692.9079982640562
 20
1007.618867361228
 30
0.0
 11
647.9079982640562
 21
1007.618867361228
 31
0.0
  0
LINE
  5
D7E
330
1F
100
AcDbEntity
  8
0
 62
     7
 48
0.0875
100
AcDbLine
 10
692.9079982640562
 20
1007.618867361228
 30
0.0
 11
692.9079982640562
 21
1011.118867361228
 31
0.0
  0
POLYLINE
  5
D7F
330
1F
100
AcDbEntity
  8
0
 62
     7
100
AcDb2dPolyline
 66
     1
 10
0.0
 20
0.0
 30
0.0
  0
VERTEX
  5
D80
330
D7F
100
AcDbEntity
  8
0
100
AcDbVertex
100
AcDb2dVertex
 10
691.0295802953062
 20
1020.118867361228
 30
0.0
  0
VERTEX
  5
D81
330
D7F
100
AcDbEntity
  8
0
100
AcDbVertex
100
AcDb2dVertex
 10
691.0509425999937
 20
1019.179963552634
 30
0.0
  0
VERTEX
  5
D82
330
D7F
100
AcDbEntity
  8
0
100
AcDbVertex
100
AcDb2dVertex
 10
691.1140529515562
 20
1018.250153982322
 30
0.0
  0
VERTEX
  5
D83
330
D7F
100
AcDbEntity
  8
0
100
AcDbVertex
100
AcDb2dVertex
 10
691.2162258031187
 20
1017.337830984275
 30
0.0
  0
VERTEX
  5
D84
330
D7F
100
AcDbEntity
  8
0
100
AcDbVertex
100
AcDb2dVertex
 10
691.3532192113217
 20
1016.450929128806
 30
0.0
  0
VERTEX
  5
D85
330
D7F
100
AcDbEntity
  8
0
100
AcDbVertex
100
AcDb2dVertex
 10
691.7081081273375
 20
1014.785462820212
 30
0.0
  0
VERTEX
  5
D86
330
D7F
100
AcDbEntity
  8
0
100
AcDbVertex
100
AcDb2dVertex
 10
691.9933559300717
 20
1013.741090261619
 30
0.0
  0
VERTEX
  5
D87
330
D7F
100
AcDbEntity
  8
0
100
AcDbVertex
100
AcDb2dVertex
 10
692.5485622288999
 20
1012.059388601462
 30
0.0
  0
VERTEX
  5
D88
330
D7F
100
AcDbEntity
  8
0
100
AcDbVertex
100
AcDb2dVertex
 10
692.9079982640562
 20
1011.118867361228
 30
0.0
  0
SEQEND
  5
D89
330
D7F
100
AcDbEntity
  8
0
  0
POLYLINE
  5
D8A
330
1F
100
AcDbEntity
  8
0
 62
     7
100
AcDb2dPolyline
 66
     1
 10
0.0
 20
0.0
 30
0.0
  0
VERTEX
  5
D8B
330
D8A
100
AcDbEntity
  8
0
100
AcDbVertex
100
AcDb2dVertex
 10
691.0295802953062
 20
1020.118867361228
 30
0.0
  0
VERTEX
  5
D8C
330
D8A
100
AcDbEntity
  8
0
100
AcDbVertex
100
AcDb2dVertex
 10
691.1023952367123
 20
1021.853394949119
 30
0.0
  0
VERTEX
  5
D8D
330
D8A
100
AcDbEntity
  8
0
100
AcDbVertex
100
AcDb2dVertex
 10
691.3101894261655
 20
1023.532472097556
 30
0.0
  0
VERTEX
  5
D8E
330
D8A
100
AcDbEntity
  8
0
100
AcDbVertex
100
AcDb2dVertex
 10
691.6236965062437
 20
1025.104463064353
 30
0.0
  0
VERTEX
  5
D8F
330
D8A
100
AcDbEntity
  8
0
100
AcDbVertex
100
AcDb2dVertex
 10
691.884743869525
 20
1026.118867361228
 30
0.0
  0
SEQEND
  5
D90
330
D8A
100
AcDbEntity
  8
0
  0
LINE
  5
D91
330
1F
100
AcDbEntity
  8
0
 62
     7
 48
0.387298583984375
100
AcDbLine
 10
668.6539699437437
 20
1006.118867361228
 30
0.0
 11
653.1620265843687
 21
1006.118867361228
 31
0.0
  0
ARC
  5
D92
330
1F
100
AcDbEntity
  8
0
 62
     7
100
AcDbCircle
 10
655.4046108128844
 20
1032.958283865134
 30
0.0
 40
29.9317263998276
100
AcDbArc
 50
296.2733719871037
 51
300.0828007136505
  0
ARC
  5
D93
330
1F
100
AcDbEntity
  8
0
 62
     7
100
AcDbCircle
 10
685.4124538304623
 20
1032.959351980369
 30
0.0
 40
29.93318513588919
100
AcDbArc
 50
239.9164361263976
 51
243.7256872680146
  0
LINE
  5
D94
330
1F
100
AcDbEntity
  8
0
 62
     7
 48
0.387298583984375
100
AcDbLine
 10
687.6539699437437
 20
1006.118867361228
 30
0.0
 11
672.1620265843687
 21
1006.118867361228
 31
0.0
  0
ARC
  5
D95
330
1F
100
AcDbEntity
  8
0
 62
     7
100
AcDbCircle
 10
674.4046108128842
 20
1032.958283865134
 30
0.0
 40
29.93172640551351
100
AcDbArc
 50
296.2733719871037
 51
300.0828007136505
  0
LINE
  5
D96
330
1F
100
AcDbEntity
  8
0
 62
     7
 48
0.05
100
AcDbLine
 10
691.4079982640562
 20
1006.118867361228
 30
0.0
 11
689.4079982640562
 21
1006.118867361228
 31
0.0
  0
LINE
  5
D97
330
1F
100
AcDbEntity
  8
0
 62
     7
 48
0.0530330085889911
100
AcDbLine
 10
691.4079982640562
 20
1006.118867361228
 30
0.0
 11
692.9079982640562
 21
1007.618867361228
 31
0.0
  0
LINE
  5
D98
330
1F
100
AcDbEntity
  8
0
 62
     7
 48
0.0530330085889911
100
AcDbLine
 10
649.4079982640562
 20
1006.118867361228
 30
0.0
 11
647.9079982640562
 21
1007.618867361228
 31
0.0
  0
LINE
  5
D99
330
1F
100
AcDbEntity
  8
0
 62
     7
 48
0.05
100
AcDbLine
 10
651.4079982640562
 20
1006.118867361228
 30
0.0
 11
649.4079982640562
 21
1006.118867361228
 31
0.0
  0
ARC
  5
D9A
330
1F
100
AcDbEntity
  8
0
 62
     7
100
AcDbCircle
 10
666.4124538304625
 20
1032.959351980369
 30
0.0
 40
29.93318513794582
100
AcDbArc
 50
239.9164361263976
 51
243.7256872680146
  0
LINE
  5
D9B
330
1F
100
AcDbEntity
  8
0
 62
     7
 48
0.2234825134277344
100
AcDbLine
 10
651.4079982640562
 20
1007.058167898337
 30
0.0
 11
651.4079982640562
 21
998.118867361228
 31
0.0
  0
LINE
  5
D9C
330
1F
100
AcDbEntity
  8
0
 62
     7
 48
0.475
100
AcDbLine
 10
651.4079982640562
 20
998.118867361228
 30
0.0
 11
670.4079982640562
 21
998.118867361228
 31
0.0
  0
LINE
  5
D9D
330
1F
100
AcDbEntity
  8
0
 62
     7
 48
0.2234825134277344
100
AcDbLine
 10
670.4079982640562
 20
1007.058167898337
 30
0.0
 11
670.4079982640562
 21
998.118867361228
 31
0.0
  0
LINE
  5
D9E
330
1F
100
AcDbEntity
  8
0
 62
     7
 48
0.475
100
AcDbLine
 10
670.4079982640562
 20
998.118867361228
 30
0.0
 11
689.4079982640562
 21
998.118867361228
 31
0.0
  0
LINE
  5
D9F
330
1F
100
AcDbEntity
  8
0
 62
     7
 48
0.2234825134277344
100
AcDbLine
 10
689.4079982640562
 20
1007.058167898337
 30
0.0
 11
689.4079982640562
 21
998.118867361228
 31
0.0
  0
LINE
  5
DA0
330
1F
100
AcDbEntity
  8
0
 62
     7
 48
0.1257171630859375
100
AcDbLine
 10
721.4079982640562
 20
1075.090180837791
 30
0.0
 11
721.4079982640562
 21
1080.118867361228
 31
0.0
  0
LINE
  5
DA1
330
1F
100
AcDbEntity
  8
0
 62
     7
100
AcDbLine
 10
721.4079982640562
 20
1075.090180837791
 30
0.0
 11
721.4079982640562
 21
995.6045240995091
 31
0.0
  0
LINE
  5
DA2
330
1F
100
AcDbEntity
  8
0
 62
     7
 48
0.0871414184570313
100
AcDbLine
 10
721.4079982640562
 20
992.1188673612279
 30
0.0
 11
721.4079982640562
 21
995.6045240995091
 31
0.0
  0
LINE
  5
DA3
330
1F
100
AcDbEntity
  8
0
 62
     7
 48
0.275
100
AcDbLine
 10
710.4079982640562
 20
995.6045240995091
 30
0.0
 11
721.4079982640562
 21
995.6045240995091
 31
0.0
  0
LINE
  5
DA4
330
1F
100
AcDbEntity
  8
0
 62
     7
 48
0.0871414184570313
100
AcDbLine
 10
710.4079982640562
 20
992.1188673612279
 30
0.0
 11
710.4079982640562
 21
995.6045240995091
 31
0.0
  0
LINE
  5
DA5
330
1F
100
AcDbEntity
  8
0
 62
     7
 48
0.275
100
AcDbLine
 10
710.4079982640562
 20
1075.090180837791
 30
0.0
 11
721.4079982640562
 21
1075.090180837791
 31
0.0
  0
LINE
  5
DA6
330
1F
100
AcDbEntity
  8
0
 62
     7
100
AcDbLine
 10
710.4079982640562
 20
1075.090180837791
 30
0.0
 11
710.4079982640562
 21
995.6045240995091
 31
0.0
  0
LINE
  5
DA7
330
1F
100
AcDbEntity
  8
0
 62
     7
 48
0.1257171630859375
100
AcDbLine
 10
710.4079982640562
 20
1075.090180837791
 30
0.0
 11
710.4079982640562
 21
1080.118867361228
 31
0.0
  0
LINE
  5
DA8
330
1F
100
AcDbEntity
  8
0
 62
     7
 48
0.325
100
AcDbLine
 10
702.4079982640562
 20
1007.118867361228
 30
0.0
 11
702.4079982640562
 21
1020.118867361228
 31
0.0
  0
LINE
  5
DA9
330
1F
100
AcDbEntity
  8
0
 62
     7
 48
0.325
100
AcDbLine
 10
702.4079982640562
 20
1020.118867361228
 30
0.0
 11
702.4079982640562
 21
1033.118867361228
 31
0.0
  0
LINE
  5
DAA
330
1F
100
AcDbEntity
  8
0
 62
     7
 48
0.275
100
AcDbLine
 10
710.4079982640562
 20
992.1188673612279
 30
0.0
 11
721.4079982640562
 21
992.1188673612279
 31
0.0
  0
LINE
  5
DAB
330
1F
100
AcDbEntity
  8
0
 62
     7
 48
0.275
100
AcDbLine
 10
710.4079982640562
 20
1080.118867361228
 30
0.0
 11
721.4079982640562
 21
1080.118867361228
 31
0.0
  0
LINE
  5
DAC
330
1F
100
AcDbEntity
  8
0
 62
     7
 48
0.275
100
AcDbLine
 10
710.4079982640562
 20
992.1188673612279
 30
0.0
 11
721.4079982640562
 21
992.1188673612279
 31
0.0
  0
LINE
  5
DAD
330
1F
100
AcDbEntity
  8
0
 62
     7
 48
0.2
100
AcDbLine
 10
702.4079982640562
 20
1007.118867361228
 30
0.0
 11
710.4079982640562
 21
1007.118867361228
 31
0.0
  0
LINE
  5
DAE
330
1F
100
AcDbEntity
  8
0
 62
     7
 48
0.2
100
AcDbLine
 10
702.4079982640562
 20
1033.118867361228
 30
0.0
 11
710.4079982640562
 21
1033.118867361228
 31
0.0
  0
LINE
  5
DAF
330
1F
100
AcDbEntity
  8
0
 62
     7
 48
0.2375
100
AcDbLine
 10
692.9079982640562
 20
1011.118867361228
 30
0.0
 11
702.4079982640562
 21
1011.118867361228
 31
0.0
  0
LINE
  5
DB0
330
1F
100
AcDbEntity
  8
0
 62
     7
 48
0.225
100
AcDbLine
 10
693.4079982640562
 20
1029.118867361228
 30
0.0
 11
702.4079982640562
 21
1029.118867361228
 31
0.0
  0
LINE
  5
DB4
330
1F
100
AcDbEntity
  8
0
 62
     7
 48
0.017678
100
AcDbLine
 10
716.4079982640562
 20
1132.687867361228
 30
0.0
 11
715.9079982640562
 21
1132.187867361228
 31
0.0
  0
LINE
  5
DB5
330
1F
100
AcDbEntity
  8
0
 62
     7
 48
0.39155
100
AcDbLine
 10
716.4079982640562
 20
1148.349854361228
 30
0.0
 11
716.4079982640562
 21
1132.687867361228
 31
0.0
  0
LINE
  5
DB6
330
1F
100
AcDbEntity
  8
0
 62
     7
 48
0.017678
100
AcDbLine
 10
716.4079982640562
 20
1148.349854361228
 30
0.0
 11
715.9079982640562
 21
1148.849854361228
 31
0.0
  0
LINE
  5
DB7
330
1F
100
AcDbEntity
  8
0
 62
     7
 48
0.41655
100
AcDbLine
 10
715.9079982640562
 20
1148.849854361228
 30
0.0
 11
715.9079982640562
 21
1132.187867361228
 31
0.0
  0
LINE
  5
DB8
330
1F
100
AcDbEntity
  8
0
 62
     7
 48
0.0125
100
AcDbLine
 10
715.9079982640562
 20
1132.187867361228
 30
0.0
 11
715.4079982640562
 21
1132.187867361228
 31
0.0
  0
LINE
  5
DB9
330
1F
100
AcDbEntity
  8
0
 62
     7
 48
0.0125
100
AcDbLine
 10
715.9079982640562
 20
1148.849854361228
 30
0.0
 11
715.4079982640562
 21
1148.849854361228
 31
0.0
  0
LINE
  5
DBA
330
1F
100
AcDbEntity
  8
0
 62
     7
 48
0.0125
100
AcDbLine
 10
715.4079982640562
 20
1133.043855361228
 30
0.0
 11
715.9079982640562
 21
1133.043855361228
 31
0.0
  0
LINE
  5
DBB
330
1F
100
AcDbEntity
  8
0
 62
     7
 48
0.0125
100
AcDbLine
 10
715.9079982640562
 20
1133.043855361228
 30
0.0
 11
716.4079982640562
 21
1133.043855361228
 31
0.0
  0
LINE
  5
DBC
330
1F
100
AcDbEntity
  8
0
 62
     7
 48
0.0125
100
AcDbLine
 10
715.4079982640562
 20
1147.993867361228
 30
0.0
 11
715.9079982640562
 21
1147.993867361228
 31
0.0
  0
LINE
  5
DBD
330
1F
100
AcDbEntity
  8
0
 62
     7
 48
0.0125
100
AcDbLine
 10
715.9079982640562
 20
1147.993867361228
 30
0.0
 11
716.4079982640562
 21
1147.993867361228
 31
0.0
  0
LINE
  5
DBE
330
1F
100
AcDbEntity
  8
0
 62
     7
 48
0.236938
100
AcDbLine
 10
715.4079982640562
 20
1131.041352361228
 30
0.0
 11
715.4079982640562
 21
1140.518861361228
 31
0.0
  0
LINE
  5
DBF
330
1F
100
AcDbEntity
  8
0
 62
     7
 48
0.236938
100
AcDbLine
 10
715.4079982640562
 20
1140.518861361228
 30
0.0
 11
715.4079982640562
 21
1149.996369361228
 31
0.0
  0
LINE
  5
DC0
330
1F
100
AcDbEntity
  8
0
 62
     7
 48
0.261938
100
AcDbLine
 10
714.4079982640562
 20
1130.041352361228
 30
0.0
 11
714.4079982640562
 21
1140.518861361228
 31
0.0
  0
LINE
  5
DC1
330
1F
100
AcDbEntity
  8
0
 62
     7
 48
0.261938
100
AcDbLine
 10
714.4079982640562
 20
1140.518861361228
 30
0.0
 11
714.4079982640562
 21
1150.996369361228
 31
0.0
  0
LINE
  5
DC2
330
1F
100
AcDbEntity
  8
0
 62
     7
 48
0.253902
100
AcDbLine
 10
678.7795652640559
 20
1140.518845361228
 30
0.0
 11
670.4079982640562
 21
1146.268861361228
 31
0.0
  0
POLYLINE
  5
DC3
330
1F
100
AcDbEntity
  8
0
 62
     7
100
AcDb2dPolyline
 66
     1
 10
0.0
 20
0.0
 30
0.0
  0
VERTEX
  5
DC4
330
DC3
100
AcDbEntity
  8
0
100
AcDbVertex
100
AcDb2dVertex
 10
677.4805542640563
 20
1139.018876361228
 30
0.0
  0
VERTEX
  5
DC5
330
DC3
100
AcDbEntity
  8
0
100
AcDbVertex
100
AcDb2dVertex
 10
674.458154264056
 20
1142.026917361228
 30
0.0
  0
VERTEX
  5
DC6
330
DC3
100
AcDbEntity
  8
0
100
AcDbVertex
100
AcDb2dVertex
 10
671.6457762640559
 20
1144.937318361228
 30
0.0
  0
VERTEX
  5
DC7
330
DC3
100
AcDbEntity
  8
0
100
AcDbVertex
100
AcDb2dVertex
 10
670.4079982640562
 20
1146.268861361228
 30
0.0
  0
SEQEND
  5
DC8
330
DC3
100
AcDbEntity
  8
0
  0
LINE
  5
DC9
330
1F
100
AcDbEntity
  8
0
 62
     7
 48
0.341652
100
AcDbLine
 10
690.0444122640561
 20
1132.781632361228
 30
0.0
 11
678.7795502640562
 21
1140.518861361228
 31
0.0
  0
POLYLINE
  5
DCA
330
1F
100
AcDbEntity
  8
0
 62
     7
100
AcDb2dPolyline
 66
     1
 10
0.0
 20
0.0
 30
0.0
  0
VERTEX
  5
DCB
330
DCA
100
AcDbEntity
  8
0
100
AcDbVertex
100
AcDb2dVertex
 10
687.7643832640561
 20
1129.263215361228
 30
0.0
  0
VERTEX
  5
DCC
330
DCA
100
AcDbEntity
  8
0
100
AcDbVertex
100
AcDb2dVertex
 10
682.622583264056
 20
1134.074082361228
 30
0.0
  0
VERTEX
  5
DCD
330
DCA
100
AcDbEntity
  8
0
100
AcDbVertex
100
AcDb2dVertex
 10
677.4805392640562
 20
1139.018891361228
 30
0.0
  0
SEQEND
  5
DCE
330
DCA
100
AcDbEntity
  8
0
  0
LINE
  5
DCF
330
1F
100
AcDbEntity
  8
0
 62
     7
 48
0.166152
100
AcDbLine
 10
695.5227442640558
 20
1129.018861361228
 30
0.0
 11
690.0444122640561
 21
1132.781632361228
 31
0.0
  0
ARC
  5
DD0
330
1F
100
AcDbEntity
  8
0
 62
     7
100
AcDbCircle
 10
1364.879312264056
 20
1860.603333361228
 30
0.0
 40
996.666109
100
AcDbArc
 50
227.2047850000007
 51
227.6077659999976
  0
LINE
  5
DD1
330
1F
100
AcDbEntity
  8
0
 62
     7
 48
0.076101
100
AcDbLine
 10
692.229989264056
 20
1120.449647361228
 30
0.0
 11
695.2740262640561
 21
1120.449647361228
 31
0.0
  0
LINE
  5
DD2
330
1F
100
AcDbEntity
  8
0
 62
     7
 48
0.248982
100
AcDbLine
 10
660.4487092640558
 20
1146.268861361228
 30
0.0
 11
670.4079982640562
 21
1146.268861361228
 31
0.0
  0
LINE
  5
DD3
330
1F
100
AcDbEntity
  8
0
 62
     7
100
AcDbLine
 10
645.5419702640559
 20
1120.449647361228
 30
0.0
 11
692.229989264056
 21
1120.449647361228
 31
0.0
  0
LINE
  5
DD4
330
1F
100
AcDbEntity
  8
0
 62
     7
 48
0.096404
100
AcDbLine
 10
698.0518432640563
 20
1062.675736361228
 30
0.0
 11
701.9079982640562
 21
1062.675736361228
 31
0.0
  0
LINE
  5
DD5
330
1F
100
AcDbEntity
  8
0
 62
     7
 48
0.092599
100
AcDbLine
 10
696.9607782640562
 20
1064.527055361228
 30
0.0
 11
700.6647272640559
 21
1064.527055361228
 31
0.0
  0
LINE
  5
DD6
330
1F
100
AcDbEntity
  8
0
 62
     7
100
AcDbLine
 10
638.9079982640562
 20
1062.675736361228
 30
0.0
 11
698.0518432640563
 21
1062.675736361228
 31
0.0
  0
LINE
  5
DD7
330
1F
100
AcDbEntity
  8
0
 62
     7
100
AcDbLine
 10
640.151269264056
 20
1064.527055361228
 30
0.0
 11
696.9607782640562
 21
1064.527055361228
 31
0.0
  0
LINE
  5
DD8
330
1F
100
AcDbEntity
  8
0
 62
     7
100
AcDbLine
 10
644.1647272640559
 20
1066.167542361228
 30
0.0
 11
693.438638264056
 21
1066.167542361228
 31
0.0
  0
LINE
  5
DD9
330
1F
100
AcDbEntity
  8
0
 62
     7
 48
0.080316
100
AcDbLine
 10
693.438638264056
 20
1066.167542361228
 30
0.0
 11
696.651269264056
 21
1066.167542361228
 31
0.0
  0
LINE
  5
DDA
330
1F
100
AcDbEntity
  8
0
 62
     7
100
AcDbLine
 10
645.4079982640562
 20
1068.018861361228
 30
0.0
 11
692.347558264056
 21
1068.018861361228
 31
0.0
  0
LINE
  5
DDB
330
1F
100
AcDbEntity
  8
0
 62
     7
 48
0.076511
100
AcDbLine
 10
692.347558264056
 20
1068.018861361228
 30
0.0
 11
695.4079982640562
 21
1068.018861361228
 31
0.0
  0
LINE
  5
DDC
330
1F
100
AcDbEntity
  8
0
 62
     7
100
AcDbLine
 10
645.4079982640562
 20
1119.949647361228
 30
0.0
 11
692.347558264056
 21
1119.949647361228
 31
0.0
  0
LINE
  5
DDD
330
1F
100
AcDbEntity
  8
0
 62
     7
 48
0.076511
100
AcDbLine
 10
692.347558264056
 20
1119.949647361228
 30
0.0
 11
695.4079982640562
 21
1119.949647361228
 31
0.0
  0
LINE
  5
DDE
330
1F
100
AcDbEntity
  8
0
 62
     7
 48
0.14375
100
AcDbLine
 10
670.4079982640562
 20
1152.018861361228
 30
0.0
 11
670.4079982640562
 21
1146.268861361228
 31
0.0
  0
LINE
  5
DDF
330
1F
100
AcDbEntity
  8
0
 62
     7
 48
0.096404
100
AcDbLine
 10
698.0518432640563
 20
1060.118867361228
 30
0.0
 11
701.9079982640562
 21
1060.118867361228
 31
0.0
  0
LINE
  5
DE0
330
1F
100
AcDbEntity
  8
0
 62
     7
100
AcDbLine
 10
638.9079982640562
 20
1060.118867361228
 30
0.0
 11
698.0518432640563
 21
1060.118867361228
 31
0.0
  0
LINE
  5
DE1
330
1F
100
AcDbEntity
  8
0
 62
     7
 48
0.096098
100
AcDbLine
 10
697.964090264056
 20
1060.018861361228
 30
0.0
 11
701.8079922640561
 21
1060.018861361228
 31
0.0
  0
LINE
  5
DE2
330
1F
100
AcDbEntity
  8
0
 62
     7
100
AcDbLine
 10
639.0080042640557
 20
1060.018861361228
 30
0.0
 11
697.964090264056
 21
1060.018861361228
 31
0.0
  0
LINE
  5
DE3
330
1F
100
AcDbEntity
  8
0
 62
     7
 48
0.2875
100
AcDbLine
 10
702.3079922640561
 20
1140.518861361228
 30
0.0
 11
702.3079922640561
 21
1152.018861361228
 31
0.0
  0
LINE
  5
DE4
330
1F
100
AcDbEntity
  8
0
 62
     7
 48
0.2875
100
AcDbLine
 10
702.3079922640561
 20
1129.018861361228
 30
0.0
 11
702.3079922640561
 21
1140.518861361228
 31
0.0
  0
LINE
  5
DE5
330
1F
100
AcDbEntity
  8
0
 62
     7
 48
0.285
100
AcDbLine
 10
702.4079982640562
 20
1140.518861361228
 30
0.0
 11
702.4079982640562
 21
1151.918855361228
 31
0.0
  0
LINE
  5
DE6
330
1F
100
AcDbEntity
  8
0
 62
     7
 48
0.285
100
AcDbLine
 10
702.4079982640562
 20
1129.118867361228
 30
0.0
 11
702.4079982640562
 21
1140.518861361228
 31
0.0
  0
LINE
  5
DE7
330
1F
100
AcDbEntity
  8
0
 62
     7
 48
0.261938
100
AcDbLine
 10
702.5080042640559
 20
1130.041352361228
 30
0.0
 11
702.5080042640559
 21
1140.518861361228
 31
0.0
  0
LINE
  5
DE8
330
1F
100
AcDbEntity
  8
0
 62
     7
 48
0.261938
100
AcDbLine
 10
702.5080042640559
 20
1140.518861361228
 30
0.0
 11
702.5080042640559
 21
1150.996369361228
 31
0.0
  0
LINE
  5
DE9
330
1F
100
AcDbEntity
  8
0
 62
     7
 48
0.035355
100
AcDbLine
 10
715.4079982640562
 20
1131.041352361228
 30
0.0
 11
714.4079982640562
 21
1130.041352361228
 31
0.0
  0
LINE
  5
DEA
330
1F
100
AcDbEntity
  8
0
 62
     7
 48
0.035355
100
AcDbLine
 10
715.4079982640562
 20
1149.996369361228
 30
0.0
 11
714.4079982640562
 21
1150.996369361228
 31
0.0
  0
ARC
  5
DEB
330
1F
100
AcDbEntity
  8
0
 62
     7
100
AcDbCircle
 10
695.5227442640558
 20
1126.018861361228
 30
0.0
 40
3.0
100
AcDbArc
 50
90.00000899999308
 51
209.9999889999961
  0
LINE
  5
DEC
330
1F
100
AcDbEntity
  8
0
 62
     7
 48
0.117468
100
AcDbLine
 10
692.9246612640561
 20
1124.518861361228
 30
0.0
 11
695.2740262640561
 21
1120.449647361228
 31
0.0
  0
LINE
  5
DED
330
1F
100
AcDbEntity
  8
0
 62
     7
100
AcDbLine
 10
660.4487092640558
 20
1146.268861361228
 30
0.0
 11
645.5419702640559
 21
1120.449647361228
 31
0.0
  0
ARC
  5
DEE
330
1F
100
AcDbEntity
  8
0
 62
     7
100
AcDbCircle
 10
699.9079982640562
 20
1062.675736361228
 30
0.0
 40
2.0
100
AcDbArc
 50
0.0
 51
67.76772299999253
  0
ARC
  5
DEF
330
1F
100
AcDbEntity
  8
0
 62
     7
100
AcDbCircle
 10
640.9079982640562
 20
1062.675736361228
 30
0.0
 40
2.0
100
AcDbArc
 50
112.2322750000027
 51
179.9999949999995
  0
LINE
  5
DF0
330
1F
100
AcDbEntity
  8
0
 62
     7
 48
0.108395
100
AcDbLine
 10
644.1647272640559
 20
1066.167542361228
 30
0.0
 11
640.151269264056
 21
1064.527055361228
 31
0.0
  0
LINE
  5
DF1
330
1F
100
AcDbEntity
  8
0
 62
     7
 48
0.108395
100
AcDbLine
 10
696.651269264056
 20
1066.167542361228
 30
0.0
 11
700.6647272640559
 21
1064.527055361228
 31
0.0
  0
ARC
  5
DF2
330
1F
100
AcDbEntity
  8
0
 62
     7
100
AcDbCircle
 10
643.4079982640562
 20
1068.018861361228
 30
0.0
 40
2.0
100
AcDbArc
 50
292.2322770000075
 51
0.0
  0
ARC
  5
DF3
330
1F
100
AcDbEntity
  8
0
 62
     7
100
AcDbCircle
 10
697.4079982640562
 20
1068.018861361228
 30
0.0
 40
2.0
100
AcDbArc
 50
180.0000050000005
 51
247.7677249999973
  0
LINE
  5
DF4
330
1F
100
AcDbEntity
  8
0
 62
     7
100
AcDbLine
 10
645.4079982640562
 20
1119.949647361228
 30
0.0
 11
645.4079982640562
 21
1068.018861361228
 31
0.0
  0
LINE
  5
DF5
330
1F
100
AcDbEntity
  8
0
 62
     7
100
AcDbLine
 10
695.4079982640562
 20
1119.949647361228
 30
0.0
 11
695.4079982640562
 21
1068.018861361228
 31
0.0
  0
ARC
  5
DF6
330
1F
100
AcDbEntity
  8
0
 62
     7
100
AcDbCircle
 10
646.4079982640562
 20
1119.949647361228
 30
0.0
 40
1.0
100
AcDbArc
 50
149.9999969999985
 51
179.9999949999995
  0
ARC
  5
DF7
330
1F
100
AcDbEntity
  8
0
 62
     7
100
AcDbCircle
 10
694.4079982640562
 20
1119.949647361228
 30
0.0
 40
1.0
100
AcDbArc
 50
0.0
 51
30.00000099999984
  0
ARC
  5
DF8
330
1F
100
AcDbEntity
  8
0
 62
     7
100
AcDbCircle
 10
670.4079982640562
 20
1140.518861361228
 30
0.0
 40
11.5
100
AcDbArc
 50
90.00000299999769
 51
149.9999969999985
  0
LINE
  5
DF9
330
1F
100
AcDbEntity
  8
0
 62
     7
 48
0.063922
100
AcDbLine
 10
701.9079982640562
 20
1062.675736361228
 30
0.0
 11
701.9079982640562
 21
1060.118867361228
 31
0.0
  0
LINE
  5
DFA
330
1F
100
AcDbEntity
  8
0
 62
     7
 48
0.063922
100
AcDbLine
 10
638.9079982640562
 20
1062.675736361228
 30
0.0
 11
638.9079982640562
 21
1060.118867361228
 31
0.0
  0
ARC
  5
DFB
330
1F
100
AcDbEntity
  8
0
 62
     7
100
AcDbCircle
 10
701.8079162640563
 20
1060.118943361228
 30
0.0
 40
0.100071
100
AcDbArc
 50
270.0460739999935
 51
359.9539319999973
  0
ARC
  5
DFC
330
1F
100
AcDbEntity
  8
0
 62
     7
100
AcDbCircle
 10
639.008081264056
 20
1060.118943361228
 30
0.0
 40
0.100071
100
AcDbArc
 50
180.0460710000013
 51
269.953927999997
  0
LINE
  5
DFD
102
{ACAD_REACTORS
330
F1A
102
}
330
1F
100
AcDbEntity
  8
0
 62
     7
100
AcDbLine
 10
670.4079982640562
 20
1152.018861361228
 30
0.0
 11
702.3079922640561
 21
1152.018861361228
 31
0.0
  0
LINE
  5
DFE
330
1F
100
AcDbEntity
  8
0
 62
     7
 48
0.169631
100
AcDbLine
 10
695.5227442640558
 20
1129.018861361228
 30
0.0
 11
702.3079922640561
 21
1129.018861361228
 31
0.0
  0
ARC
  5
DFF
330
1F
100
AcDbEntity
  8
0
 62
     7
100
AcDbCircle
 10
702.3079162640563
 20
1151.918763361228
 30
0.0
 40
0.100071
100
AcDbArc
 50
0.0460839999977316
 51
89.95391900000095
  0
ARC
  5
E00
330
1F
100
AcDbEntity
  8
0
 62
     7
100
AcDbCircle
 10
702.3079162640563
 20
1129.118943361228
 30
0.0
 40
0.100071
100
AcDbArc
 50
270.0460809999991
 51
359.9539160000023
  0
LINE
  5
E01
330
1F
100
AcDbEntity
  8
0
 62
     7
 48
0.2975
100
AcDbLine
 10
702.5080042640559
 20
1130.041352361228
 30
0.0
 11
714.4079982640562
 21
1130.041352361228
 31
0.0
  0
LINE
  5
E02
330
1F
100
AcDbEntity
  8
0
 62
     7
 48
0.2975
100
AcDbLine
 10
702.5080042640559
 20
1150.996369361228
 30
0.0
 11
714.4079982640562
 21
1150.996369361228
 31
0.0
  0
ARC
  5
E03
330
1F
100
AcDbEntity
  8
0
 62
     7
100
AcDbCircle
 10
702.508081264056
 20
1151.096436361228
 30
0.0
 40
0.100071
100
AcDbArc
 50
180.0460849999995
 51
269.9539139999989
  0
ARC
  5
E04
330
1F
100
AcDbEntity
  8
0
 62
     7
100
AcDbCircle
 10
702.508081264056
 20
1129.941285361228
 30
0.0
 40
0.100071
100
AcDbArc
 50
90.04608600000118
 51
179.9539150000005
  0
LINE
  5
E05
330
1F
100
AcDbEntity
  8
0
 62
     7
 48
0.0025
100
AcDbLine
 10
702.4079982640562
 20
1149.834351361228
 30
0.0
 11
702.5080042640559
 21
1149.834351361228
 31
0.0
  0
LINE
  5
E06
330
1F
100
AcDbEntity
  8
0
 62
     7
 48
0.2975
100
AcDbLine
 10
702.5080042640559
 20
1149.834351361228
 30
0.0
 11
714.4079982640562
 21
1149.834351361228
 31
0.0
  0
LINE
  5
E07
330
1F
100
AcDbEntity
  8
0
 62
     7
 48
0.025
100
AcDbLine
 10
714.4079982640562
 20
1149.834351361228
 30
0.0
 11
715.4079982640562
 21
1149.834351361228
 31
0.0
  0
LINE
  5
E08
330
1F
100
AcDbEntity
  8
0
 62
     7
 48
0.0025
100
AcDbLine
 10
702.4079982640562
 20
1131.203370361228
 30
0.0
 11
702.5080042640559
 21
1131.203370361228
 31
0.0
  0
LINE
  5
E09
330
1F
100
AcDbEntity
  8
0
 62
     7
 48
0.2975
100
AcDbLine
 10
702.5080042640559
 20
1131.203370361228
 30
0.0
 11
714.4079982640562
 21
1131.203370361228
 31
0.0
  0
LINE
  5
E0A
330
1F
100
AcDbEntity
  8
0
 62
     7
 48
0.025
100
AcDbLine
 10
714.4079982640562
 20
1131.203370361228
 30
0.0
 11
715.4079982640562
 21
1131.203370361228
 31
0.0
  0
LINE
  5
E0B
330
1F
100
AcDbEntity
  8
0
 62
     7
 48
0.261938
100
AcDbLine
 10
702.4079982640562
 20
1140.518861361228
 30
0.0
 11
702.4079982640562
 21
1150.996369361228
 31
0.0
  0
LINE
  5
E0C
330
1F
100
AcDbEntity
  8
0
 62
     7
 48
0.261935
100
AcDbLine
 10
702.4079982640562
 20
1130.041444361228
 30
0.0
 11
702.4079982640562
 21
1140.518861361228
 31
0.0
  0
LINE
  5
E0D
330
1F
100
AcDbEntity
  8
0
 62
     7
 48
0.261938
100
AcDbLine
 10
702.4079982640562
 20
1140.518861361228
 30
0.0
 11
702.4079982640562
 21
1130.041337361228
 31
0.0
  0
LINE
  5
E0E
330
1F
100
AcDbEntity
  8
0
 62
     7
 48
0.261938
100
AcDbLine
 10
702.4079982640562
 20
1150.996369361228
 30
0.0
 11
702.4079982640562
 21
1140.518861361228
 31
0.0
  0
POLYLINE
  5
E0F
330
1F
100
AcDbEntity
  8
0
 62
     7
100
AcDb2dPolyline
 66
     1
 10
0.0
 20
0.0
 30
0.0
  0
VERTEX
  5
E10
330
E0F
100
AcDbEntity
  8
0
100
AcDbVertex
100
AcDb2dVertex
 10
673.1093074681576
 20
440.8456422187428
 30
0.0
  0
VERTEX
  5
E11
330
E0F
100
AcDbEntity
  8
0
100
AcDbVertex
100
AcDb2dVertex
 10
674.3409664037045
 20
440.7080994941334
 30
0.0
  0
VERTEX
  5
E12
330
E0F
100
AcDbEntity
  8
0
100
AcDbVertex
100
AcDb2dVertex
 10
675.5767299535094
 20
440.5215913154225
 30
0.0
  0
VERTEX
  5
E13
330
E0F
100
AcDbEntity
  8
0
100
AcDbVertex
100
AcDb2dVertex
 10
676.8199550511655
 20
440.2873841621022
 30
0.0
  0
VERTEX
  5
E14
330
E0F
100
AcDbEntity
  8
0
100
AcDbVertex
100
AcDb2dVertex
 10
678.0674220921812
 20
440.0083161689381
 30
0.0
  0
VERTEX
  5
E15
330
E0F
100
AcDbEntity
  8
0
100
AcDbVertex
100
AcDb2dVertex
 10
680.5116359593687
 20
439.3456422187426
 30
0.0
  0
SEQEND
  5
E16
330
E0F
100
AcDbEntity
  8
0
  0
LINE
  5
E17
330
1F
100
AcDbEntity
  8
0
 62
     7
 48
0.1350654602050781
100
AcDbLine
 10
673.1093074681576
 20
440.8456422187428
 30
0.0
 11
667.7066890599546
 21
440.8456422187428
 31
0.0
  0
POLYLINE
  5
E18
330
1F
100
AcDbEntity
  8
0
 62
     7
100
AcDb2dPolyline
 66
     1
 10
0.0
 20
0.0
 30
0.0
  0
VERTEX
  5
E19
330
E18
100
AcDbEntity
  8
0
100
AcDbVertex
100
AcDb2dVertex
 10
667.7066890599546
 20
440.8456422187428
 30
0.0
  0
VERTEX
  5
E1A
330
E18
100
AcDbEntity
  8
0
100
AcDbVertex
100
AcDb2dVertex
 10
666.4750301244078
 20
440.7080994941334
 30
0.0
  0
VERTEX
  5
E1B
330
E18
100
AcDbEntity
  8
0
100
AcDbVertex
100
AcDb2dVertex
 10
665.2392665746031
 20
440.5215913154225
 30
0.0
  0
VERTEX
  5
E1C
330
E18
100
AcDbEntity
  8
0
100
AcDbVertex
100
AcDb2dVertex
 10
663.9960414769467
 20
440.2873841621022
 30
0.0
  0
VERTEX
  5
E1D
330
E18
100
AcDbEntity
  8
0
100
AcDbVertex
100
AcDb2dVertex
 10
662.7485744359312
 20
440.0083161689381
 30
0.0
  0
VERTEX
  5
E1E
330
E18
100
AcDbEntity
  8
0
100
AcDbVertex
100
AcDb2dVertex
 10
660.3043605687437
 20
439.3456422187426
 30
0.0
  0
SEQEND
  5
E1F
330
E18
100
AcDbEntity
  8
0
  0
LINE
  5
E20
330
1F
100
AcDbEntity
  8
0
 62
     7
 48
0.1
100
AcDbLine
 10
660.3043605687437
 20
439.3456422187426
 30
0.0
 11
660.3043605687437
 21
435.3456422187426
 31
0.0
  0
POLYLINE
  5
E21
330
1F
100
AcDbEntity
  8
0
 62
     7
100
AcDb2dPolyline
 66
     1
 10
0.0
 20
0.0
 30
0.0
  0
VERTEX
  5
E22
330
E21
100
AcDbEntity
  8
0
100
AcDbVertex
100
AcDb2dVertex
 10
667.7066890599546
 20
433.8456422187427
 30
0.0
  0
VERTEX
  5
E23
330
E21
100
AcDbEntity
  8
0
100
AcDbVertex
100
AcDb2dVertex
 10
666.4750301244078
 20
433.9831849433521
 30
0.0
  0
VERTEX
  5
E24
330
E21
100
AcDbEntity
  8
0
100
AcDbVertex
100
AcDb2dVertex
 10
665.2392665746031
 20
434.1696931220631
 30
0.0
  0
VERTEX
  5
E25
330
E21
100
AcDbEntity
  8
0
100
AcDbVertex
100
AcDb2dVertex
 10
663.9960414769467
 20
434.4039002753834
 30
0.0
  0
VERTEX
  5
E26
330
E21
100
AcDbEntity
  8
0
100
AcDbVertex
100
AcDb2dVertex
 10
662.7485744359312
 20
434.6829682685473
 30
0.0
  0
VERTEX
  5
E27
330
E21
100
AcDbEntity
  8
0
100
AcDbVertex
100
AcDb2dVertex
 10
660.3043605687437
 20
435.3456422187426
 30
0.0
  0
SEQEND
  5
E28
330
E21
100
AcDbEntity
  8
0
  0
LINE
  5
E29
102
{ACAD_REACTORS
330
F1A
102
}
330
1F
100
AcDbEntity
  8
0
 62
     7
 48
0.1350654602050781
100
AcDbLine
 10
673.1093074681576
 20
433.8456422187427
 30
0.0
 11
667.7066890599546
 21
433.8456422187427
 31
0.0
  0
POLYLINE
  5
E2A
330
1F
100
AcDbEntity
  8
0
 62
     7
100
AcDb2dPolyline
 66
     1
 10
0.0
 20
0.0
 30
0.0
  0
VERTEX
  5
E2B
330
E2A
100
AcDbEntity
  8
0
100
AcDbVertex
100
AcDb2dVertex
 10
673.1093074681576
 20
433.8456422187427
 30
0.0
  0
VERTEX
  5
E2C
330
E2A
100
AcDbEntity
  8
0
100
AcDbVertex
100
AcDb2dVertex
 10
674.3409664037045
 20
433.9831849433521
 30
0.0
  0
VERTEX
  5
E2D
330
E2A
100
AcDbEntity
  8
0
100
AcDbVertex
100
AcDb2dVertex
 10
675.5767299535094
 20
434.1696931220631
 30
0.0
  0
VERTEX
  5
E2E
330
E2A
100
AcDbEntity
  8
0
100
AcDbVertex
100
AcDb2dVertex
 10
676.8199550511655
 20
434.4039002753834
 30
0.0
  0
VERTEX
  5
E2F
330
E2A
100
AcDbEntity
  8
0
100
AcDbVertex
100
AcDb2dVertex
 10
678.0674220921812
 20
434.6829682685473
 30
0.0
  0
VERTEX
  5
E30
330
E2A
100
AcDbEntity
  8
0
100
AcDbVertex
100
AcDb2dVertex
 10
680.5116359593687
 20
435.3456422187426
 30
0.0
  0
SEQEND
  5
E31
330
E2A
100
AcDbEntity
  8
0
  0
LINE
  5
E32
330
1F
100
AcDbEntity
  8
0
 62
     7
 48
0.1
100
AcDbLine
 10
680.5116359593687
 20
439.3456422187426
 30
0.0
 11
680.5116359593687
 21
435.3456422187426
 31
0.0
  0
POLYLINE
  5
E33
330
1F
100
AcDbEntity
  8
0
 62
     7
100
AcDb2dPolyline
 66
     1
 10
0.0
 20
0.0
 30
0.0
  0
VERTEX
  5
E34
330
E33
100
AcDbEntity
  8
0
100
AcDbVertex
100
AcDb2dVertex
 10
656.6032039525326
 20
440.8456422187428
 30
0.0
  0
VERTEX
  5
E35
330
E33
100
AcDbEntity
  8
0
100
AcDbVertex
100
AcDb2dVertex
 10
657.195092380267
 20
440.714355597649
 30
0.0
  0
VERTEX
  5
E36
330
E33
100
AcDbEntity
  8
0
100
AcDbVertex
100
AcDb2dVertex
 10
657.7888728978453
 20
440.5377808906178
 30
0.0
  0
VERTEX
  5
E37
330
E33
100
AcDbEntity
  8
0
100
AcDbVertex
100
AcDb2dVertex
 10
658.4344264867125
 20
440.2973176337818
 30
0.0
  0
VERTEX
  5
E38
330
E33
100
AcDbEntity
  8
0
100
AcDbVertex
100
AcDb2dVertex
 10
659.082268893939
 20
440.0083161689381
 30
0.0
  0
VERTEX
  5
E39
330
E33
100
AcDbEntity
  8
0
100
AcDbVertex
100
AcDb2dVertex
 10
660.3043605687437
 20
439.3456422187426
 30
0.0
  0
SEQEND
  5
E3A
330
E33
100
AcDbEntity
  8
0
  0
LINE
  5
E3B
330
1F
100
AcDbEntity
  8
0
 62
     7
 48
0.0675327301025391
100
AcDbLine
 10
656.6032039525326
 20
440.8456422187428
 30
0.0
 11
653.9018947484312
 21
440.8456422187428
 31
0.0
  0
POLYLINE
  5
E3C
330
1F
100
AcDbEntity
  8
0
 62
     7
100
AcDb2dPolyline
 66
     1
 10
0.0
 20
0.0
 30
0.0
  0
VERTEX
  5
E3D
330
E3C
100
AcDbEntity
  8
0
100
AcDbVertex
100
AcDb2dVertex
 10
653.9018947484312
 20
440.8456422187428
 30
0.0
  0
VERTEX
  5
E3E
330
E3C
100
AcDbEntity
  8
0
100
AcDbVertex
100
AcDb2dVertex
 10
653.3100063206967
 20
440.714355597649
 30
0.0
  0
VERTEX
  5
E3F
330
E3C
100
AcDbEntity
  8
0
100
AcDbVertex
100
AcDb2dVertex
 10
652.7162410619077
 20
440.5377808906178
 30
0.0
  0
VERTEX
  5
E40
330
E3C
100
AcDbEntity
  8
0
100
AcDbVertex
100
AcDb2dVertex
 10
652.0706874730405
 20
440.2973176337818
 30
0.0
  0
VERTEX
  5
E41
330
E3C
100
AcDbEntity
  8
0
100
AcDbVertex
100
AcDb2dVertex
 10
651.422845065814
 20
440.0083161689381
 30
0.0
  0
VERTEX
  5
E42
330
E3C
100
AcDbEntity
  8
0
100
AcDbVertex
100
AcDb2dVertex
 10
650.2007381322203
 20
439.3456422187426
 30
0.0
  0
SEQEND
  5
E43
330
E3C
100
AcDbEntity
  8
0
  0
LINE
  5
E44
330
1F
100
AcDbEntity
  8
0
 62
     7
 48
0.1
100
AcDbLine
 10
650.2007381322203
 20
439.3456422187426
 30
0.0
 11
650.2007381322203
 21
435.3456422187426
 31
0.0
  0
POLYLINE
  5
E45
330
1F
100
AcDbEntity
  8
0
 62
     7
100
AcDb2dPolyline
 66
     1
 10
0.0
 20
0.0
 30
0.0
  0
VERTEX
  5
E46
330
E45
100
AcDbEntity
  8
0
100
AcDbVertex
100
AcDb2dVertex
 10
653.9018947484312
 20
433.8456422187427
 30
0.0
  0
VERTEX
  5
E47
330
E45
100
AcDbEntity
  8
0
100
AcDbVertex
100
AcDb2dVertex
 10
653.3100063206967
 20
433.9769288398365
 30
0.0
  0
VERTEX
  5
E48
330
E45
100
AcDbEntity
  8
0
100
AcDbVertex
100
AcDb2dVertex
 10
652.7162410619077
 20
434.1535035468678
 30
0.0
  0
VERTEX
  5
E49
330
E45
100
AcDbEntity
  8
0
100
AcDbVertex
100
AcDb2dVertex
 10
652.0706874730405
 20
434.3939668037037
 30
0.0
  0
VERTEX
  5
E4A
330
E45
100
AcDbEntity
  8
0
100
AcDbVertex
100
AcDb2dVertex
 10
651.422845065814
 20
434.6829682685473
 30
0.0
  0
VERTEX
  5
E4B
330
E45
100
AcDbEntity
  8
0
100
AcDbVertex
100
AcDb2dVertex
 10
650.2007381322203
 20
435.3456422187426
 30
0.0
  0
SEQEND
  5
E4C
330
E45
100
AcDbEntity
  8
0
  0
LINE
  5
E4D
330
1F
100
AcDbEntity
  8
0
 62
     7
 48
0.0675327301025391
100
AcDbLine
 10
656.6032039525326
 20
433.8456422187427
 30
0.0
 11
653.9018947484312
 21
433.8456422187427
 31
0.0
  0
POLYLINE
  5
E4E
330
1F
100
AcDbEntity
  8
0
 62
     7
100
AcDb2dPolyline
 66
     1
 10
0.0
 20
0.0
 30
0.0
  0
VERTEX
  5
E4F
330
E4E
100
AcDbEntity
  8
0
100
AcDbVertex
100
AcDb2dVertex
 10
656.6032039525326
 20
433.8456422187427
 30
0.0
  0
VERTEX
  5
E50
330
E4E
100
AcDbEntity
  8
0
100
AcDbVertex
100
AcDb2dVertex
 10
657.195092380267
 20
433.9769288398365
 30
0.0
  0
VERTEX
  5
E51
330
E4E
100
AcDbEntity
  8
0
100
AcDbVertex
100
AcDb2dVertex
 10
657.7888728978453
 20
434.1535035468678
 30
0.0
  0
VERTEX
  5
E52
330
E4E
100
AcDbEntity
  8
0
100
AcDbVertex
100
AcDb2dVertex
 10
658.4344264867125
 20
434.3939668037037
 30
0.0
  0
VERTEX
  5
E53
330
E4E
100
AcDbEntity
  8
0
100
AcDbVertex
100
AcDb2dVertex
 10
659.082268893939
 20
434.6829682685473
 30
0.0
  0
VERTEX
  5
E54
330
E4E
100
AcDbEntity
  8
0
100
AcDbVertex
100
AcDb2dVertex
 10
660.3043605687437
 20
435.3456422187426
 30
0.0
  0
SEQEND
  5
E55
330
E4E
100
AcDbEntity
  8
0
  0
LINE
  5
E56
330
1F
100
AcDbEntity
  8
0
 62
     7
 48
0.1
100
AcDbLine
 10
690.615258395892
 20
439.3456422187426
 30
0.0
 11
690.615258395892
 21
435.3456422187426
 31
0.0
  0
POLYLINE
  5
E57
330
1F
100
AcDbEntity
  8
0
 62
     7
100
AcDb2dPolyline
 66
     1
 10
0.0
 20
0.0
 30
0.0
  0
VERTEX
  5
E58
330
E57
100
AcDbEntity
  8
0
100
AcDbVertex
100
AcDb2dVertex
 10
686.9141017796812
 20
440.8456422187428
 30
0.0
  0
VERTEX
  5
E59
330
E57
100
AcDbEntity
  8
0
100
AcDbVertex
100
AcDb2dVertex
 10
687.5059902074156
 20
440.714355597649
 30
0.0
  0
VERTEX
  5
E5A
330
E57
100
AcDbEntity
  8
0
100
AcDbVertex
100
AcDb2dVertex
 10
688.0997554662045
 20
440.5377808906178
 30
0.0
  0
VERTEX
  5
E5B
330
E57
100
AcDbEntity
  8
0
100
AcDbVertex
100
AcDb2dVertex
 10
688.7453090550717
 20
440.2973176337818
 30
0.0
  0
VERTEX
  5
E5C
330
E57
100
AcDbEntity
  8
0
100
AcDbVertex
100
AcDb2dVertex
 10
689.3931514622984
 20
440.0083161689381
 30
0.0
  0
VERTEX
  5
E5D
330
E57
100
AcDbEntity
  8
0
100
AcDbVertex
100
AcDb2dVertex
 10
690.615258395892
 20
439.3456422187426
 30
0.0
  0
SEQEND
  5
E5E
330
E57
100
AcDbEntity
  8
0
  0
LINE
  5
E5F
330
1F
100
AcDbEntity
  8
0
 62
     7
 48
0.0675327301025391
100
AcDbLine
 10
686.9141017796812
 20
440.8456422187428
 30
0.0
 11
684.2127925755796
 21
440.8456422187428
 31
0.0
  0
POLYLINE
  5
E60
330
1F
100
AcDbEntity
  8
0
 62
     7
100
AcDb2dPolyline
 66
     1
 10
0.0
 20
0.0
 30
0.0
  0
VERTEX
  5
E61
330
E60
100
AcDbEntity
  8
0
100
AcDbVertex
100
AcDb2dVertex
 10
684.2127925755796
 20
440.8456422187428
 30
0.0
  0
VERTEX
  5
E62
330
E60
100
AcDbEntity
  8
0
100
AcDbVertex
100
AcDb2dVertex
 10
683.6209041478451
 20
440.714355597649
 30
0.0
  0
VERTEX
  5
E63
330
E60
100
AcDbEntity
  8
0
100
AcDbVertex
100
AcDb2dVertex
 10
683.027123630267
 20
440.5377808906178
 30
0.0
  0
VERTEX
  5
E64
330
E60
100
AcDbEntity
  8
0
100
AcDbVertex
100
AcDb2dVertex
 10
682.3815700414
 20
440.2973176337818
 30
0.0
  0
VERTEX
  5
E65
330
E60
100
AcDbEntity
  8
0
100
AcDbVertex
100
AcDb2dVertex
 10
681.7337276341734
 20
440.0083161689381
 30
0.0
  0
VERTEX
  5
E66
330
E60
100
AcDbEntity
  8
0
100
AcDbVertex
100
AcDb2dVertex
 10
680.5116359593687
 20
439.3456422187426
 30
0.0
  0
SEQEND
  5
E67
330
E60
100
AcDbEntity
  8
0
  0
POLYLINE
  5
E68
330
1F
100
AcDbEntity
  8
0
 62
     7
100
AcDb2dPolyline
 66
     1
 10
0.0
 20
0.0
 30
0.0
  0
VERTEX
  5
E69
330
E68
100
AcDbEntity
  8
0
100
AcDbVertex
100
AcDb2dVertex
 10
684.2127925755796
 20
433.8456422187427
 30
0.0
  0
VERTEX
  5
E6A
330
E68
100
AcDbEntity
  8
0
100
AcDbVertex
100
AcDb2dVertex
 10
683.6209041478451
 20
433.9769288398365
 30
0.0
  0
VERTEX
  5
E6B
330
E68
100
AcDbEntity
  8
0
100
AcDbVertex
100
AcDb2dVertex
 10
683.027123630267
 20
434.1535035468678
 30
0.0
  0
VERTEX
  5
E6C
330
E68
100
AcDbEntity
  8
0
100
AcDbVertex
100
AcDb2dVertex
 10
682.3815700414
 20
434.3939668037037
 30
0.0
  0
VERTEX
  5
E6D
330
E68
100
AcDbEntity
  8
0
100
AcDbVertex
100
AcDb2dVertex
 10
681.7337276341734
 20
434.6829682685473
 30
0.0
  0
VERTEX
  5
E6E
330
E68
100
AcDbEntity
  8
0
100
AcDbVertex
100
AcDb2dVertex
 10
680.5116359593687
 20
435.3456422187426
 30
0.0
  0
SEQEND
  5
E6F
330
E68
100
AcDbEntity
  8
0
  0
LINE
  5
E70
330
1F
100
AcDbEntity
  8
0
 62
     7
 48
0.0675327301025391
100
AcDbLine
 10
686.9141017796812
 20
433.8456422187427
 30
0.0
 11
684.2127925755796
 21
433.8456422187427
 31
0.0
  0
POLYLINE
  5
E71
330
1F
100
AcDbEntity
  8
0
 62
     7
100
AcDb2dPolyline
 66
     1
 10
0.0
 20
0.0
 30
0.0
  0
VERTEX
  5
E72
330
E71
100
AcDbEntity
  8
0
100
AcDbVertex
100
AcDb2dVertex
 10
686.9141017796812
 20
433.8456422187427
 30
0.0
  0
VERTEX
  5
E73
330
E71
100
AcDbEntity
  8
0
100
AcDbVertex
100
AcDb2dVertex
 10
687.5059902074156
 20
433.9769288398365
 30
0.0
  0
VERTEX
  5
E74
330
E71
100
AcDbEntity
  8
0
100
AcDbVertex
100
AcDb2dVertex
 10
688.0997554662045
 20
434.1535035468678
 30
0.0
  0
VERTEX
  5
E75
330
E71
100
AcDbEntity
  8
0
100
AcDbVertex
100
AcDb2dVertex
 10
688.7453090550717
 20
434.3939668037037
 30
0.0
  0
VERTEX
  5
E76
330
E71
100
AcDbEntity
  8
0
100
AcDbVertex
100
AcDb2dVertex
 10
689.3931514622984
 20
434.6829682685473
 30
0.0
  0
VERTEX
  5
E77
330
E71
100
AcDbEntity
  8
0
100
AcDbVertex
100
AcDb2dVertex
 10
690.615258395892
 20
435.3456422187426
 30
0.0
  0
SEQEND
  5
E78
330
E71
100
AcDbEntity
  8
0
  0
LINE
  5
E79
102
{ACAD_REACTORS
330
F32
102
}
330
1F
100
AcDbEntity
  8
0
 62
     7
 48
0.2775871276855469
100
AcDbLine
 10
656.6032039525326
 20
433.8456422187427
 30
0.0
 11
667.7066890599546
 21
433.8456422187427
 31
0.0
  0
LINE
  5
E7A
330
1F
100
AcDbEntity
  8
0
 62
     7
 48
0.0300289154052734
100
AcDbLine
 10
652.7007381322203
 20
433.8456422187427
 30
0.0
 11
653.9018947484312
 21
433.8456422187427
 31
0.0
  0
LINE
  5
E7B
330
1F
100
AcDbEntity
  8
0
 62
     7
 48
0.0300289154052734
100
AcDbLine
 10
686.9141017796812
 20
433.8456422187427
 30
0.0
 11
688.1152583958922
 21
433.8456422187427
 31
0.0
  0
LINE
  5
E7C
330
1F
100
AcDbEntity
  8
0
 62
     7
 48
0.2775871276855469
100
AcDbLine
 10
673.1093074681576
 20
433.8456422187427
 30
0.0
 11
684.2127925755796
 21
433.8456422187427
 31
0.0
  0
LINE
  5
E7D
330
1F
100
AcDbEntity
  8
0
 62
     7
 48
0.2775871276855469
100
AcDbLine
 10
656.6032039525326
 20
440.8456422187428
 30
0.0
 11
667.7066890599546
 21
440.8456422187428
 31
0.0
  0
LINE
  5
E7E
330
1F
100
AcDbEntity
  8
0
 62
     7
 48
0.0300289154052734
100
AcDbLine
 10
652.7007381322203
 20
440.8456422187428
 30
0.0
 11
653.9018947484312
 21
440.8456422187428
 31
0.0
  0
LINE
  5
E7F
330
1F
100
AcDbEntity
  8
0
 62
     7
 48
0.0300289154052734
100
AcDbLine
 10
686.9141017796812
 20
440.8456422187428
 30
0.0
 11
688.1152583958922
 21
440.8456422187428
 31
0.0
  0
LINE
  5
E80
330
1F
100
AcDbEntity
  8
0
 62
     7
 48
0.2775871276855469
100
AcDbLine
 10
673.1093074681576
 20
440.8456422187428
 30
0.0
 11
684.2127925755796
 21
440.8456422187428
 31
0.0
  0
LINE
  5
E81
330
1F
100
AcDbEntity
  8
0
 62
     7
 48
0.0728868986855663
100
AcDbLine
 10
688.1152583958922
 20
433.8456422187427
 30
0.0
 11
690.615258395892
 21
435.3456422187426
 31
0.0
  0
LINE
  5
E82
330
1F
100
AcDbEntity
  8
0
 62
     7
 48
0.0728868986855663
100
AcDbLine
 10
688.1152583958922
 20
440.8456422187428
 30
0.0
 11
690.615258395892
 21
439.3456422187426
 31
0.0
  0
LINE
  5
E83
330
1F
100
AcDbEntity
  8
0
 62
     7
 48
0.0728868986855663
100
AcDbLine
 10
652.7007381322203
 20
440.8456422187428
 30
0.0
 11
650.2007381322203
 21
439.3456422187426
 31
0.0
  0
LINE
  5
E84
330
1F
100
AcDbEntity
  8
0
 62
     7
 48
0.0728868986855663
100
AcDbLine
 10
652.7007381322203
 20
433.8456422187427
 30
0.0
 11
650.2007381322203
 21
435.3456422187426
 31
0.0
  0
LINE
  5
E85
330
1F
100
AcDbEntity
  8
LOGO_VON_SCHLASSE_120709
 62
     7
100
AcDbLine
 10
1569.054576895065
 20
213.3166755593915
 30
0.0
 11
1569.054576895065
 21
218.9297912032338
 31
0.0
  0
LINE
  5
E86
330
1F
100
AcDbEntity
  8
LOGO_VON_SCHLASSE_120709
 62
     7
100
AcDbLine
 10
1569.054576895065
 20
218.9297912032338
 30
0.0
 11
1564.847118413419
 21
218.9297912032338
 31
0.0
  0
SPLINE
  5
E87
330
1F
100
AcDbEntity
  8
LOGO_VON_SCHLASSE_120709
 62
     7
100
AcDbSpline
210
0.0
220
0.0
230
1.0
 70
     8
 71
     3
 72
     8
 73
     4
 74
     0
 42
0.0000000001
 43
0.0000000001
 40
8.739716666666684
 40
8.739716666666684
 40
8.739716666666684
 40
8.739716666666684
 40
9.739716666666687
 40
9.739716666666687
 40
9.739716666666687
 40
9.739716666666687
 10
1564.847118725549
 20
218.9297908286766
 30
0.0
 10
1558.859796171173
 20
218.9297908286766
 30
0.0
 10
1556.108735622486
 20
215.259463794052
 30
0.0
 10
1556.108735622486
 20
209.4842186739038
 30
0.0
  0
LINE
  5
E88
330
1F
100
AcDbEntity
  8
LOGO_VON_SCHLASSE_120709
 62
     7
100
AcDbLine
 10
1556.108735684912
 20
209.4842189236092
 30
0.0
 11
1556.108735684912
 21
191.414032308059
 31
0.0
  0
LINE
  5
E89
330
1F
100
AcDbEntity
  8
LOGO_VON_SCHLASSE_120709
 62
     7
100
AcDbLine
 10
1556.108735684912
 20
191.414032308059
 30
0.0
 11
1562.042543872117
 21
191.414032308059
 31
0.0
  0
LINE
  5
E8A
330
1F
100
AcDbEntity
  8
LOGO_VON_SCHLASSE_120709
 62
     7
100
AcDbLine
 10
1562.042543872117
 20
191.414032308059
 30
0.0
 11
1562.042543872117
 21
208.9447092877781
 31
0.0
  0
SPLINE
  5
E8B
330
1F
100
AcDbEntity
  8
LOGO_VON_SCHLASSE_120709
 62
     7
100
AcDbSpline
210
0.0
220
0.0
230
1.0
 70
     8
 71
     3
 72
     8
 73
     4
 74
     0
 42
0.0000000001
 43
0.0000000001
 40
46.70306666666665
 40
46.70306666666665
 40
46.70306666666665
 40
46.70306666666665
 40
47.70306666666665
 40
47.70306666666665
 40
47.70306666666665
 40
47.70306666666665
 10
1562.042543310282
 20
208.9447095374828
 30
0.0
 10
1562.042543310282
 20
211.6430480324274
 30
0.0
 10
1563.175076449704
 20
213.3166759339489
 30
0.0
 10
1566.087870817393
 20
213.3166759339489
 30
0.0
  0
LINE
  5
E8C
330
1F
100
AcDbEntity
  8
LOGO_VON_SCHLASSE_120709
 62
     7
100
AcDbLine
 10
1566.087871129524
 20
213.3166755593915
 30
0.0
 11
1569.054576895065
 21
213.3166755593915
 31
0.0
  0
LINE
  5
E8D
330
1F
100
AcDbEntity
  8
LOGO_VON_SCHLASSE_120709
 62
     7
100
AcDbLine
 10
1591.546161225708
 20
202.9036342726735
 30
0.0
 11
1591.546161225708
 21
208.2971395118002
 31
0.0
  0
SPLINE
  5
E8E
330
1F
100
AcDbEntity
  8
LOGO_VON_SCHLASSE_120709
 62
     7
100
AcDbSpline
210
0.0
220
0.0
230
1.0
 70
     8
 71
     3
 72
     8
 73
     4
 74
     0
 42
0.0000000001
 43
0.0000000001
 40
4.799894444444444
 40
4.799894444444444
 40
4.799894444444444
 40
4.799894444444444
 40
5.799894444444444
 40
5.799894444444444
 40
5.799894444444444
 40
5.799894444444444
 10
1591.546161350561
 20
208.2971400112096
 30
0.0
 10
1591.546161350561
 20
214.6665983536171
 30
0.0
 10
1588.30989934487
 20
218.9303457976635
 30
0.0
 10
1581.944405066654
 20
218.9303457976635
 30
0.0
  0
LINE
  5
E8F
330
1F
100
AcDbEntity
  8
LOGO_VON_SCHLASSE_120709
 62
     7
100
AcDbLine
 10
1581.94440531636
 20
218.9303462970735
 30
0.0
 11
1580.812267834241
 21
218.9303462970735
 31
0.0
  0
SPLINE
  5
E90
330
1F
100
AcDbEntity
  8
LOGO_VON_SCHLASSE_120709
 62
     7
100
AcDbSpline
210
0.0
220
0.0
230
1.0
 70
     8
 71
     3
 72
     8
 73
     4
 74
     0
 42
0.0000000001
 43
0.0000000001
 40
6.807427777777782
 40
6.807427777777782
 40
6.807427777777782
 40
6.807427777777782
 40
7.807427777777782
 40
7.807427777777782
 40
7.807427777777782
 40
7.807427777777782
 10
1580.812268333652
 20
218.9303457976635
 30
0.0
 10
1574.392862782434
 20
218.9303457976635
 30
0.0
 10
1571.048778230744
 20
214.6665983536171
 30
0.0
 10
1571.048778230744
 20
208.2971400112096
 30
0.0
  0
LINE
  5
E91
330
1F
100
AcDbEntity
  8
LOGO_VON_SCHLASSE_120709
 62
     7
100
AcDbLine
 10
1571.04877848045
 20
208.2971395118002
 30
0.0
 11
1571.04877848045
 21
202.0406577479557
 31
0.0
  0
SPLINE
  5
E92
330
1F
100
AcDbEntity
  8
LOGO_VON_SCHLASSE_120709
 62
     7
100
AcDbSpline
210
0.0
220
0.0
230
1.0
 70
     8
 71
     3
 72
     8
 73
     4
 74
     0
 42
0.0000000001
 43
0.0000000001
 40
13.37531944444445
 40
13.37531944444445
 40
13.37531944444445
 40
13.37531944444445
 40
14.37531944444445
 40
14.37531944444445
 40
14.37531944444445
 40
14.37531944444445
 10
1571.048778230744
 20
202.0406574982511
 30
0.0
 10
1571.048778230744
 20
194.9743166710317
 30
0.0
 10
1574.986283191856
 20
191.4141906209221
 30
0.0
 10
1581.512718476234
 20
191.4141906209221
 30
0.0
  0
LINE
  5
E93
330
1F
100
AcDbEntity
  8
LOGO_VON_SCHLASSE_120709
 62
     7
100
AcDbLine
 10
1581.51271872594
 20
191.4141907457745
 30
0.0
 11
1590.197586587865
 21
191.4141907457745
 31
0.0
  0
LINE
  5
E94
330
1F
100
AcDbEntity
  8
LOGO_VON_SCHLASSE_120709
 62
     7
100
AcDbLine
 10
1590.197586587865
 20
191.4141907457745
 30
0.0
 11
1590.197586587865
 21
196.7006662517386
 31
0.0
  0
LINE
  5
E95
330
1F
100
AcDbEntity
  8
LOGO_VON_SCHLASSE_120709
 62
     7
100
AcDbLine
 10
1590.197586587865
 20
196.7006662517386
 30
0.0
 11
1582.052623894222
 21
196.7006662517386
 31
0.0
  0
SPLINE
  5
E96
330
1F
100
AcDbEntity
  8
LOGO_VON_SCHLASSE_120709
 62
     7
100
AcDbSpline
210
0.0
220
0.0
230
1.0
 70
     8
 71
     3
 72
     8
 73
     4
 74
     0
 42
0.0000000001
 43
0.0000000001
 40
34.05749722222223
 40
34.05749722222223
 40
34.05749722222223
 40
34.05749722222223
 40
35.05749722222223
 40
35.05749722222223
 40
35.05749722222223
 40
35.05749722222223
 10
1582.052624019073
 20
196.7006666262958
 30
0.0
 10
1578.654628194384
 20
196.7006666262958
 30
0.0
 10
1576.9817931057
 20
198.8039990861425
 30
0.0
 10
1576.9817931057
 20
201.66288218083
 30
0.0
  0
LINE
  5
E97
330
1F
100
AcDbEntity
  8
LOGO_VON_SCHLASSE_120709
 62
     7
100
AcDbLine
 10
1576.981793355406
 20
201.6628826802398
 30
0.0
 11
1576.981793355406
 21
202.9036342726735
 31
0.0
  0
LINE
  5
E98
330
1F
100
AcDbEntity
  8
LOGO_VON_SCHLASSE_120709
 62
     7
100
AcDbLine
 10
1576.981793355406
 20
202.9036342726735
 30
0.0
 11
1591.546161225708
 21
202.9036342726735
 31
0.0
  0
LINE
  5
E99
330
1F
100
AcDbEntity
  8
LOGO_VON_SCHLASSE_120709
 62
     7
100
AcDbLine
 10
1585.612354162175
 20
207.3267365977959
 30
0.0
 11
1576.981793355406
 21
207.3267365977959
 31
0.0
  0
LINE
  5
E9A
330
1F
100
AcDbEntity
  8
LOGO_VON_SCHLASSE_120709
 62
     7
100
AcDbLine
 10
1576.981793355406
 20
207.3267365977959
 30
0.0
 11
1576.981793355406
 21
208.8370458037547
 31
0.0
  0
SPLINE
  5
E9B
330
1F
100
AcDbEntity
  8
LOGO_VON_SCHLASSE_120709
 62
     7
100
AcDbSpline
210
0.0
220
0.0
230
1.0
 70
     8
 71
     3
 72
     8
 73
     4
 74
     0
 42
0.0000000001
 43
0.0000000001
 40
9.024761111111118
 40
9.024761111111118
 40
9.024761111111118
 40
9.024761111111118
 40
10.02476111111112
 40
10.02476111111112
 40
10.02476111111112
 40
10.02476111111112
 10
1576.9817931057
 20
208.8370455540498
 30
0.0
 10
1576.9817931057
 20
211.5353840489944
 30
0.0
 10
1578.007296511964
 20
213.9645625853574
 30
0.0
 10
1580.86617960665
 20
213.9645625853574
 30
0.0
  0
LINE
  5
E9C
330
1F
100
AcDbEntity
  8
LOGO_VON_SCHLASSE_120709
 62
     7
100
AcDbLine
 10
1580.866179356946
 20
213.9645622107996
 30
0.0
 11
1581.782670748245
 21
213.9645622107996
 31
0.0
  0
SPLINE
  5
E9D
330
1F
100
AcDbEntity
  8
LOGO_VON_SCHLASSE_120709
 62
     7
100
AcDbSpline
210
0.0
220
0.0
230
1.0
 70
     8
 71
     3
 72
     8
 73
     4
 74
     0
 42
0.0000000001
 43
0.0000000001
 40
10.84038333333334
 40
10.84038333333334
 40
10.84038333333334
 40
10.84038333333334
 40
11.84038333333335
 40
11.84038333333335
 40
11.84038333333335
 40
11.84038333333335
 10
1581.782671247653
 20
213.9645625853574
 30
0.0
 10
1584.64195074876
 20
213.9645625853574
 30
0.0
 10
1585.612353662765
 20
211.5353840489944
 30
0.0
 10
1585.612353662765
 20
208.8370455540498
 30
0.0
  0
LINE
  5
E9E
330
1F
100
AcDbEntity
  8
LOGO_VON_SCHLASSE_120709
 62
     7
100
AcDbLine
 10
1585.612354162175
 20
208.8370458037547
 30
0.0
 11
1585.612354162175
 21
207.3267365977959
 31
0.0
  0
LINE
  5
E9F
330
1F
100
AcDbEntity
  8
LOGO_VON_SCHLASSE_120709
 62
     7
100
AcDbLine
 10
1607.591741945952
 20
224.2159105052569
 30
0.0
 11
1607.591741945952
 21
229.7176343222454
 31
0.0
  0
LINE
  5
EA0
330
1F
100
AcDbEntity
  8
LOGO_VON_SCHLASSE_120709
 62
     7
100
AcDbLine
 10
1607.591741945952
 20
229.7176343222454
 30
0.0
 11
1603.654236610285
 21
229.7176343222454
 31
0.0
  0
SPLINE
  5
EA1
330
1F
100
AcDbEntity
  8
LOGO_VON_SCHLASSE_120709
 62
     7
100
AcDbSpline
210
0.0
220
0.0
230
1.0
 70
     8
 71
     3
 72
     8
 73
     4
 74
     0
 42
0.0000000001
 43
0.0000000001
 40
8.400344444444426
 40
8.400344444444426
 40
8.400344444444426
 40
8.400344444444426
 40
9.400344444444426
 40
9.400344444444426
 40
9.400344444444426
 40
9.400344444444426
 10
1603.654236859988
 20
229.7176347592292
 30
0.0
 10
1599.662424219459
 20
229.7176347592292
 30
0.0
 10
1596.53358835335
 20
227.7221248453829
 30
0.0
 10
1596.53358835335
 20
221.9504473830068
 30
0.0
  0
LINE
  5
EA2
330
1F
100
AcDbEntity
  8
LOGO_VON_SCHLASSE_120709
 62
     7
100
AcDbLine
 10
1596.533588353352
 20
221.9504478199905
 30
0.0
 11
1596.533588353352
 21
218.9298305317449
 31
0.0
  0
LINE
  5
EA3
330
1F
100
AcDbEntity
  8
LOGO_VON_SCHLASSE_120709
 62
     7
100
AcDbLine
 10
1596.533588353352
 20
218.9298305317449
 30
0.0
 11
1592.75821311825
 21
218.9298305317449
 31
0.0
  0
LINE
  5
EA4
330
1F
100
AcDbEntity
  8
LOGO_VON_SCHLASSE_120709
 62
     7
100
AcDbLine
 10
1592.75821311825
 20
218.9298305317449
 30
0.0
 11
1592.75821311825
 21
213.6944910792901
 31
0.0
  0
LINE
  5
EA5
330
1F
100
AcDbEntity
  8
LOGO_VON_SCHLASSE_120709
 62
     7
100
AcDbLine
 10
1592.75821311825
 20
213.6944910792901
 30
0.0
 11
1596.533588353352
 21
213.6944910792901
 31
0.0
  0
LINE
  5
EA6
330
1F
100
AcDbEntity
  8
LOGO_VON_SCHLASSE_120709
 62
     7
100
AcDbLine
 10
1596.533588353352
 20
213.6944910792901
 30
0.0
 11
1596.533588353352
 21
191.4144682926938
 31
0.0
  0
LINE
  5
EA7
330
1F
100
AcDbEntity
  8
LOGO_VON_SCHLASSE_120709
 62
     7
100
AcDbLine
 10
1596.533588353352
 20
191.4144682926938
 30
0.0
 11
1602.467396540557
 21
191.4144682926938
 31
0.0
  0
LINE
  5
EA8
330
1F
100
AcDbEntity
  8
LOGO_VON_SCHLASSE_120709
 62
     7
100
AcDbLine
 10
1602.467396540557
 20
191.4144682926938
 30
0.0
 11
1602.467396540557
 21
213.6944910792901
 31
0.0
  0
LINE
  5
EA9
330
1F
100
AcDbEntity
  8
LOGO_VON_SCHLASSE_120709
 62
     7
100
AcDbLine
 10
1602.467396540557
 20
213.6944910792901
 30
0.0
 11
1607.052232310122
 21
213.6944910792901
 31
0.0
  0
LINE
  5
EAA
330
1F
100
AcDbEntity
  8
LOGO_VON_SCHLASSE_120709
 62
     7
100
AcDbLine
 10
1607.052232310122
 20
213.6944910792901
 30
0.0
 11
1607.052232310122
 21
218.9298305317449
 31
0.0
  0
LINE
  5
EAB
330
1F
100
AcDbEntity
  8
LOGO_VON_SCHLASSE_120709
 62
     7
100
AcDbLine
 10
1607.052232310122
 20
218.9298305317449
 30
0.0
 11
1602.467396540557
 21
218.9298305317449
 31
0.0
  0
LINE
  5
EAC
330
1F
100
AcDbEntity
  8
LOGO_VON_SCHLASSE_120709
 62
     7
100
AcDbLine
 10
1602.467396540557
 20
218.9298305317449
 30
0.0
 11
1602.467396540557
 21
221.7348017291704
 31
0.0
  0
SPLINE
  5
EAD
330
1F
100
AcDbEntity
  8
LOGO_VON_SCHLASSE_120709
 62
     7
100
AcDbSpline
210
0.0
220
0.0
230
1.0
 70
     8
 71
     3
 72
     8
 73
     4
 74
     0
 42
0.0000000001
 43
0.0000000001
 40
83.7196861111111
 40
83.7196861111111
 40
83.7196861111111
 40
83.7196861111111
 40
84.7196861111111
 40
84.7196861111111
 40
84.7196861111111
 40
84.7196861111111
 10
1602.467396041145
 20
221.7348022910059
 30
0.0
 10
1602.467396041145
 20
223.730312204852
 30
0.0
 10
1603.546414313989
 20
224.2159100682733
 30
0.0
 10
1604.786769999412
 20
224.2159100682733
 30
0.0
  0
LINE
  5
EAE
330
1F
100
AcDbEntity
  8
LOGO_VON_SCHLASSE_120709
 62
     7
100
AcDbLine
 10
1604.786769624856
 20
224.2159105052569
 30
0.0
 11
1607.591741945952
 21
224.2159105052569
 31
0.0
  0
LINE
  5
EAF
330
1F
100
AcDbEntity
  8
LOGO_VON_SCHLASSE_120709
 62
     7
100
AcDbLine
 10
1616.625923394111
 20
229.7173972275087
 30
0.0
 11
1610.69251186303
 21
229.7173972275087
 31
0.0
  0
LINE
  5
EB0
330
1F
100
AcDbEntity
  8
LOGO_VON_SCHLASSE_120709
 62
     7
100
AcDbLine
 10
1610.69251186303
 20
229.7173972275087
 30
0.0
 11
1610.69251186303
 21
191.4134378857094
 31
0.0
  0
LINE
  5
EB1
330
1F
100
AcDbEntity
  8
LOGO_VON_SCHLASSE_120709
 62
     7
100
AcDbLine
 10
1610.69251186303
 20
191.4134378857094
 30
0.0
 11
1616.625923394111
 21
191.4134378857094
 31
0.0
  0
LINE
  5
EB2
330
1F
100
AcDbEntity
  8
LOGO_VON_SCHLASSE_120709
 62
     7
100
AcDbLine
 10
1616.625923394111
 20
191.4134378857094
 30
0.0
 11
1616.625923394111
 21
229.7173972275087
 31
0.0
  0
LINE
  5
EB3
330
1F
100
AcDbEntity
  8
LOGO_VON_SCHLASSE_120709
 62
     7
100
AcDbLine
 10
1641.22512149878
 20
202.9032376165493
 30
0.0
 11
1641.22512149878
 21
208.2971395118002
 31
0.0
  0
SPLINE
  5
EB4
330
1F
100
AcDbEntity
  8
LOGO_VON_SCHLASSE_120709
 62
     7
100
AcDbSpline
210
0.0
220
0.0
230
1.0
 70
     8
 71
     3
 72
     8
 73
     4
 74
     0
 42
0.0000000001
 43
0.0000000001
 40
4.800247222222195
 40
4.800247222222195
 40
4.800247222222195
 40
4.800247222222195
 40
5.800247222222195
 40
5.800247222222195
 40
5.800247222222195
 40
5.800247222222195
 10
1641.225121935764
 20
208.2971400112096
 30
0.0
 10
1641.225121935764
 20
214.6658055407788
 30
0.0
 10
1637.988859930073
 20
218.9299493912443
 30
0.0
 10
1631.623365651859
 20
218.9299493912443
 30
0.0
  0
LINE
  5
EB5
330
1F
100
AcDbEntity
  8
LOGO_VON_SCHLASSE_120709
 62
     7
100
AcDbLine
 10
1631.623365589432
 20
218.9299496409491
 30
0.0
 11
1630.490435918736
 21
218.9299496409491
 31
0.0
  0
SPLINE
  5
EB6
330
1F
100
AcDbEntity
  8
LOGO_VON_SCHLASSE_120709
 62
     7
100
AcDbSpline
210
0.0
220
0.0
230
1.0
 70
     8
 71
     3
 72
     8
 73
     4
 74
     0
 42
0.0000000001
 43
0.0000000001
 40
6.808486111111077
 40
6.808486111111077
 40
6.808486111111077
 40
6.808486111111077
 40
7.808486111111077
 40
7.808486111111077
 40
7.808486111111077
 40
7.808486111111077
 10
1630.490436106015
 20
218.9299493912443
 30
0.0
 10
1624.071823367637
 20
218.9299493912443
 30
0.0
 10
1620.727342409528
 20
214.6658055407788
 30
0.0
 10
1620.727342409528
 20
208.2971400112096
 30
0.0
  0
LINE
  5
EB7
330
1F
100
AcDbEntity
  8
LOGO_VON_SCHLASSE_120709
 62
     7
100
AcDbLine
 10
1620.727342097398
 20
208.2971395118002
 30
0.0
 11
1620.727342097398
 21
202.0402610918321
 31
0.0
  0
SPLINE
  5
EB8
330
1F
100
AcDbEntity
  8
LOGO_VON_SCHLASSE_120709
 62
     7
100
AcDbSpline
210
0.0
220
0.0
230
1.0
 70
     8
 71
     3
 72
     8
 73
     4
 74
     0
 42
0.0000000001
 43
0.0000000001
 40
13.37673055555552
 40
13.37673055555552
 40
13.37673055555552
 40
13.37673055555552
 40
14.37673055555552
 40
14.37673055555552
 40
14.37673055555552
 40
14.37673055555552
 10
1620.727342409528
 20
202.0402610918319
 30
0.0
 10
1620.727342409528
 20
194.9739202646124
 30
0.0
 10
1624.665640183477
 20
191.4141906209221
 30
0.0
 10
1631.191679061437
 20
191.4141906209221
 30
0.0
  0
LINE
  5
EB9
330
1F
100
AcDbEntity
  8
LOGO_VON_SCHLASSE_120709
 62
     7
100
AcDbLine
 10
1631.191678999011
 20
191.4141907457745
 30
0.0
 11
1639.876546860938
 21
191.4141907457745
 31
0.0
  0
LINE
  5
EBA
330
1F
100
AcDbEntity
  8
LOGO_VON_SCHLASSE_120709
 62
     7
100
AcDbLine
 10
1639.876546860938
 20
191.4141907457745
 30
0.0
 11
1639.876546860938
 21
196.7006662517386
 31
0.0
  0
LINE
  5
EBB
330
1F
100
AcDbEntity
  8
LOGO_VON_SCHLASSE_120709
 62
     7
100
AcDbLine
 10
1639.876546860938
 20
196.7006662517386
 30
0.0
 11
1631.731584167295
 21
196.7006662517386
 31
0.0
  0
SPLINE
  5
EBC
330
1F
100
AcDbEntity
  8
LOGO_VON_SCHLASSE_120709
 62
     7
100
AcDbSpline
210
0.0
220
0.0
230
1.0
 70
     8
 71
     3
 72
     8
 73
     4
 74
     0
 42
0.0000000001
 43
0.0000000001
 40
34.05890833333331
 40
34.05890833333331
 40
34.05890833333331
 40
34.05890833333331
 40
35.05890833333331
 40
35.05890833333331
 40
35.05890833333331
 40
35.05890833333331
 10
1631.731584604279
 20
196.7006666262958
 30
0.0
 10
1628.333588779589
 20
196.7006666262958
 30
0.0
 10
1626.661150097324
 20
198.8036026797231
 30
0.0
 10
1626.661150097324
 20
201.6624857744111
 30
0.0
  0
LINE
  5
EBD
330
1F
100
AcDbEntity
  8
LOGO_VON_SCHLASSE_120709
 62
     7
100
AcDbLine
 10
1626.661150284603
 20
201.6624860241159
 30
0.0
 11
1626.661150284603
 21
202.9032376165493
 31
0.0
  0
LINE
  5
EBE
330
1F
100
AcDbEntity
  8
LOGO_VON_SCHLASSE_120709
 62
     7
100
AcDbLine
 10
1626.661150284603
 20
202.9032376165493
 30
0.0
 11
1641.22512149878
 21
202.9032376165493
 31
0.0
  0
LINE
  5
EBF
330
1F
100
AcDbEntity
  8
LOGO_VON_SCHLASSE_120709
 62
     7
100
AcDbLine
 10
1635.291314435246
 20
207.3263410653436
 30
0.0
 11
1626.661150284603
 21
207.3263410653436
 31
0.0
  0
LINE
  5
EC0
330
1F
100
AcDbEntity
  8
LOGO_VON_SCHLASSE_120709
 62
     7
100
AcDbLine
 10
1626.661150284603
 20
207.3263410653436
 30
0.0
 11
1626.661150284603
 21
208.8370458037547
 31
0.0
  0
SPLINE
  5
EC1
330
1F
100
AcDbEntity
  8
LOGO_VON_SCHLASSE_120709
 62
     7
100
AcDbSpline
210
0.0
220
0.0
230
1.0
 70
     8
 71
     3
 72
     8
 73
     4
 74
     0
 42
0.0000000001
 43
0.0000000001
 40
9.024761111111132
 40
9.024761111111132
 40
9.024761111111132
 40
9.024761111111132
 40
10.02476111111113
 40
10.02476111111113
 40
10.02476111111113
 40
10.02476111111113
 10
1626.661150097324
 20
208.8370455540498
 30
0.0
 10
1626.661150097324
 20
211.5353840489944
 30
0.0
 10
1627.686257097167
 20
213.9641661789375
 30
0.0
 10
1630.544743785435
 20
213.9641661789375
 30
0.0
  0
LINE
  5
EC2
330
1F
100
AcDbEntity
  8
LOGO_VON_SCHLASSE_120709
 62
     7
100
AcDbLine
 10
1630.544744097567
 20
213.9641666783475
 30
0.0
 11
1631.461632144988
 21
213.9641666783475
 31
0.0
  0
SPLINE
  5
EC3
330
1F
100
AcDbEntity
  8
LOGO_VON_SCHLASSE_120709
 62
     7
100
AcDbSpline
210
0.0
220
0.0
230
1.0
 70
     8
 71
     3
 72
     8
 73
     4
 74
     0
 42
0.0000000001
 43
0.0000000001
 40
10.84073611111112
 40
10.84073611111112
 40
10.84073611111112
 40
10.84073611111112
 40
11.84073611111112
 40
11.84073611111112
 40
11.84073611111112
 40
11.84073611111112
 10
1631.461631832857
 20
213.9641661789375
 30
0.0
 10
1634.320514927545
 20
213.9641661789375
 30
0.0
 10
1635.291314247968
 20
211.5353840489944
 30
0.0
 10
1635.291314247968
 20
208.8370455540498
 30
0.0
  0
LINE
  5
EC4
330
1F
100
AcDbEntity
  8
LOGO_VON_SCHLASSE_120709
 62
     7
100
AcDbLine
 10
1635.291314435246
 20
208.8370458037547
 30
0.0
 11
1635.291314435246
 21
207.3263410653436
 31
0.0
  0
SPLINE
  5
EC5
330
1F
100
AcDbEntity
  8
LOGO_VON_SCHLASSE_120709
 62
     7
100
AcDbSpline
210
0.0
220
0.0
230
1.0
 70
     8
 71
     3
 72
     8
 73
     4
 74
     0
 42
0.0000000001
 43
0.0000000001
 40
0.0
 40
0.0
 40
0.0
 40
0.0
 40
1.0
 40
1.0
 40
1.0
 40
1.0
 10
1660.896790484555
 20
205.2191630886743
 30
0.0
 10
1663.321608550307
 20
207.0565068412917
 30
0.0
 10
1664.572183534637
 20
210.0204376493267
 30
0.0
 10
1664.571874396209
 20
213.9115630471207
 30
0.0
  0
LINE
  5
EC6
330
1F
100
AcDbEntity
  8
LOGO_VON_SCHLASSE_120709
 62
     7
100
AcDbLine
 10
1664.571873959226
 20
213.911563109547
 30
0.0
 11
1664.571478426773
 21
218.9011308318529
 31
0.0
  0
LINE
  5
EC7
330
1F
100
AcDbEntity
  8
LOGO_VON_SCHLASSE_120709
 62
     7
100
AcDbLine
 10
1664.571478426773
 20
218.9011308318529
 30
0.0
 11
1658.613885479864
 21
218.9011308318529
 31
0.0
  0
LINE
  5
EC8
330
1F
100
AcDbEntity
  8
LOGO_VON_SCHLASSE_120709
 62
     7
100
AcDbLine
 10
1658.613885479864
 20
218.9011308318529
 30
0.0
 11
1658.613885479864
 21
213.3696757843156
 31
0.0
  0
SPLINE
  5
EC9
330
1F
100
AcDbEntity
  8
LOGO_VON_SCHLASSE_120709
 62
     7
100
AcDbSpline
210
0.0
220
0.0
230
1.0
 70
     8
 71
     3
 72
     8
 73
     4
 74
     0
 42
0.0000000001
 43
0.0000000001
 40
15.66497223623581
 40
15.66497223623581
 40
15.66497223623581
 40
15.66497223623581
 40
16.66497223623581
 40
16.66497223623581
 40
16.66497223623581
 40
16.66497223623581
 10
1658.613885916848
 20
213.369675472185
 30
0.0
 10
1658.613885916848
 20
210.6594447846668
 30
0.0
 10
1657.584814852814
 20
208.2433476601349
 30
0.0
 10
1654.714039565553
 20
208.2433476601349
 30
0.0
  0
LINE
  5
ECA
330
1F
100
AcDbEntity
  8
LOGO_VON_SCHLASSE_120709
 62
     7
100
AcDbLine
 10
1654.714040002537
 20
208.2433482219708
 30
0.0
 11
1653.793187641217
 21
208.2433482219708
 31
0.0
  0
SPLINE
  5
ECB
330
1F
100
AcDbEntity
  8
LOGO_VON_SCHLASSE_120709
 62
     7
100
AcDbSpline
210
0.0
220
0.0
230
1.0
 70
     8
 71
     3
 72
     8
 73
     4
 74
     0
 42
0.0000000001
 43
0.0000000001
 40
17.48447501401361
 40
17.48447501401361
 40
17.48447501401361
 40
17.48447501401361
 40
18.48447501401361
 40
18.48447501401361
 40
18.48447501401361
 40
18.48447501401361
 10
1653.79318745394
 20
208.2433476601349
 30
0.0
 10
1650.922412166678
 20
208.2433476601349
 30
0.0
 10
1649.947648782063
 20
210.6594447846668
 30
0.0
 10
1649.947648782063
 20
213.369675472185
 30
0.0
  0
LINE
  5
ECC
330
1F
100
AcDbEntity
  8
LOGO_VON_SCHLASSE_120709
 62
     7
100
AcDbLine
 10
1649.947649219047
 20
213.3696757843156
 30
0.0
 11
1649.947649219047
 21
218.9011308318529
 31
0.0
  0
LINE
  5
ECD
330
1F
100
AcDbEntity
  8
LOGO_VON_SCHLASSE_120709
 62
     7
100
AcDbLine
 10
1649.947649219047
 20
218.9011308318529
 30
0.0
 11
1643.989264083561
 21
218.9011308318529
 31
0.0
  0
LINE
  5
ECE
330
1F
100
AcDbEntity
  8
LOGO_VON_SCHLASSE_120709
 62
     7
100
AcDbLine
 10
1643.989264083561
 20
218.9011308318529
 30
0.0
 11
1643.989264083561
 21
213.911563109547
 31
0.0
  0
SPLINE
  5
ECF
330
1F
100
AcDbEntity
  8
LOGO_VON_SCHLASSE_120709
 62
     7
100
AcDbSpline
210
0.0
220
0.0
230
1.0
 70
     8
 71
     3
 72
     8
 73
     4
 74
     0
 42
0.0000000001
 43
0.0000000001
 40
33.1501527917914
 40
33.1501527917914
 40
33.1501527917914
 40
33.1501527917914
 40
34.1501527917914
 40
34.1501527917914
 40
34.1501527917914
 40
34.1501527917914
 10
1643.989263896282
 20
213.9115630471207
 30
0.0
 10
1643.989263896282
 20
209.9292641606486
 30
0.0
 10
1645.250629121919
 20
206.9046831827694
 30
0.0
 10
1647.744025498179
 20
205.0859705318504
 30
0.0
  0
SPLINE
  5
ED0
330
1F
100
AcDbEntity
  8
LOGO_VON_SCHLASSE_120709
 62
     7
100
AcDbSpline
210
0.0
220
0.0
230
1.0
 70
     8
 71
     3
 72
     8
 73
     4
 74
     0
 42
0.0000000001
 43
0.0000000001
 40
34.1501527917914
 40
34.1501527917914
 40
34.1501527917914
 40
34.1501527917914
 40
35.1501527917914
 40
35.1501527917914
 40
35.1501527917914
 40
35.1501527917914
 10
1647.744025498179
 20
205.0859705318504
 30
0.0
 10
1645.319207432426
 20
203.2494195920711
 30
0.0
 10
1644.06830273817
 20
200.1277189890264
 30
0.0
 10
1644.068941586524
 20
196.2393684763672
 30
0.0
  0
LINE
  5
ED1
330
1F
100
AcDbEntity
  8
LOGO_VON_SCHLASSE_120709
 62
     7
100
AcDbLine
 10
1644.068941399246
 20
196.2393686636458
 30
0.0
 11
1644.069734711494
 21
191.4139131988548
 31
0.0
  0
LINE
  5
ED2
330
1F
100
AcDbEntity
  8
LOGO_VON_SCHLASSE_120709
 62
     7
100
AcDbLine
 10
1644.069734711494
 20
191.4139131988548
 30
0.0
 11
1650.026929878608
 21
191.4139131988548
 31
0.0
  0
LINE
  5
ED3
330
1F
100
AcDbEntity
  8
LOGO_VON_SCHLASSE_120709
 62
     7
100
AcDbLine
 10
1650.026929878608
 20
191.4139131988548
 30
0.0
 11
1650.026929878608
 21
196.7812559888764
 31
0.0
  0
SPLINE
  5
ED4
330
1F
100
AcDbEntity
  8
LOGO_VON_SCHLASSE_120709
 62
     7
100
AcDbSpline
210
0.0
220
0.0
230
1.0
 70
     8
 71
     3
 72
     8
 73
     4
 74
     0
 42
0.0000000001
 43
0.0000000001
 40
49.52267229419653
 40
49.52267229419653
 40
49.52267229419653
 40
49.52267229419653
 40
50.52267229419655
 40
50.52267229419655
 40
50.52267229419655
 40
50.52267229419655
 10
1650.026930065886
 20
196.7812560513026
 30
0.0
 10
1650.026930065886
 20
199.4895047067255
 30
0.0
 10
1651.056397536339
 20
202.061389553971
 30
0.0
 10
1653.926776417181
 20
202.061389553971
 30
0.0
  0
LINE
  5
ED5
330
1F
100
AcDbEntity
  8
LOGO_VON_SCHLASSE_120709
 62
     7
100
AcDbLine
 10
1653.926776479608
 20
202.0613894915447
 30
0.0
 11
1654.847628840928
 21
202.0613894915447
 31
0.0
  0
SPLINE
  5
ED6
330
1F
100
AcDbEntity
  8
LOGO_VON_SCHLASSE_120709
 62
     7
100
AcDbSpline
210
0.0
220
0.0
230
1.0
 70
     8
 71
     3
 72
     8
 73
     4
 74
     0
 42
0.0000000001
 43
0.0000000001
 40
51.34217507197432
 40
51.34217507197432
 40
51.34217507197432
 40
51.34217507197432
 40
52.34217507197431
 40
52.34217507197431
 40
52.34217507197431
 40
52.34217507197431
 10
1654.847628528794
 20
202.061389553971
 30
0.0
 10
1657.718403816056
 20
202.061389553971
 30
0.0
 10
1658.693167200673
 20
199.4895047067255
 30
0.0
 10
1658.693167200673
 20
196.7812560513026
 30
0.0
  0
LINE
  5
ED7
330
1F
100
AcDbEntity
  8
LOGO_VON_SCHLASSE_120709
 62
     7
100
AcDbLine
 10
1658.693167263097
 20
196.7812559888764
 30
0.0
 11
1658.693167263097
 21
191.4139131988548
 31
0.0
  0
LINE
  5
ED8
330
1F
100
AcDbEntity
  8
LOGO_VON_SCHLASSE_120709
 62
     7
100
AcDbLine
 10
1658.693167263097
 20
191.4139131988548
 30
0.0
 11
1664.65115574246
 21
191.4139131988548
 31
0.0
  0
LINE
  5
ED9
330
1F
100
AcDbEntity
  8
LOGO_VON_SCHLASSE_120709
 62
     7
100
AcDbLine
 10
1664.65115574246
 20
191.4139131988548
 30
0.0
 11
1664.65115574246
 21
196.2393686636458
 31
0.0
  0
SPLINE
  5
EDA
330
1F
100
AcDbEntity
  8
LOGO_VON_SCHLASSE_120709
 62
     7
100
AcDbSpline
210
0.0
220
0.0
230
1.0
 70
     8
 71
     3
 72
     8
 73
     4
 74
     0
 42
0.0000000001
 43
0.0000000001
 40
66.71540007197433
 40
66.71540007197433
 40
66.71540007197433
 40
66.71540007197433
 40
67.71540007197433
 40
67.71540007197433
 40
67.71540007197433
 40
67.71540007197433
 10
1664.651155680033
 20
196.2393684763672
 30
0.0
 10
1664.651155680033
 20
200.2188925179045
 30
0.0
 10
1663.390186860814
 20
203.4004504377555
 30
0.0
 10
1660.896790484555
 20
205.2191630886743
 30
0.0
  0
ARC
  5
EDB
330
1F
100
AcDbEntity
  8
AM_0
 62
     7
100
AcDbCircle
 10
1549.815946963502
 20
187.4414897638899
 30
0.0
 40
5.61827329712571
100
AcDbArc
 50
180.0000479999957
 51
269.9999519999848
  0
LINE
  5
EDC
330
1F
100
AcDbEntity
  8
AM_0
 62
     7
100
AcDbLine
 10
1549.815942468813
 20
181.823216466764
 30
0.0
 11
1671.1725959314
 21
181.823216466764
 31
0.0
  0
ARC
  5
EDD
330
1F
100
AcDbEntity
  8
AM_0
 62
     7
100
AcDbCircle
 10
1671.172834149809
 20
187.4412470507935
 30
0.0
 40
5.618030584030035
100
AcDbArc
 50
269.9975760000107
 51
0.0024240000088827
  0
LINE
  5
EDE
330
1F
100
AcDbEntity
  8
AM_0
 62
     7
100
AcDbLine
 10
1676.79086473384
 20
187.4414852692027
 30
0.0
 11
1676.79086473384
 21
230.1407989861959
 31
0.0
  0
ARC
  5
EDF
330
1F
100
AcDbEntity
  8
AM_0
 62
     7
100
AcDbCircle
 10
1671.172591436713
 20
230.140793367837
 30
0.0
 40
5.61827329712571
100
AcDbArc
 50
0.0000479999957116
 51
89.99995199998474
  0
LINE
  5
EE0
330
1F
100
AcDbEntity
  8
AM_0
 62
     7
100
AcDbLine
 10
1671.1725959314
 20
235.7590666649632
 30
0.0
 11
1549.815942468813
 21
235.7590666649632
 31
0.0
  0
ARC
  5
EE1
330
1F
100
AcDbEntity
  8
AM_0
 62
     7
100
AcDbCircle
 10
1549.816021125837
 20
230.1407192055024
 30
0.0
 40
5.618347459460498
100
AcDbArc
 50
90.00080599999776
 51
179.9991939999957
  0
LINE
  5
EE2
330
1F
100
AcDbEntity
  8
AM_0
 62
     7
100
AcDbLine
 10
1544.197673666376
 20
230.1407989861959
 30
0.0
 11
1544.197673666376
 21
187.4414852692027
 31
0.0
  0
ARC
  5
EE3
330
1F
100
AcDbEntity
  8
AM_0
 62
     7
100
AcDbCircle
 10
1546.782445655094
 20
181.0367889556099
 30
0.0
 40
8.20280144907624
100
AcDbArc
 50
179.9997459999952
 51
270.0002540000047
  0
LINE
  5
EE4
330
1F
100
AcDbEntity
  8
AM_0
 62
     7
100
AcDbLine
 10
1546.782481612589
 20
172.833987506534
 30
0.0
 11
1698.927626115712
 21
172.833987506534
 31
0.0
  0
ARC
  5
EE5
330
1F
100
AcDbEntity
  8
AM_0
 62
     7
100
AcDbCircle
 10
1698.927916023021
 20
181.0365350057968
 30
0.0
 40
8.202547499263175
100
AcDbArc
 50
269.9979730000275
 51
0.0020269999985907
  0
LINE
  5
EE6
330
1F
100
AcDbEntity
  8
AM_0
 62
     7
100
AcDbLine
 10
1707.130463522284
 20
181.0368260367771
 30
0.0
 11
1707.130463522284
 21
236.5456166563361
 31
0.0
  0
ARC
  5
EE7
330
1F
100
AcDbEntity
  8
AM_0
 62
     7
100
AcDbCircle
 10
1698.927577797828
 20
236.5459649945757
 30
0.0
 40
8.202885724456685
100
AcDbArc
 50
359.997568000006
 51
89.99966299998954
  0
LINE
  5
EE8
330
1F
100
AcDbEntity
  8
AM_0
 62
     7
100
AcDbLine
 10
1698.927626115712
 20
244.7488507190322
 30
0.0
 11
1546.782481612589
 21
244.7488507190322
 31
0.0
  0
ARC
  5
EE9
330
1F
100
AcDbEntity
  8
AM_0
 62
     7
100
AcDbCircle
 10
1546.782783880287
 20
236.5457110447625
 30
0.0
 40
8.203139674269749
100
AcDbArc
 50
90.00210899998343
 51
180.0006600000013
  0
LINE
  5
EEA
330
1F
100
AcDbEntity
  8
AM_0
 62
     7
100
AcDbLine
 10
1538.579644206017
 20
236.5456166563361
 30
0.0
 11
1538.579644206017
 21
181.0368260367771
 31
0.0
  0
TEXT
  5
EEB
330
1F
100
AcDbEntity
  8
6
100
AcDbText
 10
1564.163467729777
 20
130.4732404251998
 30
0.0
 40
15.16956847968031
  1
59227 Ahlen
 72
     1
 11
1621.350753815174
 21
130.4732404251998
 31
0.0
100
AcDbText
  0
TEXT
  5
EEC
330
1F
100
AcDbEntity
  8
6
100
AcDbText
 10
1511.57921428618
 20
151.7556117251954
 30
0.0
 40
15.16956847968031
  1
Reflex Winkelmann GmbH
 41
0.95
 72
     1
 11
1621.103498709472
 21
151.7556117251954
 31
0.0
100
AcDbText
  0
MTEXT
  5
EED
330
1F
100
AcDbEntity
  8
0
100
AcDbMText
 10
885.6812697580917
 20
235.5785331884061
 30
0.0
 40
20.0
 41
755.7740133808063
 71
     1
 72
     5
  1
Exvoid
 73
     1
 44
1.0
  0
MTEXT
  5
EEE
330
1F
100
AcDbEntity
  8
0
100
AcDbMText
 10
847.2536405379033
 20
203.1663662126194
 30
0.0
 40
20.0
 41
755.7740133808063
 71
     1
 72
     5
  1
{\Fisocp,bigfont|c238;Typ } A 114,3
 73
     1
 44
1.0
  0
MTEXT
  5
EEF
330
1F
100
AcDbEntity
  8
0
100
AcDbMText
 10
845.5705999424786
 20
173.339038931777
 30
0.0
 40
20.0
 41
755.7740133808063
 71
     1
 72
     5
  1
10{\Fisocp,bigfont|c238;bar - }110{\Fisocp,bigfont|c238;%%DC}
 73
     1
 44
1.0
  0
DIMENSION
  5
F0C
102
{ACAD_XDICTIONARY
360
F19
102
}
102
{ACAD_REACTORS
330
F1A
102
}
330
1F
100
AcDbEntity
  8
AM_5
100
AcDbDimension
  2
*D18
 10
911.5703144799606
 20
1152.018861361228
 30
0.0
 11
911.5703144799605
 21
792.9322517899856
 31
0.0
 70
   160
  1
(<>)
 71
     5
 42
718.1732191424854
  3
AM_DIN$0
100
AcDbAlignedDimension
 13
670.4079982640562
 23
433.8456422187427
 33
0.0
 14
694.2247452005135
 24
1152.018861361228
 34
0.0
 50
90.0
100
AcDbRotatedDimension
1001
ACAD
1000
DSTYLE
1002
{
1070
    40
1040
2.0
1070
   271
1070
     0
1002
}
  0
DIMENSION
  5
F24
102
{ACAD_XDICTIONARY
360
F31
102
}
102
{ACAD_REACTORS
330
F32
102
}
330
1F
100
AcDbEntity
  8
AM_5
100
AcDbDimension
  2
*D19
 10
882.3697350846053
 20
601.8456422187429
 30
0.0
 11
882.369735084605
 21
517.845642218743
 31
0.0
 70
   160
  1
(<>)
 71
     5
 42
168.0000000000002
  3
AM_DIN$0
100
AcDbAlignedDimension
 13
662.1549465062437
 23
433.8456422187427
 33
0.0
 14
791.9808589711591
 24
601.845642218743
 34
0.0
 50
90.0
100
AcDbRotatedDimension
1001
ACAD
1000
DSTYLE
1002
{
1070
    40
1040
2.0
1002
}
  0
DIMENSION
  5
10DC
102
{ACAD_XDICTIONARY
360
10E9
102
}
102
{ACAD_REACTORS
330
10EA
102
}
330
1F
100
AcDbEntity
  8
AM_5
100
AcDbDimension
  2
*D21
 10
1085.407998264056
 20
726.6294941238081
 30
0.0
 11
1270.407998264056
 21
733.4794941238081
 31
0.0
 70
    32
  1
(<>)
 71
     5
 42
370.0
  3
AM_DIN$0
100
AcDbAlignedDimension
 13
1455.407998264056
 23
571.0197402724097
 33
0.0
 14
1085.407998264056
 24
573.3398444218795
 34
0.0
 50
360.0
100
AcDbRotatedDimension
1001
ACAD
1000
DSTYLE
1002
{
1070
    40
1040
2.0
1002
}
  0
ENDSEC
  0
SECTION
  2
OBJECTS
  0
DICTIONARY
  5
C
330
0
100
AcDbDictionary
281
     1
  3
ACAD_COLOR
350
BE
  3
ACAD_GROUP
350
D
  3
ACAD_LAYOUT
350
1A
  3
ACAD_MATERIAL
350
BD
  3
ACAD_MLINESTYLE
350
17
  3
ACAD_PLOTSETTINGS
350
19
  3
ACAD_PLOTSTYLENAME
350
E
  3
ACAD_TABLESTYLE
350
11A
  3
ACAD_VISUALSTYLE
350
258
  3
AcDbVariableDictionary
350
94
  3
AcmDictionary
350
5B
  3
AMG
350
41
  3
AMGSNAPSETTINGS
350
1B3
  0
DICTIONARY
  5
5B6
330
2
100
AcDbDictionary
280
     1
281
     1
  3
ACAD_LAYERSTATES
360
5B7
  0
DICTIONARY
  5
8F
330
1F
100
AcDbDictionary
280
     1
281
     1
  0
DICTIONARY
  5
2C9
330
2C8
100
AcDbDictionary
280
     1
281
     1
  0
DICTIONARY
  5
F19
330
F0C
100
AcDbDictionary
280
     1
281
     1
  3
ACAD_DIMASSOC
360
F1A
  0
DICTIONARY
  5
F31
330
F24
100
AcDbDictionary
280
     1
281
     1
  3
ACAD_DIMASSOC
360
F32
  0
DICTIONARY
  5
10E9
330
10DC
100
AcDbDictionary
280
     1
281
     1
  3
ACAD_DIMASSOC
360
10EA
  0
DICTIONARY
  5
BE
102
{ACAD_REACTORS
330
C
102
}
330
C
100
AcDbDictionary
281
     1
  0
DICTIONARY
  5
D
102
{ACAD_REACTORS
330
C
102
}
330
C
100
AcDbDictionary
281
     1
  0
DICTIONARY
  5
1A
102
{ACAD_REACTORS
330
C
102
}
330
C
100
AcDbDictionary
281
     1
  3
Layout1
350
1E
  3
Layout2
350
26
  3
Model
350
22
  0
DICTIONARY
  5
BD
102
{ACAD_REACTORS
330
C
102
}
330
C
100
AcDbDictionary
281
     1
  3
ByBlock
350
256
  3
ByLayer
350
255
  3
Global
350
257
  0
DICTIONARY
  5
17
102
{ACAD_REACTORS
330
C
102
}
330
C
100
AcDbDictionary
281
     1
  3
Standard
350
18
  0
DICTIONARY
  5
19
102
{ACAD_REACTORS
330
C
102
}
330
C
100
AcDbDictionary
281
     1
  0
ACDBDICTIONARYWDFLT
  5
E
102
{ACAD_REACTORS
330
C
102
}
330
C
100
AcDbDictionary
281
     1
  3
Normal
350
F
100
AcDbDictionaryWithDefault
340
F
  0
DICTIONARY
  5
11A
102
{ACAD_REACTORS
330
C
102
}
330
C
100
AcDbDictionary
281
     1
  3
Standard
350
11B
  0
DICTIONARY
  5
258
102
{ACAD_REACTORS
330
C
102
}
330
C
100
AcDbDictionary
281
     1
  3
2dWireframe
350
25E
  3
3D Hidden
350
260
  3
3dWireframe
350
25F
  3
Basic
350
25D
  3
Brighten
350
264
  3
ColorChange
350
268
  3
Conceptual
350
261
  3
Dim
350
263
  3
Facepattern
350
267
  3
Flat
350
259
  3
FlatWithEdges
350
25A
  3
Gouraud
350
25B
  3
GouraudWithEdges
350
25C
  3
Linepattern
350
266
  3
Realistic
350
262
  3
Thicken
350
265
  0
DICTIONARY
  5
94
102
{ACAD_REACTORS
330
C
102
}
330
C
100
AcDbDictionary
281
     1
  3
CTABLESTYLE
350
138
  3
DIMASSOC
350
96
  3
INDEXCTL
350
95
  0
DICTIONARY
  5
5B
102
{ACAD_REACTORS
330
C
102
}
330
C
100
AcDbDictionary
281
     1
  3
AcmBOM
350
1B0
  3
AcmStdDictionary
350
61
  3
AMDTSECTSYM_ARROWCOLOR
350
123
  0
DICTIONARY
  5
41
102
{ACAD_REACTORS
330
C
102
}
330
C
100
AcDbDictionary
281
     1
  0
DICTIONARY
  5
1B3
102
{ACAD_REACTORS
330
C
102
}
330
C
100
AcDbDictionary
281
     1
  0
DICTIONARY
  5
5B7
102
{ACAD_REACTORS
330
5B6
102
}
330
5B6
100
AcDbDictionary
281
     1
  0
DIMASSOC
  5
F1A
102
{ACAD_REACTORS
330
F19
102
}
330
F19
100
AcDbDimAssoc
330
F0C
 90
        3
 70
     0
 71
     0
  1
AcDbOsnapPointRef
 72
     2
331
E29
 73
     0
 91
        0
 40
0.0
 10
0.0
 20
0.0
 30
0.0
 75
     0
  1
AcDbOsnapPointRef
 72
    10
331
DFD
 73
     0
 91
        0
 40
0.7466066274638649
 10
0.0
 20
0.0
 30
0.0
 75
     0
  0
DIMASSOC
  5
F32
102
{ACAD_REACTORS
330
F31
102
}
330
F31
100
AcDbDimAssoc
330
F24
 90
        3
 70
     0
 71
     0
  1
AcDbOsnapPointRef
 72
     2
331
E79
 73
     0
 91
        0
 40
0.0
 10
0.0
 20
0.0
 30
0.0
 75
     0
  1
AcDbOsnapPointRef
 72
    10
331
810
 73
     0
 91
        0
 40
0.5799893191068816
 10
0.0
 20
0.0
 30
0.0
 75
     0
  0
DIMASSOC
  5
10EA
102
{ACAD_REACTORS
330
10E9
102
}
330
10E9
100
AcDbDimAssoc
330
10DC
 90
        3
 70
     0
 71
     0
  1
AcDbOsnapPointRef
 72
    10
331
88B
 73
     0
 91
        0
 40
0.2496959506439468
 10
0.0
 20
0.0
 30
0.0
 75
     0
  1
AcDbOsnapPointRef
 72
    10
331
885
 73
     0
 91
        0
 40
0.2699943246550562
 10
0.0
 20
0.0
 30
0.0
 75
     0
  0
LAYOUT
  5
1E
102
{ACAD_REACTORS
330
1A
102
}
330
1A
100
AcDbPlotSettings
  1

  2

  4

  6

 40
0.0
 41
0.0
 42
0.0
 43
0.0
 44
0.0
 45
0.0
 46
0.0
 47
0.0
 48
0.0
 49
0.0
140
0.0
141
0.0
142
1.0
143
1.0
 70
   688
 72
     0
 73
     0
 74
     5
  7
monochrome.ctb
 75
    16
147
1.0
 76
     0
 77
     2
 78
   300
148
0.0
149
0.0
100
AcDbLayout
  1
Layout1
 70
     1
 71
     1
 10
0.0
 20
0.0
 11
420.0
 21
297.0
 12
0.0
 22
0.0
 32
0.0
 14
1.000000000000000E+20
 24
1.000000000000000E+20
 34
1.000000000000000E+20
 15
-1.000000000000000E+20
 25
-1.000000000000000E+20
 35
-1.000000000000000E+20
146
0.0
 13
0.0
 23
0.0
 33
0.0
 16
1.0
 26
0.0
 36
0.0
 17
0.0
 27
1.0
 37
0.0
 76
     0
330
1B
  0
LAYOUT
  5
26
102
{ACAD_REACTORS
330
1A
102
}
330
1A
100
AcDbPlotSettings
  1

  2

  4

  6

 40
0.0
 41
0.0
 42
0.0
 43
0.0
 44
0.0
 45
0.0
 46
0.0
 47
0.0
 48
0.0
 49
0.0
140
0.0
141
0.0
142
1.0
143
1.0
 70
   688
 72
     0
 73
     0
 74
     5
  7
monochrome.ctb
 75
    16
147
1.0
 76
     0
 77
     2
 78
   300
148
0.0
149
0.0
100
AcDbLayout
  1
Layout2
 70
     1
 71
     2
 10
0.0
 20
0.0
 11
12.0
 21
9.0
 12
0.0
 22
0.0
 32
0.0
 14
0.0
 24
0.0
 34
0.0
 15
0.0
 25
0.0
 35
0.0
146
0.0
 13
0.0
 23
0.0
 33
0.0
 16
1.0
 26
0.0
 36
0.0
 17
0.0
 27
1.0
 37
0.0
 76
     0
330
23
  0
LAYOUT
  5
22
102
{ACAD_REACTORS
330
1A
102
}
330
1A
100
AcDbPlotSettings
  1

  2
none_device
  4
ISO_A4_(210.00_x_297.00_MM)
  6

 40
7.5
 41
20.0
 42
7.5
 43
20.0
 44
210.0
 45
297.0
 46
0.0
 47
0.0
 48
0.0
 49
0.0
140
0.0
141
0.0
142
1.0
143
11.33147083446405
 70
 11952
 72
     1
 73
     1
 74
     0
  7
monochrome.ctb
 75
     0
147
0.0882497969247341
 76
     0
 77
     2
 78
   300
148
452.8219169109362
149
30.50641861108113
100
AcDbLayout
  1
Model
 70
     1
 71
     0
 10
0.0
 20
0.0
 11
12.0
 21
9.0
 12
0.0
 22
0.0
 32
0.0
 14
0.0
 24
0.0
 34
0.0
 15
0.0
 25
0.0
 35
0.0
146
0.0
 13
0.0
 23
0.0
 33
0.0
 16
1.0
 26
0.0
 36
0.0
 17
0.0
 27
1.0
 37
0.0
 76
     0
330
1F
331
253
1001
ACAD_PSEXT
1000
Kein
1000
Kein
1000
Nicht anwendbar
1000
Das Layout wird erst geplottet, wenn ein neuer Plotter-Konfigurationsname ausgewählt wird.
1070
     0
  0
MATERIAL
  5
256
102
{ACAD_XDICTIONARY
360
101B
102
}
102
{ACAD_REACTORS
330
BD
102
}
330
BD
100
AcDbMaterial
  1
ByBlock
  0
MATERIAL
  5
255
102
{ACAD_XDICTIONARY
360
1019
102
}
102
{ACAD_REACTORS
330
BD
102
}
330
BD
100
AcDbMaterial
  1
ByLayer
  0
MATERIAL
  5
257
102
{ACAD_XDICTIONARY
360
101D
102
}
102
{ACAD_REACTORS
330
BD
102
}
330
BD
100
AcDbMaterial
  1
Global
  0
MLINESTYLE
  5
18
102
{ACAD_REACTORS
330
17
102
}
330
17
100
AcDbMlineStyle
  2
STANDARD
 70
     0
  3

 62
   256
 51
90.0
 52
90.0
 71
     2
 49
0.5
 62
   256
  6
BYLAYER
 49
-0.5
 62
   256
  6
BYLAYER
  0
ACDBPLACEHOLDER
  5
F
102
{ACAD_REACTORS
330
E
102
}
330
E
  0
TABLESTYLE
  5
11B
102
{ACAD_XDICTIONARY
360
110E
102
}
102
{ACAD_REACTORS
330
11A
102
}
330
11A
100
AcDbTableStyle
  3
Standard
 70
     0
 71
     0
 40
1.5
 41
1.5
280
     0
281
     0
  7
Standard
140
4.5
170
     2
 62
     0
 63
     7
283
     0
274
    -2
284
     1
 64
     0
275
    -2
285
     1
 65
     0
276
    -2
286
     1
 66
     0
277
    -2
287
     1
 67
     0
278
    -2
288
     1
 68
     0
279
    -2
289
     1
 69
     0
  7
Standard
140
6.0
170
     5
 62
     0
 63
     7
283
     0
274
    -2
284
     1
 64
     0
275
    -2
285
     1
 65
     0
276
    -2
286
     1
 66
     0
277
    -2
287
     1
 67
     0
278
    -2
288
     1
 68
     0
279
    -2
289
     1
 69
     0
  7
Standard
140
4.5
170
     5
 62
     0
 63
     7
283
     0
274
    -2
284
     1
 64
     0
275
    -2
285
     1
 65
     0
276
    -2
286
     1
 66
     0
277
    -2
287
     1
 67
     0
278
    -2
288
     1
 68
     0
279
    -2
289
     1
 69
     0
  0
VISUALSTYLE
  5
25E
102
{ACAD_REACTORS
330
258
102
}
330
258
100
AcDbVisualStyle
  2
2dWireframe
 70
     4
 71
     0
 72
     2
 73
     0
 90
        0
 40
-0.6
 41
-30.0
 62
     5
 63
     7
421
 16777215
 74
     1
 91
        4
 64
     7
 65
   257
 75
     1
175
     1
 42
1.0
 92
        0
 66
   257
 43
1.0
 76
     1
 77
     6
 78
     2
 67
     7
 79
     5
170
     0
171
     0
290
     0
174
     0
 93
        1
 44
0.0
173
     0
291
     0
 45
0.0
1001
ACAD
1000
AcDbSavedByObjectVersion
1070
     0
1000
AcDbSavedByObjectVersion
1070
     0
  0
VISUALSTYLE
  5
260
102
{ACAD_REACTORS
330
258
102
}
330
258
100
AcDbVisualStyle
  2
3D Hidden
 70
     6
 71
     1
 72
     2
 73
     2
 90
        0
 40
-0.6
 41
-30.0
 62
     5
 63
     7
421
 16777215
 74
     2
 91
        2
 64
     7
 65
   257
 75
     2
175
     1
 42
40.0
 92
        0
 66
   257
 43
1.0
 76
     1
 77
     6
 78
     2
 67
     7
 79
     3
170
     0
171
     0
290
     0
174
     0
 93
        1
 44
0.0
173
     0
291
     0
 45
0.0
1001
ACAD
1000
AcDbSavedByObjectVersion
1070
     0
1000
AcDbSavedByObjectVersion
1070
     0
  0
VISUALSTYLE
  5
25F
102
{ACAD_REACTORS
330
258
102
}
330
258
100
AcDbVisualStyle
  2
3dWireframe
 70
     5
 71
     0
 72
     2
 73
     0
 90
        0
 40
-0.6
 41
-30.0
 62
     5
 63
     7
421
 16777215
 74
     1
 91
        4
 64
     7
 65
   257
 75
     1
175
     1
 42
1.0
 92
        0
 66
   257
 43
1.0
 76
     1
 77
     6
 78
     2
 67
     7
 79
     5
170
     0
171
     0
290
     0
174
     0
 93
        1
 44
0.0
173
     0
291
     0
 45
0.0
1001
ACAD
1000
AcDbSavedByObjectVersion
1070
     0
1000
AcDbSavedByObjectVersion
1070
     0
  0
VISUALSTYLE
  5
25D
102
{ACAD_REACTORS
330
258
102
}
330
258
100
AcDbVisualStyle
  2
Basic
 70
     7
 71
     1
 72
     0
 73
     1
 90
        0
 40
-0.6
 41
-30.0
 62
     5
 63
     7
421
 16777215
 74
     0
 91
        4
 64
     7
 65
   257
 75
     1
175
     1
 42
1.0
 92
        8
 66
     7
 43
1.0
 76
     1
 77
     6
 78
     2
 67
     7
 79
     5
170
     0
171
     0
290
     0
174
     0
 93
        1
 44
0.0
173
     0
291
     1
 45
0.0
1001
ACAD
1000
AcDbSavedByObjectVersion
1070
     0
1000
AcDbSavedByObjectVersion
1070
     0
  0
VISUALSTYLE
  5
264
102
{ACAD_REACTORS
330
258
102
}
330
258
100
AcDbVisualStyle
  2
Brighten
 70
    12
 71
     2
 72
     2
 73
     0
 90
        0
 40
-0.6
 41
-30.0
 62
     5
 63
     7
421
 16777215
 74
     1
 91
        4
 64
     7
 65
   257
 75
     1
175
     1
 42
1.0
 92
        8
 66
     7
 43
1.0
 76
     1
 77
     6
 78
     2
 67
     7
 79
     5
170
     0
171
     0
290
     0
174
     0
 93
        1
 44
50.0
173
     0
291
     1
 45
0.0
1001
ACAD
1000
AcDbSavedByObjectVersion
1070
     0
1000
AcDbSavedByObjectVersion
1070
     0
  0
VISUALSTYLE
  5
268
102
{ACAD_REACTORS
330
258
102
}
330
258
100
AcDbVisualStyle
  2
ColorChange
 70
    16
 71
     2
 72
     2
 73
     3
 90
        0
 40
-0.6
 41
-30.0
 62
     5
 63
     8
421
  8421504
 74
     1
 91
        4
 64
     7
 65
   257
 75
     1
175
     1
 42
1.0
 92
        8
 66
     8
424
  8421504
 43
1.0
 76
     1
 77
     6
 78
     2
 67
     7
 79
     5
170
     0
171
     0
290
     0
174
     0
 93
        1
 44
0.0
173
     0
291
     1
 45
0.0
1001
ACAD
1000
AcDbSavedByObjectVersion
1070
     0
1000
AcDbSavedByObjectVersion
1070
     0
  0
VISUALSTYLE
  5
261
102
{ACAD_REACTORS
330
258
102
}
330
258
100
AcDbVisualStyle
  2
Conceptual
 70
     9
 71
     3
 72
     2
 73
     0
 90
        0
 40
-0.6
 41
-30.0
 62
     5
 63
     7
421
 16777215
 74
     2
 91
        2
 64
     7
 65
   257
 75
     1
175
     1
 42
40.0
 92
        8
 66
     7
 43
1.0
 76
     1
 77
     6
 78
     2
 67
     7
 79
     3
170
     0
171
     0
290
     0
174
     0
 93
        1
 44
0.0
173
     0
291
     0
 45
0.0
1001
ACAD
1000
AcDbSavedByObjectVersion
1070
     0
1000
AcDbSavedByObjectVersion
1070
     0
  0
VISUALSTYLE
  5
263
102
{ACAD_REACTORS
330
258
102
}
330
258
100
AcDbVisualStyle
  2
Dim
 70
    11
 71
     2
 72
     2
 73
     0
 90
        0
 40
-0.6
 41
-30.0
 62
     5
 63
     7
421
 16777215
 74
     1
 91
        4
 64
     7
 65
   257
 75
     1
175
     1
 42
1.0
 92
        8
 66
     7
 43
1.0
 76
     1
 77
     6
 78
     2
 67
     7
 79
     5
170
     0
171
     0
290
     0
174
     0
 93
        1
 44
-50.0
173
     0
291
     1
 45
0.0
1001
ACAD
1000
AcDbSavedByObjectVersion
1070
     0
1000
AcDbSavedByObjectVersion
1070
     0
  0
VISUALSTYLE
  5
267
102
{ACAD_REACTORS
330
258
102
}
330
258
100
AcDbVisualStyle
  2
Facepattern
 70
    15
 71
     2
 72
     2
 73
     0
 90
        0
 40
-0.6
 41
-30.0
 62
     5
 63
     7
421
 16777215
 74
     1
 91
        4
 64
     7
 65
   257
 75
     1
175
     1
 42
1.0
 92
        8
 66
     7
 43
1.0
 76
     1
 77
     6
 78
     2
 67
     7
 79
     5
170
     0
171
     0
290
     0
174
     0
 93
        1
 44
0.0
173
     0
291
     1
 45
0.0
1001
ACAD
1000
AcDbSavedByObjectVersion
1070
     0
1000
AcDbSavedByObjectVersion
1070
     0
  0
VISUALSTYLE
  5
259
102
{ACAD_REACTORS
330
258
102
}
330
258
100
AcDbVisualStyle
  2
Flat
 70
     0
 71
     2
 72
     1
 73
     1
 90
        2
 40
-0.6
 41
30.0
 62
     5
 63
     7
421
 16777215
 74
     0
 91
        4
 64
     7
 65
   257
 75
     1
175
     1
 42
1.0
 92
        8
 66
     7
 43
1.0
 76
     1
 77
     6
 78
     2
 67
     7
 79
     5
170
     0
171
     0
290
     0
174
     0
 93
       13
 44
0.0
173
     0
291
     1
 45
0.0
1001
ACAD
1000
AcDbSavedByObjectVersion
1070
     0
1000
AcDbSavedByObjectVersion
1070
     0
  0
VISUALSTYLE
  5
25A
102
{ACAD_REACTORS
330
258
102
}
330
258
100
AcDbVisualStyle
  2
FlatWithEdges
 70
     1
 71
     2
 72
     1
 73
     1
 90
        2
 40
-0.6
 41
30.0
 62
     5
 63
     7
421
 16777215
 74
     1
 91
        4
 64
     7
 65
   257
 75
     1
175
     1
 42
1.0
 92
        0
 66
   257
 43
1.0
 76
     1
 77
     6
 78
     2
 67
     7
 79
     5
170
     0
171
     0
290
     0
174
     0
 93
       13
 44
0.0
173
     0
291
     1
 45
0.0
1001
ACAD
1000
AcDbSavedByObjectVersion
1070
     0
1000
AcDbSavedByObjectVersion
1070
     0
  0
VISUALSTYLE
  5
25B
102
{ACAD_REACTORS
330
258
102
}
330
258
100
AcDbVisualStyle
  2
Gouraud
 70
     2
 71
     2
 72
     2
 73
     1
 90
        2
 40
-0.6
 41
30.0
 62
     5
 63
     7
421
 16777215
 74
     0
 91
        4
 64
     7
 65
   257
 75
     1
175
     1
 42
1.0
 92
        0
 66
     7
 43
1.0
 76
     1
 77
     6
 78
     2
 67
     7
 79
     5
170
     0
171
     0
290
     0
174
     0
 93
       13
 44
0.0
173
     0
291
     1
 45
0.0
1001
ACAD
1000
AcDbSavedByObjectVersion
1070
     0
1000
AcDbSavedByObjectVersion
1070
     0
  0
VISUALSTYLE
  5
25C
102
{ACAD_REACTORS
330
258
102
}
330
258
100
AcDbVisualStyle
  2
GouraudWithEdges
 70
     3
 71
     2
 72
     2
 73
     1
 90
        2
 40
-0.6
 41
30.0
 62
     5
 63
     7
421
 16777215
 74
     1
 91
        4
 64
     7
 65
   257
 75
     1
175
     1
 42
1.0
 92
        0
 66
   257
 43
1.0
 76
     1
 77
     6
 78
     2
 67
     7
 79
     5
170
     0
171
     0
290
     0
174
     0
 93
       13
 44
0.0
173
     0
291
     1
 45
0.0
1001
ACAD
1000
AcDbSavedByObjectVersion
1070
     0
1000
AcDbSavedByObjectVersion
1070
     0
  0
VISUALSTYLE
  5
266
102
{ACAD_REACTORS
330
258
102
}
330
258
100
AcDbVisualStyle
  2
Linepattern
 70
    14
 71
     2
 72
     2
 73
     0
 90
        0
 40
-0.6
 41
-30.0
 62
     5
 63
     7
421
 16777215
 74
     1
 91
        4
 64
     7
 65
   257
 75
     7
175
     7
 42
1.0
 92
        8
 66
     7
 43
1.0
 76
     1
 77
     6
 78
     2
 67
     7
 79
     5
170
     0
171
     0
290
     0
174
     0
 93
        1
 44
0.0
173
     0
291
     1
 45
0.0
1001
ACAD
1000
AcDbSavedByObjectVersion
1070
     0
1000
AcDbSavedByObjectVersion
1070
     0
  0
VISUALSTYLE
  5
262
102
{ACAD_REACTORS
330
258
102
}
330
258
100
AcDbVisualStyle
  2
Realistic
 70
     8
 71
     2
 72
     2
 73
     0
 90
        0
 40
-0.6
 41
-30.0
 62
     5
 63
     7
421
 16777215
 74
     1
 91
        0
 64
     7
 65
   257
 75
     1
175
     1
 42
1.0
 92
        8
 66
     8
424
  7895160
 43
1.0
 76
     1
 77
     6
 78
     2
 67
     7
 79
     5
170
     0
171
     0
290
     0
174
     0
 93
       13
 44
0.0
173
     0
291
     0
 45
0.0
1001
ACAD
1000
AcDbSavedByObjectVersion
1070
     0
1000
AcDbSavedByObjectVersion
1070
     0
  0
VISUALSTYLE
  5
265
102
{ACAD_REACTORS
330
258
102
}
330
258
100
AcDbVisualStyle
  2
Thicken
 70
    13
 71
     2
 72
     2
 73
     0
 90
        0
 40
-0.6
 41
-30.0
 62
     5
 63
     7
421
 16777215
 74
     1
 91
        4
 64
     7
 65
   257
 75
     1
175
     1
 42
1.0
 92
       12
 66
     7
 43
1.0
 76
     1
 77
     6
 78
     2
 67
     7
 79
     5
170
     0
171
     0
290
     0
174
     0
 93
        1
 44
0.0
173
     0
291
     1
 45
0.0
1001
ACAD
1000
AcDbSavedByObjectVersion
1070
     0
1000
AcDbSavedByObjectVersion
1070
     0
  0
DICTIONARYVAR
  5
138
102
{ACAD_REACTORS
330
94
102
}
330
94
100
DictionaryVariables
280
     0
  1
STANDARD
  0
DICTIONARYVAR
  5
96
102
{ACAD_REACTORS
330
94
102
}
330
94
100
DictionaryVariables
280
     0
  1
2
  0
DICTIONARYVAR
  5
95
102
{ACAD_REACTORS
330
94
102
}
330
94
100
DictionaryVariables
280
     0
  1
1
  0
DICTIONARY
  5
1B0
102
{ACAD_REACTORS
330
5B
102
}
330
5B
100
AcDbDictionary
281
     1
  0
DICTIONARY
  5
61
102
{ACAD_REACTORS
330
5B
102
}
330
5B
100
AcDbDictionary
281
     1
  0
XRECORD
  5
123
102
{ACAD_REACTORS
330
5B
102
}
330
5B
100
AcDbXrecord
280
     1
 90
-1023410169
  0
DICTIONARY
  5
101B
330
256
100
AcDbDictionary
280
     1
281
     1
  3
ACAD_XREC_ROUNDTRIP
360
101C
  0
DICTIONARY
  5
1019
330
255
100
AcDbDictionary
280
     1
281
     1
  3
ACAD_XREC_ROUNDTRIP
360
101A
  0
DICTIONARY
  5
101D
330
257
100
AcDbDictionary
280
     1
281
     1
  3
ACAD_XREC_ROUNDTRIP
360
101E
  0
DICTIONARY
  5
110E
330
11B
100
AcDbDictionary
280
     1
281
     1
  3
ACAD_XREC_ROUNDTRIP
360
110F
  0
XRECORD
  5
101C
102
{ACAD_REACTORS
330
101B
102
}
330
101B
100
AcDbXrecord
280
     1
102
MATERIAL
148
0.0
149
0.0
149
0.0
 93
        0
 94
       63
282
     0
 72
     1
 77
     1
171
     1
175
     1
179
     1
273
     0
  0
XRECORD
  5
101A
102
{ACAD_REACTORS
330
1019
102
}
330
1019
100
AcDbXrecord
280
     1
102
MATERIAL
148
0.0
149
0.0
149
0.0
 93
        0
 94
       63
282
     0
 72
     1
 77
     1
171
     1
175
     1
179
     1
273
     0
  0
XRECORD
  5
101E
102
{ACAD_REACTORS
330
101D
102
}
330
101D
100
AcDbXrecord
280
     1
102
MATERIAL
148
0.0
149
0.0
149
0.0
 93
        0
 94
       63
282
     0
 72
     1
 77
     1
171
     1
175
     1
179
     1
273
     0
  0
XRECORD
  5
110F
102
{ACAD_REACTORS
330
110E
102
}
330
110E
100
AcDbXrecord
280
     1
102
ACAD_ROUNDTRIP_PRE2007_TABLESTYLE
 90
        4
 91
        0
  1

 92
        4
 93
        0
  2

 94
        4
 95
        0
  3

  0
ENDSEC
  0
EOF
